999
DXF file: B0000678602.dxf
999
Pro/ENGINEER 2010020 by Parametric Technology Corporation
  0
SECTION
  2
HEADER
  9
$ACADVER
  1
AC1014
  9
$DWGCODEPAGE
  3
ANSI_1252
  9
$EXTMAX
 10
297.0
 20
210.0
 30
0.0
  9
$EXTMIN
 10
0.0
 20
0.0
 30
0.0
  9
$LIMMIN
 10
0.0
 20
0.0
  9
$LIMMAX
 10
297.0
 20
210.0
  9
$VIEWCTR
 10
148.5
 20
105.0
  9
$VIEWSIZE
 40
210.0
  9
$CLAYER
  8
0
  9
$LTSCALE
 40
16.335
  9
$CELTYPE
  6
BYLAYER
  9
$DIMSCALE
 40
1.0
  9
$DIMASZ
 40
3.5
  9
$DIMEXO
 40
1.85625
  9
$DIMDLI
 40
11.286
  9
$DIMEXE
 40
5.346
  9
$DIMCEN
 40
2.673
  9
$DIMLFAC
 40
1.0
  9
$DIMBLK
  1
_ARROW_FILLED
  9
$DIMTXT
 40
3.5
  9
$DIMTOL
 70
1
  9
$DIMLIM
 70
0
  9
$DIMTFAC
 40
1.0
  9
$DIMTP
 40
0.01
  9
$DIMTM
 40
0.01
  9
$PDMODE
 70
3
  9
$PDSIZE
 40
0.3125
  9
$HANDSEED
  5
3F0
  9
$TILEMODE
 70
1
  9
$MEASUREMENT
 70
1
  0
ENDSEC
  0
SECTION
  2
CLASSES
  0
ENDSEC
  0
SECTION
  2
TABLES
  0
TABLE
  2
VPORT
  5
8
100
AcDbSymbolTable
 70
2
  0
VPORT
  5
1F4
100
AcDbSymbolTableRecord
100
AcDbViewportTableRecord
  2
*ACTIVE
 70
0
 10
0.0
 20
0.0
 11
1.0
 21
1.0
 12
148.5
 22
105.0
 13
0.0
 23
0.0
 14
1.0
 24
1.0
 15
0.0
 25
0.0
 16
0.0
 26
0.0
 36
1.0
 17
0.0
 27
0.0
 37
0.0
 40
210.0
 41
1.4142857143
 42
50.0
 43
0.0
 44
0.0
 50
0.0
 51
0.0
 71
0
 72
100
 73
1
 74
1
 75
0
 76
0
 77
0
 78
0
  0
ENDTAB
  0
TABLE
  2
LTYPE
  5
5
100
AcDbSymbolTable
 70
6
  0
LTYPE
  5
14
100
AcDbSymbolTableRecord
100
AcDbLinetypeTableRecord
  2
BYBLOCK
 70
0
  3

 72
65
 73
0
 40
0.0
  0
LTYPE
  5
15
100
AcDbSymbolTableRecord
100
AcDbLinetypeTableRecord
  2
BYLAYER
 70
0
  3

 72
65
 73
0
 40
0.0
  0
LTYPE
  5
16
100
AcDbSymbolTableRecord
100
AcDbLinetypeTableRecord
  2
CONTINUOUS
 70
64
  3
Solid line
 72
65
 73
0
 40
0.0
  0
LTYPE
  5
1F5
100
AcDbSymbolTableRecord
100
AcDbLinetypeTableRecord
  2
CENTER
 70
64
  3
____ _ ____ _ ____ _ ____ _ ____ _ ____ _ ____
 72
65
 73
4
 40
0.6
 49
0.375
 74
0
 49
-0.075
 74
0
 49
0.075
 74
0
 49
-0.075
 74
0
  0
LTYPE
  5
1F6
100
AcDbSymbolTableRecord
100
AcDbLinetypeTableRecord
  2
HIDDEN
 70
64
  3
- - - - - - - - - - - - - - - - - - - -
 72
65
 73
2
 40
0.2
 49
0.1
 74
0
 49
-0.1
 74
0
  0
LTYPE
  5
1F7
100
AcDbSymbolTableRecord
100
AcDbLinetypeTableRecord
  2
PHANTOM
 70
64
  3
_____ _ _ _____ _ _ _____ _ _ _____
 72
65
 73
6
 40
0.8
 49
0.45
 74
0
 49
-0.05
 74
0
 49
0.1
 74
0
 49
-0.05
 74
0
 49
0.1
 74
0
 49
-0.05
 74
0
  0
LTYPE
  5
1F8
100
AcDbSymbolTableRecord
100
AcDbLinetypeTableRecord
  2
DOT
 70
64
  3
. . . . . . . . . . . . . . . . . . . .
 72
65
 73
2
 40
0.2
 49
0.1
 74
0
 49
-0.1
 74
0
  0
LTYPE
  5
1F9
100
AcDbSymbolTableRecord
100
AcDbLinetypeTableRecord
  2
DASHED
 70
64
  3
- - - - - - - - - - - - - - - - - - - -
 72
65
 73
2
 40
0.2
 49
0.1
 74
0
 49
-0.1
 74
0
  0
ENDTAB
  0
TABLE
  2
LAYER
  5
2
100
AcDbSymbolTable
 70
36
  0
LAYER
  5
10
100
AcDbSymbolTableRecord
100
AcDbLayerTableRecord
  2
0
 70
0
 62
7
  6
CONTINUOUS
  0
LAYER
  5
1FA
100
AcDbSymbolTableRecord
100
AcDbLayerTableRecord
  2
DEFAULT_1
 70
0
 62
7
  6
CENTER
  0
LAYER
  5
1FB
100
AcDbSymbolTableRecord
100
AcDbLayerTableRecord
  2
DEFAULT_2
 70
0
 62
8
  6
HIDDEN
  0
LAYER
  5
1FC
100
AcDbSymbolTableRecord
100
AcDbLayerTableRecord
  2
DEFAULT_3
 70
0
 62
7
  6
PHANTOM
  0
LAYER
  5
1FD
100
AcDbSymbolTableRecord
100
AcDbLayerTableRecord
  2
ASSI
 70
0
 62
7
  6
CONTINUOUS
  0
LAYER
  5
1FE
100
AcDbSymbolTableRecord
100
AcDbLayerTableRecord
  2
PIANI
 70
0
 62
7
  6
CONTINUOUS
  0
ENDTAB
  0
TABLE
  2
STYLE
  5
3
100
AcDbSymbolTable
 70
1
  0
STYLE
  5
11
100
AcDbSymbolTableRecord
100
AcDbTextStyleTableRecord
  2
STANDARD
 70
0
 40
0.0
 41
1.0
 50
0.0
 71
0
 42
0.2
  3
arial.ttf
  4

  0
STYLE
  5
1FF
100
AcDbSymbolTableRecord
100
AcDbTextStyleTableRecord
  2
TEXTSTYLE_1
 70
0
 40
0.0
 41
0.8
 50
0.0
 71
0
 42
0.2
  3
gdt
  4

  0
ENDTAB
  0
TABLE
  2
VIEW
  5
6
100
AcDbSymbolTable
 70
0
  0
ENDTAB
  0
TABLE
  2
UCS
  5
7
100
AcDbSymbolTable
 70
0
  0
ENDTAB
  0
TABLE
  2
APPID
  5
9
100
AcDbSymbolTable
 70
1
  0
APPID
  5
200
100
AcDbSymbolTableRecord
100
AcDbRegAppTableRecord
  2
ACAD
 70
0
  0
ENDTAB
  0
TABLE
  2
BLOCK_RECORD
  5
1
100
AcDbSymbolTable
 70
0
  0
BLOCK_RECORD
  5
1F
100
AcDbSymbolTableRecord
100
AcDbBlockTableRecord
  2
*MODEL_SPACE
  0
BLOCK_RECORD
  5
1B
100
AcDbSymbolTableRecord
100
AcDbBlockTableRecord
  2
*PAPER_SPACE
  0
BLOCK_RECORD
  5
201
100
AcDbSymbolTableRecord
100
AcDbBlockTableRecord
  2
_ARROW_FILLED
  0
BLOCK_RECORD
  5
202
100
AcDbSymbolTableRecord
100
AcDbBlockTableRecord
  2
*D0
  0
BLOCK_RECORD
  5
203
100
AcDbSymbolTableRecord
100
AcDbBlockTableRecord
  2
*D1
  0
BLOCK_RECORD
  5
204
100
AcDbSymbolTableRecord
100
AcDbBlockTableRecord
  2
*D2
  0
BLOCK_RECORD
  5
205
100
AcDbSymbolTableRecord
100
AcDbBlockTableRecord
  2
*D3
  0
BLOCK_RECORD
  5
206
100
AcDbSymbolTableRecord
100
AcDbBlockTableRecord
  2
*D4
  0
BLOCK_RECORD
  5
207
100
AcDbSymbolTableRecord
100
AcDbBlockTableRecord
  2
*D5
  0
BLOCK_RECORD
  5
208
100
AcDbSymbolTableRecord
100
AcDbBlockTableRecord
  2
*D6
  0
ENDTAB
  0
TABLE
  2
DIMSTYLE
  5
A
100
AcDbSymbolTable
 70
1
  0
DIMSTYLE
105
209
100
AcDbSymbolTableRecord
100
AcDbDimStyleTableRecord
  2
STANDARD
 70
0
  3

  4

  5
_ARROW_FILLED
  6
_ARROW_FILLED
  7
_ARROW_FILLED
 40
1.0
 41
3.5
 42
0.0625
 43
0.38
 44
0.18
 45
0.0
 46
0.0
 47
0.01
 48
0.01
140
3.5
141
0.09
142
0.0
143
25.4
144
1.0
145
0.0
146
1.0
147
0.09
 71
1.0
 72
0.0
 73
0
 74
0
 75
0
 76
0
 77
1
 78
8
170
0
171
2
172
0
173
0
174
0
175
0
176
0
177
0
178
0
270
2
271
2
272
2
273
2
274
2
275
0
280
0
281
0
282
0
283
1
284
8
285
0
286
0
287
3
288
0
340
11
  0
DIMSTYLE
105
20A
100
AcDbSymbolTableRecord
100
AcDbDimStyleTableRecord
  2
DIMSTYLE_1
 70
0
  3

  4

  5
_ARROW_FILLED
  6
_ARROW_FILLED
  7
_ARROW_FILLED
 40
1.0
 41
3.5
 42
0.0625
 43
0.38
 44
0.18
 45
0.0
 46
0.0
 47
0.2
 48
0.2
140
3.5
141
0.09
142
0.0
143
25.4
144
1.0
145
0.0
146
1.0
147
0.09
 71
0.0
 72
0.0
 73
0
 74
0
 75
0
 76
0
 77
1
 78
8
170
0
171
2
172
0
173
0
174
0
175
0
176
0
177
0
178
0
270
2
271
2
272
2
273
2
274
2
275
0
280
0
281
0
282
0
283
1
284
8
285
0
286
0
287
3
288
0
340
11
  0
DIMSTYLE
105
20B
100
AcDbSymbolTableRecord
100
AcDbDimStyleTableRecord
  2
DIMSTYLE_2
 70
0
  3

  4

  5
_ARROW_FILLED
  6
_ARROW_FILLED
  7
_ARROW_FILLED
 40
1.0
 41
3.5
 42
0.0625
 43
0.38
 44
0.18
 45
0.0
 46
0.0
 47
0.1
 48
0.1
140
3.5
141
0.09
142
0.0
143
25.4
144
1.0
145
0.0
146
1.0
147
0.09
 71
0.0
 72
0.0
 73
0
 74
0
 75
0
 76
0
 77
1
 78
8
170
0
171
2
172
0
173
0
174
0
175
0
176
0
177
0
178
0
270
2
271
2
272
2
273
2
274
2
275
0
280
0
281
0
282
0
283
1
284
8
285
0
286
0
287
3
288
0
340
11
  0
DIMSTYLE
105
20C
100
AcDbSymbolTableRecord
100
AcDbDimStyleTableRecord
  2
DIMSTYLE_3
 70
0
  3

  4

  5
_ARROW_FILLED
  6
_ARROW_FILLED
  7
_ARROW_FILLED
 40
1.0
 41
3.5
 42
0.0625
 43
0.38
 44
0.18
 45
0.0
 46
0.0
 47
0.15
 48
0.15
140
3.5
141
0.09
142
0.0
143
25.4
144
1.0
145
0.0
146
1.0
147
0.09
 71
0.0
 72
0.0
 73
0
 74
0
 75
0
 76
0
 77
1
 78
8
170
0
171
2
172
0
173
0
174
0
175
0
176
0
177
0
178
0
270
2
271
2
272
2
273
2
274
2
275
0
280
0
281
0
282
0
283
1
284
8
285
0
286
0
287
3
288
0
340
11
  0
DIMSTYLE
105
20D
100
AcDbSymbolTableRecord
100
AcDbDimStyleTableRecord
  2
DIMSTYLE_4
 70
0
  3

  4

  5
_ARROW_FILLED
  6
_ARROW_FILLED
  7
_ARROW_FILLED
 40
1.0
 41
3.5
 42
0.0625
 43
0.38
 44
0.18
 45
0.0
 46
0.0
 47
0.15
 48
0.15
140
3.5
141
0.09
142
0.0
143
25.4
144
1.0
145
0.0
146
1.0
147
0.09
 71
0.0
 72
0.0
 73
0
 74
0
 75
0
 76
0
 77
1
 78
8
170
0
171
2
172
0
173
0
174
0
175
0
176
0
177
0
178
0
270
2
271
1
272
1
273
2
274
2
275
0
280
0
281
0
282
0
283
1
284
8
285
0
286
0
287
3
288
0
340
11
  0
ENDTAB
  0
ENDSEC
  0
SECTION
  2
BLOCKS
  0
BLOCK
  5
20
100
AcDbEntity
  8
0
100
AcDbBlockBegin
  2
*MODEL_SPACE
 70
0
 10
0.0
 20
0.0
 30
0.0
  3
*MODEL_SPACE
  1

  0
ENDBLK
  5
21
100
AcDbEntity
  8
0
100
AcDbBlockEnd
  0
BLOCK
  5
1C
100
AcDbEntity
  8
0
100
AcDbBlockBegin
  2
*PAPER_SPACE
 70
0
 10
0.0
 20
0.0
 30
0.0
  3
*PAPER_SPACE
  1

  0
ENDBLK
  5
1D
100
AcDbEntity
  8
0
100
AcDbBlockEnd
  0
BLOCK
  5
20E
100
AcDbEntity
  8
0
100
AcDbBlockBegin
  2
_ARROW_FILLED
 70
64
 10
0.0
 20
0.0
  3
_ARROW_FILLED
  1

  0
SOLID
  5
20F
100
AcDbEntity
  8
0
  6
BYBLOCK
 62
0
100
AcDbTrace
 10
0.0
 20
0.0
 11
-1.0
 21
0.1857142857
 12
-1.0
 22
-0.1857142857
 13
-1.0
 23
-0.1857142857
  0
ENDBLK
  5
210
100
AcDbEntity
  8
0
  6
BYBLOCK
 62
0
100
AcDbBlockEnd
  0
BLOCK
  5
211
100
AcDbEntity
  8
0
100
AcDbBlockBegin
 62
2
  6
CONTINUOUS
  2
*D0
 70
65
 10
0.0
 20
0.0
  3
*D0
  1

  0
MTEXT
  5
212
100
AcDbEntity
  8
0
100
AcDbMText
 62
2
  6
CONTINUOUS
  7
STANDARD
 71
2
 72
1
 10
105.6969355624
 20
83.1183724705
 30
0.0
 11
1.0
 21
0.0
 31
0.0
  1
128
 40
3.5
 41
8.1579925651
  0
LINE
  5
213
100
AcDbEntity
  8
0
100
AcDbLine
 62
2
  6
CONTINUOUS
 10
41.6969355624
 20
103.5366750736
 11
41.6969355624
 21
77.2433724705
  0
LINE
  5
214
100
AcDbEntity
  8
0
100
AcDbLine
 62
2
  6
CONTINUOUS
 10
169.6969355624
 20
103.5366750736
 11
169.6969355624
 21
77.2433724705
  0
LINE
  5
215
100
AcDbEntity
  8
0
100
AcDbLine
 62
2
  6
CONTINUOUS
 10
41.6969355624
 20
78.7433724705
 11
105.6969355624
 21
78.7433724705
  0
LINE
  5
216
100
AcDbEntity
  8
0
100
AcDbLine
 62
2
  6
CONTINUOUS
 10
169.6969355624
 20
78.7433724705
 11
105.6969355624
 21
78.7433724705
  0
INSERT
  5
217
100
AcDbEntity
  8
0
100
AcDbBlockReference
 62
2
  6
CONTINUOUS
  2
_ARROW_FILLED
 10
41.6969355624
 20
78.7433724705
 41
3.5
 42
3.5
 43
3.5
 50
180.0
  0
INSERT
  5
218
100
AcDbEntity
  8
0
100
AcDbBlockReference
 62
2
  6
CONTINUOUS
  2
_ARROW_FILLED
 10
169.6969355624
 20
78.7433724705
 41
3.5
 42
3.5
 43
3.5
  0
ENDBLK
  5
219
100
AcDbEntity
  8
0
  6
BYBLOCK
 62
0
100
AcDbBlockEnd
  0
BLOCK
  5
21A
100
AcDbEntity
  8
0
100
AcDbBlockBegin
 62
2
  6
CONTINUOUS
  2
*D1
 70
65
 10
0.0
 20
0.0
  3
*D1
  1

  0
MTEXT
  5
21B
100
AcDbEntity
  8
0
100
AcDbMText
 62
2
  6
CONTINUOUS
  7
STANDARD
 71
2
 72
1
 10
27.9376486861
 20
112.5366750736
 30
0.0
 11
0.0
 21
1.0
 31
0.0
  1
17
 40
3.5
 41
5.43866171
  0
LINE
  5
21C
100
AcDbEntity
  8
0
100
AcDbLine
 62
2
  6
CONTINUOUS
 10
45.1969355624
 20
104.0366750736
 11
30.8126486861
 21
104.0366750736
  0
LINE
  5
21D
100
AcDbEntity
  8
0
100
AcDbLine
 62
2
  6
CONTINUOUS
 10
45.1969355624
 20
121.0366750736
 11
30.8126486861
 21
121.0366750736
  0
LINE
  5
21E
100
AcDbEntity
  8
0
100
AcDbLine
 62
2
  6
CONTINUOUS
 10
32.3126486861
 20
104.0366750736
 11
32.3126486861
 21
112.5366750736
  0
LINE
  5
21F
100
AcDbEntity
  8
0
100
AcDbLine
 62
2
  6
CONTINUOUS
 10
32.3126486861
 20
121.0366750736
 11
32.3126486861
 21
112.5366750736
  0
INSERT
  5
220
100
AcDbEntity
  8
0
100
AcDbBlockReference
 62
2
  6
CONTINUOUS
  2
_ARROW_FILLED
 10
32.3126486861
 20
104.0366750736
 41
3.5
 42
3.5
 43
3.5
 50
270.0
  0
INSERT
  5
221
100
AcDbEntity
  8
0
100
AcDbBlockReference
 62
2
  6
CONTINUOUS
  2
_ARROW_FILLED
 10
32.3126486861
 20
121.0366750736
 41
3.5
 42
3.5
 43
3.5
 50
90.0
  0
ENDBLK
  5
222
100
AcDbEntity
  8
0
  6
BYBLOCK
 62
0
100
AcDbBlockEnd
  0
BLOCK
  5
223
100
AcDbEntity
  8
0
100
AcDbBlockBegin
 62
2
  6
CONTINUOUS
  2
*D2
 70
65
 10
0.0
 20
0.0
  3
*D2
  1

  0
MTEXT
  5
224
100
AcDbEntity
  8
0
100
AcDbMText
 62
2
  6
CONTINUOUS
  7
STANDARD
 71
2
 72
1
 10
6.4659499333
 20
137.5366750736
 30
0.0
 11
0.0
 21
1.0
 31
0.0
  1
67
 40
3.5
 41
5.43866171
  0
LINE
  5
225
100
AcDbEntity
  8
0
100
AcDbLine
 62
2
  6
CONTINUOUS
 10
45.1969355624
 20
104.0366750736
 11
9.3409499333
 21
104.0366750736
  0
LINE
  5
226
100
AcDbEntity
  8
0
100
AcDbLine
 62
2
  6
CONTINUOUS
 10
97.7969355624
 20
171.0366750736
 11
9.3409499333
 21
171.0366750736
  0
LINE
  5
227
100
AcDbEntity
  8
0
100
AcDbLine
 62
2
  6
CONTINUOUS
 10
10.8409499333
 20
104.0366750736
 11
10.8409499333
 21
137.5366750736
  0
LINE
  5
228
100
AcDbEntity
  8
0
100
AcDbLine
 62
2
  6
CONTINUOUS
 10
10.8409499333
 20
171.0366750736
 11
10.8409499333
 21
137.5366750736
  0
INSERT
  5
229
100
AcDbEntity
  8
0
100
AcDbBlockReference
 62
2
  6
CONTINUOUS
  2
_ARROW_FILLED
 10
10.8409499333
 20
104.0366750736
 41
3.5
 42
3.5
 43
3.5
 50
270.0
  0
INSERT
  5
22A
100
AcDbEntity
  8
0
100
AcDbBlockReference
 62
2
  6
CONTINUOUS
  2
_ARROW_FILLED
 10
10.8409499333
 20
171.0366750736
 41
3.5
 42
3.5
 43
3.5
 50
90.0
  0
ENDBLK
  5
22B
100
AcDbEntity
  8
0
  6
BYBLOCK
 62
0
100
AcDbBlockEnd
  0
BLOCK
  5
22C
100
AcDbEntity
  8
0
100
AcDbBlockBegin
 62
2
  6
CONTINUOUS
  2
*D3
 70
65
 10
0.0
 20
0.0
  3
*D3
  1

  0
MTEXT
  5
22D
100
AcDbEntity
  8
0
100
AcDbMText
 62
2
  6
CONTINUOUS
  7
STANDARD
 71
2
 72
1
 10
15.1633468965
 20
120.6866750736
 30
0.0
 11
0.0
 21
1.0
 31
0.0
  1
33.3
 40
3.5
 41
9.5111524164
  0
LINE
  5
22E
100
AcDbEntity
  8
0
100
AcDbLine
 62
2
  6
CONTINUOUS
 10
45.1969355624
 20
104.0366750736
 11
18.0383468965
 21
104.0366750736
  0
LINE
  5
22F
100
AcDbEntity
  8
0
100
AcDbLine
 62
2
  6
CONTINUOUS
 10
105.1969355624
 20
137.3366750736
 11
18.0383468965
 21
137.3366750736
  0
LINE
  5
230
100
AcDbEntity
  8
0
100
AcDbLine
 62
2
  6
CONTINUOUS
 10
19.5383468965
 20
104.0366750736
 11
19.5383468965
 21
120.6866750736
  0
LINE
  5
231
100
AcDbEntity
  8
0
100
AcDbLine
 62
2
  6
CONTINUOUS
 10
19.5383468965
 20
137.3366750736
 11
19.5383468965
 21
120.6866750736
  0
INSERT
  5
232
100
AcDbEntity
  8
0
100
AcDbBlockReference
 62
2
  6
CONTINUOUS
  2
_ARROW_FILLED
 10
19.5383468965
 20
104.0366750736
 41
3.5
 42
3.5
 43
3.5
 50
270.0
  0
INSERT
  5
233
100
AcDbEntity
  8
0
100
AcDbBlockReference
 62
2
  6
CONTINUOUS
  2
_ARROW_FILLED
 10
19.5383468965
 20
137.3366750736
 41
3.5
 42
3.5
 43
3.5
 50
90.0
  0
ENDBLK
  5
234
100
AcDbEntity
  8
0
  6
BYBLOCK
 62
0
100
AcDbBlockEnd
  0
BLOCK
  5
235
100
AcDbEntity
  8
0
100
AcDbBlockBegin
 62
2
  6
CONTINUOUS
  2
*D4
 70
65
 10
0.0
 20
0.0
  3
*D4
  1

  0
MTEXT
  5
236
100
AcDbEntity
  8
0
100
AcDbMText
 62
2
  6
CONTINUOUS
  7
STANDARD
 71
2
 72
1
 10
222.5637710141
 20
202.1639934033
 30
0.0
 11
1.0
 21
0.0
 31
0.0
  1
42.4
 40
3.5
 41
9.5111524164
  0
LINE
  5
237
100
AcDbEntity
  8
0
100
AcDbLine
 62
2
  6
CONTINUOUS
 10
201.3737710141
 20
165.3366750736
 11
201.3737710141
 21
199.2889934033
  0
LINE
  5
238
100
AcDbEntity
  8
0
100
AcDbLine
 62
2
  6
CONTINUOUS
 10
243.7537710141
 20
154.4866750736
 11
243.7537710141
 21
199.2889934033
  0
LINE
  5
239
100
AcDbEntity
  8
0
100
AcDbLine
 62
2
  6
CONTINUOUS
 10
201.3737710141
 20
197.7889934033
 11
222.5637710141
 21
197.7889934033
  0
LINE
  5
23A
100
AcDbEntity
  8
0
100
AcDbLine
 62
2
  6
CONTINUOUS
 10
243.7537710141
 20
197.7889934033
 11
222.5637710141
 21
197.7889934033
  0
INSERT
  5
23B
100
AcDbEntity
  8
0
100
AcDbBlockReference
 62
2
  6
CONTINUOUS
  2
_ARROW_FILLED
 10
201.3737710141
 20
197.7889934033
 41
3.5
 42
3.5
 43
3.5
 50
180.0
  0
INSERT
  5
23C
100
AcDbEntity
  8
0
100
AcDbBlockReference
 62
2
  6
CONTINUOUS
  2
_ARROW_FILLED
 10
243.7537710141
 20
197.7889934033
 41
3.5
 42
3.5
 43
3.5
  0
ENDBLK
  5
23D
100
AcDbEntity
  8
0
  6
BYBLOCK
 62
0
100
AcDbBlockEnd
  0
BLOCK
  5
23E
100
AcDbEntity
  8
0
100
AcDbBlockBegin
 62
2
  6
CONTINUOUS
  2
*D5
 70
65
 10
0.0
 20
0.0
  3
*D5
  1

  0
MTEXT
  5
23F
100
AcDbEntity
  8
0
100
AcDbMText
 62
2
  6
CONTINUOUS
  7
STANDARD
 71
2
 72
1
 10
216.8737710141
 20
99.9695790866
 30
0.0
 11
1.0
 21
0.0
 31
0.0
  1
30
 40
3.5
 41
5.43866171
  0
LINE
  5
240
100
AcDbEntity
  8
0
100
AcDbLine
 62
2
  6
CONTINUOUS
 10
201.8737710141
 20
103.5366750736
 11
201.8737710141
 21
94.0945790866
  0
LINE
  5
241
100
AcDbEntity
  8
0
100
AcDbLine
 62
2
  6
CONTINUOUS
 10
231.8737710141
 20
103.5366750736
 11
231.8737710141
 21
94.0945790866
  0
LINE
  5
242
100
AcDbEntity
  8
0
100
AcDbLine
 62
2
  6
CONTINUOUS
 10
201.8737710141
 20
95.5945790866
 11
216.8737710141
 21
95.5945790866
  0
LINE
  5
243
100
AcDbEntity
  8
0
100
AcDbLine
 62
2
  6
CONTINUOUS
 10
231.8737710141
 20
95.5945790866
 11
216.8737710141
 21
95.5945790866
  0
INSERT
  5
244
100
AcDbEntity
  8
0
100
AcDbBlockReference
 62
2
  6
CONTINUOUS
  2
_ARROW_FILLED
 10
201.8737710141
 20
95.5945790866
 41
3.5
 42
3.5
 43
3.5
 50
180.0
  0
INSERT
  5
245
100
AcDbEntity
  8
0
100
AcDbBlockReference
 62
2
  6
CONTINUOUS
  2
_ARROW_FILLED
 10
231.8737710141
 20
95.5945790866
 41
3.5
 42
3.5
 43
3.5
  0
ENDBLK
  5
246
100
AcDbEntity
  8
0
  6
BYBLOCK
 62
0
100
AcDbBlockEnd
  0
BLOCK
  5
247
100
AcDbEntity
  8
0
100
AcDbBlockBegin
 62
2
  6
CONTINUOUS
  2
*D6
 70
65
 10
0.0
 20
0.0
  3
*D6
  1

  0
MTEXT
  5
248
100
AcDbEntity
  8
0
100
AcDbMText
 62
2
  6
CONTINUOUS
  7
STANDARD
 71
2
 72
1
 10
105.6969355624
 20
68.6092049782
 30
0.0
 11
1.0
 21
0.0
 31
0.0
  1
96
 40
3.5
 41
5.43866171
  0
LINE
  5
249
100
AcDbEntity
  8
0
100
AcDbLine
 62
2
  6
CONTINUOUS
 10
57.6969355624
 20
51.7473483406
 11
57.6969355624
 21
65.7342049782
  0
LINE
  5
24A
100
AcDbEntity
  8
0
100
AcDbLine
 62
2
  6
CONTINUOUS
 10
153.6969355624
 20
51.7473483406
 11
153.6969355624
 21
65.7342049782
  0
LINE
  5
24B
100
AcDbEntity
  8
0
100
AcDbLine
 62
2
  6
CONTINUOUS
 10
57.6969355624
 20
64.2342049782
 11
105.6969355624
 21
64.2342049782
  0
LINE
  5
24C
100
AcDbEntity
  8
0
100
AcDbLine
 62
2
  6
CONTINUOUS
 10
153.6969355624
 20
64.2342049782
 11
105.6969355624
 21
64.2342049782
  0
INSERT
  5
24D
100
AcDbEntity
  8
0
100
AcDbBlockReference
 62
2
  6
CONTINUOUS
  2
_ARROW_FILLED
 10
57.6969355624
 20
64.2342049782
 41
3.5
 42
3.5
 43
3.5
 50
180.0
  0
INSERT
  5
24E
100
AcDbEntity
  8
0
100
AcDbBlockReference
 62
2
  6
CONTINUOUS
  2
_ARROW_FILLED
 10
153.6969355624
 20
64.2342049782
 41
3.5
 42
3.5
 43
3.5
  0
ENDBLK
  5
24F
100
AcDbEntity
  8
0
  6
BYBLOCK
 62
0
100
AcDbBlockEnd
  0
ENDSEC
  0
SECTION
  2
ENTITIES
  0
DIMENSION
  5
250
100
AcDbEntity
  8
0
100
AcDbDimension
 62
2
  6
CONTINUOUS
  2
*D0
 10
169.6969355624
 20
78.7433724705
 11
101.6179392799
 21
81.3683724705
 70
160
  3
DIMSTYLE_1
100
AcDbAlignedDimension
 13
41.6969355624
 23
103.5366750736
 14
169.6969355624
 24
103.5366750736
100
AcDbRotatedDimension
  0
DIMENSION
  5
251
100
AcDbEntity
  8
0
100
AcDbDimension
 62
2
  6
CONTINUOUS
  2
*D1
 10
32.3126486861
 20
121.0366750736
 11
30.9061090957
 21
110.105602362
 70
160
  3
DIMSTYLE_2
100
AcDbAlignedDimension
 13
45.1969355624
 23
104.0366750736
 14
45.1969355624
 24
121.0366750736
 50
90.0
100
AcDbRotatedDimension
  0
DIMENSION
  5
252
100
AcDbEntity
  8
0
100
AcDbDimension
 62
2
  6
CONTINUOUS
  2
*D2
 10
10.8409499333
 20
171.0366750736
 11
9.434410343
 21
135.105602362
 70
160
  3
DIMSTYLE_3
100
AcDbAlignedDimension
 13
45.1969355624
 23
104.0366750736
 14
97.7969355624
 24
171.0366750736
 50
90.0
100
AcDbRotatedDimension
  0
DIMENSION
  5
253
100
AcDbEntity
  8
0
100
AcDbDimension
 62
2
  6
CONTINUOUS
  2
*D3
 10
19.5383468965
 20
137.3366750736
 11
19.0441951248
 21
116.43520581
 70
160
  3
DIMSTYLE_3
100
AcDbAlignedDimension
 13
45.1969355624
 23
104.0366750736
 14
105.1969355624
 24
137.3366750736
 50
90.0
100
AcDbRotatedDimension
  0
DIMENSION
  5
254
100
AcDbEntity
  8
0
100
AcDbDimension
 62
2
  6
CONTINUOUS
  2
*D4
 10
243.7537710141
 20
197.7889934033
 11
217.8081948059
 21
200.4139934033
 70
160
  3
DIMSTYLE_4
100
AcDbAlignedDimension
 13
201.3737710141
 23
165.3366750736
 14
243.7537710141
 24
154.4866750736
100
AcDbRotatedDimension
  0
DIMENSION
  5
255
100
AcDbEntity
  8
0
100
AcDbDimension
 62
2
  6
CONTINUOUS
  2
*D5
 10
231.8737710141
 20
95.5945790866
 11
214.1544401591
 21
98.2195790866
 70
160
  3
DIMSTYLE_2
100
AcDbAlignedDimension
 13
201.8737710141
 23
103.5366750736
 14
231.8737710141
 24
103.5366750736
100
AcDbRotatedDimension
  0
DIMENSION
  5
256
100
AcDbEntity
  8
0
100
AcDbDimension
 62
2
  6
CONTINUOUS
  2
*D6
 10
153.6969355624
 20
64.2342049782
 11
102.9776047074
 21
66.8592049782
 70
160
  3
DIMSTYLE_3
100
AcDbAlignedDimension
 13
57.6969355624
 23
51.7473483406
 14
153.6969355624
 24
51.7473483406
100
AcDbRotatedDimension
  0
LINE
  5
257
100
AcDbEntity
  8
0
100
AcDbLine
 62
7
  6
CONTINUOUS
 10
0.0
 20
0.0
 11
0.0
 21
210.0
  0
LINE
  5
258
100
AcDbEntity
  8
0
100
AcDbLine
 62
7
  6
CONTINUOUS
 10
0.0
 20
0.0
 11
297.0
 21
0.0
  0
LINE
  5
259
100
AcDbEntity
  8
0
100
AcDbLine
 62
7
  6
CONTINUOUS
 10
0.0
 20
210.0
 11
297.0
 21
210.0
  0
LINE
  5
25A
100
AcDbEntity
  8
0
100
AcDbLine
 62
7
  6
CONTINUOUS
 10
297.0
 20
0.0
 11
297.0
 21
210.0
  0
LINE
  5
25B
100
AcDbEntity
  8
0
100
AcDbLine
 62
7
  6
CONTINUOUS
 10
41.6969355624
 20
120.5366750736
 11
41.6969355624
 21
104.0366750736
  0
LINE
  5
25C
100
AcDbEntity
  8
0
100
AcDbLine
 62
7
  6
CONTINUOUS
 10
45.6969355624
 20
121.0366750736
 11
45.6969355624
 21
104.0366750736
  0
LINE
  5
25D
100
AcDbEntity
  8
0
100
AcDbLine
 62
7
  6
CONTINUOUS
 10
47.1969355624
 20
121.0366750736
 11
47.1969355624
 21
123.0366750736
  0
LINE
  5
25E
100
AcDbEntity
  8
0
100
AcDbLine
 62
7
  6
CONTINUOUS
 10
68.0392196154
 20
104.0366750736
 11
67.6319139877
 21
120.5366750736
  0
LINE
  5
25F
100
AcDbEntity
  8
0
100
AcDbLine
 62
7
  6
CONTINUOUS
 10
70.8689392208
 20
104.0366750736
 11
70.4614181852
 21
120.5454012768
  0
LINE
  5
260
100
AcDbEntity
  8
0
100
AcDbLine
 62
7
  6
CONTINUOUS
 10
67.6319139877
 20
121.0366750736
 11
67.6319139876
 21
120.5366750736
  0
LINE
  5
261
100
AcDbEntity
  8
0
100
AcDbLine
 62
7
  6
CONTINUOUS
 10
68.1969355624
 20
121.0366750736
 11
68.1969355624
 21
123.0366750736
  0
LINE
  5
262
100
AcDbEntity
  8
0
100
AcDbLine
 62
7
  6
CONTINUOUS
 10
169.6969355624
 20
104.0366750736
 11
130.6969355624
 21
104.0366750736
  0
LINE
  5
263
100
AcDbEntity
  8
0
100
AcDbLine
 62
7
  6
CONTINUOUS
 10
80.6969355624
 20
104.0366750736
 11
41.6969355624
 21
104.0366750736
  0
LINE
  5
264
100
AcDbEntity
  8
0
100
AcDbLine
 62
7
  6
CONTINUOUS
 10
130.6969355624
 20
105.0366750736
 11
80.6969355624
 21
105.0366750736
  0
LINE
  5
265
100
AcDbEntity
  8
0
100
AcDbLine
 62
7
  6
CONTINUOUS
 10
75.7069355624
 20
131.7824064449
 11
75.2431055806
 21
122.9320031611
  0
LINE
  5
266
100
AcDbEntity
  8
0
100
AcDbLine
 62
7
  6
CONTINUOUS
 10
80.2915172307
 20
120.4602204874
 11
80.6969355624
 21
104.0366750736
  0
LINE
  5
267
100
AcDbEntity
  8
0
100
AcDbLine
 62
7
  6
CONTINUOUS
 10
79.5824154414
 20
121.5366750736
 11
79.5824154394
 21
121.0366750736
  0
LINE
  5
268
100
AcDbEntity
  8
0
100
AcDbLine
 62
7
  6
CONTINUOUS
 10
80.6969355624
 20
104.0366750736
 11
80.6969355624
 21
105.0366750736
  0
LINE
  5
269
100
AcDbEntity
  8
0
100
AcDbLine
 62
7
  6
CONTINUOUS
 10
76.110434652
 20
129.9279664223
 11
75.7424203479
 21
122.905835183
  0
LINE
  5
26A
100
AcDbEntity
  8
0
100
AcDbLine
 62
7
  6
CONTINUOUS
 10
98.2969355624
 20
171.0366750736
 11
95.3156547537
 21
166.0155705537
  0
LINE
  5
26B
100
AcDbEntity
  8
0
100
AcDbLine
 62
7
  6
CONTINUOUS
 10
135.6514507769
 20
122.905835183
 11
136.1507655443
 21
122.9320031611
  0
LINE
  5
26C
100
AcDbEntity
  8
0
100
AcDbLine
 62
7
  6
CONTINUOUS
 10
41.6969355624
 20
120.5366750736
 11
67.6319139877
 21
120.5366750736
  0
LINE
  5
26D
100
AcDbEntity
  8
0
100
AcDbLine
 62
7
  6
CONTINUOUS
 10
143.7619571371
 20
120.5366750736
 11
169.6969355624
 21
120.5366750736
  0
LINE
  5
26E
100
AcDbEntity
  8
0
100
AcDbLine
 62
7
  6
CONTINUOUS
 10
70.4614181852
 20
120.5454012768
 11
80.2351382126
 21
120.5454012768
  0
LINE
  5
26F
100
AcDbEntity
  8
0
100
AcDbLine
 62
7
  6
CONTINUOUS
 10
131.1587329122
 20
120.5454012768
 11
140.9324529396
 21
120.5454012768
  0
LINE
  5
270
100
AcDbEntity
  8
0
100
AcDbLine
 62
7
  6
CONTINUOUS
 10
42.1969355624
 20
121.0366750736
 11
79.5824154414
 21
121.0366750736
  0
LINE
  5
271
100
AcDbEntity
  8
0
100
AcDbLine
 62
7
  6
CONTINUOUS
 10
131.8114556834
 20
121.0366750736
 11
169.1969355624
 21
121.0366750736
  0
LINE
  5
272
100
AcDbEntity
  8
0
100
AcDbLine
 62
7
  6
CONTINUOUS
 10
136.1480246138
 20
121.5366750736
 11
131.8114556834
 21
121.5366750736
  0
LINE
  5
273
100
AcDbEntity
  8
0
100
AcDbLine
 62
7
  6
CONTINUOUS
 10
79.5824154414
 20
121.5366750736
 11
75.245846511
 21
121.5366750736
  0
LINE
  5
274
100
AcDbEntity
  8
0
100
AcDbLine
 62
7
  6
CONTINUOUS
 10
47.1969355624
 20
123.0366750736
 11
68.1969355624
 21
123.0366750736
  0
LINE
  5
275
100
AcDbEntity
  8
0
100
AcDbLine
 62
7
  6
CONTINUOUS
 10
143.1969355624
 20
123.0366750736
 11
164.1969355624
 21
123.0366750736
  0
LINE
  5
276
100
AcDbEntity
  8
0
100
AcDbLine
 62
7
  6
CONTINUOUS
 10
75.7424203479
 20
122.905835183
 11
75.2431055803
 21
122.9320031571
  0
LINE
  5
277
100
AcDbEntity
  8
0
100
AcDbLine
 62
7
  6
CONTINUOUS
 10
88.5469355624
 20
134.336702358
 11
88.5469355624
 21
140.3366477892
  0
LINE
  5
278
100
AcDbEntity
  8
0
100
AcDbLine
 62
7
  6
CONTINUOUS
 10
103.1969355624
 20
181.2366750736
 11
102.3969355624
 21
179.0366750736
  0
LINE
  5
279
100
AcDbEntity
  8
0
100
AcDbLine
 62
7
  6
CONTINUOUS
 10
108.9969355624
 20
179.0366750736
 11
108.1969355624
 21
176.9366750736
  0
LINE
  5
27A
100
AcDbEntity
  8
0
100
AcDbLine
 62
7
  6
CONTINUOUS
 10
100.1976742484
 20
171.0366750736
 11
100.1976742484
 21
174.4482782089
  0
LINE
  5
27B
100
AcDbEntity
  8
0
100
AcDbLine
 62
7
  6
CONTINUOUS
 10
89.3185178232
 20
134.3366750736
 11
88.5469355624
 21
134.3366750736
  0
LINE
  5
27C
100
AcDbEntity
  8
0
100
AcDbLine
 62
7
  6
CONTINUOUS
 10
102.6969355624
 20
154.4866750736
 11
102.6969355624
 21
153.7150927663
  0
LINE
  5
27D
100
AcDbEntity
  8
0
100
AcDbLine
 62
7
  6
CONTINUOUS
 10
105.6969355624
 20
172.0233000187
 11
105.6969355624
 21
173.8910002168
  0
LINE
  5
27E
100
AcDbEntity
  8
0
100
AcDbLine
 62
7
  6
CONTINUOUS
 10
89.3185178288
 20
140.3366750736
 11
88.5469355624
 21
140.3366750736
  0
LINE
  5
27F
100
AcDbEntity
  8
0
100
AcDbLine
 62
7
  6
CONTINUOUS
 10
108.6969355624
 20
154.4866750736
 11
108.6969355624
 21
153.7150927663
  0
LINE
  5
280
100
AcDbEntity
  8
0
100
AcDbLine
 62
7
  6
CONTINUOUS
 10
111.1961968764
 20
171.0366750736
 11
111.1961968764
 21
174.4482782089
  0
LINE
  5
281
100
AcDbEntity
  8
0
100
AcDbLine
 62
7
  6
CONTINUOUS
 10
102.3969355624
 20
179.0366750736
 11
103.1969355624
 21
176.9366750736
  0
LINE
  5
282
100
AcDbEntity
  8
0
100
AcDbLine
 62
7
  6
CONTINUOUS
 10
102.6969628468
 20
154.4866750736
 11
108.696908278
 21
154.4866750736
  0
LINE
  5
283
100
AcDbEntity
  8
0
100
AcDbLine
 62
7
  6
CONTINUOUS
 10
108.1969355624
 20
181.2366750736
 11
108.9969355624
 21
179.0366750736
  0
LINE
  5
284
100
AcDbEntity
  8
0
100
AcDbLine
 62
7
  6
CONTINUOUS
 10
130.6969355624
 20
104.0366750736
 11
130.6969355624
 21
105.0366750736
  0
LINE
  5
285
100
AcDbEntity
  8
0
100
AcDbLine
 62
7
  6
CONTINUOUS
 10
113.0969355624
 20
171.0366750736
 11
116.0782164265
 21
166.0155704604
  0
LINE
  5
286
100
AcDbEntity
  8
0
100
AcDbLine
 62
7
  6
CONTINUOUS
 10
135.6514507769
 20
122.905835183
 11
135.2834364728
 21
129.9279664223
  0
LINE
  5
287
100
AcDbEntity
  8
0
100
AcDbLine
 62
7
  6
CONTINUOUS
 10
136.1507655443
 20
122.9320031611
 11
135.6869355624
 21
131.7824064449
  0
LINE
  5
288
100
AcDbEntity
  8
0
100
AcDbLine
 62
7
  6
CONTINUOUS
 10
131.8114556834
 20
121.0366750736
 11
131.8114556873
 21
121.5366750736
  0
LINE
  5
289
100
AcDbEntity
  8
0
100
AcDbLine
 62
7
  6
CONTINUOUS
 10
131.1023538939
 20
120.46022048
 11
130.6969355624
 21
104.0366750736
  0
LINE
  5
28A
100
AcDbEntity
  8
0
100
AcDbLine
 62
7
  6
CONTINUOUS
 10
113.0969432508
 20
171.0366750736
 11
98.296927874
 21
171.0366750736
  0
LINE
  5
28B
100
AcDbEntity
  8
0
100
AcDbLine
 62
7
  6
CONTINUOUS
 10
136.1480246187
 20
121.5366750747
 11
136.5480246205
 21
121.8366750647
  0
LINE
  5
28C
100
AcDbEntity
  8
0
100
AcDbLine
 62
7
  6
CONTINUOUS
 10
111.1961968764
 20
174.3320033209
 11
110.4505022102
 21
174.3320033209
  0
LINE
  5
28D
100
AcDbEntity
  8
0
100
AcDbLine
 62
7
  6
CONTINUOUS
 10
106.4426302286
 20
174.3320033209
 11
104.9512408962
 21
174.3320033209
  0
LINE
  5
28E
100
AcDbEntity
  8
0
100
AcDbLine
 62
7
  6
CONTINUOUS
 10
100.9433689146
 20
174.3320033209
 11
100.1976742484
 21
174.3320033209
  0
LINE
  5
28F
100
AcDbEntity
  8
0
100
AcDbLine
 62
7
  6
CONTINUOUS
 10
103.1969355624
 20
176.9366750736
 11
108.1969355624
 21
176.9366750736
  0
LINE
  5
290
100
AcDbEntity
  8
0
100
AcDbLine
 62
7
  6
CONTINUOUS
 10
143.1969355624
 20
121.0366750736
 11
143.1969355624
 21
123.0366750736
  0
LINE
  5
291
100
AcDbEntity
  8
0
100
AcDbLine
 62
7
  6
CONTINUOUS
 10
143.7619571371
 20
121.0366750736
 11
143.7619571371
 21
120.5366750736
  0
LINE
  5
292
100
AcDbEntity
  8
0
100
AcDbLine
 62
7
  6
CONTINUOUS
 10
140.9324529396
 20
120.5454012768
 11
140.524931904
 21
104.0366750736
  0
LINE
  5
293
100
AcDbEntity
  8
0
100
AcDbLine
 62
7
  6
CONTINUOUS
 10
143.7619571371
 20
120.5366750736
 11
143.3546515095
 21
104.0366750736
  0
LINE
  5
294
100
AcDbEntity
  8
0
100
AcDbLine
 62
7
  6
CONTINUOUS
 10
102.3969355624
 20
179.0366750736
 11
108.9969355624
 21
179.0366750736
  0
LINE
  5
295
100
AcDbEntity
  8
0
100
AcDbLine
 62
7
  6
CONTINUOUS
 10
103.1969355624
 20
181.2366750736
 11
108.1969355624
 21
181.2366750736
  0
LINE
  5
296
100
AcDbEntity
  8
0
100
AcDbLine
 62
7
  6
CONTINUOUS
 10
164.1969355624
 20
121.0366750736
 11
164.1969355624
 21
123.0366750736
  0
LINE
  5
297
100
AcDbEntity
  8
0
100
AcDbLine
 62
7
  6
CONTINUOUS
 10
165.6969355624
 20
104.0366750736
 11
165.6969355624
 21
121.0366750736
  0
LINE
  5
298
100
AcDbEntity
  8
0
100
AcDbLine
 62
7
  6
CONTINUOUS
 10
169.6969355624
 20
104.0366750736
 11
169.6969355624
 21
120.5366750736
  0
LINE
  5
299
100
AcDbEntity
  8
0
100
AcDbLine
 62
7
  6
CONTINUOUS
 10
231.8737710141
 20
104.0366750736
 11
201.8737710141
 21
104.0366750736
  0
LINE
  5
29A
100
AcDbEntity
  8
0
100
AcDbLine
 62
7
  6
CONTINUOUS
 10
232.3037710141
 20
111.0366750736
 11
231.8737710141
 21
110.9625371426
  0
LINE
  5
29B
100
AcDbEntity
  8
0
100
AcDbLine
 62
7
  6
CONTINUOUS
 10
207.4737710141
 20
171.0366750736
 11
205.5737710141
 21
167.8366750736
  0
LINE
  5
29C
100
AcDbEntity
  8
0
100
AcDbLine
 62
7
  6
CONTINUOUS
 10
201.3737710141
 20
109.8366750736
 11
201.3737710141
 21
164.8366750736
  0
LINE
  5
29D
100
AcDbEntity
  8
0
100
AcDbLine
 62
7
  6
CONTINUOUS
 10
201.8737710141
 20
104.0366750736
 11
201.8737710141
 21
120.5366750736
  0
LINE
  5
29E
100
AcDbEntity
  8
0
100
AcDbLine
 62
7
  6
CONTINUOUS
 10
212.3737710141
 20
181.2366750736
 11
211.5737710141
 21
179.0366750736
  0
LINE
  5
29F
100
AcDbEntity
  8
0
100
AcDbLine
 62
7
  6
CONTINUOUS
 10
201.8737710141
 20
120.5366750736
 11
231.8737710141
 21
120.5366750736
  0
LINE
  5
2A0
100
AcDbEntity
  8
0
100
AcDbLine
 62
7
  6
CONTINUOUS
 10
243.7537710141
 20
120.6866750736
 11
235.5937710141
 21
120.6866750736
  0
LINE
  5
2A1
100
AcDbEntity
  8
0
100
AcDbLine
 62
7
  6
CONTINUOUS
 10
202.3737710141
 20
121.0366750736
 11
231.3737710141
 21
121.0366750736
  0
LINE
  5
2A2
100
AcDbEntity
  8
0
100
AcDbLine
 62
7
  6
CONTINUOUS
 10
204.3737710141
 20
121.0366750736
 11
204.3737710141
 21
167.8366750736
  0
LINE
  5
2A3
100
AcDbEntity
  8
0
100
AcDbLine
 62
7
  6
CONTINUOUS
 10
206.3737710141
 20
123.0366750736
 11
227.3737710141
 21
123.0366750736
  0
LINE
  5
2A4
100
AcDbEntity
  8
0
100
AcDbLine
 62
7
  6
CONTINUOUS
 10
235.5937710141
 20
123.2366750736
 11
232.7737710141
 21
123.2366750736
  0
LINE
  5
2A5
100
AcDbEntity
  8
0
100
AcDbLine
 62
7
  6
CONTINUOUS
 10
205.8737710141
 20
104.0366750736
 11
205.8737710141
 21
121.0366750736
  0
LINE
  5
2A6
100
AcDbEntity
  8
0
100
AcDbLine
 62
7
  6
CONTINUOUS
 10
206.3737710141
 20
121.0366750736
 11
206.3737710141
 21
123.0366750736
  0
LINE
  5
2A7
100
AcDbEntity
  8
0
100
AcDbLine
 62
7
  6
CONTINUOUS
 10
218.1737710141
 20
179.0366750736
 11
217.3737710141
 21
176.9366750736
  0
LINE
  5
2A8
100
AcDbEntity
  8
0
100
AcDbLine
 62
7
  6
CONTINUOUS
 10
208.5237710141
 20
172.0233000728
 11
208.5237710141
 21
173.8910002168
  0
LINE
  5
2A9
100
AcDbEntity
  8
0
100
AcDbLine
 62
7
  6
CONTINUOUS
 10
211.6987710141
 20
172.0233000297
 11
211.6987710141
 21
173.8910002168
  0
LINE
  5
2AA
100
AcDbEntity
  8
0
100
AcDbLine
 62
7
  6
CONTINUOUS
 10
213.3737710141
 20
123.0366750736
 11
213.3737710141
 21
129.9279664223
  0
LINE
  5
2AB
100
AcDbEntity
  8
0
100
AcDbLine
 62
7
  6
CONTINUOUS
 10
213.8737710141
 20
123.0366750736
 11
213.8737710141
 21
131.7824064449
  0
LINE
  5
2AC
100
AcDbEntity
  8
0
100
AcDbLine
 62
7
  6
CONTINUOUS
 10
219.8737710141
 20
131.7824064449
 11
213.8737710141
 21
131.7824064449
  0
LINE
  5
2AD
100
AcDbEntity
  8
0
100
AcDbLine
 62
7
  6
CONTINUOUS
 10
218.0487710141
 20
172.023300018
 11
218.0487710141
 21
173.8910002168
  0
LINE
  5
2AE
100
AcDbEntity
  8
0
100
AcDbLine
 62
7
  6
CONTINUOUS
 10
219.8737710141
 20
131.7824064449
 11
219.8737710141
 21
123.0366750736
  0
LINE
  5
2AF
100
AcDbEntity
  8
0
100
AcDbLine
 62
7
  6
CONTINUOUS
 10
230.5637710141
 20
163.9366750736
 11
230.2037710141
 21
163.3066750736
  0
LINE
  5
2B0
100
AcDbEntity
  8
0
100
AcDbLine
 62
7
  6
CONTINUOUS
 10
220.3737710141
 20
129.9279664223
 11
220.3737710141
 21
123.0366750736
  0
LINE
  5
2B1
100
AcDbEntity
  8
0
100
AcDbLine
 62
7
  6
CONTINUOUS
 10
221.2237710141
 20
172.0233000187
 11
221.2237710141
 21
173.8910002168
  0
LINE
  5
2B2
100
AcDbEntity
  8
0
100
AcDbLine
 62
7
  6
CONTINUOUS
 10
224.6466485742
 20
123.0366750736
 11
224.6466485742
 21
167.8366750736
  0
LINE
  5
2B3
100
AcDbEntity
  8
0
100
AcDbLine
 62
7
  6
CONTINUOUS
 10
238.7537710141
 20
135.604624266
 11
237.2537710141
 21
136.4706496698
  0
LINE
  5
2B4
100
AcDbEntity
  8
0
100
AcDbLine
 62
7
  6
CONTINUOUS
 10
211.5737710141
 20
179.0366750736
 11
212.3737710141
 21
176.9366750736
  0
LINE
  5
2B5
100
AcDbEntity
  8
0
100
AcDbLine
 62
7
  6
CONTINUOUS
 10
226.7837710141
 20
165.3406077138
 11
226.7837710141
 21
123.0366750736
  0
LINE
  5
2B6
100
AcDbEntity
  8
0
100
AcDbLine
 62
7
  6
CONTINUOUS
 10
227.3737710141
 20
121.0366750736
 11
227.3737710141
 21
123.0366750736
  0
LINE
  5
2B7
100
AcDbEntity
  8
0
100
AcDbLine
 62
7
  6
CONTINUOUS
 10
227.5960227277
 20
164.4975990874
 11
227.5960227277
 21
121.0366750736
  0
LINE
  5
2B8
100
AcDbEntity
  8
0
100
AcDbLine
 62
7
  6
CONTINUOUS
 10
227.8737710141
 20
121.0366750736
 11
227.8737710141
 21
104.0366750736
  0
LINE
  5
2B9
100
AcDbEntity
  8
0
100
AcDbLine
 62
7
  6
CONTINUOUS
 10
228.7637710141
 20
164.2866750736
 11
228.7637710141
 21
121.0366750736
  0
LINE
  5
2BA
100
AcDbEntity
  8
0
100
AcDbLine
 62
7
  6
CONTINUOUS
 10
238.7537710141
 20
139.0687258812
 11
240.2537710141
 21
138.2027004774
  0
LINE
  5
2BB
100
AcDbEntity
  8
0
100
AcDbLine
 62
7
  6
CONTINUOUS
 10
229.7037710141
 20
163.3066750736
 11
229.7037710141
 21
121.0366750736
  0
LINE
  5
2BC
100
AcDbEntity
  8
0
100
AcDbLine
 62
7
  6
CONTINUOUS
 10
230.2037710141
 20
163.3066750736
 11
230.2037710141
 21
121.0366750736
  0
LINE
  5
2BD
100
AcDbEntity
  8
0
100
AcDbLine
 62
7
  6
CONTINUOUS
 10
230.5637710141
 20
163.9366750736
 11
230.5637710141
 21
121.0366750736
  0
LINE
  5
2BE
100
AcDbEntity
  8
0
100
AcDbLine
 62
7
  6
CONTINUOUS
 10
235.5937710141
 20
151.4366750736
 11
232.7737710141
 21
151.4366750736
  0
LINE
  5
2BF
100
AcDbEntity
  8
0
100
AcDbLine
 62
7
  6
CONTINUOUS
 10
217.3737710141
 20
181.2366750736
 11
218.1737710141
 21
179.0366750736
  0
LINE
  5
2C0
100
AcDbEntity
  8
0
100
AcDbLine
 62
7
  6
CONTINUOUS
 10
231.8737710141
 20
120.5366750736
 11
231.8737710141
 21
104.0366750736
  0
LINE
  5
2C1
100
AcDbEntity
  8
0
100
AcDbLine
 62
7
  6
CONTINUOUS
 10
232.3037710141
 20
163.6366750736
 11
232.3037710141
 21
111.0366750736
  0
LINE
  5
2C2
100
AcDbEntity
  8
0
100
AcDbLine
 62
7
  6
CONTINUOUS
 10
232.7737710141
 20
114.4666750736
 11
232.7737710141
 21
160.2066750736
  0
LINE
  5
2C3
100
AcDbEntity
  8
0
100
AcDbLine
 62
7
  6
CONTINUOUS
 10
237.2537710141
 20
138.2027004774
 11
238.7537710141
 21
139.0687258812
  0
LINE
  5
2C4
100
AcDbEntity
  8
0
100
AcDbLine
 62
7
  6
CONTINUOUS
 10
243.7537710141
 20
153.9866750736
 11
241.7537709934
 21
153.9866750736
  0
LINE
  5
2C5
100
AcDbEntity
  8
0
100
AcDbLine
 62
7
  6
CONTINUOUS
 10
235.7537710348
 20
153.9866750736
 11
235.5937710141
 21
153.9866750736
  0
LINE
  5
2C6
100
AcDbEntity
  8
0
100
AcDbLine
 62
7
  6
CONTINUOUS
 10
235.7537710141
 20
154.4866750736
 11
241.7537710141
 21
154.4866750736
  0
LINE
  5
2C7
100
AcDbEntity
  8
0
100
AcDbLine
 62
7
  6
CONTINUOUS
 10
235.5937710141
 20
120.6866976607
 11
235.5937710141
 21
153.9866524865
  0
LINE
  5
2C8
100
AcDbEntity
  8
0
100
AcDbLine
 62
7
  6
CONTINUOUS
 10
235.7537710141
 20
154.4866750736
 11
235.7537710141
 21
153.9866750694
  0
LINE
  5
2C9
100
AcDbEntity
  8
0
100
AcDbLine
 62
7
  6
CONTINUOUS
 10
237.2537710141
 20
136.4706496698
 11
237.2537710141
 21
138.2027004774
  0
LINE
  5
2CA
100
AcDbEntity
  8
0
100
AcDbLine
 62
7
  6
CONTINUOUS
 10
232.7737710141
 20
114.4666750736
 11
232.3037710141
 21
111.0366750736
  0
LINE
  5
2CB
100
AcDbEntity
  8
0
100
AcDbLine
 62
7
  6
CONTINUOUS
 10
240.2537710141
 20
136.4706496698
 11
238.7537710141
 21
135.604624266
  0
LINE
  5
2CC
100
AcDbEntity
  8
0
100
AcDbLine
 62
7
  6
CONTINUOUS
 10
222.2737710141
 20
171.0366750736
 11
224.1737710141
 21
167.8366750736
  0
LINE
  5
2CD
100
AcDbEntity
  8
0
100
AcDbLine
 62
7
  6
CONTINUOUS
 10
232.3037710141
 20
163.6366750736
 11
232.7737710141
 21
160.2066750736
  0
LINE
  5
2CE
100
AcDbEntity
  8
0
100
AcDbLine
 62
7
  6
CONTINUOUS
 10
240.2537710141
 20
138.2027004774
 11
240.2537710141
 21
136.4706496698
  0
LINE
  5
2CF
100
AcDbEntity
  8
0
100
AcDbLine
 62
7
  6
CONTINUOUS
 10
226.7837710141
 20
165.3406077138
 11
224.6466485742
 21
167.8366750736
  0
LINE
  5
2D0
100
AcDbEntity
  8
0
100
AcDbLine
 62
7
  6
CONTINUOUS
 10
241.7537710141
 20
154.4866750736
 11
241.7537710141
 21
153.9866750694
  0
LINE
  5
2D1
100
AcDbEntity
  8
0
100
AcDbLine
 62
7
  6
CONTINUOUS
 10
230.2037710141
 20
163.3066750736
 11
229.7037710141
 21
163.3066750736
  0
LINE
  5
2D2
100
AcDbEntity
  8
0
100
AcDbLine
 62
7
  6
CONTINUOUS
 10
229.7037710141
 20
163.3066750736
 11
228.7637710141
 21
163.9166750736
  0
LINE
  5
2D3
100
AcDbEntity
  8
0
100
AcDbLine
 62
7
  6
CONTINUOUS
 10
243.7537710141
 20
120.6866976607
 11
243.7537710141
 21
153.9866524865
  0
LINE
  5
2D4
100
AcDbEntity
  8
0
100
AcDbLine
 62
7
  6
CONTINUOUS
 10
232.3037710141
 20
163.6366750736
 11
230.5637710141
 21
163.9366750736
  0
LINE
  5
2D5
100
AcDbEntity
  8
0
100
AcDbLine
 62
7
  6
CONTINUOUS
 10
228.7637710141
 20
164.2866750736
 11
227.5960227277
 21
164.4975990874
  0
LINE
  5
2D6
100
AcDbEntity
  8
0
100
AcDbLine
 62
7
  6
CONTINUOUS
 10
224.6466485742
 20
167.8366750736
 11
224.1737710141
 21
167.8366750736
  0
LINE
  5
2D7
100
AcDbEntity
  8
0
100
AcDbLine
 62
7
  6
CONTINUOUS
 10
205.5737710141
 20
167.8366750736
 11
204.3737710141
 21
167.8366750736
  0
LINE
  5
2D8
100
AcDbEntity
  8
0
100
AcDbLine
 62
7
  6
CONTINUOUS
 10
222.2737710141
 20
171.0366750736
 11
207.4737710141
 21
171.0366750736
  0
LINE
  5
2D9
100
AcDbEntity
  8
0
100
AcDbLine
 62
7
  6
CONTINUOUS
 10
220.8400278759
 20
174.3320033209
 11
220.7932439978
 21
174.3320033209
  0
LINE
  5
2DA
100
AcDbEntity
  8
0
100
AcDbLine
 62
7
  6
CONTINUOUS
 10
218.4792980304
 20
174.3320033209
 11
217.1877169816
 21
174.3320033209
  0
LINE
  5
2DB
100
AcDbEntity
  8
0
100
AcDbLine
 62
7
  6
CONTINUOUS
 10
212.5598250466
 20
174.3320033209
 11
211.2682439978
 21
174.3320033209
  0
LINE
  5
2DC
100
AcDbEntity
  8
0
100
AcDbLine
 62
7
  6
CONTINUOUS
 10
208.9542980304
 20
174.3320033209
 11
208.9075141523
 21
174.3320033209
  0
LINE
  5
2DD
100
AcDbEntity
  8
0
100
AcDbLine
 62
7
  6
CONTINUOUS
 10
217.3737710141
 20
176.9366750736
 11
212.3737710141
 21
176.9366750736
  0
LINE
  5
2DE
100
AcDbEntity
  8
0
100
AcDbLine
 62
7
  6
CONTINUOUS
 10
218.1737710141
 20
179.0366750736
 11
211.5737710141
 21
179.0366750736
  0
LINE
  5
2DF
100
AcDbEntity
  8
0
100
AcDbLine
 62
7
  6
CONTINUOUS
 10
217.3737710141
 20
181.2366750736
 11
212.3737710141
 21
181.2366750736
  0
LINE
  5
2E0
100
AcDbEntity
  8
0
100
AcDbLine
 62
7
  6
CONTINUOUS
 10
41.6969355624
 20
51.7473483406
 11
41.6969355624
 21
29.7473483406
  0
LINE
  5
2E1
100
AcDbEntity
  8
0
100
AcDbLine
 62
7
  6
CONTINUOUS
 10
42.1969355624
 20
51.7473483406
 11
42.1969355624
 21
29.7473483406
  0
LINE
  5
2E2
100
AcDbEntity
  8
0
100
AcDbLine
 62
7
  6
CONTINUOUS
 10
45.6969355624
 20
26.2473483406
 11
45.6969355624
 21
25.7473483406
  0
LINE
  5
2E3
100
AcDbEntity
  8
0
100
AcDbLine
 62
7
  6
CONTINUOUS
 10
45.6969355624
 20
55.2473483406
 11
45.6969355624
 21
55.7473483406
  0
LINE
  5
2E4
100
AcDbEntity
  8
0
100
AcDbLine
 62
7
  6
CONTINUOUS
 10
67.6319139877
 20
26.2473483406
 11
67.6319139876
 21
25.7473483406
  0
LINE
  5
2E5
100
AcDbEntity
  8
0
100
AcDbLine
 62
7
  6
CONTINUOUS
 10
67.6319139877
 20
55.2473483406
 11
67.6319139877
 21
55.7473483406
  0
LINE
  5
2E6
100
AcDbEntity
  8
0
100
AcDbLine
 62
7
  6
CONTINUOUS
 10
70.1079186425
 20
54.2218451395
 11
70.4614181851
 21
54.5753446823
  0
LINE
  5
2E7
100
AcDbEntity
  8
0
100
AcDbLine
 62
7
  6
CONTINUOUS
 10
73.245846511
 20
36.7473483406
 11
73.245846511
 21
44.7473483406
  0
LINE
  5
2E8
100
AcDbEntity
  8
0
100
AcDbLine
 62
7
  6
CONTINUOUS
 10
75.1969355624
 20
32.9744707805
 11
75.1969355624
 21
53.2473483406
  0
LINE
  5
2E9
100
AcDbEntity
  8
0
100
AcDbLine
 62
7
  6
CONTINUOUS
 10
70.1079186425
 20
27.2728515417
 11
70.4614181852
 21
26.919351999
  0
LINE
  5
2EA
100
AcDbEntity
  8
0
100
AcDbLine
 62
7
  6
CONTINUOUS
 10
78.7469355624
 20
28.8573483406
 11
78.5360115486
 21
30.025096627
  0
LINE
  5
2EB
100
AcDbEntity
  8
0
100
AcDbLine
 62
7
  6
CONTINUOUS
 10
79.3969355624
 20
25.3173483406
 11
79.0969355624
 21
27.0573483406
  0
LINE
  5
2EC
100
AcDbEntity
  8
0
100
AcDbLine
 62
7
  6
CONTINUOUS
 10
79.7269355624
 20
27.4173483406
 11
79.7269355624
 21
27.9173483406
  0
LINE
  5
2ED
100
AcDbEntity
  8
0
100
AcDbLine
 62
7
  6
CONTINUOUS
 10
79.7269355624
 20
27.9173483406
 11
79.1169355624
 21
28.8573483406
  0
LINE
  5
2EE
100
AcDbEntity
  8
0
100
AcDbLine
 62
7
  6
CONTINUOUS
 10
70.1079186425
 20
27.2728515417
 11
75.5269666466
 21
32.6918995458
  0
LINE
  5
2EF
100
AcDbEntity
  8
0
100
AcDbLine
 62
7
  6
CONTINUOUS
 10
70.4614181852
 20
26.919351999
 11
75.907852692
 21
32.3657865058
  0
LINE
  5
2F0
100
AcDbEntity
  8
0
100
AcDbLine
 62
7
  6
CONTINUOUS
 10
76.1273990519
 20
32.1778118301
 11
70.8689392208
 21
26.919351999
  0
LINE
  5
2F1
100
AcDbEntity
  8
0
100
AcDbLine
 62
7
  6
CONTINUOUS
 10
89.0469355624
 20
13.8673483406
 11
122.3469355624
 21
13.8673483406
  0
LINE
  5
2F2
100
AcDbEntity
  8
0
100
AcDbLine
 62
7
  6
CONTINUOUS
 10
89.0469355624
 20
15.8673483406
 11
88.5469355624
 21
15.8673483406
  0
LINE
  5
2F3
100
AcDbEntity
  8
0
100
AcDbLine
 62
7
  6
CONTINUOUS
 10
106.5629609662
 20
17.3673483406
 11
104.8309101586
 21
17.3673483406
  0
LINE
  5
2F4
100
AcDbEntity
  8
0
100
AcDbLine
 62
7
  6
CONTINUOUS
 10
77.6930029222
 20
30.8373483406
 11
75.1969355624
 21
32.9744707805
  0
LINE
  5
2F5
100
AcDbEntity
  8
0
100
AcDbLine
 62
7
  6
CONTINUOUS
 10
88.5469355624
 20
15.8673483406
 11
88.5469355624
 21
21.8673483406
  0
LINE
  5
2F6
100
AcDbEntity
  8
0
100
AcDbLine
 62
7
  6
CONTINUOUS
 10
89.0469355624
 20
13.8673483406
 11
89.0469355624
 21
15.8673483406
  0
LINE
  5
2F7
100
AcDbEntity
  8
0
100
AcDbLine
 62
7
  6
CONTINUOUS
 10
89.0469355624
 20
21.8673483406
 11
89.0469355624
 21
22.0273483406
  0
LINE
  5
2F8
100
AcDbEntity
  8
0
100
AcDbLine
 62
7
  6
CONTINUOUS
 10
91.5969355624
 20
22.0273483406
 11
91.5969355624
 21
24.8473483406
  0
LINE
  5
2F9
100
AcDbEntity
  8
0
100
AcDbLine
 62
7
  6
CONTINUOUS
 10
128.5669355624
 20
24.8473483406
 11
131.9969355624
 21
25.3173483406
  0
LINE
  5
2FA
100
AcDbEntity
  8
0
100
AcDbLine
 62
7
  6
CONTINUOUS
 10
104.8309101586
 20
20.3673483406
 11
106.5629609662
 21
20.3673483406
  0
LINE
  5
2FB
100
AcDbEntity
  8
0
100
AcDbLine
 62
7
  6
CONTINUOUS
 10
89.0469355624
 20
21.8673483406
 11
88.5469355624
 21
21.8673483406
  0
LINE
  5
2FC
100
AcDbEntity
  8
0
100
AcDbLine
 62
7
  6
CONTINUOUS
 10
89.0469355624
 20
22.0273483406
 11
122.3469355624
 21
22.0273483406
  0
LINE
  5
2FD
100
AcDbEntity
  8
0
100
AcDbLine
 62
7
  6
CONTINUOUS
 10
82.8269355624
 20
24.8473483406
 11
79.3969355624
 21
25.3173483406
  0
LINE
  5
2FE
100
AcDbEntity
  8
0
100
AcDbLine
 62
7
  6
CONTINUOUS
 10
100.1976742484
 20
45.9223483406
 11
105.6969355624
 21
49.0973483406
  0
LINE
  5
2FF
100
AcDbEntity
  8
0
100
AcDbLine
 62
7
  6
CONTINUOUS
 10
82.8269355624
 20
24.8473483406
 11
128.5669355624
 21
24.8473483406
  0
LINE
  5
300
100
AcDbEntity
  8
0
100
AcDbLine
 62
7
  6
CONTINUOUS
 10
79.3969355624
 20
25.3173483406
 11
131.9969355624
 21
25.3173483406
  0
LINE
  5
301
100
AcDbEntity
  8
0
100
AcDbLine
 62
7
  6
CONTINUOUS
 10
45.6969355624
 20
25.7473483406
 11
68.0392196154
 21
25.7473483406
  0
LINE
  5
302
100
AcDbEntity
  8
0
100
AcDbLine
 62
7
  6
CONTINUOUS
 10
143.3546515095
 20
25.7473483406
 11
165.6969355624
 21
25.7473483406
  0
LINE
  5
303
100
AcDbEntity
  8
0
100
AcDbLine
 62
7
  6
CONTINUOUS
 10
45.6969355624
 20
26.2473483406
 11
67.6319139877
 21
26.2473483406
  0
LINE
  5
304
100
AcDbEntity
  8
0
100
AcDbLine
 62
7
  6
CONTINUOUS
 10
143.7619571371
 20
26.2473483406
 11
165.6969355624
 21
26.2473483406
  0
LINE
  5
305
100
AcDbEntity
  8
0
100
AcDbLine
 62
7
  6
CONTINUOUS
 10
75.1969355624
 20
49.1328282196
 11
70.1079186425
 21
54.2218451395
  0
LINE
  5
306
100
AcDbEntity
  8
0
100
AcDbLine
 62
7
  6
CONTINUOUS
 10
75.1969355624
 20
49.839827305
 11
70.4614181852
 21
54.5753446822
  0
LINE
  5
307
100
AcDbEntity
  8
0
100
AcDbLine
 62
7
  6
CONTINUOUS
 10
70.8689392208
 20
54.5753446822
 11
75.1969355624
 21
50.2473483406
  0
LINE
  5
308
100
AcDbEntity
  8
0
100
AcDbLine
 62
7
  6
CONTINUOUS
 10
104.8309101586
 20
17.3673483406
 11
103.9648847548
 21
18.8673483406
  0
LINE
  5
309
100
AcDbEntity
  8
0
100
AcDbLine
 62
7
  6
CONTINUOUS
 10
100.1976742484
 20
39.5723483406
 11
100.1976742484
 21
45.9223483406
  0
LINE
  5
30A
100
AcDbEntity
  8
0
100
AcDbLine
 62
7
  6
CONTINUOUS
 10
79.0969355624
 20
27.0573483406
 11
79.7269355624
 21
27.4173483406
  0
LINE
  5
30B
100
AcDbEntity
  8
0
100
AcDbLine
 62
7
  6
CONTINUOUS
 10
140.9324529396
 20
26.919351999
 11
140.524931904
 21
26.919351999
  0
LINE
  5
30C
100
AcDbEntity
  8
0
100
AcDbLine
 62
7
  6
CONTINUOUS
 10
70.8689392208
 20
26.919351999
 11
70.4614181852
 21
26.919351999
  0
LINE
  5
30D
100
AcDbEntity
  8
0
100
AcDbLine
 62
7
  6
CONTINUOUS
 10
79.0969355624
 20
27.0573483406
 11
132.2969355624
 21
27.0573483406
  0
LINE
  5
30E
100
AcDbEntity
  8
0
100
AcDbLine
 62
7
  6
CONTINUOUS
 10
79.7269355624
 20
27.4173483406
 11
131.6669355624
 21
27.4173483406
  0
LINE
  5
30F
100
AcDbEntity
  8
0
100
AcDbLine
 62
7
  6
CONTINUOUS
 10
79.7269355624
 20
27.9173483406
 11
131.6669355624
 21
27.9173483406
  0
LINE
  5
310
100
AcDbEntity
  8
0
100
AcDbLine
 62
7
  6
CONTINUOUS
 10
78.7469355624
 20
28.8573483406
 11
132.6469355624
 21
28.8573483406
  0
LINE
  5
311
100
AcDbEntity
  8
0
100
AcDbLine
 62
7
  6
CONTINUOUS
 10
42.1969355624
 20
29.7473483406
 11
41.6969355624
 21
29.7473483406
  0
LINE
  5
312
100
AcDbEntity
  8
0
100
AcDbLine
 62
7
  6
CONTINUOUS
 10
169.1969355624
 20
29.7473483406
 11
169.6969355624
 21
29.7473483406
  0
LINE
  5
313
100
AcDbEntity
  8
0
100
AcDbLine
 62
7
  6
CONTINUOUS
 10
78.5360115486
 20
30.025096627
 11
132.8578595762
 21
30.025096627
  0
LINE
  5
314
100
AcDbEntity
  8
0
100
AcDbLine
 62
7
  6
CONTINUOUS
 10
77.6930029222
 20
30.8373483406
 11
133.7008682026
 21
30.8373483406
  0
LINE
  5
315
100
AcDbEntity
  8
0
100
AcDbLine
 62
7
  6
CONTINUOUS
 10
106.5629609662
 20
20.3673483406
 11
107.42898637
 21
18.8673483406
  0
LINE
  5
316
100
AcDbEntity
  8
0
100
AcDbLine
 62
7
  6
CONTINUOUS
 10
105.6969355624
 20
36.3973483406
 11
111.1961968764
 21
39.5723483406
  0
LINE
  5
317
100
AcDbEntity
  8
0
100
AcDbLine
 62
7
  6
CONTINUOUS
 10
75.1969355624
 20
32.9744707805
 11
136.1969355624
 21
32.9744707805
  0
LINE
  5
318
100
AcDbEntity
  8
0
100
AcDbLine
 62
7
  6
CONTINUOUS
 10
138.1480246138
 20
36.7473483406
 11
136.1969355624
 21
36.7473483406
  0
LINE
  5
319
100
AcDbEntity
  8
0
100
AcDbLine
 62
7
  6
CONTINUOUS
 10
75.1969355624
 20
36.7473483406
 11
73.245846511
 21
36.7473483406
  0
LINE
  5
31A
100
AcDbEntity
  8
0
100
AcDbLine
 62
7
  6
CONTINUOUS
 10
136.5480246138
 20
37.7473483406
 11
136.1969355624
 21
37.7473483406
  0
LINE
  5
31B
100
AcDbEntity
  8
0
100
AcDbLine
 62
7
  6
CONTINUOUS
 10
75.1969355624
 20
37.7473483406
 11
74.845846511
 21
37.7473483406
  0
LINE
  5
31C
100
AcDbEntity
  8
0
100
AcDbLine
 62
7
  6
CONTINUOUS
 10
100.1976742484
 20
39.5723483406
 11
105.6969355624
 21
36.3973483406
  0
LINE
  5
31D
100
AcDbEntity
  8
0
100
AcDbLine
 62
7
  6
CONTINUOUS
 10
111.1961968764
 20
39.5723483406
 11
111.1961968764
 21
45.9223483406
  0
LINE
  5
31E
100
AcDbEntity
  8
0
100
AcDbLine
 62
7
  6
CONTINUOUS
 10
103.9648847548
 20
18.8673483406
 11
104.8309101586
 21
20.3673483406
  0
LINE
  5
31F
100
AcDbEntity
  8
0
100
AcDbLine
 62
7
  6
CONTINUOUS
 10
74.845846511
 20
43.7473483406
 11
75.1969355624
 21
43.7473483406
  0
LINE
  5
320
100
AcDbEntity
  8
0
100
AcDbLine
 62
7
  6
CONTINUOUS
 10
136.1969355624
 20
43.7473483406
 11
136.5480246138
 21
43.7473483406
  0
LINE
  5
321
100
AcDbEntity
  8
0
100
AcDbLine
 62
7
  6
CONTINUOUS
 10
132.2969355624
 20
27.0573483406
 11
131.6669355624
 21
27.4173483406
  0
LINE
  5
322
100
AcDbEntity
  8
0
100
AcDbLine
 62
7
  6
CONTINUOUS
 10
107.42898637
 20
18.8673483406
 11
106.5629609662
 21
17.3673483406
  0
LINE
  5
323
100
AcDbEntity
  8
0
100
AcDbLine
 62
7
  6
CONTINUOUS
 10
136.1969355624
 20
50.2473483406
 11
140.524931904
 21
54.5753446822
  0
LINE
  5
324
100
AcDbEntity
  8
0
100
AcDbLine
 62
7
  6
CONTINUOUS
 10
140.9324529396
 20
54.5753446822
 11
136.1969355624
 21
49.839827305
  0
LINE
  5
325
100
AcDbEntity
  8
0
100
AcDbLine
 62
7
  6
CONTINUOUS
 10
141.2859524823
 20
54.2218451395
 11
136.1969355624
 21
49.1328282196
  0
LINE
  5
326
100
AcDbEntity
  8
0
100
AcDbLine
 62
7
  6
CONTINUOUS
 10
73.245846511
 20
44.7473483406
 11
75.1969355624
 21
44.7473483406
  0
LINE
  5
327
100
AcDbEntity
  8
0
100
AcDbLine
 62
7
  6
CONTINUOUS
 10
136.1969355624
 20
44.7473483406
 11
138.1480246138
 21
44.7473483406
  0
LINE
  5
328
100
AcDbEntity
  8
0
100
AcDbLine
 62
7
  6
CONTINUOUS
 10
105.6969355624
 20
49.0973483406
 11
111.1961968764
 21
45.9223483406
  0
LINE
  5
329
100
AcDbEntity
  8
0
100
AcDbLine
 62
7
  6
CONTINUOUS
 10
119.7969355624
 20
22.0273483406
 11
119.7969355624
 21
24.8473483406
  0
LINE
  5
32A
100
AcDbEntity
  8
0
100
AcDbLine
 62
7
  6
CONTINUOUS
 10
122.3469355624
 20
13.8673483406
 11
122.3469355624
 21
22.0273483406
  0
LINE
  5
32B
100
AcDbEntity
  8
0
100
AcDbLine
 62
7
  6
CONTINUOUS
 10
42.1969355624
 20
51.7473483406
 11
41.6969355624
 21
51.7473483406
  0
LINE
  5
32C
100
AcDbEntity
  8
0
100
AcDbLine
 62
7
  6
CONTINUOUS
 10
169.1969355624
 20
51.7473483406
 11
169.6969355624
 21
51.7473483406
  0
LINE
  5
32D
100
AcDbEntity
  8
0
100
AcDbLine
 62
7
  6
CONTINUOUS
 10
75.1969355624
 20
53.2473483406
 11
136.1969355624
 21
53.2473483406
  0
LINE
  5
32E
100
AcDbEntity
  8
0
100
AcDbLine
 62
7
  6
CONTINUOUS
 10
133.7008682026
 20
30.8373483406
 11
136.1969355624
 21
32.9744707805
  0
LINE
  5
32F
100
AcDbEntity
  8
0
100
AcDbLine
 62
7
  6
CONTINUOUS
 10
70.4614181852
 20
54.5753446822
 11
70.8689392208
 21
54.5753446822
  0
LINE
  5
330
100
AcDbEntity
  8
0
100
AcDbLine
 62
7
  6
CONTINUOUS
 10
140.524931904
 20
54.5753446822
 11
140.9324529396
 21
54.5753446822
  0
LINE
  5
331
100
AcDbEntity
  8
0
100
AcDbLine
 62
7
  6
CONTINUOUS
 10
165.6969355624
 20
55.2473483406
 11
143.7619571371
 21
55.2473483406
  0
LINE
  5
332
100
AcDbEntity
  8
0
100
AcDbLine
 62
7
  6
CONTINUOUS
 10
67.6319139877
 20
55.2473483406
 11
45.6969355624
 21
55.2473483406
  0
LINE
  5
333
100
AcDbEntity
  8
0
100
AcDbLine
 62
7
  6
CONTINUOUS
 10
45.6969355624
 20
55.7473483406
 11
68.0392196154
 21
55.7473483406
  0
LINE
  5
334
100
AcDbEntity
  8
0
100
AcDbLine
 62
7
  6
CONTINUOUS
 10
143.3546515095
 20
55.7473483406
 11
165.6969355624
 21
55.7473483406
  0
LINE
  5
335
100
AcDbEntity
  8
0
100
AcDbLine
 62
7
  6
CONTINUOUS
 10
78.1969355624
 20
56.2473483406
 11
133.1969355624
 21
56.2473483406
  0
LINE
  5
336
100
AcDbEntity
  8
0
100
AcDbLine
 62
7
  6
CONTINUOUS
 10
140.524931904
 20
26.919351999
 11
135.2664720729
 21
32.1778118301
  0
LINE
  5
337
100
AcDbEntity
  8
0
100
AcDbLine
 62
7
  6
CONTINUOUS
 10
135.4860184328
 20
32.3657865058
 11
140.9324529396
 21
26.919351999
  0
LINE
  5
338
100
AcDbEntity
  8
0
100
AcDbLine
 62
7
  6
CONTINUOUS
 10
135.8669044783
 20
32.6918995458
 11
141.2859524823
 21
27.2728515417
  0
LINE
  5
339
100
AcDbEntity
  8
0
100
AcDbLine
 62
7
  6
CONTINUOUS
 10
131.6669355624
 20
27.4173483406
 11
131.6669355624
 21
27.9173483406
  0
LINE
  5
33A
100
AcDbEntity
  8
0
100
AcDbLine
 62
7
  6
CONTINUOUS
 10
131.6669355624
 20
27.9173483406
 11
132.2769355624
 21
28.8573483406
  0
LINE
  5
33B
100
AcDbEntity
  8
0
100
AcDbLine
 62
7
  6
CONTINUOUS
 10
136.1969355624
 20
32.9744707805
 11
136.1969355624
 21
53.2473483406
  0
LINE
  5
33C
100
AcDbEntity
  8
0
100
AcDbLine
 62
7
  6
CONTINUOUS
 10
131.9969355624
 20
25.3173483406
 11
132.2969355624
 21
27.0573483406
  0
LINE
  5
33D
100
AcDbEntity
  8
0
100
AcDbLine
 62
7
  6
CONTINUOUS
 10
132.6469355624
 20
28.8573483406
 11
132.8578595762
 21
30.025096627
  0
LINE
  5
33E
100
AcDbEntity
  8
0
100
AcDbLine
 62
7
  6
CONTINUOUS
 10
141.2859524823
 20
27.2728515417
 11
140.9324529397
 21
26.9193519989
  0
LINE
  5
33F
100
AcDbEntity
  8
0
100
AcDbLine
 62
7
  6
CONTINUOUS
 10
138.1480246138
 20
44.7473483406
 11
138.1480246138
 21
36.7473483406
  0
LINE
  5
340
100
AcDbEntity
  8
0
100
AcDbLine
 62
7
  6
CONTINUOUS
 10
143.7619571371
 20
26.2473483406
 11
143.7619571371
 21
25.7473483406
  0
LINE
  5
341
100
AcDbEntity
  8
0
100
AcDbLine
 62
7
  6
CONTINUOUS
 10
143.7619571371
 20
55.2473483406
 11
143.7619571372
 21
55.7473483406
  0
LINE
  5
342
100
AcDbEntity
  8
0
100
AcDbLine
 62
7
  6
CONTINUOUS
 10
141.2859524823
 20
54.2218451395
 11
140.9324529396
 21
54.5753446822
  0
LINE
  5
343
100
AcDbEntity
  8
0
100
AcDbLine
 62
7
  6
CONTINUOUS
 10
165.6969355624
 20
26.2473483406
 11
165.6969355624
 21
25.7473483406
  0
LINE
  5
344
100
AcDbEntity
  8
0
100
AcDbLine
 62
7
  6
CONTINUOUS
 10
165.6969355624
 20
55.2473483406
 11
165.6969355624
 21
55.7473483406
  0
LINE
  5
345
100
AcDbEntity
  8
0
100
AcDbLine
 62
7
  6
CONTINUOUS
 10
169.1969355624
 20
29.7473483406
 11
169.1969355624
 21
51.7473483406
  0
LINE
  5
346
100
AcDbEntity
  8
0
100
AcDbLine
 62
7
  6
CONTINUOUS
 10
169.6969355624
 20
29.7473483406
 11
169.6969355624
 21
51.7473483406
  0
ARC
  5
347
100
AcDbEntity
  8
0
100
AcDbCircle
 62
7
  6
CONTINUOUS
 10
73.245846511
 20
123.0366750736
 40
2.5
100
AcDbArc
 50
323.1301023542
 51
357.0
  0
ARC
  5
348
100
AcDbEntity
  8
0
100
AcDbCircle
 62
7
  6
CONTINUOUS
 10
79.5824049371
 20
119.5350293485
 40
2.0016457251
100
AcDbArc
 50
89.2517901218
 51
89.9996993226
  0
ARC
  5
349
100
AcDbEntity
  8
0
100
AcDbCircle
 62
7
  6
CONTINUOUS
 10
73.245846511
 20
123.0366750736
 40
2.0
100
AcDbArc
 50
270.0
 51
357.0
  0
ARC
  5
34A
100
AcDbEntity
  8
0
100
AcDbCircle
 62
7
  6
CONTINUOUS
 10
42.1969355624
 20
120.5366750736
 40
0.5
100
AcDbArc
 50
90.0
 51
180.0
  0
ARC
  5
34B
100
AcDbEntity
  8
0
100
AcDbCircle
 62
7
  6
CONTINUOUS
 10
98.7571531397
 20
179.2363124448
 40
5.0
100
AcDbArc
 50
286.6743544721
 51
332.6175723528
  0
CIRCLE
  5
34C
100
AcDbEntity
  8
0
100
AcDbCircle
 62
7
  6
CONTINUOUS
 10
105.6969355624
 20
137.3366750736
 40
30.5
  0
CIRCLE
  5
34D
100
AcDbEntity
  8
0
100
AcDbCircle
 62
7
  6
CONTINUOUS
 10
105.6969355624
 20
137.3366750736
 40
28.0039326402
  0
CIRCLE
  5
34E
100
AcDbEntity
  8
0
100
AcDbCircle
 62
7
  6
CONTINUOUS
 10
105.6969355624
 20
137.3366750736
 40
27.1609240138
  0
CIRCLE
  5
34F
100
AcDbEntity
  8
0
100
AcDbCircle
 62
7
  6
CONTINUOUS
 10
105.6969355624
 20
137.3366750736
 40
26.95
  0
CIRCLE
  5
350
100
AcDbEntity
  8
0
100
AcDbCircle
 62
7
  6
CONTINUOUS
 10
105.6969355624
 20
137.3366750736
 40
26.6
  0
CIRCLE
  5
351
100
AcDbEntity
  8
0
100
AcDbCircle
 62
7
  6
CONTINUOUS
 10
105.6969355624
 20
137.3366750736
 40
26.3
  0
CIRCLE
  5
352
100
AcDbEntity
  8
0
100
AcDbCircle
 62
7
  6
CONTINUOUS
 10
105.6969355624
 20
137.3366750736
 40
22.87
  0
CIRCLE
  5
353
100
AcDbEntity
  8
0
100
AcDbCircle
 62
7
  6
CONTINUOUS
 10
105.6969355624
 20
137.3366750736
 40
22.27
  0
CIRCLE
  5
354
100
AcDbEntity
  8
0
100
AcDbCircle
 62
7
  6
CONTINUOUS
 10
105.6969355624
 20
137.3366750736
 40
18.94966657
  0
CIRCLE
  5
355
100
AcDbEntity
  8
0
100
AcDbCircle
 62
7
  6
CONTINUOUS
 10
105.6969355624
 20
137.3366750736
 40
16.65
  0
CIRCLE
  5
356
100
AcDbEntity
  8
0
100
AcDbCircle
 62
7
  6
CONTINUOUS
 10
105.6969355624
 20
137.3366750736
 40
10.0
  0
ARC
  5
357
100
AcDbEntity
  8
0
100
AcDbCircle
 62
7
  6
CONTINUOUS
 10
138.1480246138
 20
123.0366750736
 40
2.5
100
AcDbArc
 50
183.0
 51
216.8698976458
  0
ARC
  5
358
100
AcDbEntity
  8
0
100
AcDbCircle
 62
7
  6
CONTINUOUS
 10
138.1480246138
 20
123.0366750736
 40
2.0
100
AcDbArc
 50
183.0
 51
270.0
  0
ARC
  5
359
100
AcDbEntity
  8
0
100
AcDbCircle
 62
7
  6
CONTINUOUS
 10
131.8113872591
 20
119.5472447211
 40
1.9894303536
100
AcDbArc
 50
89.9980293735
 51
90.7501961174
  0
ARC
  5
35A
100
AcDbEntity
  8
0
100
AcDbCircle
 62
7
  6
CONTINUOUS
 10
169.1969355624
 20
120.5366750736
 40
0.5
100
AcDbArc
 50
0.0
 51
90.0
  0
ARC
  5
35B
100
AcDbEntity
  8
0
100
AcDbCircle
 62
7
  6
CONTINUOUS
 10
112.6367179851
 20
179.2363124448
 40
5.0
100
AcDbArc
 50
207.3824276472
 51
253.3256455279
  0
ARC
  5
35C
100
AcDbEntity
  8
0
100
AcDbCircle
 62
7
  6
CONTINUOUS
 10
105.6969355624
 20
180.579711957
 40
1.1569631166
100
AcDbArc
 50
34.5993290359
 51
145.4006709641
  0
ARC
  5
35D
100
AcDbEntity
  8
0
100
AcDbCircle
 62
7
  6
CONTINUOUS
 10
204.3737710141
 20
109.8366750736
 40
3.0
100
AcDbArc
 50
180.0
 51
213.543595119
  0
ARC
  5
35E
100
AcDbEntity
  8
0
100
AcDbCircle
 62
7
  6
CONTINUOUS
 10
202.3737710141
 20
120.5366750736
 40
0.5
100
AcDbArc
 50
90.0
 51
180.0
  0
ARC
  5
35F
100
AcDbEntity
  8
0
100
AcDbCircle
 62
7
  6
CONTINUOUS
 10
204.3737710141
 20
164.8366750736
 40
3.0
100
AcDbArc
 50
90.0
 51
180.0
  0
ARC
  5
360
100
AcDbEntity
  8
0
100
AcDbCircle
 62
7
  6
CONTINUOUS
 10
209.8271886428
 20
172.0234888055
 40
1.3034192198
100
AcDbArc
 50
182.5138755885
 51
182.8678623034
  0
ARC
  5
361
100
AcDbEntity
  8
0
100
AcDbCircle
 62
7
  6
CONTINUOUS
 10
209.8230344707
 20
172.0233613872
 40
1.299263458
100
AcDbArc
 50
180.0027038835
 51
229.3788381873
  0
ARC
  5
362
100
AcDbEntity
  8
0
100
AcDbCircle
 62
7
  6
CONTINUOUS
 10
209.8170621212
 20
172.0229033258
 40
1.2932760901
100
AcDbArc
 50
182.8644027479
 51
185.2647356
  0
ARC
  5
363
100
AcDbEntity
  8
0
100
AcDbCircle
 62
7
  6
CONTINUOUS
 10
209.8079701296
 20
172.0221227631
 40
1.2841506228
100
AcDbArc
 50
185.2685203156
 51
188.1944795445
  0
ARC
  5
364
100
AcDbEntity
  8
0
100
AcDbCircle
 62
7
  6
CONTINUOUS
 10
209.8023020524
 20
172.0213328509
 40
1.2784278282
100
AcDbArc
 50
188.1956467747
 51
188.3198094592
  0
ARC
  5
365
100
AcDbEntity
  8
0
100
AcDbCircle
 62
7
  6
CONTINUOUS
 10
209.7917349538
 20
172.0197241013
 40
1.2677391578
100
AcDbArc
 50
188.3169722149
 51
190.4676530176
  0
ARC
  5
366
100
AcDbEntity
  8
0
100
AcDbCircle
 62
7
  6
CONTINUOUS
 10
209.7826056733
 20
172.0181004086
 40
1.2584668186
100
AcDbArc
 50
190.4704730631
 51
191.4987993437
  0
ARC
  5
367
100
AcDbEntity
  8
0
100
AcDbCircle
 62
7
  6
CONTINUOUS
 10
209.7775802685
 20
172.0170705013
 40
1.25333697
100
AcDbArc
 50
191.4984594763
 51
192.7371928487
  0
ARC
  5
368
100
AcDbEntity
  8
0
100
AcDbCircle
 62
7
  6
CONTINUOUS
 10
207.9339885914
 20
179.2363124448
 40
5.0
100
AcDbArc
 50
281.2274975868
 51
332.6175723528
  0
ARC
  5
369
100
AcDbEntity
  8
0
100
AcDbCircle
 62
7
  6
CONTINUOUS
 10
209.0929800891
 20
173.6513496412
 40
0.6946381397
100
AcDbArc
 50
101.5162868512
 51
106.0801003034
  0
ARC
  5
36A
100
AcDbEntity
  8
0
100
AcDbCircle
 62
7
  6
CONTINUOUS
 10
209.0807154069
 20
173.6944469756
 40
0.6498299054
100
AcDbArc
 50
106.0935294364
 51
108.4406948189
  0
ARC
  5
36B
100
AcDbEntity
  8
0
100
AcDbCircle
 62
7
  6
CONTINUOUS
 10
209.0404863968
 20
173.8288357665
 40
0.5204413566
100
AcDbArc
 50
104.8031550558
 51
173.1398900863
  0
ARC
  5
36C
100
AcDbEntity
  8
0
100
AcDbCircle
 62
7
  6
CONTINUOUS
 10
209.0386706171
 20
173.8289684155
 40
0.5186236301
100
AcDbArc
 50
169.7765195081
 51
169.9793208577
  0
ARC
  5
36D
100
AcDbEntity
  8
0
100
AcDbCircle
 62
7
  6
CONTINUOUS
 10
209.0372416963
 20
173.8291969035
 40
0.5171767502
100
AcDbArc
 50
169.9767024481
 51
173.1366757762
  0
ARC
  5
36E
100
AcDbEntity
  8
0
100
AcDbCircle
 62
7
  6
CONTINUOUS
 10
209.0348866062
 20
173.8296924433
 40
0.5147711935
100
AcDbArc
 50
166.8309457621
 51
169.7810735585
  0
ARC
  5
36F
100
AcDbEntity
  8
0
100
AcDbCircle
 62
7
  6
CONTINUOUS
 10
209.0288557017
 20
173.8310716749
 40
0.5085845484
100
AcDbArc
 50
164.0302907561
 51
166.8259484096
  0
ARC
  5
370
100
AcDbEntity
  8
0
100
AcDbCircle
 62
7
  6
CONTINUOUS
 10
209.02773809
 20
173.8313891315
 40
0.5074227268
100
AcDbArc
 50
162.8566588121
 51
164.0300330359
  0
ARC
  5
371
100
AcDbEntity
  8
0
100
AcDbCircle
 62
7
  6
CONTINUOUS
 10
209.0262542282
 20
173.8318502202
 40
0.5058688805
100
AcDbArc
 50
161.1060662738
 51
162.8570229172
  0
ARC
  5
372
100
AcDbEntity
  8
0
100
AcDbCircle
 62
7
  6
CONTINUOUS
 10
219.9203274387
 20
172.023489053
 40
1.3034451197
100
AcDbArc
 50
357.136361498
 51
357.4802266415
  0
ARC
  5
373
100
AcDbEntity
  8
0
100
AcDbCircle
 62
7
  6
CONTINUOUS
 10
219.92440274
 20
172.023364308
 40
1.2993682757
100
AcDbArc
 50
310.6211620739
 51
359.9971539611
  0
ARC
  5
374
100
AcDbEntity
  8
0
100
AcDbCircle
 62
7
  6
CONTINUOUS
 10
219.9304816993
 20
172.0229025893
 40
1.2932742423
100
AcDbArc
 50
354.7365513096
 51
357.1398363253
  0
ARC
  5
375
100
AcDbEntity
  8
0
100
AcDbCircle
 62
7
  6
CONTINUOUS
 10
219.9395668181
 20
172.0221234203
 40
1.2841557455
100
AcDbArc
 50
351.8086357404
 51
354.732750526
  0
ARC
  5
376
100
AcDbEntity
  8
0
100
AcDbCircle
 62
7
  6
CONTINUOUS
 10
219.9452374811
 20
172.0213332577
 40
1.2784303544
100
AcDbArc
 50
351.6765693821
 51
351.8074770535
  0
ARC
  5
377
100
AcDbEntity
  8
0
100
AcDbCircle
 62
7
  6
CONTINUOUS
 10
219.9558214882
 20
172.019721536
 40
1.2677245194
100
AcDbArc
 50
349.5337063101
 51
351.6793984166
  0
ARC
  5
378
100
AcDbEntity
  8
0
100
AcDbCircle
 62
7
  6
CONTINUOUS
 10
219.9649564926
 20
172.0180967583
 40
1.2584463529
100
AcDbArc
 50
348.4954751144
 51
349.5308974672
  0
ARC
  5
379
100
AcDbEntity
  8
0
100
AcDbCircle
 62
7
  6
CONTINUOUS
 10
219.9698410357
 20
172.0170962062
 40
1.25346039
100
AcDbArc
 50
347.3078872538
 51
348.4957608365
  0
ARC
  5
37A
100
AcDbEntity
  8
0
100
AcDbCircle
 62
7
  6
CONTINUOUS
 10
214.8737710141
 20
180.579711957
 40
1.1569631166
100
AcDbArc
 50
34.5993290359
 51
145.4006709641
  0
CIRCLE
  5
37B
100
AcDbEntity
  8
0
100
AcDbCircle
 62
7
  6
CONTINUOUS
 10
238.7537710141
 20
137.3366750736
 40
3.0
  0
ARC
  5
37C
100
AcDbEntity
  8
0
100
AcDbCircle
 62
7
  6
CONTINUOUS
 10
231.3737710141
 20
120.5366750736
 40
0.5
100
AcDbArc
 50
0.0
 51
90.0
  0
ARC
  5
37D
100
AcDbEntity
  8
0
100
AcDbCircle
 62
7
  6
CONTINUOUS
 10
221.8135534368
 20
179.2363124448
 40
5.0
100
AcDbArc
 50
207.3824276472
 51
258.7725024132
  0
ARC
  5
37E
100
AcDbEntity
  8
0
100
AcDbCircle
 62
7
  6
CONTINUOUS
 10
227.7737710141
 20
165.4816750736
 40
1.0
100
AcDbArc
 50
188.109614456
 51
259.761368757
  0
ARC
  5
37F
100
AcDbEntity
  8
0
100
AcDbCircle
 62
7
  6
CONTINUOUS
 10
220.6481446138
 20
173.6234140407
 40
0.7232928862
100
AcDbArc
 50
76.2252048865
 51
78.4274000638
  0
ARC
  5
380
100
AcDbEntity
  8
0
100
AcDbCircle
 62
7
  6
CONTINUOUS
 10
220.6636015659
 20
173.684371591
 40
0.6604083201
100
AcDbArc
 50
71.6256934884
 51
76.2684125498
  0
ARC
  5
381
100
AcDbEntity
  8
0
100
AcDbCircle
 62
7
  6
CONTINUOUS
 10
220.7088262412
 20
173.8289582407
 40
0.5186697848
100
AcDbArc
 50
10.0288971354
 51
10.2208098699
  0
ARC
  5
382
100
AcDbEntity
  8
0
100
AcDbCircle
 62
7
  6
CONTINUOUS
 10
220.7103344919
 20
173.829200266
 40
0.5171424333
100
AcDbArc
 50
6.8634066349
 51
10.0315923928
  0
ARC
  5
383
100
AcDbEntity
  8
0
100
AcDbCircle
 62
7
  6
CONTINUOUS
 10
220.7125580137
 20
173.829673032
 40
0.5148703985
100
AcDbArc
 50
10.216216765
 51
13.1901490073
  0
ARC
  5
384
100
AcDbEntity
  8
0
100
AcDbCircle
 62
7
  6
CONTINUOUS
 10
220.718788629
 20
173.8311008669
 40
0.5084782341
100
AcDbArc
 50
13.1951932489
 51
15.9477116197
  0
ARC
  5
385
100
AcDbEntity
  8
0
100
AcDbCircle
 62
7
  6
CONTINUOUS
 10
220.7198995188
 20
173.8314164061
 40
0.5073234017
100
AcDbArc
 50
15.9479186449
 51
17.2180405209
  0
ARC
  5
386
100
AcDbEntity
  8
0
100
AcDbCircle
 62
7
  6
CONTINUOUS
 10
220.72111928
 20
173.8317948166
 40
0.506046291
100
AcDbArc
 50
17.217996126
 51
18.5039072589
  0
ARC
  5
387
100
AcDbEntity
  8
0
100
AcDbCircle
 62
7
  6
CONTINUOUS
 10
67.6319898355
 20
29.7487255071
 40
4.0013771672
100
AcDbArc
 50
269.9989139348
 51
315.000555275
  0
ARC
  5
388
100
AcDbEntity
  8
0
100
AcDbCircle
 62
7
  6
CONTINUOUS
 10
45.6969355624
 20
29.7473483406
 40
4.0
100
AcDbArc
 50
180.0
 51
270.0
  0
ARC
  5
389
100
AcDbEntity
  8
0
100
AcDbCircle
 62
7
  6
CONTINUOUS
 10
67.6319690633
 20
29.7490563043
 40
3.5017076819
100
AcDbArc
 50
269.9990988402
 51
314.9970475608
  0
ARC
  5
38A
100
AcDbEntity
  8
0
100
AcDbCircle
 62
7
  6
CONTINUOUS
 10
45.6969355624
 20
29.7473483406
 40
3.5
100
AcDbArc
 50
180.0
 51
270.0
  0
ARC
  5
38B
100
AcDbEntity
  8
0
100
AcDbCircle
 62
7
  6
CONTINUOUS
 10
77.5519355624
 20
29.8473483406
 40
1.0
100
AcDbArc
 50
10.238631243
 51
81.890385544
  0
CIRCLE
  5
38C
100
AcDbEntity
  8
0
100
AcDbCircle
 62
7
  6
CONTINUOUS
 10
57.6969355624
 20
40.7473483406
 40
10.5
  0
ARC
  5
38D
100
AcDbEntity
  8
0
100
AcDbCircle
 62
7
  6
CONTINUOUS
 10
62.6969355624
 20
40.7473483406
 40
6.0
100
AcDbArc
 50
325.1683008227
 51
34.8316991773
  0
ARC
  5
38E
100
AcDbEntity
  8
0
100
AcDbCircle
 62
7
  6
CONTINUOUS
 10
52.6969355624
 20
40.7473483406
 40
6.0
100
AcDbArc
 50
145.1683008227
 51
214.8316991773
  0
CIRCLE
  5
38F
100
AcDbEntity
  8
0
100
AcDbCircle
 62
7
  6
CONTINUOUS
 10
57.6969355624
 20
40.7473483406
 40
5.25
  0
ARC
  5
390
100
AcDbEntity
  8
0
100
AcDbCircle
 62
7
  6
CONTINUOUS
 10
67.6317540714
 20
51.742269524
 40
4.0050788198
100
AcDbArc
 50
84.3772155921
 51
89.9977122724
  0
ARC
  5
391
100
AcDbEntity
  8
0
100
AcDbCircle
 62
7
  6
CONTINUOUS
 10
67.632028489
 20
51.7460343431
 40
4.001305168
100
AcDbArc
 50
44.999196489
 51
84.1932563685
  0
ARC
  5
392
100
AcDbEntity
  8
0
100
AcDbCircle
 62
7
  6
CONTINUOUS
 10
45.6969355624
 20
51.7473483406
 40
4.0
100
AcDbArc
 50
90.0
 51
180.0
  0
ARC
  5
393
100
AcDbEntity
  8
0
100
AcDbCircle
 62
7
  6
CONTINUOUS
 10
67.6323465303
 20
51.7494043921
 40
3.9979202342
100
AcDbArc
 50
84.192904533
 51
84.3756469267
  0
ARC
  5
394
100
AcDbEntity
  8
0
100
AcDbCircle
 62
7
  6
CONTINUOUS
 10
67.6319694593
 20
51.7456414958
 40
3.5017064896
100
AcDbArc
 50
45.0029440757
 51
90.0009076393
  0
ARC
  5
395
100
AcDbEntity
  8
0
100
AcDbCircle
 62
7
  6
CONTINUOUS
 10
45.6969355624
 20
51.7473483406
 40
3.5
100
AcDbArc
 50
90.0
 51
180.0
  0
ARC
  5
396
100
AcDbEntity
  8
0
100
AcDbCircle
 62
7
  6
CONTINUOUS
 10
78.1969355624
 20
53.2473483406
 40
3.0
100
AcDbArc
 50
90.0
 51
180.0
  0
ARC
  5
397
100
AcDbEntity
  8
0
100
AcDbCircle
 62
7
  6
CONTINUOUS
 10
143.7618812893
 20
29.7487255069
 40
4.0013771671
100
AcDbArc
 50
224.999444724
 51
270.0010860662
  0
ARC
  5
398
100
AcDbEntity
  8
0
100
AcDbCircle
 62
7
  6
CONTINUOUS
 10
165.6969355624
 20
29.7473483406
 40
4.0
100
AcDbArc
 50
270.0
 51
360.0
  0
ARC
  5
399
100
AcDbEntity
  8
0
100
AcDbCircle
 62
7
  6
CONTINUOUS
 10
143.7619016607
 20
29.7490551514
 40
3.5017064896
100
AcDbArc
 50
225.0029437385
 51
270.0009077185
  0
ARC
  5
39A
100
AcDbEntity
  8
0
100
AcDbCircle
 62
7
  6
CONTINUOUS
 10
165.6969355624
 20
29.7473483406
 40
3.5
100
AcDbArc
 50
270.0
 51
360.0
  0
CIRCLE
  5
39B
100
AcDbEntity
  8
0
100
AcDbCircle
 62
7
  6
CONTINUOUS
 10
105.6969355624
 20
18.8673483406
 40
3.0
  0
ARC
  5
39C
100
AcDbEntity
  8
0
100
AcDbCircle
 62
7
  6
CONTINUOUS
 10
133.8419355624
 20
29.8473483406
 40
1.0
100
AcDbArc
 50
98.109614456
 51
169.761368757
  0
CIRCLE
  5
39D
100
AcDbEntity
  8
0
100
AcDbCircle
 62
7
  6
CONTINUOUS
 10
153.6969355624
 20
40.7473483406
 40
10.5
  0
CIRCLE
  5
39E
100
AcDbEntity
  8
0
100
AcDbCircle
 62
7
  6
CONTINUOUS
 10
105.6969355624
 20
42.7473483406
 40
7.4
  0
CIRCLE
  5
39F
100
AcDbEntity
  8
0
100
AcDbCircle
 62
7
  6
CONTINUOUS
 10
105.6969355624
 20
42.7473483406
 40
7.0
  0
ARC
  5
3A0
100
AcDbEntity
  8
0
100
AcDbCircle
 62
7
  6
CONTINUOUS
 10
158.6969355624
 20
40.7473483406
 40
6.0
100
AcDbArc
 50
325.1683008227
 51
34.8316991773
  0
ARC
  5
3A1
100
AcDbEntity
  8
0
100
AcDbCircle
 62
7
  6
CONTINUOUS
 10
148.6969355624
 20
40.7473483406
 40
6.0
100
AcDbArc
 50
145.1683008227
 51
214.8316991773
  0
ARC
  5
3A2
100
AcDbEntity
  8
0
100
AcDbCircle
 62
7
  6
CONTINUOUS
 10
105.6969355624
 20
42.7473483406
 40
5.9662568618
100
AcDbArc
 50
322.8200905835
 51
337.1799094165
  0
ARC
  5
3A3
100
AcDbEntity
  8
0
100
AcDbCircle
 62
7
  6
CONTINUOUS
 10
105.6969355624
 20
42.7473483406
 40
5.9662568618
100
AcDbArc
 50
22.8200905835
 51
37.1799094165
  0
ARC
  5
3A4
100
AcDbEntity
  8
0
100
AcDbCircle
 62
7
  6
CONTINUOUS
 10
105.6969355624
 20
42.7473483406
 40
5.9662568618
100
AcDbArc
 50
202.8200905835
 51
217.1799094165
  0
ARC
  5
3A5
100
AcDbEntity
  8
0
100
AcDbCircle
 62
7
  6
CONTINUOUS
 10
105.6969355624
 20
42.7473483406
 40
5.9662568618
100
AcDbArc
 50
262.8200905835
 51
277.1799094165
  0
ARC
  5
3A6
100
AcDbEntity
  8
0
100
AcDbCircle
 62
7
  6
CONTINUOUS
 10
105.6969355624
 20
42.7473483406
 40
5.9662568618
100
AcDbArc
 50
82.8200905835
 51
97.1799094165
  0
ARC
  5
3A7
100
AcDbEntity
  8
0
100
AcDbCircle
 62
7
  6
CONTINUOUS
 10
105.6969355624
 20
42.7473483406
 40
5.9662568618
100
AcDbArc
 50
142.8200905835
 51
157.1799094165
  0
CIRCLE
  5
3A8
100
AcDbEntity
  8
0
100
AcDbCircle
 62
7
  6
CONTINUOUS
 10
153.6969355624
 20
40.7473483406
 40
5.25
  0
ARC
  5
3A9
100
AcDbEntity
  8
0
100
AcDbCircle
 62
7
  6
CONTINUOUS
 10
143.7621169317
 20
51.7422720031
 40
4.0050763407
100
AcDbArc
 50
90.0022859875
 51
95.622787052
  0
ARC
  5
3AA
100
AcDbEntity
  8
0
100
AcDbCircle
 62
7
  6
CONTINUOUS
 10
143.7618364318
 20
51.7460316902
 40
4.0013051689
100
AcDbArc
 50
95.8066514058
 51
135.0007138332
  0
ARC
  5
3AB
100
AcDbEntity
  8
0
100
AcDbCircle
 62
7
  6
CONTINUOUS
 10
165.6969355624
 20
51.7473483406
 40
4.0
100
AcDbArc
 50
0.0
 51
90.0
  0
ARC
  5
3AC
100
AcDbEntity
  8
0
100
AcDbCircle
 62
7
  6
CONTINUOUS
 10
143.7615248202
 20
51.7494026204
 40
3.9979220194
100
AcDbArc
 50
95.6243547075
 51
95.8070961138
  0
ARC
  5
3AD
100
AcDbEntity
  8
0
100
AcDbCircle
 62
7
  6
CONTINUOUS
 10
143.7619020947
 20
51.7456403189
 40
3.5017076819
100
AcDbArc
 50
89.9990993839
 51
134.9970472751
  0
ARC
  5
3AE
100
AcDbEntity
  8
0
100
AcDbCircle
 62
7
  6
CONTINUOUS
 10
165.6969355624
 20
51.7473483406
 40
3.5
100
AcDbArc
 50
0.0
 51
90.0
  0
CIRCLE
  5
3AF
100
AcDbEntity
  8
0
100
AcDbCircle
 62
7
  6
CONTINUOUS
 10
105.6969355624
 20
42.7473483406
 40
3.3
  0
ARC
  5
3B0
100
AcDbEntity
  8
0
100
AcDbCircle
 62
7
  6
CONTINUOUS
 10
133.1969355624
 20
53.2473483406
 40
3.0
100
AcDbArc
 50
0.0
 51
90.0
  0
CIRCLE
  5
3B1
100
AcDbEntity
  8
0
100
AcDbCircle
 62
7
  6
CONTINUOUS
 10
105.6969355624
 20
42.7473483406
 40
2.5
  0
CIRCLE
  5
3B2
100
AcDbEntity
  8
0
100
AcDbCircle
 62
7
  6
CONTINUOUS
 10
105.6969355624
 20
42.7473483406
 40
0.9523461117
  0
LINE
  5
3B3
100
AcDbEntity
  8
0
100
AcDbLine
 62
7
  6
CONTINUOUS
 10
140.9324529396
 20
120.5454012768
 11
143.7619571371
 21
120.5366750736
  0
SPLINE
  5
3B4
100
AcDbEntity
  8
0
100
AcDbSpline
 62
7
  6
CONTINUOUS
 70
0
 71
3
 72
9
 73
5
 74
3
 42
0.0000001
 43
0.0000001
 44
0.0000000001
 12
0.3501120496
 22
0.0583938335
 32
0.0
 13
0.3549482879
 23
-0.000003322
 33
0.0
 40
0.0
 40
0.0
 40
0.0
 40
0.0
 40
0.2502653184
 40
1.0
 40
1.0
 40
1.0
 40
1.0
 10
131.4578923756
 20
121.0080779426
 30
0.0
 10
131.4870993435
 20
121.0129492598
 30
0.0
 10
131.6042354331
 20
121.0297624177
 30
0.0
 10
131.7227500029
 20
121.0366759038
 30
0.0
 10
131.8114556834
 20
121.0366750736
 30
0.0
 11
131.4578923756
 21
121.0080779426
 31
0.0
 11
131.545815883
 21
121.0207447169
 31
0.0
 11
131.8114556834
 21
121.0366750736
 31
0.0
  0
SPLINE
  5
3B5
100
AcDbEntity
  8
0
100
AcDbSpline
 62
7
  6
CONTINUOUS
 70
0
 71
3
 72
13
 73
9
 74
7
 42
0.0000001
 43
0.0000001
 44
0.0000000001
 12
-0.6644755374
 22
0.0
 32
0.0
 13
-0.0082007218
 23
-0.6644249303
 33
0.0
 40
0.0
 40
0.0
 40
0.0
 40
0.0
 40
0.1036368064
 40
0.210951753
 40
0.3247787481
 40
0.446608495
 40
0.7128432329
 40
1.0
 40
1.0
 40
1.0
 40
1.0
 10
141.2859524823
 20
121.0366750736
 30
0.0
 10
141.2629977748
 20
121.0366750736
 30
0.0
 10
141.2160397642
 20
121.0300947453
 30
0.0
 10
141.1493179285
 20
121.0012715953
 30
0.0
 10
141.0882451579
 20
120.9549964612
 30
0.0
 10
141.0151856113
 20
120.8703187076
 30
0.0
 10
140.9511056223
 20
120.7319827872
 30
0.0
 10
140.933237904
 20
120.6089993151
 30
0.0
 10
140.9324529397
 20
120.5454012768
 30
0.0
 11
141.2859524823
 21
121.0366750736
 31
0.0
 11
141.2177323682
 21
121.0272791482
 31
0.0
 11
141.1520810242
 21
120.9994447405
 31
0.0
 11
141.0914571332
 21
120.9542182499
 31
0.0
 11
141.0381442712
 21
120.893299381
 31
0.0
 11
140.961111129
 21
120.7340455134
 31
0.0
 11
140.9324529397
 21
120.5454012768
 31
0.0
  0
SPLINE
  5
3B6
100
AcDbEntity
  8
0
100
AcDbSpline
 62
7
  6
CONTINUOUS
 70
0
 71
3
 72
13
 73
9
 74
7
 42
0.0000001
 43
0.0000001
 44
0.0000000001
 12
4.0002175485
 22
0.3556098388
 32
0.0
 13
4.0002175485
 23
-0.3556098388
 33
0.0
 40
0.0
 40
0.0
 40
0.0
 40
0.0
 40
0.2500797477
 40
0.3750578872
 40
0.5
 40
0.6249421127
 40
0.7499202522
 40
1.0
 40
1.0
 40
1.0
 40
1.0
 10
106.4426302286
 20
174.3320033209
 30
0.0
 10
106.7760880271
 20
174.3616469272
 30
0.0
 10
107.2762070965
 20
174.407005627
 30
0.0
 10
107.9447275859
 20
174.442091151
 30
0.0
 10
108.4465662193
 20
174.4514218892
 30
0.0
 10
108.9484048529
 20
174.4420911525
 30
0.0
 10
109.6169253424
 20
174.4070056289
 30
0.0
 10
110.1170444117
 20
174.3616469272
 30
0.0
 10
110.4505022102
 20
174.3320033209
 30
0.0
 11
106.4426302286
 21
174.3320033209
 31
0.0
 11
107.4436228297
 21
174.4136699201
 31
0.0
 11
107.9448811721
 21
174.4392637696
 31
0.0
 11
108.4465662193
 21
174.4483119423
 31
0.0
 11
108.9482512666
 21
174.4392637709
 31
0.0
 11
109.4495096092
 21
174.4136699217
 31
0.0
 11
110.4505022102
 21
174.3320033209
 31
0.0
  0
SPLINE
  5
3B7
100
AcDbEntity
  8
0
100
AcDbSpline
 62
7
  6
CONTINUOUS
 70
0
 71
3
 72
9
 73
5
 74
3
 42
0.0000001
 43
0.0000001
 44
0.0000000001
 12
-0.3501368348
 22
0.0582579343
 32
0.0
 13
-0.3549504029
 23
-0.0000387055
 33
0.0
 40
0.0
 40
0.0
 40
0.0
 40
0.0
 40
0.2502287189
 40
1.0
 40
1.0
 40
1.0
 40
1.0
 10
79.9359816255
 20
121.0080774711
 30
0.0
 10
79.9067768616
 20
121.0129367405
 30
0.0
 10
79.7896415049
 20
121.0297530149
 30
0.0
 10
79.6711259808
 20
121.036684747
 30
0.0
 10
79.5824154414
 20
121.0366750736
 30
0.0
 11
79.9359816255
 21
121.0080774711
 31
0.0
 11
79.8480691827
 21
121.0207336553
 31
0.0
 11
79.5824154414
 21
121.0366750736
 31
0.0
  0
SPLINE
  5
3B8
100
AcDbEntity
  8
0
100
AcDbSpline
 62
7
  6
CONTINUOUS
 70
0
 71
3
 72
13
 73
9
 74
7
 42
0.0000001
 43
0.0000001
 44
0.0000000001
 12
4.0002175482
 22
0.3556098387
 32
0.0
 13
4.0002175482
 23
-0.3556098387
 33
0.0
 40
0.0
 40
0.0
 40
0.0
 40
0.0
 40
0.2500797475
 40
0.375057887
 40
0.5
 40
0.6249421131
 40
0.7499202525
 40
1.0
 40
1.0
 40
1.0
 40
1.0
 10
100.9433689146
 20
174.3320033209
 30
0.0
 10
101.2768267127
 20
174.3616469272
 30
0.0
 10
101.7769457818
 20
174.4070056275
 30
0.0
 10
102.4454662713
 20
174.4420911509
 30
0.0
 10
102.9473049055
 20
174.4514218879
 30
0.0
 10
103.4491435397
 20
174.4420911493
 30
0.0
 10
104.117664029
 20
174.4070056256
 30
0.0
 10
104.6177830981
 20
174.3616469272
 30
0.0
 10
104.9512408962
 20
174.3320033209
 30
0.0
 11
100.9433689146
 21
174.3320033209
 31
0.0
 11
101.9443615146
 21
174.4136699203
 31
0.0
 11
102.4456198573
 21
174.4392637693
 31
0.0
 11
102.9473049055
 21
174.4483119409
 31
0.0
 11
103.4489899537
 21
174.439263768
 31
0.0
 11
103.9502482962
 21
174.4136699188
 31
0.0
 11
104.9512408962
 21
174.3320033209
 31
0.0
  0
SPLINE
  5
3B9
100
AcDbEntity
  8
0
100
AcDbSpline
 62
7
  6
CONTINUOUS
 70
0
 71
3
 72
13
 73
9
 74
7
 42
0.0000001
 43
0.0000001
 44
0.0000000001
 12
0.6644755362
 22
0.0
 32
0.0
 13
0.0082007279
 23
-0.664424929
 33
0.0
 40
0.0
 40
0.0
 40
0.0
 40
0.0
 40
0.1036368054
 40
0.2109517514
 40
0.3247787463
 40
0.4466084933
 40
0.7128432321
 40
1.0
 40
1.0
 40
1.0
 40
1.0
 10
70.1079186425
 20
121.0366750736
 30
0.0
 10
70.1308733498
 20
121.0366750736
 30
0.0
 10
70.1778313599
 20
121.0300947453
 30
0.0
 10
70.244553195
 20
121.0012715953
 30
0.0
 10
70.3056259653
 20
120.9549964611
 30
0.0
 10
70.3786855117
 20
120.8703187074
 30
0.0
 10
70.442765501
 20
120.7319827873
 30
0.0
 10
70.4606332204
 20
120.6089993152
 30
0.0
 10
70.4614181852
 20
120.5454012768
 30
0.0
 11
70.1079186425
 21
121.0366750736
 31
0.0
 11
70.1761387558
 21
121.0272791482
 31
0.0
 11
70.2417900993
 21
120.9994447405
 31
0.0
 11
70.30241399
 21
120.9542182499
 31
0.0
 11
70.3557268518
 21
120.893299381
 31
0.0
 11
70.4327599945
 21
120.7340455134
 31
0.0
 11
70.4614181852
 21
120.5454012768
 31
0.0
  0
SPLINE
  5
3BA
100
AcDbEntity
  8
0
100
AcDbSpline
 62
7
  6
CONTINUOUS
 70
0
 71
3
 72
12
 73
8
 74
6
 42
0.0000001
 43
0.0000001
 44
0.0000000001
 12
-1.7368094594
 22
-1.1581360234
 32
0.0
 13
-2.0875311012
 23
-0.0002206909
 33
0.0
 40
0.0
 40
0.0
 40
0.0
 40
0.0
 40
0.1285920256
 40
0.2558414019
 40
0.5064204979
 40
0.7538918956
 40
1.0
 40
1.0
 40
1.0
 40
1.0
 10
75.245846511
 20
121.5366750736
 30
0.0
 10
75.1713998956
 20
121.4870327212
 30
0.0
 10
75.0161645175
 20
121.398736844
 30
0.0
 10
74.6926098579
 20
121.2580611949
 30
0.0
 10
74.2731373829
 20
121.1359487291
 30
0.0
 10
73.7608528692
 20
121.0542006049
 30
0.0
 10
73.4171005698
 20
121.0366931782
 30
0.0
 10
73.2458477957
 20
121.0366750736
 30
0.0
 11
75.245846511
 21
121.5366750736
 31
0.0
 11
75.0132724602
 21
121.4026255819
 31
0.0
 11
74.7700374866
 21
121.2958558273
 31
0.0
 11
74.2688371051
 21
121.146112509
 31
0.0
 11
73.758916788
 21
121.0632800678
 31
0.0
 11
73.2458477957
 21
121.0366750736
 31
0.0
  0
LINE
  5
3BB
100
AcDbEntity
  8
0
100
AcDbLine
 62
7
  6
CONTINUOUS
 10
75.2458465037
 20
121.5366750748
 11
74.845846465
 21
121.8366750122
  0
SPLINE
  5
3BC
100
AcDbEntity
  8
0
100
AcDbSpline
 62
7
  6
CONTINUOUS
 70
0
 71
3
 72
12
 73
8
 74
6
 42
0.0000001
 43
0.0000001
 44
0.0000000001
 12
-2.0875320549
 22
0.0000553691
 32
0.0
 13
-1.7369296621
 23
1.1579574396
 33
0.0
 40
0.0
 40
0.0
 40
0.0
 40
0.0
 40
0.2461100676
 40
0.4935802625
 40
0.7441597782
 40
0.8714100405
 40
1.0
 40
1.0
 40
1.0
 40
1.0
 10
138.1480244893
 20
121.0366750736
 30
0.0
 10
137.9767702709
 20
121.0366796159
 30
0.0
 10
137.6330172773
 20
121.0542036267
 30
0.0
 10
137.1207313306
 20
121.1359509917
 30
0.0
 10
136.7012648969
 20
121.2580759594
 30
0.0
 10
136.377696391
 20
121.3987231849
 30
0.0
 10
136.2224751854
 20
121.4870411735
 30
0.0
 10
136.1480246138
 20
121.5366750736
 30
0.0
 11
138.1480244893
 21
121.0366750736
 31
0.0
 11
137.6349511068
 21
121.0632790248
 31
0.0
 11
137.1250340145
 21
121.1461171128
 31
0.0
 11
136.6238324583
 21
121.2958603857
 31
0.0
 11
136.380591758
 21
121.4026219932
 31
0.0
 11
136.1480246138
 21
121.5366750736
 31
0.0
  0
SPLINE
  5
3BD
100
AcDbEntity
  8
0
100
AcDbSpline
 62
7
  6
CONTINUOUS
 70
0
 71
3
 72
14
 73
10
 74
8
 42
0.0000001
 43
0.0000001
 44
0.0000000001
 12
-0.9113533221
 22
-0.1078588503
 32
0.0
 13
-0.1872098508
 23
-0.8984157618
 33
0.0
 40
0.0
 40
0.0
 40
0.0
 40
0.0
 40
0.2413987922
 40
0.3628587502
 40
0.4852042253
 40
0.6089920583
 40
0.735146141
 40
0.8650717339
 40
1.0
 40
1.0
 40
1.0
 40
1.0
 10
106.4426302286
 20
174.3320033209
 30
0.0
 10
106.3692970315
 20
174.3233243222
 30
0.0
 10
106.259489013
 20
174.3046352087
 30
0.0
 10
106.1166886841
 20
174.2636301691
 30
0.0
 10
106.0117385815
 20
174.2226943182
 30
0.0
 10
105.9109070816
 20
174.1690552109
 30
0.0
 10
105.817450319
 20
174.098937581
 30
0.0
 10
105.7382620218
 20
174.0077749996
 30
0.0
 10
105.7053555293
 20
173.9314074438
 30
0.0
 10
105.6969355624
 20
173.8910002168
 30
0.0
 11
106.4426302286
 21
174.3320033209
 31
0.0
 11
106.2245276779
 21
174.2931571799
 31
0.0
 11
106.1174820062
 21
174.2620802717
 31
0.0
 11
106.0130420954
 21
174.220865219
 31
0.0
 11
105.9130695387
 21
174.1669128858
 31
0.0
 11
105.8210817137
 21
174.0966156342
 31
0.0
 11
105.744264386
 21
174.0054237327
 31
0.0
 11
105.6969355624
 21
173.8910002168
 31
0.0
  0
SPLINE
  5
3BE
100
AcDbEntity
  8
0
100
AcDbSpline
 62
7
  6
CONTINUOUS
 70
0
 71
3
 72
13
 73
9
 74
7
 42
0.0000001
 43
0.0000001
 44
0.0000000001
 12
0.0
 22
-1.4273952477
 32
0.0
 13
1.3442112618
 23
-0.4801596367
 33
0.0
 40
0.0
 40
0.0
 40
0.0
 40
0.0
 40
0.1339266861
 40
0.2655022702
 40
0.3937584021
 40
0.5189071303
 40
0.7620201566
 40
1.0
 40
1.0
 40
1.0
 40
1.0
 10
105.6969355624
 20
172.0233000187
 30
0.0
 10
105.6969355624
 20
171.9595779136
 30
0.0
 10
105.7133322825
 20
171.8326922272
 30
0.0
 10
105.7820881011
 20
171.6567444075
 30
0.0
 10
105.8836373128
 20
171.502906129
 30
0.0
 10
106.046765265
 20
171.3307432205
 30
0.0
 10
106.2871554895
 20
171.165940777
 30
0.0
 10
106.4980134751
 20
171.0745215463
 30
0.0
 10
106.6046452036
 20
171.0364321079
 30
0.0
 11
105.6969355624
 21
172.0233000187
 31
0.0
 11
105.7211016751
 21
171.8336673235
 31
0.0
 11
105.7886085239
 21
171.6584087773
 31
0.0
 11
105.8886612494
 21
171.5050957641
 31
0.0
 11
106.0109000663
 21
171.3748316393
 31
0.0
 11
106.2943217948
 21
171.17459708
 31
0.0
 11
106.6046452036
 21
171.0364321079
 31
0.0
  0
SPLINE
  5
3BF
100
AcDbEntity
  8
0
100
AcDbSpline
 62
7
  6
CONTINUOUS
 70
0
 71
3
 72
13
 73
9
 74
7
 42
0.0000001
 43
0.0000001
 44
0.0000000001
 12
1.3443420618
 22
0.4801467604
 32
0.0
 13
0.0
 23
1.4275140948
 33
0.0
 40
0.0
 40
0.0
 40
0.0
 40
0.0
 40
0.2379797274
 40
0.4810917651
 40
0.6062398583
 40
0.7344957286
 40
0.8660722508
 40
1.0
 40
1.0
 40
1.0
 40
1.0
 10
110.2883747471
 20
171.0363916635
 30
0.0
 10
110.3950167996
 20
171.0744800619
 30
0.0
 10
110.6058965232
 20
171.1658954966
 30
0.0
 10
110.8463148411
 20
171.3306985278
 30
0.0
 10
111.0094646309
 20
171.50286674
 30
0.0
 10
111.1110293615
 20
171.6567133211
 30
0.0
 10
111.1797970001
 20
171.8326745447
 30
0.0
 10
111.1961968764
 20
171.9595718326
 30
0.0
 10
111.1961968764
 20
172.0232997491
 30
0.0
 11
110.2883747471
 21
171.0363916635
 31
0.0
 11
110.5987305083
 21
171.1745530999
 31
0.0
 11
110.88218518
 21
171.3747886571
 31
0.0
 11
111.0044401518
 21
171.5050567754
 31
0.0
 11
111.1045078276
 21
171.6583777876
 31
0.0
 11
111.1720263052
 21
171.8336500468
 31
0.0
 11
111.1961968764
 21
172.0232997491
 31
0.0
  0
SPLINE
  5
3C0
100
AcDbEntity
  8
0
100
AcDbSpline
 62
7
  6
CONTINUOUS
 70
0
 71
3
 72
14
 73
10
 74
8
 42
0.0000001
 43
0.0000001
 44
0.0000000001
 12
-0.1872098344
 22
0.8984156834
 32
0.0
 13
-0.9113532425
 23
0.1078588409
 33
0.0
 40
0.0
 40
0.0
 40
0.0
 40
0.0
 40
0.1349324772
 40
0.2648585226
 40
0.3910124228
 40
0.5147992842
 40
0.6371437299
 40
0.7586028214
 40
1.0
 40
1.0
 40
1.0
 40
1.0
 10
111.1961968764
 20
173.8910002168
 30
0.0
 10
111.1877766475
 20
173.9314087014
 30
0.0
 10
111.1548688259
 20
174.0077773252
 30
0.0
 10
111.07567952
 20
174.0989408419
 30
0.0
 10
110.9822217716
 20
174.1690568436
 30
0.0
 10
110.8813908552
 20
174.2226954422
 30
0.0
 10
110.7764414745
 20
174.2636307541
 30
0.0
 10
110.6336421489
 20
174.3046352977
 30
0.0
 10
110.5238349107
 20
174.323324381
 30
0.0
 10
110.4505022102
 20
174.3320033209
 30
0.0
 11
111.1961968764
 21
173.8910002168
 31
0.0
 11
111.1488659163
 21
174.0054270193
 31
0.0
 11
111.0720477948
 21
174.0966187816
 31
0.0
 11
110.9800593033
 21
174.1669148684
 31
0.0
 11
110.8800873175
 21
174.2208663612
 31
0.0
 11
110.775648216
 21
174.2620808645
 31
0.0
 11
110.6686032797
 21
174.293157419
 31
0.0
 11
110.4505022102
 21
174.3320033209
 31
0.0
  0
SPLINE
  5
3C1
100
AcDbEntity
  8
0
100
AcDbSpline
 62
7
  6
CONTINUOUS
 70
0
 71
3
 72
14
 73
10
 74
8
 42
0.0000001
 43
0.0000001
 44
0.0000000001
 12
-0.9113533221
 22
-0.1078588503
 32
0.0
 13
-0.1872098508
 23
-0.8984157618
 33
0.0
 40
0.0
 40
0.0
 40
0.0
 40
0.0
 40
0.2413987922
 40
0.3628587502
 40
0.4852042253
 40
0.6089920583
 40
0.735146141
 40
0.8650717339
 40
1.0
 40
1.0
 40
1.0
 40
1.0
 10
100.9433689146
 20
174.3320033209
 30
0.0
 10
100.8700357175
 20
174.3233243222
 30
0.0
 10
100.760227699
 20
174.3046352087
 30
0.0
 10
100.61742737
 20
174.2636301691
 30
0.0
 10
100.5124772675
 20
174.2226943182
 30
0.0
 10
100.4116457676
 20
174.1690552109
 30
0.0
 10
100.318189005
 20
174.098937581
 30
0.0
 10
100.2390007078
 20
174.0077749996
 30
0.0
 10
100.2060942152
 20
173.9314074438
 30
0.0
 10
100.1976742484
 20
173.8910002168
 30
0.0
 11
100.9433689146
 21
174.3320033209
 31
0.0
 11
100.7252663638
 21
174.2931571799
 31
0.0
 11
100.6182206921
 21
174.2620802717
 31
0.0
 11
100.5137807813
 21
174.220865219
 31
0.0
 11
100.4138082247
 21
174.1669128858
 31
0.0
 11
100.3218203997
 21
174.0966156342
 31
0.0
 11
100.2450030719
 21
174.0054237327
 31
0.0
 11
100.1976742484
 21
173.8910002168
 31
0.0
  0
SPLINE
  5
3C2
100
AcDbEntity
  8
0
100
AcDbSpline
 62
7
  6
CONTINUOUS
 70
0
 71
3
 72
13
 73
9
 74
7
 42
0.0000001
 43
0.0000001
 44
0.0000000001
 12
0.0
 22
-1.4274010054
 32
0.0
 13
1.3442175986
 23
-0.4801590132
 33
0.0
 40
0.0
 40
0.0
 40
0.0
 40
0.0
 40
0.133926726
 40
0.265502311
 40
0.3937584464
 40
0.5189071671
 40
0.7620201598
 40
1.0
 40
1.0
 40
1.0
 40
1.0
 10
100.1976742484
 20
172.023300018
 30
0.0
 10
100.1976742484
 20
171.9595776369
 30
0.0
 10
100.2140711085
 20
171.8326914141
 30
0.0
 10
100.282827487
 20
171.6567429614
 30
0.0
 10
100.384377433
 20
171.502904272
 30
0.0
 10
100.5475064527
 20
171.3307410793
 30
0.0
 10
100.787898051
 20
171.1659385904
 30
0.0
 10
100.9987570984
 20
171.0745195434
 30
0.0
 10
101.1053893282
 20
171.036430155
 30
0.0
 11
100.1976742484
 21
172.023300018
 31
0.0
 11
100.2218405679
 21
171.8336665144
 31
0.0
 11
100.2893479477
 21
171.6584073596
 31
0.0
 11
100.3894013959
 21
171.5050939303
 31
0.0
 11
100.5116410111
 21
171.3748295811
 31
0.0
 11
100.7950643483
 21
171.174594956
 31
0.0
 11
101.1053893282
 21
171.036430155
 31
0.0
  0
SPLINE
  5
3C3
100
AcDbEntity
  8
0
100
AcDbSpline
 62
7
  6
CONTINUOUS
 70
0
 71
3
 72
13
 73
9
 74
7
 42
0.0000001
 43
0.0000001
 44
0.0000000001
 12
1.3443460795
 22
0.4801463859
 32
0.0
 13
0.0000067239
 23
1.4275177524
 33
0.0
 40
0.0
 40
0.0
 40
0.0
 40
0.0
 40
0.2379797472
 40
0.4810917761
 40
0.6062398476
 40
0.7344957053
 40
0.8660722543
 40
1.0
 40
1.0
 40
1.0
 40
1.0
 10
104.789109997
 20
171.0363904261
 30
0.0
 10
104.8957523771
 20
171.0744787979
 30
0.0
 10
105.1066327903
 20
171.1658941282
 30
0.0
 10
105.3470519709
 20
171.3306972071
 30
0.0
 10
105.5102024417
 20
171.5028655984
 30
0.0
 10
105.6117675853
 20
171.6567124406
 30
0.0
 10
105.6805357677
 20
171.832674055
 30
0.0
 10
105.6969352622
 20
171.9595716866
 30
0.0
 10
105.6969355624
 20
172.0232997648
 30
0.0
 11
104.789109997
 21
171.0363904261
 31
0.0
 11
105.0994667807
 21
171.1745517753
 31
0.0
 11
105.3829224786
 21
171.3747873991
 31
0.0
 11
105.5051779362
 21
171.505055647
 31
0.0
 11
105.6052460577
 21
171.6583769069
 31
0.0
 11
105.6727648886
 21
171.8336495867
 31
0.0
 11
105.6969355624
 21
172.0232997648
 31
0.0
  0
SPLINE
  5
3C4
100
AcDbEntity
  8
0
100
AcDbSpline
 62
7
  6
CONTINUOUS
 70
0
 71
3
 72
14
 73
10
 74
8
 42
0.0000001
 43
0.0000001
 44
0.0000000001
 12
-0.1872098344
 22
0.8984156834
 32
0.0
 13
-0.9113532425
 23
0.1078588409
 33
0.0
 40
0.0
 40
0.0
 40
0.0
 40
0.0
 40
0.1349324772
 40
0.2648585226
 40
0.3910124228
 40
0.5147992842
 40
0.6371437299
 40
0.7586028214
 40
1.0
 40
1.0
 40
1.0
 40
1.0
 10
105.6969355624
 20
173.8910002168
 30
0.0
 10
105.6885153335
 20
173.9314087014
 30
0.0
 10
105.6556075119
 20
174.0077773252
 30
0.0
 10
105.576418206
 20
174.0989408419
 30
0.0
 10
105.4829604575
 20
174.1690568436
 30
0.0
 10
105.3821295412
 20
174.2226954422
 30
0.0
 10
105.2771801604
 20
174.2636307541
 30
0.0
 10
105.1343808349
 20
174.3046352977
 30
0.0
 10
105.0245735967
 20
174.323324381
 30
0.0
 10
104.9512408962
 20
174.3320033209
 30
0.0
 11
105.6969355624
 21
173.8910002168
 31
0.0
 11
105.6496046022
 21
174.0054270193
 31
0.0
 11
105.5727864808
 21
174.0966187816
 31
0.0
 11
105.4807979892
 21
174.1669148684
 31
0.0
 11
105.3808260035
 21
174.2208663612
 31
0.0
 11
105.2763869019
 21
174.2620808645
 31
0.0
 11
105.1693419657
 21
174.293157419
 31
0.0
 11
104.9512408962
 21
174.3320033209
 31
0.0
  0
LINE
  5
3C5
100
AcDbEntity
  8
0
100
AcDbLine
 62
7
  6
CONTINUOUS
 10
67.6319139877
 20
120.5366750736
 11
70.4614181852
 21
120.5454012768
  0
SPLINE
  5
3C6
100
AcDbEntity
  8
0
100
AcDbSpline
 62
7
  6
CONTINUOUS
 70
0
 71
3
 72
19
 73
15
 74
13
 42
0.0000001
 43
0.0000001
 44
0.0000000001
 12
17.8532496427
 22
-6.6471360218
 32
0.0
 13
17.8532496529
 23
6.6471359943
 33
0.0
 40
0.0
 40
0.0
 40
0.0
 40
0.0
 40
0.036876666
 40
0.1420026141
 40
0.2164165614
 40
0.3028898697
 40
0.3987621368
 40
0.500000002
 40
0.6012378648
 40
0.6971101305
 40
0.7835834383
 40
0.8579973844
 40
0.9631233328
 40
1.0
 40
1.0
 40
1.0
 40
1.0
 10
205.5737710141
 20
167.8366750736
 30
0.0
 10
205.793227122
 20
167.754967002
 30
0.0
 10
206.6413972034
 20
167.4482162686
 30
0.0
 10
207.9518677973
 20
167.0304940873
 30
0.0
 10
209.5887575493
 20
166.6098802619
 30
0.0
 10
211.1895998342
 20
166.2936454471
 30
0.0
 10
212.9784104104
 20
166.0695018194
 30
0.0
 10
214.8737710369
 20
165.9878696308
 30
0.0
 10
216.7691316547
 20
166.0695018194
 30
0.0
 10
218.5579422029
 20
166.2936454498
 30
0.0
 10
220.1587844684
 20
166.6098802592
 30
0.0
 10
221.7956742113
 20
167.030494083
 30
0.0
 10
223.1061448075
 20
167.4482162641
 30
0.0
 10
223.9543148986
 20
167.7549669995
 30
0.0
 10
224.1737710141
 20
167.8366750736
 30
0.0
 11
205.5737710141
 21
167.8366750736
 31
0.0
 11
206.2345388579
 21
167.5978493718
 31
0.0
 11
208.1438771259
 21
166.9926969831
 31
0.0
 11
209.5173521285
 21
166.6409786911
 31
0.0
 11
211.1339965006
 21
166.3233159742
 31
0.0
 11
212.9466619089
 21
166.0978410319
 31
0.0
 11
214.8737710521
 21
166.0155697279
 31
0.0
 11
216.8008801497
 21
166.0978410319
 31
0.0
 11
218.6135455312
 21
166.3233159746
 31
0.0
 11
220.2301898934
 21
166.6409786895
 31
0.0
 11
221.6036648736
 21
166.9926969758
 31
0.0
 11
223.5130031473
 21
167.5978493646
 31
0.0
 11
224.1737710141
 21
167.8366750736
 31
0.0
  0
SPLINE
  5
3C7
100
AcDbEntity
  8
0
100
AcDbSpline
 62
7
  6
CONTINUOUS
 70
0
 71
3
 72
13
 73
9
 74
7
 42
0.0000001
 43
0.0000001
 44
0.0000000001
 12
2.3008558954
 22
0.3542747532
 32
0.0
 13
2.3008558954
 23
-0.3542747532
 33
0.0
 40
0.0
 40
0.0
 40
0.0
 40
0.0
 40
0.2507183402
 40
0.3755185083
 40
0.5000000001
 40
0.6244814919
 40
0.7492816599
 40
1.0
 40
1.0
 40
1.0
 40
1.0
 10
218.4792980304
 20
174.3320033209
 30
0.0
 10
218.6715869541
 20
174.361611047
 30
0.0
 10
218.9596098219
 20
174.4068931819
 30
0.0
 10
219.3461933681
 20
174.4420740904
 30
0.0
 10
219.6362710142
 20
174.4514268793
 30
0.0
 10
219.9263486601
 20
174.4420740889
 30
0.0
 10
220.3129322063
 20
174.40689318
 30
0.0
 10
220.6009550742
 20
174.361611047
 30
0.0
 10
220.7932439978
 20
174.3320033209
 30
0.0
 11
218.4792980304
 21
174.3320033209
 31
0.0
 11
219.0572213774
 21
174.4136699203
 31
0.0
 11
219.3466230165
 21
174.4392637693
 31
0.0
 11
219.6362710142
 21
174.4483119409
 31
0.0
 11
219.9259190118
 21
174.439263768
 31
0.0
 11
220.2153206508
 21
174.4136699188
 31
0.0
 11
220.7932439978
 21
174.3320033209
 31
0.0
  0
SPLINE
  5
3C8
100
AcDbEntity
  8
0
100
AcDbSpline
 62
7
  6
CONTINUOUS
 70
0
 71
3
 72
13
 73
9
 74
7
 42
0.0000001
 43
0.0000001
 44
0.0000000001
 12
2.3008558958
 22
0.3542747533
 32
0.0
 13
2.3008558958
 23
-0.3542747533
 33
0.0
 40
0.0
 40
0.0
 40
0.0
 40
0.0
 40
0.2507183404
 40
0.3755185084
 40
0.4999999999
 40
0.6244814915
 40
0.7492816595
 40
1.0
 40
1.0
 40
1.0
 40
1.0
 10
208.9542980304
 20
174.3320033209
 30
0.0
 10
209.1465869542
 20
174.361611047
 30
0.0
 10
209.4346098223
 20
174.4068931814
 30
0.0
 10
209.8211933684
 20
174.4420740905
 30
0.0
 10
210.111271014
 20
174.4514268806
 30
0.0
 10
210.4013486597
 20
174.442074092
 30
0.0
 10
210.787932206
 20
174.4068931833
 30
0.0
 10
211.0759550739
 20
174.361611047
 30
0.0
 10
211.2682439978
 20
174.3320033209
 30
0.0
 11
208.9542980304
 21
174.3320033209
 31
0.0
 11
209.532221378
 21
174.4136699201
 31
0.0
 11
209.821623017
 21
174.4392637696
 31
0.0
 11
210.111271014
 21
174.4483119423
 31
0.0
 11
210.4009190111
 21
174.4392637709
 31
0.0
 11
210.6903206502
 21
174.4136699217
 31
0.0
 11
211.2682439978
 21
174.3320033209
 31
0.0
  0
SPLINE
  5
3C9
100
AcDbEntity
  8
0
100
AcDbSpline
 62
7
  6
CONTINUOUS
 70
0
 71
3
 72
13
 73
9
 74
7
 42
0.0000001
 43
0.0000001
 44
0.0000000001
 12
4.6212523528
 22
0.3557791342
 32
0.0
 13
4.6212523528
 23
-0.3557791342
 33
0.0
 40
0.0
 40
0.0
 40
0.0
 40
0.0
 40
0.2499992096
 40
0.3749998432
 40
0.4999999999
 40
0.6250001567
 40
0.7500007904
 40
1.0
 40
1.0
 40
1.0
 40
1.0
 10
212.5598250466
 20
174.3320033209
 30
0.0
 10
212.9449281918
 20
174.3616514884
 30
0.0
 10
213.5225976799
 20
174.4070198171
 30
0.0
 10
214.2943830322
 20
174.4420932777
 30
0.0
 10
214.8737710139
 20
174.4514212685
 30
0.0
 10
215.4531589957
 20
174.4420932776
 30
0.0
 10
216.2249443481
 20
174.4070198173
 30
0.0
 10
216.8026138364
 20
174.3616514884
 30
0.0
 10
217.1877169816
 20
174.3320033209
 30
0.0
 11
212.5598250466
 21
174.3320033209
 31
0.0
 11
213.7156717418
 21
174.4136699209
 31
0.0
 11
214.2944750196
 21
174.43926377
 31
0.0
 11
214.8737710138
 21
174.4483119422
 31
0.0
 11
215.4530670082
 21
174.43926377
 31
0.0
 11
216.0318702863
 21
174.4136699209
 31
0.0
 11
217.1877169816
 21
174.3320033209
 31
0.0
  0
SPLINE
  5
3CA
100
AcDbEntity
  8
0
100
AcDbSpline
 62
7
  6
CONTINUOUS
 70
0
 71
3
 72
11
 73
7
 74
5
 42
0.0000001
 43
0.0000001
 44
0.0000000001
 12
-0.4463081092
 22
-0.1488906243
 32
0.0
 13
-0.1523575655
 23
-0.4451365168
 33
0.0
 40
0.0
 40
0.0
 40
0.0
 40
0.0
 40
0.2103548275
 40
0.4362907343
 40
0.6916960289
 40
1.0
 40
1.0
 40
1.0
 40
1.0
 10
208.8751593238
 20
174.310909142
 30
0.0
 10
208.8438649687
 20
174.3004691881
 30
0.0
 10
208.7805047662
 20
174.273663268
 30
0.0
 10
208.6897199132
 20
174.2128814879
 30
0.0
 10
208.6043937585
 20
174.1214675193
 30
0.0
 10
208.5632992215
 20
174.0414050743
 30
0.0
 10
208.5476417407
 20
173.995659289
 30
0.0
 11
208.8751593238
 21
174.310909142
 31
0.0
 11
208.7841848952
 21
174.2719397048
 31
0.0
 11
208.696047449
 21
174.2125130386
 31
0.0
 11
208.6141780222
 21
174.1245523665
 31
0.0
 11
208.5476417407
 21
173.995659289
 31
0.0
  0
SPLINE
  5
3CB
100
AcDbEntity
  8
0
100
AcDbSpline
 62
7
  6
CONTINUOUS
 70
0
 71
3
 72
21
 73
17
 74
15
 42
0.0000001
 43
0.0000001
 44
0.0000000001
 12
1.996681388
 22
0.0
 32
0.0
 13
-0.0
 23
-1.996681388
 33
0.0
 40
0.0
 40
0.0
 40
0.0
 40
0.0
 40
0.0159553924
 40
0.0318873087
 40
0.0635487205
 40
0.0951353245
 40
0.1266578621
 40
0.1581325683
 40
0.1895707517
 40
0.2523512935
 40
0.315045853
 40
0.3776642449
 40
0.4402115964
 40
0.5026908032
 40
0.7518623314
 40
1.0
 40
1.0
 40
1.0
 40
1.0
 10
219.8737710141
 20
131.7824064449
 30
0.0
 10
219.8843902925
 20
131.7824064449
 30
0.0
 10
219.9057075863
 20
131.7794722632
 30
0.0
 10
219.9452194564
 20
131.7635162711
 30
0.0
 10
219.9873860688
 20
131.7305293398
 30
0.0
 10
220.0282389125
 20
131.6822571274
 30
0.0
 10
220.0627841372
 20
131.6294892004
 30
0.0
 10
220.0927455467
 20
131.5741855849
 30
0.0
 10
220.128101929
 20
131.498326411
 30
0.0
 10
220.1656526061
 20
131.4007552404
 30
0.0
 10
220.2034610215
 20
131.2813639796
 30
0.0
 10
220.2357393333
 20
131.1605331649
 30
0.0
 10
220.2635591802
 20
131.0387581613
 30
0.0
 10
220.3114676933
 20
130.7943291547
 30
0.0
 10
220.3589933163
 20
130.4242004566
 30
0.0
 10
220.3737710141
 20
130.0931170438
 30
0.0
 10
220.3737710141
 20
129.9279664223
 30
0.0
 11
219.8737710141
 21
131.7824064449
 31
0.0
 11
219.9053499484
 21
131.7782001918
 31
0.0
 11
219.9349637242
 21
131.7665828983
 31
0.0
 11
219.985817656
 21
131.7290281152
 31
0.0
 11
220.0272256874
 21
131.6814571572
 31
0.0
 11
220.0620450416
 21
131.6290251575
 31
0.0
 11
220.092190605
 21
131.5738823064
 31
0.0
 11
220.1188452228
 21
131.517050451
 31
0.0
 11
220.1644701164
 21
131.4002956722
 31
0.0
 11
220.2025608173
 21
131.281050562
 31
0.0
 11
220.2350133847
 21
131.1603067168
 31
0.0
 11
220.2629363318
 21
131.0385811859
 31
0.0
 11
220.2870252678
 21
130.9161779487
 31
0.0
 11
220.3521916627
 21
130.4229481207
 31
0.0
 11
220.3737710141
 21
129.9279664223
 31
0.0
  0
SPLINE
  5
3CC
100
AcDbEntity
  8
0
100
AcDbSpline
 62
7
  6
CONTINUOUS
 70
0
 71
3
 72
11
 73
7
 74
5
 42
0.0000001
 43
0.0000001
 44
0.0000000001
 12
0.1944160301
 22
-0.8600456731
 32
0.0
 13
0.749835247
 23
-0.4639216043
 33
0.0
 40
0.0
 40
0.0
 40
0.0
 40
0.0
 40
0.305929755
 40
0.5667168935
 40
0.7941112304
 40
1.0
 40
1.0
 40
1.0
 40
1.0
 10
208.555085881
 20
171.7407355003
 30
0.0
 10
208.5749117638
 20
171.6530309797
 30
0.0
 10
208.6294630207
 20
171.493827901
 30
0.0
 10
208.7525272252
 20
171.2935334236
 30
0.0
 10
208.893210118
 20
171.1440862659
 30
0.0
 10
208.9963765353
 20
171.0682708567
 30
0.0
 10
209.0478374208
 20
171.0364321073
 30
0.0
 11
208.555085881
 21
171.7407355003
 31
0.0
 11
208.6435047331
 21
171.4858856548
 31
0.0
 11
208.7643503701
 21
171.2902522425
 31
0.0
 11
208.9017951434
 21
171.1442700018
 31
0.0
 11
209.0478374208
 21
171.0364321073
 31
0.0
  0
SPLINE
  5
3CD
100
AcDbEntity
  8
0
100
AcDbSpline
 62
7
  6
CONTINUOUS
 70
0
 71
3
 72
11
 73
7
 74
5
 42
0.0000001
 43
0.0000001
 44
0.0000000001
 12
0.9906594183
 22
0.6128429805
 32
0.0
 13
0.0
 23
1.1648959618
 33
0.0
 40
0.0
 40
0.0
 40
0.0
 40
0.0
 40
0.1942355337
 40
0.4162337632
 40
0.6834553736
 40
1.0
 40
1.0
 40
1.0
 40
1.0
 10
211.1746396634
 20
171.0363916636
 30
0.0
 10
211.2387800837
 20
171.0760702914
 30
0.0
 10
211.3681766647
 20
171.1751804001
 30
0.0
 10
211.5374977375
 20
171.3830352913
 30
0.0
 10
211.666590909
 20
171.6721344054
 30
0.0
 10
211.6987710141
 20
171.9003859135
 30
0.0
 10
211.6987710141
 20
172.0232997658
 30
0.0
 11
211.1746396634
 21
171.0363916636
 31
0.0
 11
211.3538236476
 21
171.1745531018
 31
0.0
 11
211.5174762799
 21
171.3747886623
 31
0.0
 11
211.6458343203
 21
171.6583777983
 31
0.0
 11
211.6987710141
 21
172.0232997658
 31
0.0
  0
SPLINE
  5
3CE
100
AcDbEntity
  8
0
100
AcDbSpline
 62
7
  6
CONTINUOUS
 70
0
 71
3
 72
13
 73
9
 74
7
 42
0.0000001
 43
0.0000001
 44
0.0000000001
 12
-0.0788141549
 22
0.6551089244
 32
0.0
 13
-0.6463917919
 23
0.1325029251
 33
0.0
 40
0.0
 40
0.0
 40
0.0
 40
0.0
 40
0.1782944303
 40
0.3319770802
 40
0.4655005395
 40
0.5852396266
 40
0.8002881481
 40
1.0
 40
1.0
 40
1.0
 40
1.0
 10
211.6987710141
 20
173.8910002168
 30
0.0
 10
211.6940869725
 20
173.9299343076
 30
0.0
 10
211.6770467136
 20
174.0017406323
 30
0.0
 10
211.6320598966
 20
174.0944694283
 30
0.0
 10
211.5777963546
 20
174.166297825
 30
0.0
 10
211.5022154164
 20
174.2368766939
 30
0.0
 10
211.399323112
 20
174.2968834313
 30
0.0
 10
211.3112746984
 20
174.3231825194
 30
0.0
 10
211.2682439978
 20
174.3320033209
 30
0.0
 11
211.6987710141
 21
173.8910002168
 31
0.0
 11
211.6714444715
 21
174.0054270193
 31
0.0
 11
211.6270935084
 21
174.0966187816
 31
0.0
 11
211.573983928
 21
174.1669148684
 31
0.0
 11
211.5162650752
 21
174.2208663612
 31
0.0
 11
211.394164709
 21
174.293157419
 31
0.0
 11
211.2682439978
 21
174.3320033209
 31
0.0
  0
SPLINE
  5
3CF
100
AcDbEntity
  8
0
100
AcDbSpline
 62
7
  6
CONTINUOUS
 70
0
 71
3
 72
13
 73
9
 74
7
 42
0.0000001
 43
0.0000001
 44
0.0000000001
 12
-0.6463918593
 22
-0.132502939
 32
0.0
 13
-0.0788141631
 23
-0.6551089927
 33
0.0
 40
0.0
 40
0.0
 40
0.0
 40
0.0
 40
0.1997131764
 40
0.4147635359
 40
0.5345038451
 40
0.6680283474
 40
0.8217108674
 40
1.0
 40
1.0
 40
1.0
 40
1.0
 10
218.4792980304
 20
174.3320033209
 30
0.0
 10
218.4362670399
 20
174.32318246
 30
0.0
 10
218.3482178939
 20
174.296883273
 30
0.0
 10
218.2453249176
 20
174.2368757124
 30
0.0
 10
218.1697434706
 20
174.1662959679
 30
0.0
 10
218.1154807944
 20
174.0944663286
 30
0.0
 10
218.0704944455
 20
174.0017384205
 30
0.0
 10
218.053454917
 20
173.9299331549
 30
0.0
 10
218.0487710141
 20
173.8910002168
 30
0.0
 11
218.4792980304
 21
174.3320033209
 31
0.0
 11
218.353376464
 21
174.2931571799
 31
0.0
 11
218.231275206
 21
174.220865219
 31
0.0
 11
218.1735560235
 21
174.1669128858
 31
0.0
 11
218.120446828
 21
174.0966156342
 31
0.0
 11
218.0760963231
 21
174.0054237327
 31
0.0
 11
218.0487710141
 21
173.8910002168
 31
0.0
  0
SPLINE
  5
3D0
100
AcDbEntity
  8
0
100
AcDbSpline
 62
7
  6
CONTINUOUS
 70
0
 71
3
 72
11
 73
7
 74
5
 42
0.0000001
 43
0.0000001
 44
0.0000000001
 12
0.0
 22
-1.1648241
 32
0.0
 13
0.9905659216
 23
-0.6128575193
 33
0.0
 40
0.0
 40
0.0
 40
0.0
 40
0.0
 40
0.3165381622
 40
0.5837613291
 40
0.8057628036
 40
1.0
 40
1.0
 40
1.0
 40
1.0
 10
218.0487710141
 20
172.023300018
 30
0.0
 10
218.0487710141
 20
171.9003962581
 30
0.0
 10
218.0809461795
 20
171.672161092
 30
0.0
 10
218.2100209157
 20
171.3830763769
 30
0.0
 10
218.3793221037
 20
171.1752239139
 30
0.0
 10
218.508705644
 20
171.0761100637
 30
0.0
 10
218.5728405598
 20
171.036430155
 30
0.0
 11
218.0487710141
 21
172.023300018
 31
0.0
 11
218.1016988491
 21
171.6584073596
 31
0.0
 11
218.2300398091
 21
171.3748295811
 31
0.0
 11
218.3936743491
 21
171.174594956
 31
0.0
 11
218.5728405598
 21
171.036430155
 31
0.0
  0
SPLINE
  5
3D1
100
AcDbEntity
  8
0
100
AcDbSpline
 62
7
  6
CONTINUOUS
 70
0
 71
3
 72
11
 73
7
 74
5
 42
0.0000001
 43
0.0000001
 44
0.0000000001
 12
0.7507617766
 22
0.4644354481
 32
0.0
 13
0.193970982
 23
0.861230973
 33
0.0
 40
0.0
 40
0.0
 40
0.0
 40
0.0
 40
0.20583978
 40
0.4332058434
 40
0.694007231
 40
1.0
 40
1.0
 40
1.0
 40
1.0
 10
220.6996376795
 20
171.0363904261
 30
0.0
 10
220.7511498925
 20
171.0682568562
 30
0.0
 10
220.8544225734
 20
171.14415062
 30
0.0
 10
220.9952339496
 20
171.2937933748
 30
0.0
 10
221.1183701057
 20
171.4943962463
 30
0.0
 10
221.1728882957
 20
171.6538525444
 30
0.0
 10
221.1926728683
 20
171.7416960278
 30
0.0
 11
220.6996376795
 21
171.0363904261
 31
0.0
 11
220.8458192142
 21
171.1443337262
 31
0.0
 11
220.9833835203
 21
171.29049966
 31
0.0
 11
221.1042990634
 21
171.4864290448
 31
0.0
 11
221.1926728683
 21
171.7416960278
 31
0.0
  0
SPLINE
  5
3D2
100
AcDbEntity
  8
0
100
AcDbSpline
 62
7
  6
CONTINUOUS
 70
0
 71
3
 72
11
 73
7
 74
5
 42
0.0000001
 43
0.0000001
 44
0.0000000001
 12
-0.1506061021
 22
0.4500035213
 32
0.0
 13
-0.4502994635
 23
0.1497189377
 33
0.0
 40
0.0
 40
0.0
 40
0.0
 40
0.0
 40
0.3089777557
 40
0.5643862711
 40
0.790028672
 40
1.0
 40
1.0
 40
1.0
 40
1.0
 10
221.2010039972
 20
173.992398387
 30
0.0
 10
221.1854926854
 20
174.0387454131
 30
0.0
 10
221.1444211765
 20
174.1198483095
 30
0.0
 10
221.0585585939
 20
174.2123467149
 30
0.0
 10
220.9671203935
 20
174.2736716047
 30
0.0
 10
220.9032944436
 20
174.3006317258
 30
0.0
 10
220.8717777848
 20
174.3111106205
 30
0.0
 11
221.2010039972
 21
173.992398387
 31
0.0
 11
221.1344484268
 21
174.1230436494
 31
0.0
 11
221.0521177652
 21
174.2119891046
 31
0.0
 11
220.963387462
 21
174.2719235031
 31
0.0
 11
220.8717777848
 21
174.3111106205
 31
0.0
  0
SPLINE
  5
3D3
100
AcDbEntity
  8
0
100
AcDbSpline
 62
7
  6
CONTINUOUS
 70
0
 71
3
 72
17
 73
13
 74
11
 42
0.0000001
 43
0.0000001
 44
0.0000000001
 12
-1.0139761528
 22
-0.1039267577
 32
0.0
 13
-0.2384494924
 23
-0.9910046664
 33
0.0
 40
0.0
 40
0.0
 40
0.0
 40
0.0
 40
0.1250441041
 40
0.2500910453
 40
0.3751317456
 40
0.4376640249
 40
0.5001993336
 40
0.6252120438
 40
0.7501753909
 40
0.8749837547
 40
0.9375025272
 40
1.0
 40
1.0
 40
1.0
 40
1.0
 10
212.5598250466
 20
174.3320033209
 30
0.0
 10
212.5175611334
 20
174.3276715115
 30
0.0
 10
212.4332073182
 20
174.3171173145
 30
0.0
 10
212.3077029785
 20
174.2945189321
 30
0.0
 10
212.2045177319
 20
174.268879569
 30
0.0
 10
212.1234369086
 20
174.2433481035
 30
0.0
 10
212.0436466568
 20
174.2140820382
 30
0.0
 10
211.9469166449
 20
174.1695913786
 30
0.0
 10
211.8395420338
 20
174.1002204339
 30
0.0
 10
211.7631837107
 20
174.0245541077
 30
0.0
 10
211.7185278201
 20
173.9518916087
 30
0.0
 10
211.703738511
 20
173.9116453126
 30
0.0
 10
211.6987710141
 20
173.8910002168
 30
0.0
 11
212.5598250466
 21
174.3320033209
 31
0.0
 11
212.4333790663
 21
174.3159895636
 31
0.0
 11
212.3079819139
 21
174.2931571799
 31
0.0
 11
212.1843762191
 21
174.2620802717
 31
0.0
 11
212.1235981052
 21
174.2428811507
 31
0.0
 11
212.0637793979
 21
174.220865219
 31
0.0
 11
211.9483410329
 21
174.1669128858
 31
0.0
 11
211.8421226418
 21
174.0966156342
 31
0.0
 11
211.7534216321
 21
174.0054237327
 31
0.0
 11
211.7204139605
 21
173.9509138789
 31
0.0
 11
211.6987710141
 21
173.8910002168
 31
0.0
  0
SPLINE
  5
3D4
100
AcDbEntity
  8
0
100
AcDbSpline
 62
7
  6
CONTINUOUS
 70
0
 71
3
 72
13
 73
9
 74
7
 42
0.0000001
 43
0.0000001
 44
0.0000000001
 12
0.0
 22
-1.5352671399
 32
0.0
 13
1.4666949083
 23
-0.4537083167
 33
0.0
 40
0.0
 40
0.0
 40
0.0
 40
0.0
 40
0.1248504189
 40
0.2497898817
 40
0.3748320713
 40
0.4999413888
 40
0.7498464092
 40
1.0
 40
1.0
 40
1.0
 40
1.0
 10
211.6987710141
 20
172.0233000297
 30
0.0
 10
211.6987710141
 20
171.9594071146
 30
0.0
 10
211.71815987
 20
171.8308645683
 30
0.0
 10
211.7984540077
 20
171.6545119545
 30
0.0
 10
211.9160323856
 20
171.5011156973
 30
0.0
 10
212.1060093295
 20
171.3281696415
 30
0.0
 10
212.3842545549
 20
171.1642539367
 30
0.0
 10
212.6246330849
 20
171.0742553657
 30
0.0
 10
212.7469327508
 20
171.0364231109
 30
0.0
 11
211.6987710141
 21
172.0233000297
 31
0.0
 11
211.7266767633
 21
171.8336635073
 31
0.0
 11
211.804629742
 21
171.6584022719
 31
0.0
 11
211.92016442
 21
171.5050874514
 31
0.0
 11
212.0613178007
 21
171.374822341
 31
0.0
 11
212.3885935099
 21
171.1745874286
 31
0.0
 11
212.7469327508
 21
171.0364231109
 31
0.0
  0
SPLINE
  5
3D5
100
AcDbEntity
  8
0
100
AcDbSpline
 62
7
  6
CONTINUOUS
 70
0
 71
3
 72
13
 73
9
 74
7
 42
0.0000001
 43
0.0000001
 44
0.0000000001
 12
1.4668575964
 22
0.4536956556
 32
0.0
 13
-0.0
 23
1.5354188211
 33
0.0
 40
0.0
 40
0.0
 40
0.0
 40
0.0
 40
0.2501531915
 40
0.5000575877
 40
0.6251665229
 40
0.7502086815
 40
0.8751490642
 40
1.0
 40
1.0
 40
1.0
 40
1.0
 10
217.0004637014
 20
171.0363777294
 30
0.0
 10
217.1227767378
 20
171.0742088681
 30
0.0
 10
217.363183081
 20
171.1642034233
 30
0.0
 10
217.6414643087
 20
171.328119382
 30
0.0
 10
217.8314696288
 20
171.5010711717
 30
0.0
 10
217.9490681293
 20
171.6544765167
 30
0.0
 10
218.029377879
 20
171.8308441681
 30
0.0
 10
218.0487710141
 20
171.9594002544
 30
0.0
 10
218.0487710141
 20
172.0232997466
 30
0.0
 11
217.0004637014
 21
171.0363777294
 31
0.0
 11
217.3588445016
 21
171.1745380254
 31
0.0
 11
217.6861628909
 21
171.3747739734
 31
0.0
 11
217.8273372136
 21
171.5050435066
 31
0.0
 11
217.9428913534
 21
171.6583673501
 31
0.0
 11
218.0208594892
 21
171.8336441305
 31
0.0
 11
218.0487710141
 21
172.0232997466
 31
0.0
  0
SPLINE
  5
3D6
100
AcDbEntity
  8
0
100
AcDbSpline
 62
7
  6
CONTINUOUS
 70
0
 71
3
 72
17
 73
13
 74
11
 42
0.0000001
 43
0.0000001
 44
0.0000000001
 12
-0.2384494884
 22
0.9910046498
 32
0.0
 13
-1.0139761358
 23
0.103926756
 33
0.0
 40
0.0
 40
0.0
 40
0.0
 40
0.0
 40
0.0624992263
 40
0.1250202531
 40
0.2498291481
 40
0.3747924963
 40
0.4998042735
 40
0.5623388078
 40
0.6248708363
 40
0.7499106461
 40
0.8749565938
 40
1.0
 40
1.0
 40
1.0
 40
1.0
 10
218.0487710141
 20
173.8910002168
 30
0.0
 10
218.0438033779
 20
173.9116458915
 30
0.0
 10
218.0290134488
 20
173.9518934566
 30
0.0
 10
217.9843559884
 20
174.0245567977
 30
0.0
 10
217.9079969253
 20
174.1002237146
 30
0.0
 10
217.8006213472
 20
174.1695930479
 30
0.0
 10
217.7038917396
 20
174.2140829343
 30
0.0
 10
217.6241023399
 20
174.2433494339
 30
0.0
 10
217.5430218367
 20
174.2688797643
 30
0.0
 10
217.4398373974
 20
174.2945192257
 30
0.0
 10
217.314333889
 20
174.3171173483
 30
0.0
 10
217.2299806582
 20
174.3276715357
 30
0.0
 10
217.1877169816
 20
174.3320033209
 30
0.0
 11
218.0487710141
 21
173.8910002168
 31
0.0
 11
218.0271272638
 21
173.9509154877
 31
0.0
 11
217.9941179289
 21
174.0054270193
 31
0.0
 11
217.9054160027
 21
174.0966187816
 31
0.0
 11
217.799196842
 21
174.1669148684
 31
0.0
 11
217.6837591362
 21
174.2208663612
 31
0.0
 11
217.6239412469
 21
174.2428822272
 31
0.0
 11
217.5631632494
 21
174.2620808645
 31
0.0
 11
217.4395584039
 21
174.293157419
 31
0.0
 11
217.3141622503
 21
174.3159896227
 31
0.0
 11
217.1877169816
 21
174.3320033209
 31
0.0
  0
SPLINE
  5
3D7
100
AcDbEntity
  8
0
100
AcDbSpline
 62
7
  6
CONTINUOUS
 70
0
 71
3
 72
21
 73
17
 74
15
 42
0.0000001
 43
0.0000001
 44
0.0000000001
 12
0.0
 22
1.9966813558
 32
0.0
 13
1.9966813558
 23
0.0
 33
0.0
 40
0.0
 40
0.0
 40
0.0
 40
0.0
 40
0.2481376065
 40
0.4973090541
 40
0.5597882382
 40
0.6223355642
 40
0.6849539282
 40
0.7476484593
 40
0.8104289579
 40
0.841867111
 40
0.8733417888
 40
0.9048642557
 40
0.9364508338
 40
0.9681123477
 40
0.9840444439
 40
1.0
 40
1.0
 40
1.0
 40
1.0
 10
213.3737710141
 20
129.9279664223
 30
0.0
 10
213.3737710141
 20
130.0931169999
 30
0.0
 10
213.3885487007
 20
130.4242003124
 30
0.0
 10
213.4360742931
 20
130.7943288966
 30
0.0
 10
213.4839827679
 20
131.0387578192
 30
0.0
 10
213.511802598
 20
131.1605327729
 30
0.0
 10
213.5440809012
 20
131.2813635305
 30
0.0
 10
213.5818892291
 20
131.400754748
 30
0.0
 10
213.6194398882
 20
131.4983258505
 30
0.0
 10
213.6547961922
 20
131.5741849841
 30
0.0
 10
213.6847574995
 20
131.6294885534
 30
0.0
 10
213.7193026256
 20
131.6822564524
 30
0.0
 10
213.7601554283
 20
131.7305286728
 30
0.0
 10
213.8023219808
 20
131.7635159871
 30
0.0
 10
213.841834121
 20
131.7794720958
 30
0.0
 10
213.8631516269
 20
131.7824064449
 30
0.0
 10
213.8737710141
 20
131.7824064449
 30
0.0
 11
213.3737710141
 21
129.9279664223
 31
0.0
 11
213.3953503515
 21
130.4229479892
 31
0.0
 11
213.4605166997
 21
130.916177653
 31
0.0
 11
213.4846056173
 21
131.0385808454
 31
0.0
 11
213.5125285485
 21
131.1603063259
 31
0.0
 11
213.5449810929
 21
131.2810501174
 31
0.0
 11
213.5830717339
 21
131.4002951851
 31
0.0
 11
213.6286965733
 21
131.5170498902
 31
0.0
 11
213.6553511288
 21
131.573881707
 31
0.0
 11
213.6854966097
 21
131.6290245374
 31
0.0
 11
213.7203158329
 21
131.6814564533
 31
0.0
 11
213.7617237495
 21
131.7290274413
 31
0.0
 11
213.8125776835
 21
131.766582563
 31
0.0
 11
213.8421917699
 21
131.7782000468
 31
0.0
 11
213.8737710141
 21
131.7824064449
 31
0.0
  0
SPLINE
  5
3D8
100
AcDbEntity
  8
0
100
AcDbSpline
 62
7
  6
CONTINUOUS
 70
0
 71
3
 72
53
 73
49
 74
47
 42
0.0000001
 43
0.0000001
 44
0.0000000001
 12
0.0000000981
 22
-6.0325800417
 32
0.0
 13
6.0325671306
 23
0.0124799641
 33
0.0
 40
0.0
 40
0.0
 40
0.0
 40
0.0
 40
0.0000382474
 40
0.0001529455
 40
0.0003440277
 40
0.0006114279
 40
0.0009550796
 40
0.0013749166
 40
0.0024428807
 40
0.0038147853
 40
0.0054897378
 40
0.0074662365
 40
0.0097427212
 40
0.0151893794
 40
0.0218145951
 40
0.0295987612
 40
0.0385209669
 40
0.0485559295
 40
0.0596769064
 40
0.0718542486
 40
0.0850558558
 40
0.1143952066
 40
0.1474015644
 40
0.1837539995
 40
0.2231067268
 40
0.2650903123
 40
0.3093123347
 40
0.4027900102
 40
0.5000013501
 40
0.5972126898
 40
0.6906903648
 40
0.7768933754
 40
0.8162461023
 40
0.8525985365
 40
0.8856048939
 40
0.9149442439
 40
0.9403231326
 40
0.9614790372
 40
0.9704012425
 40
0.9781854081
 40
0.9848106233
 40
0.9902572811
 40
0.9945102639
 40
0.9975571202
 40
0.9986250839
 40
0.9993885722
 40
0.9998470545
 40
1.0
 40
1.0
 40
1.0
 40
1.0
 10
235.7537710312
 20
153.9866750736
 30
0.0
 10
235.7537710312
 20
153.9865981634
 30
0.0
 10
235.7542579406
 20
153.9866974383
 30
0.0
 10
235.7547607907
 20
153.9864259156
 30
0.0
 10
235.755996509
 20
153.9863061537
 30
0.0
 10
235.7575391394
 20
153.9859828178
 30
0.0
 10
235.7595967039
 20
153.9856302425
 30
0.0
 10
235.7632131485
 20
153.9849718522
 30
0.0
 10
235.7688786376
 20
153.9839607773
 30
0.0
 10
235.7770210332
 20
153.982500227
 30
0.0
 10
235.7869657416
 20
153.9807246213
 30
0.0
 10
235.7987013022
 20
153.9786358006
 30
0.0
 10
235.817906902
 20
153.9752329588
 30
0.0
 10
235.8463233452
 20
153.9702357496
 30
0.0
 10
235.8856613125
 20
153.9633982323
 30
0.0
 10
235.9319047305
 20
153.9554790269
 30
0.0
 10
235.9849312312
 20
153.9465491167
 30
0.0
 10
236.0446067507
 20
153.9366985996
 30
0.0
 10
236.1107792391
 20
153.9260191355
 30
0.0
 10
236.1832840096
 20
153.9146130014
 30
0.0
 10
236.2920518963
 20
153.8979877508
 30
0.0
 10
236.4423893974
 20
153.8761319219
 30
0.0
 10
236.6390948857
 20
153.8497071453
 30
0.0
 10
236.8560961651
 20
153.8232375974
 30
0.0
 10
237.0913809345
 20
153.7977319443
 30
0.0
 10
237.3427694834
 20
153.7741697757
 30
0.0
 10
237.7030031216
 20
153.7460401607
 30
0.0
 10
238.174814531
 20
153.7210459752
 30
0.0
 10
238.7537703862
 20
153.7106736752
 30
0.0
 10
239.3327301279
 20
153.7210462608
 30
0.0
 10
239.8888480966
 20
153.7505058306
 30
0.0
 10
240.3277588921
 20
153.7881486429
 30
0.0
 10
240.6514456203
 20
153.823237617
 30
0.0
 10
240.8684472394
 20
153.8497071047
 30
0.0
 10
241.065152682
 20
153.8761320724
 30
0.0
 10
241.2397225938
 20
153.9015101904
 30
0.0
 10
241.3904962401
 20
153.9248807375
 30
0.0
 10
241.5005586203
 20
153.9428357566
 30
0.0
 10
241.5756373318
 20
153.9554788275
 30
0.0
 10
241.6218806918
 20
153.9633987773
 30
0.0
 10
241.6612188141
 20
153.9702341937
 30
0.0
 10
241.6935492058
 20
153.9759256019
 30
0.0
 10
241.7187873876
 20
153.9803906182
 30
0.0
 10
241.7353480432
 20
153.9833857667
 30
0.0
 10
241.7450073982
 20
153.9850746018
 30
0.0
 10
241.7495329505
 20
153.9859612827
 30
0.0
 10
241.7522654221
 20
153.9863245283
 30
0.0
 10
241.7534634456
 20
153.9866744373
 30
0.0
 10
241.753770997
 20
153.9866750736
 30
0.0
 11
235.7537710312
 21
153.9866750736
 31
0.0
 11
235.7539980871
 21
153.9866340581
 31
0.0
 11
235.7546790117
 21
153.9865111681
 31
0.0
 11
235.7558134406
 21
153.986306638
 31
0.0
 11
235.7574010092
 21
153.9860207022
 31
0.0
 11
235.7594413531
 21
153.9856535949
 31
0.0
 11
235.7619341076
 21
153.9852055507
 31
0.0
 11
235.7682753906
 21
153.9840675886
 31
0.0
 11
235.7764219173
 21
153.9826087068
 31
0.0
 11
235.7863687801
 21
153.9808320548
 31
0.0
 11
235.7981077195
 21
153.9787429279
 31
0.0
 11
235.8116301489
 21
153.9763468306
 31
0.0
 11
235.8439909529
 21
153.9706558548
 31
0.0
 11
235.8833678379
 21
153.9638123538
 31
0.0
 11
235.9296525075
 21
153.955885188
 31
0.0
 11
235.9827292114
 21
153.9469477464
 31
0.0
 11
236.042457611
 21
153.9370881242
 31
0.0
 11
236.1086888459
 21
153.9263994455
 31
0.0
 11
236.1812572192
 21
153.9149837048
 31
0.0
 11
236.2599826381
 21
153.9029504787
 31
0.0
 11
236.4351338696
 21
153.8774905533
 31
0.0
 11
236.6324751483
 21
153.8509838805
 31
0.0
 11
236.8501611897
 21
153.8244352936
 31
0.0
 11
237.0861775204
 21
153.7988554477
 31
0.0
 11
237.3383421551
 21
153.775225896
 31
0.0
 11
237.6043058654
 21
153.7544634455
 31
0.0
 11
238.1674297171
 21
153.7246678964
 31
0.0
 11
238.7537710428
 21
153.7141759948
 31
0.0
 11
239.3401123676
 21
153.7246678985
 31
0.0
 11
239.903236216
 21
153.7544634492
 31
0.0
 11
240.4213645535
 21
153.7988554524
 31
0.0
 11
240.6573808821
 21
153.8244352986
 31
0.0
 11
240.8750669183
 21
153.8509838854
 31
0.0
 11
241.0724081945
 21
153.8774905583
 31
0.0
 11
241.2475594211
 21
153.9029504834
 31
0.0
 11
241.3988532091
 21
153.9263994497
 31
0.0
 11
241.524812839
 21
153.9469477501
 31
0.0
 11
241.5778895402
 21
153.9558851913
 31
0.0
 11
241.6241742069
 21
153.9638123567
 31
0.0
 11
241.6635510893
 21
153.9706558573
 31
0.0
 11
241.695911891
 21
153.9763468325
 31
0.0
 11
241.7211732575
 21
153.9808320564
 31
0.0
 11
241.7392666429
 21
153.9840675897
 31
0.0
 11
241.7456079234
 21
153.9852055515
 31
0.0
 11
241.7501410196
 21
153.9860207027
 31
0.0
 11
241.7528630159
 21
153.9865111684
 31
0.0
 11
241.753770997
 21
153.9866750736
 31
0.0
  0
SPLINE
  5
3D9
100
AcDbEntity
  8
0
100
AcDbSpline
 62
7
  6
CONTINUOUS
 70
0
 71
3
 72
16
 73
12
 74
10
 42
0.0000001
 43
0.0000001
 44
0.0000000001
 12
-1.9069042912
 22
-0.0007154458
 32
0.0
 13
-1.4955232774
 23
-1.1830869006
 33
0.0
 40
0.0
 40
0.0
 40
0.0
 40
0.0
 40
0.0441069589
 40
0.0924819628
 40
0.1449028442
 40
0.2008621429
 40
0.3211109896
 40
0.4494678213
 40
0.5831984796
 40
0.7204058831
 40
1.0
 40
1.0
 40
1.0
 40
1.0
 10
74.845846511
 20
37.7473483406
 30
0.0
 10
74.8178105947
 20
37.7473378219
 30
0.0
 10
74.758999438
 20
37.7405385319
 30
0.0
 10
74.6699923142
 20
37.7160825281
 30
0.0
 10
74.5771415245
 20
37.6795451491
 30
0.0
 10
74.4462041972
 20
37.6162980056
 30
0.0
 10
74.2790562616
 20
37.5181100956
 30
0.0
 10
74.0772127024
 20
37.3826584742
 30
0.0
 10
73.8716735771
 20
37.2336904224
 30
0.0
 10
73.5930401458
 20
37.0219601711
 30
0.0
 10
73.3852263477
 20
36.8576110168
 30
0.0
 10
73.245846511
 20
36.7473496378
 30
0.0
 11
74.845846511
 21
37.7473483406
 31
0.0
 11
74.7621693443
 21
37.7388485626
 31
0.0
 11
74.6729865081
 21
37.7152723001
 31
0.0
 11
74.5797349823
 21
37.6792656819
 31
0.0
 11
74.4834479311
 21
37.6332697929
 31
0.0
 11
74.2847208754
 21
37.5188694009
 31
0.0
 11
74.0808773249
 21
37.3833801926
 31
0.0
 11
73.874033466
 21
37.2342274985
 31
0.0
 11
73.665444289
 21
37.0762820016
 31
0.0
 11
73.245846511
 21
36.7473496378
 31
0.0
  0
SPLINE
  5
3DA
100
AcDbEntity
  8
0
100
AcDbSpline
 62
7
  6
CONTINUOUS
 70
0
 71
3
 72
16
 73
12
 74
10
 42
0.0000001
 43
0.0000001
 44
0.0000000001
 12
1.495780421
 22
-1.1827402777
 32
0.0
 13
1.9068910903
 23
0.0000474161
 33
0.0
 40
0.0
 40
0.0
 40
0.0
 40
0.0
 40
0.2795929388
 40
0.4168023419
 40
0.5505349464
 40
0.6788909041
 40
0.7991445897
 40
0.8550999673
 40
0.9075206735
 40
0.9558948645
 40
1.0
 40
1.0
 40
1.0
 40
1.0
 10
73.245846511
 20
44.7473482024
 30
0.0
 10
73.3852497256
 20
44.6371195923
 30
0.0
 10
73.5930445889
 20
44.4727484031
 30
0.0
 10
73.8716781947
 20
44.2610204132
 30
0.0
 10
74.0772014956
 20
44.1120279276
 30
0.0
 10
74.279092011
 20
43.9766455232
 30
0.0
 10
74.4462016442
 20
43.8783955864
 30
0.0
 10
74.5771549953
 20
43.8151770877
 30
0.0
 10
74.6700164708
 20
43.7786839454
 30
0.0
 10
74.7589998141
 20
43.7541604273
 30
0.0
 10
74.8178119477
 20
43.7473476435
 30
0.0
 10
74.845846511
 20
43.7473483406
 30
0.0
 11
73.245846511
 21
44.7473482024
 31
0.0
 11
73.6654488117
 21
44.4184312924
 31
0.0
 11
73.8740352375
 21
44.2604788769
 31
0.0
 11
74.080878156
 21
44.1113215825
 31
0.0
 11
74.2847385597
 21
43.9758638373
 31
0.0
 11
74.4834581685
 21
43.8614352313
 31
0.0
 11
74.5797470252
 21
43.815462205
 31
0.0
 11
74.6730048816
 21
43.779474856
 31
0.0
 11
74.7621742657
 21
43.7558563384
 31
0.0
 11
74.845846511
 21
43.7473483406
 31
0.0
  0
SPLINE
  5
3DB
100
AcDbEntity
  8
0
100
AcDbSpline
 62
7
  6
CONTINUOUS
 70
0
 71
3
 72
13
 73
9
 74
7
 42
0.0000001
 43
0.0000001
 44
0.0000000001
 12
1.9241619799
 22
-0.608280173
 32
0.0
 13
2.0164613471
 23
-0.079295203
 33
0.0
 40
0.0
 40
0.0
 40
0.0
 40
0.0
 40
0.2592865824
 40
0.5159225269
 40
0.6421038116
 40
0.765853686
 40
0.8858731883
 40
1.0
 40
1.0
 40
1.0
 40
1.0
 10
73.2458466473
 20
44.7473483406
 30
0.0
 10
73.4121497752
 20
44.6947753782
 30
0.0
 10
73.7430333984
 20
44.5901155632
 30
0.0
 10
74.1565860584
 20
44.4652937487
 30
0.0
 10
74.4853064643
 20
44.3754635412
 30
0.0
 10
74.7271592585
 20
44.3165465752
 30
0.0
 10
74.9634167613
 20
44.2700355062
 30
0.0
 10
75.1202442542
 20
44.2513542399
 30
0.0
 10
75.1969550224
 20
44.2483376703
 30
0.0
 11
73.2458466473
 21
44.7473483406
 31
0.0
 11
73.745087191
 21
44.5906808579
 31
0.0
 11
74.2414424947
 21
44.4428697504
 31
0.0
 11
74.4871916607
 21
44.376183835
 31
0.0
 11
74.7299990946
 21
44.3177931316
 31
0.0
 11
74.9679007062
 21
44.2723563096
 31
0.0
 11
75.1969550224
 21
44.2483376703
 31
0.0
  0
SPLINE
  5
3DC
100
AcDbEntity
  8
0
100
AcDbSpline
 62
7
  6
CONTINUOUS
 70
0
 71
3
 72
13
 73
9
 74
7
 42
0.0000001
 43
0.0000001
 44
0.0000000001
 12
-1.924160024
 22
0.6082871234
 32
0.0
 13
-2.0164613715
 23
0.0793004409
 33
0.0
 40
0.0
 40
0.0
 40
0.0
 40
0.0
 40
0.2592864864
 40
0.5159223475
 40
0.6421037146
 40
0.7658533404
 40
0.8858727039
 40
1.0
 40
1.0
 40
1.0
 40
1.0
 10
138.1480244893
 20
36.7473483406
 30
0.0
 10
137.9817215919
 20
36.7999218842
 30
0.0
 10
137.6508377076
 20
36.904580549
 30
0.0
 10
137.2372854962
 20
37.0294039365
 30
0.0
 10
136.9085644792
 20
37.1192313672
 30
0.0
 10
136.6667124463
 20
37.1781505715
 30
0.0
 10
136.4304548152
 20
37.2246619362
 30
0.0
 10
136.2736269751
 20
37.2433420059
 30
0.0
 10
136.1969158805
 20
37.2463587876
 30
0.0
 11
138.1480244893
 21
36.7473483406
 31
0.0
 11
137.6487840947
 21
36.9040158508
 31
0.0
 11
137.1524288796
 21
37.0518268733
 31
0.0
 11
136.9066792577
 21
37.1185118541
 31
0.0
 11
136.6638725819
 21
37.1769036865
 31
0.0
 11
136.4259712635
 21
37.2223406979
 31
0.0
 11
136.1969158805
 21
37.2463587876
 31
0.0
  0
SPLINE
  5
3DD
100
AcDbEntity
  8
0
100
AcDbSpline
 62
7
  6
CONTINUOUS
 70
0
 71
3
 72
13
 73
9
 74
7
 42
0.0000001
 43
0.0000001
 44
0.0000000001
 12
2.0164724416
 22
0.0792423625
 32
0.0
 13
1.9242191782
 23
0.6081291095
 33
0.0
 40
0.0
 40
0.0
 40
0.0
 40
0.0
 40
0.114129154
 40
0.2341494976
 40
0.3578989756
 40
0.4840789207
 40
0.7407145378
 40
1.0
 40
1.0
 40
1.0
 40
1.0
 10
136.1969059723
 20
44.2483390817
 30
0.0
 10
136.2736187369
 20
44.251353703
 30
0.0
 10
136.4304487727
 20
44.2700386625
 30
0.0
 10
136.6667107124
 20
44.3165410237
 30
0.0
 10
136.9085645573
 20
44.3754572229
 30
0.0
 10
137.2372790334
 20
44.4653089503
 30
0.0
 10
137.6508436724
 20
44.5900907381
 30
0.0
 10
137.981716072
 20
44.6947886615
 30
0.0
 10
138.148023425
 20
44.7473483406
 30
0.0
 11
136.1969059723
 21
44.2483390817
 31
0.0
 11
136.4259661142
 21
44.2723573489
 31
0.0
 11
136.6638714941
 21
44.3177892544
 31
0.0
 11
136.9066791404
 21
44.3761804223
 31
0.0
 11
137.1524243951
 21
44.4428747699
 31
0.0
 11
137.6487850476
 21
44.5906737025
 31
0.0
 11
138.148023425
 21
44.7473483406
 31
0.0
  0
SPLINE
  5
3DE
100
AcDbEntity
  8
0
100
AcDbSpline
 62
7
  6
CONTINUOUS
 70
0
 71
3
 72
16
 73
12
 74
10
 42
0.0000001
 43
0.0000001
 44
0.0000000001
 12
1.9069006278
 22
0.0005064593
 32
0.0
 13
1.4955382217
 23
1.1830619968
 33
0.0
 40
0.0
 40
0.0
 40
0.0
 40
0.0
 40
0.0441077316
 40
0.0924812126
 40
0.1449023658
 40
0.2008629388
 40
0.3211098734
 40
0.4494678652
 40
0.5831978868
 40
0.7204057954
 40
1.0
 40
1.0
 40
1.0
 40
1.0
 10
136.5480246138
 20
43.7473483406
 30
0.0
 10
136.5760609675
 20
43.7473557868
 30
0.0
 10
136.6348677421
 20
43.7541883888
 30
0.0
 10
136.723882534
 20
43.7786052714
 30
0.0
 10
136.8167294074
 20
43.8151584252
 30
0.0
 10
136.9476600631
 20
43.8784149156
 30
0.0
 10
137.114821645
 20
43.9765800007
 30
0.0
 10
137.3166539237
 20
44.1120466624
 30
0.0
 10
137.5222036521
 20
44.2609998814
 30
0.0
 10
137.8008254542
 20
44.4727446963
 30
0.0
 10
138.0086433406
 20
44.6370880469
 30
0.0
 10
138.1480246138
 20
44.7473471395
 30
0.0
 11
136.5480246138
 21
43.7473483406
 31
0.0
 11
136.6317015003
 21
43.7558638166
 31
0.0
 11
136.7208851833
 21
43.7794248019
 31
0.0
 11
136.8141353656
 21
43.8154357955
 31
0.0
 11
136.910421232
 21
43.8614393169
 31
0.0
 11
137.1091508685
 21
43.9758270177
 31
0.0
 11
137.3129937049
 21
44.1113204319
 31
0.0
 11
137.5198400359
 21
44.2604667684
 31
0.0
 11
137.7284258855
 21
44.4184174074
 31
0.0
 11
138.1480246138
 21
44.7473471395
 31
0.0
  0
SPLINE
  5
3DF
100
AcDbEntity
  8
0
100
AcDbSpline
 62
7
  6
CONTINUOUS
 70
0
 71
3
 72
16
 73
12
 74
10
 42
0.0000001
 43
0.0000001
 44
0.0000000001
 12
-1.4957858618
 22
1.182733044
 32
0.0
 13
-1.906890872
 23
0.0000030903
 33
0.0
 40
0.0
 40
0.0
 40
0.0
 40
0.0
 40
0.2795929285
 40
0.41680232
 40
0.5505348764
 40
0.6788907294
 40
0.7991443576
 40
0.8550998391
 40
0.9075206517
 40
0.9558948708
 40
1.0
 40
1.0
 40
1.0
 40
1.0
 10
138.1480246138
 20
36.7473484669
 30
0.0
 10
138.0086208973
 20
36.8575763987
 30
0.0
 10
137.8008269502
 20
37.0219486794
 30
0.0
 10
137.5221930003
 20
37.2336760908
 30
0.0
 10
137.316669482
 20
37.382668046
 30
0.0
 10
137.114778308
 20
37.5180492339
 30
0.0
 10
136.9476684305
 20
37.6162984637
 30
0.0
 10
136.8167158467
 20
37.6795186797
 30
0.0
 10
136.7238549437
 20
37.7160135852
 30
0.0
 10
136.6348713521
 20
37.7405373388
 30
0.0
 10
136.5760591699
 20
37.7473482952
 30
0.0
 10
136.5480246138
 20
37.7473483406
 30
0.0
 11
138.1480246138
 21
36.7473484669
 31
0.0
 11
137.7284224995
 21
37.0762654834
 31
0.0
 11
137.5198359319
 21
37.2342176256
 31
0.0
 11
137.3129927029
 21
37.3833742823
 31
0.0
 11
137.1091318426
 21
37.5188309291
 31
0.0
 11
136.9104123201
 21
37.6332594128
 31
0.0
 11
136.8141238539
 21
37.6792336884
 31
0.0
 11
136.7208663473
 21
37.7152224754
 31
0.0
 11
136.6316968939
 21
37.7388408998
 31
0.0
 11
136.5480246138
 21
37.7473483406
 31
0.0
  0
SPLINE
  5
3E0
100
AcDbEntity
  8
0
100
AcDbSpline
 62
7
  6
CONTINUOUS
 70
0
 71
3
 72
12
 73
8
 74
6
 42
0.0000001
 43
0.0000001
 44
0.0000000001
 12
0.6496890905
 22
0.1000127163
 32
0.0
 13
0.0000000232
 23
0.6573419641
 33
0.0
 40
0.0
 40
0.0
 40
0.0
 40
0.0
 40
0.1113948592
 40
0.225866267
 40
0.4673361086
 40
0.7277212647
 40
1.0
 40
1.0
 40
1.0
 40
1.0
 10
136.1969432788
 20
37.2511037814
 30
0.0
 10
136.2210672871
 20
37.2548174155
 30
0.0
 10
136.2692805701
 20
37.2679798336
 30
0.0
 10
136.3605641334
 20
37.3158199627
 30
0.0
 10
136.4580510482
 20
37.4143169454
 30
0.0
 10
136.5312438815
 20
37.5702121688
 30
0.0
 10
136.5480246183
 20
37.687688261
 30
0.0
 10
136.5480246205
 20
37.7473483406
 30
0.0
 11
136.1969432788
 21
37.2511037814
 31
0.0
 11
136.2676277027
 21
37.2702229314
 31
0.0
 11
136.3343900861
 21
37.304934228
 31
0.0
 11
136.4476667766
 21
37.4161234896
 31
0.0
 11
136.5220946957
 21
37.5702563734
 31
0.0
 11
136.5480246205
 21
37.7473483406
 31
0.0
  0
SPLINE
  5
3E1
100
AcDbEntity
  8
0
100
AcDbSpline
 62
7
  6
CONTINUOUS
 70
0
 71
3
 72
12
 73
8
 74
6
 42
0.0000001
 43
0.0000001
 44
0.0000000001
 12
0.6497014447
 22
-0.0999983245
 32
0.0
 13
-0.0000469885
 23
-0.6573519833
 33
0.0
 40
0.0
 40
0.0
 40
0.0
 40
0.0
 40
0.1114010114
 40
0.2258759496
 40
0.4673458823
 40
0.7277258788
 40
1.0
 40
1.0
 40
1.0
 40
1.0
 10
136.196943264
 20
44.243593534
 30
0.0
 10
136.2210690633
 20
44.2398802292
 30
0.0
 10
136.2692855396
 20
44.2267185868
 30
0.0
 10
136.3605740073
 20
44.1788797681
 30
0.0
 10
136.4580646401
 20
44.080383227
 30
0.0
 10
136.5312548921
 20
43.9244854395
 30
0.0
 10
136.5480288902
 20
43.8070083184
 30
0.0
 10
136.5480246256
 20
43.7473483406
 30
0.0
 11
136.196943264
 21
44.243593534
 31
0.0
 11
136.2676332274
 21
44.2244751
 31
0.0
 11
136.334399748
 21
44.1897642435
 31
0.0
 11
136.4476800004
 21
44.0785750709
 31
0.0
 11
136.5221045883
 21
43.9244414473
 31
0.0
 11
136.5480246256
 21
43.7473483406
 31
0.0
  0
SPLINE
  5
3E2
100
AcDbEntity
  8
0
100
AcDbSpline
 62
7
  6
CONTINUOUS
 70
0
 71
3
 72
12
 73
8
 74
6
 42
0.0000001
 43
0.0000001
 44
0.0000000001
 12
-0.649689094
 22
-0.1000127127
 32
0.0
 13
-0.0000000139
 23
-0.657341967
 33
0.0
 40
0.0
 40
0.0
 40
0.0
 40
0.0
 40
0.1113948585
 40
0.2258662654
 40
0.4673361067
 40
0.7277212634
 40
1.0
 40
1.0
 40
1.0
 40
1.0
 10
75.1969278457
 20
44.2435929
 30
0.0
 10
75.1728038375
 20
44.239879266
 30
0.0
 10
75.1245905545
 20
44.2267168483
 30
0.0
 10
75.033306991
 20
44.1788767196
 30
0.0
 10
74.9358200748
 20
44.0803797376
 30
0.0
 10
74.8626272401
 20
43.9244845138
 30
0.0
 10
74.8458465011
 20
43.8070084207
 30
0.0
 10
74.8458464998
 20
43.7473483406
 30
0.0
 11
75.1969278457
 21
44.2435929
 31
0.0
 11
75.1262434219
 21
44.2244737505
 31
0.0
 11
75.0594810386
 21
44.1897624543
 31
0.0
 11
74.9462043467
 21
44.0785731934
 31
0.0
 11
74.8717764257
 21
43.9244403092
 31
0.0
 11
74.8458464998
 21
43.7473483406
 31
0.0
  0
SPLINE
  5
3E3
100
AcDbEntity
  8
0
100
AcDbSpline
 62
7
  6
CONTINUOUS
 70
0
 71
3
 72
12
 73
8
 74
6
 42
0.0000001
 43
0.0000001
 44
0.0000000001
 12
-0.6497026016
 22
0.0999970128
 32
0.0
 13
0.0000514641
 23
0.6573529269
 33
0.0
 40
0.0
 40
0.0
 40
0.0
 40
0.0
 40
0.1114015726
 40
0.2258768331
 40
0.4673467659
 40
0.7277262879
 40
1.0
 40
1.0
 40
1.0
 40
1.0
 10
75.1969278622
 20
37.2511030893
 30
0.0
 10
75.1728018984
 20
37.2548163641
 30
0.0
 10
75.1245851284
 20
37.2679779352
 30
0.0
 10
75.0332962074
 20
37.3158166291
 30
0.0
 10
74.935805226
 20
37.4143131241
 30
0.0
 10
74.8626151804
 20
37.5702111395
 30
0.0
 10
74.8458417942
 20
37.6876883667
 30
0.0
 10
74.845846465
 20
37.7473483406
 30
0.0
 11
75.1969278622
 21
37.2511030893
 31
0.0
 11
75.1262373898
 21
37.270221457
 31
0.0
 11
75.0594704863
 21
37.3049322708
 31
0.0
 11
74.9461898977
 21
37.4161214263
 31
0.0
 11
74.8717655919
 21
37.5702551127
 31
0.0
 11
74.845846465
 21
37.7473483406
 31
0.0
  0
SPLINE
  5
3E4
100
AcDbEntity
  8
0
100
AcDbSpline
 62
7
  6
CONTINUOUS
 70
0
 71
3
 72
13
 73
9
 74
7
 42
0.0000001
 43
0.0000001
 44
0.0000000001
 12
-2.0164698534
 22
-0.0792466414
 32
0.0
 13
-1.9242197916
 23
-0.6081191442
 33
0.0
 40
0.0
 40
0.0
 40
0.0
 40
0.0
 40
0.1141279294
 40
0.2341478879
 40
0.3578982918
 40
0.484078174
 40
0.7407142005
 40
1.0
 40
1.0
 40
1.0
 40
1.0
 10
75.1969629486
 20
37.246356353
 30
0.0
 10
75.1202511056
 20
37.2433416013
 30
0.0
 10
74.9634217793
 20
37.2246608954
 30
0.0
 10
74.7271620723
 20
37.1781508382
 30
0.0
 10
74.4853060763
 20
37.1192438143
 30
0.0
 10
74.1565931349
 20
37.0293842963
 30
0.0
 10
73.7430269863
 20
36.904608291
 30
0.0
 10
73.4121554181
 20
36.7999072268
 30
0.0
 10
73.2458477957
 20
36.7473483406
 30
0.0
 11
75.1969629486
 21
37.246356353
 31
0.0
 11
74.9679053659
 21
37.2223400228
 31
0.0
 11
74.7300015464
 21
37.176905637
 31
0.0
 11
74.4871914523
 21
37.1185179365
 31
0.0
 11
74.2414472084
 21
37.0518215142
 31
0.0
 11
73.7450861065
 21
36.9040233706
 31
0.0
 11
73.2458477957
 21
36.7473483406
 31
0.0
  0
SPLINE
  5
3E5
100
AcDbEntity
  8
0
100
AcDbSpline
 62
7
  6
CONTINUOUS
 70
0
 71
3
 72
29
 73
25
 74
23
 42
0.0000001
 43
0.0000001
 44
0.0000000001
 12
-30.8659549425
 22
0.0
 32
0.0
 13
30.8659549425
 23
-0.0
 33
0.0
 40
0.0
 40
0.0
 40
0.0
 40
0.0
 40
0.0629773658
 40
0.1257255172
 40
0.1881186952
 40
0.2501957642
 40
0.3121577781
 40
0.3432272376
 40
0.374379495
 40
0.4056388317
 40
0.4370109919
 40
0.4684781812
 40
0.5000000012
 40
0.5315218178
 40
0.562989009
 40
0.594361168
 40
0.6256205051
 40
0.6567727619
 40
0.6878422215
 40
0.7498042342
 40
0.8118813025
 40
0.8742744805
 40
0.9370226329
 40
1.0
 40
1.0
 40
1.0
 40
1.0
 10
105.6969355624
 20
52.0473483406
 30
0.0
 10
105.0489833839
 20
52.0473483406
 30
0.0
 10
103.7526809647
 20
51.9361948748
 30
0.0
 10
101.8721532901
 20
51.4408506056
 30
0.0
 10
100.1134529319
 20
50.6305089993
 30
0.0
 10
98.5337991843
 20
49.5242560869
 30
0.0
 10
97.4131786627
 20
48.3725564779
 30
0.0
 10
96.668611247
 20
47.3318918702
 30
0.0
 10
96.1926577074
 20
46.4939467613
 30
0.0
 10
95.8092560219
 20
45.6063418916
 30
0.0
 10
95.5272688082
 20
44.6779417921
 30
0.0
 10
95.354473796
 20
43.7203111522
 30
0.0
 10
95.2962276587
 20
42.7473483372
 30
0.0
 10
95.3544738161
 20
41.7743855062
 30
0.0
 10
95.5272687957
 20
40.816754888
 30
0.0
 10
95.8092560292
 20
39.8883547827
 30
0.0
 10
96.1926577018
 20
39.0007499239
 30
0.0
 10
96.6686112478
 20
38.1628048199
 30
0.0
 10
97.4131786419
 20
37.1221402176
 30
0.0
 10
98.5337991521
 20
35.9704406229
 30
0.0
 10
100.1134528755
 20
34.8641877125
 30
0.0
 10
101.8721532313
 20
34.0538460943
 30
0.0
 10
103.7526809273
 20
33.5585018099
 30
0.0
 10
105.0489833705
 20
33.4473483406
 30
0.0
 10
105.6969355624
 20
33.4473483406
 30
0.0
 11
105.6969355624
 21
52.0473483406
 31
0.0
 11
103.7602256263
 21
51.8808164996
 31
0.0
 11
101.8875660762
 21
51.3865804968
 31
0.0
 11
100.1392813764
 21
50.5789279627
 31
0.0
 11
98.5716062861
 21
49.4772422288
 31
0.0
 11
97.2407093483
 21
48.1037672261
 31
0.0
 11
96.6831362372
 21
47.3235292908
 31
0.0
 11
96.20880358
 21
46.4871228541
 31
0.0
 11
95.8267451925
 21
45.6011400559
 31
0.0
 11
95.5458082031
 21
44.6744574458
 31
0.0
 11
95.3736722889
 21
43.718568002
 31
0.0
 11
95.3156542634
 21
42.7473483025
 31
0.0
 11
95.3736722943
 21
41.7761287093
 31
0.0
 11
95.5458082057
 21
40.820239205
 31
0.0
 11
95.8267451902
 21
39.893556632
 31
0.0
 11
96.208803581
 21
39.0075738235
 31
0.0
 11
96.6831362311
 21
38.1711674041
 31
0.0
 11
97.2407093397
 21
37.3909294613
 31
0.0
 11
98.5716062487
 21
36.017454481
 31
0.0
 11
100.1392813131
 21
34.9157687527
 31
0.0
 11
101.8875660082
 21
34.1081162074
 31
0.0
 11
103.7602255866
 21
33.6138801877
 31
0.0
 11
105.6969355624
 21
33.4473483406
 31
0.0
  0
SPLINE
  5
3E6
100
AcDbEntity
  8
0
100
AcDbSpline
 62
7
  6
CONTINUOUS
 70
0
 71
3
 72
29
 73
25
 74
23
 42
0.0000001
 43
0.0000001
 44
0.0000000001
 12
30.8659549426
 22
0.0
 32
0.0
 13
-30.8659549426
 23
-0.0
 33
0.0
 40
0.0
 40
0.0
 40
0.0
 40
0.0
 40
0.0629773661
 40
0.1257255176
 40
0.1881186956
 40
0.2501957646
 40
0.3121577785
 40
0.343227238
 40
0.3743794953
 40
0.4056388321
 40
0.4370109922
 40
0.4684781816
 40
0.5000000011
 40
0.5315218178
 40
0.5629890087
 40
0.5943611678
 40
0.6256205048
 40
0.6567727616
 40
0.6878422213
 40
0.7498042341
 40
0.8118813025
 40
0.8742744805
 40
0.9370226329
 40
1.0
 40
1.0
 40
1.0
 40
1.0
 10
105.6969355624
 20
33.4473483406
 30
0.0
 10
106.3448877434
 20
33.4473483406
 30
0.0
 10
107.6411901669
 20
33.558501807
 30
0.0
 10
109.5217178457
 20
34.0538460791
 30
0.0
 10
111.2804182047
 20
34.8641876882
 30
0.0
 10
112.8600719499
 20
35.9704406023
 30
0.0
 10
113.9806924706
 20
37.1221402115
 30
0.0
 10
114.7252598829
 20
38.1628048203
 30
0.0
 10
115.2012134229
 20
39.00074993
 30
0.0
 10
115.5846151061
 20
39.888354799
 30
0.0
 10
115.8666023203
 20
40.8167548987
 30
0.0
 10
116.0393973274
 20
41.7743855339
 30
0.0
 10
116.097643466
 20
42.7473483467
 30
0.0
 10
116.0393973107
 20
43.7203111714
 30
0.0
 10
115.8666023292
 20
44.6779417877
 30
0.0
 10
115.5846150992
 20
45.6063418902
 30
0.0
 10
115.2012134266
 20
46.4939467495
 30
0.0
 10
114.7252598817
 20
47.3318918547
 30
0.0
 10
113.9806924866
 20
48.3725564589
 30
0.0
 10
112.8600719753
 20
49.5242560563
 30
0.0
 10
111.2804182497
 20
50.6305089685
 30
0.0
 10
109.5217178925
 20
51.4408505872
 30
0.0
 10
107.6411901966
 20
51.9361948713
 30
0.0
 10
106.3448877539
 20
52.0473483406
 30
0.0
 10
105.6969355624
 20
52.0473483406
 30
0.0
 11
105.6969355624
 21
33.4473483406
 31
0.0
 11
107.6336455059
 21
33.6138801827
 31
0.0
 11
109.5063050608
 21
34.1081161885
 31
0.0
 11
111.2545897608
 21
34.9157687253
 31
0.0
 11
112.8222648488
 21
36.0174544605
 31
0.0
 11
114.1531617831
 21
37.3909294626
 31
0.0
 11
114.7107348938
 21
38.1711674008
 31
0.0
 11
115.1850675492
 21
39.0075738358
 31
0.0
 11
115.5671259368
 21
39.8935566371
 31
0.0
 11
115.8480629239
 21
40.8202392421
 31
0.0
 11
116.0201988363
 21
41.7761286902
 31
0.0
 11
116.0782168614
 21
42.7473483744
 31
0.0
 11
116.0201988313
 21
43.7185679735
 31
0.0
 11
115.8480629209
 21
44.6744574673
 31
0.0
 11
115.5671259376
 21
45.6011400414
 31
0.0
 11
115.185067548
 21
46.4871228492
 31
0.0
 11
114.710734898
 21
47.3235292706
 31
0.0
 11
114.1531617893
 21
48.1037672144
 31
0.0
 11
112.8222648783
 21
49.4772421982
 31
0.0
 11
111.2545898116
 21
50.5789279284
 31
0.0
 11
109.506305115
 21
51.3865804743
 31
0.0
 11
107.633645537
 21
51.8808164936
 31
0.0
 11
105.6969355624
 21
52.0473483406
 31
0.0
  0
SPLINE
  5
3E7
100
AcDbEntity
  8
0
100
AcDbSpline
 62
7
  6
CONTINUOUS
 70
0
 71
3
 72
13
 73
9
 74
7
 42
0.0000001
 43
0.0000001
 44
0.0000000001
 12
1.0706029619
 22
5.9363264717
 32
0.0
 13
-1.0706029699
 23
5.9363264703
 33
0.0
 40
0.0
 40
0.0
 40
0.0
 40
0.0
 40
0.1474051839
 40
0.3093156135
 40
0.5000000112
 40
0.6906844015
 40
0.8525948313
 40
1.0
 40
1.0
 40
1.0
 40
1.0
 10
89.0469355624
 20
15.8673483406
 30
0.0
 10
89.0995397046
 20
16.1590301056
 30
0.0
 10
89.1946735097
 20
16.7739121416
 30
0.0
 10
89.2944625784
 20
17.7747916271
 30
0.0
 10
89.3329396134
 20
18.8673483935
 30
0.0
 10
89.2944625708
 20
19.9599051597
 30
0.0
 10
89.1946735018
 20
20.9607845998
 30
0.0
 10
89.0995396995
 20
21.5756666056
 30
0.0
 10
89.0469355624
 20
21.8673483406
 30
0.0
 11
89.0469355624
 21
15.8673483406
 31
0.0
 11
89.1826267554
 21
16.7460524755
 31
0.0
 11
89.2791471902
 21
17.7178831885
 31
0.0
 11
89.319434641
 21
18.8673484083
 31
0.0
 11
89.279147184
 21
20.0168135832
 31
0.0
 11
89.1826267442
 21
20.9886442964
 31
0.0
 11
89.0469355624
 21
21.8673483406
 31
0.0
  0
ELLIPSE
  5
3E8
100
AcDbEntity
  8
0
100
AcDbEllipse
 62
7
  6
CONTINUOUS
 10
143.3546515095
 20
29.7473483406
 30
0.0
 11
4.0012185316
 21
-0.0
 31
0.0
 40
0.9996954599
 41
-2.3563467834
 42
-1.5707963268
  0
ELLIPSE
  5
3E9
100
AcDbEntity
  8
0
100
AcDbEllipse
 62
7
  6
CONTINUOUS
 10
143.3546515095
 20
51.7473483406
 30
0.0
 11
4.0012185316
 21
-0.0
 31
0.0
 40
0.9996954599
 41
1.5707963268
 42
2.3563467834
  0
ELLIPSE
  5
3EA
100
AcDbEntity
  8
0
100
AcDbEllipse
 62
7
  6
CONTINUOUS
 10
68.0392196154
 20
51.7473483406
 30
0.0
 11
4.0012185316
 21
-0.0
 31
0.0
 40
0.9996954599
 41
0.7852458701
 42
1.5707963268
  0
ELLIPSE
  5
3EB
100
AcDbEntity
  8
0
100
AcDbEllipse
 62
7
  6
CONTINUOUS
 10
68.0392196154
 20
29.7473483406
 30
0.0
 11
4.0012185316
 21
0.0
 31
0.0
 40
0.9996954599
 41
-1.5707963268
 42
-0.7852458702
  0
ENDSEC
  0
SECTION
  2
OBJECTS
  0
DICTIONARY
  5
3EC
100
AcDbDictionary
  3
ACAD_GROUP
350
3ED
  3
ACAD_MLINESTYLE
350
3EE
  0
DICTIONARY
  5
3ED
102
{ACAD_REACTORS
330
3EC
102
}
100
AcDbDictionary
  0
DICTIONARY
  5
3EE
102
{ACAD_REACTORS
330
3EC
102
}
100
AcDbDictionary
  3
STANDARD
350
3EF
  0
MLINESTYLE
  5
3EF
102
{ACAD_REACTORS
330
3EE
102
}
100
AcDbMlineStyle
  2
STANDARD
 70
0
  3

 62
256
 51
90.0
 52
90.0
 71
2
 49
0.5
 62
256
  6
BYLAYER
 49
-0.5
 62
256
  6
BYLAYER
  0
ENDSEC
  0
EOF
