  0
SECTION
  2
HEADER
  9
$ACADVER
  1
AC1015
  9
$DWGCODEPAGE
  3
ANSI_1252
  9
$EXTMAX
 10
210.0
 20
297.0
 30
0.0
  9
$EXTMIN
 10
0.0
 20
0.0
 30
0.0
  9
$LIMMIN
 10
0.0
 20
0.0
  9
$LIMMAX
 10
210.0
 20
297.0
  9
$VIEWCTR
 10
105.0
 20
148.5
  9
$VIEWSIZE
 40
297.0
  9
$CLAYER
  8
0
  9
$LTSCALE
 40
19.36
  9
$CELTYPE
  6
BYLAYER
  9
$DIMSCALE
 40
1.0
  9
$DIMASZ
 40
3.5
  9
$DIMEXO
 40
2.2
  9
$DIMDLI
 40
13.376
  9
$DIMEXE
 40
6.336
  9
$DIMCEN
 40
3.168
  9
$DIMLFAC
 40
1.0
  9
$DIMBLK
  1
_FILLED
  9
$DIMTXT
 40
3.5
  9
$DIMTOL
 70
1
  9
$DIMLIM
 70
0
  9
$DIMTFAC
 40
1.0
  9
$DIMTP
 40
0.01
  9
$DIMTM
 40
0.01
  9
$PDMODE
 70
3
  9
$PDSIZE
 40
0.3125
  9
$HANDSEED
  5
303
  9
$TILEMODE
 70
1
  9
$MEASUREMENT
 70
1
  9
$INSUNITS
 70
4
  0
ENDSEC
  0
SECTION
  2
CLASSES
  0
CLASS
  1
ACDBDICTIONARYWDFLT
  2
AcDbDictionaryWithDefault
  3
AutoCAD 2000
 90
0
280
0
281
0
  0
CLASS
  1
ACDBPLACEHOLDER
  2
AcDbPlaceHolder
  3
AutoCAD 2000
 90
0
280
0
281
0
  0
CLASS
  1
LAYOUT
  2
AcDbLayout
  3
AutoCAD 2000
 90
0
280
0
281
0
  0
ENDSEC
  0
SECTION
  2
TABLES
  0
TABLE
  2
VPORT
  5
8
100
AcDbSymbolTable
 70
2
  0
VPORT
  5
1F4
100
AcDbSymbolTableRecord
100
AcDbViewportTableRecord
  2
*ACTIVE
 70
0
 10
0.0
 20
0.0
 11
1.0
 21
1.0
 12
105.0
 22
148.5
 13
0.0
 23
0.0
 14
1.0
 24
1.0
 15
0.0
 25
0.0
 16
0.0
 26
0.0
 36
1.0
 17
0.0
 27
0.0
 37
0.0
 40
297.0
 41
0.7070707071
 42
50.0
 43
0.0
 44
0.0
 50
0.0
 51
0.0
 71
0
 72
100
 73
1
 74
1
 75
0
 76
0
 77
0
 78
0
  0
ENDTAB
  0
TABLE
  2
LTYPE
  5
5
100
AcDbSymbolTable
 70
6
  0
LTYPE
  5
14
100
AcDbSymbolTableRecord
100
AcDbLinetypeTableRecord
  2
BYBLOCK
 70
0
  3

 72
65
 73
0
 40
0.0
  0
LTYPE
  5
15
100
AcDbSymbolTableRecord
100
AcDbLinetypeTableRecord
  2
BYLAYER
 70
0
  3

 72
65
 73
0
 40
0.0
  0
LTYPE
  5
16
100
AcDbSymbolTableRecord
100
AcDbLinetypeTableRecord
  2
CONTINUOUS
 70
64
  3
Solid line
 72
65
 73
0
 40
0.0
  0
LTYPE
  5
1F5
100
AcDbSymbolTableRecord
100
AcDbLinetypeTableRecord
  2
CENTER
 70
64
  3
____ _ ____ _ ____ _ ____ _ ____ _ ____ _ ____
 72
65
 73
4
 40
0.6
 49
0.375
 74
0
 49
-0.075
 74
0
 49
0.075
 74
0
 49
-0.075
 74
0
  0
LTYPE
  5
1F6
100
AcDbSymbolTableRecord
100
AcDbLinetypeTableRecord
  2
HIDDEN
 70
64
  3
- - - - - - - - - - - - - - - - - - - -
 72
65
 73
2
 40
0.2
 49
0.1
 74
0
 49
-0.1
 74
0
  0
LTYPE
  5
1F7
100
AcDbSymbolTableRecord
100
AcDbLinetypeTableRecord
  2
PHANTOM
 70
64
  3
_____ _ _ _____ _ _ _____ _ _ _____
 72
65
 73
6
 40
0.8
 49
0.45
 74
0
 49
-0.05
 74
0
 49
0.1
 74
0
 49
-0.05
 74
0
 49
0.1
 74
0
 49
-0.05
 74
0
  0
LTYPE
  5
1F8
100
AcDbSymbolTableRecord
100
AcDbLinetypeTableRecord
  2
DOT
 70
64
  3
. . . . . . . . . . . . . . . . . . . .
 72
65
 73
2
 40
0.2
 49
0.1
 74
0
 49
-0.1
 74
0
  0
LTYPE
  5
1F9
100
AcDbSymbolTableRecord
100
AcDbLinetypeTableRecord
  2
DASHED
 70
64
  3
- - - - - - - - - - - - - - - - - - - -
 72
65
 73
2
 40
0.2
 49
0.1
 74
0
 49
-0.1
 74
0
  0
ENDTAB
  0
TABLE
  2
LAYER
  5
2
100
AcDbSymbolTable
 70
36
  0
LAYER
  5
10
100
AcDbSymbolTableRecord
100
AcDbLayerTableRecord
  2
0
 70
0
 62
7
  6
CONTINUOUS
370
-3
390
F
  0
LAYER
  5
1FA
100
AcDbSymbolTableRecord
100
AcDbLayerTableRecord
  2
DEFAULT_1
 70
0
 62
7
  6
CENTER
370
-3
390
F
  0
LAYER
  5
1FB
100
AcDbSymbolTableRecord
100
AcDbLayerTableRecord
  2
DEFAULT_2
 70
0
 62
8
  6
HIDDEN
370
-3
390
F
  0
LAYER
  5
1FC
100
AcDbSymbolTableRecord
100
AcDbLayerTableRecord
  2
DEFAULT_3
 70
0
 62
7
  6
PHANTOM
370
-3
390
F
  0
LAYER
  5
1FD
100
AcDbSymbolTableRecord
100
AcDbLayerTableRecord
  2
ASSI
 70
0
 62
7
  6
CONTINUOUS
370
-3
390
F
  0
LAYER
  5
1FE
100
AcDbSymbolTableRecord
100
AcDbLayerTableRecord
  2
PIANI
 70
0
 62
7
  6
CONTINUOUS
370
-3
390
F
  0
ENDTAB
  0
TABLE
  2
STYLE
  5
3
100
AcDbSymbolTable
 70
1
  0
STYLE
  5
11
100
AcDbSymbolTableRecord
100
AcDbTextStyleTableRecord
  2
STANDARD
 70
0
 40
0.0
 41
0.5
 50
0.0
 71
0
 42
0.2
  3
txt
  4

  0
STYLE
  5
1FF
100
AcDbSymbolTableRecord
100
AcDbTextStyleTableRecord
  2
TEXTSTYLE_1
 70
0
 40
0.0
 41
0.8
 50
0.0
 71
0
 42
0.2
  3
gdt
  4

  0
STYLE
  5
200
100
AcDbSymbolTableRecord
100
AcDbTextStyleTableRecord
  2
TEXTSTYLE_2
 70
0
 40
0.0
 41
0.5
 50
0.0
 71
0
 42
0.2
  3
gdt
  4

  0
ENDTAB
  0
TABLE
  2
VIEW
  5
6
100
AcDbSymbolTable
 70
0
  0
ENDTAB
  0
TABLE
  2
UCS
  5
7
100
AcDbSymbolTable
 70
0
  0
ENDTAB
  0
TABLE
  2
APPID
  5
9
100
AcDbSymbolTable
 70
1
  0
APPID
  5
201
100
AcDbSymbolTableRecord
100
AcDbRegAppTableRecord
  2
ACAD
 70
0
  0
ENDTAB
  0
TABLE
  2
BLOCK_RECORD
  5
1
100
AcDbSymbolTable
 70
0
  0
BLOCK_RECORD
  5
202
100
AcDbSymbolTableRecord
100
AcDbBlockTableRecord
  2
*Model_Space
  0
BLOCK_RECORD
  5
203
100
AcDbSymbolTableRecord
100
AcDbBlockTableRecord
  2
*Paper_Space
  0
BLOCK_RECORD
  5
204
100
AcDbSymbolTableRecord
100
AcDbBlockTableRecord
  2
_FILLED
  0
BLOCK_RECORD
  5
205
100
AcDbSymbolTableRecord
100
AcDbBlockTableRecord
  2
*D0
  0
BLOCK_RECORD
  5
206
100
AcDbSymbolTableRecord
100
AcDbBlockTableRecord
  2
*D1
  0
BLOCK_RECORD
  5
207
100
AcDbSymbolTableRecord
100
AcDbBlockTableRecord
  2
*D2
  0
BLOCK_RECORD
  5
208
100
AcDbSymbolTableRecord
100
AcDbBlockTableRecord
  2
*D3
  0
BLOCK_RECORD
  5
209
100
AcDbSymbolTableRecord
100
AcDbBlockTableRecord
  2
*D4
  0
ENDTAB
  0
TABLE
  2
DIMSTYLE
  5
A
100
AcDbSymbolTable
 70
1
100
AcDbDimStyleTable
 71
0
  0
DIMSTYLE
105
20A
100
AcDbSymbolTableRecord
100
AcDbDimStyleTableRecord
  2
STANDARD
 70
0
  3

  4

 40
1.0
 41
3.5
 42
0.0625
 43
0.38
 44
0.18
 45
0.0
 46
0.0
 47
0.01
 48
0.01
140
3.5
141
0.09
142
0.0
143
25.4
144
1.0
145
0.0
146
1.0
147
0.09
 71
1.0
 72
0.0
 73
0
 74
0
 75
0
 76
0
 77
1
 78
8
170
0
171
2
172
0
173
0
174
0
175
0
176
0
177
0
178
0
270
2
271
2
272
2
273
2
274
2
275
0
280
0
281
0
282
0
283
1
284
8
285
0
286
0
287
3
288
0
340
11
341
204
342
204
343
204
344
204
  0
DIMSTYLE
105
20B
100
AcDbSymbolTableRecord
100
AcDbDimStyleTableRecord
  2
DIMSTYLE_1
 70
0
  3

  4

 40
1.0
 41
3.5
 42
0.0625
 43
0.38
 44
0.18
 45
0.0
 46
0.0
 47
0.1
 48
0.1
140
3.5
141
0.09
142
0.0
143
25.4
144
1.0
145
0.0
146
1.0
147
0.09
 71
0.0
 72
0.0
 73
0
 74
0
 75
0
 76
0
 77
1
 78
8
170
0
171
2
172
0
173
0
174
0
175
0
176
0
177
0
178
0
270
2
271
2
272
2
273
2
274
2
275
0
280
0
281
0
282
0
283
1
284
8
285
0
286
0
287
3
288
0
340
11
341
204
342
204
343
204
344
204
  0
DIMSTYLE
105
20C
100
AcDbSymbolTableRecord
100
AcDbDimStyleTableRecord
  2
DIMSTYLE_2
 70
0
  3

  4

 40
1.0
 41
3.5
 42
0.0625
 43
0.38
 44
0.18
 45
0.0
 46
0.0
 47
0.1
 48
0.1
140
3.5
141
0.09
142
0.0
143
25.4
144
1.0
145
0.0
146
1.0
147
0.09
 71
0.0
 72
0.0
 73
0
 74
0
 75
0
 76
0
 77
1
 78
8
170
0
171
2
172
0
173
0
174
0
175
0
176
0
177
0
178
0
270
2
271
2
272
2
273
2
274
2
275
0
280
0
281
0
282
0
283
1
284
8
285
0
286
0
287
3
288
0
340
11
341
204
342
204
343
204
344
204
  0
DIMSTYLE
105
20D
100
AcDbSymbolTableRecord
100
AcDbDimStyleTableRecord
  2
DIMSTYLE_3
 70
0
  3

  4

 40
1.0
 41
3.5
 42
0.0625
 43
0.38
 44
0.18
 45
0.0
 46
0.0
 47
0.15
 48
0.15
140
3.5
141
0.09
142
0.0
143
25.4
144
1.0
145
0.0
146
1.0
147
0.09
 71
0.0
 72
0.0
 73
0
 74
0
 75
0
 76
0
 77
1
 78
8
170
0
171
2
172
0
173
0
174
0
175
0
176
0
177
0
178
0
270
2
271
2
272
2
273
2
274
2
275
0
280
0
281
0
282
0
283
1
284
8
285
0
286
0
287
3
288
0
340
11
341
204
342
204
343
204
344
204
  0
ENDTAB
  0
ENDSEC
  0
SECTION
  2
BLOCKS
  0
BLOCK
  5
20
100
AcDbEntity
  8
0
100
AcDbBlockBegin
  2
*Model_Space
 70
0
 10
0.0
 20
0.0
 30
0.0
  3
*Model_Space
  1

  0
ENDBLK
  5
21
100
AcDbEntity
  8
0
100
AcDbBlockEnd
  0
BLOCK
  5
1C
100
AcDbEntity
  8
0
100
AcDbBlockBegin
  2
*Paper_Space
 70
0
 10
0.0
 20
0.0
 30
0.0
  3
*Paper_Space
  1

  0
ENDBLK
  5
1D
100
AcDbEntity
  8
0
100
AcDbBlockEnd
  0
BLOCK
  5
20E
100
AcDbEntity
  8
0
100
AcDbBlockBegin
  2
_FILLED
 70
64
 10
0.0
 20
0.0
  3
_FILLED
  1

  0
SOLID
  5
20F
100
AcDbEntity
  8
0
  6
BYBLOCK
 62
0
100
AcDbTrace
 10
0.0
 20
0.0
 11
-1.0
 21
0.1857142857
 12
-1.0
 22
-0.1857142857
 13
-1.0
 23
-0.1857142857
  0
ENDBLK
  5
210
100
AcDbEntity
  8
0
  6
BYBLOCK
 62
0
100
AcDbBlockEnd
  0
BLOCK
  5
211
100
AcDbEntity
  8
0
100
AcDbBlockBegin
 62
2
  6
CONTINUOUS
  2
*D0
 70
65
 10
0.0
 20
0.0
  3
*D0
  1

  0
MTEXT
  5
212
100
AcDbEntity
  8
0
100
AcDbMText
 62
2
  6
CONTINUOUS
  7
STANDARD
 71
2
 72
1
 10
59.0892314567
 20
233.4390685124
 30
0.0
 11
1.0
 21
0.0
 31
0.0
 44
0.9
  1
21.8
 40
3.5
 41
7.0
  0
LINE
  5
213
100
AcDbEntity
  8
0
100
AcDbLine
 62
2
  6
CONTINUOUS
 10
48.1892314567
 20
220.4070598749
 11
48.1892314567
 21
230.5640685124
  0
LINE
  5
214
100
AcDbEntity
  8
0
100
AcDbLine
 62
2
  6
CONTINUOUS
 10
69.9892314567
 20
186.0070598756
 11
69.9892314567
 21
230.5640685124
  0
LINE
  5
215
100
AcDbEntity
  8
0
100
AcDbLine
 62
2
  6
CONTINUOUS
 10
48.1892314567
 20
229.0640685124
 11
59.0892314567
 21
229.0640685124
  0
LINE
  5
216
100
AcDbEntity
  8
0
100
AcDbLine
 62
2
  6
CONTINUOUS
 10
69.9892314567
 20
229.0640685124
 11
59.0892314567
 21
229.0640685124
  0
INSERT
  5
217
100
AcDbEntity
  8
0
100
AcDbBlockReference
 62
2
  6
CONTINUOUS
  2
_FILLED
 10
48.1892314567
 20
229.0640685124
 41
3.5
 42
3.5
 43
3.5
 50
180.0
  0
INSERT
  5
218
100
AcDbEntity
  8
0
100
AcDbBlockReference
 62
2
  6
CONTINUOUS
  2
_FILLED
 10
69.9892314567
 20
229.0640685124
 41
3.5
 42
3.5
 43
3.5
  0
ENDBLK
  5
219
100
AcDbEntity
  8
0
  6
BYBLOCK
 62
0
100
AcDbBlockEnd
  0
BLOCK
  5
21A
100
AcDbEntity
  8
0
100
AcDbBlockBegin
 62
2
  6
CONTINUOUS
  2
*D1
 70
65
 10
0.0
 20
0.0
  3
*D1
  1

  0
MTEXT
  5
21B
100
AcDbEntity
  8
0
100
AcDbMText
 62
2
  6
CONTINUOUS
  7
STANDARD
 71
2
 72
1
 10
42.0392314567
 20
233.4390685124
 30
0.0
 11
1.0
 21
0.0
 31
0.0
 44
0.9
  1
12.3
 40
3.5
 41
7.0
  0
LINE
  5
21C
100
AcDbEntity
  8
0
100
AcDbLine
 62
2
  6
CONTINUOUS
 10
48.1892314567
 20
220.4070598749
 11
48.1892314567
 21
230.5640685124
  0
LINE
  5
21D
100
AcDbEntity
  8
0
100
AcDbLine
 62
2
  6
CONTINUOUS
 10
35.8892314567
 20
186.0070598756
 11
35.8892314567
 21
230.5640685124
  0
LINE
  5
21E
100
AcDbEntity
  8
0
100
AcDbLine
 62
2
  6
CONTINUOUS
 10
48.1892314567
 20
229.0640685124
 11
42.0392314567
 21
229.0640685124
  0
LINE
  5
21F
100
AcDbEntity
  8
0
100
AcDbLine
 62
2
  6
CONTINUOUS
 10
35.8892314567
 20
229.0640685124
 11
42.0392314567
 21
229.0640685124
  0
INSERT
  5
220
100
AcDbEntity
  8
0
100
AcDbBlockReference
 62
2
  6
CONTINUOUS
  2
_FILLED
 10
48.1892314567
 20
229.0640685124
 41
3.5
 42
3.5
 43
3.5
  0
INSERT
  5
221
100
AcDbEntity
  8
0
100
AcDbBlockReference
 62
2
  6
CONTINUOUS
  2
_FILLED
 10
35.8892314567
 20
229.0640685124
 41
3.5
 42
3.5
 43
3.5
 50
180.0
  0
ENDBLK
  5
222
100
AcDbEntity
  8
0
  6
BYBLOCK
 62
0
100
AcDbBlockEnd
  0
BLOCK
  5
223
100
AcDbEntity
  8
0
100
AcDbBlockBegin
 62
2
  6
CONTINUOUS
  2
*D2
 70
65
 10
0.0
 20
0.0
  3
*D2
  1

  0
MTEXT
  5
224
100
AcDbEntity
  8
0
100
AcDbMText
 62
2
  6
CONTINUOUS
  7
TEXTSTYLE_2
 71
2
 72
1
 10
12.4558084095
 20
172.4070598749
 30
0.0
 11
0.0
 21
1.0
 31
0.0
 44
0.9
  1
{\Fgdt;n}\Ftxt;25
 40
3.5
 41
8.1666666667
  0
LINE
  5
225
100
AcDbEntity
  8
0
100
AcDbLine
 62
2
  6
CONTINUOUS
 10
35.9892314567
 20
184.9070598756
 11
15.3308084095
 21
184.9070598756
  0
LINE
  5
226
100
AcDbEntity
  8
0
100
AcDbLine
 62
2
  6
CONTINUOUS
 10
35.9892314567
 20
159.9070598742
 11
15.3308084095
 21
159.9070598742
  0
LINE
  5
227
100
AcDbEntity
  8
0
100
AcDbLine
 62
2
  6
CONTINUOUS
 10
16.8308084095
 20
184.9070598756
 11
16.8308084095
 21
172.4070598749
  0
LINE
  5
228
100
AcDbEntity
  8
0
100
AcDbLine
 62
2
  6
CONTINUOUS
 10
16.8308084095
 20
159.9070598742
 11
16.8308084095
 21
172.4070598749
  0
INSERT
  5
229
100
AcDbEntity
  8
0
100
AcDbBlockReference
 62
2
  6
CONTINUOUS
  2
_FILLED
 10
16.8308084095
 20
184.9070598756
 41
3.5
 42
3.5
 43
3.5
 50
90.0
  0
INSERT
  5
22A
100
AcDbEntity
  8
0
100
AcDbBlockReference
 62
2
  6
CONTINUOUS
  2
_FILLED
 10
16.8308084095
 20
159.9070598742
 41
3.5
 42
3.5
 43
3.5
 50
270.0
  0
ENDBLK
  5
22B
100
AcDbEntity
  8
0
  6
BYBLOCK
 62
0
100
AcDbBlockEnd
  0
BLOCK
  5
22C
100
AcDbEntity
  8
0
100
AcDbBlockBegin
 62
2
  6
CONTINUOUS
  2
*D3
 70
65
 10
0.0
 20
0.0
  3
*D3
  1

  0
MTEXT
  5
22D
100
AcDbEntity
  8
0
100
AcDbMText
 62
2
  6
CONTINUOUS
  7
TEXTSTYLE_2
 71
1
 72
1
 10
170.3362650741
 20
209.6661635313
 30
0.0
 11
0.3915612392
 21
0.9201520505
 31
0.0
 44
0.9
  1
{\Fgdt;n}\Ftxt;8.7
 40
3.5
 41
9.9166666667
  0
LINE
  5
22E
100
AcDbEntity
  8
0
100
AcDbLine
 62
2
  6
CONTINUOUS
 10
169.0242317122
 20
195.4097212951
 11
167.3209403215
 21
191.4070598749
  0
LINE
  5
22F
100
AcDbEntity
  8
0
100
AcDbLine
 62
2
  6
CONTINUOUS
 10
167.3209403215
 20
191.4070598749
 11
178.2449125834
 21
217.077924277
  0
LINE
  5
230
100
AcDbEntity
  8
0
100
AcDbLine
 62
2
  6
CONTINUOUS
 10
165.6176489308
 20
187.4043984547
 11
167.3209403215
 21
191.4070598749
  0
LINE
  5
231
100
AcDbEntity
  8
0
100
AcDbLine
 62
2
  6
CONTINUOUS
 10
167.3209403215
 20
191.4070598749
 11
162.4851590176
 21
180.0431820517
  0
INSERT
  5
232
100
AcDbEntity
  8
0
100
AcDbBlockReference
 62
2
  6
CONTINUOUS
  2
_FILLED
 10
169.0242317119
 20
195.4097212944
 41
3.5
 42
3.5
 43
3.5
 50
246.9493331183
  0
INSERT
  5
233
100
AcDbEntity
  8
0
100
AcDbBlockReference
 62
2
  6
CONTINUOUS
  2
_FILLED
 10
165.617648931
 20
187.4043984554
 41
3.5
 42
3.5
 43
3.5
 50
66.9493331183
  0
ENDBLK
  5
234
100
AcDbEntity
  8
0
  6
BYBLOCK
 62
0
100
AcDbBlockEnd
  0
BLOCK
  5
235
100
AcDbEntity
  8
0
100
AcDbBlockBegin
 62
2
  6
CONTINUOUS
  2
*D4
 70
65
 10
0.0
 20
0.0
  3
*D4
  1

  0
MTEXT
  5
236
100
AcDbEntity
  8
0
100
AcDbMText
 62
2
  6
CONTINUOUS
  7
TEXTSTYLE_2
 71
3
 72
1
 10
112.4193245387
 20
219.8695659631
 30
0.0
 11
0.4948386187
 21
-0.8689848914
 31
0.0
 44
0.9
  1
{\Fgdt;n}\Ftxt;95
 40
3.5
 41
8.1666666667
  0
LINE
  5
237
100
AcDbEntity
  8
0
100
AcDbLine
 62
2
  6
CONTINUOUS
 10
110.9071405894
 20
213.6838422153
 11
134.4119749777
 21
172.4070598749
  0
LINE
  5
238
100
AcDbEntity
  8
0
100
AcDbLine
 62
2
  6
CONTINUOUS
 10
134.4119749777
 20
172.4070598749
 11
104.5763335862
 21
224.8013569525
  0
LINE
  5
239
100
AcDbEntity
  8
0
100
AcDbLine
 62
2
  6
CONTINUOUS
 10
157.916809366
 20
131.1302775345
 11
134.4119749777
 21
172.4070598749
  0
INSERT
  5
23A
100
AcDbEntity
  8
0
100
AcDbBlockReference
 62
2
  6
CONTINUOUS
  2
_FILLED
 10
110.9071405894
 20
213.6838422153
 41
3.5
 42
3.5
 43
3.5
 50
119.659109236
  0
INSERT
  5
23B
100
AcDbEntity
  8
0
100
AcDbBlockReference
 62
2
  6
CONTINUOUS
  2
_FILLED
 10
157.916809366
 20
131.1302775345
 41
3.5
 42
3.5
 43
3.5
 50
299.659109236
  0
ENDBLK
  5
23C
100
AcDbEntity
  8
0
  6
BYBLOCK
 62
0
100
AcDbBlockEnd
  0
ENDSEC
  0
SECTION
  2
ENTITIES
  0
LINE
  5
23D
100
AcDbEntity
  8
0
100
AcDbLine
 62
7
  6
CONTINUOUS
 10
61.9892314567
 20
189.6920598749
 11
63.4892314567
 21
189.6920598749
  0
LINE
  5
23E
100
AcDbEntity
  8
0
100
AcDbLine
 62
7
  6
CONTINUOUS
 10
63.4892314567
 20
189.2570598749
 11
63.4892314567
 21
189.6920598749
  0
LINE
  5
23F
100
AcDbEntity
  8
0
100
AcDbLine
 62
7
  6
CONTINUOUS
 10
66.4892314567
 20
189.2570598749
 11
63.4892314567
 21
189.2570598749
  0
LINE
  5
240
100
AcDbEntity
  8
0
100
AcDbLine
 62
7
  6
CONTINUOUS
 10
66.4892314567
 20
189.2570598749
 11
66.4892314567
 21
189.6920598749
  0
LINE
  5
241
100
AcDbEntity
  8
0
100
AcDbLine
 62
7
  6
CONTINUOUS
 10
66.4892314567
 20
189.6920598749
 11
67.9892314567
 21
189.6920598749
  0
LINE
  5
242
100
AcDbEntity
  8
0
100
AcDbLine
 62
7
  6
CONTINUOUS
 10
67.9892314567
 20
189.2570598749
 11
67.9892314567
 21
189.6920598749
  0
LINE
  5
243
100
AcDbEntity
  8
0
100
AcDbLine
 62
7
  6
CONTINUOUS
 10
69.6892314567
 20
189.2570598749
 11
67.9892314567
 21
189.2570598749
  0
SPLINE
  5
244
100
AcDbEntity
  8
0
100
AcDbSpline
 62
7
  6
CONTINUOUS
 70
4
 71
3
 72
8
 73
4
 74
127
 42
0.0000001
 43
0.0000001
 44
0.0000000001
 12
-0.0
 22
0.4242640687
 32
0.0
 13
-0.4242640687
 23
-0.0
 33
0.0
 40
0.0
 40
0.0
 40
0.0
 40
0.0
 40
1.0
 40
1.0
 40
1.0
 40
1.0
 10
69.9892314567
 20
188.9570598749
 30
0.0
 41
1.0
 10
69.9892314567
 20
189.1327958062
 30
0.0
 41
0.8047378541
 10
69.8649673879
 20
189.2570598749
 30
0.0
 41
0.8047378541
 10
69.6892314567
 20
189.2570598749
 30
0.0
 41
1.0
 11
69.9892314567
 21
188.9570598749
 31
0.0
 11
69.9891575486
 21
188.963718658
 31
0.0
 11
69.9890644222
 21
188.9670695087
 31
0.0
 11
69.9889331987
 21
188.9704339481
 31
0.0
 11
69.9887634012
 21
188.9738114185
 31
0.0
 11
69.9885545615
 21
188.9772013467
 31
0.0
 11
69.9883062207
 21
188.980603144
 31
0.0
 11
69.9880179292
 21
188.9840162063
 31
0.0
 11
69.987689248
 21
188.9874399142
 31
0.0
 11
69.9873197485
 21
188.9908736333
 31
0.0
 11
69.9869090136
 21
188.9943167141
 31
0.0
 11
69.9864566381
 21
188.9977684924
 31
0.0
 11
69.9859622288
 21
189.0012282894
 31
0.0
 11
69.985425406
 21
189.0046954119
 31
0.0
 11
69.9848458029
 21
189.0081691527
 31
0.0
 11
69.9842230672
 21
189.0116487906
 31
0.0
 11
69.9835568608
 21
189.015133591
 31
0.0
 11
69.9828468608
 21
189.0186228059
 31
0.0
 11
69.9820927599
 21
189.0221156746
 31
0.0
 11
69.981294267
 21
189.0256114236
 31
0.0
 11
69.9804511075
 21
189.0291092675
 31
0.0
 11
69.979563024
 21
189.032608409
 31
0.0
 11
69.9786297768
 21
189.0361080395
 31
0.0
 11
69.9776511441
 21
189.0396073393
 31
0.0
 11
69.976626923
 21
189.0431054787
 31
0.0
 11
69.9755569294
 21
189.0466016176
 31
0.0
 11
69.9744409987
 21
189.0500949067
 31
0.0
 11
69.9732789863
 21
189.0535844878
 31
0.0
 11
69.972070768
 21
189.0570694944
 31
0.0
 11
69.97081624
 21
189.060549052
 31
0.0
 11
69.96951532
 21
189.0640222792
 31
0.0
 11
69.968167947
 21
189.0674882878
 31
0.0
 11
69.9667740816
 21
189.0709461837
 31
0.0
 11
69.9653337069
 21
189.0743950676
 31
0.0
 11
69.963846828
 21
189.0778340353
 31
0.0
 11
69.962313473
 21
189.081262179
 31
0.0
 11
69.9607336928
 21
189.0846785874
 31
0.0
 11
69.9591075615
 21
189.0880823465
 31
0.0
 11
69.9574351764
 21
189.0914725405
 31
0.0
 11
69.9557166587
 21
189.0948482528
 31
0.0
 11
69.9539521529
 21
189.098208566
 31
0.0
 11
69.9521418274
 21
189.1015525631
 31
0.0
 11
69.9502858746
 21
189.1048793285
 31
0.0
 11
69.9483845108
 21
189.1081879482
 31
0.0
 11
69.9464379762
 21
189.1114775109
 31
0.0
 11
69.944446535
 21
189.1147471089
 31
0.0
 11
69.9424104756
 21
189.1179958384
 31
0.0
 11
69.94033011
 21
189.1212228009
 31
0.0
 11
69.9382057742
 21
189.1244271035
 31
0.0
 11
69.9360378278
 21
189.1276078598
 31
0.0
 11
69.9338266541
 21
189.1307641908
 31
0.0
 11
69.9315726597
 21
189.1338952257
 31
0.0
 11
69.9292762743
 21
189.1370001025
 31
0.0
 11
69.9269379507
 21
189.1400779687
 31
0.0
 11
69.9245581644
 21
189.1431279824
 31
0.0
 11
69.9221374129
 21
189.1461493128
 31
0.0
 11
69.9196762163
 21
189.1491411409
 31
0.0
 11
69.917175116
 21
189.1521026604
 31
0.0
 11
69.9146346747
 21
189.1550330783
 31
0.0
 11
69.9120554763
 21
189.1579316157
 31
0.0
 11
69.9094381249
 21
189.1607975083
 31
0.0
 11
69.9067832446
 21
189.1636300072
 31
0.0
 11
69.9040914791
 21
189.1664283795
 31
0.0
 11
69.901363491
 21
189.1691919092
 31
0.0
 11
69.8985999613
 21
189.1719198974
 31
0.0
 11
69.8958015889
 21
189.1746116629
 31
0.0
 11
69.89296909
 21
189.1772665431
 31
0.0
 11
69.8901031975
 21
189.1798838946
 31
0.0
 11
69.8872046601
 21
189.182463093
 31
0.0
 11
69.8842742422
 21
189.1850035342
 31
0.0
 11
69.8813127227
 21
189.1875046345
 31
0.0
 11
69.8783208946
 21
189.1899658312
 31
0.0
 11
69.8752995642
 21
189.1923865826
 31
0.0
 11
69.8722495505
 21
189.194766369
 31
0.0
 11
69.8691716843
 21
189.1971046926
 31
0.0
 11
69.8660668075
 21
189.1994010779
 31
0.0
 11
69.8629357726
 21
189.2016550724
 31
0.0
 11
69.8597794415
 21
189.2038662461
 31
0.0
 11
69.8565986852
 21
189.2060341924
 31
0.0
 11
69.8533943827
 21
189.2081585283
 31
0.0
 11
69.8501674202
 21
189.2102388939
 31
0.0
 11
69.8469186906
 21
189.2122749533
 31
0.0
 11
69.8436490927
 21
189.2142663944
 31
0.0
 11
69.84035953
 21
189.216212929
 31
0.0
 11
69.8370509103
 21
189.2181142928
 31
0.0
 11
69.8337241449
 21
189.2199702456
 31
0.0
 11
69.8303801477
 21
189.2217805711
 31
0.0
 11
69.8270198346
 21
189.2235450769
 31
0.0
 11
69.8236441223
 21
189.2252635947
 31
0.0
 11
69.8202539282
 21
189.2269359797
 31
0.0
 11
69.8168501691
 21
189.228562111
 31
0.0
 11
69.8134337608
 21
189.2301418912
 31
0.0
 11
69.8100056171
 21
189.2316752462
 31
0.0
 11
69.8065666493
 21
189.2331621251
 31
0.0
 11
69.8031177654
 21
189.2346024998
 31
0.0
 11
69.7996598695
 21
189.2359963652
 31
0.0
 11
69.7961938609
 21
189.2373437383
 31
0.0
 11
69.7927206338
 21
189.2386446582
 31
0.0
 11
69.7892410761
 21
189.2398991862
 31
0.0
 11
69.7857560696
 21
189.2411074045
 31
0.0
 11
69.7822664884
 21
189.2422694169
 31
0.0
 11
69.7787731993
 21
189.2433853476
 31
0.0
 11
69.7752770604
 21
189.2444553412
 31
0.0
 11
69.7717789211
 21
189.2454795623
 31
0.0
 11
69.7682796212
 21
189.246458195
 31
0.0
 11
69.7647799908
 21
189.2473914422
 31
0.0
 11
69.7612808493
 21
189.2482795257
 31
0.0
 11
69.7577830054
 21
189.2491226852
 31
0.0
 11
69.7542872563
 21
189.2499211781
 31
0.0
 11
69.7507943877
 21
189.250675279
 31
0.0
 11
69.7473051727
 21
189.251385279
 31
0.0
 11
69.7438203724
 21
189.2520514854
 31
0.0
 11
69.7403407345
 21
189.2526742212
 31
0.0
 11
69.7368669937
 21
189.2532538242
 31
0.0
 11
69.7333998712
 21
189.2537906471
 31
0.0
 11
69.7299400742
 21
189.2542850563
 31
0.0
 11
69.7264882959
 21
189.2547374319
 31
0.0
 11
69.7230452151
 21
189.2551481667
 31
0.0
 11
69.719611496
 21
189.2555176662
 31
0.0
 11
69.716187788
 21
189.2558463475
 31
0.0
 11
69.7127747257
 21
189.2561346389
 31
0.0
 11
69.7093729285
 21
189.2563829798
 31
0.0
 11
69.7059830003
 21
189.2565918194
 31
0.0
 11
69.7026055299
 21
189.2567616169
 31
0.0
 11
69.6992410905
 21
189.2568928404
 31
0.0
 11
69.6958902398
 21
189.2569859668
 31
0.0
 11
69.6892314567
 21
189.2570598749
 31
0.0
  0
LINE
  5
245
100
AcDbEntity
  8
0
100
AcDbLine
 62
7
  6
CONTINUOUS
 10
69.9892314567
 20
185.5070598756
 11
69.9892314567
 21
188.9570598749
  0
SPLINE
  5
246
100
AcDbEntity
  8
0
100
AcDbSpline
 62
7
  6
CONTINUOUS
 70
4
 71
3
 72
8
 73
4
 74
129
 42
0.0000001
 43
0.0000001
 44
0.0000000001
 12
0.8485281374
 22
0.0
 32
0.0
 13
-0.0
 23
0.8485281374
 33
0.0
 40
0.0
 40
0.0
 40
0.0
 40
0.0
 40
1.0
 40
1.0
 40
1.0
 40
1.0
 10
69.3892314567
 20
184.9070598756
 30
0.0
 41
1.0
 10
69.7407033192
 20
184.9070598756
 30
0.0
 41
0.8047378541
 10
69.9892314567
 20
185.155588013
 30
0.0
 41
0.8047378541
 10
69.9892314567
 20
185.5070598756
 30
0.0
 41
1.0
 11
69.3892314567
 21
184.9070598756
 31
0.0
 11
69.3958755828
 21
184.9070966637
 31
0.0
 11
69.4025490229
 21
184.9072076918
 31
0.0
 11
69.4092507244
 21
184.9073939445
 31
0.0
 11
69.4159796031
 21
184.9076563915
 31
0.0
 11
69.4227345439
 21
184.9079959865
 31
0.0
 11
69.4295144003
 21
184.9084136658
 31
0.0
 11
69.4363179948
 21
184.9089103475
 31
0.0
 11
69.4431441194
 21
184.9094869304
 31
0.0
 11
69.4499915353
 21
184.9101442929
 31
0.0
 11
69.4568589734
 21
184.9108832919
 31
0.0
 11
69.4637451351
 21
184.9117047616
 31
0.0
 11
69.4706486917
 21
184.9126095128
 31
0.0
 11
69.4775682857
 21
184.9135983312
 31
0.0
 11
69.4845025308
 21
184.9146719769
 31
0.0
 11
69.4914500123
 21
184.915831183
 31
0.0
 11
69.4984092881
 21
184.9170766545
 31
0.0
 11
69.5053788888
 21
184.9184090674
 31
0.0
 11
69.5123573187
 21
184.9198290674
 31
0.0
 11
69.519343056
 21
184.9213372691
 31
0.0
 11
69.5263345541
 21
184.9229342549
 31
0.0
 11
69.5333302419
 21
184.9246205739
 31
0.0
 11
69.5403285249
 21
184.9263967409
 31
0.0
 11
69.5473277858
 21
184.9282632354
 31
0.0
 11
69.5543263856
 21
184.9302205007
 31
0.0
 11
69.5613226642
 21
184.9322689429
 31
0.0
 11
69.568314942
 21
184.9344089302
 31
0.0
 11
69.5753015202
 21
184.9366407915
 31
0.0
 11
69.5822806825
 21
184.9389648163
 31
0.0
 11
69.5892506956
 21
184.941381253
 31
0.0
 11
69.5962098109
 21
184.9438903088
 31
0.0
 11
69.6031562652
 21
184.9464921488
 31
0.0
 11
69.6100882824
 21
184.9491868949
 31
0.0
 11
69.6170040742
 21
184.9519746256
 31
0.0
 11
69.623901842
 21
184.9548553752
 31
0.0
 11
69.6307797776
 21
184.9578291329
 31
0.0
 11
69.637636065
 21
184.9608958429
 31
0.0
 11
69.6444688816
 21
184.9640554033
 31
0.0
 11
69.6512763998
 21
184.967307666
 31
0.0
 11
69.658056788
 21
184.970652436
 31
0.0
 11
69.6648082125
 21
184.9740894715
 31
0.0
 11
69.6715288388
 21
184.9776184831
 31
0.0
 11
69.6782168331
 21
184.9812391341
 31
0.0
 11
69.6848703639
 21
184.9849510397
 31
0.0
 11
69.6914876032
 21
184.9887537673
 31
0.0
 11
69.6980667287
 21
184.9926468365
 31
0.0
 11
69.7046059246
 21
184.9966297188
 31
0.0
 11
69.7111033837
 21
185.0007018376
 31
0.0
 11
69.7175573087
 21
185.0048625688
 31
0.0
 11
69.7239659138
 21
185.0091112405
 31
0.0
 11
69.7303274264
 21
185.0134471332
 31
0.0
 11
69.7366400885
 21
185.0178694806
 31
0.0
 11
69.7429021584
 21
185.0223774695
 31
0.0
 11
69.7491119119
 21
185.0269702402
 31
0.0
 11
69.7552676443
 21
185.0316468874
 31
0.0
 11
69.7613676717
 21
185.0364064602
 31
0.0
 11
69.7674103325
 21
185.041247963
 31
0.0
 11
69.7733939887
 21
185.0461703563
 31
0.0
 11
69.7793170277
 21
185.051172557
 31
0.0
 11
69.7851778636
 21
185.0562534394
 31
0.0
 11
69.7909749383
 21
185.0614118362
 31
0.0
 11
69.7967067234
 21
185.0666465391
 31
0.0
 11
69.8023717212
 21
185.0719562996
 31
0.0
 11
69.807968466
 21
185.0773398306
 31
0.0
 11
69.8134955254
 21
185.0827958069
 31
0.0
 11
69.8189515016
 21
185.0883228663
 31
0.0
 11
69.8243350326
 21
185.093919611
 31
0.0
 11
69.8296447932
 21
185.0995846088
 31
0.0
 11
69.834879496
 21
185.1053163939
 31
0.0
 11
69.8400378928
 21
185.1111134687
 31
0.0
 11
69.8451187752
 21
185.1169743045
 31
0.0
 11
69.8501209759
 21
185.1228973435
 31
0.0
 11
69.8550433692
 21
185.1288809997
 31
0.0
 11
69.8598848721
 21
185.1349236605
 31
0.0
 11
69.8646444448
 21
185.1410236879
 31
0.0
 11
69.869321092
 21
185.1471794203
 31
0.0
 11
69.8739138627
 21
185.1533891739
 31
0.0
 11
69.8784218516
 21
185.1596512437
 31
0.0
 11
69.882844199
 21
185.1659639058
 31
0.0
 11
69.8871800918
 21
185.1723254184
 31
0.0
 11
69.8914287634
 21
185.1787340235
 31
0.0
 11
69.8955894946
 21
185.1851879485
 31
0.0
 11
69.8996616134
 21
185.1916854076
 31
0.0
 11
69.9036444957
 21
185.1982246035
 31
0.0
 11
69.9075375649
 21
185.204803729
 31
0.0
 11
69.9113402926
 21
185.2114209683
 31
0.0
 11
69.9150521982
 21
185.2180744991
 31
0.0
 11
69.9186728491
 21
185.2247624934
 31
0.0
 11
69.9222018608
 21
185.2314831197
 31
0.0
 11
69.9256388962
 21
185.2382345442
 31
0.0
 11
69.9289836663
 21
185.2450149324
 31
0.0
 11
69.9322359289
 21
185.2518224506
 31
0.0
 11
69.9353954893
 21
185.2586552672
 31
0.0
 11
69.9384621993
 21
185.2655115547
 31
0.0
 11
69.941435957
 21
185.2723894902
 31
0.0
 11
69.9443167066
 21
185.279287258
 31
0.0
 11
69.9471044373
 21
185.2862030498
 31
0.0
 11
69.9497991834
 21
185.293135067
 31
0.0
 11
69.9524010234
 21
185.3000815213
 31
0.0
 11
69.9549100792
 21
185.3070406366
 31
0.0
 11
69.957326516
 21
185.3140106497
 31
0.0
 11
69.9596505407
 21
185.320989812
 31
0.0
 11
69.9618824021
 21
185.3279763902
 31
0.0
 11
69.9640223893
 21
185.334968668
 31
0.0
 11
69.9660708316
 21
185.3419649467
 31
0.0
 11
69.9680280969
 21
185.3489635464
 31
0.0
 11
69.9698945913
 21
185.3559628073
 31
0.0
 11
69.9716707583
 21
185.3629610903
 31
0.0
 11
69.9733570773
 21
185.3699567781
 31
0.0
 11
69.9749540631
 21
185.3769482762
 31
0.0
 11
69.9764622649
 21
185.3839340136
 31
0.0
 11
69.9778822649
 21
185.3909124434
 31
0.0
 11
69.9792146777
 21
185.3978820441
 31
0.0
 11
69.9804601492
 21
185.4048413199
 31
0.0
 11
69.9816193553
 21
185.4117888015
 31
0.0
 11
69.982693001
 21
185.4187230465
 31
0.0
 11
69.9836818195
 21
185.4256426405
 31
0.0
 11
69.9845865706
 21
185.4325461971
 31
0.0
 11
69.9854080404
 21
185.4394323588
 31
0.0
 11
69.9861470393
 21
185.446299797
 31
0.0
 11
69.9868044018
 21
185.4531472128
 31
0.0
 11
69.9873809847
 21
185.4599733374
 31
0.0
 11
69.9878776664
 21
185.4667769319
 31
0.0
 11
69.9882953457
 21
185.4735567883
 31
0.0
 11
69.9886349407
 21
185.4803117291
 31
0.0
 11
69.9888973878
 21
185.4870406078
 31
0.0
 11
69.9890836405
 21
185.4937423093
 31
0.0
 11
69.9891946685
 21
185.5004157494
 31
0.0
 11
69.9892314567
 21
185.5070598756
 31
0.0
  0
LINE
  5
247
100
AcDbEntity
  8
0
100
AcDbLine
 62
7
  6
CONTINUOUS
 10
69.3892314567
 20
184.9070598756
 11
36.4892314567
 21
184.9070598756
  0
SPLINE
  5
248
100
AcDbEntity
  8
0
100
AcDbSpline
 62
7
  6
CONTINUOUS
 70
4
 71
3
 72
8
 73
4
 74
129
 42
0.0000001
 43
0.0000001
 44
0.0000000001
 12
-0.0
 22
-0.8485281374
 32
0.0
 13
0.8485281374
 23
0.0
 33
0.0
 40
0.0
 40
0.0
 40
0.0
 40
0.0
 40
1.0
 40
1.0
 40
1.0
 40
1.0
 10
35.8892314567
 20
185.5070598756
 30
0.0
 41
1.0
 10
35.8892314567
 20
185.155588013
 30
0.0
 41
0.8047378541
 10
36.1377595941
 20
184.9070598756
 30
0.0
 41
0.8047378541
 10
36.4892314567
 20
184.9070598756
 30
0.0
 41
1.0
 11
35.8892314567
 21
185.5070598756
 31
0.0
 11
35.8892682448
 21
185.5004157494
 31
0.0
 11
35.8893792728
 21
185.4937423093
 31
0.0
 11
35.8895655256
 21
185.4870406078
 31
0.0
 11
35.8898279726
 21
185.4803117291
 31
0.0
 11
35.8901675676
 21
185.4735567883
 31
0.0
 11
35.8905852469
 21
185.4667769319
 31
0.0
 11
35.8910819286
 21
185.4599733374
 31
0.0
 11
35.8916585115
 21
185.4531472128
 31
0.0
 11
35.892315874
 21
185.446299797
 31
0.0
 11
35.8930548729
 21
185.4394323588
 31
0.0
 11
35.8938763427
 21
185.4325461971
 31
0.0
 11
35.8947810939
 21
185.4256426405
 31
0.0
 11
35.8957699123
 21
185.4187230465
 31
0.0
 11
35.896843558
 21
185.4117888015
 31
0.0
 11
35.8980027641
 21
185.4048413199
 31
0.0
 11
35.8992482356
 21
185.3978820441
 31
0.0
 11
35.9005806485
 21
185.3909124434
 31
0.0
 11
35.9020006485
 21
185.3839340136
 31
0.0
 11
35.9035088502
 21
185.3769482762
 31
0.0
 11
35.905105836
 21
185.3699567781
 31
0.0
 11
35.906792155
 21
185.3629610903
 31
0.0
 11
35.908568322
 21
185.3559628073
 31
0.0
 11
35.9104348165
 21
185.3489635464
 31
0.0
 11
35.9123920817
 21
185.3419649467
 31
0.0
 11
35.914440524
 21
185.334968668
 31
0.0
 11
35.9165805112
 21
185.3279763902
 31
0.0
 11
35.9188123726
 21
185.320989812
 31
0.0
 11
35.9211363974
 21
185.3140106497
 31
0.0
 11
35.9235528341
 21
185.3070406366
 31
0.0
 11
35.9260618899
 21
185.3000815213
 31
0.0
 11
35.9286637299
 21
185.293135067
 31
0.0
 11
35.931358476
 21
185.2862030498
 31
0.0
 11
35.9341462067
 21
185.279287258
 31
0.0
 11
35.9370269563
 21
185.2723894902
 31
0.0
 11
35.940000714
 21
185.2655115547
 31
0.0
 11
35.943067424
 21
185.2586552672
 31
0.0
 11
35.9462269844
 21
185.2518224506
 31
0.0
 11
35.949479247
 21
185.2450149324
 31
0.0
 11
35.9528240171
 21
185.2382345442
 31
0.0
 11
35.9562610526
 21
185.2314831197
 31
0.0
 11
35.9597900642
 21
185.2247624934
 31
0.0
 11
35.9634107152
 21
185.2180744991
 31
0.0
 11
35.9671226207
 21
185.2114209683
 31
0.0
 11
35.9709253484
 21
185.204803729
 31
0.0
 11
35.9748184176
 21
185.1982246035
 31
0.0
 11
35.9788012999
 21
185.1916854076
 31
0.0
 11
35.9828734187
 21
185.1851879485
 31
0.0
 11
35.9870341499
 21
185.1787340235
 31
0.0
 11
35.9912828216
 21
185.1723254184
 31
0.0
 11
35.9956187143
 21
185.1659639058
 31
0.0
 11
36.0000410617
 21
185.1596512437
 31
0.0
 11
36.0045490506
 21
185.1533891739
 31
0.0
 11
36.0091418213
 21
185.1471794203
 31
0.0
 11
36.0138184685
 21
185.1410236879
 31
0.0
 11
36.0185780413
 21
185.1349236605
 31
0.0
 11
36.0234195441
 21
185.1288809997
 31
0.0
 11
36.0283419374
 21
185.1228973435
 31
0.0
 11
36.0333441381
 21
185.1169743045
 31
0.0
 11
36.0384250205
 21
185.1111134687
 31
0.0
 11
36.0435834173
 21
185.1053163939
 31
0.0
 11
36.0488181201
 21
185.0995846088
 31
0.0
 11
36.0541278807
 21
185.093919611
 31
0.0
 11
36.0595114117
 21
185.0883228663
 31
0.0
 11
36.0649673879
 21
185.0827958069
 31
0.0
 11
36.0704944474
 21
185.0773398306
 31
0.0
 11
36.0760911921
 21
185.0719562996
 31
0.0
 11
36.0817561899
 21
185.0666465391
 31
0.0
 11
36.087487975
 21
185.0614118362
 31
0.0
 11
36.0932850498
 21
185.0562534394
 31
0.0
 11
36.0991458856
 21
185.051172557
 31
0.0
 11
36.1050689246
 21
185.0461703563
 31
0.0
 11
36.1110525808
 21
185.041247963
 31
0.0
 11
36.1170952416
 21
185.0364064602
 31
0.0
 11
36.123195269
 21
185.0316468874
 31
0.0
 11
36.1293510014
 21
185.0269702402
 31
0.0
 11
36.1355607549
 21
185.0223774695
 31
0.0
 11
36.1418228248
 21
185.0178694806
 31
0.0
 11
36.1481354869
 21
185.0134471332
 31
0.0
 11
36.1544969995
 21
185.0091112405
 31
0.0
 11
36.1609056046
 21
185.0048625688
 31
0.0
 11
36.1673595296
 21
185.0007018376
 31
0.0
 11
36.1738569887
 21
184.9966297188
 31
0.0
 11
36.1803961846
 21
184.9926468365
 31
0.0
 11
36.1869753101
 21
184.9887537673
 31
0.0
 11
36.1935925494
 21
184.9849510397
 31
0.0
 11
36.2002460802
 21
184.9812391341
 31
0.0
 11
36.2069340745
 21
184.9776184831
 31
0.0
 11
36.2136547008
 21
184.9740894715
 31
0.0
 11
36.2204061253
 21
184.970652436
 31
0.0
 11
36.2271865135
 21
184.967307666
 31
0.0
 11
36.2339940317
 21
184.9640554033
 31
0.0
 11
36.2408268483
 21
184.9608958429
 31
0.0
 11
36.2476831357
 21
184.9578291329
 31
0.0
 11
36.2545610713
 21
184.9548553752
 31
0.0
 11
36.2614588391
 21
184.9519746256
 31
0.0
 11
36.2683746309
 21
184.9491868949
 31
0.0
 11
36.2753066481
 21
184.9464921488
 31
0.0
 11
36.2822531024
 21
184.9438903088
 31
0.0
 11
36.2892122177
 21
184.941381253
 31
0.0
 11
36.2961822308
 21
184.9389648163
 31
0.0
 11
36.3031613931
 21
184.9366407915
 31
0.0
 11
36.3101479713
 21
184.9344089302
 31
0.0
 11
36.3171402491
 21
184.9322689429
 31
0.0
 11
36.3241365278
 21
184.9302205007
 31
0.0
 11
36.3311351275
 21
184.9282632354
 31
0.0
 11
36.3381343884
 21
184.9263967409
 31
0.0
 11
36.3451326714
 21
184.9246205739
 31
0.0
 11
36.3521283592
 21
184.9229342549
 31
0.0
 11
36.3591198573
 21
184.9213372691
 31
0.0
 11
36.3661055947
 21
184.9198290674
 31
0.0
 11
36.3730840245
 21
184.9184090674
 31
0.0
 11
36.3800536252
 21
184.9170766545
 31
0.0
 11
36.387012901
 21
184.915831183
 31
0.0
 11
36.3939603825
 21
184.9146719769
 31
0.0
 11
36.4008946276
 21
184.9135983312
 31
0.0
 11
36.4078142216
 21
184.9126095128
 31
0.0
 11
36.4147177782
 21
184.9117047616
 31
0.0
 11
36.4216039399
 21
184.9108832919
 31
0.0
 11
36.4284713781
 21
184.9101442929
 31
0.0
 11
36.4353187939
 21
184.9094869304
 31
0.0
 11
36.4421449185
 21
184.9089103475
 31
0.0
 11
36.448948513
 21
184.9084136658
 31
0.0
 11
36.4557283694
 21
184.9079959865
 31
0.0
 11
36.4624833102
 21
184.9076563915
 31
0.0
 11
36.4692121889
 21
184.9073939445
 31
0.0
 11
36.4759138904
 21
184.9072076918
 31
0.0
 11
36.4825873305
 21
184.9070966637
 31
0.0
 11
36.4892314567
 21
184.9070598756
 31
0.0
  0
LINE
  5
249
100
AcDbEntity
  8
0
100
AcDbLine
 62
7
  6
CONTINUOUS
 10
35.8892314567
 20
185.5070598756
 11
35.8892314567
 21
188.9570598749
  0
SPLINE
  5
24A
100
AcDbEntity
  8
0
100
AcDbSpline
 62
7
  6
CONTINUOUS
 70
4
 71
3
 72
8
 73
4
 74
127
 42
0.0000001
 43
0.0000001
 44
0.0000000001
 12
-0.4242640687
 22
0.0
 32
0.0
 13
0.0
 23
-0.4242640687
 33
0.0
 40
0.0
 40
0.0
 40
0.0
 40
0.0
 40
1.0
 40
1.0
 40
1.0
 40
1.0
 10
36.1892314567
 20
189.2570598749
 30
0.0
 41
1.0
 10
36.0134955254
 20
189.2570598749
 30
0.0
 41
0.8047378541
 10
35.8892314567
 20
189.1327958062
 30
0.0
 41
0.8047378541
 10
35.8892314567
 20
188.9570598749
 30
0.0
 41
1.0
 11
36.1892314567
 21
189.2570598749
 31
0.0
 11
36.1825726735
 21
189.2569859668
 31
0.0
 11
36.1792218228
 21
189.2568928404
 31
0.0
 11
36.1758573834
 21
189.2567616169
 31
0.0
 11
36.172479913
 21
189.2565918194
 31
0.0
 11
36.1690899848
 21
189.2563829798
 31
0.0
 11
36.1656881876
 21
189.2561346389
 31
0.0
 11
36.1622751253
 21
189.2558463475
 31
0.0
 11
36.1588514174
 21
189.2555176662
 31
0.0
 11
36.1554176983
 21
189.2551481667
 31
0.0
 11
36.1519746174
 21
189.2547374319
 31
0.0
 11
36.1485228391
 21
189.2542850563
 31
0.0
 11
36.1450630421
 21
189.2537906471
 31
0.0
 11
36.1415959196
 21
189.2532538242
 31
0.0
 11
36.1381221788
 21
189.2526742212
 31
0.0
 11
36.1346425409
 21
189.2520514854
 31
0.0
 11
36.1311577406
 21
189.251385279
 31
0.0
 11
36.1276685257
 21
189.250675279
 31
0.0
 11
36.124175657
 21
189.2499211781
 31
0.0
 11
36.1206799079
 21
189.2491226852
 31
0.0
 11
36.117182064
 21
189.2482795257
 31
0.0
 11
36.1136829225
 21
189.2473914422
 31
0.0
 11
36.1101832921
 21
189.246458195
 31
0.0
 11
36.1066839922
 21
189.2454795623
 31
0.0
 11
36.1031858529
 21
189.2444553412
 31
0.0
 11
36.099689714
 21
189.2433853476
 31
0.0
 11
36.0961964249
 21
189.2422694169
 31
0.0
 11
36.0927068437
 21
189.2411074045
 31
0.0
 11
36.0892218372
 21
189.2398991862
 31
0.0
 11
36.0857422795
 21
189.2386446582
 31
0.0
 11
36.0822690524
 21
189.2373437383
 31
0.0
 11
36.0788030438
 21
189.2359963652
 31
0.0
 11
36.0753451479
 21
189.2346024998
 31
0.0
 11
36.071896264
 21
189.2331621251
 31
0.0
 11
36.0684572962
 21
189.2316752462
 31
0.0
 11
36.0650291525
 21
189.2301418912
 31
0.0
 11
36.0616127442
 21
189.228562111
 31
0.0
 11
36.0582089851
 21
189.2269359797
 31
0.0
 11
36.054818791
 21
189.2252635947
 31
0.0
 11
36.0514430787
 21
189.2235450769
 31
0.0
 11
36.0480827656
 21
189.2217805711
 31
0.0
 11
36.0447387684
 21
189.2199702456
 31
0.0
 11
36.041412003
 21
189.2181142928
 31
0.0
 11
36.0381033834
 21
189.216212929
 31
0.0
 11
36.0348138206
 21
189.2142663944
 31
0.0
 11
36.0315442227
 21
189.2122749533
 31
0.0
 11
36.0282954931
 21
189.2102388939
 31
0.0
 11
36.0250685306
 21
189.2081585283
 31
0.0
 11
36.0218642281
 21
189.2060341924
 31
0.0
 11
36.0186834718
 21
189.2038662461
 31
0.0
 11
36.0155271407
 21
189.2016550724
 31
0.0
 11
36.0123961058
 21
189.1994010779
 31
0.0
 11
36.009291229
 21
189.1971046926
 31
0.0
 11
36.0062133628
 21
189.194766369
 31
0.0
 11
36.0031633491
 21
189.1923865826
 31
0.0
 11
36.0001420187
 21
189.1899658312
 31
0.0
 11
35.9971501906
 21
189.1875046345
 31
0.0
 11
35.9941886711
 21
189.1850035342
 31
0.0
 11
35.9912582532
 21
189.182463093
 31
0.0
 11
35.9883597158
 21
189.1798838946
 31
0.0
 11
35.9854938233
 21
189.1772665431
 31
0.0
 11
35.9826613244
 21
189.1746116629
 31
0.0
 11
35.979862952
 21
189.1719198974
 31
0.0
 11
35.9770994223
 21
189.1691919092
 31
0.0
 11
35.9743714342
 21
189.1664283795
 31
0.0
 11
35.9716796687
 21
189.1636300072
 31
0.0
 11
35.9690247884
 21
189.1607975083
 31
0.0
 11
35.966407437
 21
189.1579316157
 31
0.0
 11
35.9638282386
 21
189.1550330783
 31
0.0
 11
35.9612877974
 21
189.1521026604
 31
0.0
 11
35.958786697
 21
189.1491411409
 31
0.0
 11
35.9563255004
 21
189.1461493128
 31
0.0
 11
35.953904749
 21
189.1431279824
 31
0.0
 11
35.9515249626
 21
189.1400779687
 31
0.0
 11
35.949186639
 21
189.1370001025
 31
0.0
 11
35.9468902536
 21
189.1338952257
 31
0.0
 11
35.9446362592
 21
189.1307641908
 31
0.0
 11
35.9424250855
 21
189.1276078598
 31
0.0
 11
35.9402571391
 21
189.1244271035
 31
0.0
 11
35.9381328033
 21
189.1212228009
 31
0.0
 11
35.9360524377
 21
189.1179958384
 31
0.0
 11
35.9340163783
 21
189.1147471089
 31
0.0
 11
35.9320249371
 21
189.1114775109
 31
0.0
 11
35.9300784025
 21
189.1081879482
 31
0.0
 11
35.9281770387
 21
189.1048793285
 31
0.0
 11
35.9263210859
 21
189.1015525631
 31
0.0
 11
35.9245107604
 21
189.098208566
 31
0.0
 11
35.9227462546
 21
189.0948482528
 31
0.0
 11
35.9210277369
 21
189.0914725405
 31
0.0
 11
35.9193553519
 21
189.0880823465
 31
0.0
 11
35.9177292205
 21
189.0846785874
 31
0.0
 11
35.9161494403
 21
189.081262179
 31
0.0
 11
35.9146160853
 21
189.0778340353
 31
0.0
 11
35.9131292065
 21
189.0743950676
 31
0.0
 11
35.9116888317
 21
189.0709461837
 31
0.0
 11
35.9102949663
 21
189.0674882878
 31
0.0
 11
35.9089475933
 21
189.0640222792
 31
0.0
 11
35.9076466733
 21
189.060549052
 31
0.0
 11
35.9063921454
 21
189.0570694944
 31
0.0
 11
35.905183927
 21
189.0535844878
 31
0.0
 11
35.9040219146
 21
189.0500949067
 31
0.0
 11
35.902905984
 21
189.0466016176
 31
0.0
 11
35.9018359903
 21
189.0431054787
 31
0.0
 11
35.9008117692
 21
189.0396073393
 31
0.0
 11
35.8998331366
 21
189.0361080395
 31
0.0
 11
35.8988998893
 21
189.032608409
 31
0.0
 11
35.8980118058
 21
189.0291092675
 31
0.0
 11
35.8971686463
 21
189.0256114236
 31
0.0
 11
35.8963701534
 21
189.0221156746
 31
0.0
 11
35.8956160526
 21
189.0186228059
 31
0.0
 11
35.8949060526
 21
189.015133591
 31
0.0
 11
35.8942398461
 21
189.0116487906
 31
0.0
 11
35.8936171104
 21
189.0081691527
 31
0.0
 11
35.8930375073
 21
189.0046954119
 31
0.0
 11
35.8925006845
 21
189.0012282894
 31
0.0
 11
35.8920062753
 21
188.9977684924
 31
0.0
 11
35.8915538997
 21
188.9943167141
 31
0.0
 11
35.8911431648
 21
188.9908736333
 31
0.0
 11
35.8907736653
 21
188.9874399142
 31
0.0
 11
35.8904449841
 21
188.9840162063
 31
0.0
 11
35.8901566926
 21
188.980603144
 31
0.0
 11
35.8899083518
 21
188.9772013467
 31
0.0
 11
35.8896995121
 21
188.9738114185
 31
0.0
 11
35.8895297146
 21
188.9704339481
 31
0.0
 11
35.8893984911
 21
188.9670695087
 31
0.0
 11
35.8893053647
 21
188.963718658
 31
0.0
 11
35.8892314567
 21
188.9570598749
 31
0.0
  0
LINE
  5
24B
100
AcDbEntity
  8
0
100
AcDbLine
 62
7
  6
CONTINUOUS
 10
41.6892314567
 20
189.2570598749
 11
36.1892314567
 21
189.2570598749
  0
LINE
  5
24C
100
AcDbEntity
  8
0
100
AcDbLine
 62
7
  6
CONTINUOUS
 10
41.6892314567
 20
189.2570598749
 11
41.6892314567
 21
190.5920598739
  0
LINE
  5
24D
100
AcDbEntity
  8
0
100
AcDbLine
 62
7
  6
CONTINUOUS
 10
42.4392314567
 20
191.9270598749
 11
41.6892314567
 21
190.5920598739
  0
LINE
  5
24E
100
AcDbEntity
  8
0
100
AcDbLine
 62
7
  6
CONTINUOUS
 10
42.4392314567
 20
191.9270598749
 11
42.4392314567
 21
193.5170598749
  0
LINE
  5
24F
100
AcDbEntity
  8
0
100
AcDbLine
 62
7
  6
CONTINUOUS
 10
42.4392314567
 20
193.5170598749
 11
41.6892314567
 21
193.5170598749
  0
LINE
  5
250
100
AcDbEntity
  8
0
100
AcDbLine
 62
7
  6
CONTINUOUS
 10
41.6892314567
 20
193.5170598749
 11
41.6892314567
 21
196.7637837925
  0
SPLINE
  5
251
100
AcDbEntity
  8
0
100
AcDbSpline
 62
7
  6
CONTINUOUS
 70
4
 71
3
 72
8
 73
4
 74
65
 42
0.0000001
 43
0.0000001
 44
0.0000000001
 12
-0.3317985359
 22
-0.111704185
 32
0.0
 13
-0.0
 23
-0.3500972628
 33
0.0
 40
0.0
 40
0.0
 40
0.0
 40
0.0
 40
1.0
 40
1.0
 40
1.0
 40
1.0
 10
41.8935116123
 20
197.048103527
 30
0.0
 41
1.0
 10
41.7670752185
 20
197.0055371115
 30
0.0
 41
0.8747442777
 10
41.6892314567
 20
196.8971931678
 30
0.0
 41
0.8747442777
 10
41.6892314567
 20
196.7637837925
 30
0.0
 41
1.0
 11
41.8935116123
 21
197.048103527
 31
0.0
 11
41.8883284358
 21
197.0463056154
 31
0.0
 11
41.8831495615
 21
197.0444020947
 31
0.0
 11
41.8779779622
 21
197.0423922274
 31
0.0
 11
41.8728166693
 21
197.0402753788
 31
0.0
 11
41.8676687693
 21
197.0380510218
 31
0.0
 11
41.8625373984
 21
197.0357187399
 31
0.0
 11
41.8574257387
 21
197.0332782317
 31
0.0
 11
41.8523370132
 21
197.0307293138
 31
0.0
 11
41.84727448
 21
197.0280719246
 31
0.0
 11
41.8422414275
 21
197.0253061268
 31
0.0
 11
41.8372411683
 21
197.0224321102
 31
0.0
 11
41.8322770337
 21
197.0194501945
 31
0.0
 11
41.827352367
 21
197.0163608309
 31
0.0
 11
41.8224705178
 21
197.0131646043
 31
0.0
 11
41.8176348349
 21
197.0098622341
 31
0.0
 11
41.8128486604
 21
197.0064545761
 31
0.0
 11
41.8081153224
 21
197.0029426224
 31
0.0
 11
41.8034381282
 21
196.999327502
 31
0.0
 11
41.7988203578
 21
196.9956104809
 31
0.0
 11
41.7942652565
 21
196.9917929608
 31
0.0
 11
41.7897760284
 21
196.987876479
 31
0.0
 11
41.7853558288
 21
196.9838627065
 31
0.0
 11
41.7810077581
 21
196.9797534463
 31
0.0
 11
41.7767348543
 21
196.9755506312
 31
0.0
 11
41.7725400866
 21
196.9712563212
 31
0.0
 11
41.768426349
 21
196.9668727002
 31
0.0
 11
41.7643964533
 21
196.9624020729
 31
0.0
 11
41.7604531236
 21
196.9578468604
 31
0.0
 11
41.7565989897
 21
196.9532095968
 31
0.0
 11
41.7528365816
 21
196.9484929235
 31
0.0
 11
41.7491683242
 21
196.9436995852
 31
0.0
 11
41.7455965317
 21
196.9388324239
 31
0.0
 11
41.7421234031
 21
196.9338943739
 31
0.0
 11
41.7387510176
 21
196.9288884553
 31
0.0
 11
41.7354813304
 21
196.9238177683
 31
0.0
 11
41.7323161688
 21
196.9186854867
 31
0.0
 11
41.7292572292
 21
196.9134948511
 31
0.0
 11
41.7263060738
 21
196.9082491623
 31
0.0
 11
41.7234641284
 21
196.9029517746
 31
0.0
 11
41.7207326798
 21
196.8976060882
 31
0.0
 11
41.7181128745
 21
196.8922155426
 31
0.0
 11
41.7156057175
 21
196.8867836091
 31
0.0
 11
41.7132120711
 21
196.8813137836
 31
0.0
 11
41.710932655
 21
196.8758095797
 31
0.0
 11
41.7087680459
 21
196.870274521
 31
0.0
 11
41.7067186786
 21
196.8647121345
 31
0.0
 11
41.7047848461
 21
196.8591259433
 31
0.0
 11
41.7029667015
 21
196.8535194597
 31
0.0
 11
41.7012642597
 21
196.8478961785
 31
0.0
 11
41.699677399
 21
196.8422595705
 31
0.0
 11
41.6982058641
 21
196.8366130758
 31
0.0
 11
41.6968492685
 21
196.830960098
 31
0.0
 11
41.6956070975
 21
196.8253039982
 31
0.0
 11
41.6944787122
 21
196.819648089
 31
0.0
 11
41.6934633525
 21
196.8139956293
 31
0.0
 11
41.6925601415
 21
196.8083498194
 31
0.0
 11
41.6917680894
 21
196.8027137957
 31
0.0
 11
41.6910860981
 21
196.7970906265
 31
0.0
 11
41.6905129657
 21
196.7914833075
 31
0.0
 11
41.6900473909
 21
196.7858947585
 31
0.0
 11
41.6896879787
 21
196.7803278192
 31
0.0
 11
41.6894332445
 21
196.7747852461
 31
0.0
 11
41.6892816197
 21
196.7692697098
 31
0.0
 11
41.6892314567
 21
196.7637837925
 31
0.0
  0
LINE
  5
252
100
AcDbEntity
  8
0
100
AcDbLine
 62
7
  6
CONTINUOUS
 10
41.8320885995
 20
197.0273393872
 11
41.8935116123
 21
197.048103527
  0
LINE
  5
253
100
AcDbEntity
  8
0
100
AcDbLine
 62
7
  6
CONTINUOUS
 10
41.1892314567
 20
198.921207042
 11
41.8320885995
 21
197.0273393872
  0
SPLINE
  5
254
100
AcDbEntity
  8
0
100
AcDbSpline
 62
7
  6
CONTINUOUS
 70
4
 71
3
 72
8
 73
4
 74
33
 42
0.0000001
 43
0.0000001
 44
0.0000000001
 12
6.3324857767
 22
2.1495080204
 32
0.0
 13
6.661580076
 23
0.5866103759
 33
0.0
 40
0.0
 40
0.0
 40
0.0
 40
0.0
 40
1.0
 40
1.0
 40
1.0
 40
1.0
 10
41.1892314567
 20
198.921207042
 30
0.0
 41
1.0
 10
43.3101781328
 20
199.6411442124
 30
0.0
 41
0.9952294492
 10
45.501920501
 20
200.1026523101
 30
0.0
 41
0.9952294492
 10
47.7330911058
 20
200.2991263917
 30
0.0
 41
1.0
 11
41.1892314567
 21
198.921207042
 31
0.0
 11
41.3874139221
 21
198.9876544523
 31
0.0
 11
41.5861703593
 21
199.0526474975
 31
0.0
 11
41.7854847795
 21
199.1161789503
 31
0.0
 11
41.9853410753
 21
199.1782418176
 31
0.0
 11
42.1857230247
 21
199.2388293428
 31
0.0
 11
42.3866142953
 21
199.2979350082
 31
0.0
 11
42.5879984493
 21
199.3555525372
 31
0.0
 11
42.7898589474
 21
199.4116758964
 31
0.0
 11
42.9921791536
 21
199.4662992978
 31
0.0
 11
43.1949423394
 21
199.5194172004
 31
0.0
 11
43.398131689
 21
199.5710243121
 31
0.0
 11
43.6017303031
 21
199.6211155916
 31
0.0
 11
43.8057212044
 21
199.6696862498
 31
0.0
 11
44.0100873419
 21
199.7167317515
 31
0.0
 11
44.2148115956
 21
199.7622478166
 31
0.0
 11
44.4198767815
 21
199.8062304213
 31
0.0
 11
44.6252656561
 21
199.8486757998
 31
0.0
 11
44.8309609216
 21
199.8895804447
 31
0.0
 11
45.0369452305
 21
199.9289411086
 31
0.0
 11
45.2432011906
 21
199.9667548044
 31
0.0
 11
45.4497113698
 21
200.0030188063
 31
0.0
 11
45.6564583011
 21
200.0377306507
 31
0.0
 11
45.8634244874
 21
200.0708881361
 31
0.0
 11
46.0705924065
 21
200.1024893241
 31
0.0
 11
46.2779445162
 21
200.1325325394
 31
0.0
 11
46.4854632588
 21
200.1610163701
 31
0.0
 11
46.6931310664
 21
200.1879396677
 31
0.0
 11
46.900930366
 21
200.2133015472
 31
0.0
 11
47.1088435837
 21
200.2371013868
 31
0.0
 11
47.3168531504
 21
200.2593388277
 31
0.0
 11
47.5249415063
 21
200.280013774
 31
0.0
 11
47.7330911058
 21
200.2991263917
 31
0.0
  0
SPLINE
  5
255
100
AcDbEntity
  8
0
100
AcDbSpline
 62
7
  6
CONTINUOUS
 70
4
 71
3
 72
8
 73
4
 74
129
 42
0.0000001
 43
0.0000001
 44
0.0000000001
 12
-0.0
 22
-0.6753816335
 32
0.0
 13
-0.6727781945
 23
-0.0592440029
 33
0.0
 40
0.0
 40
0.0
 40
0.0
 40
0.0
 40
1.0
 40
1.0
 40
1.0
 40
1.0
 10
48.1892314567
 20
200.797199008
 30
0.0
 41
1.0
 10
48.1892314567
 20
200.5243105729
 30
0.0
 41
0.824978937
 10
48.0049276195
 20
200.3230639737
 30
0.0
 41
0.824978937
 10
47.7330911058
 20
200.2991263917
 30
0.0
 41
1.0
 11
48.1892314567
 21
200.797199008
 31
0.0
 11
48.1892035023
 21
200.7919118925
 31
0.0
 11
48.1891191876
 21
200.786603893
 31
0.0
 11
48.1889778434
 21
200.7812757886
 31
0.0
 11
48.1887788121
 21
200.7759283787
 31
0.0
 11
48.1885214481
 21
200.7705624832
 31
0.0
 11
48.1882051187
 21
200.765178942
 31
0.0
 11
48.1878292045
 21
200.7597786151
 31
0.0
 11
48.1873931006
 21
200.7543623825
 31
0.0
 11
48.1868962166
 21
200.7489311436
 31
0.0
 11
48.1863379776
 21
200.7434858174
 31
0.0
 11
48.185717825
 21
200.738027342
 31
0.0
 11
48.1850352169
 21
200.7325566744
 31
0.0
 11
48.1842896291
 21
200.7270747903
 31
0.0
 11
48.1834805552
 21
200.7215826833
 31
0.0
 11
48.182607508
 21
200.7160813654
 31
0.0
 11
48.1816700195
 21
200.7105718656
 31
0.0
 11
48.180667642
 21
200.7050552304
 31
0.0
 11
48.1795999484
 21
200.6995325229
 31
0.0
 11
48.1784665331
 21
200.6940048222
 31
0.0
 11
48.1772670125
 21
200.6884732235
 31
0.0
 11
48.1760010256
 21
200.6829388368
 31
0.0
 11
48.1746682347
 21
200.6774027872
 31
0.0
 11
48.1732683258
 21
200.6718662138
 31
0.0
 11
48.1718010093
 21
200.666330269
 31
0.0
 11
48.1702660206
 21
200.6607961185
 31
0.0
 11
48.1686631206
 21
200.6552649402
 31
0.0
 11
48.166992096
 21
200.6497379234
 31
0.0
 11
48.1652527603
 21
200.6442162689
 31
0.0
 11
48.1634449537
 21
200.6387011872
 31
0.0
 11
48.161568544
 21
200.6331938987
 31
0.0
 11
48.1596234269
 21
200.6276956325
 31
0.0
 11
48.1576095263
 21
200.6222076258
 31
0.0
 11
48.1555267948
 21
200.6167311228
 31
0.0
 11
48.1533752142
 21
200.6112673746
 31
0.0
 11
48.1511547955
 21
200.6058176375
 31
0.0
 11
48.1488655796
 21
200.6003831728
 31
0.0
 11
48.1465076372
 21
200.5949652456
 31
0.0
 11
48.1440810694
 21
200.5895651241
 31
0.0
 11
48.1415860078
 21
200.5841840789
 31
0.0
 11
48.1390226145
 21
200.5788233814
 31
0.0
 11
48.1363910827
 21
200.5734843039
 31
0.0
 11
48.1336916363
 21
200.5681681178
 31
0.0
 11
48.1309245305
 21
200.562876093
 31
0.0
 11
48.1280900516
 21
200.5576094973
 31
0.0
 11
48.1251885169
 21
200.5523695947
 31
0.0
 11
48.1222202752
 21
200.5471576454
 31
0.0
 11
48.1191857062
 21
200.541974904
 31
0.0
 11
48.1160852208
 21
200.5368226188
 31
0.0
 11
48.1129192608
 21
200.5317020314
 31
0.0
 11
48.109688299
 21
200.5266143749
 31
0.0
 11
48.1063928387
 21
200.5215608733
 31
0.0
 11
48.1030334138
 21
200.516542741
 31
0.0
 11
48.0996105884
 21
200.511561181
 31
0.0
 11
48.0961249564
 21
200.5066173847
 31
0.0
 11
48.0925771416
 21
200.5017125305
 31
0.0
 11
48.088967797
 21
200.4968477833
 31
0.0
 11
48.0852976043
 21
200.4920242931
 31
0.0
 11
48.0815672741
 21
200.4872431946
 31
0.0
 11
48.0777775448
 21
200.4825056059
 31
0.0
 11
48.0739291824
 21
200.477812628
 31
0.0
 11
48.0700229801
 21
200.4731653437
 31
0.0
 11
48.0660597575
 21
200.4685648168
 31
0.0
 11
48.0620403603
 21
200.4640120915
 31
0.0
 11
48.0579656594
 21
200.4595081913
 31
0.0
 11
48.0538365506
 21
200.4550541185
 31
0.0
 11
48.0496539537
 21
200.4506508532
 31
0.0
 11
48.0454188119
 21
200.4462993529
 31
0.0
 11
48.0411320911
 21
200.4420005516
 31
0.0
 11
48.0367947792
 21
200.437755359
 31
0.0
 11
48.0324078852
 21
200.4335646603
 31
0.0
 11
48.0279724387
 21
200.429429315
 31
0.0
 11
48.0234894886
 21
200.4253501569
 31
0.0
 11
48.018960103
 21
200.4213279933
 31
0.0
 11
48.0143853678
 21
200.4173636041
 31
0.0
 11
48.0097663858
 21
200.4134577421
 31
0.0
 11
48.0051042764
 21
200.4096111319
 31
0.0
 11
48.0004001742
 21
200.4058244698
 31
0.0
 11
47.9956552282
 21
200.4020984231
 31
0.0
 11
47.9908706011
 21
200.3984336302
 31
0.0
 11
47.9860474681
 21
200.3948307
 31
0.0
 11
47.9811870163
 21
200.3912902114
 31
0.0
 11
47.9762904433
 21
200.3878127135
 31
0.0
 11
47.9713589569
 21
200.3843987251
 31
0.0
 11
47.9663937736
 21
200.3810487346
 31
0.0
 11
47.9613961179
 21
200.3777631999
 31
0.0
 11
47.9563672212
 21
200.3745425479
 31
0.0
 11
47.9513083213
 21
200.3713871752
 31
0.0
 11
47.9462206608
 21
200.3682974471
 31
0.0
 11
47.9411054867
 21
200.3652736985
 31
0.0
 11
47.9359640491
 21
200.3623162332
 31
0.0
 11
47.9307976007
 21
200.3594253245
 31
0.0
 11
47.9256073954
 21
200.3566012146
 31
0.0
 11
47.9203946877
 21
200.3538441156
 31
0.0
 11
47.9151607316
 21
200.351154209
 31
0.0
 11
47.90990678
 21
200.3485316461
 31
0.0
 11
47.9046340835
 21
200.3459765481
 31
0.0
 11
47.8993438897
 21
200.3434890065
 31
0.0
 11
47.8940374423
 21
200.3410690833
 31
0.0
 11
47.8887159805
 21
200.3387168113
 31
0.0
 11
47.8833807377
 21
200.3364321943
 31
0.0
 11
47.8780329411
 21
200.3342152076
 31
0.0
 11
47.8726738109
 21
200.3320657984
 31
0.0
 11
47.8673045592
 21
200.3299838861
 31
0.0
 11
47.8619263897
 21
200.3279693627
 31
0.0
 11
47.8565404967
 21
200.3260220932
 31
0.0
 11
47.8511480644
 21
200.3241419162
 31
0.0
 11
47.8457502665
 21
200.3223286445
 31
0.0
 11
47.8403482651
 21
200.3205820652
 31
0.0
 11
47.8349432105
 21
200.3189019405
 31
0.0
 11
47.8295362402
 21
200.3172880083
 31
0.0
 11
47.8241284788
 21
200.3157399823
 31
0.0
 11
47.8187210368
 21
200.3142575534
 31
0.0
 11
47.8133150107
 21
200.3128403892
 31
0.0
 11
47.8079114821
 21
200.3114881357
 31
0.0
 11
47.8025115174
 21
200.3102004168
 31
0.0
 11
47.797116167
 21
200.308976836
 31
0.0
 11
47.7917264655
 21
200.3078169761
 31
0.0
 11
47.7863434306
 21
200.3067204004
 31
0.0
 11
47.7809680632
 21
200.3056866532
 31
0.0
 11
47.7756013468
 21
200.30471526
 31
0.0
 11
47.7702442472
 21
200.303805729
 31
0.0
 11
47.7648977123
 21
200.3029575511
 31
0.0
 11
47.7595626716
 21
200.3021702006
 31
0.0
 11
47.7542400361
 21
200.3014431361
 31
0.0
 11
47.7489306981
 21
200.3007758009
 31
0.0
 11
47.7436355309
 21
200.300167624
 31
0.0
 11
47.7383553886
 21
200.2996180204
 31
0.0
 11
47.7330911058
 21
200.2991263917
 31
0.0
  0
LINE
  5
256
100
AcDbEntity
  8
0
100
AcDbLine
 62
7
  6
CONTINUOUS
 10
48.1892314567
 20
219.9070598749
 11
48.1892314567
 21
200.797199008
  0
LINE
  5
257
100
AcDbEntity
  8
0
100
AcDbLine
 62
7
  6
CONTINUOUS
 10
50.1892314567
 20
219.9070598749
 11
48.1892314567
 21
219.9070598749
  0
LINE
  5
258
100
AcDbEntity
  8
0
100
AcDbLine
 62
7
  6
CONTINUOUS
 10
52.1892314567
 20
219.9070598749
 11
50.1892314567
 21
219.9070598749
  0
LINE
  5
259
100
AcDbEntity
  8
0
100
AcDbLine
 62
7
  6
CONTINUOUS
 10
52.1892314567
 20
219.9070598749
 11
52.1892314567
 21
200.797199008
  0
SPLINE
  5
25A
100
AcDbEntity
  8
0
100
AcDbSpline
 62
7
  6
CONTINUOUS
 70
4
 71
3
 72
8
 73
4
 74
129
 42
0.0000001
 43
0.0000001
 44
0.0000000001
 12
-0.0
 22
-0.6753816335
 32
0.0
 13
0.6727781945
 23
-0.0592440029
 33
0.0
 40
0.0
 40
0.0
 40
0.0
 40
0.0
 40
1.0
 40
1.0
 40
1.0
 40
1.0
 10
52.1892314567
 20
200.797199008
 30
0.0
 41
1.0
 10
52.1892314567
 20
200.5243105729
 30
0.0
 41
0.824978937
 10
52.3735352938
 20
200.3230639737
 30
0.0
 41
0.824978937
 10
52.6453718075
 20
200.2991263917
 30
0.0
 41
1.0
 11
52.1892314567
 21
200.797199008
 31
0.0
 11
52.189259411
 21
200.7919118925
 31
0.0
 11
52.1893437257
 21
200.786603893
 31
0.0
 11
52.1894850699
 21
200.7812757886
 31
0.0
 11
52.1896841012
 21
200.7759283787
 31
0.0
 11
52.1899414652
 21
200.7705624832
 31
0.0
 11
52.1902577947
 21
200.765178942
 31
0.0
 11
52.1906337088
 21
200.7597786151
 31
0.0
 11
52.1910698127
 21
200.7543623825
 31
0.0
 11
52.1915666967
 21
200.7489311436
 31
0.0
 11
52.1921249357
 21
200.7434858174
 31
0.0
 11
52.1927450883
 21
200.738027342
 31
0.0
 11
52.1934276964
 21
200.7325566744
 31
0.0
 11
52.1941732842
 21
200.7270747903
 31
0.0
 11
52.1949823581
 21
200.7215826833
 31
0.0
 11
52.1958554053
 21
200.7160813654
 31
0.0
 11
52.1967928938
 21
200.7105718656
 31
0.0
 11
52.1977952713
 21
200.7050552304
 31
0.0
 11
52.1988629649
 21
200.6995325229
 31
0.0
 11
52.1999963802
 21
200.6940048222
 31
0.0
 11
52.2011959008
 21
200.6884732235
 31
0.0
 11
52.2024618877
 21
200.6829388368
 31
0.0
 11
52.2037946786
 21
200.6774027872
 31
0.0
 11
52.2051945875
 21
200.6718662138
 31
0.0
 11
52.206661904
 21
200.666330269
 31
0.0
 11
52.2081968927
 21
200.6607961185
 31
0.0
 11
52.2097997927
 21
200.6552649402
 31
0.0
 11
52.2114708173
 21
200.6497379234
 31
0.0
 11
52.213210153
 21
200.6442162689
 31
0.0
 11
52.2150179596
 21
200.6387011872
 31
0.0
 11
52.2168943693
 21
200.6331938987
 31
0.0
 11
52.2188394864
 21
200.6276956325
 31
0.0
 11
52.220853387
 21
200.6222076258
 31
0.0
 11
52.2229361185
 21
200.6167311228
 31
0.0
 11
52.2250876991
 21
200.6112673746
 31
0.0
 11
52.2273081178
 21
200.6058176375
 31
0.0
 11
52.2295973337
 21
200.6003831728
 31
0.0
 11
52.2319552761
 21
200.5949652456
 31
0.0
 11
52.2343818439
 21
200.5895651241
 31
0.0
 11
52.2368769055
 21
200.5841840789
 31
0.0
 11
52.2394402988
 21
200.5788233814
 31
0.0
 11
52.2420718306
 21
200.5734843039
 31
0.0
 11
52.244771277
 21
200.5681681178
 31
0.0
 11
52.2475383828
 21
200.562876093
 31
0.0
 11
52.2503728618
 21
200.5576094973
 31
0.0
 11
52.2532743964
 21
200.5523695947
 31
0.0
 11
52.2562426381
 21
200.5471576454
 31
0.0
 11
52.2592772071
 21
200.541974904
 31
0.0
 11
52.2623776925
 21
200.5368226188
 31
0.0
 11
52.2655436525
 21
200.5317020314
 31
0.0
 11
52.2687746143
 21
200.5266143749
 31
0.0
 11
52.2720700746
 21
200.5215608733
 31
0.0
 11
52.2754294995
 21
200.516542741
 31
0.0
 11
52.2788523249
 21
200.511561181
 31
0.0
 11
52.2823379569
 21
200.5066173847
 31
0.0
 11
52.2858857717
 21
200.5017125305
 31
0.0
 11
52.2894951163
 21
200.4968477833
 31
0.0
 11
52.293165309
 21
200.4920242931
 31
0.0
 11
52.2968956392
 21
200.4872431946
 31
0.0
 11
52.3006853685
 21
200.4825056059
 31
0.0
 11
52.3045337309
 21
200.477812628
 31
0.0
 11
52.3084399332
 21
200.4731653437
 31
0.0
 11
52.3124031558
 21
200.4685648168
 31
0.0
 11
52.316422553
 21
200.4640120915
 31
0.0
 11
52.3204972539
 21
200.4595081913
 31
0.0
 11
52.3246263627
 21
200.4550541185
 31
0.0
 11
52.3288089596
 21
200.4506508532
 31
0.0
 11
52.3330441014
 21
200.4462993529
 31
0.0
 11
52.3373308222
 21
200.4420005516
 31
0.0
 11
52.3416681341
 21
200.437755359
 31
0.0
 11
52.3460550281
 21
200.4335646603
 31
0.0
 11
52.3504904747
 21
200.429429315
 31
0.0
 11
52.3549734247
 21
200.4253501569
 31
0.0
 11
52.3595028103
 21
200.4213279933
 31
0.0
 11
52.3640775456
 21
200.4173636041
 31
0.0
 11
52.3686965275
 21
200.4134577421
 31
0.0
 11
52.3733586369
 21
200.4096111319
 31
0.0
 11
52.3780627391
 21
200.4058244698
 31
0.0
 11
52.3828076851
 21
200.4020984231
 31
0.0
 11
52.3875923122
 21
200.3984336302
 31
0.0
 11
52.3924154452
 21
200.3948307
 31
0.0
 11
52.397275897
 21
200.3912902114
 31
0.0
 11
52.40217247
 21
200.3878127135
 31
0.0
 11
52.4071039564
 21
200.3843987251
 31
0.0
 11
52.4120691397
 21
200.3810487346
 31
0.0
 11
52.4170667954
 21
200.3777631999
 31
0.0
 11
52.4220956921
 21
200.3745425479
 31
0.0
 11
52.427154592
 21
200.3713871752
 31
0.0
 11
52.4322422525
 21
200.3682974471
 31
0.0
 11
52.4373574267
 21
200.3652736985
 31
0.0
 11
52.4424988642
 21
200.3623162332
 31
0.0
 11
52.4476653126
 21
200.3594253245
 31
0.0
 11
52.4528555179
 21
200.3566012146
 31
0.0
 11
52.4580682256
 21
200.3538441156
 31
0.0
 11
52.4633021817
 21
200.351154209
 31
0.0
 11
52.4685561333
 21
200.3485316461
 31
0.0
 11
52.4738288298
 21
200.3459765481
 31
0.0
 11
52.4791190236
 21
200.3434890065
 31
0.0
 11
52.484425471
 21
200.3410690833
 31
0.0
 11
52.4897469328
 21
200.3387168113
 31
0.0
 11
52.4950821756
 21
200.3364321943
 31
0.0
 11
52.5004299722
 21
200.3342152076
 31
0.0
 11
52.5057891024
 21
200.3320657984
 31
0.0
 11
52.5111583541
 21
200.3299838861
 31
0.0
 11
52.5165365236
 21
200.3279693627
 31
0.0
 11
52.5219224166
 21
200.3260220932
 31
0.0
 11
52.5273148489
 21
200.3241419162
 31
0.0
 11
52.5327126468
 21
200.3223286445
 31
0.0
 11
52.5381146482
 21
200.3205820652
 31
0.0
 11
52.5435197028
 21
200.3189019405
 31
0.0
 11
52.5489266731
 21
200.3172880083
 31
0.0
 11
52.5543344346
 21
200.3157399823
 31
0.0
 11
52.5597418765
 21
200.3142575534
 31
0.0
 11
52.5651479026
 21
200.3128403892
 31
0.0
 11
52.5705514312
 21
200.3114881357
 31
0.0
 11
52.5759513959
 21
200.3102004168
 31
0.0
 11
52.5813467463
 21
200.308976836
 31
0.0
 11
52.5867364478
 21
200.3078169761
 31
0.0
 11
52.5921194827
 21
200.3067204004
 31
0.0
 11
52.5974948501
 21
200.3056866532
 31
0.0
 11
52.6028615665
 21
200.30471526
 31
0.0
 11
52.6082186661
 21
200.303805729
 31
0.0
 11
52.613565201
 21
200.3029575511
 31
0.0
 11
52.6189002417
 21
200.3021702006
 31
0.0
 11
52.6242228772
 21
200.3014431361
 31
0.0
 11
52.6295322152
 21
200.3007758009
 31
0.0
 11
52.6348273824
 21
200.300167624
 31
0.0
 11
52.6401075247
 21
200.2996180204
 31
0.0
 11
52.6453718075
 21
200.2991263917
 31
0.0
  0
SPLINE
  5
25B
100
AcDbEntity
  8
0
100
AcDbSpline
 62
7
  6
CONTINUOUS
 70
4
 71
3
 72
8
 73
4
 74
33
 42
0.0000001
 43
0.0000001
 44
0.0000000001
 12
-6.3324857767
 22
2.1495080204
 32
0.0
 13
-6.661580076
 23
0.5866103759
 33
0.0
 40
0.0
 40
0.0
 40
0.0
 40
0.0
 40
1.0
 40
1.0
 40
1.0
 40
1.0
 10
59.1892314567
 20
198.921207042
 30
0.0
 41
1.0
 10
57.0682847805
 20
199.6411442124
 30
0.0
 41
0.9952294492
 10
54.8765424123
 20
200.1026523101
 30
0.0
 41
0.9952294492
 10
52.6453718075
 20
200.2991263917
 30
0.0
 41
1.0
 11
59.1892314567
 21
198.921207042
 31
0.0
 11
58.9910489912
 21
198.9876544523
 31
0.0
 11
58.792292554
 21
199.0526474975
 31
0.0
 11
58.5929781338
 21
199.1161789503
 31
0.0
 11
58.393121838
 21
199.1782418176
 31
0.0
 11
58.1927398887
 21
199.2388293428
 31
0.0
 11
57.991848618
 21
199.2979350082
 31
0.0
 11
57.790464464
 21
199.3555525372
 31
0.0
 11
57.5886039659
 21
199.4116758964
 31
0.0
 11
57.3862837597
 21
199.4662992978
 31
0.0
 11
57.1835205739
 21
199.5194172004
 31
0.0
 11
56.9803312244
 21
199.5710243121
 31
0.0
 11
56.7767326102
 21
199.6211155916
 31
0.0
 11
56.5727417089
 21
199.6696862498
 31
0.0
 11
56.3683755714
 21
199.7167317515
 31
0.0
 11
56.1636513177
 21
199.7622478166
 31
0.0
 11
55.9585861319
 21
199.8062304213
 31
0.0
 11
55.7531972573
 21
199.8486757998
 31
0.0
 11
55.5475019918
 21
199.8895804447
 31
0.0
 11
55.3415176828
 21
199.9289411086
 31
0.0
 11
55.1352617227
 21
199.9667548044
 31
0.0
 11
54.9287515435
 21
200.0030188063
 31
0.0
 11
54.7220046122
 21
200.0377306507
 31
0.0
 11
54.5150384259
 21
200.0708881361
 31
0.0
 11
54.3078705068
 21
200.1024893241
 31
0.0
 11
54.1005183972
 21
200.1325325394
 31
0.0
 11
53.8929996546
 21
200.1610163701
 31
0.0
 11
53.6853318469
 21
200.1879396677
 31
0.0
 11
53.4775325474
 21
200.2133015472
 31
0.0
 11
53.2696193296
 21
200.2371013868
 31
0.0
 11
53.0616097629
 21
200.2593388277
 31
0.0
 11
52.8535214071
 21
200.280013774
 31
0.0
 11
52.6453718075
 21
200.2991263917
 31
0.0
  0
LINE
  5
25C
100
AcDbEntity
  8
0
100
AcDbLine
 62
7
  6
CONTINUOUS
 10
59.1892314567
 20
198.921207042
 11
58.5463743138
 21
197.0273393872
  0
LINE
  5
25D
100
AcDbEntity
  8
0
100
AcDbLine
 62
7
  6
CONTINUOUS
 10
58.5463743138
 20
197.0273393872
 11
58.484951301
 21
197.048103527
  0
SPLINE
  5
25E
100
AcDbEntity
  8
0
100
AcDbSpline
 62
7
  6
CONTINUOUS
 70
4
 71
3
 72
8
 73
4
 74
65
 42
0.0000001
 43
0.0000001
 44
0.0000000001
 12
0.0
 22
0.3500972628
 32
0.0
 13
-0.3317985359
 23
0.111704185
 33
0.0
 40
0.0
 40
0.0
 40
0.0
 40
0.0
 40
1.0
 40
1.0
 40
1.0
 40
1.0
 10
58.6892314567
 20
196.7637837925
 30
0.0
 41
1.0
 10
58.6892314567
 20
196.8971931678
 30
0.0
 41
0.8747442777
 10
58.6113876948
 20
197.0055371115
 30
0.0
 41
0.8747442777
 10
58.484951301
 20
197.048103527
 30
0.0
 41
1.0
 11
58.6892314567
 21
196.7637837925
 31
0.0
 11
58.6891812936
 21
196.7692697098
 31
0.0
 11
58.6890296688
 21
196.7747852461
 31
0.0
 11
58.6887749346
 21
196.7803278192
 31
0.0
 11
58.6884155224
 21
196.7858947585
 31
0.0
 11
58.6879499477
 21
196.7914833075
 31
0.0
 11
58.6873768152
 21
196.7970906265
 31
0.0
 11
58.6866948239
 21
196.8027137957
 31
0.0
 11
58.6859027718
 21
196.8083498194
 31
0.0
 11
58.6849995608
 21
196.8139956293
 31
0.0
 11
58.6839842011
 21
196.819648089
 31
0.0
 11
58.6828558158
 21
196.8253039982
 31
0.0
 11
58.6816136449
 21
196.830960098
 31
0.0
 11
58.6802570492
 21
196.8366130758
 31
0.0
 11
58.6787855143
 21
196.8422595705
 31
0.0
 11
58.6771986536
 21
196.8478961785
 31
0.0
 11
58.6754962118
 21
196.8535194597
 31
0.0
 11
58.6736780673
 21
196.8591259433
 31
0.0
 11
58.6717442347
 21
196.8647121345
 31
0.0
 11
58.6696948674
 21
196.870274521
 31
0.0
 11
58.6675302583
 21
196.8758095797
 31
0.0
 11
58.6652508422
 21
196.8813137836
 31
0.0
 11
58.6628571958
 21
196.8867836091
 31
0.0
 11
58.6603500388
 21
196.8922155426
 31
0.0
 11
58.6577302335
 21
196.8976060882
 31
0.0
 11
58.6549987849
 21
196.9029517746
 31
0.0
 11
58.6521568395
 21
196.9082491623
 31
0.0
 11
58.6492056841
 21
196.9134948511
 31
0.0
 11
58.6461467445
 21
196.9186854867
 31
0.0
 11
58.642981583
 21
196.9238177683
 31
0.0
 11
58.6397118957
 21
196.9288884553
 31
0.0
 11
58.6363395102
 21
196.9338943739
 31
0.0
 11
58.6328663816
 21
196.9388324239
 31
0.0
 11
58.6292945891
 21
196.9436995852
 31
0.0
 11
58.6256263317
 21
196.9484929235
 31
0.0
 11
58.6218639236
 21
196.9532095968
 31
0.0
 11
58.6180097897
 21
196.9578468604
 31
0.0
 11
58.61406646
 21
196.9624020729
 31
0.0
 11
58.6100365643
 21
196.9668727002
 31
0.0
 11
58.6059228267
 21
196.9712563212
 31
0.0
 11
58.601728059
 21
196.9755506312
 31
0.0
 11
58.5974551552
 21
196.9797534463
 31
0.0
 11
58.5931070845
 21
196.9838627065
 31
0.0
 11
58.5886868849
 21
196.987876479
 31
0.0
 11
58.5841976568
 21
196.9917929608
 31
0.0
 11
58.5796425555
 21
196.9956104809
 31
0.0
 11
58.5750247851
 21
196.999327502
 31
0.0
 11
58.570347591
 21
197.0029426224
 31
0.0
 11
58.5656142529
 21
197.0064545761
 31
0.0
 11
58.5608280784
 21
197.0098622341
 31
0.0
 11
58.5559923956
 21
197.0131646043
 31
0.0
 11
58.5511105463
 21
197.0163608309
 31
0.0
 11
58.5461858796
 21
197.0194501945
 31
0.0
 11
58.541221745
 21
197.0224321102
 31
0.0
 11
58.5362214859
 21
197.0253061268
 31
0.0
 11
58.5311884333
 21
197.0280719246
 31
0.0
 11
58.5261259001
 21
197.0307293138
 31
0.0
 11
58.5210371746
 21
197.0332782317
 31
0.0
 11
58.515925515
 21
197.0357187399
 31
0.0
 11
58.5107941441
 21
197.0380510218
 31
0.0
 11
58.505646244
 21
197.0402753788
 31
0.0
 11
58.5004849512
 21
197.0423922274
 31
0.0
 11
58.4953133518
 21
197.0444020947
 31
0.0
 11
58.4901344775
 21
197.0463056154
 31
0.0
 11
58.484951301
 21
197.048103527
 31
0.0
  0
LINE
  5
25F
100
AcDbEntity
  8
0
100
AcDbLine
 62
7
  6
CONTINUOUS
 10
58.6892314567
 20
193.5170598749
 11
58.6892314567
 21
196.7637837925
  0
LINE
  5
260
100
AcDbEntity
  8
0
100
AcDbLine
 62
7
  6
CONTINUOUS
 10
58.6892314567
 20
193.5170598749
 11
57.9392314567
 21
193.5170598749
  0
LINE
  5
261
100
AcDbEntity
  8
0
100
AcDbLine
 62
7
  6
CONTINUOUS
 10
57.9392314567
 20
191.9270598749
 11
57.9392314567
 21
193.5170598749
  0
LINE
  5
262
100
AcDbEntity
  8
0
100
AcDbLine
 62
7
  6
CONTINUOUS
 10
58.6892314567
 20
190.5920598739
 11
57.9392314567
 21
191.9270598749
  0
LINE
  5
263
100
AcDbEntity
  8
0
100
AcDbLine
 62
7
  6
CONTINUOUS
 10
58.6892314567
 20
189.2570598749
 11
58.6892314567
 21
190.5920598739
  0
LINE
  5
264
100
AcDbEntity
  8
0
100
AcDbLine
 62
7
  6
CONTINUOUS
 10
61.9892314567
 20
189.2570598749
 11
58.6892314567
 21
189.2570598749
  0
LINE
  5
265
100
AcDbEntity
  8
0
100
AcDbLine
 62
7
  6
CONTINUOUS
 10
61.9892314567
 20
189.2570598749
 11
61.9892314567
 21
189.6920598749
  0
SPLINE
  5
266
100
AcDbEntity
  8
0
100
AcDbSpline
 62
7
  6
CONTINUOUS
 70
4
 71
3
 72
8
 73
4
 74
33
 42
0.0000001
 43
0.0000001
 44
0.0000000001
 12
-4.5438203599
 22
0.4001231148
 32
0.0
 13
-4.5438203599
 23
-0.4001231148
 33
0.0
 40
0.0
 40
0.0
 40
0.0
 40
0.0
 40
1.0
 40
1.0
 40
1.0
 40
1.0
 10
52.469933211
 20
198.3068359262
 30
0.0
 41
1.0
 10
50.9514240916
 20
198.4405539323
 30
0.0
 41
0.9974301552
 10
49.4270388217
 20
198.4405539323
 30
0.0
 41
0.9974301552
 10
47.9085297023
 20
198.3068359262
 30
0.0
 41
1.0
 11
52.469933211
 21
198.3068359262
 31
0.0
 11
52.3278885014
 21
198.3189518561
 31
0.0
 11
52.185747379
 21
198.3302912354
 31
0.0
 11
52.0435162058
 21
198.3408530427
 31
0.0
 11
51.9012013574
 21
198.3506363257
 31
0.0
 11
51.7588092218
 21
198.3596402021
 31
0.0
 11
51.6163461986
 21
198.3678638592
 31
0.0
 11
51.4738186981
 21
198.3753065546
 31
0.0
 11
51.3312331404
 21
198.3819676159
 31
0.0
 11
51.1885959541
 21
198.3878464411
 31
0.0
 11
51.045913576
 21
198.3929424989
 31
0.0
 11
50.9031924491
 21
198.3972553282
 31
0.0
 11
50.7604390229
 21
198.4007845391
 31
0.0
 11
50.6176597512
 21
198.4035298121
 31
0.0
 11
50.474861092
 21
198.4054908989
 31
0.0
 11
50.3320495062
 21
198.406667622
 31
0.0
 11
50.1892314567
 21
198.4070598749
 31
0.0
 11
50.0464134071
 21
198.406667622
 31
0.0
 11
49.9036018213
 21
198.4054908989
 31
0.0
 11
49.7608031622
 21
198.4035298121
 31
0.0
 11
49.6180238905
 21
198.4007845391
 31
0.0
 11
49.4752704642
 21
198.3972553282
 31
0.0
 11
49.3325493374
 21
198.3929424989
 31
0.0
 11
49.1898669592
 21
198.3878464411
 31
0.0
 11
49.047229773
 21
198.3819676159
 31
0.0
 11
48.9046442152
 21
198.3753065546
 31
0.0
 11
48.7621167148
 21
198.3678638592
 31
0.0
 11
48.6196536915
 21
198.3596402021
 31
0.0
 11
48.4772615559
 21
198.3506363257
 31
0.0
 11
48.3349467075
 21
198.3408530427
 31
0.0
 11
48.1927155344
 21
198.3302912354
 31
0.0
 11
48.050574412
 21
198.3189518561
 31
0.0
 11
47.9085297023
 21
198.3068359262
 31
0.0
  0
SPLINE
  5
267
100
AcDbEntity
  8
0
100
AcDbSpline
 62
7
  6
CONTINUOUS
 70
4
 71
3
 72
8
 73
4
 74
129
 42
0.0000001
 43
0.0000001
 44
0.0000000001
 12
0.0
 22
-3.3769081675
 32
0.0
 13
3.3638909725
 23
-0.2962200147
 33
0.0
 40
0.0
 40
0.0
 40
0.0
 40
0.0
 40
1.0
 40
1.0
 40
1.0
 40
1.0
 10
50.1892314567
 20
200.797199008
 30
0.0
 41
1.0
 10
50.1892314567
 20
199.4327568322
 30
0.0
 41
0.824978937
 10
51.1107506422
 20
198.4265238364
 30
0.0
 41
0.824978937
 10
52.469933211
 20
198.3068359262
 30
0.0
 41
1.0
 11
50.1892314567
 21
200.797199008
 31
0.0
 11
50.1893712285
 21
200.7707634304
 31
0.0
 11
50.189792802
 21
200.7442234329
 31
0.0
 11
50.1904995228
 21
200.7175829109
 31
0.0
 11
50.1914946794
 21
200.6908458615
 31
0.0
 11
50.1927814995
 21
200.6640163838
 31
0.0
 11
50.1943631467
 21
200.6370986777
 31
0.0
 11
50.1962427172
 21
200.6100970434
 31
0.0
 11
50.1984232369
 21
200.5830158802
 31
0.0
 11
50.2009076571
 21
200.5558596857
 31
0.0
 11
50.203698852
 21
200.5286330547
 31
0.0
 11
50.206799615
 21
200.5013406778
 31
0.0
 11
50.2102126553
 21
200.47398734
 31
0.0
 11
50.2139405946
 21
200.4465779191
 31
0.0
 11
50.2179859638
 21
200.4191173844
 31
0.0
 11
50.2223511999
 21
200.3916107946
 31
0.0
 11
50.2270386424
 21
200.3640632958
 31
0.0
 11
50.23205053
 21
200.33648012
 31
0.0
 11
50.237388998
 21
200.3088665823
 31
0.0
 11
50.2430560745
 21
200.281228079
 31
0.0
 11
50.2490536774
 21
200.2535700852
 31
0.0
 11
50.2553836118
 21
200.225898152
 31
0.0
 11
50.2620475664
 21
200.1982179041
 31
0.0
 11
50.269047111
 21
200.1705350366
 31
0.0
 11
50.2763836934
 21
200.1428553128
 31
0.0
 11
50.2840586368
 21
200.1151845604
 31
0.0
 11
50.292073137
 21
200.0875286686
 31
0.0
 11
50.3004282598
 21
200.059893585
 31
0.0
 11
50.3091249385
 21
200.0322853121
 31
0.0
 11
50.3181639714
 21
200.0047099037
 31
0.0
 11
50.3275460198
 21
199.9771734613
 31
0.0
 11
50.3372716054
 21
199.9496821303
 31
0.0
 11
50.3473411084
 21
199.9222420966
 31
0.0
 11
50.3577547657
 21
199.8948595821
 31
0.0
 11
50.3685126688
 21
199.8675408409
 31
0.0
 11
50.3796147622
 21
199.8402921553
 31
0.0
 11
50.3910608419
 21
199.8131198316
 31
0.0
 11
50.4028505539
 21
199.7860301956
 31
0.0
 11
50.4149833928
 21
199.7590295884
 31
0.0
 11
50.4274587009
 21
199.7321243621
 31
0.0
 11
50.4402756673
 21
199.705320875
 31
0.0
 11
50.4534333265
 21
199.6786254874
 31
0.0
 11
50.4669305584
 21
199.6520445566
 31
0.0
 11
50.4807660874
 21
199.6255844329
 31
0.0
 11
50.4949384821
 21
199.5992514541
 31
0.0
 11
50.5094461554
 21
199.5730519415
 31
0.0
 11
50.524287364
 21
199.5469921949
 31
0.0
 11
50.539460209
 21
199.5210784876
 31
0.0
 11
50.554962636
 21
199.4953170621
 31
0.0
 11
50.5707924358
 21
199.4697141249
 31
0.0
 11
50.5869472449
 21
199.4442758421
 31
0.0
 11
50.6034245463
 21
199.4190083345
 31
0.0
 11
50.6202216708
 21
199.3939176728
 31
0.0
 11
50.637335798
 21
199.3690098728
 31
0.0
 11
50.6547639578
 21
199.3442908912
 31
0.0
 11
50.6725030317
 21
199.3197666204
 31
0.0
 11
50.690549755
 21
199.2954428842
 31
0.0
 11
50.7089007182
 21
199.2713254332
 31
0.0
 11
50.7275523692
 21
199.2474199406
 31
0.0
 11
50.7465010158
 21
199.2237319972
 31
0.0
 11
50.7657428277
 21
199.2002671077
 31
0.0
 11
50.7852738393
 21
199.1770306861
 31
0.0
 11
50.8050899523
 21
199.1540280518
 31
0.0
 11
50.8251869385
 21
199.1312644253
 31
0.0
 11
50.8455604429
 21
199.1087449243
 31
0.0
 11
50.8662059869
 21
199.0864745601
 31
0.0
 11
50.8871189715
 21
199.0644582338
 31
0.0
 11
50.9082946805
 21
199.0427007324
 31
0.0
 11
50.9297282844
 21
199.0212067257
 31
0.0
 11
50.951414844
 21
198.9999807629
 31
0.0
 11
50.9733493139
 21
198.9790272692
 31
0.0
 11
50.9955265467
 21
198.9583505429
 31
0.0
 11
51.0179412968
 21
198.9379547525
 31
0.0
 11
51.0405882248
 21
198.9178439341
 31
0.0
 11
51.0634619011
 21
198.8980219883
 31
0.0
 11
51.0865568109
 21
198.8784926783
 31
0.0
 11
51.1098673578
 21
198.8592596273
 31
0.0
 11
51.133387869
 21
198.8403263166
 31
0.0
 11
51.1571125989
 21
198.8216960833
 31
0.0
 11
51.1810357345
 21
198.803372119
 31
0.0
 11
51.2051513994
 21
198.7853574677
 31
0.0
 11
51.2294536586
 21
198.7676550247
 31
0.0
 11
51.2539365233
 21
198.7502675353
 31
0.0
 11
51.2785939552
 21
198.7331975934
 31
0.0
 11
51.3034198719
 21
198.716447641
 31
0.0
 11
51.3284081506
 21
198.7000199671
 31
0.0
 11
51.3535526338
 21
198.6839167074
 31
0.0
 11
51.3788471336
 21
198.6681398436
 31
0.0
 11
51.4042854361
 21
198.6526912034
 31
0.0
 11
51.4298613067
 21
198.6375724604
 31
0.0
 11
51.4555684943
 21
198.6227851341
 31
0.0
 11
51.4814007363
 21
198.6083305901
 31
0.0
 11
51.5073517628
 21
198.5942100409
 31
0.0
 11
51.5334153015
 21
198.580424546
 31
0.0
 11
51.5595850818
 21
198.566975013
 31
0.0
 11
51.5858548399
 21
198.5538621984
 31
0.0
 11
51.6122183226
 21
198.5410867083
 31
0.0
 11
51.6386692916
 21
198.5286490004
 31
0.0
 11
51.6652015283
 21
198.5165493844
 31
0.0
 11
51.6918088375
 21
198.5047880242
 31
0.0
 11
51.7184850515
 21
198.4933649392
 31
0.0
 11
51.7452240344
 21
198.4822800059
 31
0.0
 11
51.7720196856
 21
198.47153296
 31
0.0
 11
51.798865944
 21
198.4611233984
 31
0.0
 11
51.8257567915
 21
198.4510507811
 31
0.0
 11
51.8526862566
 21
198.4413144336
 31
0.0
 11
51.8796484178
 21
198.4319135489
 31
0.0
 11
51.9066374075
 21
198.4228471904
 31
0.0
 11
51.9336474144
 21
198.4141142938
 31
0.0
 11
51.9606726875
 21
198.4057136704
 31
0.0
 11
51.9877075388
 21
198.3976440092
 31
0.0
 11
52.0147463461
 21
198.3899038796
 31
0.0
 11
52.041783556
 21
198.3824917347
 31
0.0
 11
52.0688136864
 21
198.375405914
 31
0.0
 11
52.0958313293
 21
198.3686446461
 31
0.0
 11
52.1228311531
 21
198.362206052
 31
0.0
 11
52.1498079048
 21
198.3560881479
 31
0.0
 11
52.1767564124
 21
198.3502888485
 31
0.0
 11
52.2036715867
 21
198.3448059701
 31
0.0
 11
52.2305484237
 21
198.3396372336
 31
0.0
 11
52.2573820058
 21
198.3347802679
 31
0.0
 11
52.2841675038
 21
198.330232613
 31
0.0
 11
52.3109001785
 21
198.3259917233
 31
0.0
 11
52.3375753821
 21
198.3220549708
 31
0.0
 11
52.3641885594
 21
198.3184196482
 31
0.0
 11
52.3907352493
 21
198.3150829724
 31
0.0
 11
52.4172110853
 21
198.3120420879
 31
0.0
 11
52.4436117971
 21
198.3092940696
 31
0.0
 11
52.469933211
 21
198.3068359262
 31
0.0
  0
SPLINE
  5
268
100
AcDbEntity
  8
0
100
AcDbSpline
 62
7
  6
CONTINUOUS
 70
4
 71
3
 72
8
 73
4
 74
129
 42
0.0000001
 43
0.0000001
 44
0.0000000001
 12
-0.0
 22
-3.3769081675
 32
0.0
 13
-3.3638909725
 23
-0.2962200147
 33
0.0
 40
0.0
 40
0.0
 40
0.0
 40
0.0
 40
1.0
 40
1.0
 40
1.0
 40
1.0
 10
50.1892314567
 20
200.797199008
 30
0.0
 41
1.0
 10
50.1892314567
 20
199.4327568322
 30
0.0
 41
0.824978937
 10
49.2677122711
 20
198.4265238364
 30
0.0
 41
0.824978937
 10
47.9085297023
 20
198.3068359262
 30
0.0
 41
1.0
 11
50.1892314567
 21
200.797199008
 31
0.0
 11
50.1890916848
 21
200.7707634304
 31
0.0
 11
50.1886701113
 21
200.7442234329
 31
0.0
 11
50.1879633905
 21
200.7175829109
 31
0.0
 11
50.1869682339
 21
200.6908458615
 31
0.0
 11
50.1856814138
 21
200.6640163838
 31
0.0
 11
50.1840997667
 21
200.6370986777
 31
0.0
 11
50.1822201961
 21
200.6100970434
 31
0.0
 11
50.1800396764
 21
200.5830158802
 31
0.0
 11
50.1775552562
 21
200.5558596857
 31
0.0
 11
50.1747640613
 21
200.5286330547
 31
0.0
 11
50.1716632983
 21
200.5013406778
 31
0.0
 11
50.168250258
 21
200.47398734
 31
0.0
 11
50.1645223188
 21
200.4465779191
 31
0.0
 11
50.1604769495
 21
200.4191173844
 31
0.0
 11
50.1561117134
 21
200.3916107946
 31
0.0
 11
50.151424271
 21
200.3640632958
 31
0.0
 11
50.1464123833
 21
200.33648012
 31
0.0
 11
50.1410739153
 21
200.3088665823
 31
0.0
 11
50.1354068388
 21
200.281228079
 31
0.0
 11
50.1294092359
 21
200.2535700852
 31
0.0
 11
50.1230793015
 21
200.225898152
 31
0.0
 11
50.1164153469
 21
200.1982179041
 31
0.0
 11
50.1094158023
 21
200.1705350366
 31
0.0
 11
50.1020792199
 21
200.1428553128
 31
0.0
 11
50.0944042765
 21
200.1151845604
 31
0.0
 11
50.0863897763
 21
200.0875286686
 31
0.0
 11
50.0780346535
 21
200.059893585
 31
0.0
 11
50.0693379748
 21
200.0322853121
 31
0.0
 11
50.0602989419
 21
200.0047099037
 31
0.0
 11
50.0509168935
 21
199.9771734613
 31
0.0
 11
50.0411913079
 21
199.9496821303
 31
0.0
 11
50.0311218049
 21
199.9222420966
 31
0.0
 11
50.0207081476
 21
199.8948595821
 31
0.0
 11
50.0099502445
 21
199.8675408409
 31
0.0
 11
49.9988481511
 21
199.8402921553
 31
0.0
 11
49.9874020714
 21
199.8131198316
 31
0.0
 11
49.9756123595
 21
199.7860301956
 31
0.0
 11
49.9634795206
 21
199.7590295884
 31
0.0
 11
49.9510042124
 21
199.7321243621
 31
0.0
 11
49.938187246
 21
199.705320875
 31
0.0
 11
49.9250295868
 21
199.6786254874
 31
0.0
 11
49.9115323549
 21
199.6520445566
 31
0.0
 11
49.8976968259
 21
199.6255844329
 31
0.0
 11
49.8835244312
 21
199.5992514541
 31
0.0
 11
49.8690167579
 21
199.5730519415
 31
0.0
 11
49.8541755493
 21
199.5469921949
 31
0.0
 11
49.8390027043
 21
199.5210784876
 31
0.0
 11
49.8235002773
 21
199.4953170621
 31
0.0
 11
49.8076704775
 21
199.4697141249
 31
0.0
 11
49.7915156684
 21
199.4442758421
 31
0.0
 11
49.775038367
 21
199.4190083345
 31
0.0
 11
49.7582412425
 21
199.3939176728
 31
0.0
 11
49.7411271153
 21
199.3690098728
 31
0.0
 11
49.7236989555
 21
199.3442908912
 31
0.0
 11
49.7059598816
 21
199.3197666204
 31
0.0
 11
49.6879131583
 21
199.2954428842
 31
0.0
 11
49.6695621951
 21
199.2713254332
 31
0.0
 11
49.6509105441
 21
199.2474199406
 31
0.0
 11
49.6319618975
 21
199.2237319972
 31
0.0
 11
49.6127200856
 21
199.2002671077
 31
0.0
 11
49.593189074
 21
199.1770306861
 31
0.0
 11
49.573372961
 21
199.1540280518
 31
0.0
 11
49.5532759749
 21
199.1312644253
 31
0.0
 11
49.5329024704
 21
199.1087449243
 31
0.0
 11
49.5122569264
 21
199.0864745601
 31
0.0
 11
49.4913439419
 21
199.0644582338
 31
0.0
 11
49.4701682329
 21
199.0427007324
 31
0.0
 11
49.4487346289
 21
199.0212067257
 31
0.0
 11
49.4270480694
 21
198.9999807629
 31
0.0
 11
49.4051135995
 21
198.9790272692
 31
0.0
 11
49.3829363666
 21
198.9583505429
 31
0.0
 11
49.3605216165
 21
198.9379547525
 31
0.0
 11
49.3378746885
 21
198.9178439341
 31
0.0
 11
49.3150010122
 21
198.8980219883
 31
0.0
 11
49.2919061024
 21
198.8784926783
 31
0.0
 11
49.2685955555
 21
198.8592596273
 31
0.0
 11
49.2450750444
 21
198.8403263166
 31
0.0
 11
49.2213503144
 21
198.8216960833
 31
0.0
 11
49.1974271788
 21
198.803372119
 31
0.0
 11
49.173311514
 21
198.7853574677
 31
0.0
 11
49.1490092547
 21
198.7676550247
 31
0.0
 11
49.1245263901
 21
198.7502675353
 31
0.0
 11
49.0998689581
 21
198.7331975934
 31
0.0
 11
49.0750430415
 21
198.716447641
 31
0.0
 11
49.0500547627
 21
198.7000199671
 31
0.0
 11
49.0249102795
 21
198.6839167074
 31
0.0
 11
48.9996157798
 21
198.6681398436
 31
0.0
 11
48.9741774773
 21
198.6526912034
 31
0.0
 11
48.9486016067
 21
198.6375724604
 31
0.0
 11
48.922894419
 21
198.6227851341
 31
0.0
 11
48.897062177
 21
198.6083305901
 31
0.0
 11
48.8711111505
 21
198.5942100409
 31
0.0
 11
48.8450476118
 21
198.580424546
 31
0.0
 11
48.8188778315
 21
198.566975013
 31
0.0
 11
48.7926080734
 21
198.5538621984
 31
0.0
 11
48.7662445907
 21
198.5410867083
 31
0.0
 11
48.7397936217
 21
198.5286490004
 31
0.0
 11
48.713261385
 21
198.5165493844
 31
0.0
 11
48.6866540758
 21
198.5047880242
 31
0.0
 11
48.6599778618
 21
198.4933649392
 31
0.0
 11
48.633238879
 21
198.4822800059
 31
0.0
 11
48.6064432277
 21
198.47153296
 31
0.0
 11
48.5795969693
 21
198.4611233984
 31
0.0
 11
48.5527061218
 21
198.4510507811
 31
0.0
 11
48.5257766567
 21
198.4413144336
 31
0.0
 11
48.4988144955
 21
198.4319135489
 31
0.0
 11
48.4718255059
 21
198.4228471904
 31
0.0
 11
48.4448154989
 21
198.4141142938
 31
0.0
 11
48.4177902258
 21
198.4057136704
 31
0.0
 11
48.3907553745
 21
198.3976440092
 31
0.0
 11
48.3637165672
 21
198.3899038796
 31
0.0
 11
48.3366793573
 21
198.3824917347
 31
0.0
 11
48.3096492269
 21
198.375405914
 31
0.0
 11
48.282631584
 21
198.3686446461
 31
0.0
 11
48.2556317603
 21
198.362206052
 31
0.0
 11
48.2286550086
 21
198.3560881479
 31
0.0
 11
48.201706501
 21
198.3502888485
 31
0.0
 11
48.1747913266
 21
198.3448059701
 31
0.0
 11
48.1479144896
 21
198.3396372336
 31
0.0
 11
48.1210809075
 21
198.3347802679
 31
0.0
 11
48.0942954095
 21
198.330232613
 31
0.0
 11
48.0675627348
 21
198.3259917233
 31
0.0
 11
48.0408875312
 21
198.3220549708
 31
0.0
 11
48.0142743539
 21
198.3184196482
 31
0.0
 11
47.9877276641
 21
198.3150829724
 31
0.0
 11
47.9612518281
 21
198.3120420879
 31
0.0
 11
47.9348511163
 21
198.3092940696
 31
0.0
 11
47.9085297023
 21
198.3068359262
 31
0.0
  0
SPLINE
  5
269
100
AcDbEntity
  8
0
100
AcDbSpline
 62
7
  6
CONTINUOUS
 70
4
 71
3
 72
8
 73
4
 74
129
 42
0.0000001
 43
0.0000001
 44
0.0000000001
 12
-0.0
 22
0.8485281374
 32
0.0
 13
0.8485281374
 23
0.0
 33
0.0
 40
0.0
 40
0.0
 40
0.0
 40
0.0
 40
1.0
 40
1.0
 40
1.0
 40
1.0
 10
35.8892314567
 20
159.3070598742
 30
0.0
 41
1.0
 10
35.8892314567
 20
159.6585317368
 30
0.0
 41
0.8047378541
 10
36.1377595941
 20
159.9070598742
 30
0.0
 41
0.8047378541
 10
36.4892314567
 20
159.9070598742
 30
0.0
 41
1.0
 11
35.8892314567
 21
159.3070598742
 31
0.0
 11
35.8892682448
 21
159.3137040003
 31
0.0
 11
35.8893792728
 21
159.3203774405
 31
0.0
 11
35.8895655256
 21
159.3270791419
 31
0.0
 11
35.8898279726
 21
159.3338080207
 31
0.0
 11
35.8901675676
 21
159.3405629615
 31
0.0
 11
35.8905852469
 21
159.3473428178
 31
0.0
 11
35.8910819286
 21
159.3541464124
 31
0.0
 11
35.8916585115
 21
159.3609725369
 31
0.0
 11
35.892315874
 21
159.3678199528
 31
0.0
 11
35.8930548729
 21
159.374687391
 31
0.0
 11
35.8938763427
 21
159.3815735526
 31
0.0
 11
35.8947810939
 21
159.3884771093
 31
0.0
 11
35.8957699123
 21
159.3953967033
 31
0.0
 11
35.896843558
 21
159.4023309483
 31
0.0
 11
35.8980027641
 21
159.4092784299
 31
0.0
 11
35.8992482356
 21
159.4162377057
 31
0.0
 11
35.9005806485
 21
159.4232073064
 31
0.0
 11
35.9020006485
 21
159.4301857362
 31
0.0
 11
35.9035088502
 21
159.4371714735
 31
0.0
 11
35.905105836
 21
159.4441629716
 31
0.0
 11
35.906792155
 21
159.4511586595
 31
0.0
 11
35.908568322
 21
159.4581569425
 31
0.0
 11
35.9104348165
 21
159.4651562034
 31
0.0
 11
35.9123920817
 21
159.4721548031
 31
0.0
 11
35.914440524
 21
159.4791510818
 31
0.0
 11
35.9165805112
 21
159.4861433595
 31
0.0
 11
35.9188123726
 21
159.4931299378
 31
0.0
 11
35.9211363974
 21
159.5001091
 31
0.0
 11
35.9235528341
 21
159.5070791132
 31
0.0
 11
35.9260618899
 21
159.5140382284
 31
0.0
 11
35.9286637299
 21
159.5209846828
 31
0.0
 11
35.931358476
 21
159.5279166999
 31
0.0
 11
35.9341462067
 21
159.5348324918
 31
0.0
 11
35.9370269563
 21
159.5417302595
 31
0.0
 11
35.940000714
 21
159.5486081951
 31
0.0
 11
35.943067424
 21
159.5554644825
 31
0.0
 11
35.9462269844
 21
159.5622972992
 31
0.0
 11
35.949479247
 21
159.5691048173
 31
0.0
 11
35.9528240171
 21
159.5758852055
 31
0.0
 11
35.9562610526
 21
159.58263663
 31
0.0
 11
35.9597900642
 21
159.5893572564
 31
0.0
 11
35.9634107152
 21
159.5960452507
 31
0.0
 11
35.9671226207
 21
159.6026987814
 31
0.0
 11
35.9709253484
 21
159.6093160208
 31
0.0
 11
35.9748184176
 21
159.6158951463
 31
0.0
 11
35.9788012999
 21
159.6224343422
 31
0.0
 11
35.9828734187
 21
159.6289318013
 31
0.0
 11
35.9870341499
 21
159.6353857262
 31
0.0
 11
35.9912828216
 21
159.6417943314
 31
0.0
 11
35.9956187143
 21
159.648155844
 31
0.0
 11
36.0000410617
 21
159.6544685061
 31
0.0
 11
36.0045490506
 21
159.6607305759
 31
0.0
 11
36.0091418213
 21
159.6669403294
 31
0.0
 11
36.0138184685
 21
159.6730960619
 31
0.0
 11
36.0185780413
 21
159.6791960893
 31
0.0
 11
36.0234195441
 21
159.68523875
 31
0.0
 11
36.0283419374
 21
159.6912224063
 31
0.0
 11
36.0333441381
 21
159.6971454453
 31
0.0
 11
36.0384250205
 21
159.7030062811
 31
0.0
 11
36.0435834173
 21
159.7088033558
 31
0.0
 11
36.0488181201
 21
159.714535141
 31
0.0
 11
36.0541278807
 21
159.7202001387
 31
0.0
 11
36.0595114117
 21
159.7257968835
 31
0.0
 11
36.0649673879
 21
159.7313239429
 31
0.0
 11
36.0704944474
 21
159.7367799192
 31
0.0
 11
36.0760911921
 21
159.7421634502
 31
0.0
 11
36.0817561899
 21
159.7474732107
 31
0.0
 11
36.087487975
 21
159.7527079135
 31
0.0
 11
36.0932850498
 21
159.7578663103
 31
0.0
 11
36.0991458856
 21
159.7629471928
 31
0.0
 11
36.1050689246
 21
159.7679493935
 31
0.0
 11
36.1110525808
 21
159.7728717868
 31
0.0
 11
36.1170952416
 21
159.7777132896
 31
0.0
 11
36.123195269
 21
159.7824728624
 31
0.0
 11
36.1293510014
 21
159.7871495095
 31
0.0
 11
36.1355607549
 21
159.7917422803
 31
0.0
 11
36.1418228248
 21
159.7962502691
 31
0.0
 11
36.1481354869
 21
159.8006726166
 31
0.0
 11
36.1544969995
 21
159.8050085093
 31
0.0
 11
36.1609056046
 21
159.8092571809
 31
0.0
 11
36.1673595296
 21
159.8134179121
 31
0.0
 11
36.1738569887
 21
159.817490031
 31
0.0
 11
36.1803961846
 21
159.8214729132
 31
0.0
 11
36.1869753101
 21
159.8253659825
 31
0.0
 11
36.1935925494
 21
159.8291687101
 31
0.0
 11
36.2002460802
 21
159.8328806157
 31
0.0
 11
36.2069340745
 21
159.8365012666
 31
0.0
 11
36.2136547008
 21
159.8400302783
 31
0.0
 11
36.2204061253
 21
159.8434673138
 31
0.0
 11
36.2271865135
 21
159.8468120838
 31
0.0
 11
36.2339940317
 21
159.8500643465
 31
0.0
 11
36.2408268483
 21
159.8532239069
 31
0.0
 11
36.2476831357
 21
159.8562906168
 31
0.0
 11
36.2545610713
 21
159.8592643746
 31
0.0
 11
36.2614588391
 21
159.8621451241
 31
0.0
 11
36.2683746309
 21
159.8649328548
 31
0.0
 11
36.2753066481
 21
159.867627601
 31
0.0
 11
36.2822531024
 21
159.8702294409
 31
0.0
 11
36.2892122177
 21
159.8727384968
 31
0.0
 11
36.2961822308
 21
159.8751549335
 31
0.0
 11
36.3031613931
 21
159.8774789583
 31
0.0
 11
36.3101479713
 21
159.8797108196
 31
0.0
 11
36.3171402491
 21
159.8818508069
 31
0.0
 11
36.3241365278
 21
159.8838992491
 31
0.0
 11
36.3311351275
 21
159.8858565144
 31
0.0
 11
36.3381343884
 21
159.8877230089
 31
0.0
 11
36.3451326714
 21
159.8894991758
 31
0.0
 11
36.3521283592
 21
159.8911854948
 31
0.0
 11
36.3591198573
 21
159.8927824807
 31
0.0
 11
36.3661055947
 21
159.8942906824
 31
0.0
 11
36.3730840245
 21
159.8957106824
 31
0.0
 11
36.3800536252
 21
159.8970430953
 31
0.0
 11
36.387012901
 21
159.8982885667
 31
0.0
 11
36.3939603825
 21
159.8994477728
 31
0.0
 11
36.4008946276
 21
159.9005214186
 31
0.0
 11
36.4078142216
 21
159.901510237
 31
0.0
 11
36.4147177782
 21
159.9024149882
 31
0.0
 11
36.4216039399
 21
159.9032364579
 31
0.0
 11
36.4284713781
 21
159.9039754569
 31
0.0
 11
36.4353187939
 21
159.9046328194
 31
0.0
 11
36.4421449185
 21
159.9052094023
 31
0.0
 11
36.448948513
 21
159.905706084
 31
0.0
 11
36.4557283694
 21
159.9061237632
 31
0.0
 11
36.4624833102
 21
159.9064633582
 31
0.0
 11
36.4692121889
 21
159.9067258053
 31
0.0
 11
36.4759138904
 21
159.906912058
 31
0.0
 11
36.4825873305
 21
159.9070230861
 31
0.0
 11
36.4892314567
 21
159.9070598742
 31
0.0
  0
LINE
  5
26A
100
AcDbEntity
  8
0
100
AcDbLine
 62
7
  6
CONTINUOUS
 10
69.3892314567
 20
159.9070598742
 11
36.4892314567
 21
159.9070598742
  0
SPLINE
  5
26B
100
AcDbEntity
  8
0
100
AcDbSpline
 62
7
  6
CONTINUOUS
 70
4
 71
3
 72
8
 73
4
 74
129
 42
0.0000001
 43
0.0000001
 44
0.0000000001
 12
0.8485281374
 22
0.0
 32
0.0
 13
0.0
 23
-0.8485281374
 33
0.0
 40
0.0
 40
0.0
 40
0.0
 40
0.0
 40
1.0
 40
1.0
 40
1.0
 40
1.0
 10
69.3892314567
 20
159.9070598742
 30
0.0
 41
1.0
 10
69.7407033192
 20
159.9070598742
 30
0.0
 41
0.8047378541
 10
69.9892314567
 20
159.6585317368
 30
0.0
 41
0.8047378541
 10
69.9892314567
 20
159.3070598742
 30
0.0
 41
1.0
 11
69.3892314567
 21
159.9070598742
 31
0.0
 11
69.3958755828
 21
159.9070230861
 31
0.0
 11
69.4025490229
 21
159.906912058
 31
0.0
 11
69.4092507244
 21
159.9067258053
 31
0.0
 11
69.4159796031
 21
159.9064633582
 31
0.0
 11
69.4227345439
 21
159.9061237632
 31
0.0
 11
69.4295144003
 21
159.905706084
 31
0.0
 11
69.4363179948
 21
159.9052094023
 31
0.0
 11
69.4431441194
 21
159.9046328194
 31
0.0
 11
69.4499915353
 21
159.9039754569
 31
0.0
 11
69.4568589734
 21
159.9032364579
 31
0.0
 11
69.4637451351
 21
159.9024149882
 31
0.0
 11
69.4706486917
 21
159.901510237
 31
0.0
 11
69.4775682857
 21
159.9005214186
 31
0.0
 11
69.4845025308
 21
159.8994477728
 31
0.0
 11
69.4914500123
 21
159.8982885667
 31
0.0
 11
69.4984092881
 21
159.8970430953
 31
0.0
 11
69.5053788888
 21
159.8957106824
 31
0.0
 11
69.5123573187
 21
159.8942906824
 31
0.0
 11
69.519343056
 21
159.8927824807
 31
0.0
 11
69.5263345541
 21
159.8911854948
 31
0.0
 11
69.5333302419
 21
159.8894991758
 31
0.0
 11
69.5403285249
 21
159.8877230089
 31
0.0
 11
69.5473277858
 21
159.8858565144
 31
0.0
 11
69.5543263856
 21
159.8838992491
 31
0.0
 11
69.5613226642
 21
159.8818508069
 31
0.0
 11
69.568314942
 21
159.8797108196
 31
0.0
 11
69.5753015202
 21
159.8774789583
 31
0.0
 11
69.5822806825
 21
159.8751549335
 31
0.0
 11
69.5892506956
 21
159.8727384968
 31
0.0
 11
69.5962098109
 21
159.8702294409
 31
0.0
 11
69.6031562652
 21
159.867627601
 31
0.0
 11
69.6100882824
 21
159.8649328548
 31
0.0
 11
69.6170040742
 21
159.8621451241
 31
0.0
 11
69.623901842
 21
159.8592643746
 31
0.0
 11
69.6307797776
 21
159.8562906168
 31
0.0
 11
69.637636065
 21
159.8532239069
 31
0.0
 11
69.6444688816
 21
159.8500643465
 31
0.0
 11
69.6512763998
 21
159.8468120838
 31
0.0
 11
69.658056788
 21
159.8434673138
 31
0.0
 11
69.6648082125
 21
159.8400302783
 31
0.0
 11
69.6715288388
 21
159.8365012666
 31
0.0
 11
69.6782168331
 21
159.8328806157
 31
0.0
 11
69.6848703639
 21
159.8291687101
 31
0.0
 11
69.6914876032
 21
159.8253659825
 31
0.0
 11
69.6980667287
 21
159.8214729132
 31
0.0
 11
69.7046059246
 21
159.817490031
 31
0.0
 11
69.7111033837
 21
159.8134179121
 31
0.0
 11
69.7175573087
 21
159.8092571809
 31
0.0
 11
69.7239659138
 21
159.8050085093
 31
0.0
 11
69.7303274264
 21
159.8006726166
 31
0.0
 11
69.7366400885
 21
159.7962502691
 31
0.0
 11
69.7429021584
 21
159.7917422803
 31
0.0
 11
69.7491119119
 21
159.7871495095
 31
0.0
 11
69.7552676443
 21
159.7824728624
 31
0.0
 11
69.7613676717
 21
159.7777132896
 31
0.0
 11
69.7674103325
 21
159.7728717868
 31
0.0
 11
69.7733939887
 21
159.7679493935
 31
0.0
 11
69.7793170277
 21
159.7629471928
 31
0.0
 11
69.7851778636
 21
159.7578663103
 31
0.0
 11
69.7909749383
 21
159.7527079135
 31
0.0
 11
69.7967067234
 21
159.7474732107
 31
0.0
 11
69.8023717212
 21
159.7421634502
 31
0.0
 11
69.807968466
 21
159.7367799192
 31
0.0
 11
69.8134955254
 21
159.7313239429
 31
0.0
 11
69.8189515016
 21
159.7257968835
 31
0.0
 11
69.8243350326
 21
159.7202001387
 31
0.0
 11
69.8296447932
 21
159.714535141
 31
0.0
 11
69.834879496
 21
159.7088033558
 31
0.0
 11
69.8400378928
 21
159.7030062811
 31
0.0
 11
69.8451187752
 21
159.6971454453
 31
0.0
 11
69.8501209759
 21
159.6912224063
 31
0.0
 11
69.8550433692
 21
159.68523875
 31
0.0
 11
69.8598848721
 21
159.6791960893
 31
0.0
 11
69.8646444448
 21
159.6730960619
 31
0.0
 11
69.869321092
 21
159.6669403294
 31
0.0
 11
69.8739138627
 21
159.6607305759
 31
0.0
 11
69.8784218516
 21
159.6544685061
 31
0.0
 11
69.882844199
 21
159.648155844
 31
0.0
 11
69.8871800918
 21
159.6417943314
 31
0.0
 11
69.8914287634
 21
159.6353857262
 31
0.0
 11
69.8955894946
 21
159.6289318013
 31
0.0
 11
69.8996616134
 21
159.6224343422
 31
0.0
 11
69.9036444957
 21
159.6158951463
 31
0.0
 11
69.9075375649
 21
159.6093160208
 31
0.0
 11
69.9113402926
 21
159.6026987814
 31
0.0
 11
69.9150521982
 21
159.5960452507
 31
0.0
 11
69.9186728491
 21
159.5893572564
 31
0.0
 11
69.9222018608
 21
159.58263663
 31
0.0
 11
69.9256388962
 21
159.5758852055
 31
0.0
 11
69.9289836663
 21
159.5691048173
 31
0.0
 11
69.9322359289
 21
159.5622972992
 31
0.0
 11
69.9353954893
 21
159.5554644825
 31
0.0
 11
69.9384621993
 21
159.5486081951
 31
0.0
 11
69.941435957
 21
159.5417302595
 31
0.0
 11
69.9443167066
 21
159.5348324918
 31
0.0
 11
69.9471044373
 21
159.5279166999
 31
0.0
 11
69.9497991834
 21
159.5209846828
 31
0.0
 11
69.9524010234
 21
159.5140382284
 31
0.0
 11
69.9549100792
 21
159.5070791132
 31
0.0
 11
69.957326516
 21
159.5001091
 31
0.0
 11
69.9596505407
 21
159.4931299378
 31
0.0
 11
69.9618824021
 21
159.4861433595
 31
0.0
 11
69.9640223893
 21
159.4791510818
 31
0.0
 11
69.9660708316
 21
159.4721548031
 31
0.0
 11
69.9680280969
 21
159.4651562034
 31
0.0
 11
69.9698945913
 21
159.4581569425
 31
0.0
 11
69.9716707583
 21
159.4511586595
 31
0.0
 11
69.9733570773
 21
159.4441629716
 31
0.0
 11
69.9749540631
 21
159.4371714735
 31
0.0
 11
69.9764622649
 21
159.4301857362
 31
0.0
 11
69.9778822649
 21
159.4232073064
 31
0.0
 11
69.9792146777
 21
159.4162377057
 31
0.0
 11
69.9804601492
 21
159.4092784299
 31
0.0
 11
69.9816193553
 21
159.4023309483
 31
0.0
 11
69.982693001
 21
159.3953967033
 31
0.0
 11
69.9836818195
 21
159.3884771093
 31
0.0
 11
69.9845865706
 21
159.3815735526
 31
0.0
 11
69.9854080404
 21
159.374687391
 31
0.0
 11
69.9861470393
 21
159.3678199528
 31
0.0
 11
69.9868044018
 21
159.3609725369
 31
0.0
 11
69.9873809847
 21
159.3541464124
 31
0.0
 11
69.9878776664
 21
159.3473428178
 31
0.0
 11
69.9882953457
 21
159.3405629615
 31
0.0
 11
69.9886349407
 21
159.3338080207
 31
0.0
 11
69.9888973878
 21
159.3270791419
 31
0.0
 11
69.9890836405
 21
159.3203774405
 31
0.0
 11
69.9891946685
 21
159.3137040003
 31
0.0
 11
69.9892314567
 21
159.3070598742
 31
0.0
  0
LINE
  5
26C
100
AcDbEntity
  8
0
100
AcDbLine
 62
7
  6
CONTINUOUS
 10
69.9892314567
 20
155.8570598749
 11
69.9892314567
 21
159.3070598742
  0
SPLINE
  5
26D
100
AcDbEntity
  8
0
100
AcDbSpline
 62
7
  6
CONTINUOUS
 70
4
 71
3
 72
8
 73
4
 74
127
 42
0.0000001
 43
0.0000001
 44
0.0000000001
 12
-0.0
 22
-0.4242640687
 32
0.0
 13
-0.4242640687
 23
0.0
 33
0.0
 40
0.0
 40
0.0
 40
0.0
 40
0.0
 40
1.0
 40
1.0
 40
1.0
 40
1.0
 10
69.9892314567
 20
155.8570598749
 30
0.0
 41
1.0
 10
69.9892314567
 20
155.6813239436
 30
0.0
 41
0.8047378541
 10
69.8649673879
 20
155.5570598749
 30
0.0
 41
0.8047378541
 10
69.6892314567
 20
155.5570598749
 30
0.0
 41
1.0
 11
69.9892314567
 21
155.8570598749
 31
0.0
 11
69.9891575486
 21
155.8504010918
 31
0.0
 11
69.9890644222
 21
155.847050241
 31
0.0
 11
69.9889331987
 21
155.8436858016
 31
0.0
 11
69.9887634012
 21
155.8403083313
 31
0.0
 11
69.9885545615
 21
155.8369184031
 31
0.0
 11
69.9883062207
 21
155.8335166058
 31
0.0
 11
69.9880179292
 21
155.8301035435
 31
0.0
 11
69.987689248
 21
155.8266798356
 31
0.0
 11
69.9873197485
 21
155.8232461165
 31
0.0
 11
69.9869090136
 21
155.8198030357
 31
0.0
 11
69.9864566381
 21
155.8163512574
 31
0.0
 11
69.9859622288
 21
155.8128914604
 31
0.0
 11
69.985425406
 21
155.8094243378
 31
0.0
 11
69.9848458029
 21
155.8059505971
 31
0.0
 11
69.9842230672
 21
155.8024709592
 31
0.0
 11
69.9835568608
 21
155.7989861588
 31
0.0
 11
69.9828468608
 21
155.7954969439
 31
0.0
 11
69.9820927599
 21
155.7920040752
 31
0.0
 11
69.981294267
 21
155.7885083262
 31
0.0
 11
69.9804511075
 21
155.7850104822
 31
0.0
 11
69.979563024
 21
155.7815113407
 31
0.0
 11
69.9786297768
 21
155.7780117103
 31
0.0
 11
69.9776511441
 21
155.7745124104
 31
0.0
 11
69.976626923
 21
155.7710142711
 31
0.0
 11
69.9755569294
 21
155.7675181322
 31
0.0
 11
69.9744409987
 21
155.7640248431
 31
0.0
 11
69.9732789863
 21
155.760535262
 31
0.0
 11
69.972070768
 21
155.7570502554
 31
0.0
 11
69.97081624
 21
155.7535706978
 31
0.0
 11
69.96951532
 21
155.7500974706
 31
0.0
 11
69.968167947
 21
155.746631462
 31
0.0
 11
69.9667740816
 21
155.7431735661
 31
0.0
 11
69.9653337069
 21
155.7397246822
 31
0.0
 11
69.963846828
 21
155.7362857144
 31
0.0
 11
69.962313473
 21
155.7328575707
 31
0.0
 11
69.9607336928
 21
155.7294411624
 31
0.0
 11
69.9591075615
 21
155.7260374033
 31
0.0
 11
69.9574351764
 21
155.7226472092
 31
0.0
 11
69.9557166587
 21
155.719271497
 31
0.0
 11
69.9539521529
 21
155.7159111838
 31
0.0
 11
69.9521418274
 21
155.7125671867
 31
0.0
 11
69.9502858746
 21
155.7092404213
 31
0.0
 11
69.9483845108
 21
155.7059318016
 31
0.0
 11
69.9464379762
 21
155.7026422389
 31
0.0
 11
69.944446535
 21
155.6993726409
 31
0.0
 11
69.9424104756
 21
155.6961239114
 31
0.0
 11
69.94033011
 21
155.6928969489
 31
0.0
 11
69.9382057742
 21
155.6896926463
 31
0.0
 11
69.9360378278
 21
155.68651189
 31
0.0
 11
69.9338266541
 21
155.6833555589
 31
0.0
 11
69.9315726597
 21
155.680224524
 31
0.0
 11
69.9292762743
 21
155.6771196473
 31
0.0
 11
69.9269379507
 21
155.6740417811
 31
0.0
 11
69.9245581644
 21
155.6709917673
 31
0.0
 11
69.9221374129
 21
155.667970437
 31
0.0
 11
69.9196762163
 21
155.6649786089
 31
0.0
 11
69.917175116
 21
155.6620170894
 31
0.0
 11
69.9146346747
 21
155.6590866714
 31
0.0
 11
69.9120554763
 21
155.6561881341
 31
0.0
 11
69.9094381249
 21
155.6533222415
 31
0.0
 11
69.9067832446
 21
155.6504897426
 31
0.0
 11
69.9040914791
 21
155.6476913702
 31
0.0
 11
69.901363491
 21
155.6449278405
 31
0.0
 11
69.8985999613
 21
155.6421998524
 31
0.0
 11
69.8958015889
 21
155.6395080869
 31
0.0
 11
69.89296909
 21
155.6368532066
 31
0.0
 11
69.8901031975
 21
155.6342358552
 31
0.0
 11
69.8872046601
 21
155.6316566568
 31
0.0
 11
69.8842742422
 21
155.6291162156
 31
0.0
 11
69.8813127227
 21
155.6266151153
 31
0.0
 11
69.8783208946
 21
155.6241539186
 31
0.0
 11
69.8752995642
 21
155.6217331672
 31
0.0
 11
69.8722495505
 21
155.6193533808
 31
0.0
 11
69.8691716843
 21
155.6170150572
 31
0.0
 11
69.8660668075
 21
155.6147186719
 31
0.0
 11
69.8629357726
 21
155.6124646774
 31
0.0
 11
69.8597794415
 21
155.6102535037
 31
0.0
 11
69.8565986852
 21
155.6080855573
 31
0.0
 11
69.8533943827
 21
155.6059612215
 31
0.0
 11
69.8501674202
 21
155.6038808559
 31
0.0
 11
69.8469186906
 21
155.6018447965
 31
0.0
 11
69.8436490927
 21
155.5998533554
 31
0.0
 11
69.84035953
 21
155.5979068208
 31
0.0
 11
69.8370509103
 21
155.5960054569
 31
0.0
 11
69.8337241449
 21
155.5941495041
 31
0.0
 11
69.8303801477
 21
155.5923391787
 31
0.0
 11
69.8270198346
 21
155.5905746728
 31
0.0
 11
69.8236441223
 21
155.5888561551
 31
0.0
 11
69.8202539282
 21
155.5871837701
 31
0.0
 11
69.8168501691
 21
155.5855576388
 31
0.0
 11
69.8134337608
 21
155.5839778586
 31
0.0
 11
69.8100056171
 21
155.5824445036
 31
0.0
 11
69.8065666493
 21
155.5809576247
 31
0.0
 11
69.8031177654
 21
155.5795172499
 31
0.0
 11
69.7996598695
 21
155.5781233846
 31
0.0
 11
69.7961938609
 21
155.5767760115
 31
0.0
 11
69.7927206338
 21
155.5754750915
 31
0.0
 11
69.7892410761
 21
155.5742205636
 31
0.0
 11
69.7857560696
 21
155.5730123452
 31
0.0
 11
69.7822664884
 21
155.5718503329
 31
0.0
 11
69.7787731993
 21
155.5707344022
 31
0.0
 11
69.7752770604
 21
155.5696644086
 31
0.0
 11
69.7717789211
 21
155.5686401874
 31
0.0
 11
69.7682796212
 21
155.5676615548
 31
0.0
 11
69.7647799908
 21
155.5667283076
 31
0.0
 11
69.7612808493
 21
155.5658402241
 31
0.0
 11
69.7577830054
 21
155.5649970646
 31
0.0
 11
69.7542872563
 21
155.5641985717
 31
0.0
 11
69.7507943877
 21
155.5634444708
 31
0.0
 11
69.7473051727
 21
155.5627344708
 31
0.0
 11
69.7438203724
 21
155.5620682644
 31
0.0
 11
69.7403407345
 21
155.5614455286
 31
0.0
 11
69.7368669937
 21
155.5608659256
 31
0.0
 11
69.7333998712
 21
155.5603291027
 31
0.0
 11
69.7299400742
 21
155.5598346935
 31
0.0
 11
69.7264882959
 21
155.5593823179
 31
0.0
 11
69.7230452151
 21
155.558971583
 31
0.0
 11
69.719611496
 21
155.5586020835
 31
0.0
 11
69.716187788
 21
155.5582734023
 31
0.0
 11
69.7127747257
 21
155.5579851109
 31
0.0
 11
69.7093729285
 21
155.55773677
 31
0.0
 11
69.7059830003
 21
155.5575279304
 31
0.0
 11
69.7026055299
 21
155.5573581329
 31
0.0
 11
69.6992410905
 21
155.5572269093
 31
0.0
 11
69.6958902398
 21
155.557133783
 31
0.0
 11
69.6892314567
 21
155.5570598749
 31
0.0
  0
LINE
  5
26E
100
AcDbEntity
  8
0
100
AcDbLine
 62
7
  6
CONTINUOUS
 10
69.6892314567
 20
155.5570598749
 11
58.6892314567
 21
155.5570598749
  0
LINE
  5
26F
100
AcDbEntity
  8
0
100
AcDbLine
 62
7
  6
CONTINUOUS
 10
58.6892314567
 20
154.2220598759
 11
58.6892314567
 21
155.5570598749
  0
LINE
  5
270
100
AcDbEntity
  8
0
100
AcDbLine
 62
7
  6
CONTINUOUS
 10
58.6892314567
 20
154.2220598759
 11
57.9392314567
 21
152.8870598749
  0
LINE
  5
271
100
AcDbEntity
  8
0
100
AcDbLine
 62
7
  6
CONTINUOUS
 10
57.9392314567
 20
151.2970598749
 11
57.9392314567
 21
152.8870598749
  0
LINE
  5
272
100
AcDbEntity
  8
0
100
AcDbLine
 62
7
  6
CONTINUOUS
 10
58.6892314567
 20
151.2970598749
 11
57.9392314567
 21
151.2970598749
  0
LINE
  5
273
100
AcDbEntity
  8
0
100
AcDbLine
 62
7
  6
CONTINUOUS
 10
58.6892314567
 20
148.0503359573
 11
58.6892314567
 21
151.2970598749
  0
SPLINE
  5
274
100
AcDbEntity
  8
0
100
AcDbSpline
 62
7
  6
CONTINUOUS
 70
4
 71
3
 72
8
 73
4
 74
65
 42
0.0000001
 43
0.0000001
 44
0.0000000001
 12
-0.0
 22
-0.3500972628
 32
0.0
 13
-0.3317985359
 23
-0.111704185
 33
0.0
 40
0.0
 40
0.0
 40
0.0
 40
0.0
 40
1.0
 40
1.0
 40
1.0
 40
1.0
 10
58.6892314567
 20
148.0503359573
 30
0.0
 41
1.0
 10
58.6892314567
 20
147.916926582
 30
0.0
 41
0.8747442777
 10
58.6113876948
 20
147.8085826383
 30
0.0
 41
0.8747442777
 10
58.484951301
 20
147.7660162228
 30
0.0
 41
1.0
 11
58.6892314567
 21
148.0503359573
 31
0.0
 11
58.6891812936
 21
148.04485004
 31
0.0
 11
58.6890296688
 21
148.0393345037
 31
0.0
 11
58.6887749346
 21
148.0337919306
 31
0.0
 11
58.6884155224
 21
148.0282249912
 31
0.0
 11
58.6879499477
 21
148.0226364422
 31
0.0
 11
58.6873768152
 21
148.0170291233
 31
0.0
 11
58.6866948239
 21
148.0114059541
 31
0.0
 11
58.6859027718
 21
148.0057699304
 31
0.0
 11
58.6849995608
 21
148.0001241204
 31
0.0
 11
58.6839842011
 21
147.9944716608
 31
0.0
 11
58.6828558158
 21
147.9888157516
 31
0.0
 11
58.6816136449
 21
147.9831596518
 31
0.0
 11
58.6802570492
 21
147.977506674
 31
0.0
 11
58.6787855143
 21
147.9718601793
 31
0.0
 11
58.6771986536
 21
147.9662235713
 31
0.0
 11
58.6754962118
 21
147.9606002901
 31
0.0
 11
58.6736780673
 21
147.9549938065
 31
0.0
 11
58.6717442347
 21
147.9494076153
 31
0.0
 11
58.6696948674
 21
147.9438452288
 31
0.0
 11
58.6675302583
 21
147.9383101701
 31
0.0
 11
58.6652508422
 21
147.9328059662
 31
0.0
 11
58.6628571958
 21
147.9273361407
 31
0.0
 11
58.6603500388
 21
147.9219042072
 31
0.0
 11
58.6577302335
 21
147.9165136615
 31
0.0
 11
58.6549987849
 21
147.9111679752
 31
0.0
 11
58.6521568395
 21
147.9058705874
 31
0.0
 11
58.6492056841
 21
147.9006248987
 31
0.0
 11
58.6461467445
 21
147.8954342631
 31
0.0
 11
58.642981583
 21
147.8903019815
 31
0.0
 11
58.6397118957
 21
147.8852312945
 31
0.0
 11
58.6363395102
 21
147.8802253759
 31
0.0
 11
58.6328663816
 21
147.8752873259
 31
0.0
 11
58.6292945891
 21
147.8704201646
 31
0.0
 11
58.6256263317
 21
147.8656268263
 31
0.0
 11
58.6218639236
 21
147.860910153
 31
0.0
 11
58.6180097897
 21
147.8562728893
 31
0.0
 11
58.61406646
 21
147.8517176769
 31
0.0
 11
58.6100365643
 21
147.8472470496
 31
0.0
 11
58.6059228267
 21
147.8428634286
 31
0.0
 11
58.601728059
 21
147.8385691185
 31
0.0
 11
58.5974551552
 21
147.8343663035
 31
0.0
 11
58.5931070845
 21
147.8302570433
 31
0.0
 11
58.5886868849
 21
147.8262432708
 31
0.0
 11
58.5841976568
 21
147.822326789
 31
0.0
 11
58.5796425555
 21
147.8185092689
 31
0.0
 11
58.5750247851
 21
147.8147922477
 31
0.0
 11
58.570347591
 21
147.8111771274
 31
0.0
 11
58.5656142529
 21
147.8076651737
 31
0.0
 11
58.5608280784
 21
147.8042575157
 31
0.0
 11
58.5559923956
 21
147.8009551455
 31
0.0
 11
58.5511105463
 21
147.7977589188
 31
0.0
 11
58.5461858796
 21
147.7946695552
 31
0.0
 11
58.541221745
 21
147.7916876395
 31
0.0
 11
58.5362214859
 21
147.788813623
 31
0.0
 11
58.5311884333
 21
147.7860478251
 31
0.0
 11
58.5261259001
 21
147.783390436
 31
0.0
 11
58.5210371746
 21
147.7808415181
 31
0.0
 11
58.515925515
 21
147.7784010099
 31
0.0
 11
58.5107941441
 21
147.776068728
 31
0.0
 11
58.505646244
 21
147.7738443709
 31
0.0
 11
58.5004849512
 21
147.7717275224
 31
0.0
 11
58.4953133518
 21
147.7697176551
 31
0.0
 11
58.4901344775
 21
147.7678141344
 31
0.0
 11
58.484951301
 21
147.7660162228
 31
0.0
  0
LINE
  5
275
100
AcDbEntity
  8
0
100
AcDbLine
 62
7
  6
CONTINUOUS
 10
58.5463743138
 20
147.7867803626
 11
58.484951301
 21
147.7660162228
  0
LINE
  5
276
100
AcDbEntity
  8
0
100
AcDbLine
 62
7
  6
CONTINUOUS
 10
59.1892314567
 20
145.8929127078
 11
58.5463743138
 21
147.7867803626
  0
SPLINE
  5
277
100
AcDbEntity
  8
0
100
AcDbSpline
 62
7
  6
CONTINUOUS
 70
4
 71
3
 72
8
 73
4
 74
33
 42
0.0000001
 43
0.0000001
 44
0.0000000001
 12
-6.3324857767
 22
-2.1495080204
 32
0.0
 13
-6.661580076
 23
-0.5866103759
 33
0.0
 40
0.0
 40
0.0
 40
0.0
 40
0.0
 40
1.0
 40
1.0
 40
1.0
 40
1.0
 10
59.1892314567
 20
145.8929127078
 30
0.0
 41
1.0
 10
57.0682847805
 20
145.1729755374
 30
0.0
 41
0.9952294492
 10
54.8765424123
 20
144.7114674397
 30
0.0
 41
0.9952294492
 10
52.6453718075
 20
144.5149933581
 30
0.0
 41
1.0
 11
59.1892314567
 21
145.8929127078
 31
0.0
 11
58.9910489912
 21
145.8264652975
 31
0.0
 11
58.792292554
 21
145.7614722523
 31
0.0
 11
58.5929781338
 21
145.6979407994
 31
0.0
 11
58.393121838
 21
145.6358779321
 31
0.0
 11
58.1927398887
 21
145.575290407
 31
0.0
 11
57.991848618
 21
145.5161847416
 31
0.0
 11
57.790464464
 21
145.4585672126
 31
0.0
 11
57.5886039659
 21
145.4024438534
 31
0.0
 11
57.3862837597
 21
145.347820452
 31
0.0
 11
57.1835205739
 21
145.2947025494
 31
0.0
 11
56.9803312244
 21
145.2430954377
 31
0.0
 11
56.7767326102
 21
145.1930041582
 31
0.0
 11
56.5727417089
 21
145.1444334999
 31
0.0
 11
56.3683755714
 21
145.0973879983
 31
0.0
 11
56.1636513177
 21
145.0518719332
 31
0.0
 11
55.9585861319
 21
145.0078893285
 31
0.0
 11
55.7531972573
 21
144.96544395
 31
0.0
 11
55.5475019918
 21
144.924539305
 31
0.0
 11
55.3415176828
 21
144.8851786412
 31
0.0
 11
55.1352617227
 21
144.8473649454
 31
0.0
 11
54.9287515435
 21
144.8111009434
 31
0.0
 11
54.7220046122
 21
144.7763890991
 31
0.0
 11
54.5150384259
 21
144.7432316137
 31
0.0
 11
54.3078705068
 21
144.7116304257
 31
0.0
 11
54.1005183972
 21
144.6815872104
 31
0.0
 11
53.8929996546
 21
144.6531033797
 31
0.0
 11
53.6853318469
 21
144.6261800821
 31
0.0
 11
53.4775325474
 21
144.6008182026
 31
0.0
 11
53.2696193296
 21
144.577018363
 31
0.0
 11
53.0616097629
 21
144.5547809221
 31
0.0
 11
52.8535214071
 21
144.5341059758
 31
0.0
 11
52.6453718075
 21
144.5149933581
 31
0.0
  0
SPLINE
  5
278
100
AcDbEntity
  8
0
100
AcDbSpline
 62
7
  6
CONTINUOUS
 70
4
 71
3
 72
8
 73
4
 74
129
 42
0.0000001
 43
0.0000001
 44
0.0000000001
 12
-0.0
 22
0.6753816335
 32
0.0
 13
0.6727781945
 23
0.0592440029
 33
0.0
 40
0.0
 40
0.0
 40
0.0
 40
0.0
 40
1.0
 40
1.0
 40
1.0
 40
1.0
 10
52.1892314567
 20
144.0169207417
 30
0.0
 41
1.0
 10
52.1892314567
 20
144.2898091769
 30
0.0
 41
0.824978937
 10
52.3735352938
 20
144.4910557761
 30
0.0
 41
0.824978937
 10
52.6453718075
 20
144.5149933581
 30
0.0
 41
1.0
 11
52.1892314567
 21
144.0169207417
 31
0.0
 11
52.189259411
 21
144.0222078573
 31
0.0
 11
52.1893437257
 21
144.0275158568
 31
0.0
 11
52.1894850699
 21
144.0328439612
 31
0.0
 11
52.1896841012
 21
144.038191371
 31
0.0
 11
52.1899414652
 21
144.0435572666
 31
0.0
 11
52.1902577947
 21
144.0489408078
 31
0.0
 11
52.1906337088
 21
144.0543411347
 31
0.0
 11
52.1910698127
 21
144.0597573673
 31
0.0
 11
52.1915666967
 21
144.0651886062
 31
0.0
 11
52.1921249357
 21
144.0706339324
 31
0.0
 11
52.1927450883
 21
144.0760924078
 31
0.0
 11
52.1934276964
 21
144.0815630753
 31
0.0
 11
52.1941732842
 21
144.0870449595
 31
0.0
 11
52.1949823581
 21
144.0925370665
 31
0.0
 11
52.1958554053
 21
144.0980383844
 31
0.0
 11
52.1967928938
 21
144.1035478842
 31
0.0
 11
52.1977952713
 21
144.1090645193
 31
0.0
 11
52.1988629649
 21
144.1145872269
 31
0.0
 11
52.1999963802
 21
144.1201149275
 31
0.0
 11
52.2011959008
 21
144.1256465263
 31
0.0
 11
52.2024618877
 21
144.1311809129
 31
0.0
 11
52.2037946786
 21
144.1367169625
 31
0.0
 11
52.2051945875
 21
144.142253536
 31
0.0
 11
52.206661904
 21
144.1477894808
 31
0.0
 11
52.2081968927
 21
144.1533236313
 31
0.0
 11
52.2097997927
 21
144.1588548096
 31
0.0
 11
52.2114708173
 21
144.1643818263
 31
0.0
 11
52.213210153
 21
144.1699034809
 31
0.0
 11
52.2150179596
 21
144.1754185626
 31
0.0
 11
52.2168943693
 21
144.1809258511
 31
0.0
 11
52.2188394864
 21
144.1864241173
 31
0.0
 11
52.220853387
 21
144.191912124
 31
0.0
 11
52.2229361185
 21
144.1973886269
 31
0.0
 11
52.2250876991
 21
144.2028523752
 31
0.0
 11
52.2273081178
 21
144.2083021123
 31
0.0
 11
52.2295973337
 21
144.213736577
 31
0.0
 11
52.2319552761
 21
144.2191545042
 31
0.0
 11
52.2343818439
 21
144.2245546257
 31
0.0
 11
52.2368769055
 21
144.2299356709
 31
0.0
 11
52.2394402988
 21
144.2352963683
 31
0.0
 11
52.2420718306
 21
144.2406354459
 31
0.0
 11
52.244771277
 21
144.245951632
 31
0.0
 11
52.2475383828
 21
144.2512436568
 31
0.0
 11
52.2503728618
 21
144.2565102525
 31
0.0
 11
52.2532743964
 21
144.261750155
 31
0.0
 11
52.2562426381
 21
144.2669621044
 31
0.0
 11
52.2592772071
 21
144.2721448458
 31
0.0
 11
52.2623776925
 21
144.2772971309
 31
0.0
 11
52.2655436525
 21
144.2824177184
 31
0.0
 11
52.2687746143
 21
144.2875053749
 31
0.0
 11
52.2720700746
 21
144.2925588764
 31
0.0
 11
52.2754294995
 21
144.2975770088
 31
0.0
 11
52.2788523249
 21
144.3025585688
 31
0.0
 11
52.2823379569
 21
144.3075023651
 31
0.0
 11
52.2858857717
 21
144.3124072193
 31
0.0
 11
52.2894951163
 21
144.3172719665
 31
0.0
 11
52.293165309
 21
144.3220954567
 31
0.0
 11
52.2968956392
 21
144.3268765552
 31
0.0
 11
52.3006853685
 21
144.3316141439
 31
0.0
 11
52.3045337309
 21
144.3363071218
 31
0.0
 11
52.3084399332
 21
144.3409544061
 31
0.0
 11
52.3124031558
 21
144.345554933
 31
0.0
 11
52.316422553
 21
144.3501076583
 31
0.0
 11
52.3204972539
 21
144.3546115585
 31
0.0
 11
52.3246263627
 21
144.3590656313
 31
0.0
 11
52.3288089596
 21
144.3634688966
 31
0.0
 11
52.3330441014
 21
144.3678203969
 31
0.0
 11
52.3373308222
 21
144.3721191982
 31
0.0
 11
52.3416681341
 21
144.3763643908
 31
0.0
 11
52.3460550281
 21
144.3805550895
 31
0.0
 11
52.3504904747
 21
144.3846904348
 31
0.0
 11
52.3549734247
 21
144.3887695928
 31
0.0
 11
52.3595028103
 21
144.3927917565
 31
0.0
 11
52.3640775456
 21
144.3967561457
 31
0.0
 11
52.3686965275
 21
144.4006620077
 31
0.0
 11
52.3733586369
 21
144.4045086179
 31
0.0
 11
52.3780627391
 21
144.40829528
 31
0.0
 11
52.3828076851
 21
144.4120213267
 31
0.0
 11
52.3875923122
 21
144.4156861195
 31
0.0
 11
52.3924154452
 21
144.4192890498
 31
0.0
 11
52.397275897
 21
144.4228295384
 31
0.0
 11
52.40217247
 21
144.4263070363
 31
0.0
 11
52.4071039564
 21
144.4297210247
 31
0.0
 11
52.4120691397
 21
144.4330710151
 31
0.0
 11
52.4170667954
 21
144.4363565499
 31
0.0
 11
52.4220956921
 21
144.4395772019
 31
0.0
 11
52.427154592
 21
144.4427325746
 31
0.0
 11
52.4322422525
 21
144.4458223027
 31
0.0
 11
52.4373574267
 21
144.4488460513
 31
0.0
 11
52.4424988642
 21
144.4518035165
 31
0.0
 11
52.4476653126
 21
144.4546944253
 31
0.0
 11
52.4528555179
 21
144.4575185352
 31
0.0
 11
52.4580682256
 21
144.4602756341
 31
0.0
 11
52.4633021817
 21
144.4629655407
 31
0.0
 11
52.4685561333
 21
144.4655881037
 31
0.0
 11
52.4738288298
 21
144.4681432017
 31
0.0
 11
52.4791190236
 21
144.4706307433
 31
0.0
 11
52.484425471
 21
144.4730506665
 31
0.0
 11
52.4897469328
 21
144.4754029385
 31
0.0
 11
52.4950821756
 21
144.4776875555
 31
0.0
 11
52.5004299722
 21
144.4799045422
 31
0.0
 11
52.5057891024
 21
144.4820539513
 31
0.0
 11
52.5111583541
 21
144.4841358637
 31
0.0
 11
52.5165365236
 21
144.4861503871
 31
0.0
 11
52.5219224166
 21
144.4880976566
 31
0.0
 11
52.5273148489
 21
144.4899778336
 31
0.0
 11
52.5327126468
 21
144.4917911053
 31
0.0
 11
52.5381146482
 21
144.4935376846
 31
0.0
 11
52.5435197028
 21
144.4952178093
 31
0.0
 11
52.5489266731
 21
144.4968317415
 31
0.0
 11
52.5543344346
 21
144.4983797674
 31
0.0
 11
52.5597418765
 21
144.4998621964
 31
0.0
 11
52.5651479026
 21
144.5012793605
 31
0.0
 11
52.5705514312
 21
144.5026316141
 31
0.0
 11
52.5759513959
 21
144.5039193329
 31
0.0
 11
52.5813467463
 21
144.5051429138
 31
0.0
 11
52.5867364478
 21
144.5063027736
 31
0.0
 11
52.5921194827
 21
144.5073993493
 31
0.0
 11
52.5974948501
 21
144.5084330966
 31
0.0
 11
52.6028615665
 21
144.5094044898
 31
0.0
 11
52.6082186661
 21
144.5103140207
 31
0.0
 11
52.613565201
 21
144.5111621987
 31
0.0
 11
52.6189002417
 21
144.5119495492
 31
0.0
 11
52.6242228772
 21
144.5126766137
 31
0.0
 11
52.6295322152
 21
144.5133439489
 31
0.0
 11
52.6348273824
 21
144.5139521258
 31
0.0
 11
52.6401075247
 21
144.5145017294
 31
0.0
 11
52.6453718075
 21
144.5149933581
 31
0.0
  0
LINE
  5
279
100
AcDbEntity
  8
0
100
AcDbLine
 62
7
  6
CONTINUOUS
 10
52.1892314567
 20
144.0169207417
 11
52.1892314567
 21
138.7570598749
  0
LINE
  5
27A
100
AcDbEntity
  8
0
100
AcDbLine
 62
7
  6
CONTINUOUS
 10
50.1892314567
 20
138.7570598749
 11
52.1892314567
 21
138.7570598749
  0
LINE
  5
27B
100
AcDbEntity
  8
0
100
AcDbLine
 62
7
  6
CONTINUOUS
 10
48.1892314567
 20
138.7570598749
 11
50.1892314567
 21
138.7570598749
  0
LINE
  5
27C
100
AcDbEntity
  8
0
100
AcDbLine
 62
7
  6
CONTINUOUS
 10
48.1892314567
 20
144.0169207417
 11
48.1892314567
 21
138.7570598749
  0
SPLINE
  5
27D
100
AcDbEntity
  8
0
100
AcDbSpline
 62
7
  6
CONTINUOUS
 70
4
 71
3
 72
8
 73
4
 74
129
 42
0.0000001
 43
0.0000001
 44
0.0000000001
 12
-0.0
 22
0.6753816335
 32
0.0
 13
-0.6727781945
 23
0.0592440029
 33
0.0
 40
0.0
 40
0.0
 40
0.0
 40
0.0
 40
1.0
 40
1.0
 40
1.0
 40
1.0
 10
48.1892314567
 20
144.0169207417
 30
0.0
 41
1.0
 10
48.1892314567
 20
144.2898091769
 30
0.0
 41
0.824978937
 10
48.0049276195
 20
144.4910557761
 30
0.0
 41
0.824978937
 10
47.7330911058
 20
144.5149933581
 30
0.0
 41
1.0
 11
48.1892314567
 21
144.0169207417
 31
0.0
 11
48.1892035023
 21
144.0222078573
 31
0.0
 11
48.1891191876
 21
144.0275158568
 31
0.0
 11
48.1889778434
 21
144.0328439612
 31
0.0
 11
48.1887788121
 21
144.038191371
 31
0.0
 11
48.1885214481
 21
144.0435572666
 31
0.0
 11
48.1882051187
 21
144.0489408078
 31
0.0
 11
48.1878292045
 21
144.0543411347
 31
0.0
 11
48.1873931006
 21
144.0597573673
 31
0.0
 11
48.1868962166
 21
144.0651886062
 31
0.0
 11
48.1863379776
 21
144.0706339324
 31
0.0
 11
48.185717825
 21
144.0760924078
 31
0.0
 11
48.1850352169
 21
144.0815630753
 31
0.0
 11
48.1842896291
 21
144.0870449595
 31
0.0
 11
48.1834805552
 21
144.0925370665
 31
0.0
 11
48.182607508
 21
144.0980383844
 31
0.0
 11
48.1816700195
 21
144.1035478842
 31
0.0
 11
48.180667642
 21
144.1090645193
 31
0.0
 11
48.1795999484
 21
144.1145872269
 31
0.0
 11
48.1784665331
 21
144.1201149275
 31
0.0
 11
48.1772670125
 21
144.1256465263
 31
0.0
 11
48.1760010256
 21
144.1311809129
 31
0.0
 11
48.1746682347
 21
144.1367169625
 31
0.0
 11
48.1732683258
 21
144.142253536
 31
0.0
 11
48.1718010093
 21
144.1477894808
 31
0.0
 11
48.1702660206
 21
144.1533236313
 31
0.0
 11
48.1686631206
 21
144.1588548096
 31
0.0
 11
48.166992096
 21
144.1643818263
 31
0.0
 11
48.1652527603
 21
144.1699034809
 31
0.0
 11
48.1634449537
 21
144.1754185626
 31
0.0
 11
48.161568544
 21
144.1809258511
 31
0.0
 11
48.1596234269
 21
144.1864241173
 31
0.0
 11
48.1576095263
 21
144.191912124
 31
0.0
 11
48.1555267948
 21
144.1973886269
 31
0.0
 11
48.1533752142
 21
144.2028523752
 31
0.0
 11
48.1511547955
 21
144.2083021123
 31
0.0
 11
48.1488655796
 21
144.213736577
 31
0.0
 11
48.1465076372
 21
144.2191545042
 31
0.0
 11
48.1440810694
 21
144.2245546257
 31
0.0
 11
48.1415860078
 21
144.2299356709
 31
0.0
 11
48.1390226145
 21
144.2352963683
 31
0.0
 11
48.1363910827
 21
144.2406354459
 31
0.0
 11
48.1336916363
 21
144.245951632
 31
0.0
 11
48.1309245305
 21
144.2512436568
 31
0.0
 11
48.1280900516
 21
144.2565102525
 31
0.0
 11
48.1251885169
 21
144.261750155
 31
0.0
 11
48.1222202752
 21
144.2669621044
 31
0.0
 11
48.1191857062
 21
144.2721448458
 31
0.0
 11
48.1160852208
 21
144.2772971309
 31
0.0
 11
48.1129192608
 21
144.2824177184
 31
0.0
 11
48.109688299
 21
144.2875053749
 31
0.0
 11
48.1063928387
 21
144.2925588764
 31
0.0
 11
48.1030334138
 21
144.2975770088
 31
0.0
 11
48.0996105884
 21
144.3025585688
 31
0.0
 11
48.0961249564
 21
144.3075023651
 31
0.0
 11
48.0925771416
 21
144.3124072193
 31
0.0
 11
48.088967797
 21
144.3172719665
 31
0.0
 11
48.0852976043
 21
144.3220954567
 31
0.0
 11
48.0815672741
 21
144.3268765552
 31
0.0
 11
48.0777775448
 21
144.3316141439
 31
0.0
 11
48.0739291824
 21
144.3363071218
 31
0.0
 11
48.0700229801
 21
144.3409544061
 31
0.0
 11
48.0660597575
 21
144.345554933
 31
0.0
 11
48.0620403603
 21
144.3501076583
 31
0.0
 11
48.0579656594
 21
144.3546115585
 31
0.0
 11
48.0538365506
 21
144.3590656313
 31
0.0
 11
48.0496539537
 21
144.3634688966
 31
0.0
 11
48.0454188119
 21
144.3678203969
 31
0.0
 11
48.0411320911
 21
144.3721191982
 31
0.0
 11
48.0367947792
 21
144.3763643908
 31
0.0
 11
48.0324078852
 21
144.3805550895
 31
0.0
 11
48.0279724387
 21
144.3846904348
 31
0.0
 11
48.0234894886
 21
144.3887695928
 31
0.0
 11
48.018960103
 21
144.3927917565
 31
0.0
 11
48.0143853678
 21
144.3967561457
 31
0.0
 11
48.0097663858
 21
144.4006620077
 31
0.0
 11
48.0051042764
 21
144.4045086179
 31
0.0
 11
48.0004001742
 21
144.40829528
 31
0.0
 11
47.9956552282
 21
144.4120213267
 31
0.0
 11
47.9908706011
 21
144.4156861195
 31
0.0
 11
47.9860474681
 21
144.4192890498
 31
0.0
 11
47.9811870163
 21
144.4228295384
 31
0.0
 11
47.9762904433
 21
144.4263070363
 31
0.0
 11
47.9713589569
 21
144.4297210247
 31
0.0
 11
47.9663937736
 21
144.4330710151
 31
0.0
 11
47.9613961179
 21
144.4363565499
 31
0.0
 11
47.9563672212
 21
144.4395772019
 31
0.0
 11
47.9513083213
 21
144.4427325746
 31
0.0
 11
47.9462206608
 21
144.4458223027
 31
0.0
 11
47.9411054867
 21
144.4488460513
 31
0.0
 11
47.9359640491
 21
144.4518035165
 31
0.0
 11
47.9307976007
 21
144.4546944253
 31
0.0
 11
47.9256073954
 21
144.4575185352
 31
0.0
 11
47.9203946877
 21
144.4602756341
 31
0.0
 11
47.9151607316
 21
144.4629655407
 31
0.0
 11
47.90990678
 21
144.4655881037
 31
0.0
 11
47.9046340835
 21
144.4681432017
 31
0.0
 11
47.8993438897
 21
144.4706307433
 31
0.0
 11
47.8940374423
 21
144.4730506665
 31
0.0
 11
47.8887159805
 21
144.4754029385
 31
0.0
 11
47.8833807377
 21
144.4776875555
 31
0.0
 11
47.8780329411
 21
144.4799045422
 31
0.0
 11
47.8726738109
 21
144.4820539513
 31
0.0
 11
47.8673045592
 21
144.4841358637
 31
0.0
 11
47.8619263897
 21
144.4861503871
 31
0.0
 11
47.8565404967
 21
144.4880976566
 31
0.0
 11
47.8511480644
 21
144.4899778336
 31
0.0
 11
47.8457502665
 21
144.4917911053
 31
0.0
 11
47.8403482651
 21
144.4935376846
 31
0.0
 11
47.8349432105
 21
144.4952178093
 31
0.0
 11
47.8295362402
 21
144.4968317415
 31
0.0
 11
47.8241284788
 21
144.4983797674
 31
0.0
 11
47.8187210368
 21
144.4998621964
 31
0.0
 11
47.8133150107
 21
144.5012793605
 31
0.0
 11
47.8079114821
 21
144.5026316141
 31
0.0
 11
47.8025115174
 21
144.5039193329
 31
0.0
 11
47.797116167
 21
144.5051429138
 31
0.0
 11
47.7917264655
 21
144.5063027736
 31
0.0
 11
47.7863434306
 21
144.5073993493
 31
0.0
 11
47.7809680632
 21
144.5084330966
 31
0.0
 11
47.7756013468
 21
144.5094044898
 31
0.0
 11
47.7702442472
 21
144.5103140207
 31
0.0
 11
47.7648977123
 21
144.5111621987
 31
0.0
 11
47.7595626716
 21
144.5119495492
 31
0.0
 11
47.7542400361
 21
144.5126766137
 31
0.0
 11
47.7489306981
 21
144.5133439489
 31
0.0
 11
47.7436355309
 21
144.5139521258
 31
0.0
 11
47.7383553886
 21
144.5145017294
 31
0.0
 11
47.7330911058
 21
144.5149933581
 31
0.0
  0
SPLINE
  5
27E
100
AcDbEntity
  8
0
100
AcDbSpline
 62
7
  6
CONTINUOUS
 70
4
 71
3
 72
8
 73
4
 74
33
 42
0.0000001
 43
0.0000001
 44
0.0000000001
 12
6.3324857767
 22
-2.1495080204
 32
0.0
 13
6.661580076
 23
-0.5866103759
 33
0.0
 40
0.0
 40
0.0
 40
0.0
 40
0.0
 40
1.0
 40
1.0
 40
1.0
 40
1.0
 10
41.1892314567
 20
145.8929127078
 30
0.0
 41
1.0
 10
43.3101781328
 20
145.1729755374
 30
0.0
 41
0.9952294492
 10
45.501920501
 20
144.7114674397
 30
0.0
 41
0.9952294492
 10
47.7330911058
 20
144.5149933581
 30
0.0
 41
1.0
 11
41.1892314567
 21
145.8929127078
 31
0.0
 11
41.3874139221
 21
145.8264652975
 31
0.0
 11
41.5861703593
 21
145.7614722523
 31
0.0
 11
41.7854847795
 21
145.6979407994
 31
0.0
 11
41.9853410753
 21
145.6358779321
 31
0.0
 11
42.1857230247
 21
145.575290407
 31
0.0
 11
42.3866142953
 21
145.5161847416
 31
0.0
 11
42.5879984493
 21
145.4585672126
 31
0.0
 11
42.7898589474
 21
145.4024438534
 31
0.0
 11
42.9921791536
 21
145.347820452
 31
0.0
 11
43.1949423394
 21
145.2947025494
 31
0.0
 11
43.398131689
 21
145.2430954377
 31
0.0
 11
43.6017303031
 21
145.1930041582
 31
0.0
 11
43.8057212044
 21
145.1444334999
 31
0.0
 11
44.0100873419
 21
145.0973879983
 31
0.0
 11
44.2148115956
 21
145.0518719332
 31
0.0
 11
44.4198767815
 21
145.0078893285
 31
0.0
 11
44.6252656561
 21
144.96544395
 31
0.0
 11
44.8309609216
 21
144.924539305
 31
0.0
 11
45.0369452305
 21
144.8851786412
 31
0.0
 11
45.2432011906
 21
144.8473649454
 31
0.0
 11
45.4497113698
 21
144.8111009434
 31
0.0
 11
45.6564583011
 21
144.7763890991
 31
0.0
 11
45.8634244874
 21
144.7432316137
 31
0.0
 11
46.0705924065
 21
144.7116304257
 31
0.0
 11
46.2779445162
 21
144.6815872104
 31
0.0
 11
46.4854632588
 21
144.6531033797
 31
0.0
 11
46.6931310664
 21
144.6261800821
 31
0.0
 11
46.900930366
 21
144.6008182026
 31
0.0
 11
47.1088435837
 21
144.577018363
 31
0.0
 11
47.3168531504
 21
144.5547809221
 31
0.0
 11
47.5249415063
 21
144.5341059758
 31
0.0
 11
47.7330911058
 21
144.5149933581
 31
0.0
  0
LINE
  5
27F
100
AcDbEntity
  8
0
100
AcDbLine
 62
7
  6
CONTINUOUS
 10
41.1892314567
 20
145.8929127078
 11
41.8320885995
 21
147.7867803626
  0
LINE
  5
280
100
AcDbEntity
  8
0
100
AcDbLine
 62
7
  6
CONTINUOUS
 10
41.8320885995
 20
147.7867803626
 11
41.8935116123
 21
147.7660162228
  0
SPLINE
  5
281
100
AcDbEntity
  8
0
100
AcDbSpline
 62
7
  6
CONTINUOUS
 70
4
 71
3
 72
8
 73
4
 74
65
 42
0.0000001
 43
0.0000001
 44
0.0000000001
 12
-0.3317985359
 22
0.111704185
 32
0.0
 13
0.0
 23
0.3500972628
 33
0.0
 40
0.0
 40
0.0
 40
0.0
 40
0.0
 40
1.0
 40
1.0
 40
1.0
 40
1.0
 10
41.8935116123
 20
147.7660162228
 30
0.0
 41
1.0
 10
41.7670752185
 20
147.8085826383
 30
0.0
 41
0.8747442777
 10
41.6892314567
 20
147.916926582
 30
0.0
 41
0.8747442777
 10
41.6892314567
 20
148.0503359573
 30
0.0
 41
1.0
 11
41.8935116123
 21
147.7660162228
 31
0.0
 11
41.8883284358
 21
147.7678141344
 31
0.0
 11
41.8831495615
 21
147.7697176551
 31
0.0
 11
41.8779779622
 21
147.7717275224
 31
0.0
 11
41.8728166693
 21
147.7738443709
 31
0.0
 11
41.8676687693
 21
147.776068728
 31
0.0
 11
41.8625373984
 21
147.7784010099
 31
0.0
 11
41.8574257387
 21
147.7808415181
 31
0.0
 11
41.8523370132
 21
147.783390436
 31
0.0
 11
41.84727448
 21
147.7860478251
 31
0.0
 11
41.8422414275
 21
147.788813623
 31
0.0
 11
41.8372411683
 21
147.7916876395
 31
0.0
 11
41.8322770337
 21
147.7946695552
 31
0.0
 11
41.827352367
 21
147.7977589188
 31
0.0
 11
41.8224705178
 21
147.8009551455
 31
0.0
 11
41.8176348349
 21
147.8042575157
 31
0.0
 11
41.8128486604
 21
147.8076651737
 31
0.0
 11
41.8081153224
 21
147.8111771274
 31
0.0
 11
41.8034381282
 21
147.8147922477
 31
0.0
 11
41.7988203578
 21
147.8185092689
 31
0.0
 11
41.7942652565
 21
147.822326789
 31
0.0
 11
41.7897760284
 21
147.8262432708
 31
0.0
 11
41.7853558288
 21
147.8302570433
 31
0.0
 11
41.7810077581
 21
147.8343663035
 31
0.0
 11
41.7767348543
 21
147.8385691185
 31
0.0
 11
41.7725400866
 21
147.8428634286
 31
0.0
 11
41.768426349
 21
147.8472470496
 31
0.0
 11
41.7643964533
 21
147.8517176769
 31
0.0
 11
41.7604531236
 21
147.8562728893
 31
0.0
 11
41.7565989897
 21
147.860910153
 31
0.0
 11
41.7528365816
 21
147.8656268263
 31
0.0
 11
41.7491683242
 21
147.8704201646
 31
0.0
 11
41.7455965317
 21
147.8752873259
 31
0.0
 11
41.7421234031
 21
147.8802253759
 31
0.0
 11
41.7387510176
 21
147.8852312945
 31
0.0
 11
41.7354813304
 21
147.8903019815
 31
0.0
 11
41.7323161688
 21
147.8954342631
 31
0.0
 11
41.7292572292
 21
147.9006248987
 31
0.0
 11
41.7263060738
 21
147.9058705874
 31
0.0
 11
41.7234641284
 21
147.9111679752
 31
0.0
 11
41.7207326798
 21
147.9165136615
 31
0.0
 11
41.7181128745
 21
147.9219042072
 31
0.0
 11
41.7156057175
 21
147.9273361407
 31
0.0
 11
41.7132120711
 21
147.9328059662
 31
0.0
 11
41.710932655
 21
147.9383101701
 31
0.0
 11
41.7087680459
 21
147.9438452288
 31
0.0
 11
41.7067186786
 21
147.9494076153
 31
0.0
 11
41.7047848461
 21
147.9549938065
 31
0.0
 11
41.7029667015
 21
147.9606002901
 31
0.0
 11
41.7012642597
 21
147.9662235713
 31
0.0
 11
41.699677399
 21
147.9718601793
 31
0.0
 11
41.6982058641
 21
147.977506674
 31
0.0
 11
41.6968492685
 21
147.9831596518
 31
0.0
 11
41.6956070975
 21
147.9888157516
 31
0.0
 11
41.6944787122
 21
147.9944716608
 31
0.0
 11
41.6934633525
 21
148.0001241204
 31
0.0
 11
41.6925601415
 21
148.0057699304
 31
0.0
 11
41.6917680894
 21
148.0114059541
 31
0.0
 11
41.6910860981
 21
148.0170291233
 31
0.0
 11
41.6905129657
 21
148.0226364422
 31
0.0
 11
41.6900473909
 21
148.0282249912
 31
0.0
 11
41.6896879787
 21
148.0337919306
 31
0.0
 11
41.6894332445
 21
148.0393345037
 31
0.0
 11
41.6892816197
 21
148.04485004
 31
0.0
 11
41.6892314567
 21
148.0503359573
 31
0.0
  0
LINE
  5
282
100
AcDbEntity
  8
0
100
AcDbLine
 62
7
  6
CONTINUOUS
 10
41.6892314567
 20
148.0503359573
 11
41.6892314567
 21
151.2970598749
  0
LINE
  5
283
100
AcDbEntity
  8
0
100
AcDbLine
 62
7
  6
CONTINUOUS
 10
42.4392314567
 20
151.2970598749
 11
41.6892314567
 21
151.2970598749
  0
LINE
  5
284
100
AcDbEntity
  8
0
100
AcDbLine
 62
7
  6
CONTINUOUS
 10
42.4392314567
 20
151.2970598749
 11
42.4392314567
 21
152.8870598749
  0
LINE
  5
285
100
AcDbEntity
  8
0
100
AcDbLine
 62
7
  6
CONTINUOUS
 10
42.4392314567
 20
152.8870598749
 11
41.6892314567
 21
154.2220598759
  0
LINE
  5
286
100
AcDbEntity
  8
0
100
AcDbLine
 62
7
  6
CONTINUOUS
 10
41.6892314567
 20
154.2220598759
 11
41.6892314567
 21
155.5570598749
  0
LINE
  5
287
100
AcDbEntity
  8
0
100
AcDbLine
 62
7
  6
CONTINUOUS
 10
41.6892314567
 20
155.5570598749
 11
36.1892314567
 21
155.5570598749
  0
SPLINE
  5
288
100
AcDbEntity
  8
0
100
AcDbSpline
 62
7
  6
CONTINUOUS
 70
4
 71
3
 72
8
 73
4
 74
127
 42
0.0000001
 43
0.0000001
 44
0.0000000001
 12
-0.4242640687
 22
0.0
 32
0.0
 13
0.0
 23
0.4242640687
 33
0.0
 40
0.0
 40
0.0
 40
0.0
 40
0.0
 40
1.0
 40
1.0
 40
1.0
 40
1.0
 10
36.1892314567
 20
155.5570598749
 30
0.0
 41
1.0
 10
36.0134955254
 20
155.5570598749
 30
0.0
 41
0.8047378541
 10
35.8892314567
 20
155.6813239436
 30
0.0
 41
0.8047378541
 10
35.8892314567
 20
155.8570598749
 30
0.0
 41
1.0
 11
36.1892314567
 21
155.5570598749
 31
0.0
 11
36.1825726735
 21
155.557133783
 31
0.0
 11
36.1792218228
 21
155.5572269093
 31
0.0
 11
36.1758573834
 21
155.5573581329
 31
0.0
 11
36.172479913
 21
155.5575279304
 31
0.0
 11
36.1690899848
 21
155.55773677
 31
0.0
 11
36.1656881876
 21
155.5579851109
 31
0.0
 11
36.1622751253
 21
155.5582734023
 31
0.0
 11
36.1588514174
 21
155.5586020835
 31
0.0
 11
36.1554176983
 21
155.558971583
 31
0.0
 11
36.1519746174
 21
155.5593823179
 31
0.0
 11
36.1485228391
 21
155.5598346935
 31
0.0
 11
36.1450630421
 21
155.5603291027
 31
0.0
 11
36.1415959196
 21
155.5608659256
 31
0.0
 11
36.1381221788
 21
155.5614455286
 31
0.0
 11
36.1346425409
 21
155.5620682644
 31
0.0
 11
36.1311577406
 21
155.5627344708
 31
0.0
 11
36.1276685257
 21
155.5634444708
 31
0.0
 11
36.124175657
 21
155.5641985717
 31
0.0
 11
36.1206799079
 21
155.5649970646
 31
0.0
 11
36.117182064
 21
155.5658402241
 31
0.0
 11
36.1136829225
 21
155.5667283076
 31
0.0
 11
36.1101832921
 21
155.5676615548
 31
0.0
 11
36.1066839922
 21
155.5686401874
 31
0.0
 11
36.1031858529
 21
155.5696644086
 31
0.0
 11
36.099689714
 21
155.5707344022
 31
0.0
 11
36.0961964249
 21
155.5718503329
 31
0.0
 11
36.0927068437
 21
155.5730123452
 31
0.0
 11
36.0892218372
 21
155.5742205636
 31
0.0
 11
36.0857422795
 21
155.5754750915
 31
0.0
 11
36.0822690524
 21
155.5767760115
 31
0.0
 11
36.0788030438
 21
155.5781233846
 31
0.0
 11
36.0753451479
 21
155.5795172499
 31
0.0
 11
36.071896264
 21
155.5809576247
 31
0.0
 11
36.0684572962
 21
155.5824445036
 31
0.0
 11
36.0650291525
 21
155.5839778586
 31
0.0
 11
36.0616127442
 21
155.5855576388
 31
0.0
 11
36.0582089851
 21
155.5871837701
 31
0.0
 11
36.054818791
 21
155.5888561551
 31
0.0
 11
36.0514430787
 21
155.5905746728
 31
0.0
 11
36.0480827656
 21
155.5923391787
 31
0.0
 11
36.0447387684
 21
155.5941495041
 31
0.0
 11
36.041412003
 21
155.5960054569
 31
0.0
 11
36.0381033834
 21
155.5979068208
 31
0.0
 11
36.0348138206
 21
155.5998533554
 31
0.0
 11
36.0315442227
 21
155.6018447965
 31
0.0
 11
36.0282954931
 21
155.6038808559
 31
0.0
 11
36.0250685306
 21
155.6059612215
 31
0.0
 11
36.0218642281
 21
155.6080855573
 31
0.0
 11
36.0186834718
 21
155.6102535037
 31
0.0
 11
36.0155271407
 21
155.6124646774
 31
0.0
 11
36.0123961058
 21
155.6147186719
 31
0.0
 11
36.009291229
 21
155.6170150572
 31
0.0
 11
36.0062133628
 21
155.6193533808
 31
0.0
 11
36.0031633491
 21
155.6217331672
 31
0.0
 11
36.0001420187
 21
155.6241539186
 31
0.0
 11
35.9971501906
 21
155.6266151153
 31
0.0
 11
35.9941886711
 21
155.6291162156
 31
0.0
 11
35.9912582532
 21
155.6316566568
 31
0.0
 11
35.9883597158
 21
155.6342358552
 31
0.0
 11
35.9854938233
 21
155.6368532066
 31
0.0
 11
35.9826613244
 21
155.6395080869
 31
0.0
 11
35.979862952
 21
155.6421998524
 31
0.0
 11
35.9770994223
 21
155.6449278405
 31
0.0
 11
35.9743714342
 21
155.6476913702
 31
0.0
 11
35.9716796687
 21
155.6504897426
 31
0.0
 11
35.9690247884
 21
155.6533222415
 31
0.0
 11
35.966407437
 21
155.6561881341
 31
0.0
 11
35.9638282386
 21
155.6590866714
 31
0.0
 11
35.9612877974
 21
155.6620170894
 31
0.0
 11
35.958786697
 21
155.6649786089
 31
0.0
 11
35.9563255004
 21
155.667970437
 31
0.0
 11
35.953904749
 21
155.6709917673
 31
0.0
 11
35.9515249626
 21
155.6740417811
 31
0.0
 11
35.949186639
 21
155.6771196473
 31
0.0
 11
35.9468902536
 21
155.680224524
 31
0.0
 11
35.9446362592
 21
155.6833555589
 31
0.0
 11
35.9424250855
 21
155.68651189
 31
0.0
 11
35.9402571391
 21
155.6896926463
 31
0.0
 11
35.9381328033
 21
155.6928969489
 31
0.0
 11
35.9360524377
 21
155.6961239114
 31
0.0
 11
35.9340163783
 21
155.6993726409
 31
0.0
 11
35.9320249371
 21
155.7026422389
 31
0.0
 11
35.9300784025
 21
155.7059318016
 31
0.0
 11
35.9281770387
 21
155.7092404213
 31
0.0
 11
35.9263210859
 21
155.7125671867
 31
0.0
 11
35.9245107604
 21
155.7159111838
 31
0.0
 11
35.9227462546
 21
155.719271497
 31
0.0
 11
35.9210277369
 21
155.7226472092
 31
0.0
 11
35.9193553519
 21
155.7260374033
 31
0.0
 11
35.9177292205
 21
155.7294411624
 31
0.0
 11
35.9161494403
 21
155.7328575707
 31
0.0
 11
35.9146160853
 21
155.7362857144
 31
0.0
 11
35.9131292065
 21
155.7397246822
 31
0.0
 11
35.9116888317
 21
155.7431735661
 31
0.0
 11
35.9102949663
 21
155.746631462
 31
0.0
 11
35.9089475933
 21
155.7500974706
 31
0.0
 11
35.9076466733
 21
155.7535706978
 31
0.0
 11
35.9063921454
 21
155.7570502554
 31
0.0
 11
35.905183927
 21
155.760535262
 31
0.0
 11
35.9040219146
 21
155.7640248431
 31
0.0
 11
35.902905984
 21
155.7675181322
 31
0.0
 11
35.9018359903
 21
155.7710142711
 31
0.0
 11
35.9008117692
 21
155.7745124104
 31
0.0
 11
35.8998331366
 21
155.7780117103
 31
0.0
 11
35.8988998893
 21
155.7815113407
 31
0.0
 11
35.8980118058
 21
155.7850104822
 31
0.0
 11
35.8971686463
 21
155.7885083262
 31
0.0
 11
35.8963701534
 21
155.7920040752
 31
0.0
 11
35.8956160526
 21
155.7954969439
 31
0.0
 11
35.8949060526
 21
155.7989861588
 31
0.0
 11
35.8942398461
 21
155.8024709592
 31
0.0
 11
35.8936171104
 21
155.8059505971
 31
0.0
 11
35.8930375073
 21
155.8094243378
 31
0.0
 11
35.8925006845
 21
155.8128914604
 31
0.0
 11
35.8920062753
 21
155.8163512574
 31
0.0
 11
35.8915538997
 21
155.8198030357
 31
0.0
 11
35.8911431648
 21
155.8232461165
 31
0.0
 11
35.8907736653
 21
155.8266798356
 31
0.0
 11
35.8904449841
 21
155.8301035435
 31
0.0
 11
35.8901566926
 21
155.8335166058
 31
0.0
 11
35.8899083518
 21
155.8369184031
 31
0.0
 11
35.8896995121
 21
155.8403083313
 31
0.0
 11
35.8895297146
 21
155.8436858016
 31
0.0
 11
35.8893984911
 21
155.847050241
 31
0.0
 11
35.8893053647
 21
155.8504010918
 31
0.0
 11
35.8892314567
 21
155.8570598749
 31
0.0
  0
LINE
  5
289
100
AcDbEntity
  8
0
100
AcDbLine
 62
7
  6
CONTINUOUS
 10
35.8892314567
 20
155.8570598749
 11
35.8892314567
 21
159.3070598742
  0
SPLINE
  5
28A
100
AcDbEntity
  8
0
100
AcDbSpline
 62
7
  6
CONTINUOUS
 70
4
 71
3
 72
8
 73
4
 74
33
 42
0.0000001
 43
0.0000001
 44
0.0000000001
 12
-4.5438203599
 22
-0.4001231148
 32
0.0
 13
-4.5438203599
 23
0.4001231148
 33
0.0
 40
0.0
 40
0.0
 40
0.0
 40
0.0
 40
1.0
 40
1.0
 40
1.0
 40
1.0
 10
52.469933211
 20
146.5072838236
 30
0.0
 41
1.0
 10
50.9514240916
 20
146.3735658175
 30
0.0
 41
0.9974301552
 10
49.4270388217
 20
146.3735658175
 30
0.0
 41
0.9974301552
 10
47.9085297023
 20
146.5072838236
 30
0.0
 41
1.0
 11
52.469933211
 21
146.5072838236
 31
0.0
 11
52.3278885014
 21
146.4951678937
 31
0.0
 11
52.185747379
 21
146.4838285143
 31
0.0
 11
52.0435162058
 21
146.4732667071
 31
0.0
 11
51.9012013574
 21
146.4634834241
 31
0.0
 11
51.7588092218
 21
146.4544795477
 31
0.0
 11
51.6163461986
 21
146.4462558905
 31
0.0
 11
51.4738186981
 21
146.4388131952
 31
0.0
 11
51.3312331404
 21
146.4321521339
 31
0.0
 11
51.1885959541
 21
146.4262733086
 31
0.0
 11
51.045913576
 21
146.4211772509
 31
0.0
 11
50.9031924491
 21
146.4168644216
 31
0.0
 11
50.7604390229
 21
146.4133352107
 31
0.0
 11
50.6176597512
 21
146.4105899377
 31
0.0
 11
50.474861092
 21
146.4086288509
 31
0.0
 11
50.3320495062
 21
146.4074521278
 31
0.0
 11
50.1892314567
 21
146.4070598749
 31
0.0
 11
50.0464134071
 21
146.4074521278
 31
0.0
 11
49.9036018213
 21
146.4086288509
 31
0.0
 11
49.7608031622
 21
146.4105899377
 31
0.0
 11
49.6180238905
 21
146.4133352107
 31
0.0
 11
49.4752704642
 21
146.4168644216
 31
0.0
 11
49.3325493374
 21
146.4211772509
 31
0.0
 11
49.1898669592
 21
146.4262733086
 31
0.0
 11
49.047229773
 21
146.4321521339
 31
0.0
 11
48.9046442152
 21
146.4388131952
 31
0.0
 11
48.7621167148
 21
146.4462558905
 31
0.0
 11
48.6196536915
 21
146.4544795477
 31
0.0
 11
48.4772615559
 21
146.4634834241
 31
0.0
 11
48.3349467075
 21
146.4732667071
 31
0.0
 11
48.1927155344
 21
146.4838285143
 31
0.0
 11
48.050574412
 21
146.4951678937
 31
0.0
 11
47.9085297023
 21
146.5072838236
 31
0.0
  0
SPLINE
  5
28B
100
AcDbEntity
  8
0
100
AcDbSpline
 62
7
  6
CONTINUOUS
 70
4
 71
3
 72
8
 73
4
 74
129
 42
0.0000001
 43
0.0000001
 44
0.0000000001
 12
-0.0
 22
3.3769081675
 32
0.0
 13
-3.3638909725
 23
0.2962200147
 33
0.0
 40
0.0
 40
0.0
 40
0.0
 40
0.0
 40
1.0
 40
1.0
 40
1.0
 40
1.0
 10
50.1892314567
 20
144.0169207417
 30
0.0
 41
1.0
 10
50.1892314567
 20
145.3813629176
 30
0.0
 41
0.824978937
 10
49.2677122711
 20
146.3875959134
 30
0.0
 41
0.824978937
 10
47.9085297023
 20
146.5072838236
 30
0.0
 41
1.0
 11
50.1892314567
 21
144.0169207417
 31
0.0
 11
50.1890916848
 21
144.0433563194
 31
0.0
 11
50.1886701113
 21
144.0698963168
 31
0.0
 11
50.1879633905
 21
144.0965368389
 31
0.0
 11
50.1869682339
 21
144.1232738883
 31
0.0
 11
50.1856814138
 21
144.150103366
 31
0.0
 11
50.1840997667
 21
144.177021072
 31
0.0
 11
50.1822201961
 21
144.2040227064
 31
0.0
 11
50.1800396764
 21
144.2311038696
 31
0.0
 11
50.1775552562
 21
144.2582600641
 31
0.0
 11
50.1747640613
 21
144.285486695
 31
0.0
 11
50.1716632983
 21
144.3127790719
 31
0.0
 11
50.168250258
 21
144.3401324098
 31
0.0
 11
50.1645223188
 21
144.3675418306
 31
0.0
 11
50.1604769495
 21
144.3950023653
 31
0.0
 11
50.1561117134
 21
144.4225089552
 31
0.0
 11
50.151424271
 21
144.450056454
 31
0.0
 11
50.1464123833
 21
144.4776396298
 31
0.0
 11
50.1410739153
 21
144.5052531675
 31
0.0
 11
50.1354068388
 21
144.5328916708
 31
0.0
 11
50.1294092359
 21
144.5605496646
 31
0.0
 11
50.1230793015
 21
144.5882215978
 31
0.0
 11
50.1164153469
 21
144.6159018457
 31
0.0
 11
50.1094158023
 21
144.6435847131
 31
0.0
 11
50.1020792199
 21
144.6712644369
 31
0.0
 11
50.0944042765
 21
144.6989351894
 31
0.0
 11
50.0863897763
 21
144.7265910812
 31
0.0
 11
50.0780346535
 21
144.7542261648
 31
0.0
 11
50.0693379748
 21
144.7818344376
 31
0.0
 11
50.0602989419
 21
144.8094098461
 31
0.0
 11
50.0509168935
 21
144.8369462885
 31
0.0
 11
50.0411913079
 21
144.8644376194
 31
0.0
 11
50.0311218049
 21
144.8918776532
 31
0.0
 11
50.0207081476
 21
144.9192601677
 31
0.0
 11
50.0099502445
 21
144.9465789089
 31
0.0
 11
49.9988481511
 21
144.9738275945
 31
0.0
 11
49.9874020714
 21
145.0009999182
 31
0.0
 11
49.9756123595
 21
145.0280895542
 31
0.0
 11
49.9634795206
 21
145.0550901614
 31
0.0
 11
49.9510042124
 21
145.0819953877
 31
0.0
 11
49.938187246
 21
145.1087988748
 31
0.0
 11
49.9250295868
 21
145.1354942624
 31
0.0
 11
49.9115323549
 21
145.1620751932
 31
0.0
 11
49.8976968259
 21
145.1885353169
 31
0.0
 11
49.8835244312
 21
145.2148682957
 31
0.0
 11
49.8690167579
 21
145.2410678082
 31
0.0
 11
49.8541755493
 21
145.2671275549
 31
0.0
 11
49.8390027043
 21
145.2930412622
 31
0.0
 11
49.8235002773
 21
145.3188026877
 31
0.0
 11
49.8076704775
 21
145.3444056249
 31
0.0
 11
49.7915156684
 21
145.3698439077
 31
0.0
 11
49.775038367
 21
145.3951114153
 31
0.0
 11
49.7582412425
 21
145.420202077
 31
0.0
 11
49.7411271153
 21
145.445109877
 31
0.0
 11
49.7236989555
 21
145.4698288586
 31
0.0
 11
49.7059598816
 21
145.4943531294
 31
0.0
 11
49.6879131583
 21
145.5186768656
 31
0.0
 11
49.6695621951
 21
145.5427943165
 31
0.0
 11
49.6509105441
 21
145.5666998092
 31
0.0
 11
49.6319618975
 21
145.5903877526
 31
0.0
 11
49.6127200856
 21
145.6138526421
 31
0.0
 11
49.593189074
 21
145.6370890637
 31
0.0
 11
49.573372961
 21
145.660091698
 31
0.0
 11
49.5532759749
 21
145.6828553245
 31
0.0
 11
49.5329024704
 21
145.7053748255
 31
0.0
 11
49.5122569264
 21
145.7276451896
 31
0.0
 11
49.4913439419
 21
145.749661516
 31
0.0
 11
49.4701682329
 21
145.7714190174
 31
0.0
 11
49.4487346289
 21
145.792913024
 31
0.0
 11
49.4270480694
 21
145.8141389869
 31
0.0
 11
49.4051135995
 21
145.8350924806
 31
0.0
 11
49.3829363666
 21
145.8557692069
 31
0.0
 11
49.3605216165
 21
145.8761649972
 31
0.0
 11
49.3378746885
 21
145.8962758157
 31
0.0
 11
49.3150010122
 21
145.9160977615
 31
0.0
 11
49.2919061024
 21
145.9356270715
 31
0.0
 11
49.2685955555
 21
145.9548601225
 31
0.0
 11
49.2450750444
 21
145.9737934332
 31
0.0
 11
49.2213503144
 21
145.9924236665
 31
0.0
 11
49.1974271788
 21
146.0107476308
 31
0.0
 11
49.173311514
 21
146.0287622821
 31
0.0
 11
49.1490092547
 21
146.0464647251
 31
0.0
 11
49.1245263901
 21
146.0638522145
 31
0.0
 11
49.0998689581
 21
146.0809221564
 31
0.0
 11
49.0750430415
 21
146.0976721088
 31
0.0
 11
49.0500547627
 21
146.1140997826
 31
0.0
 11
49.0249102795
 21
146.1302030424
 31
0.0
 11
48.9996157798
 21
146.1459799062
 31
0.0
 11
48.9741774773
 21
146.1614285464
 31
0.0
 11
48.9486016067
 21
146.1765472894
 31
0.0
 11
48.922894419
 21
146.1913346157
 31
0.0
 11
48.897062177
 21
146.2057891597
 31
0.0
 11
48.8711111505
 21
146.2199097089
 31
0.0
 11
48.8450476118
 21
146.2336952037
 31
0.0
 11
48.8188778315
 21
146.2471447367
 31
0.0
 11
48.7926080734
 21
146.2602575514
 31
0.0
 11
48.7662445907
 21
146.2730330415
 31
0.0
 11
48.7397936217
 21
146.2854707494
 31
0.0
 11
48.713261385
 21
146.2975703654
 31
0.0
 11
48.6866540758
 21
146.3093317256
 31
0.0
 11
48.6599778618
 21
146.3207548106
 31
0.0
 11
48.633238879
 21
146.3318397439
 31
0.0
 11
48.6064432277
 21
146.3425867898
 31
0.0
 11
48.5795969693
 21
146.3529963514
 31
0.0
 11
48.5527061218
 21
146.3630689687
 31
0.0
 11
48.5257766567
 21
146.3728053162
 31
0.0
 11
48.4988144955
 21
146.3822062009
 31
0.0
 11
48.4718255059
 21
146.3912725594
 31
0.0
 11
48.4448154989
 21
146.4000054559
 31
0.0
 11
48.4177902258
 21
146.4084060793
 31
0.0
 11
48.3907553745
 21
146.4164757406
 31
0.0
 11
48.3637165672
 21
146.4242158702
 31
0.0
 11
48.3366793573
 21
146.4316280151
 31
0.0
 11
48.3096492269
 21
146.4387138358
 31
0.0
 11
48.282631584
 21
146.4454751037
 31
0.0
 11
48.2556317603
 21
146.4519136978
 31
0.0
 11
48.2286550086
 21
146.4580316019
 31
0.0
 11
48.201706501
 21
146.4638309013
 31
0.0
 11
48.1747913266
 21
146.4693137797
 31
0.0
 11
48.1479144896
 21
146.4744825162
 31
0.0
 11
48.1210809075
 21
146.4793394819
 31
0.0
 11
48.0942954095
 21
146.4838871367
 31
0.0
 11
48.0675627348
 21
146.4881280264
 31
0.0
 11
48.0408875312
 21
146.492064779
 31
0.0
 11
48.0142743539
 21
146.4957001016
 31
0.0
 11
47.9877276641
 21
146.4990367773
 31
0.0
 11
47.9612518281
 21
146.5020776618
 31
0.0
 11
47.9348511163
 21
146.5048256802
 31
0.0
 11
47.9085297023
 21
146.5072838236
 31
0.0
  0
SPLINE
  5
28C
100
AcDbEntity
  8
0
100
AcDbSpline
 62
7
  6
CONTINUOUS
 70
4
 71
3
 72
8
 73
4
 74
129
 42
0.0000001
 43
0.0000001
 44
0.0000000001
 12
-0.0
 22
3.3769081675
 32
0.0
 13
3.3638909725
 23
0.2962200147
 33
0.0
 40
0.0
 40
0.0
 40
0.0
 40
0.0
 40
1.0
 40
1.0
 40
1.0
 40
1.0
 10
50.1892314567
 20
144.0169207417
 30
0.0
 41
1.0
 10
50.1892314567
 20
145.3813629176
 30
0.0
 41
0.824978937
 10
51.1107506422
 20
146.3875959134
 30
0.0
 41
0.824978937
 10
52.469933211
 20
146.5072838236
 30
0.0
 41
1.0
 11
50.1892314567
 21
144.0169207417
 31
0.0
 11
50.1893712285
 21
144.0433563194
 31
0.0
 11
50.189792802
 21
144.0698963168
 31
0.0
 11
50.1904995228
 21
144.0965368389
 31
0.0
 11
50.1914946794
 21
144.1232738883
 31
0.0
 11
50.1927814995
 21
144.150103366
 31
0.0
 11
50.1943631467
 21
144.177021072
 31
0.0
 11
50.1962427172
 21
144.2040227064
 31
0.0
 11
50.1984232369
 21
144.2311038696
 31
0.0
 11
50.2009076571
 21
144.2582600641
 31
0.0
 11
50.203698852
 21
144.285486695
 31
0.0
 11
50.206799615
 21
144.3127790719
 31
0.0
 11
50.2102126553
 21
144.3401324098
 31
0.0
 11
50.2139405946
 21
144.3675418306
 31
0.0
 11
50.2179859638
 21
144.3950023653
 31
0.0
 11
50.2223511999
 21
144.4225089552
 31
0.0
 11
50.2270386424
 21
144.450056454
 31
0.0
 11
50.23205053
 21
144.4776396298
 31
0.0
 11
50.237388998
 21
144.5052531675
 31
0.0
 11
50.2430560745
 21
144.5328916708
 31
0.0
 11
50.2490536774
 21
144.5605496646
 31
0.0
 11
50.2553836118
 21
144.5882215978
 31
0.0
 11
50.2620475664
 21
144.6159018457
 31
0.0
 11
50.269047111
 21
144.6435847131
 31
0.0
 11
50.2763836934
 21
144.6712644369
 31
0.0
 11
50.2840586368
 21
144.6989351894
 31
0.0
 11
50.292073137
 21
144.7265910812
 31
0.0
 11
50.3004282598
 21
144.7542261648
 31
0.0
 11
50.3091249385
 21
144.7818344376
 31
0.0
 11
50.3181639714
 21
144.8094098461
 31
0.0
 11
50.3275460198
 21
144.8369462885
 31
0.0
 11
50.3372716054
 21
144.8644376194
 31
0.0
 11
50.3473411084
 21
144.8918776532
 31
0.0
 11
50.3577547657
 21
144.9192601677
 31
0.0
 11
50.3685126688
 21
144.9465789089
 31
0.0
 11
50.3796147622
 21
144.9738275945
 31
0.0
 11
50.3910608419
 21
145.0009999182
 31
0.0
 11
50.4028505539
 21
145.0280895542
 31
0.0
 11
50.4149833928
 21
145.0550901614
 31
0.0
 11
50.4274587009
 21
145.0819953877
 31
0.0
 11
50.4402756673
 21
145.1087988748
 31
0.0
 11
50.4534333265
 21
145.1354942624
 31
0.0
 11
50.4669305584
 21
145.1620751932
 31
0.0
 11
50.4807660874
 21
145.1885353169
 31
0.0
 11
50.4949384821
 21
145.2148682957
 31
0.0
 11
50.5094461554
 21
145.2410678082
 31
0.0
 11
50.524287364
 21
145.2671275549
 31
0.0
 11
50.539460209
 21
145.2930412622
 31
0.0
 11
50.554962636
 21
145.3188026877
 31
0.0
 11
50.5707924358
 21
145.3444056249
 31
0.0
 11
50.5869472449
 21
145.3698439077
 31
0.0
 11
50.6034245463
 21
145.3951114153
 31
0.0
 11
50.6202216708
 21
145.420202077
 31
0.0
 11
50.637335798
 21
145.445109877
 31
0.0
 11
50.6547639578
 21
145.4698288586
 31
0.0
 11
50.6725030317
 21
145.4943531294
 31
0.0
 11
50.690549755
 21
145.5186768656
 31
0.0
 11
50.7089007182
 21
145.5427943165
 31
0.0
 11
50.7275523692
 21
145.5666998092
 31
0.0
 11
50.7465010158
 21
145.5903877526
 31
0.0
 11
50.7657428277
 21
145.6138526421
 31
0.0
 11
50.7852738393
 21
145.6370890637
 31
0.0
 11
50.8050899523
 21
145.660091698
 31
0.0
 11
50.8251869385
 21
145.6828553245
 31
0.0
 11
50.8455604429
 21
145.7053748255
 31
0.0
 11
50.8662059869
 21
145.7276451896
 31
0.0
 11
50.8871189715
 21
145.749661516
 31
0.0
 11
50.9082946805
 21
145.7714190174
 31
0.0
 11
50.9297282844
 21
145.792913024
 31
0.0
 11
50.951414844
 21
145.8141389869
 31
0.0
 11
50.9733493139
 21
145.8350924806
 31
0.0
 11
50.9955265467
 21
145.8557692069
 31
0.0
 11
51.0179412968
 21
145.8761649972
 31
0.0
 11
51.0405882248
 21
145.8962758157
 31
0.0
 11
51.0634619011
 21
145.9160977615
 31
0.0
 11
51.0865568109
 21
145.9356270715
 31
0.0
 11
51.1098673578
 21
145.9548601225
 31
0.0
 11
51.133387869
 21
145.9737934332
 31
0.0
 11
51.1571125989
 21
145.9924236665
 31
0.0
 11
51.1810357345
 21
146.0107476308
 31
0.0
 11
51.2051513994
 21
146.0287622821
 31
0.0
 11
51.2294536586
 21
146.0464647251
 31
0.0
 11
51.2539365233
 21
146.0638522145
 31
0.0
 11
51.2785939552
 21
146.0809221564
 31
0.0
 11
51.3034198719
 21
146.0976721088
 31
0.0
 11
51.3284081506
 21
146.1140997826
 31
0.0
 11
51.3535526338
 21
146.1302030424
 31
0.0
 11
51.3788471336
 21
146.1459799062
 31
0.0
 11
51.4042854361
 21
146.1614285464
 31
0.0
 11
51.4298613067
 21
146.1765472894
 31
0.0
 11
51.4555684943
 21
146.1913346157
 31
0.0
 11
51.4814007363
 21
146.2057891597
 31
0.0
 11
51.5073517628
 21
146.2199097089
 31
0.0
 11
51.5334153015
 21
146.2336952037
 31
0.0
 11
51.5595850818
 21
146.2471447367
 31
0.0
 11
51.5858548399
 21
146.2602575514
 31
0.0
 11
51.6122183226
 21
146.2730330415
 31
0.0
 11
51.6386692916
 21
146.2854707494
 31
0.0
 11
51.6652015283
 21
146.2975703654
 31
0.0
 11
51.6918088375
 21
146.3093317256
 31
0.0
 11
51.7184850515
 21
146.3207548106
 31
0.0
 11
51.7452240344
 21
146.3318397439
 31
0.0
 11
51.7720196856
 21
146.3425867898
 31
0.0
 11
51.798865944
 21
146.3529963514
 31
0.0
 11
51.8257567915
 21
146.3630689687
 31
0.0
 11
51.8526862566
 21
146.3728053162
 31
0.0
 11
51.8796484178
 21
146.3822062009
 31
0.0
 11
51.9066374075
 21
146.3912725594
 31
0.0
 11
51.9336474144
 21
146.4000054559
 31
0.0
 11
51.9606726875
 21
146.4084060793
 31
0.0
 11
51.9877075388
 21
146.4164757406
 31
0.0
 11
52.0147463461
 21
146.4242158702
 31
0.0
 11
52.041783556
 21
146.4316280151
 31
0.0
 11
52.0688136864
 21
146.4387138358
 31
0.0
 11
52.0958313293
 21
146.4454751037
 31
0.0
 11
52.1228311531
 21
146.4519136978
 31
0.0
 11
52.1498079048
 21
146.4580316019
 31
0.0
 11
52.1767564124
 21
146.4638309013
 31
0.0
 11
52.2036715867
 21
146.4693137797
 31
0.0
 11
52.2305484237
 21
146.4744825162
 31
0.0
 11
52.2573820058
 21
146.4793394819
 31
0.0
 11
52.2841675038
 21
146.4838871367
 31
0.0
 11
52.3109001785
 21
146.4881280264
 31
0.0
 11
52.3375753821
 21
146.492064779
 31
0.0
 11
52.3641885594
 21
146.4957001016
 31
0.0
 11
52.3907352493
 21
146.4990367773
 31
0.0
 11
52.4172110853
 21
146.5020776618
 31
0.0
 11
52.4436117971
 21
146.5048256802
 31
0.0
 11
52.469933211
 21
146.5072838236
 31
0.0
  0
LINE
  5
28D
100
AcDbEntity
  8
0
100
AcDbLine
 62
7
  6
CONTINUOUS
 10
52.1892314567
 20
130.0570598749
 11
52.1892314567
 21
124.9070598749
  0
LINE
  5
28E
100
AcDbEntity
  8
0
100
AcDbLine
 62
7
  6
CONTINUOUS
 10
52.1892314567
 20
124.9070598749
 11
50.1892314567
 21
124.9070598749
  0
LINE
  5
28F
100
AcDbEntity
  8
0
100
AcDbLine
 62
7
  6
CONTINUOUS
 10
50.1892314567
 20
124.9070598749
 11
48.1892314567
 21
124.9070598749
  0
LINE
  5
290
100
AcDbEntity
  8
0
100
AcDbLine
 62
7
  6
CONTINUOUS
 10
48.1892314567
 20
130.0570598749
 11
48.1892314567
 21
124.9070598749
  0
LINE
  5
291
100
AcDbEntity
  8
0
100
AcDbLine
 62
7
  6
CONTINUOUS
 10
48.1892314567
 20
130.0570598749
 11
50.1892314567
 21
130.0570598749
  0
LINE
  5
292
100
AcDbEntity
  8
0
100
AcDbLine
 62
7
  6
CONTINUOUS
 10
50.1892314567
 20
130.0570598749
 11
52.1892314567
 21
130.0570598749
  0
HATCH
  5
293
100
AcDbEntity
  8
0
100
AcDbHatch
 62
2
  6
CONTINUOUS
 10
0.0
 20
0.0
 30
0.0
210
0.0
220
0.0
230
1.0
  2
A
 70
0
 71
1
 91
3
 92
1
 93
44
 72
1
 10
61.9892314567
 20
189.6920598749
 11
63.4892314567
 21
189.6920598749
 72
1
 10
63.4892314567
 20
189.2570598749
 11
63.4892314567
 21
189.6920598749
 72
1
 10
66.4892314567
 20
189.2570598749
 11
63.4892314567
 21
189.2570598749
 72
1
 10
66.4892314567
 20
189.2570598749
 11
66.4892314567
 21
189.6920598749
 72
1
 10
66.4892314567
 20
189.6920598749
 11
67.9892314567
 21
189.6920598749
 72
1
 10
67.9892314567
 20
189.2570598749
 11
67.9892314567
 21
189.6920598749
 72
1
 10
69.6892314567
 20
189.2570598749
 11
67.9892314567
 21
189.2570598749
 72
4
 94
3
 73
1
 74
0
 95
8
 96
4
 40
0.0
 40
0.0
 40
0.0
 40
0.0
 40
1.0
 40
1.0
 40
1.0
 40
1.0
 10
69.9892314567
 20
188.9570598749
 42
1.0
 10
69.9892314567
 20
189.1327958062
 42
0.8047378541
 10
69.8649673879
 20
189.2570598749
 42
0.8047378541
 10
69.6892314567
 20
189.2570598749
 42
1.0
 72
1
 10
69.9892314567
 20
185.5070598756
 11
69.9892314567
 21
188.9570598749
 72
4
 94
3
 73
1
 74
0
 95
8
 96
4
 40
0.0
 40
0.0
 40
0.0
 40
0.0
 40
1.0
 40
1.0
 40
1.0
 40
1.0
 10
69.3892314567
 20
184.9070598756
 42
1.0
 10
69.7407033192
 20
184.9070598756
 42
0.8047378541
 10
69.9892314567
 20
185.155588013
 42
0.8047378541
 10
69.9892314567
 20
185.5070598756
 42
1.0
 72
1
 10
69.3892314567
 20
184.9070598756
 11
36.4892314567
 21
184.9070598756
 72
4
 94
3
 73
1
 74
0
 95
8
 96
4
 40
0.0
 40
0.0
 40
0.0
 40
0.0
 40
1.0
 40
1.0
 40
1.0
 40
1.0
 10
35.8892314567
 20
185.5070598756
 42
1.0
 10
35.8892314567
 20
185.155588013
 42
0.8047378541
 10
36.1377595941
 20
184.9070598756
 42
0.8047378541
 10
36.4892314567
 20
184.9070598756
 42
1.0
 72
1
 10
35.8892314567
 20
185.5070598756
 11
35.8892314567
 21
188.9570598749
 72
4
 94
3
 73
1
 74
0
 95
8
 96
4
 40
0.0
 40
0.0
 40
0.0
 40
0.0
 40
1.0
 40
1.0
 40
1.0
 40
1.0
 10
36.1892314567
 20
189.2570598749
 42
1.0
 10
36.0134955254
 20
189.2570598749
 42
0.8047378541
 10
35.8892314567
 20
189.1327958062
 42
0.8047378541
 10
35.8892314567
 20
188.9570598749
 42
1.0
 72
1
 10
41.6892314567
 20
189.2570598749
 11
36.1892314567
 21
189.2570598749
 72
1
 10
41.6892314567
 20
189.2570598749
 11
41.6892314567
 21
190.5920598739
 72
1
 10
42.4392314567
 20
191.9270598749
 11
41.6892314567
 21
190.5920598739
 72
1
 10
42.4392314567
 20
191.9270598749
 11
42.4392314567
 21
193.5170598749
 72
1
 10
42.4392314567
 20
193.5170598749
 11
41.6892314567
 21
193.5170598749
 72
1
 10
41.6892314567
 20
193.5170598749
 11
41.6892314567
 21
196.7637837925
 72
4
 94
3
 73
1
 74
0
 95
8
 96
4
 40
0.0
 40
0.0
 40
0.0
 40
0.0
 40
1.0
 40
1.0
 40
1.0
 40
1.0
 10
41.8935116123
 20
197.048103527
 42
1.0
 10
41.7670752185
 20
197.0055371115
 42
0.8747442777
 10
41.6892314567
 20
196.8971931678
 42
0.8747442777
 10
41.6892314567
 20
196.7637837925
 42
1.0
 72
1
 10
41.8320885995
 20
197.0273393872
 11
41.8935116123
 21
197.048103527
 72
1
 10
41.1892314567
 20
198.921207042
 11
41.8320885995
 21
197.0273393872
 72
4
 94
3
 73
1
 74
0
 95
8
 96
4
 40
0.0
 40
0.0
 40
0.0
 40
0.0
 40
1.0
 40
1.0
 40
1.0
 40
1.0
 10
41.1892314567
 20
198.921207042
 42
1.0
 10
43.3101781328
 20
199.6411442124
 42
0.9952294492
 10
45.501920501
 20
200.1026523101
 42
0.9952294492
 10
47.7330911058
 20
200.2991263917
 42
1.0
 72
4
 94
3
 73
1
 74
0
 95
8
 96
4
 40
0.0
 40
0.0
 40
0.0
 40
0.0
 40
1.0
 40
1.0
 40
1.0
 40
1.0
 10
48.1892314567
 20
200.797199008
 42
1.0
 10
48.1892314567
 20
200.5243105729
 42
0.824978937
 10
48.0049276195
 20
200.3230639737
 42
0.824978937
 10
47.7330911058
 20
200.2991263917
 42
1.0
 72
1
 10
48.1892314567
 20
219.9070598749
 11
48.1892314567
 21
200.797199008
 72
1
 10
50.1892314567
 20
219.9070598749
 11
48.1892314567
 21
219.9070598749
 72
1
 10
52.1892314567
 20
219.9070598749
 11
50.1892314567
 21
219.9070598749
 72
1
 10
52.1892314567
 20
219.9070598749
 11
52.1892314567
 21
200.797199008
 72
4
 94
3
 73
1
 74
0
 95
8
 96
4
 40
0.0
 40
0.0
 40
0.0
 40
0.0
 40
1.0
 40
1.0
 40
1.0
 40
1.0
 10
52.1892314567
 20
200.797199008
 42
1.0
 10
52.1892314567
 20
200.5243105729
 42
0.824978937
 10
52.3735352938
 20
200.3230639737
 42
0.824978937
 10
52.6453718075
 20
200.2991263917
 42
1.0
 72
4
 94
3
 73
1
 74
0
 95
8
 96
4
 40
0.0
 40
0.0
 40
0.0
 40
0.0
 40
1.0
 40
1.0
 40
1.0
 40
1.0
 10
59.1892314567
 20
198.921207042
 42
1.0
 10
57.0682847805
 20
199.6411442124
 42
0.9952294492
 10
54.8765424123
 20
200.1026523101
 42
0.9952294492
 10
52.6453718075
 20
200.2991263917
 42
1.0
 72
1
 10
59.1892314567
 20
198.921207042
 11
58.5463743138
 21
197.0273393872
 72
1
 10
58.5463743138
 20
197.0273393872
 11
58.484951301
 21
197.048103527
 72
4
 94
3
 73
1
 74
0
 95
8
 96
4
 40
0.0
 40
0.0
 40
0.0
 40
0.0
 40
1.0
 40
1.0
 40
1.0
 40
1.0
 10
58.6892314567
 20
196.7637837925
 42
1.0
 10
58.6892314567
 20
196.8971931678
 42
0.8747442777
 10
58.6113876948
 20
197.0055371115
 42
0.8747442777
 10
58.484951301
 20
197.048103527
 42
1.0
 72
1
 10
58.6892314567
 20
193.5170598749
 11
58.6892314567
 21
196.7637837925
 72
1
 10
58.6892314567
 20
193.5170598749
 11
57.9392314567
 21
193.5170598749
 72
1
 10
57.9392314567
 20
191.9270598749
 11
57.9392314567
 21
193.5170598749
 72
1
 10
58.6892314567
 20
190.5920598739
 11
57.9392314567
 21
191.9270598749
 72
1
 10
58.6892314567
 20
189.2570598749
 11
58.6892314567
 21
190.5920598739
 72
1
 10
61.9892314567
 20
189.2570598749
 11
58.6892314567
 21
189.2570598749
 72
1
 10
61.9892314567
 20
189.2570598749
 11
61.9892314567
 21
189.6920598749
 72
4
 94
3
 73
1
 74
0
 95
8
 96
4
 40
0.0
 40
0.0
 40
0.0
 40
0.0
 40
1.0
 40
1.0
 40
1.0
 40
1.0
 10
52.469933211
 20
198.3068359262
 42
1.0
 10
50.9514240916
 20
198.4405539323
 42
0.9974301552
 10
49.4270388217
 20
198.4405539323
 42
0.9974301552
 10
47.9085297023
 20
198.3068359262
 42
1.0
 72
4
 94
3
 73
1
 74
0
 95
8
 96
4
 40
0.0
 40
0.0
 40
0.0
 40
0.0
 40
1.0
 40
1.0
 40
1.0
 40
1.0
 10
50.1892314567
 20
200.797199008
 42
1.0
 10
50.1892314567
 20
199.4327568322
 42
0.824978937
 10
51.1107506422
 20
198.4265238364
 42
0.824978937
 10
52.469933211
 20
198.3068359262
 42
1.0
 72
4
 94
3
 73
1
 74
0
 95
8
 96
4
 40
0.0
 40
0.0
 40
0.0
 40
0.0
 40
1.0
 40
1.0
 40
1.0
 40
1.0
 10
50.1892314567
 20
200.797199008
 42
1.0
 10
50.1892314567
 20
199.4327568322
 42
0.824978937
 10
49.2677122711
 20
198.4265238364
 42
0.824978937
 10
47.9085297023
 20
198.3068359262
 42
1.0
 97
86
330
23D
330
23E
330
23F
330
240
330
241
330
242
330
243
330
244
330
245
330
246
330
247
330
248
330
249
330
24A
330
24B
330
24C
330
24D
330
24E
330
24F
330
250
330
251
330
252
330
253
330
254
330
255
330
256
330
257
330
258
330
259
330
25A
330
25B
330
25C
330
25D
330
25E
330
25F
330
260
330
261
330
262
330
263
330
264
330
265
330
266
330
267
330
268
330
269
330
26A
330
26B
330
26C
330
26D
330
26E
330
26F
330
270
330
271
330
272
330
273
330
274
330
275
330
276
330
277
330
278
330
279
330
27A
330
27B
330
27C
330
27D
330
27E
330
27F
330
280
330
281
330
282
330
283
330
284
330
285
330
286
330
287
330
288
330
289
330
28A
330
28B
330
28C
330
28D
330
28E
330
28F
330
290
330
291
330
292
 92
1
 93
36
 72
4
 94
3
 73
1
 74
0
 95
8
 96
4
 40
0.0
 40
0.0
 40
0.0
 40
0.0
 40
1.0
 40
1.0
 40
1.0
 40
1.0
 10
35.8892314567
 20
159.3070598742
 42
1.0
 10
35.8892314567
 20
159.6585317368
 42
0.8047378541
 10
36.1377595941
 20
159.9070598742
 42
0.8047378541
 10
36.4892314567
 20
159.9070598742
 42
1.0
 72
1
 10
69.3892314567
 20
159.9070598742
 11
36.4892314567
 21
159.9070598742
 72
4
 94
3
 73
1
 74
0
 95
8
 96
4
 40
0.0
 40
0.0
 40
0.0
 40
0.0
 40
1.0
 40
1.0
 40
1.0
 40
1.0
 10
69.3892314567
 20
159.9070598742
 42
1.0
 10
69.7407033192
 20
159.9070598742
 42
0.8047378541
 10
69.9892314567
 20
159.6585317368
 42
0.8047378541
 10
69.9892314567
 20
159.3070598742
 42
1.0
 72
1
 10
69.9892314567
 20
155.8570598749
 11
69.9892314567
 21
159.3070598742
 72
4
 94
3
 73
1
 74
0
 95
8
 96
4
 40
0.0
 40
0.0
 40
0.0
 40
0.0
 40
1.0
 40
1.0
 40
1.0
 40
1.0
 10
69.9892314567
 20
155.8570598749
 42
1.0
 10
69.9892314567
 20
155.6813239436
 42
0.8047378541
 10
69.8649673879
 20
155.5570598749
 42
0.8047378541
 10
69.6892314567
 20
155.5570598749
 42
1.0
 72
1
 10
69.6892314567
 20
155.5570598749
 11
58.6892314567
 21
155.5570598749
 72
1
 10
58.6892314567
 20
154.2220598759
 11
58.6892314567
 21
155.5570598749
 72
1
 10
58.6892314567
 20
154.2220598759
 11
57.9392314567
 21
152.8870598749
 72
1
 10
57.9392314567
 20
151.2970598749
 11
57.9392314567
 21
152.8870598749
 72
1
 10
58.6892314567
 20
151.2970598749
 11
57.9392314567
 21
151.2970598749
 72
1
 10
58.6892314567
 20
148.0503359573
 11
58.6892314567
 21
151.2970598749
 72
4
 94
3
 73
1
 74
0
 95
8
 96
4
 40
0.0
 40
0.0
 40
0.0
 40
0.0
 40
1.0
 40
1.0
 40
1.0
 40
1.0
 10
58.6892314567
 20
148.0503359573
 42
1.0
 10
58.6892314567
 20
147.916926582
 42
0.8747442777
 10
58.6113876948
 20
147.8085826383
 42
0.8747442777
 10
58.484951301
 20
147.7660162228
 42
1.0
 72
1
 10
58.5463743138
 20
147.7867803626
 11
58.484951301
 21
147.7660162228
 72
1
 10
59.1892314567
 20
145.8929127078
 11
58.5463743138
 21
147.7867803626
 72
4
 94
3
 73
1
 74
0
 95
8
 96
4
 40
0.0
 40
0.0
 40
0.0
 40
0.0
 40
1.0
 40
1.0
 40
1.0
 40
1.0
 10
59.1892314567
 20
145.8929127078
 42
1.0
 10
57.0682847805
 20
145.1729755374
 42
0.9952294492
 10
54.8765424123
 20
144.7114674397
 42
0.9952294492
 10
52.6453718075
 20
144.5149933581
 42
1.0
 72
4
 94
3
 73
1
 74
0
 95
8
 96
4
 40
0.0
 40
0.0
 40
0.0
 40
0.0
 40
1.0
 40
1.0
 40
1.0
 40
1.0
 10
52.1892314567
 20
144.0169207417
 42
1.0
 10
52.1892314567
 20
144.2898091769
 42
0.824978937
 10
52.3735352938
 20
144.4910557761
 42
0.824978937
 10
52.6453718075
 20
144.5149933581
 42
1.0
 72
1
 10
52.1892314567
 20
144.0169207417
 11
52.1892314567
 21
138.7570598749
 72
1
 10
50.1892314567
 20
138.7570598749
 11
52.1892314567
 21
138.7570598749
 72
1
 10
48.1892314567
 20
138.7570598749
 11
50.1892314567
 21
138.7570598749
 72
1
 10
48.1892314567
 20
144.0169207417
 11
48.1892314567
 21
138.7570598749
 72
4
 94
3
 73
1
 74
0
 95
8
 96
4
 40
0.0
 40
0.0
 40
0.0
 40
0.0
 40
1.0
 40
1.0
 40
1.0
 40
1.0
 10
48.1892314567
 20
144.0169207417
 42
1.0
 10
48.1892314567
 20
144.2898091769
 42
0.824978937
 10
48.0049276195
 20
144.4910557761
 42
0.824978937
 10
47.7330911058
 20
144.5149933581
 42
1.0
 72
4
 94
3
 73
1
 74
0
 95
8
 96
4
 40
0.0
 40
0.0
 40
0.0
 40
0.0
 40
1.0
 40
1.0
 40
1.0
 40
1.0
 10
41.1892314567
 20
145.8929127078
 42
1.0
 10
43.3101781328
 20
145.1729755374
 42
0.9952294492
 10
45.501920501
 20
144.7114674397
 42
0.9952294492
 10
47.7330911058
 20
144.5149933581
 42
1.0
 72
1
 10
41.1892314567
 20
145.8929127078
 11
41.8320885995
 21
147.7867803626
 72
1
 10
41.8320885995
 20
147.7867803626
 11
41.8935116123
 21
147.7660162228
 72
4
 94
3
 73
1
 74
0
 95
8
 96
4
 40
0.0
 40
0.0
 40
0.0
 40
0.0
 40
1.0
 40
1.0
 40
1.0
 40
1.0
 10
41.8935116123
 20
147.7660162228
 42
1.0
 10
41.7670752185
 20
147.8085826383
 42
0.8747442777
 10
41.6892314567
 20
147.916926582
 42
0.8747442777
 10
41.6892314567
 20
148.0503359573
 42
1.0
 72
1
 10
41.6892314567
 20
148.0503359573
 11
41.6892314567
 21
151.2970598749
 72
1
 10
42.4392314567
 20
151.2970598749
 11
41.6892314567
 21
151.2970598749
 72
1
 10
42.4392314567
 20
151.2970598749
 11
42.4392314567
 21
152.8870598749
 72
1
 10
42.4392314567
 20
152.8870598749
 11
41.6892314567
 21
154.2220598759
 72
1
 10
41.6892314567
 20
154.2220598759
 11
41.6892314567
 21
155.5570598749
 72
1
 10
41.6892314567
 20
155.5570598749
 11
36.1892314567
 21
155.5570598749
 72
4
 94
3
 73
1
 74
0
 95
8
 96
4
 40
0.0
 40
0.0
 40
0.0
 40
0.0
 40
1.0
 40
1.0
 40
1.0
 40
1.0
 10
36.1892314567
 20
155.5570598749
 42
1.0
 10
36.0134955254
 20
155.5570598749
 42
0.8047378541
 10
35.8892314567
 20
155.6813239436
 42
0.8047378541
 10
35.8892314567
 20
155.8570598749
 42
1.0
 72
1
 10
35.8892314567
 20
155.8570598749
 11
35.8892314567
 21
159.3070598742
 72
4
 94
3
 73
1
 74
0
 95
8
 96
4
 40
0.0
 40
0.0
 40
0.0
 40
0.0
 40
1.0
 40
1.0
 40
1.0
 40
1.0
 10
52.469933211
 20
146.5072838236
 42
1.0
 10
50.9514240916
 20
146.3735658175
 42
0.9974301552
 10
49.4270388217
 20
146.3735658175
 42
0.9974301552
 10
47.9085297023
 20
146.5072838236
 42
1.0
 72
4
 94
3
 73
1
 74
0
 95
8
 96
4
 40
0.0
 40
0.0
 40
0.0
 40
0.0
 40
1.0
 40
1.0
 40
1.0
 40
1.0
 10
50.1892314567
 20
144.0169207417
 42
1.0
 10
50.1892314567
 20
145.3813629176
 42
0.824978937
 10
49.2677122711
 20
146.3875959134
 42
0.824978937
 10
47.9085297023
 20
146.5072838236
 42
1.0
 72
4
 94
3
 73
1
 74
0
 95
8
 96
4
 40
0.0
 40
0.0
 40
0.0
 40
0.0
 40
1.0
 40
1.0
 40
1.0
 40
1.0
 10
50.1892314567
 20
144.0169207417
 42
1.0
 10
50.1892314567
 20
145.3813629176
 42
0.824978937
 10
51.1107506422
 20
146.3875959134
 42
0.824978937
 10
52.469933211
 20
146.5072838236
 42
1.0
 97
86
330
23D
330
23E
330
23F
330
240
330
241
330
242
330
243
330
244
330
245
330
246
330
247
330
248
330
249
330
24A
330
24B
330
24C
330
24D
330
24E
330
24F
330
250
330
251
330
252
330
253
330
254
330
255
330
256
330
257
330
258
330
259
330
25A
330
25B
330
25C
330
25D
330
25E
330
25F
330
260
330
261
330
262
330
263
330
264
330
265
330
266
330
267
330
268
330
269
330
26A
330
26B
330
26C
330
26D
330
26E
330
26F
330
270
330
271
330
272
330
273
330
274
330
275
330
276
330
277
330
278
330
279
330
27A
330
27B
330
27C
330
27D
330
27E
330
27F
330
280
330
281
330
282
330
283
330
284
330
285
330
286
330
287
330
288
330
289
330
28A
330
28B
330
28C
330
28D
330
28E
330
28F
330
290
330
291
330
292
 92
1
 93
6
 72
1
 10
52.1892314567
 20
130.0570598749
 11
52.1892314567
 21
124.9070598749
 72
1
 10
52.1892314567
 20
124.9070598749
 11
50.1892314567
 21
124.9070598749
 72
1
 10
50.1892314567
 20
124.9070598749
 11
48.1892314567
 21
124.9070598749
 72
1
 10
48.1892314567
 20
130.0570598749
 11
48.1892314567
 21
124.9070598749
 72
1
 10
48.1892314567
 20
130.0570598749
 11
50.1892314567
 21
130.0570598749
 72
1
 10
50.1892314567
 20
130.0570598749
 11
52.1892314567
 21
130.0570598749
 97
86
330
23D
330
23E
330
23F
330
240
330
241
330
242
330
243
330
244
330
245
330
246
330
247
330
248
330
249
330
24A
330
24B
330
24C
330
24D
330
24E
330
24F
330
250
330
251
330
252
330
253
330
254
330
255
330
256
330
257
330
258
330
259
330
25A
330
25B
330
25C
330
25D
330
25E
330
25F
330
260
330
261
330
262
330
263
330
264
330
265
330
266
330
267
330
268
330
269
330
26A
330
26B
330
26C
330
26D
330
26E
330
26F
330
270
330
271
330
272
330
273
330
274
330
275
330
276
330
277
330
278
330
279
330
27A
330
27B
330
27C
330
27D
330
27E
330
27F
330
280
330
281
330
282
330
283
330
284
330
285
330
286
330
287
330
288
330
289
330
28A
330
28B
330
28C
330
28D
330
28E
330
28F
330
290
330
291
330
292
 75
0
 76
0
 52
45.0
 41
5.3848901029
 77
0
 78
1
 53
45.0
 43
0.0
 44
0.0
 45
-3.8076923077
 46
3.8076923077
 79
0
 98
1
 10
0.0
 20
0.0
  0
DIMENSION
  5
294
100
AcDbEntity
  8
0
100
AcDbDimension
 62
2
  6
CONTINUOUS
  2
*D0
 10
69.9892314567
 20
229.0640685124
 11
55.5892314567
 21
231.6890685124
 70
160
 71
2
 42
21.8
  3
DIMSTYLE_1
100
AcDbAlignedDimension
 13
48.1892314567
 23
220.4070598749
 14
69.9892314567
 24
186.0070598756
100
AcDbRotatedDimension
  0
DIMENSION
  5
295
100
AcDbEntity
  8
0
100
AcDbDimension
 62
2
  6
CONTINUOUS
  2
*D1
 10
35.8892314567
 20
229.0640685124
 11
38.5392314567
 21
231.6890685124
 70
160
 71
2
 42
12.3
  3
DIMSTYLE_1
100
AcDbAlignedDimension
 13
48.1892314567
 23
220.4070598749
 14
35.8892314567
 24
186.0070598756
 50
180.0
100
AcDbRotatedDimension
  0
DIMENSION
  5
296
100
AcDbEntity
  8
0
100
AcDbDimension
 62
2
  6
CONTINUOUS
  2
*D2
 10
16.8308084095
 20
159.9070598742
 11
15.1206253758
 21
170.5818166867
 70
160
 71
2
 42
25.0000000014
  1
%%c<>
  3
DIMSTYLE_1
100
AcDbAlignedDimension
 13
35.9892314567
 23
184.9070598756
 14
35.9892314567
 24
159.9070598742
 50
270.0
100
AcDbRotatedDimension
  0
DIMENSION
  5
297
100
AcDbEntity
  8
0
100
AcDbDimension
 62
2
  6
CONTINUOUS
  2
*D3
 10
169.0242317119
 20
195.4097212944
 11
173.8880223067
 21
213.5433519463
 70
163
 71
1
 42
8.7
  1
<>
  3
DIMSTYLE_2
100
AcDbDiametricDimension
 15
165.617648931
 25
187.4043984554
  0
DIMENSION
  5
298
100
AcDbEntity
  8
0
100
AcDbDimension
 62
2
  6
CONTINUOUS
  2
*D4
 10
110.9071405894
 20
213.6838422153
 11
112.1271271209
 21
220.0787269715
 70
163
 71
3
 42
95.0
  1
<>
  3
DIMSTYLE_3
100
AcDbDiametricDimension
 15
157.916809366
 25
131.1302775345
  0
MTEXT
  5
299
100
AcDbEntity
  8
0
100
AcDbMText
 62
2
  6
CONTINUOUS
  7
STANDARD
 71
3
 72
1
 10
52.9392314567
 20
121.3970598749
 30
0.0
 11
1.0
 21
0.0
 31
0.0
 44
0.9
  1
SEZIONE A-A
 40
3.5
 41
19.25
  0
LINE
  5
29A
100
AcDbEntity
  8
0
100
AcDbLine
 62
7
  6
CONTINUOUS
 10
52.1892314567
 20
124.9070598749
 11
48.1892314567
 21
124.9070598749
  0
LINE
  5
29B
100
AcDbEntity
  8
0
100
AcDbLine
 62
7
  6
CONTINUOUS
 10
48.1892314567
 20
130.0570598749
 11
52.1892314567
 21
130.0570598749
  0
LINE
  5
29C
100
AcDbEntity
  8
0
100
AcDbLine
 62
7
  6
CONTINUOUS
 10
48.1892314567
 20
138.7570598749
 11
52.1892314567
 21
138.7570598749
  0
LINE
  5
29D
100
AcDbEntity
  8
0
100
AcDbLine
 62
7
  6
CONTINUOUS
 10
58.6892314567
 20
151.2970598749
 11
57.9392314567
 21
151.2970598749
  0
LINE
  5
29E
100
AcDbEntity
  8
0
100
AcDbLine
 62
7
  6
CONTINUOUS
 10
42.4392314567
 20
151.2970598749
 11
41.6892314567
 21
151.2970598749
  0
LINE
  5
29F
100
AcDbEntity
  8
0
100
AcDbLine
 62
7
  6
CONTINUOUS
 10
35.8892314567
 20
155.8570598749
 11
35.8892314567
 21
188.9570598749
  0
LINE
  5
2A0
100
AcDbEntity
  8
0
100
AcDbLine
 62
7
  6
CONTINUOUS
 10
36.4892314567
 20
184.9070598756
 11
36.4892314567
 21
159.9070598742
  0
LINE
  5
2A1
100
AcDbEntity
  8
0
100
AcDbLine
 62
7
  6
CONTINUOUS
 10
42.4392314567
 20
191.9270598749
 11
41.6892314567
 21
190.5920598739
  0
LINE
  5
2A2
100
AcDbEntity
  8
0
100
AcDbLine
 62
7
  6
CONTINUOUS
 10
69.6892314567
 20
155.5570598749
 11
58.6892314567
 21
155.5570598749
  0
LINE
  5
2A3
100
AcDbEntity
  8
0
100
AcDbLine
 62
7
  6
CONTINUOUS
 10
41.6892314567
 20
155.5570598749
 11
36.1892314567
 21
155.5570598749
  0
LINE
  5
2A4
100
AcDbEntity
  8
0
100
AcDbLine
 62
7
  6
CONTINUOUS
 10
42.4392314567
 20
152.8870598749
 11
41.6892314567
 21
154.2220598759
  0
LINE
  5
2A5
100
AcDbEntity
  8
0
100
AcDbLine
 62
7
  6
CONTINUOUS
 10
41.1892314567
 20
145.8929127078
 11
41.1892314567
 21
155.5570598749
  0
LINE
  5
2A6
100
AcDbEntity
  8
0
100
AcDbLine
 62
7
  6
CONTINUOUS
 10
41.1892314567
 20
189.2570598749
 11
41.1892314567
 21
198.921207042
  0
LINE
  5
2A7
100
AcDbEntity
  8
0
100
AcDbLine
 62
7
  6
CONTINUOUS
 10
41.6892314567
 20
148.0503359573
 11
41.6892314567
 21
155.5570598749
  0
LINE
  5
2A8
100
AcDbEntity
  8
0
100
AcDbLine
 62
7
  6
CONTINUOUS
 10
41.6892314567
 20
189.2570598749
 11
41.6892314567
 21
196.7637837925
  0
LINE
  5
2A9
100
AcDbEntity
  8
0
100
AcDbLine
 62
7
  6
CONTINUOUS
 10
41.8320885995
 20
147.7948810998
 11
41.8320885995
 21
147.7867803626
  0
LINE
  5
2AA
100
AcDbEntity
  8
0
100
AcDbLine
 62
7
  6
CONTINUOUS
 10
42.4392314567
 20
151.2970598749
 11
42.4392314567
 21
152.8870598749
  0
LINE
  5
2AB
100
AcDbEntity
  8
0
100
AcDbLine
 62
7
  6
CONTINUOUS
 10
42.4392314567
 20
191.9270598749
 11
42.4392314567
 21
193.5170598749
  0
LINE
  5
2AC
100
AcDbEntity
  8
0
100
AcDbLine
 62
7
  6
CONTINUOUS
 10
69.3892314567
 20
159.9070598742
 11
36.4892314567
 21
159.9070598742
  0
LINE
  5
2AD
100
AcDbEntity
  8
0
100
AcDbLine
 62
7
  6
CONTINUOUS
 10
48.1892314567
 20
219.9070598749
 11
48.1892314567
 21
200.797199008
  0
LINE
  5
2AE
100
AcDbEntity
  8
0
100
AcDbLine
 62
7
  6
CONTINUOUS
 10
48.1892314567
 20
144.0169207417
 11
48.1892314567
 21
124.9070598749
  0
LINE
  5
2AF
100
AcDbEntity
  8
0
100
AcDbLine
 62
7
  6
CONTINUOUS
 10
50.1892314567
 20
146.4083042808
 11
50.1892314567
 21
144.0169207417
  0
LINE
  5
2B0
100
AcDbEntity
  8
0
100
AcDbLine
 62
7
  6
CONTINUOUS
 10
50.1892314567
 20
198.405815469
 11
50.1892314567
 21
200.797199008
  0
LINE
  5
2B1
100
AcDbEntity
  8
0
100
AcDbLine
 62
7
  6
CONTINUOUS
 10
52.1892314567
 20
219.9070598749
 11
52.1892314567
 21
200.797199008
  0
LINE
  5
2B2
100
AcDbEntity
  8
0
100
AcDbLine
 62
7
  6
CONTINUOUS
 10
52.1892314567
 20
124.9070598749
 11
52.1892314567
 21
144.0169207417
  0
LINE
  5
2B3
100
AcDbEntity
  8
0
100
AcDbLine
 62
7
  6
CONTINUOUS
 10
59.1892314567
 20
198.921207042
 11
58.5463743138
 21
197.0273393872
  0
LINE
  5
2B4
100
AcDbEntity
  8
0
100
AcDbLine
 62
7
  6
CONTINUOUS
 10
41.1892314567
 20
145.8929127078
 11
41.8320885995
 21
147.7867803626
  0
LINE
  5
2B5
100
AcDbEntity
  8
0
100
AcDbLine
 62
7
  6
CONTINUOUS
 10
41.1892314567
 20
198.921207042
 11
41.8320885995
 21
197.0273393872
  0
LINE
  5
2B6
100
AcDbEntity
  8
0
100
AcDbLine
 62
7
  6
CONTINUOUS
 10
59.1892314567
 20
145.8929127078
 11
58.5463743138
 21
147.7867803626
  0
LINE
  5
2B7
100
AcDbEntity
  8
0
100
AcDbLine
 62
7
  6
CONTINUOUS
 10
57.9392314567
 20
151.2970598749
 11
57.9392314567
 21
152.8870598749
  0
LINE
  5
2B8
100
AcDbEntity
  8
0
100
AcDbLine
 62
7
  6
CONTINUOUS
 10
57.9392314567
 20
191.9270598749
 11
57.9392314567
 21
193.5170598749
  0
LINE
  5
2B9
100
AcDbEntity
  8
0
100
AcDbLine
 62
7
  6
CONTINUOUS
 10
58.5463743138
 20
147.7948810998
 11
58.5463743138
 21
147.7867803626
  0
LINE
  5
2BA
100
AcDbEntity
  8
0
100
AcDbLine
 62
7
  6
CONTINUOUS
 10
58.5463743138
 20
197.01923865
 11
58.5463743138
 21
197.0273393872
  0
LINE
  5
2BB
100
AcDbEntity
  8
0
100
AcDbLine
 62
7
  6
CONTINUOUS
 10
58.6892314567
 20
148.0503359573
 11
58.6892314567
 21
155.5570598749
  0
LINE
  5
2BC
100
AcDbEntity
  8
0
100
AcDbLine
 62
7
  6
CONTINUOUS
 10
58.6892314567
 20
189.2570598749
 11
58.6892314567
 21
196.7637837925
  0
LINE
  5
2BD
100
AcDbEntity
  8
0
100
AcDbLine
 62
7
  6
CONTINUOUS
 10
59.1892314567
 20
155.5570598749
 11
59.1892314567
 21
145.8929127078
  0
LINE
  5
2BE
100
AcDbEntity
  8
0
100
AcDbLine
 62
7
  6
CONTINUOUS
 10
59.1892314567
 20
189.2570598749
 11
59.1892314567
 21
198.921207042
  0
LINE
  5
2BF
100
AcDbEntity
  8
0
100
AcDbLine
 62
7
  6
CONTINUOUS
 10
61.9892314567
 20
189.2570598749
 11
61.9892314567
 21
189.6920598749
  0
LINE
  5
2C0
100
AcDbEntity
  8
0
100
AcDbLine
 62
7
  6
CONTINUOUS
 10
63.4892314567
 20
189.2570598749
 11
63.4892314567
 21
189.6920598749
  0
LINE
  5
2C1
100
AcDbEntity
  8
0
100
AcDbLine
 62
7
  6
CONTINUOUS
 10
64.9892314567
 20
189.2570598749
 11
64.9892314567
 21
189.6920598749
  0
LINE
  5
2C2
100
AcDbEntity
  8
0
100
AcDbLine
 62
7
  6
CONTINUOUS
 10
66.4892314567
 20
189.2570598749
 11
66.4892314567
 21
189.6920598749
  0
LINE
  5
2C3
100
AcDbEntity
  8
0
100
AcDbLine
 62
7
  6
CONTINUOUS
 10
69.3892314567
 20
184.9070598756
 11
36.4892314567
 21
184.9070598756
  0
LINE
  5
2C4
100
AcDbEntity
  8
0
100
AcDbLine
 62
7
  6
CONTINUOUS
 10
67.9892314567
 20
189.2570598749
 11
67.9892314567
 21
189.6920598749
  0
LINE
  5
2C5
100
AcDbEntity
  8
0
100
AcDbLine
 62
7
  6
CONTINUOUS
 10
69.3892314567
 20
184.9070598756
 11
69.3892314567
 21
159.9070598742
  0
LINE
  5
2C6
100
AcDbEntity
  8
0
100
AcDbLine
 62
7
  6
CONTINUOUS
 10
69.9892314567
 20
155.8570598749
 11
69.9892314567
 21
188.9570598749
  0
LINE
  5
2C7
100
AcDbEntity
  8
0
100
AcDbLine
 62
7
  6
CONTINUOUS
 10
58.6892314567
 20
154.2220598759
 11
57.9392314567
 21
152.8870598749
  0
LINE
  5
2C8
100
AcDbEntity
  8
0
100
AcDbLine
 62
7
  6
CONTINUOUS
 10
69.6892314567
 20
189.2570598749
 11
67.9892314567
 21
189.2570598749
  0
LINE
  5
2C9
100
AcDbEntity
  8
0
100
AcDbLine
 62
7
  6
CONTINUOUS
 10
66.4892314567
 20
189.2570598749
 11
63.4892314567
 21
189.2570598749
  0
LINE
  5
2CA
100
AcDbEntity
  8
0
100
AcDbLine
 62
7
  6
CONTINUOUS
 10
61.9892314567
 20
189.2570598749
 11
58.6892314567
 21
189.2570598749
  0
LINE
  5
2CB
100
AcDbEntity
  8
0
100
AcDbLine
 62
7
  6
CONTINUOUS
 10
41.6892314567
 20
189.2570598749
 11
36.1892314567
 21
189.2570598749
  0
LINE
  5
2CC
100
AcDbEntity
  8
0
100
AcDbLine
 62
7
  6
CONTINUOUS
 10
58.6892314567
 20
190.5920598739
 11
57.9392314567
 21
191.9270598749
  0
LINE
  5
2CD
100
AcDbEntity
  8
0
100
AcDbLine
 62
7
  6
CONTINUOUS
 10
61.9892314567
 20
189.6920598749
 11
67.9892314567
 21
189.6920598749
  0
LINE
  5
2CE
100
AcDbEntity
  8
0
100
AcDbLine
 62
7
  6
CONTINUOUS
 10
58.6892314567
 20
193.5170598749
 11
57.9392314567
 21
193.5170598749
  0
LINE
  5
2CF
100
AcDbEntity
  8
0
100
AcDbLine
 62
7
  6
CONTINUOUS
 10
42.4392314567
 20
193.5170598749
 11
41.6892314567
 21
193.5170598749
  0
LINE
  5
2D0
100
AcDbEntity
  8
0
100
AcDbLine
 62
7
  6
CONTINUOUS
 10
52.1892314567
 20
219.9070598749
 11
48.1892314567
 21
219.9070598749
  0
CIRCLE
  5
2D1
100
AcDbEntity
  8
0
100
AcDbCircle
 62
7
  6
CONTINUOUS
 10
50.1892314567
 20
152.8870598749
 40
3.969
  0
ARC
  5
2D2
100
AcDbEntity
  8
0
100
AcDbCircle
 62
7
  6
CONTINUOUS
 10
52.6892314567
 20
144.0169207417
 40
2.5
100
AcDbArc
 50
95.0324134955
 51
180.0
  0
ARC
  5
2D3
100
AcDbEntity
  8
0
100
AcDbCircle
 62
7
  6
CONTINUOUS
 10
47.6892314567
 20
144.0169207417
 40
2.5
100
AcDbArc
 50
0.0
 51
84.9675865045
  0
ARC
  5
2D4
100
AcDbEntity
  8
0
100
AcDbCircle
 62
7
  6
CONTINUOUS
 10
36.4892314567
 20
159.3070598742
 40
0.6
100
AcDbArc
 50
90.0
 51
180.0
  0
ARC
  5
2D5
100
AcDbEntity
  8
0
100
AcDbCircle
 62
7
  6
CONTINUOUS
 10
47.6892314567
 20
144.0169207417
 40
0.5
100
AcDbArc
 50
0.0
 51
84.9675865045
  0
ARC
  5
2D6
100
AcDbEntity
  8
0
100
AcDbCircle
 62
7
  6
CONTINUOUS
 10
52.6892314567
 20
144.0169207417
 40
0.5
100
AcDbArc
 50
95.0324134955
 51
180.0
  0
ARC
  5
2D7
100
AcDbEntity
  8
0
100
AcDbCircle
 62
7
  6
CONTINUOUS
 10
41.9892314567
 20
148.0503359573
 40
0.3
100
AcDbArc
 50
180.0
 51
251.393541128
  0
ARC
  5
2D8
100
AcDbEntity
  8
0
100
AcDbCircle
 62
7
  6
CONTINUOUS
 10
36.1892314567
 20
155.8570598749
 40
0.3
100
AcDbArc
 50
180.0
 51
270.0
  0
ARC
  5
2D9
100
AcDbEntity
  8
0
100
AcDbCircle
 62
7
  6
CONTINUOUS
 10
50.1892314567
 20
172.4070598749
 40
28.0
100
AcDbArc
 50
275.0324134955
 51
288.749340847
  0
ARC
  5
2DA
100
AcDbEntity
  8
0
100
AcDbCircle
 62
7
  6
CONTINUOUS
 10
50.1892314567
 20
172.4070598749
 40
28.0
100
AcDbArc
 50
251.250659153
 51
264.9675865045
  0
ARC
  5
2DB
100
AcDbEntity
  8
0
100
AcDbCircle
 62
7
  6
CONTINUOUS
 10
50.1892314567
 20
172.4070598749
 40
28.0
100
AcDbArc
 50
71.250659153
 51
84.9675865045
  0
ARC
  5
2DC
100
AcDbEntity
  8
0
100
AcDbCircle
 62
7
  6
CONTINUOUS
 10
50.1892314567
 20
172.4070598749
 40
28.0
100
AcDbArc
 50
95.0324134955
 51
108.749340847
  0
ARC
  5
2DD
100
AcDbEntity
  8
0
100
AcDbCircle
 62
7
  6
CONTINUOUS
 10
50.1892314567
 20
172.4070598749
 40
26.0
100
AcDbArc
 50
84.9675865045
 51
95.0324134955
  0
ARC
  5
2DE
100
AcDbEntity
  8
0
100
AcDbCircle
 62
7
  6
CONTINUOUS
 10
50.1892314567
 20
172.4070598749
 40
26.0
100
AcDbArc
 50
264.9675865045
 51
275.0324134955
  0
ARC
  5
2DF
100
AcDbEntity
  8
0
100
AcDbCircle
 62
7
  6
CONTINUOUS
 10
50.1892314567
 20
172.4070598749
 40
26.0
100
AcDbArc
 50
288.606458872
 51
288.749340847
  0
ARC
  5
2E0
100
AcDbEntity
  8
0
100
AcDbCircle
 62
7
  6
CONTINUOUS
 10
50.1892314567
 20
172.4070598749
 40
26.0
100
AcDbArc
 50
71.250659153
 51
71.393541128
  0
ARC
  5
2E1
100
AcDbEntity
  8
0
100
AcDbCircle
 62
7
  6
CONTINUOUS
 10
50.1892314567
 20
172.4070598749
 40
26.0
100
AcDbArc
 50
251.250659153
 51
251.393541128
  0
ARC
  5
2E2
100
AcDbEntity
  8
0
100
AcDbCircle
 62
7
  6
CONTINUOUS
 10
50.1892314567
 20
172.4070598749
 40
26.0
100
AcDbArc
 50
108.606458872
 51
108.749340847
  0
CIRCLE
  5
2E3
100
AcDbEntity
  8
0
100
AcDbCircle
 62
7
  6
CONTINUOUS
 10
50.1892314567
 20
191.9270598749
 40
3.969
  0
ARC
  5
2E4
100
AcDbEntity
  8
0
100
AcDbCircle
 62
7
  6
CONTINUOUS
 10
47.6892314567
 20
200.797199008
 40
2.5
100
AcDbArc
 50
275.0324134955
 51
360.0
  0
ARC
  5
2E5
100
AcDbEntity
  8
0
100
AcDbCircle
 62
7
  6
CONTINUOUS
 10
52.6892314567
 20
200.797199008
 40
2.5
100
AcDbArc
 50
180.0
 51
264.9675865045
  0
ARC
  5
2E6
100
AcDbEntity
  8
0
100
AcDbCircle
 62
7
  6
CONTINUOUS
 10
36.4892314567
 20
185.5070598756
 40
0.6
100
AcDbArc
 50
180.0
 51
270.0
  0
ARC
  5
2E7
100
AcDbEntity
  8
0
100
AcDbCircle
 62
7
  6
CONTINUOUS
 10
47.6892314567
 20
200.797199008
 40
0.5
100
AcDbArc
 50
275.0324134955
 51
360.0
  0
ARC
  5
2E8
100
AcDbEntity
  8
0
100
AcDbCircle
 62
7
  6
CONTINUOUS
 10
52.6892314567
 20
200.797199008
 40
0.5
100
AcDbArc
 50
180.0
 51
264.9675865045
  0
ARC
  5
2E9
100
AcDbEntity
  8
0
100
AcDbCircle
 62
7
  6
CONTINUOUS
 10
41.9892314567
 20
196.7637837925
 40
0.3
100
AcDbArc
 50
108.606458872
 51
180.0
  0
ARC
  5
2EA
100
AcDbEntity
  8
0
100
AcDbCircle
 62
7
  6
CONTINUOUS
 10
36.1892314567
 20
188.9570598749
 40
0.3
100
AcDbArc
 50
90.0
 51
180.0
  0
ARC
  5
2EB
100
AcDbEntity
  8
0
100
AcDbCircle
 62
7
  6
CONTINUOUS
 10
69.3892314567
 20
159.3070598742
 40
0.6
100
AcDbArc
 50
0.0
 51
90.0
  0
ARC
  5
2EC
100
AcDbEntity
  8
0
100
AcDbCircle
 62
7
  6
CONTINUOUS
 10
69.6892314567
 20
155.8570598749
 40
0.3
100
AcDbArc
 50
270.0
 51
360.0
  0
ARC
  5
2ED
100
AcDbEntity
  8
0
100
AcDbCircle
 62
7
  6
CONTINUOUS
 10
58.3892314567
 20
148.0503359573
 40
0.3
100
AcDbArc
 50
288.606458872
 51
360.0
  0
ARC
  5
2EE
100
AcDbEntity
  8
0
100
AcDbCircle
 62
7
  6
CONTINUOUS
 10
69.3892314567
 20
185.5070598756
 40
0.6
100
AcDbArc
 50
270.0
 51
360.0
  0
ARC
  5
2EF
100
AcDbEntity
  8
0
100
AcDbCircle
 62
7
  6
CONTINUOUS
 10
58.3892314567
 20
196.7637837925
 40
0.3
100
AcDbArc
 50
0.0
 51
71.393541128
  0
ARC
  5
2F0
100
AcDbEntity
  8
0
100
AcDbCircle
 62
7
  6
CONTINUOUS
 10
69.6892314567
 20
188.9570598749
 40
0.3
100
AcDbArc
 50
0.0
 51
90.0
  0
CIRCLE
  5
2F1
100
AcDbEntity
  8
0
100
AcDbCircle
 62
7
  6
CONTINUOUS
 10
134.4119749777
 20
172.4070598749
 40
47.5
  0
CIRCLE
  5
2F2
100
AcDbEntity
  8
0
100
AcDbCircle
 62
7
  6
CONTINUOUS
 10
134.4119749777
 20
172.4070598749
 40
28.3901391332
  0
CIRCLE
  5
2F3
100
AcDbEntity
  8
0
100
AcDbCircle
 62
7
  6
CONTINUOUS
 10
134.4119749777
 20
172.4070598749
 40
27.8920665168
  0
CIRCLE
  5
2F4
100
AcDbEntity
  8
0
100
AcDbCircle
 62
7
  6
CONTINUOUS
 10
134.4119749777
 20
172.4070598749
 40
26.5141471671
  0
CIRCLE
  5
2F5
100
AcDbEntity
  8
0
100
AcDbCircle
 62
7
  6
CONTINUOUS
 10
134.4119749777
 20
172.4070598749
 40
24.6202795123
  0
CIRCLE
  5
2F6
100
AcDbEntity
  8
0
100
AcDbCircle
 62
7
  6
CONTINUOUS
 10
134.4119749777
 20
172.4070598749
 40
24.3567239176
  0
CIRCLE
  5
2F7
100
AcDbEntity
  8
0
100
AcDbCircle
 62
7
  6
CONTINUOUS
 10
134.4119749777
 20
172.4070598749
 40
21.11
  0
CIRCLE
  5
2F8
100
AcDbEntity
  8
0
100
AcDbCircle
 62
7
  6
CONTINUOUS
 10
134.4119749777
 20
172.4070598749
 40
19.52
  0
CIRCLE
  5
2F9
100
AcDbEntity
  8
0
100
AcDbCircle
 62
7
  6
CONTINUOUS
 10
134.4119749777
 20
172.4070598749
 40
18.184999999
  0
CIRCLE
  5
2FA
100
AcDbEntity
  8
0
100
AcDbCircle
 62
7
  6
CONTINUOUS
 10
134.4119749777
 20
172.4070598749
 40
16.85
  0
CIRCLE
  5
2FB
100
AcDbEntity
  8
0
100
AcDbCircle
 62
7
  6
CONTINUOUS
 10
134.4119749777
 20
172.4070598749
 40
16.55
  0
CIRCLE
  5
2FC
100
AcDbEntity
  8
0
100
AcDbCircle
 62
7
  6
CONTINUOUS
 10
134.4119749777
 20
172.4070598749
 40
13.1000000007
  0
CIRCLE
  5
2FD
100
AcDbEntity
  8
0
100
AcDbCircle
 62
7
  6
CONTINUOUS
 10
134.4119749777
 20
172.4070598749
 40
12.5000000007
  0
CIRCLE
  5
2FE
100
AcDbEntity
  8
0
100
AcDbCircle
 62
7
  6
CONTINUOUS
 10
134.4119749777
 20
134.4070598749
 40
4.35
  0
CIRCLE
  5
2FF
100
AcDbEntity
  8
0
100
AcDbCircle
 62
7
  6
CONTINUOUS
 10
167.3209403215
 20
191.4070598749
 40
4.35
  0
CIRCLE
  5
300
100
AcDbEntity
  8
0
100
AcDbCircle
 62
7
  6
CONTINUOUS
 10
101.5030096338
 20
191.4070598749
 40
4.35
  0
ENDSEC
  0
SECTION
  2
OBJECTS
  0
DICTIONARY
  5
C
100
AcDbDictionary
280
0
281
1
  3
ACAD_GROUP
350
D
  3
ACAD_MLINESTYLE
350
17
  3
ACAD_LAYOUT
350
1A
  3
ACAD_PLOTSETTINGS
350
19
  3
ACAD_PLOTSTYLENAME
350
E
  0
DICTIONARY
  5
D
102
{ACAD_REACTORS
330
C
102
}
100
AcDbDictionary
280
0
281
1
  0
ACDBDICTIONARYWDFLT
  5
E
102
{ACAD_REACTORS
330
C
102
}
100
AcDbDictionary
281
1
  3
Normal
350
F
100
AcDbDictionaryWithDefault
340
F
  0
DICTIONARY
  5
17
102
{ACAD_REACTORS
330
C
102
}
100
AcDbDictionary
280
0
281
1
  3
Standard
350
18
  0
DICTIONARY
  5
19
102
{ACAD_REACTORS
330
C
102
}
100
AcDbDictionary
281
1
  0
DICTIONARY
  5
1A
102
{ACAD_REACTORS
330
C
102
}
100
AcDbDictionary
281
1
  3
Model
350
301
  3
Layout1
350
302
  0
ACDBPLACEHOLDER
  5
F
102
{ACAD_REACTORS
330
E
102
}
  0
MLINESTYLE
  5
18
102
{ACAD_REACTORS
330
17
102
}
100
AcDbMlineStyle
  2
STANDARD
 70
0
  3

 62
256
 51
90.0
 52
90.0
 71
2
 49
0.5
 62
256
  6
BYLAYER
 49
-0.5
 62
256
  6
BYLAYER
  0
LAYOUT
  5
301
102
{ACAD_REACTORS
330
1A
102
}
100
AcDbPlotSettings
  1

  2
none_device
  4

  6

 40
0.0
 41
0.0
 42
0.0
 43
0.0
 44
210.0
 45
297.0
 46
0.0
 47
0.0
 48
0.0
 49
0.0
140
0.0
141
0.0
142
1.0
143
1.0
 70
1024
 72
1
 73
0
 74
0
  7

 75
0
147
1.0
148
0.0
149
0.0
100
AcDbLayout
  1
Model
 70
0
 71
0
 10
0.0
 20
0.0
 11
210.0
 21
297.0
 12
0.0
 22
0.0
 32
0.0
 14
0.0
 24
0.0
 34
0.0
 15
0.0
 25
0.0
 35
0.0
146
0.0
 13
0.0
 23
0.0
 33
0.0
 16
1.0
 26
0.0
 36
0.0
 17
0.0
 27
1.0
 37
0.0
 76
0
330
202
345
0
346
0
  0
LAYOUT
  5
302
102
{ACAD_REACTORS
330
1A
102
}
100
AcDbPlotSettings
  1

  2
none_device
  4

  6

 40
0.0
 41
0.0
 42
0.0
 43
0.0
 44
210.0
 45
297.0
 46
0.0
 47
0.0
 48
0.0
 49
0.0
140
0.0
141
0.0
142
1.0
143
1.0
 70
0
 72
1
 73
0
 74
0
  7

 75
0
147
1.0
148
0.0
149
0.0
100
AcDbLayout
  1
Layout1
 70
0
 71
1
 10
0.0
 20
0.0
 11
210.0
 21
297.0
 12
0.0
 22
0.0
 32
0.0
 14
0.0
 24
0.0
 34
0.0
 15
0.0
 25
0.0
 35
0.0
146
0.0
 13
0.0
 23
0.0
 33
0.0
 16
1.0
 26
0.0
 36
0.0
 17
0.0
 27
1.0
 37
0.0
 76
0
330
203
345
0
346
0
  0
ENDSEC
  0
EOF
