  0
SECTION
  2
HEADER
  9
$ACADVER
  1
AC1015
  9
$DWGCODEPAGE
  3
ANSI_1252
  9
$EXTMAX
 10
210.0
 20
297.0
 30
0.0
  9
$EXTMIN
 10
0.0
 20
0.0
 30
0.0
  9
$LIMMIN
 10
0.0
 20
0.0
  9
$LIMMAX
 10
210.0
 20
297.0
  9
$VIEWCTR
 10
105.0
 20
148.5
  9
$VIEWSIZE
 40
297.0
  9
$CLAYER
  8
0
  9
$LTSCALE
 40
19.36
  9
$CELTYPE
  6
BYLAYER
  9
$DIMSCALE
 40
1.0
  9
$DIMASZ
 40
3.5
  9
$DIMEXO
 40
2.2
  9
$DIMDLI
 40
13.376
  9
$DIMEXE
 40
6.336
  9
$DIMCEN
 40
3.168
  9
$DIMLFAC
 40
1.0
  9
$DIMBLK
  1
_FILLED
  9
$DIMTXT
 40
3.5
  9
$DIMTOL
 70
1
  9
$DIMLIM
 70
0
  9
$DIMTFAC
 40
1.0
  9
$DIMTP
 40
0.01
  9
$DIMTM
 40
0.01
  9
$PDMODE
 70
3
  9
$PDSIZE
 40
0.3125
  9
$HANDSEED
  5
3B8
  9
$TILEMODE
 70
1
  9
$MEASUREMENT
 70
1
  9
$INSUNITS
 70
4
  0
ENDSEC
  0
SECTION
  2
CLASSES
  0
CLASS
  1
ACDBDICTIONARYWDFLT
  2
AcDbDictionaryWithDefault
  3
AutoCAD 2000
 90
0
280
0
281
0
  0
CLASS
  1
ACDBPLACEHOLDER
  2
AcDbPlaceHolder
  3
AutoCAD 2000
 90
0
280
0
281
0
  0
CLASS
  1
LAYOUT
  2
AcDbLayout
  3
AutoCAD 2000
 90
0
280
0
281
0
  0
ENDSEC
  0
SECTION
  2
TABLES
  0
TABLE
  2
VPORT
  5
8
100
AcDbSymbolTable
 70
2
  0
VPORT
  5
1F4
100
AcDbSymbolTableRecord
100
AcDbViewportTableRecord
  2
*ACTIVE
 70
0
 10
0.0
 20
0.0
 11
1.0
 21
1.0
 12
105.0
 22
148.5
 13
0.0
 23
0.0
 14
1.0
 24
1.0
 15
0.0
 25
0.0
 16
0.0
 26
0.0
 36
1.0
 17
0.0
 27
0.0
 37
0.0
 40
297.0
 41
0.7070707071
 42
50.0
 43
0.0
 44
0.0
 50
0.0
 51
0.0
 71
0
 72
100
 73
1
 74
1
 75
0
 76
0
 77
0
 78
0
  0
ENDTAB
  0
TABLE
  2
LTYPE
  5
5
100
AcDbSymbolTable
 70
6
  0
LTYPE
  5
14
100
AcDbSymbolTableRecord
100
AcDbLinetypeTableRecord
  2
BYBLOCK
 70
0
  3

 72
65
 73
0
 40
0.0
  0
LTYPE
  5
15
100
AcDbSymbolTableRecord
100
AcDbLinetypeTableRecord
  2
BYLAYER
 70
0
  3

 72
65
 73
0
 40
0.0
  0
LTYPE
  5
16
100
AcDbSymbolTableRecord
100
AcDbLinetypeTableRecord
  2
CONTINUOUS
 70
64
  3
Solid line
 72
65
 73
0
 40
0.0
  0
LTYPE
  5
1F5
100
AcDbSymbolTableRecord
100
AcDbLinetypeTableRecord
  2
CENTER
 70
64
  3
____ _ ____ _ ____ _ ____ _ ____ _ ____ _ ____
 72
65
 73
4
 40
0.6
 49
0.375
 74
0
 49
-0.075
 74
0
 49
0.075
 74
0
 49
-0.075
 74
0
  0
LTYPE
  5
1F6
100
AcDbSymbolTableRecord
100
AcDbLinetypeTableRecord
  2
HIDDEN
 70
64
  3
- - - - - - - - - - - - - - - - - - - -
 72
65
 73
2
 40
0.2
 49
0.1
 74
0
 49
-0.1
 74
0
  0
LTYPE
  5
1F7
100
AcDbSymbolTableRecord
100
AcDbLinetypeTableRecord
  2
PHANTOM
 70
64
  3
_____ _ _ _____ _ _ _____ _ _ _____
 72
65
 73
6
 40
0.8
 49
0.45
 74
0
 49
-0.05
 74
0
 49
0.1
 74
0
 49
-0.05
 74
0
 49
0.1
 74
0
 49
-0.05
 74
0
  0
LTYPE
  5
1F8
100
AcDbSymbolTableRecord
100
AcDbLinetypeTableRecord
  2
DOT
 70
64
  3
. . . . . . . . . . . . . . . . . . . .
 72
65
 73
2
 40
0.2
 49
0.1
 74
0
 49
-0.1
 74
0
  0
LTYPE
  5
1F9
100
AcDbSymbolTableRecord
100
AcDbLinetypeTableRecord
  2
DASHED
 70
64
  3
- - - - - - - - - - - - - - - - - - - -
 72
65
 73
2
 40
0.2
 49
0.1
 74
0
 49
-0.1
 74
0
  0
ENDTAB
  0
TABLE
  2
LAYER
  5
2
100
AcDbSymbolTable
 70
36
  0
LAYER
  5
10
100
AcDbSymbolTableRecord
100
AcDbLayerTableRecord
  2
0
 70
0
 62
7
  6
CONTINUOUS
370
-3
390
F
  0
LAYER
  5
1FA
100
AcDbSymbolTableRecord
100
AcDbLayerTableRecord
  2
DEFAULT_1
 70
0
 62
7
  6
CENTER
370
-3
390
F
  0
LAYER
  5
1FB
100
AcDbSymbolTableRecord
100
AcDbLayerTableRecord
  2
DEFAULT_2
 70
0
 62
8
  6
HIDDEN
370
-3
390
F
  0
LAYER
  5
1FC
100
AcDbSymbolTableRecord
100
AcDbLayerTableRecord
  2
DEFAULT_3
 70
0
 62
7
  6
PHANTOM
370
-3
390
F
  0
LAYER
  5
1FD
100
AcDbSymbolTableRecord
100
AcDbLayerTableRecord
  2
ASSI
 70
0
 62
7
  6
CONTINUOUS
370
-3
390
F
  0
LAYER
  5
1FE
100
AcDbSymbolTableRecord
100
AcDbLayerTableRecord
  2
PIANI
 70
0
 62
7
  6
CONTINUOUS
370
-3
390
F
  0
ENDTAB
  0
TABLE
  2
STYLE
  5
3
100
AcDbSymbolTable
 70
1
  0
STYLE
  5
11
100
AcDbSymbolTableRecord
100
AcDbTextStyleTableRecord
  2
STANDARD
 70
0
 40
0.0
 41
0.5
 50
0.0
 71
0
 42
0.2
  3
txt
  4

  0
STYLE
  5
1FF
100
AcDbSymbolTableRecord
100
AcDbTextStyleTableRecord
  2
TEXTSTYLE_1
 70
0
 40
0.0
 41
0.8
 50
0.0
 71
0
 42
0.2
  3
gdt
  4

  0
STYLE
  5
200
100
AcDbSymbolTableRecord
100
AcDbTextStyleTableRecord
  2
TEXTSTYLE_2
 70
0
 40
0.0
 41
0.5
 50
0.0
 71
0
 42
0.2
  3
gdt
  4

  0
ENDTAB
  0
TABLE
  2
VIEW
  5
6
100
AcDbSymbolTable
 70
0
  0
ENDTAB
  0
TABLE
  2
UCS
  5
7
100
AcDbSymbolTable
 70
0
  0
ENDTAB
  0
TABLE
  2
APPID
  5
9
100
AcDbSymbolTable
 70
1
  0
APPID
  5
201
100
AcDbSymbolTableRecord
100
AcDbRegAppTableRecord
  2
ACAD
 70
0
  0
ENDTAB
  0
TABLE
  2
BLOCK_RECORD
  5
1
100
AcDbSymbolTable
 70
0
  0
BLOCK_RECORD
  5
202
100
AcDbSymbolTableRecord
100
AcDbBlockTableRecord
  2
*Model_Space
  0
BLOCK_RECORD
  5
203
100
AcDbSymbolTableRecord
100
AcDbBlockTableRecord
  2
*Paper_Space
  0
BLOCK_RECORD
  5
204
100
AcDbSymbolTableRecord
100
AcDbBlockTableRecord
  2
_FILLED
  0
BLOCK_RECORD
  5
205
100
AcDbSymbolTableRecord
100
AcDbBlockTableRecord
  2
*D0
  0
BLOCK_RECORD
  5
206
100
AcDbSymbolTableRecord
100
AcDbBlockTableRecord
  2
*D1
  0
BLOCK_RECORD
  5
207
100
AcDbSymbolTableRecord
100
AcDbBlockTableRecord
  2
*D2
  0
BLOCK_RECORD
  5
208
100
AcDbSymbolTableRecord
100
AcDbBlockTableRecord
  2
*D3
  0
BLOCK_RECORD
  5
209
100
AcDbSymbolTableRecord
100
AcDbBlockTableRecord
  2
*D4
  0
BLOCK_RECORD
  5
20A
100
AcDbSymbolTableRecord
100
AcDbBlockTableRecord
  2
*D5
  0
BLOCK_RECORD
  5
20B
100
AcDbSymbolTableRecord
100
AcDbBlockTableRecord
  2
*D6
  0
BLOCK_RECORD
  5
20C
100
AcDbSymbolTableRecord
100
AcDbBlockTableRecord
  2
*D7
  0
ENDTAB
  0
TABLE
  2
DIMSTYLE
  5
A
100
AcDbSymbolTable
 70
1
100
AcDbDimStyleTable
 71
0
  0
DIMSTYLE
105
20D
100
AcDbSymbolTableRecord
100
AcDbDimStyleTableRecord
  2
STANDARD
 70
0
  3

  4

 40
1.0
 41
3.5
 42
0.0625
 43
0.38
 44
0.18
 45
0.0
 46
0.0
 47
0.01
 48
0.01
140
3.5
141
0.09
142
0.0
143
25.4
144
1.0
145
0.0
146
1.0
147
0.09
 71
1.0
 72
0.0
 73
0
 74
0
 75
0
 76
0
 77
1
 78
8
170
0
171
2
172
0
173
0
174
0
175
0
176
0
177
0
178
0
270
2
271
2
272
2
273
2
274
2
275
0
280
0
281
0
282
0
283
1
284
8
285
0
286
0
287
3
288
0
340
11
341
204
342
204
343
204
344
204
  0
DIMSTYLE
105
20E
100
AcDbSymbolTableRecord
100
AcDbDimStyleTableRecord
  2
DIMSTYLE_1
 70
0
  3

  4

 40
1.0
 41
3.5
 42
0.0625
 43
0.38
 44
0.18
 45
0.0
 46
0.0
 47
0.15
 48
0.15
140
3.5
141
0.09
142
0.0
143
25.4
144
1.0
145
0.0
146
1.0
147
0.09
 71
0.0
 72
0.0
 73
0
 74
0
 75
0
 76
0
 77
1
 78
8
170
0
171
2
172
0
173
0
174
0
175
0
176
0
177
0
178
0
270
2
271
2
272
2
273
2
274
2
275
0
280
0
281
0
282
0
283
1
284
8
285
0
286
0
287
3
288
0
340
11
341
204
342
204
343
204
344
204
  0
DIMSTYLE
105
20F
100
AcDbSymbolTableRecord
100
AcDbDimStyleTableRecord
  2
DIMSTYLE_2
 70
0
  3

  4

 40
1.0
 41
3.5
 42
0.0625
 43
0.38
 44
0.18
 45
0.0
 46
0.0
 47
0.1
 48
0.1
140
3.5
141
0.09
142
0.0
143
25.4
144
1.0
145
0.0
146
1.0
147
0.09
 71
0.0
 72
0.0
 73
0
 74
0
 75
0
 76
0
 77
1
 78
8
170
0
171
2
172
0
173
0
174
0
175
0
176
0
177
0
178
0
270
2
271
2
272
2
273
2
274
2
275
0
280
0
281
0
282
0
283
1
284
8
285
0
286
0
287
3
288
0
340
11
341
204
342
204
343
204
344
204
  0
DIMSTYLE
105
210
100
AcDbSymbolTableRecord
100
AcDbDimStyleTableRecord
  2
DIMSTYLE_3
 70
0
  3

  4

 40
1.0
 41
3.5
 42
0.0625
 43
0.38
 44
0.18
 45
0.0
 46
0.0
 47
0.1
 48
0.1
140
3.5
141
0.09
142
0.0
143
25.4
144
1.0
145
0.0
146
1.0
147
0.09
 71
0.0
 72
0.0
 73
0
 74
0
 75
0
 76
0
 77
1
 78
8
170
0
171
2
172
0
173
0
174
0
175
0
176
0
177
0
178
0
270
2
271
2
272
2
273
2
274
2
275
0
280
0
281
0
282
0
283
1
284
8
285
0
286
0
287
3
288
0
340
11
341
204
342
204
343
204
344
204
  0
ENDTAB
  0
ENDSEC
  0
SECTION
  2
BLOCKS
  0
BLOCK
  5
20
100
AcDbEntity
  8
0
100
AcDbBlockBegin
  2
*Model_Space
 70
0
 10
0.0
 20
0.0
 30
0.0
  3
*Model_Space
  1

  0
ENDBLK
  5
21
100
AcDbEntity
  8
0
100
AcDbBlockEnd
  0
BLOCK
  5
1C
100
AcDbEntity
  8
0
100
AcDbBlockBegin
  2
*Paper_Space
 70
0
 10
0.0
 20
0.0
 30
0.0
  3
*Paper_Space
  1

  0
ENDBLK
  5
1D
100
AcDbEntity
  8
0
100
AcDbBlockEnd
  0
BLOCK
  5
211
100
AcDbEntity
  8
0
100
AcDbBlockBegin
  2
_FILLED
 70
64
 10
0.0
 20
0.0
  3
_FILLED
  1

  0
SOLID
  5
212
100
AcDbEntity
  8
0
  6
BYBLOCK
 62
0
100
AcDbTrace
 10
0.0
 20
0.0
 11
-1.0
 21
0.1857142857
 12
-1.0
 22
-0.1857142857
 13
-1.0
 23
-0.1857142857
  0
ENDBLK
  5
213
100
AcDbEntity
  8
0
  6
BYBLOCK
 62
0
100
AcDbBlockEnd
  0
BLOCK
  5
214
100
AcDbEntity
  8
0
100
AcDbBlockBegin
 62
2
  6
CONTINUOUS
  2
*D0
 70
65
 10
0.0
 20
0.0
  3
*D0
  1

  0
MTEXT
  5
215
100
AcDbEntity
  8
0
100
AcDbMText
 62
2
  6
CONTINUOUS
  7
STANDARD
 71
2
 72
1
 10
79.0482573727
 20
152.5604334227
 30
0.0
 11
1.0
 21
0.0
 31
0.0
 44
0.9
  1
90
 40
3.5
 41
3.5
  0
LINE
  5
216
100
AcDbEntity
  8
0
100
AcDbLine
 62
2
  6
CONTINUOUS
 10
34.0482573727
 20
194.2412868633
 11
34.0482573727
 21
146.6854334227
  0
LINE
  5
217
100
AcDbEntity
  8
0
100
AcDbLine
 62
2
  6
CONTINUOUS
 10
124.0482573727
 20
194.2412868633
 11
124.0482573727
 21
146.6854334227
  0
LINE
  5
218
100
AcDbEntity
  8
0
100
AcDbLine
 62
2
  6
CONTINUOUS
 10
34.0482573727
 20
148.1854334227
 11
79.0482573727
 21
148.1854334227
  0
LINE
  5
219
100
AcDbEntity
  8
0
100
AcDbLine
 62
2
  6
CONTINUOUS
 10
124.0482573727
 20
148.1854334227
 11
79.0482573727
 21
148.1854334227
  0
INSERT
  5
21A
100
AcDbEntity
  8
0
100
AcDbBlockReference
 62
2
  6
CONTINUOUS
  2
_FILLED
 10
34.0482573727
 20
148.1854334227
 41
3.5
 42
3.5
 43
3.5
 50
180.0
  0
INSERT
  5
21B
100
AcDbEntity
  8
0
100
AcDbBlockReference
 62
2
  6
CONTINUOUS
  2
_FILLED
 10
124.0482573727
 20
148.1854334227
 41
3.5
 42
3.5
 43
3.5
  0
ENDBLK
  5
21C
100
AcDbEntity
  8
0
  6
BYBLOCK
 62
0
100
AcDbBlockEnd
  0
BLOCK
  5
21D
100
AcDbEntity
  8
0
100
AcDbBlockBegin
 62
2
  6
CONTINUOUS
  2
*D1
 70
65
 10
0.0
 20
0.0
  3
*D1
  1

  0
MTEXT
  5
21E
100
AcDbEntity
  8
0
100
AcDbMText
 62
2
  6
CONTINUOUS
  7
STANDARD
 71
2
 72
1
 10
79.0482573727
 20
141.0798153375
 30
0.0
 11
1.0
 21
0.0
 31
0.0
 44
0.9
  1
116
 40
3.5
 41
5.25
  0
LINE
  5
21F
100
AcDbEntity
  8
0
100
AcDbLine
 62
2
  6
CONTINUOUS
 10
21.0482573727
 20
194.2412868633
 11
21.0482573727
 21
135.2048153375
  0
LINE
  5
220
100
AcDbEntity
  8
0
100
AcDbLine
 62
2
  6
CONTINUOUS
 10
137.0482573727
 20
194.2412868633
 11
137.0482573727
 21
135.2048153375
  0
LINE
  5
221
100
AcDbEntity
  8
0
100
AcDbLine
 62
2
  6
CONTINUOUS
 10
21.0482573727
 20
136.7048153375
 11
79.0482573727
 21
136.7048153375
  0
LINE
  5
222
100
AcDbEntity
  8
0
100
AcDbLine
 62
2
  6
CONTINUOUS
 10
137.0482573727
 20
136.7048153375
 11
79.0482573727
 21
136.7048153375
  0
INSERT
  5
223
100
AcDbEntity
  8
0
100
AcDbBlockReference
 62
2
  6
CONTINUOUS
  2
_FILLED
 10
21.0482573727
 20
136.7048153375
 41
3.5
 42
3.5
 43
3.5
 50
180.0
  0
INSERT
  5
224
100
AcDbEntity
  8
0
100
AcDbBlockReference
 62
2
  6
CONTINUOUS
  2
_FILLED
 10
137.0482573727
 20
136.7048153375
 41
3.5
 42
3.5
 43
3.5
  0
ENDBLK
  5
225
100
AcDbEntity
  8
0
  6
BYBLOCK
 62
0
100
AcDbBlockEnd
  0
BLOCK
  5
226
100
AcDbEntity
  8
0
100
AcDbBlockBegin
 62
2
  6
CONTINUOUS
  2
*D2
 70
65
 10
0.0
 20
0.0
  3
*D2
  1

  0
MTEXT
  5
227
100
AcDbEntity
  8
0
100
AcDbMText
 62
2
  6
CONTINUOUS
  7
STANDARD
 71
2
 72
1
 10
10.1016347494
 20
194.7412868633
 30
0.0
 11
0.0
 21
1.0
 31
0.0
 44
0.9
  1
62
 40
3.5
 41
3.5
  0
LINE
  5
228
100
AcDbEntity
  8
0
100
AcDbLine
 62
2
  6
CONTINUOUS
 10
78.5482573727
 20
225.7412868633
 11
12.9766347494
 21
225.7412868633
  0
LINE
  5
229
100
AcDbEntity
  8
0
100
AcDbLine
 62
2
  6
CONTINUOUS
 10
78.5482573727
 20
163.7412868633
 11
12.9766347494
 21
163.7412868633
  0
LINE
  5
22A
100
AcDbEntity
  8
0
100
AcDbLine
 62
2
  6
CONTINUOUS
 10
14.4766347494
 20
225.7412868633
 11
14.4766347494
 21
194.7412868633
  0
LINE
  5
22B
100
AcDbEntity
  8
0
100
AcDbLine
 62
2
  6
CONTINUOUS
 10
14.4766347494
 20
163.7412868633
 11
14.4766347494
 21
194.7412868633
  0
INSERT
  5
22C
100
AcDbEntity
  8
0
100
AcDbBlockReference
 62
2
  6
CONTINUOUS
  2
_FILLED
 10
14.4766347494
 20
225.7412868633
 41
3.5
 42
3.5
 43
3.5
 50
90.0
  0
INSERT
  5
22D
100
AcDbEntity
  8
0
100
AcDbBlockReference
 62
2
  6
CONTINUOUS
  2
_FILLED
 10
14.4766347494
 20
163.7412868633
 41
3.5
 42
3.5
 43
3.5
 50
270.0
  0
ENDBLK
  5
22E
100
AcDbEntity
  8
0
  6
BYBLOCK
 62
0
100
AcDbBlockEnd
  0
BLOCK
  5
22F
100
AcDbEntity
  8
0
100
AcDbBlockBegin
 62
2
  6
CONTINUOUS
  2
*D3
 70
65
 10
0.0
 20
0.0
  3
*D3
  1

  0
MTEXT
  5
230
100
AcDbEntity
  8
0
100
AcDbMText
 62
2
  6
CONTINUOUS
  7
STANDARD
 71
2
 72
1
 10
173.2722386871
 20
252.6784072473
 30
0.0
 11
1.0
 21
0.0
 31
0.0
 44
0.9
  1
33.5
 40
3.5
 41
7.0
  0
LINE
  5
231
100
AcDbEntity
  8
0
100
AcDbLine
 62
2
  6
CONTINUOUS
 10
156.5222386871
 20
226.2412868633
 11
156.5222386871
 21
249.8034072473
  0
LINE
  5
232
100
AcDbEntity
  8
0
100
AcDbLine
 62
2
  6
CONTINUOUS
 10
190.0222386871
 20
205.8412868642
 11
190.0222386871
 21
249.8034072473
  0
LINE
  5
233
100
AcDbEntity
  8
0
100
AcDbLine
 62
2
  6
CONTINUOUS
 10
156.5222386871
 20
248.3034072473
 11
173.2722386871
 21
248.3034072473
  0
LINE
  5
234
100
AcDbEntity
  8
0
100
AcDbLine
 62
2
  6
CONTINUOUS
 10
190.0222386871
 20
248.3034072473
 11
173.2722386871
 21
248.3034072473
  0
INSERT
  5
235
100
AcDbEntity
  8
0
100
AcDbBlockReference
 62
2
  6
CONTINUOUS
  2
_FILLED
 10
156.5222386871
 20
248.3034072473
 41
3.5
 42
3.5
 43
3.5
 50
180.0
  0
INSERT
  5
236
100
AcDbEntity
  8
0
100
AcDbBlockReference
 62
2
  6
CONTINUOUS
  2
_FILLED
 10
190.0222386871
 20
248.3034072473
 41
3.5
 42
3.5
 43
3.5
  0
ENDBLK
  5
237
100
AcDbEntity
  8
0
  6
BYBLOCK
 62
0
100
AcDbBlockEnd
  0
BLOCK
  5
238
100
AcDbEntity
  8
0
100
AcDbBlockBegin
 62
2
  6
CONTINUOUS
  2
*D4
 70
65
 10
0.0
 20
0.0
  3
*D4
  1

  0
MTEXT
  5
239
100
AcDbEntity
  8
0
100
AcDbMText
 62
2
  6
CONTINUOUS
  7
STANDARD
 71
2
 72
1
 10
169.2222386871
 20
244.7902231844
 30
0.0
 11
1.0
 21
0.0
 31
0.0
 44
0.9
  1
25.4
 40
3.5
 41
7.0
  0
LINE
  5
23A
100
AcDbEntity
  8
0
100
AcDbLine
 62
2
  6
CONTINUOUS
 10
156.5222386871
 20
226.2412868633
 11
156.5222386871
 21
241.9152231844
  0
LINE
  5
23B
100
AcDbEntity
  8
0
100
AcDbLine
 62
2
  6
CONTINUOUS
 10
181.9222386871
 20
217.5112868633
 11
181.9222386871
 21
241.9152231844
  0
LINE
  5
23C
100
AcDbEntity
  8
0
100
AcDbLine
 62
2
  6
CONTINUOUS
 10
156.5222386871
 20
240.4152231844
 11
169.2222386871
 21
240.4152231844
  0
LINE
  5
23D
100
AcDbEntity
  8
0
100
AcDbLine
 62
2
  6
CONTINUOUS
 10
181.9222386871
 20
240.4152231844
 11
169.2222386871
 21
240.4152231844
  0
INSERT
  5
23E
100
AcDbEntity
  8
0
100
AcDbBlockReference
 62
2
  6
CONTINUOUS
  2
_FILLED
 10
156.5222386871
 20
240.4152231844
 41
3.5
 42
3.5
 43
3.5
 50
180.0
  0
INSERT
  5
23F
100
AcDbEntity
  8
0
100
AcDbBlockReference
 62
2
  6
CONTINUOUS
  2
_FILLED
 10
181.9222386871
 20
240.4152231844
 41
3.5
 42
3.5
 43
3.5
  0
ENDBLK
  5
240
100
AcDbEntity
  8
0
  6
BYBLOCK
 62
0
100
AcDbBlockEnd
  0
BLOCK
  5
241
100
AcDbEntity
  8
0
100
AcDbBlockBegin
 62
2
  6
CONTINUOUS
  2
*D5
 70
65
 10
0.0
 20
0.0
  3
*D5
  1

  0
MTEXT
  5
242
100
AcDbEntity
  8
0
100
AcDbMText
 62
2
  6
CONTINUOUS
  7
STANDARD
 71
2
 72
1
 10
164.1222386871
 20
237.2722474809
 30
0.0
 11
1.0
 21
0.0
 31
0.0
 44
0.9
  1
15.2
 40
3.5
 41
7.0
  0
LINE
  5
243
100
AcDbEntity
  8
0
100
AcDbLine
 62
2
  6
CONTINUOUS
 10
156.5222386871
 20
226.2412868633
 11
156.5222386871
 21
234.3972474809
  0
LINE
  5
244
100
AcDbEntity
  8
0
100
AcDbLine
 62
2
  6
CONTINUOUS
 10
171.7222386871
 20
218.0651601068
 11
171.7222386871
 21
234.3972474809
  0
LINE
  5
245
100
AcDbEntity
  8
0
100
AcDbLine
 62
2
  6
CONTINUOUS
 10
156.5222386871
 20
232.8972474809
 11
148.5222386871
 21
232.8972474809
  0
LINE
  5
246
100
AcDbEntity
  8
0
100
AcDbLine
 62
2
  6
CONTINUOUS
 10
148.5222386871
 20
232.8972474809
 11
164.1222386871
 21
232.8972474809
  0
LINE
  5
247
100
AcDbEntity
  8
0
100
AcDbLine
 62
2
  6
CONTINUOUS
 10
171.7222386871
 20
232.8972474809
 11
179.7222386871
 21
232.8972474809
  0
LINE
  5
248
100
AcDbEntity
  8
0
100
AcDbLine
 62
2
  6
CONTINUOUS
 10
179.7222386871
 20
232.8972474809
 11
164.1222386871
 21
232.8972474809
  0
INSERT
  5
249
100
AcDbEntity
  8
0
100
AcDbBlockReference
 62
2
  6
CONTINUOUS
  2
_FILLED
 10
156.5222386871
 20
232.8972474809
 41
3.5
 42
3.5
 43
3.5
  0
INSERT
  5
24A
100
AcDbEntity
  8
0
100
AcDbBlockReference
 62
2
  6
CONTINUOUS
  2
_FILLED
 10
171.7222386871
 20
232.8972474809
 41
3.5
 42
3.5
 43
3.5
 50
180.0
  0
ENDBLK
  5
24B
100
AcDbEntity
  8
0
  6
BYBLOCK
 62
0
100
AcDbBlockEnd
  0
BLOCK
  5
24C
100
AcDbEntity
  8
0
100
AcDbBlockBegin
 62
2
  6
CONTINUOUS
  2
*D6
 70
65
 10
0.0
 20
0.0
  3
*D6
  1

  0
MTEXT
  5
24D
100
AcDbEntity
  8
0
100
AcDbMText
 62
2
  6
CONTINUOUS
  7
TEXTSTYLE_2
 71
1
 72
1
 10
128.5269116313
 20
213.4129141448
 30
0.0
 11
0.4486777976
 21
0.8936935907
 31
0.0
 44
0.9
  1
{\Fgdt;n}\Ftxt;10.5
 40
3.5
 41
11.6666666667
  0
LINE
  5
24E
100
AcDbEntity
  8
0
100
AcDbLine
 62
2
  6
CONTINUOUS
 10
126.4038158102
 20
199.4331782148
 11
124.0482573727
 21
194.7412868633
  0
LINE
  5
24F
100
AcDbEntity
  8
0
100
AcDbLine
 62
2
  6
CONTINUOUS
 10
124.0482573727
 20
194.7412868633
 11
137.6713953953
 21
221.8763740047
  0
LINE
  5
250
100
AcDbEntity
  8
0
100
AcDbLine
 62
2
  6
CONTINUOUS
 10
121.6926989351
 20
190.0493955117
 11
124.0482573727
 21
194.7412868633
  0
LINE
  5
251
100
AcDbEntity
  8
0
100
AcDbLine
 62
2
  6
CONTINUOUS
 10
124.0482573727
 20
194.7412868633
 11
118.1032765549
 21
182.8998467872
  0
INSERT
  5
252
100
AcDbEntity
  8
0
100
AcDbBlockReference
 62
2
  6
CONTINUOUS
  2
_FILLED
 10
126.4038158099
 20
199.4331782142
 41
3.5
 42
3.5
 43
3.5
 50
243.3408145114
  0
INSERT
  5
253
100
AcDbEntity
  8
0
100
AcDbBlockReference
 62
2
  6
CONTINUOUS
  2
_FILLED
 10
121.6926989354
 20
190.0493955124
 41
3.5
 42
3.5
 43
3.5
 50
63.3428817316
  0
ENDBLK
  5
254
100
AcDbEntity
  8
0
  6
BYBLOCK
 62
0
100
AcDbBlockEnd
  0
BLOCK
  5
255
100
AcDbEntity
  8
0
100
AcDbBlockBegin
 62
2
  6
CONTINUOUS
  2
*D7
 70
65
 10
0.0
 20
0.0
  3
*D7
  1

  0
MTEXT
  5
256
100
AcDbEntity
  8
0
100
AcDbMText
 62
2
  6
CONTINUOUS
  7
TEXTSTYLE_2
 71
2
 72
1
 10
145.6294633061
 20
194.7412868633
 30
0.0
 11
0.0
 21
1.0
 31
0.0
 44
0.9
  1
{\Fgdt;n}\Ftxt;20
 40
3.5
 41
8.1666666667
  0
LINE
  5
257
100
AcDbEntity
  8
0
100
AcDbLine
 62
2
  6
CONTINUOUS
 10
159.1222386871
 20
204.7412868642
 11
148.5044633061
 21
204.7412868642
  0
LINE
  5
258
100
AcDbEntity
  8
0
100
AcDbLine
 62
2
  6
CONTINUOUS
 10
159.1222386871
 20
184.7412868624
 11
148.5044633061
 21
184.7412868624
  0
LINE
  5
259
100
AcDbEntity
  8
0
100
AcDbLine
 62
2
  6
CONTINUOUS
 10
150.0044633061
 20
204.7412868642
 11
150.0044633061
 21
194.7412868633
  0
LINE
  5
25A
100
AcDbEntity
  8
0
100
AcDbLine
 62
2
  6
CONTINUOUS
 10
150.0044633061
 20
184.7412868624
 11
150.0044633061
 21
194.7412868633
  0
INSERT
  5
25B
100
AcDbEntity
  8
0
100
AcDbBlockReference
 62
2
  6
CONTINUOUS
  2
_FILLED
 10
150.0044633061
 20
204.7412868642
 41
3.5
 42
3.5
 43
3.5
 50
90.0
  0
INSERT
  5
25C
100
AcDbEntity
  8
0
100
AcDbBlockReference
 62
2
  6
CONTINUOUS
  2
_FILLED
 10
150.0044633061
 20
184.7412868624
 41
3.5
 42
3.5
 43
3.5
 50
270.0
  0
ENDBLK
  5
25D
100
AcDbEntity
  8
0
  6
BYBLOCK
 62
0
100
AcDbBlockEnd
  0
ENDSEC
  0
SECTION
  2
ENTITIES
  0
LINE
  5
25E
100
AcDbEntity
  8
0
100
AcDbLine
 62
7
  6
CONTINUOUS
 10
156.5222386871
 20
225.7412868633
 11
156.5222386871
 21
219.2412868633
  0
LINE
  5
25F
100
AcDbEntity
  8
0
100
AcDbLine
 62
7
  6
CONTINUOUS
 10
156.5222386871
 20
225.7412868633
 11
174.8022386871
 21
225.7412868633
  0
SPLINE
  5
260
100
AcDbEntity
  8
0
100
AcDbSpline
 62
7
  6
CONTINUOUS
 70
4
 71
3
 72
8
 73
4
 74
129
 42
0.0000001
 43
0.0000001
 44
0.0000000001
 12
1.4142135624
 22
-0.0
 32
0.0
 13
-0.0
 23
-1.4142135624
 33
0.0
 40
0.0
 40
0.0
 40
0.0
 40
0.0
 40
1.0
 40
1.0
 40
1.0
 40
1.0
 10
174.8022386871
 20
225.7412868633
 30
0.0
 41
1.0
 10
175.3880251247
 20
225.7412868633
 30
0.0
 41
0.8047378541
 10
175.8022386871
 20
225.3270733009
 30
0.0
 41
0.8047378541
 10
175.8022386871
 20
224.7412868633
 30
0.0
 41
1.0
 11
174.8022386871
 21
225.7412868633
 31
0.0
 11
174.8133122306
 21
225.7412255497
 31
0.0
 11
174.8244346309
 21
225.741040503
 31
0.0
 11
174.8356041333
 21
225.7407300818
 31
0.0
 11
174.8468189312
 21
225.74029267
 31
0.0
 11
174.8580771659
 21
225.7397266783
 31
0.0
 11
174.8693769265
 21
225.7390305462
 31
0.0
 11
174.8807162507
 21
225.7382027434
 31
0.0
 11
174.892093125
 21
225.7372417719
 31
0.0
 11
174.9035054847
 21
225.7361461677
 31
0.0
 11
174.9149512151
 21
225.7349145028
 31
0.0
 11
174.9264281511
 21
225.7335453865
 31
0.0
 11
174.9379340789
 21
225.7320374679
 31
0.0
 11
174.9494667355
 21
225.7303894372
 31
0.0
 11
174.9610238106
 21
225.7286000276
 31
0.0
 11
174.9726029465
 21
225.7266680175
 31
0.0
 11
174.9842017395
 21
225.7245922317
 31
0.0
 11
174.9958177407
 21
225.7223715436
 31
0.0
 11
175.0074484571
 21
225.7200048769
 31
0.0
 11
175.0190913526
 21
225.7174912074
 31
0.0
 11
175.0307438495
 21
225.7148295643
 31
0.0
 11
175.0424033292
 21
225.7120190326
 31
0.0
 11
175.0540671342
 21
225.7090587544
 31
0.0
 11
175.0657325691
 21
225.7059479303
 31
0.0
 11
175.0773969019
 21
225.7026858215
 31
0.0
 11
175.0890573663
 21
225.6992717511
 31
0.0
 11
175.1007111626
 21
225.6957051056
 31
0.0
 11
175.1123554597
 21
225.6919853367
 31
0.0
 11
175.1239873968
 21
225.6881119621
 31
0.0
 11
175.1356040853
 21
225.6840845676
 31
0.0
 11
175.1472026108
 21
225.6799028078
 31
0.0
 11
175.1587800347
 21
225.6755664079
 31
0.0
 11
175.1703333967
 21
225.6710751643
 31
0.0
 11
175.1818597164
 21
225.6664289465
 31
0.0
 11
175.193355996
 21
225.6616276973
 31
0.0
 11
175.2048192219
 21
225.6566714343
 31
0.0
 11
175.2162463676
 21
225.651560251
 31
0.0
 11
175.2276343954
 21
225.646294317
 31
0.0
 11
175.238980259
 21
225.6408738793
 31
0.0
 11
175.250280906
 21
225.6352992626
 31
0.0
 11
175.2615332801
 21
225.6295708701
 31
0.0
 11
175.272734324
 21
225.623689184
 31
0.0
 11
175.2838809812
 21
225.6176547658
 31
0.0
 11
175.2949701991
 21
225.6114682565
 31
0.0
 11
175.3059989314
 21
225.605130377
 31
0.0
 11
175.3169641405
 21
225.5986419283
 31
0.0
 11
175.3278628004
 21
225.5920037912
 31
0.0
 11
175.3386918988
 21
225.5852169265
 31
0.0
 11
175.3494484405
 21
225.5782823745
 31
0.0
 11
175.360129449
 21
225.5712012551
 31
0.0
 11
175.37073197
 21
225.5639747672
 31
0.0
 11
175.3812530736
 21
225.5566041882
 31
0.0
 11
175.3916898566
 21
225.5490908734
 31
0.0
 11
175.4020394458
 21
225.5414362555
 31
0.0
 11
175.4122989999
 21
225.5336418436
 31
0.0
 11
175.4224657122
 21
225.5257092223
 31
0.0
 11
175.4325368135
 21
225.5176400508
 31
0.0
 11
175.4425095738
 21
225.509436062
 31
0.0
 11
175.4523813055
 21
225.5010990609
 31
0.0
 11
175.4621493653
 21
225.4926309235
 31
0.0
 11
175.4718111565
 21
225.4840335955
 31
0.0
 11
175.4813641317
 21
225.4753090908
 31
0.0
 11
175.4908057947
 21
225.4664594899
 31
0.0
 11
175.5001337026
 21
225.4574869382
 31
0.0
 11
175.5093454683
 21
225.4483936445
 31
0.0
 11
175.518438762
 21
225.4391818788
 31
0.0
 11
175.5274113137
 21
225.4298539708
 31
0.0
 11
175.5362609146
 21
225.4204123079
 31
0.0
 11
175.5449854193
 21
225.4108593327
 31
0.0
 11
175.5535827473
 21
225.4011975414
 31
0.0
 11
175.5620508847
 21
225.3914294817
 31
0.0
 11
175.5703878859
 21
225.38155775
 31
0.0
 11
175.5785918747
 21
225.3715849897
 31
0.0
 11
175.5866610461
 21
225.3615138884
 31
0.0
 11
175.5945936674
 21
225.351347176
 31
0.0
 11
175.6023880793
 21
225.341087622
 31
0.0
 11
175.6100426972
 21
225.3307380328
 31
0.0
 11
175.617556012
 21
225.3203012497
 31
0.0
 11
175.624926591
 21
225.3097801462
 31
0.0
 11
175.6321530789
 21
225.2991776252
 31
0.0
 11
175.6392341983
 21
225.2884966167
 31
0.0
 11
175.6461687503
 21
225.277740075
 31
0.0
 11
175.6529556151
 21
225.2669109765
 31
0.0
 11
175.6595937522
 21
225.2560123167
 31
0.0
 11
175.6660822008
 21
225.2450471076
 31
0.0
 11
175.6724200803
 21
225.2340183753
 31
0.0
 11
175.6786065896
 21
225.2229291574
 31
0.0
 11
175.6846410078
 21
225.2117825002
 31
0.0
 11
175.6905226939
 21
225.2005814563
 31
0.0
 11
175.6962510864
 21
225.1893290821
 31
0.0
 11
175.7018257031
 21
225.1780284351
 31
0.0
 11
175.7072461409
 21
225.1666825716
 31
0.0
 11
175.7125120748
 21
225.1552945438
 31
0.0
 11
175.7176232582
 21
225.1438673981
 31
0.0
 11
175.7225795211
 21
225.1324041722
 31
0.0
 11
175.7273807703
 21
225.1209078926
 31
0.0
 11
175.7320269882
 21
225.1093815728
 31
0.0
 11
175.7365182317
 21
225.0978282109
 31
0.0
 11
175.7408546316
 21
225.086250787
 31
0.0
 11
175.7450363914
 21
225.0746522615
 31
0.0
 11
175.7490637859
 21
225.063035573
 31
0.0
 11
175.7529371605
 21
225.0514036359
 31
0.0
 11
175.7566569294
 21
225.0397593388
 31
0.0
 11
175.7602235749
 21
225.0281055425
 31
0.0
 11
175.7636376453
 21
225.0164450781
 31
0.0
 11
175.7668997541
 21
225.0047807452
 31
0.0
 11
175.7700105782
 21
224.9931153104
 31
0.0
 11
175.7729708565
 21
224.9814515054
 31
0.0
 11
175.7757813881
 21
224.9697920257
 31
0.0
 11
175.7784430312
 21
224.9581395288
 31
0.0
 11
175.7809567008
 21
224.9464966333
 31
0.0
 11
175.7833233674
 21
224.9348659169
 31
0.0
 11
175.7855440555
 21
224.9232499157
 31
0.0
 11
175.7876198413
 21
224.9116511227
 31
0.0
 11
175.7895518515
 21
224.9000719868
 31
0.0
 11
175.791341261
 21
224.8885149117
 31
0.0
 11
175.7929892918
 21
224.876982255
 31
0.0
 11
175.7944972104
 21
224.8654763273
 31
0.0
 11
175.7958663266
 21
224.8539993913
 31
0.0
 11
175.7970979916
 21
224.8425536609
 31
0.0
 11
175.7981935957
 21
224.8311413012
 31
0.0
 11
175.7991545672
 21
224.8197644269
 31
0.0
 11
175.79998237
 21
224.8084251027
 31
0.0
 11
175.8006785021
 21
224.7971253421
 31
0.0
 11
175.8012444938
 21
224.7858671074
 31
0.0
 11
175.8016819056
 21
224.7746523095
 31
0.0
 11
175.8019923268
 21
224.763482807
 31
0.0
 11
175.8021773735
 21
224.7523604068
 31
0.0
 11
175.8022386871
 21
224.7412868633
 31
0.0
  0
LINE
  5
261
100
AcDbEntity
  8
0
100
AcDbLine
 62
7
  6
CONTINUOUS
 10
175.8022386871
 20
224.7412868633
 11
175.8022386871
 21
223.3443194072
  0
SPLINE
  5
262
100
AcDbEntity
  8
0
100
AcDbSpline
 62
7
  6
CONTINUOUS
 70
4
 71
3
 72
8
 73
4
 74
65
 42
0.0000001
 43
0.0000001
 44
0.0000000001
 12
-0.3346583746
 22
0.488218322
 32
0.0
 13
0.0
 23
0.5919065447
 33
0.0
 40
0.0
 40
0.0
 40
0.0
 40
0.0
 40
1.0
 40
1.0
 40
1.0
 40
1.0
 10
175.9774153659
 20
222.7789288441
 30
0.0
 41
1.0
 10
175.8624284849
 20
222.9466781262
 30
0.0
 41
0.9701349458
 10
175.8022386871
 20
223.1409433898
 30
0.0
 41
0.9701349458
 10
175.8022386871
 20
223.3443194072
 30
0.0
 41
1.0
 11
175.9774153659
 21
222.7789288441
 31
0.0
 11
175.9722181027
 21
222.7865866491
 31
0.0
 11
175.967085016
 21
222.7943027296
 31
0.0
 11
175.9620170401
 21
222.802076303
 31
0.0
 11
175.9570150972
 21
222.8099065675
 31
0.0
 11
175.9520800966
 21
222.8177927023
 31
0.0
 11
175.9472129343
 21
222.8257338674
 31
0.0
 11
175.9424144928
 21
222.8337292047
 31
0.0
 11
175.9376856403
 21
222.8417778375
 31
0.0
 11
175.9330272305
 21
222.8498788711
 31
0.0
 11
175.9284401019
 21
222.8580313932
 31
0.0
 11
175.9239250775
 21
222.8662344741
 31
0.0
 11
175.9194829644
 21
222.8744871667
 31
0.0
 11
175.9151145533
 21
222.8827885077
 31
0.0
 11
175.9108206178
 21
222.8911375169
 31
0.0
 11
175.9066019145
 21
222.8995331983
 31
0.0
 11
175.9024591823
 21
222.9079745403
 31
0.0
 11
175.8983931421
 21
222.9164605159
 31
0.0
 11
175.8944044962
 21
222.9249900834
 31
0.0
 11
175.8904939281
 21
222.9335621864
 31
0.0
 11
175.8866621022
 21
222.9421757548
 31
0.0
 11
175.8829096633
 21
222.9508297046
 31
0.0
 11
175.8792372364
 21
222.9595229389
 31
0.0
 11
175.8756454261
 21
222.968254348
 31
0.0
 11
175.8721348167
 21
222.9770228099
 31
0.0
 11
175.8687059715
 21
222.9858271912
 31
0.0
 11
175.8653594327
 21
222.9946663468
 31
0.0
 11
175.862095721
 21
223.0035391211
 31
0.0
 11
175.8589153358
 21
223.0124443481
 31
0.0
 11
175.855818754
 21
223.0213808522
 31
0.0
 11
175.8528064308
 21
223.0303474485
 31
0.0
 11
175.849878799
 21
223.0393429433
 31
0.0
 11
175.8470362684
 21
223.0483661348
 31
0.0
 11
175.8442792266
 21
223.0574158135
 31
0.0
 11
175.8416080378
 21
223.0664907629
 31
0.0
 11
175.8390230432
 21
223.0755897597
 31
0.0
 11
175.836524561
 21
223.0847115748
 31
0.0
 11
175.8341128856
 21
223.0938549736
 31
0.0
 11
175.8317882882
 21
223.1030187165
 31
0.0
 11
175.8295510163
 21
223.1122015597
 31
0.0
 11
175.8274012938
 21
223.1214022554
 31
0.0
 11
175.8253393206
 21
223.1306195527
 31
0.0
 11
175.8233652732
 21
223.1398521982
 31
0.0
 11
175.8214793039
 21
223.1490989361
 31
0.0
 11
175.8196815414
 21
223.1583585093
 31
0.0
 11
175.8179720905
 21
223.1676296595
 31
0.0
 11
175.8163510321
 21
223.1769111283
 31
0.0
 11
175.8148184234
 21
223.1862016572
 31
0.0
 11
175.8133742977
 21
223.1954999886
 31
0.0
 11
175.8120186647
 21
223.204804866
 31
0.0
 11
175.8107515105
 21
223.2141150349
 31
0.0
 11
175.8095727976
 21
223.223429243
 31
0.0
 11
175.8084824652
 21
223.232746241
 31
0.0
 11
175.8074804291
 21
223.2420647832
 31
0.0
 11
175.806566582
 21
223.2513836278
 31
0.0
 11
175.8057407935
 21
223.2607015373
 31
0.0
 11
175.8050029106
 21
223.2700172798
 31
0.0
 11
175.8043527574
 21
223.2793296283
 31
0.0
 11
175.8037901356
 21
223.2886373625
 31
0.0
 11
175.8033148248
 21
223.2979392684
 31
0.0
 11
175.8029265822
 21
223.307234139
 31
0.0
 11
175.8026251437
 21
223.3165207751
 31
0.0
 11
175.8024102233
 21
223.3257979855
 31
0.0
 11
175.8022815139
 21
223.3350645874
 31
0.0
 11
175.8022386871
 21
223.3443194072
 31
0.0
  0
SPLINE
  5
263
100
AcDbEntity
  8
0
100
AcDbSpline
 62
7
  6
CONTINUOUS
 70
4
 71
3
 72
8
 73
4
 74
129
 42
0.0000001
 43
0.0000001
 44
0.0000000001
 12
0.4612021233
 22
-1.5130477396
 32
0.0
 13
1.5605063825
 23
-0.2585356669
 33
0.0
 40
0.0
 40
0.0
 40
0.0
 40
0.0
 40
1.0
 40
1.0
 40
1.0
 40
1.0
 10
175.9774153659
 20
222.7789288441
 30
0.0
 41
1.0
 10
176.1482683691
 20
222.2184180893
 30
0.0
 41
0.8998029783
 10
176.5889774099
 20
221.8322334234
 30
0.0
 41
0.8998029783
 10
177.1670692886
 20
221.7364585063
 30
0.0
 41
1.0
 11
175.9774153659
 21
222.7789288441
 31
0.0
 11
175.9810714875
 21
222.7671093407
 31
0.0
 11
175.9848337917
 21
222.7552930839
 31
0.0
 11
175.9887025971
 21
222.7434814058
 31
0.0
 11
175.9926782016
 21
222.73167565
 31
0.0
 11
175.9967608819
 21
222.7198771706
 31
0.0
 11
176.0009508932
 21
222.7080873326
 31
0.0
 11
176.0052484693
 21
222.6963075107
 31
0.0
 11
176.0096538215
 21
222.6845390895
 31
0.0
 11
176.0141671391
 21
222.6727834626
 31
0.0
 11
176.0187885882
 21
222.6610420326
 31
0.0
 11
176.0235183124
 21
222.6493162107
 31
0.0
 11
176.0283564317
 21
222.6376074156
 31
0.0
 11
176.0333030426
 21
222.6259170738
 31
0.0
 11
176.0383582178
 21
222.6142466188
 31
0.0
 11
176.0435220057
 21
222.6025974906
 31
0.0
 11
176.0487944307
 21
222.5909711352
 31
0.0
 11
176.0541754923
 21
222.5793690043
 31
0.0
 11
176.0596651653
 21
222.5677925548
 31
0.0
 11
176.0652633994
 21
222.5562432478
 31
0.0
 11
176.0709701191
 21
222.5447225487
 31
0.0
 11
176.0767852235
 21
222.5332319265
 31
0.0
 11
176.0827085861
 21
222.521772853
 31
0.0
 11
176.0887400544
 21
222.5103468025
 31
0.0
 11
176.0948794504
 21
222.4989552514
 31
0.0
 11
176.1011265696
 21
222.487599677
 31
0.0
 11
176.1074811816
 21
222.476281558
 31
0.0
 11
176.1139430296
 21
222.4650023728
 31
0.0
 11
176.1205118303
 21
222.4537635997
 31
0.0
 11
176.1271872741
 21
222.4425667162
 31
0.0
 11
176.1339690248
 21
222.4314131979
 31
0.0
 11
176.1408567196
 21
222.4203045188
 31
0.0
 11
176.147849969
 21
222.4092421498
 31
0.0
 11
176.1549483568
 21
222.398227559
 31
0.0
 11
176.1621514403
 21
222.3872622102
 31
0.0
 11
176.1694587501
 21
222.376347563
 31
0.0
 11
176.1768697901
 21
222.3654850719
 31
0.0
 11
176.1843840375
 21
222.3546761858
 31
0.0
 11
176.1920009433
 21
222.3439223473
 31
0.0
 11
176.1997199318
 21
222.3332249922
 31
0.0
 11
176.2075404009
 21
222.3225855489
 31
0.0
 11
176.2154617223
 21
222.3120054377
 31
0.0
 11
176.2234832416
 21
222.3014860703
 31
0.0
 11
176.2316042783
 21
222.2910288491
 31
0.0
 11
176.2398241261
 21
222.2806351668
 31
0.0
 11
176.2481420529
 21
222.2703064056
 31
0.0
 11
176.2565573013
 21
222.2600439367
 31
0.0
 11
176.2650690884
 21
222.2498491199
 31
0.0
 11
176.2736766062
 21
222.2397233026
 31
0.0
 11
176.282379022
 21
222.2296678196
 31
0.0
 11
176.2911754785
 21
222.2196839924
 31
0.0
 11
176.3000650938
 21
222.2097731285
 31
0.0
 11
176.3090469622
 21
222.1999365211
 31
0.0
 11
176.318120154
 21
222.1901754484
 31
0.0
 11
176.3272837164
 21
222.1804911732
 31
0.0
 11
176.336536673
 21
222.1708849421
 31
0.0
 11
176.3458780249
 21
222.161357985
 31
0.0
 11
176.3553067507
 21
222.151911515
 31
0.0
 11
176.3648218069
 21
222.1425467275
 31
0.0
 11
176.3744221283
 21
222.1332647996
 31
0.0
 11
176.3841066284
 21
222.1240668901
 31
0.0
 11
176.3938741997
 21
222.1149541384
 31
0.0
 11
176.4037237144
 21
222.1059276647
 31
0.0
 11
176.4136540245
 21
222.0969885689
 31
0.0
 11
176.4236639626
 21
222.0881379307
 31
0.0
 11
176.433752342
 21
222.0793768086
 31
0.0
 11
176.4439179573
 21
222.0707062401
 31
0.0
 11
176.454159585
 21
222.0621272408
 31
0.0
 11
176.464475984
 21
222.0536408042
 31
0.0
 11
176.4748658957
 21
222.0452479015
 31
0.0
 11
176.485328045
 21
222.0369494808
 31
0.0
 11
176.4958611408
 21
222.0287464671
 31
0.0
 11
176.5064638759
 21
222.0206397617
 31
0.0
 11
176.5171349286
 21
222.0126302422
 31
0.0
 11
176.527872962
 21
222.0047187619
 31
0.0
 11
176.5386766258
 21
221.9969061496
 31
0.0
 11
176.5495445557
 21
221.9891932093
 31
0.0
 11
176.5604753751
 21
221.98158072
 31
0.0
 11
176.5714676946
 21
221.9740694354
 31
0.0
 11
176.5825201133
 21
221.9666600837
 31
0.0
 11
176.5936312192
 21
221.9593533672
 31
0.0
 11
176.6047995897
 21
221.9521499625
 31
0.0
 11
176.6160237922
 21
221.9450505197
 31
0.0
 11
176.6273023848
 21
221.938055663
 31
0.0
 11
176.6386339168
 21
221.9311659898
 31
0.0
 11
176.6500169294
 21
221.9243820711
 31
0.0
 11
176.6614499562
 21
221.917704451
 31
0.0
 11
176.6729315238
 21
221.9111336468
 31
0.0
 11
176.6844601527
 21
221.9046701491
 31
0.0
 11
176.6960343574
 21
221.8983144212
 31
0.0
 11
176.7076526473
 21
221.8920668995
 31
0.0
 11
176.7193135275
 21
221.8859279932
 31
0.0
 11
176.7310154989
 21
221.8798980846
 31
0.0
 11
176.7427570594
 21
221.8739775285
 31
0.0
 11
176.7545367039
 21
221.868166653
 31
0.0
 11
176.7663529255
 21
221.8624657588
 31
0.0
 11
176.7782042155
 21
221.8568751196
 31
0.0
 11
176.7900890645
 21
221.8513949822
 31
0.0
 11
176.8020059628
 21
221.8460255662
 31
0.0
 11
176.8139534007
 21
221.8407670648
 31
0.0
 11
176.8259298698
 21
221.8356196439
 31
0.0
 11
176.8379338626
 21
221.8305834431
 31
0.0
 11
176.8499638741
 21
221.8256585755
 31
0.0
 11
176.8620184016
 21
221.8208451277
 31
0.0
 11
176.8740959455
 21
221.81614316
 31
0.0
 11
176.88619501
 21
221.811552707
 31
0.0
 11
176.8983141035
 21
221.8070737771
 31
0.0
 11
176.9104517391
 21
221.8027063531
 31
0.0
 11
176.9226064352
 21
221.7984503925
 31
0.0
 11
176.9347767161
 21
221.7943058275
 31
0.0
 11
176.9469611123
 21
221.7902725652
 31
0.0
 11
176.9591581614
 21
221.786350488
 31
0.0
 11
176.9713664079
 21
221.782539454
 31
0.0
 11
176.9835844046
 21
221.7788392969
 31
0.0
 11
176.9958107121
 21
221.7752498264
 31
0.0
 11
177.0080439002
 21
221.7717708287
 31
0.0
 11
177.0202825477
 21
221.7684020665
 31
0.0
 11
177.032525243
 21
221.7651432796
 31
0.0
 11
177.0447705848
 21
221.7619941851
 31
0.0
 11
177.0570171822
 21
221.7589544776
 31
0.0
 11
177.0692636552
 21
221.7560238296
 31
0.0
 11
177.0815086352
 21
221.7532018921
 31
0.0
 11
177.0937507654
 21
221.7504882947
 31
0.0
 11
177.1059887011
 21
221.7478826457
 31
0.0
 11
177.11822111
 21
221.7453845333
 31
0.0
 11
177.1304466726
 21
221.742993525
 31
0.0
 11
177.1426640827
 21
221.7407091687
 31
0.0
 11
177.1548720477
 21
221.7385309927
 31
0.0
 11
177.1670692886
 21
221.7364585063
 31
0.0
  0
LINE
  5
264
100
AcDbEntity
  8
0
100
AcDbLine
 62
7
  6
CONTINUOUS
 10
177.8622386871
 20
221.6212868633
 11
177.1670692886
 21
221.7364585063
  0
LINE
  5
265
100
AcDbEntity
  8
0
100
AcDbLine
 62
7
  6
CONTINUOUS
 10
177.8622386871
 20
221.2862868633
 11
177.8622386871
 21
221.6212868633
  0
LINE
  5
266
100
AcDbEntity
  8
0
100
AcDbLine
 62
7
  6
CONTINUOUS
 10
178.8022386871
 20
220.7112868633
 11
177.8622386871
 21
221.2862868633
  0
LINE
  5
267
100
AcDbEntity
  8
0
100
AcDbLine
 62
7
  6
CONTINUOUS
 10
179.3022386871
 20
220.7112868633
 11
178.8022386871
 21
220.7112868633
  0
LINE
  5
268
100
AcDbEntity
  8
0
100
AcDbLine
 62
7
  6
CONTINUOUS
 10
179.6422386871
 20
221.3412868633
 11
179.3022386871
 21
220.7112868633
  0
LINE
  5
269
100
AcDbEntity
  8
0
100
AcDbLine
 62
7
  6
CONTINUOUS
 10
181.4322386871
 20
220.9912868633
 11
179.6422386871
 21
221.3412868633
  0
LINE
  5
26A
100
AcDbEntity
  8
0
100
AcDbLine
 62
7
  6
CONTINUOUS
 10
181.9222386871
 20
217.4612868633
 11
181.4322386871
 21
220.9912868633
  0
LINE
  5
26B
100
AcDbEntity
  8
0
100
AcDbLine
 62
7
  6
CONTINUOUS
 10
181.9222386871
 20
217.0112868633
 11
181.9222386871
 21
217.4612868633
  0
LINE
  5
26C
100
AcDbEntity
  8
0
100
AcDbLine
 62
7
  6
CONTINUOUS
 10
179.2253780301
 20
217.0112868633
 11
181.9222386871
 21
217.0112868633
  0
SPLINE
  5
26D
100
AcDbEntity
  8
0
100
AcDbSpline
 62
7
  6
CONTINUOUS
 70
4
 71
3
 72
8
 73
4
 74
3
 42
0.0000001
 43
0.0000001
 44
0.0000000001
 12
-0.2957421103
 22
0.1040540057
 32
0.0
 13
-0.2971039449
 23
0.1000993398
 33
0.0
 40
0.0
 40
0.0
 40
0.0
 40
0.0
 40
1.0
 40
1.0
 40
1.0
 40
1.0
 10
179.5218076526
 20
216.9092079194
 30
0.0
 41
1.0
 10
179.423225487
 20
216.9438931025
 30
0.0
 41
0.999985168
 10
179.3244141473
 20
216.9779199218
 30
0.0
 41
0.999985168
 10
179.2253780301
 20
217.0112868633
 30
0.0
 41
1.0
 11
179.5218076526
 21
216.9092079194
 31
0.0
 11
179.3737630726
 21
216.9607417301
 31
0.0
 11
179.2253780301
 21
217.0112868633
 31
0.0
  0
SPLINE
  5
26E
100
AcDbEntity
  8
0
100
AcDbSpline
 62
7
  6
CONTINUOUS
 70
4
 71
3
 72
8
 73
4
 74
65
 42
0.0000001
 43
0.0000001
 44
0.0000000001
 12
0.0
 22
0.3467832474
 32
0.0
 13
-0.3271261129
 23
0.115096164
 33
0.0
 40
0.0
 40
0.0
 40
0.0
 40
0.0
 40
1.0
 40
1.0
 40
1.0
 40
1.0
 10
179.7222386871
 20
216.6262131825
 30
0.0
 41
1.0
 10
179.7222386871
 20
216.7579640751
 30
0.0
 41
0.8773710264
 10
179.6460903498
 20
216.8654802525
 30
0.0
 41
0.8773710264
 10
179.5218076526
 20
216.9092079194
 30
0.0
 41
1.0
 11
179.7222386871
 21
216.6262131825
 31
0.0
 11
179.7221894753
 21
216.6316468433
 31
0.0
 11
179.7220407492
 21
216.6371092169
 31
0.0
 11
179.7217909273
 21
216.6425977902
 31
0.0
 11
179.7214385047
 21
216.6481099659
 31
0.0
 11
179.7209820578
 21
216.6536430652
 31
0.0
 11
179.7204202491
 21
216.6591943301
 31
0.0
 11
179.719751832
 21
216.6647609269
 31
0.0
 11
179.7189756555
 21
216.6703399496
 31
0.0
 11
179.7180906684
 21
216.6759284234
 31
0.0
 11
179.7170959236
 21
216.6815233091
 31
0.0
 11
179.7159905824
 21
216.6871215069
 31
0.0
 11
179.7147739185
 21
216.6927198616
 31
0.0
 11
179.7134453213
 21
216.6983151671
 31
0.0
 11
179.7120042997
 21
216.7039041715
 31
0.0
 11
179.710450485
 21
216.7094835829
 31
0.0
 11
179.7087836341
 21
216.7150500745
 31
0.0
 11
179.7070036319
 21
216.7206002909
 31
0.0
 11
179.7051104936
 21
216.7261308541
 31
0.0
 11
179.7031043668
 21
216.7316383692
 31
0.0
 11
179.7009855327
 21
216.7371194315
 31
0.0
 11
179.6987544078
 21
216.7425706328
 31
0.0
 11
179.6964115442
 21
216.7479885676
 31
0.0
 11
179.6939576307
 21
216.7533698405
 31
0.0
 11
179.6913934923
 21
216.7587110725
 31
0.0
 11
179.68872009
 21
216.7640089078
 31
0.0
 11
179.6859385202
 21
216.7692600211
 31
0.0
 11
179.6830500133
 21
216.7744611238
 31
0.0
 11
179.6800559326
 21
216.7796089711
 31
0.0
 11
179.6769577714
 21
216.7847003683
 31
0.0
 11
179.6737571519
 21
216.789732178
 31
0.0
 11
179.6704558212
 21
216.7947013256
 31
0.0
 11
179.667055649
 21
216.7996048063
 31
0.0
 11
179.6635586237
 21
216.8044396907
 31
0.0
 11
179.6599668485
 21
216.809203131
 31
0.0
 11
179.6562825377
 21
216.8138923663
 31
0.0
 11
179.6525080112
 21
216.8185047278
 31
0.0
 11
179.6486456907
 21
216.8230376442
 31
0.0
 11
179.6446980939
 21
216.8274886464
 31
0.0
 11
179.6406678292
 21
216.8318553715
 31
0.0
 11
179.6365575905
 21
216.8361355674
 31
0.0
 11
179.6323701507
 21
216.8403270961
 31
0.0
 11
179.6281083565
 21
216.8444279374
 31
0.0
 11
179.6237751213
 21
216.8484361914
 31
0.0
 11
179.6193734198
 21
216.8523500817
 31
0.0
 11
179.6149062809
 21
216.856167957
 31
0.0
 11
179.6103767815
 21
216.8598882934
 31
0.0
 11
179.60578804
 21
216.8635096955
 31
0.0
 11
179.6011432098
 21
216.8670308974
 31
0.0
 11
179.5964454724
 21
216.8704507635
 31
0.0
 11
179.5916980313
 21
216.8737682889
 31
0.0
 11
179.5869041053
 21
216.8769825986
 31
0.0
 11
179.5820669221
 21
216.8800929479
 31
0.0
 11
179.5771897123
 21
216.8830987208
 31
0.0
 11
179.5722757028
 21
216.8859994291
 31
0.0
 11
179.5673281112
 21
216.8887947109
 31
0.0
 11
179.5623501398
 21
216.8914843284
 31
0.0
 11
179.5573449699
 21
216.8940681663
 31
0.0
 11
179.5523157566
 21
216.896546229
 31
0.0
 11
179.5472656231
 21
216.8989186377
 31
0.0
 11
179.5421976564
 21
216.9011856279
 31
0.0
 11
179.5371149018
 21
216.9033475458
 31
0.0
 11
179.5320203589
 21
216.9054048453
 31
0.0
 11
179.5269169774
 21
216.9073580839
 31
0.0
 11
179.5218076526
 21
216.9092079194
 31
0.0
  0
LINE
  5
26F
100
AcDbEntity
  8
0
100
AcDbLine
 62
7
  6
CONTINUOUS
 10
179.7222386871
 20
213.4812868633
 11
179.7222386871
 21
216.6262131825
  0
LINE
  5
270
100
AcDbEntity
  8
0
100
AcDbLine
 62
7
  6
CONTINUOUS
 10
179.7222386871
 20
213.4812868633
 11
179.0222386871
 21
213.4812868633
  0
LINE
  5
271
100
AcDbEntity
  8
0
100
AcDbLine
 62
7
  6
CONTINUOUS
 10
179.0222386871
 20
211.8912868633
 11
179.0222386871
 21
213.4812868633
  0
LINE
  5
272
100
AcDbEntity
  8
0
100
AcDbLine
 62
7
  6
CONTINUOUS
 10
179.7222386871
 20
210.5712868633
 11
179.0222386871
 21
211.8912868633
  0
LINE
  5
273
100
AcDbEntity
  8
0
100
AcDbLine
 62
7
  6
CONTINUOUS
 10
179.7222386871
 20
209.2412868633
 11
179.7222386871
 21
210.5712868633
  0
LINE
  5
274
100
AcDbEntity
  8
0
100
AcDbLine
 62
7
  6
CONTINUOUS
 10
189.7222386871
 20
209.2412868633
 11
179.7222386871
 21
209.2412868633
  0
SPLINE
  5
275
100
AcDbEntity
  8
0
100
AcDbSpline
 62
7
  6
CONTINUOUS
 70
4
 71
3
 72
8
 73
4
 74
127
 42
0.0000001
 43
0.0000001
 44
0.0000000001
 12
0.0
 22
0.4242640687
 32
0.0
 13
-0.4242640687
 23
-0.0
 33
0.0
 40
0.0
 40
0.0
 40
0.0
 40
0.0
 40
1.0
 40
1.0
 40
1.0
 40
1.0
 10
190.0222386871
 20
208.9412868633
 30
0.0
 41
1.0
 10
190.0222386871
 20
209.1170227946
 30
0.0
 41
0.8047378541
 10
189.8979746184
 20
209.2412868633
 30
0.0
 41
0.8047378541
 10
189.7222386871
 20
209.2412868633
 30
0.0
 41
1.0
 11
190.0222386871
 21
208.9412868633
 31
0.0
 11
190.022164779
 21
208.9479456464
 31
0.0
 11
190.0220716526
 21
208.9512964971
 31
0.0
 11
190.0219404291
 21
208.9546609365
 31
0.0
 11
190.0217706316
 21
208.9580384069
 31
0.0
 11
190.021561792
 21
208.9614283351
 31
0.0
 11
190.0213134511
 21
208.9648301324
 31
0.0
 11
190.0210251597
 21
208.9682431946
 31
0.0
 11
190.0206964784
 21
208.9716669026
 31
0.0
 11
190.0203269789
 21
208.9751006217
 31
0.0
 11
190.0199162441
 21
208.9785437025
 31
0.0
 11
190.0194638685
 21
208.9819954808
 31
0.0
 11
190.0189694593
 21
208.9854552778
 31
0.0
 11
190.0184326364
 21
208.9889224003
 31
0.0
 11
190.0178530334
 21
208.9923961411
 31
0.0
 11
190.0172302976
 21
208.995875779
 31
0.0
 11
190.0165640912
 21
208.9993605794
 31
0.0
 11
190.0158540912
 21
209.0028497943
 31
0.0
 11
190.0150999903
 21
209.0063426629
 31
0.0
 11
190.0143014974
 21
209.009838412
 31
0.0
 11
190.0134583379
 21
209.0133362559
 31
0.0
 11
190.0125702544
 21
209.0168353974
 31
0.0
 11
190.0116370072
 21
209.0203350279
 31
0.0
 11
190.0106583745
 21
209.0238343277
 31
0.0
 11
190.0096341534
 21
209.027332467
 31
0.0
 11
190.0085641598
 21
209.0308286059
 31
0.0
 11
190.0074482291
 21
209.0343218951
 31
0.0
 11
190.0062862167
 21
209.0378114762
 31
0.0
 11
190.0050779984
 21
209.0412964827
 31
0.0
 11
190.0038234705
 21
209.0447760404
 31
0.0
 11
190.0025225505
 21
209.0482492676
 31
0.0
 11
190.0011751774
 21
209.0517152761
 31
0.0
 11
189.9997813121
 21
209.0551731721
 31
0.0
 11
189.9983409373
 21
209.0586220559
 31
0.0
 11
189.9968540584
 21
209.0620610237
 31
0.0
 11
189.9953207034
 21
209.0654891674
 31
0.0
 11
189.9937409232
 21
209.0689055758
 31
0.0
 11
189.9921147919
 21
209.0723093348
 31
0.0
 11
189.9904424069
 21
209.0756995289
 31
0.0
 11
189.9887238891
 21
209.0790752412
 31
0.0
 11
189.9869593833
 21
209.0824355543
 31
0.0
 11
189.9851490578
 21
209.0857795515
 31
0.0
 11
189.983293105
 21
209.0891063169
 31
0.0
 11
189.9813917412
 21
209.0924149366
 31
0.0
 11
189.9794452066
 21
209.0957044993
 31
0.0
 11
189.9774537655
 21
209.0989740973
 31
0.0
 11
189.9754177061
 21
209.1022228268
 31
0.0
 11
189.9733373405
 21
209.1054497893
 31
0.0
 11
189.9712130046
 21
209.1086540918
 31
0.0
 11
189.9690450583
 21
209.1118348482
 31
0.0
 11
189.9668338846
 21
209.1149911792
 31
0.0
 11
189.9645798901
 21
209.1181222141
 31
0.0
 11
189.9622835048
 21
209.1212270909
 31
0.0
 11
189.9599451812
 21
209.1243049571
 31
0.0
 11
189.9575653948
 21
209.1273549708
 31
0.0
 11
189.9551446434
 21
209.1303763012
 31
0.0
 11
189.9526834467
 21
209.1333681293
 31
0.0
 11
189.9501823464
 21
209.1363296488
 31
0.0
 11
189.9476419052
 21
209.1392600667
 31
0.0
 11
189.9450627068
 21
209.1421586041
 31
0.0
 11
189.9424453553
 21
209.1450244967
 31
0.0
 11
189.9397904751
 21
209.1478569955
 31
0.0
 11
189.9370987096
 21
209.1506553679
 31
0.0
 11
189.9343707214
 21
209.1534188976
 31
0.0
 11
189.9316071917
 21
209.1561468857
 31
0.0
 11
189.9288088194
 21
209.1588386513
 31
0.0
 11
189.9259763205
 21
209.1614935315
 31
0.0
 11
189.9231104279
 21
209.1641108829
 31
0.0
 11
189.9202118905
 21
209.1666900813
 31
0.0
 11
189.9172814726
 21
209.1692305226
 31
0.0
 11
189.9143199531
 21
209.1717316229
 31
0.0
 11
189.911328125
 21
209.1741928195
 31
0.0
 11
189.9083067946
 21
209.176613571
 31
0.0
 11
189.9052567809
 21
209.1789933574
 31
0.0
 11
189.9021789147
 21
209.1813316809
 31
0.0
 11
189.8990740379
 21
209.1836280663
 31
0.0
 11
189.895943003
 21
209.1858820607
 31
0.0
 11
189.892786672
 21
209.1880932344
 31
0.0
 11
189.8896059157
 21
209.1902611808
 31
0.0
 11
189.8864016131
 21
209.1923855166
 31
0.0
 11
189.8831746506
 21
209.1944658822
 31
0.0
 11
189.8799259211
 21
209.1965019417
 31
0.0
 11
189.8766563231
 21
209.1984933828
 31
0.0
 11
189.8733667604
 21
209.2004399174
 31
0.0
 11
189.8700581407
 21
209.2023412812
 31
0.0
 11
189.8667313753
 21
209.204197234
 31
0.0
 11
189.8633873782
 21
209.2060075595
 31
0.0
 11
189.860027065
 21
209.2077720653
 31
0.0
 11
189.8566513528
 21
209.2094905831
 31
0.0
 11
189.8532611587
 21
209.2111629681
 31
0.0
 11
189.8498573996
 21
209.2127890994
 31
0.0
 11
189.8464409913
 21
209.2143688796
 31
0.0
 11
189.8430128475
 21
209.2159022346
 31
0.0
 11
189.8395738798
 21
209.2173891135
 31
0.0
 11
189.8361249959
 21
209.2188294882
 31
0.0
 11
189.8326671
 21
209.2202233536
 31
0.0
 11
189.8292010914
 21
209.2215707266
 31
0.0
 11
189.8257278642
 21
209.2228716466
 31
0.0
 11
189.8222483066
 21
209.2241261746
 31
0.0
 11
189.8187633
 21
209.2253343929
 31
0.0
 11
189.8152737189
 21
209.2264964053
 31
0.0
 11
189.8117804298
 21
209.227612336
 31
0.0
 11
189.8082842909
 21
209.2286823296
 31
0.0
 11
189.8047861515
 21
209.2297065507
 31
0.0
 11
189.8012868517
 21
209.2306851834
 31
0.0
 11
189.7977872212
 21
209.2316184306
 31
0.0
 11
189.7942880797
 21
209.2325065141
 31
0.0
 11
189.7907902358
 21
209.2333496736
 31
0.0
 11
189.7872944868
 21
209.2341481665
 31
0.0
 11
189.7838016181
 21
209.2349022674
 31
0.0
 11
189.7803124032
 21
209.2356122674
 31
0.0
 11
189.7768276028
 21
209.2362784738
 31
0.0
 11
189.7733479649
 21
209.2369012095
 31
0.0
 11
189.7698742241
 21
209.2374808126
 31
0.0
 11
189.7664071016
 21
209.2380176354
 31
0.0
 11
189.7629473046
 21
209.2385120447
 31
0.0
 11
189.7594955263
 21
209.2389644203
 31
0.0
 11
189.7560524455
 21
209.2393751551
 31
0.0
 11
189.7526187264
 21
209.2397446546
 31
0.0
 11
189.7491950185
 21
209.2400733359
 31
0.0
 11
189.7457819562
 21
209.2403616273
 31
0.0
 11
189.7423801589
 21
209.2406099681
 31
0.0
 11
189.7389902307
 21
209.2408188078
 31
0.0
 11
189.7356127603
 21
209.2409886053
 31
0.0
 11
189.732248321
 21
209.2411198288
 31
0.0
 11
189.7288974702
 21
209.2412129552
 31
0.0
 11
189.7222386871
 21
209.2412868633
 31
0.0
  0
LINE
  5
276
100
AcDbEntity
  8
0
100
AcDbLine
 62
7
  6
CONTINUOUS
 10
190.0222386871
 20
205.3412868642
 11
190.0222386871
 21
208.9412868633
  0
SPLINE
  5
277
100
AcDbEntity
  8
0
100
AcDbSpline
 62
7
  6
CONTINUOUS
 70
4
 71
3
 72
8
 73
4
 74
129
 42
0.0000001
 43
0.0000001
 44
0.0000000001
 12
0.8485281374
 22
-0.0
 32
0.0
 13
-0.0
 23
0.8485281374
 33
0.0
 40
0.0
 40
0.0
 40
0.0
 40
0.0
 40
1.0
 40
1.0
 40
1.0
 40
1.0
 10
189.4222386871
 20
204.7412868642
 30
0.0
 41
1.0
 10
189.7737105497
 20
204.7412868642
 30
0.0
 41
0.8047378541
 10
190.0222386871
 20
204.9898150016
 30
0.0
 41
0.8047378541
 10
190.0222386871
 20
205.3412868642
 30
0.0
 41
1.0
 11
189.4222386871
 21
204.7412868642
 31
0.0
 11
189.4288828132
 21
204.7413236523
 31
0.0
 11
189.4355562533
 21
204.7414346803
 31
0.0
 11
189.4422579548
 21
204.7416209331
 31
0.0
 11
189.4489868336
 21
204.7418833801
 31
0.0
 11
189.4557417744
 21
204.7422229751
 31
0.0
 11
189.4625216307
 21
204.7426406544
 31
0.0
 11
189.4693252253
 21
204.7431373361
 31
0.0
 11
189.4761513498
 21
204.743713919
 31
0.0
 11
189.4829987657
 21
204.7443712815
 31
0.0
 11
189.4898662039
 21
204.7451102804
 31
0.0
 11
189.4967523655
 21
204.7459317502
 31
0.0
 11
189.5036559222
 21
204.7468365014
 31
0.0
 11
189.5105755162
 21
204.7478253198
 31
0.0
 11
189.5175097612
 21
204.7488989655
 31
0.0
 11
189.5244572427
 21
204.7500581716
 31
0.0
 11
189.5314165185
 21
204.7513036431
 31
0.0
 11
189.5383861193
 21
204.752636056
 31
0.0
 11
189.5453645491
 21
204.754056056
 31
0.0
 11
189.5523502864
 21
204.7555642577
 31
0.0
 11
189.5593417845
 21
204.7571612435
 31
0.0
 11
189.5663374724
 21
204.7588475625
 31
0.0
 11
189.5733357554
 21
204.7606237295
 31
0.0
 11
189.5803350163
 21
204.762490224
 31
0.0
 11
189.587333616
 21
204.7644474892
 31
0.0
 11
189.5943298946
 21
204.7664959315
 31
0.0
 11
189.6013221724
 21
204.7686359187
 31
0.0
 11
189.6083087507
 21
204.7708677801
 31
0.0
 11
189.6152879129
 21
204.7731918049
 31
0.0
 11
189.622257926
 21
204.7756082416
 31
0.0
 11
189.6292170413
 21
204.7781172974
 31
0.0
 11
189.6361634957
 21
204.7807191374
 31
0.0
 11
189.6430955128
 21
204.7834138835
 31
0.0
 11
189.6500113047
 21
204.7862016142
 31
0.0
 11
189.6569090724
 21
204.7890823638
 31
0.0
 11
189.663787008
 21
204.7920561215
 31
0.0
 11
189.6706432954
 21
204.7951228315
 31
0.0
 11
189.6774761121
 21
204.7982823919
 31
0.0
 11
189.6842836302
 21
204.8015346545
 31
0.0
 11
189.6910640184
 21
204.8048794246
 31
0.0
 11
189.6978154429
 21
204.8083164601
 31
0.0
 11
189.7045360692
 21
204.8118454717
 31
0.0
 11
189.7112240636
 21
204.8154661227
 31
0.0
 11
189.7178775943
 21
204.8191780283
 31
0.0
 11
189.7244948337
 21
204.8229807559
 31
0.0
 11
189.7310739592
 21
204.8268738251
 31
0.0
 11
189.7376131551
 21
204.8308567074
 31
0.0
 11
189.7441106141
 21
204.8349288262
 31
0.0
 11
189.7505645391
 21
204.8390895574
 31
0.0
 11
189.7569731442
 21
204.8433382291
 31
0.0
 11
189.7633346569
 21
204.8476741218
 31
0.0
 11
189.769647319
 21
204.8520964692
 31
0.0
 11
189.7759093888
 21
204.8566044581
 31
0.0
 11
189.7821191423
 21
204.8611972288
 31
0.0
 11
189.7882748748
 21
204.865873876
 31
0.0
 11
189.7943749022
 21
204.8706334488
 31
0.0
 11
189.8004175629
 21
204.8754749516
 31
0.0
 11
189.8064012191
 21
204.8803973449
 31
0.0
 11
189.8123242582
 21
204.8853995456
 31
0.0
 11
189.818185094
 21
204.890480428
 31
0.0
 11
189.8239821687
 21
204.8956388248
 31
0.0
 11
189.8297139539
 21
204.9008735276
 31
0.0
 11
189.8353789516
 21
204.9061832882
 31
0.0
 11
189.8409756964
 21
204.9115668192
 31
0.0
 11
189.8465027558
 21
204.9170227954
 31
0.0
 11
189.851958732
 21
204.9225498549
 31
0.0
 11
189.8573422631
 21
204.9281465996
 31
0.0
 11
189.8626520236
 21
204.9338115974
 31
0.0
 11
189.8678867264
 21
204.9395433825
 31
0.0
 11
189.8730451232
 21
204.9453404573
 31
0.0
 11
189.8781260057
 21
204.9512012931
 31
0.0
 11
189.8831282064
 21
204.9571243321
 31
0.0
 11
189.8880505996
 21
204.9631079883
 31
0.0
 11
189.8928921025
 21
204.9691506491
 31
0.0
 11
189.8976516753
 21
204.9752506765
 31
0.0
 11
189.9023283224
 21
204.9814064089
 31
0.0
 11
189.9069210932
 21
204.9876161624
 31
0.0
 11
189.911429082
 21
204.9938782323
 31
0.0
 11
189.9158514294
 21
205.0001908944
 31
0.0
 11
189.9201873222
 21
205.006552407
 31
0.0
 11
189.9244359938
 21
205.0129610121
 31
0.0
 11
189.928596725
 21
205.0194149371
 31
0.0
 11
189.9326688439
 21
205.0259123962
 31
0.0
 11
189.9366517261
 21
205.0324515921
 31
0.0
 11
189.9405447953
 21
205.0390307176
 31
0.0
 11
189.944347523
 21
205.0456479569
 31
0.0
 11
189.9480594286
 21
205.0523014877
 31
0.0
 11
189.9516800795
 21
205.058989482
 31
0.0
 11
189.9552090912
 21
205.0657101083
 31
0.0
 11
189.9586461267
 21
205.0724615328
 31
0.0
 11
189.9619908967
 21
205.079241921
 31
0.0
 11
189.9652431594
 21
205.0860494392
 31
0.0
 11
189.9684027197
 21
205.0928822558
 31
0.0
 11
189.9714694297
 21
205.0997385432
 31
0.0
 11
189.9744431875
 21
205.1066164788
 31
0.0
 11
189.977323937
 21
205.1135142466
 31
0.0
 11
189.9801116677
 21
205.1204300384
 31
0.0
 11
189.9828064138
 21
205.1273620556
 31
0.0
 11
189.9854082538
 21
205.1343085099
 31
0.0
 11
189.9879173097
 21
205.1412676252
 31
0.0
 11
189.9903337464
 21
205.1482376383
 31
0.0
 11
189.9926577711
 21
205.1552168006
 31
0.0
 11
189.9948896325
 21
205.1622033788
 31
0.0
 11
189.9970296198
 21
205.1691956566
 31
0.0
 11
189.999078062
 21
205.1761919353
 31
0.0
 11
190.0010353273
 21
205.183190535
 31
0.0
 11
190.0029018218
 21
205.1901897959
 31
0.0
 11
190.0046779887
 21
205.1971880789
 31
0.0
 11
190.0063643077
 21
205.2041837667
 31
0.0
 11
190.0079612936
 21
205.2111752648
 31
0.0
 11
190.0094694953
 21
205.2181610022
 31
0.0
 11
190.0108894953
 21
205.225139432
 31
0.0
 11
190.0122219081
 21
205.2321090327
 31
0.0
 11
190.0134673796
 21
205.2390683085
 31
0.0
 11
190.0146265857
 21
205.24601579
 31
0.0
 11
190.0157002314
 21
205.2529500351
 31
0.0
 11
190.0166890499
 21
205.2598696291
 31
0.0
 11
190.0175938011
 21
205.2667731857
 31
0.0
 11
190.0184152708
 21
205.2736593474
 31
0.0
 11
190.0191542698
 21
205.2805267856
 31
0.0
 11
190.0198116323
 21
205.2873742014
 31
0.0
 11
190.0203882152
 21
205.294200326
 31
0.0
 11
190.0208848968
 21
205.3010039205
 31
0.0
 11
190.0213025761
 21
205.3077837769
 31
0.0
 11
190.0216421711
 21
205.3145387177
 31
0.0
 11
190.0219046182
 21
205.3212675964
 31
0.0
 11
190.0220908709
 21
205.3279692979
 31
0.0
 11
190.022201899
 21
205.334642738
 31
0.0
 11
190.0222386871
 21
205.3412868642
 31
0.0
  0
LINE
  5
278
100
AcDbEntity
  8
0
100
AcDbLine
 62
7
  6
CONTINUOUS
 10
189.4222386871
 20
204.7412868642
 11
159.6222386871
 21
204.7412868642
  0
SPLINE
  5
279
100
AcDbEntity
  8
0
100
AcDbSpline
 62
7
  6
CONTINUOUS
 70
4
 71
3
 72
8
 73
4
 74
129
 42
0.0000001
 43
0.0000001
 44
0.0000000001
 12
0.0
 22
-0.8485281374
 32
0.0
 13
0.8485281374
 23
0.0
 33
0.0
 40
0.0
 40
0.0
 40
0.0
 40
0.0
 40
1.0
 40
1.0
 40
1.0
 40
1.0
 10
159.0222386871
 20
205.3412868642
 30
0.0
 41
1.0
 10
159.0222386871
 20
204.9898150016
 30
0.0
 41
0.8047378541
 10
159.2707668245
 20
204.7412868642
 30
0.0
 41
0.8047378541
 10
159.6222386871
 20
204.7412868642
 30
0.0
 41
1.0
 11
159.0222386871
 21
205.3412868642
 31
0.0
 11
159.0222754752
 21
205.334642738
 31
0.0
 11
159.0223865033
 21
205.3279692979
 31
0.0
 11
159.022572756
 21
205.3212675964
 31
0.0
 11
159.0228352031
 21
205.3145387177
 31
0.0
 11
159.0231747981
 21
205.3077837769
 31
0.0
 11
159.0235924773
 21
205.3010039205
 31
0.0
 11
159.024089159
 21
205.294200326
 31
0.0
 11
159.0246657419
 21
205.2873742014
 31
0.0
 11
159.0253231044
 21
205.2805267856
 31
0.0
 11
159.0260621034
 21
205.2736593474
 31
0.0
 11
159.0268835731
 21
205.2667731857
 31
0.0
 11
159.0277883243
 21
205.2598696291
 31
0.0
 11
159.0287771427
 21
205.2529500351
 31
0.0
 11
159.0298507885
 21
205.24601579
 31
0.0
 11
159.0310099946
 21
205.2390683085
 31
0.0
 11
159.032255466
 21
205.2321090327
 31
0.0
 11
159.0335878789
 21
205.225139432
 31
0.0
 11
159.0350078789
 21
205.2181610022
 31
0.0
 11
159.0365160806
 21
205.2111752648
 31
0.0
 11
159.0381130665
 21
205.2041837667
 31
0.0
 11
159.0397993855
 21
205.1971880789
 31
0.0
 11
159.0415755524
 21
205.1901897959
 31
0.0
 11
159.0434420469
 21
205.183190535
 31
0.0
 11
159.0453993122
 21
205.1761919353
 31
0.0
 11
159.0474477544
 21
205.1691956566
 31
0.0
 11
159.0495877417
 21
205.1622033788
 31
0.0
 11
159.051819603
 21
205.1552168006
 31
0.0
 11
159.0541436278
 21
205.1482376383
 31
0.0
 11
159.0565600645
 21
205.1412676252
 31
0.0
 11
159.0590691204
 21
205.1343085099
 31
0.0
 11
159.0616709603
 21
205.1273620556
 31
0.0
 11
159.0643657065
 21
205.1204300384
 31
0.0
 11
159.0671534372
 21
205.1135142466
 31
0.0
 11
159.0700341867
 21
205.1066164788
 31
0.0
 11
159.0730079444
 21
205.0997385432
 31
0.0
 11
159.0760746544
 21
205.0928822558
 31
0.0
 11
159.0792342148
 21
205.0860494392
 31
0.0
 11
159.0824864775
 21
205.079241921
 31
0.0
 11
159.0858312475
 21
205.0724615328
 31
0.0
 11
159.089268283
 21
205.0657101083
 31
0.0
 11
159.0927972946
 21
205.058989482
 31
0.0
 11
159.0964179456
 21
205.0523014877
 31
0.0
 11
159.1001298512
 21
205.0456479569
 31
0.0
 11
159.1039325788
 21
205.0390307176
 31
0.0
 11
159.1078256481
 21
205.0324515921
 31
0.0
 11
159.1118085303
 21
205.0259123962
 31
0.0
 11
159.1158806492
 21
205.0194149371
 31
0.0
 11
159.1200413804
 21
205.0129610121
 31
0.0
 11
159.124290052
 21
205.006552407
 31
0.0
 11
159.1286259447
 21
205.0001908944
 31
0.0
 11
159.1330482922
 21
204.9938782323
 31
0.0
 11
159.137556281
 21
204.9876161624
 31
0.0
 11
159.1421490518
 21
204.9814064089
 31
0.0
 11
159.1468256989
 21
204.9752506765
 31
0.0
 11
159.1515852717
 21
204.9691506491
 31
0.0
 11
159.1564267745
 21
204.9631079883
 31
0.0
 11
159.1613491678
 21
204.9571243321
 31
0.0
 11
159.1663513685
 21
204.9512012931
 31
0.0
 11
159.171432251
 21
204.9453404573
 31
0.0
 11
159.1765906478
 21
204.9395433825
 31
0.0
 11
159.1818253506
 21
204.9338115974
 31
0.0
 11
159.1871351111
 21
204.9281465996
 31
0.0
 11
159.1925186421
 21
204.9225498549
 31
0.0
 11
159.1979746184
 21
204.9170227954
 31
0.0
 11
159.2035016778
 21
204.9115668192
 31
0.0
 11
159.2090984226
 21
204.9061832882
 31
0.0
 11
159.2147634203
 21
204.9008735276
 31
0.0
 11
159.2204952055
 21
204.8956388248
 31
0.0
 11
159.2262922802
 21
204.890480428
 31
0.0
 11
159.232153116
 21
204.8853995456
 31
0.0
 11
159.238076155
 21
204.8803973449
 31
0.0
 11
159.2440598113
 21
204.8754749516
 31
0.0
 11
159.250102472
 21
204.8706334488
 31
0.0
 11
159.2562024994
 21
204.865873876
 31
0.0
 11
159.2623582319
 21
204.8611972288
 31
0.0
 11
159.2685679854
 21
204.8566044581
 31
0.0
 11
159.2748300552
 21
204.8520964692
 31
0.0
 11
159.2811427173
 21
204.8476741218
 31
0.0
 11
159.2875042299
 21
204.8433382291
 31
0.0
 11
159.2939128351
 21
204.8390895574
 31
0.0
 11
159.30036676
 21
204.8349288262
 31
0.0
 11
159.3068642191
 21
204.8308567074
 31
0.0
 11
159.313403415
 21
204.8268738251
 31
0.0
 11
159.3199825405
 21
204.8229807559
 31
0.0
 11
159.3265997799
 21
204.8191780283
 31
0.0
 11
159.3332533106
 21
204.8154661227
 31
0.0
 11
159.3399413049
 21
204.8118454717
 31
0.0
 11
159.3466619313
 21
204.8083164601
 31
0.0
 11
159.3534133558
 21
204.8048794246
 31
0.0
 11
159.360193744
 21
204.8015346545
 31
0.0
 11
159.3670012621
 21
204.7982823919
 31
0.0
 11
159.3738340788
 21
204.7951228315
 31
0.0
 11
159.3806903662
 21
204.7920561215
 31
0.0
 11
159.3875683018
 21
204.7890823638
 31
0.0
 11
159.3944660695
 21
204.7862016142
 31
0.0
 11
159.4013818614
 21
204.7834138835
 31
0.0
 11
159.4083138785
 21
204.7807191374
 31
0.0
 11
159.4152603329
 21
204.7781172974
 31
0.0
 11
159.4222194481
 21
204.7756082416
 31
0.0
 11
159.4291894613
 21
204.7731918049
 31
0.0
 11
159.4361686235
 21
204.7708677801
 31
0.0
 11
159.4431552018
 21
204.7686359187
 31
0.0
 11
159.4501474795
 21
204.7664959315
 31
0.0
 11
159.4571437582
 21
204.7644474892
 31
0.0
 11
159.4641423579
 21
204.762490224
 31
0.0
 11
159.4711416188
 21
204.7606237295
 31
0.0
 11
159.4781399018
 21
204.7588475625
 31
0.0
 11
159.4851355896
 21
204.7571612435
 31
0.0
 11
159.4921270878
 21
204.7555642577
 31
0.0
 11
159.4991128251
 21
204.754056056
 31
0.0
 11
159.5060912549
 21
204.752636056
 31
0.0
 11
159.5130608556
 21
204.7513036431
 31
0.0
 11
159.5200201314
 21
204.7500581716
 31
0.0
 11
159.526967613
 21
204.7488989655
 31
0.0
 11
159.533901858
 21
204.7478253198
 31
0.0
 11
159.540821452
 21
204.7468365014
 31
0.0
 11
159.5477250087
 21
204.7459317502
 31
0.0
 11
159.5546111703
 21
204.7451102804
 31
0.0
 11
159.5614786085
 21
204.7443712815
 31
0.0
 11
159.5683260244
 21
204.743713919
 31
0.0
 11
159.5751521489
 21
204.7431373361
 31
0.0
 11
159.5819557435
 21
204.7426406544
 31
0.0
 11
159.5887355998
 21
204.7422229751
 31
0.0
 11
159.5954905406
 21
204.7418833801
 31
0.0
 11
159.6022194194
 21
204.7416209331
 31
0.0
 11
159.6089211208
 21
204.7414346803
 31
0.0
 11
159.615594561
 21
204.7413236523
 31
0.0
 11
159.6222386871
 21
204.7412868642
 31
0.0
  0
LINE
  5
27A
100
AcDbEntity
  8
0
100
AcDbLine
 62
7
  6
CONTINUOUS
 10
159.0222386871
 20
205.3412868642
 11
159.0222386871
 21
208.9412868633
  0
SPLINE
  5
27B
100
AcDbEntity
  8
0
100
AcDbSpline
 62
7
  6
CONTINUOUS
 70
4
 71
3
 72
8
 73
4
 74
127
 42
0.0000001
 43
0.0000001
 44
0.0000000001
 12
-0.4242640687
 22
0.0
 32
0.0
 13
-0.0
 23
-0.4242640687
 33
0.0
 40
0.0
 40
0.0
 40
0.0
 40
0.0
 40
1.0
 40
1.0
 40
1.0
 40
1.0
 10
159.3222386871
 20
209.2412868633
 30
0.0
 41
1.0
 10
159.1465027558
 20
209.2412868633
 30
0.0
 41
0.8047378541
 10
159.0222386871
 20
209.1170227946
 30
0.0
 41
0.8047378541
 10
159.0222386871
 20
208.9412868633
 30
0.0
 41
1.0
 11
159.3222386871
 21
209.2412868633
 31
0.0
 11
159.315579904
 21
209.2412129552
 31
0.0
 11
159.3122290532
 21
209.2411198288
 31
0.0
 11
159.3088646138
 21
209.2409886053
 31
0.0
 11
159.3054871435
 21
209.2408188078
 31
0.0
 11
159.3020972153
 21
209.2406099681
 31
0.0
 11
159.298695418
 21
209.2403616273
 31
0.0
 11
159.2952823557
 21
209.2400733359
 31
0.0
 11
159.2918586478
 21
209.2397446546
 31
0.0
 11
159.2884249287
 21
209.2393751551
 31
0.0
 11
159.2849818479
 21
209.2389644203
 31
0.0
 11
159.2815300696
 21
209.2385120447
 31
0.0
 11
159.2780702726
 21
209.2380176354
 31
0.0
 11
159.27460315
 21
209.2374808126
 31
0.0
 11
159.2711294093
 21
209.2369012095
 31
0.0
 11
159.2676497714
 21
209.2362784738
 31
0.0
 11
159.264164971
 21
209.2356122674
 31
0.0
 11
159.2606757561
 21
209.2349022674
 31
0.0
 11
159.2571828874
 21
209.2341481665
 31
0.0
 11
159.2536871384
 21
209.2333496736
 31
0.0
 11
159.2501892944
 21
209.2325065141
 31
0.0
 11
159.2466901529
 21
209.2316184306
 31
0.0
 11
159.2431905225
 21
209.2306851834
 31
0.0
 11
159.2396912226
 21
209.2297065507
 31
0.0
 11
159.2361930833
 21
209.2286823296
 31
0.0
 11
159.2326969444
 21
209.227612336
 31
0.0
 11
159.2292036553
 21
209.2264964053
 31
0.0
 11
159.2257140742
 21
209.2253343929
 31
0.0
 11
159.2222290676
 21
209.2241261746
 31
0.0
 11
159.21874951
 21
209.2228716466
 31
0.0
 11
159.2152762828
 21
209.2215707266
 31
0.0
 11
159.2118102742
 21
209.2202233536
 31
0.0
 11
159.2083523783
 21
209.2188294882
 31
0.0
 11
159.2049034944
 21
209.2173891135
 31
0.0
 11
159.2014645266
 21
209.2159022346
 31
0.0
 11
159.1980363829
 21
209.2143688796
 31
0.0
 11
159.1946199746
 21
209.2127890994
 31
0.0
 11
159.1912162155
 21
209.2111629681
 31
0.0
 11
159.1878260214
 21
209.2094905831
 31
0.0
 11
159.1844503092
 21
209.2077720653
 31
0.0
 11
159.181089996
 21
209.2060075595
 31
0.0
 11
159.1777459989
 21
209.204197234
 31
0.0
 11
159.1744192335
 21
209.2023412812
 31
0.0
 11
159.1711106138
 21
209.2004399174
 31
0.0
 11
159.1678210511
 21
209.1984933828
 31
0.0
 11
159.1645514531
 21
209.1965019417
 31
0.0
 11
159.1613027236
 21
209.1944658822
 31
0.0
 11
159.1580757611
 21
209.1923855166
 31
0.0
 11
159.1548714585
 21
209.1902611808
 31
0.0
 11
159.1516907022
 21
209.1880932344
 31
0.0
 11
159.1485343711
 21
209.1858820607
 31
0.0
 11
159.1454033362
 21
209.1836280663
 31
0.0
 11
159.1422984595
 21
209.1813316809
 31
0.0
 11
159.1392205933
 21
209.1789933574
 31
0.0
 11
159.1361705795
 21
209.176613571
 31
0.0
 11
159.1331492492
 21
209.1741928195
 31
0.0
 11
159.1301574211
 21
209.1717316229
 31
0.0
 11
159.1271959016
 21
209.1692305226
 31
0.0
 11
159.1242654836
 21
209.1666900813
 31
0.0
 11
159.1213669463
 21
209.1641108829
 31
0.0
 11
159.1185010537
 21
209.1614935315
 31
0.0
 11
159.1156685548
 21
209.1588386513
 31
0.0
 11
159.1128701824
 21
209.1561468857
 31
0.0
 11
159.1101066527
 21
209.1534188976
 31
0.0
 11
159.1073786646
 21
209.1506553679
 31
0.0
 11
159.1046868991
 21
209.1478569955
 31
0.0
 11
159.1020320188
 21
209.1450244967
 31
0.0
 11
159.0994146674
 21
209.1421586041
 31
0.0
 11
159.096835469
 21
209.1392600667
 31
0.0
 11
159.0942950278
 21
209.1363296488
 31
0.0
 11
159.0917939275
 21
209.1333681293
 31
0.0
 11
159.0893327308
 21
209.1303763012
 31
0.0
 11
159.0869119794
 21
209.1273549708
 31
0.0
 11
159.084532193
 21
209.1243049571
 31
0.0
 11
159.0821938694
 21
209.1212270909
 31
0.0
 11
159.0798974841
 21
209.1181222141
 31
0.0
 11
159.0776434896
 21
209.1149911792
 31
0.0
 11
159.0754323159
 21
209.1118348482
 31
0.0
 11
159.0732643695
 21
209.1086540918
 31
0.0
 11
159.0711400337
 21
209.1054497893
 31
0.0
 11
159.0690596681
 21
209.1022228268
 31
0.0
 11
159.0670236087
 21
209.0989740973
 31
0.0
 11
159.0650321676
 21
209.0957044993
 31
0.0
 11
159.063085633
 21
209.0924149366
 31
0.0
 11
159.0611842691
 21
209.0891063169
 31
0.0
 11
159.0593283163
 21
209.0857795515
 31
0.0
 11
159.0575179909
 21
209.0824355543
 31
0.0
 11
159.055753485
 21
209.0790752412
 31
0.0
 11
159.0540349673
 21
209.0756995289
 31
0.0
 11
159.0523625823
 21
209.0723093348
 31
0.0
 11
159.050736451
 21
209.0689055758
 31
0.0
 11
159.0491566708
 21
209.0654891674
 31
0.0
 11
159.0476233158
 21
209.0620610237
 31
0.0
 11
159.0461364369
 21
209.0586220559
 31
0.0
 11
159.0446960621
 21
209.0551731721
 31
0.0
 11
159.0433021968
 21
209.0517152761
 31
0.0
 11
159.0419548237
 21
209.0482492676
 31
0.0
 11
159.0406539037
 21
209.0447760404
 31
0.0
 11
159.0393993758
 21
209.0412964827
 31
0.0
 11
159.0381911574
 21
209.0378114762
 31
0.0
 11
159.0370291451
 21
209.0343218951
 31
0.0
 11
159.0359132144
 21
209.0308286059
 31
0.0
 11
159.0348432208
 21
209.027332467
 31
0.0
 11
159.0338189996
 21
209.0238343277
 31
0.0
 11
159.032840367
 21
209.0203350279
 31
0.0
 11
159.0319071198
 21
209.0168353974
 31
0.0
 11
159.0310190363
 21
209.0133362559
 31
0.0
 11
159.0301758768
 21
209.009838412
 31
0.0
 11
159.0293773839
 21
209.0063426629
 31
0.0
 11
159.028623283
 21
209.0028497943
 31
0.0
 11
159.027913283
 21
208.9993605794
 31
0.0
 11
159.0272470766
 21
208.995875779
 31
0.0
 11
159.0266243408
 21
208.9923961411
 31
0.0
 11
159.0260447378
 21
208.9889224003
 31
0.0
 11
159.0255079149
 21
208.9854552778
 31
0.0
 11
159.0250135057
 21
208.9819954808
 31
0.0
 11
159.0245611301
 21
208.9785437025
 31
0.0
 11
159.0241503952
 21
208.9751006217
 31
0.0
 11
159.0237808957
 21
208.9716669026
 31
0.0
 11
159.0234522145
 21
208.9682431946
 31
0.0
 11
159.0231639231
 21
208.9648301324
 31
0.0
 11
159.0229155822
 21
208.9614283351
 31
0.0
 11
159.0227067426
 21
208.9580384069
 31
0.0
 11
159.0225369451
 21
208.9546609365
 31
0.0
 11
159.0224057215
 21
208.9512964971
 31
0.0
 11
159.0223125952
 21
208.9479456464
 31
0.0
 11
159.0222386871
 21
208.9412868633
 31
0.0
  0
LINE
  5
27C
100
AcDbEntity
  8
0
100
AcDbLine
 62
7
  6
CONTINUOUS
 10
163.7222386871
 20
209.2412868633
 11
159.3222386871
 21
209.2412868633
  0
LINE
  5
27D
100
AcDbEntity
  8
0
100
AcDbLine
 62
7
  6
CONTINUOUS
 10
163.7222386871
 20
209.2412868633
 11
163.7222386871
 21
210.5712868633
  0
LINE
  5
27E
100
AcDbEntity
  8
0
100
AcDbLine
 62
7
  6
CONTINUOUS
 10
164.4222386871
 20
211.8912868633
 11
163.7222386871
 21
210.5712868633
  0
LINE
  5
27F
100
AcDbEntity
  8
0
100
AcDbLine
 62
7
  6
CONTINUOUS
 10
164.4222386871
 20
211.8912868633
 11
164.4222386871
 21
213.4812868633
  0
LINE
  5
280
100
AcDbEntity
  8
0
100
AcDbLine
 62
7
  6
CONTINUOUS
 10
164.4222386871
 20
213.4812868633
 11
163.7222386871
 21
213.4812868633
  0
LINE
  5
281
100
AcDbEntity
  8
0
100
AcDbLine
 62
7
  6
CONTINUOUS
 10
163.7222386871
 20
213.4812868633
 11
163.7222386871
 21
216.6262131825
  0
SPLINE
  5
282
100
AcDbEntity
  8
0
100
AcDbSpline
 62
7
  6
CONTINUOUS
 70
4
 71
3
 72
8
 73
4
 74
65
 42
0.0000001
 43
0.0000001
 44
0.0000000001
 12
-0.3271261129
 22
-0.115096164
 32
0.0
 13
-0.0
 23
-0.3467832474
 33
0.0
 40
0.0
 40
0.0
 40
0.0
 40
0.0
 40
1.0
 40
1.0
 40
1.0
 40
1.0
 10
163.9226697216
 20
216.9092079194
 30
0.0
 41
1.0
 10
163.7983870244
 20
216.8654802525
 30
0.0
 41
0.8773710264
 10
163.7222386871
 20
216.7579640751
 30
0.0
 41
0.8773710264
 10
163.7222386871
 20
216.6262131825
 30
0.0
 41
1.0
 11
163.9226697216
 21
216.9092079194
 31
0.0
 11
163.9175603968
 21
216.9073580839
 31
0.0
 11
163.9124570152
 21
216.9054048453
 31
0.0
 11
163.9073624724
 21
216.9033475458
 31
0.0
 11
163.9022797178
 21
216.9011856279
 31
0.0
 11
163.8972117511
 21
216.8989186377
 31
0.0
 11
163.8921616176
 21
216.896546229
 31
0.0
 11
163.8871324043
 21
216.8940681663
 31
0.0
 11
163.8821272344
 21
216.8914843284
 31
0.0
 11
163.877149263
 21
216.8887947109
 31
0.0
 11
163.8722016714
 21
216.8859994291
 31
0.0
 11
163.8672876619
 21
216.8830987208
 31
0.0
 11
163.862410452
 21
216.8800929479
 31
0.0
 11
163.8575732689
 21
216.8769825986
 31
0.0
 11
163.8527793429
 21
216.8737682889
 31
0.0
 11
163.8480319018
 21
216.8704507635
 31
0.0
 11
163.8433341644
 21
216.8670308974
 31
0.0
 11
163.8386893342
 21
216.8635096955
 31
0.0
 11
163.8341005927
 21
216.8598882934
 31
0.0
 11
163.8295710933
 21
216.856167957
 31
0.0
 11
163.8251039544
 21
216.8523500817
 31
0.0
 11
163.8207022528
 21
216.8484361914
 31
0.0
 11
163.8163690177
 21
216.8444279374
 31
0.0
 11
163.8121072234
 21
216.8403270961
 31
0.0
 11
163.8079197837
 21
216.8361355674
 31
0.0
 11
163.803809545
 21
216.8318553715
 31
0.0
 11
163.7997792803
 21
216.8274886464
 31
0.0
 11
163.7958316835
 21
216.8230376442
 31
0.0
 11
163.791969363
 21
216.8185047278
 31
0.0
 11
163.7881948365
 21
216.8138923663
 31
0.0
 11
163.7845105256
 21
216.809203131
 31
0.0
 11
163.7809187505
 21
216.8044396907
 31
0.0
 11
163.7774217252
 21
216.7996048063
 31
0.0
 11
163.774021553
 21
216.7947013256
 31
0.0
 11
163.7707202223
 21
216.789732178
 31
0.0
 11
163.7675196027
 21
216.7847003683
 31
0.0
 11
163.7644214416
 21
216.7796089711
 31
0.0
 11
163.7614273608
 21
216.7744611238
 31
0.0
 11
163.758538854
 21
216.7692600211
 31
0.0
 11
163.7557572842
 21
216.7640089078
 31
0.0
 11
163.7530838819
 21
216.7587110725
 31
0.0
 11
163.7505197434
 21
216.7533698405
 31
0.0
 11
163.74806583
 21
216.7479885676
 31
0.0
 11
163.7457229664
 21
216.7425706328
 31
0.0
 11
163.7434918415
 21
216.7371194315
 31
0.0
 11
163.7413730074
 21
216.7316383692
 31
0.0
 11
163.7393668806
 21
216.7261308541
 31
0.0
 11
163.7374737423
 21
216.7206002909
 31
0.0
 11
163.7356937401
 21
216.7150500745
 31
0.0
 11
163.7340268892
 21
216.7094835829
 31
0.0
 11
163.7324730745
 21
216.7039041715
 31
0.0
 11
163.7310320528
 21
216.6983151671
 31
0.0
 11
163.7297034556
 21
216.6927198616
 31
0.0
 11
163.7284867917
 21
216.6871215069
 31
0.0
 11
163.7273814506
 21
216.6815233091
 31
0.0
 11
163.7263867058
 21
216.6759284234
 31
0.0
 11
163.7255017187
 21
216.6703399496
 31
0.0
 11
163.7247255422
 21
216.6647609269
 31
0.0
 11
163.7240571251
 21
216.6591943301
 31
0.0
 11
163.7234953164
 21
216.6536430652
 31
0.0
 11
163.7230388694
 21
216.6481099659
 31
0.0
 11
163.7226864469
 21
216.6425977902
 31
0.0
 11
163.722436625
 21
216.6371092169
 31
0.0
 11
163.7222878989
 21
216.6316468433
 31
0.0
 11
163.7222386871
 21
216.6262131825
 31
0.0
  0
SPLINE
  5
283
100
AcDbEntity
  8
0
100
AcDbSpline
 62
7
  6
CONTINUOUS
 70
4
 71
3
 72
8
 73
4
 74
3
 42
0.0000001
 43
0.0000001
 44
0.0000000001
 12
-0.3002573992
 22
-0.1011146641
 32
0.0
 13
-0.298866919
 23
-0.1051534395
 33
0.0
 40
0.0
 40
0.0
 40
0.0
 40
0.0
 40
1.0
 40
1.0
 40
1.0
 40
1.0
 10
164.2222386871
 20
217.0123443146
 30
0.0
 41
1.0
 10
164.1221513713
 20
216.978638916
 30
0.0
 41
0.9999848529
 10
164.0222935369
 20
216.9442595969
 30
0.0
 41
0.9999848529
 10
163.9226697216
 20
216.9092079194
 30
0.0
 41
1.0
 11
164.2222386871
 21
217.0123443146
 31
0.0
 11
164.0722803923
 21
216.9612809697
 31
0.0
 11
163.9226697216
 21
216.9092079194
 31
0.0
  0
LINE
  5
284
100
AcDbEntity
  8
0
100
AcDbLine
 62
7
  6
CONTINUOUS
 10
163.7222386871
 20
217.0123443146
 11
164.2222386871
 21
217.0123443146
  0
LINE
  5
285
100
AcDbEntity
  8
0
100
AcDbLine
 62
7
  6
CONTINUOUS
 10
163.7222386871
 20
218.2412868633
 11
163.7222386871
 21
217.0123443146
  0
LINE
  5
286
100
AcDbEntity
  8
0
100
AcDbLine
 62
7
  6
CONTINUOUS
 10
163.7222386871
 20
218.2412868633
 11
157.5222386871
 21
218.2412868633
  0
LINE
  5
287
100
AcDbEntity
  8
0
100
AcDbLine
 62
7
  6
CONTINUOUS
 10
157.5222386871
 20
218.2412868633
 11
156.5222386871
 21
219.2412868633
  0
SPLINE
  5
288
100
AcDbEntity
  8
0
100
AcDbSpline
 62
7
  6
CONTINUOUS
 70
4
 71
3
 72
11
 73
7
 74
307
 42
0.0000001
 43
0.0000001
 44
0.0000000001
 12
-0.6036487942
 22
4.2164951904
 32
0.0
 13
0.670670394
 23
-4.2063552845
 33
0.0
 40
0.0
 40
0.0
 40
0.0
 40
0.0
 40
1.0
 40
1.0
 40
1.0
 40
2.0
 40
2.0
 40
2.0
 40
2.0
 10
169.6970991461
 20
218.1538648896
 30
0.0
 41
1.0
 10
169.5717867621
 20
219.0291736276
 30
0.0
 41
0.8028586576
 10
168.8621364923
 20
219.5566819924
 30
0.0
 41
0.8028586576
 10
167.987852557
 20
219.4244088625
 30
0.0
 41
1.0
 10
167.1135686218
 20
219.2921357326
 30
0.0
 41
0.8028586576
 10
166.5917235469
 20
218.5783106153
 30
0.0
 41
0.8028586576
 10
166.7309490481
 20
217.705106836
 30
0.0
 41
1.0
 11
169.6970991461
 21
218.1538648896
 31
0.0
 11
169.6946439853
 21
218.1703600651
 31
0.0
 11
169.6919930831
 21
218.186902269
 31
0.0
 11
169.6891443354
 21
218.2034885145
 31
0.0
 11
169.6860956872
 21
218.2201157413
 31
0.0
 11
169.6828451348
 21
218.2367808155
 31
0.0
 11
169.679390729
 21
218.2534805307
 31
0.0
 11
169.675730577
 21
218.2702116087
 31
0.0
 11
169.6718628459
 21
218.2869707002
 31
0.0
 11
169.6677857646
 21
218.3037543862
 31
0.0
 11
169.6634976271
 21
218.3205591785
 31
0.0
 11
169.6589967947
 21
218.3373815214
 31
0.0
 11
169.6542816987
 21
218.3542177928
 31
0.0
 11
169.6493508435
 21
218.3710643056
 31
0.0
 11
169.6442028084
 21
218.3879173092
 31
0.0
 11
169.6388362509
 21
218.4047729913
 31
0.0
 11
169.6332499089
 21
218.4216274793
 31
0.0
 11
169.6274426033
 21
218.4384768426
 31
0.0
 11
169.6214132405
 21
218.4553170941
 31
0.0
 11
169.6151608147
 21
218.4721441925
 31
0.0
 11
169.6086844106
 21
218.4889540445
 31
0.0
 11
169.6019832054
 21
218.5057425072
 31
0.0
 11
169.5950564712
 21
218.5225053901
 31
0.0
 11
169.5879035774
 21
218.5392384579
 31
0.0
 11
169.5805239925
 21
218.555937433
 31
0.0
 11
169.5729172864
 21
218.5725979985
 31
0.0
 11
169.5650831321
 21
218.5892158004
 31
0.0
 11
169.5570213081
 21
218.6057864511
 31
0.0
 11
169.5487316997
 21
218.622305532
 31
0.0
 11
169.5402143011
 21
218.6387685968
 31
0.0
 11
169.5314692165
 21
218.6551711748
 31
0.0
 11
169.5224966623
 21
218.6715087737
 31
0.0
 11
169.5132969677
 21
218.6877768836
 31
0.0
 11
169.5038705768
 21
218.7039709797
 31
0.0
 11
169.4942180492
 21
218.7200865264
 31
0.0
 11
169.4843400609
 21
218.7361189806
 31
0.0
 11
169.4742374059
 21
218.7520637955
 31
0.0
 11
169.4639109962
 21
218.767916424
 31
0.0
 11
169.4533618631
 21
218.7836723226
 31
0.0
 11
169.4425911571
 21
218.7993269553
 31
0.0
 11
169.4316001488
 21
218.8148757973
 31
0.0
 11
169.4203902287
 21
218.830314339
 31
0.0
 11
169.4089629074
 21
218.8456380896
 31
0.0
 11
169.3973198157
 21
218.8608425813
 31
0.0
 11
169.3854627041
 21
218.8759233733
 31
0.0
 11
169.3733934426
 21
218.8908760554
 31
0.0
 11
169.3611140199
 21
218.9056962523
 31
0.0
 11
169.3486265431
 21
218.9203796274
 31
0.0
 11
169.3359332366
 21
218.9349218865
 31
0.0
 11
169.323036441
 21
218.9493187823
 31
0.0
 11
169.3099386123
 21
218.9635661177
 31
0.0
 11
169.2966423202
 21
218.9776597501
 31
0.0
 11
169.2831502468
 21
218.9915955947
 31
0.0
 11
169.2694651849
 21
219.005369629
 31
0.0
 11
169.2555900366
 21
219.0189778958
 31
0.0
 11
169.2415278107
 21
219.0324165073
 31
0.0
 11
169.2272816213
 21
219.0456816485
 31
0.0
 11
169.2128546851
 21
219.058769581
 31
0.0
 11
169.1982503194
 21
219.071676646
 31
0.0
 11
169.1834719393
 21
219.084399268
 31
0.0
 11
169.1685230554
 21
219.0969339577
 31
0.0
 11
169.1534072708
 21
219.1092773157
 31
0.0
 11
169.1381282783
 21
219.1214260351
 31
0.0
 11
169.1226898575
 21
219.1333769045
 31
0.0
 11
169.1070958714
 21
219.145126811
 31
0.0
 11
169.0913502636
 21
219.1566727428
 31
0.0
 11
169.0754570547
 21
219.1680117916
 31
0.0
 11
169.0594203389
 21
219.1791411555
 31
0.0
 11
169.0432442805
 21
219.1900581408
 31
0.0
 11
169.0269331105
 21
219.2007601645
 31
0.0
 11
169.0104911226
 21
219.211244756
 31
0.0
 11
168.9939226696
 21
219.2215095593
 31
0.0
 11
168.9772321595
 21
219.2315523348
 31
0.0
 11
168.960424052
 21
219.2413709604
 31
0.0
 11
168.9435028541
 21
219.2509634333
 31
0.0
 11
168.9264731162
 21
219.2603278711
 31
0.0
 11
168.9093394285
 21
219.2694625129
 31
0.0
 11
168.8921064164
 21
219.2783657206
 31
0.0
 11
168.8747787369
 21
219.2870359789
 31
0.0
 11
168.8573610743
 21
219.295471897
 31
0.0
 11
168.8398581361
 21
219.3036722079
 31
0.0
 11
168.8222746491
 21
219.3116357696
 31
0.0
 11
168.8046153551
 21
219.3193615649
 31
0.0
 11
168.7868850069
 21
219.3268487013
 31
0.0
 11
168.7690883645
 21
219.3340964112
 31
0.0
 11
168.7512301909
 21
219.3411040509
 31
0.0
 11
168.7333152478
 21
219.347871101
 31
0.0
 11
168.7153482922
 21
219.3543971651
 31
0.0
 11
168.6973340725
 21
219.3606819693
 31
0.0
 11
168.679277324
 21
219.3667253613
 31
0.0
 11
168.6611827659
 21
219.3725273092
 31
0.0
 11
168.6430550972
 21
219.3780879006
 31
0.0
 11
168.6248989929
 21
219.3834073409
 31
0.0
 11
168.6067191011
 21
219.3884859522
 31
0.0
 11
168.5885200386
 21
219.3933241715
 31
0.0
 11
168.5703063882
 21
219.3979225492
 31
0.0
 11
168.5520826952
 21
219.402281747
 31
0.0
 11
168.533853464
 21
219.4064025363
 31
0.0
 11
168.5156231551
 21
219.4102857961
 31
0.0
 11
168.4973961822
 21
219.4139325107
 31
0.0
 11
168.4791769092
 21
219.4173437679
 31
0.0
 11
168.4609696472
 21
219.420520756
 31
0.0
 11
168.4427786523
 21
219.4234647623
 31
0.0
 11
168.4246081224
 21
219.42617717
 31
0.0
 11
168.4064621951
 21
219.4286594558
 31
0.0
 11
168.3883449453
 21
219.4309131875
 31
0.0
 11
168.3702603831
 21
219.4329400212
 31
0.0
 11
168.3522124511
 21
219.4347416987
 31
0.0
 11
168.3342050234
 21
219.4363200444
 31
0.0
 11
168.3162419026
 21
219.4376769632
 31
0.0
 11
168.2983268189
 21
219.4388144368
 31
0.0
 11
168.2804634282
 21
219.4397345216
 31
0.0
 11
168.2626553102
 21
219.4404393452
 31
0.0
 11
168.2449059678
 21
219.440931104
 31
0.0
 11
168.227218825
 21
219.4412120599
 31
0.0
 11
168.2095972262
 21
219.4412845375
 31
0.0
 11
168.1920444351
 21
219.4411509212
 31
0.0
 11
168.1745636338
 21
219.4408136521
 31
0.0
 11
168.1571579218
 21
219.4402752252
 31
0.0
 11
168.1398303155
 21
219.4395381866
 31
0.0
 11
168.1225837474
 21
219.43860513
 31
0.0
 11
168.1054210659
 21
219.4374786945
 31
0.0
 11
168.0968720496
 21
219.436843796
 31
0.0
 11
168.0883450347
 21
219.4361615613
 31
0.0
 11
168.0798403533
 21
219.4354323318
 31
0.0
 11
168.0713583325
 21
219.434656451
 31
0.0
 11
168.0628992936
 21
219.4338342647
 31
0.0
 11
168.054463553
 21
219.4329661207
 31
0.0
 11
168.0460514216
 21
219.4320523689
 31
0.0
 11
168.0376632049
 21
219.4310933611
 31
0.0
 11
168.0334781586
 21
219.4305969967
 31
0.0
 11
168.0292992032
 21
219.430089451
 31
0.0
 11
168.0251263753
 21
219.4295707686
 31
0.0
 11
168.0209597114
 21
219.429040994
 31
0.0
 11
168.0167992475
 21
219.4285001719
 31
0.0
 11
168.0126450192
 21
219.4279483472
 31
0.0
 11
168.008497062
 21
219.4273855646
 31
0.0
 11
168.006425446
 21
219.4271000783
 31
0.0
 11
168.0043554109
 21
219.4268118693
 31
0.0
 11
168.0022869611
 21
219.4265209434
 31
0.0
 11
168.0002201007
 21
219.4262273062
 31
0.0
 11
167.9981548341
 21
219.4259309633
 31
0.0
 11
167.9960911656
 21
219.4256319205
 31
0.0
 11
167.995059932
 21
219.4254813884
 31
0.0
 11
167.9940290995
 21
219.4253301833
 31
0.0
 11
167.9929986686
 21
219.4251783062
 31
0.0
 11
167.9919686398
 21
219.4250257575
 31
0.0
 11
167.9909390138
 21
219.4248725381
 31
0.0
 11
167.989909791
 21
219.4247186487
 31
0.0
 11
167.9893953309
 21
219.4246414529
 31
0.0
 11
167.9888809719
 21
219.4245640899
 31
0.0
 11
167.9883667139
 21
219.4244865597
 31
0.0
 11
167.9881096228
 21
219.424447732
 31
0.0
 11
167.987852557
 21
219.4244088625
 31
0.0
 11
167.987595498
 21
219.4243699485
 31
0.0
 11
167.9873384271
 21
219.424330987
 31
0.0
 11
167.9868242501
 21
219.4242529221
 31
0.0
 11
167.9863100259
 21
219.4241746675
 31
0.0
 11
167.9857957547
 21
219.4240962234
 31
0.0
 11
167.9847670717
 21
219.4239387658
 31
0.0
 11
167.9837382018
 21
219.423780549
 31
0.0
 11
167.9827091456
 21
219.4236215723
 31
0.0
 11
167.9816799038
 21
219.4234618352
 31
0.0
 11
167.9806504772
 21
219.4233013372
 31
0.0
 11
167.9796208666
 21
219.4231400779
 31
0.0
 11
167.9775610957
 21
219.4228152728
 31
0.0
 11
167.975500597
 21
219.4224874158
 31
0.0
 11
167.9734393762
 21
219.4221565028
 31
0.0
 11
167.9713774391
 21
219.4218225296
 31
0.0
 11
167.9693147914
 21
219.4214854921
 31
0.0
 11
167.967251439
 21
219.4211453863
 31
0.0
 11
167.9631226431
 21
219.4204559532
 31
0.0
 11
167.9589910984
 21
219.4197541976
 31
0.0
 11
167.9548568518
 21
219.4190400872
 31
0.0
 11
167.9507199507
 21
219.4183135897
 31
0.0
 11
167.9465804428
 21
219.417574673
 31
0.0
 11
167.9424383759
 21
219.4168233054
 31
0.0
 11
167.9382937984
 21
219.4160594552
 31
0.0
 11
167.9299973055
 21
219.4144941815
 31
0.0
 11
167.9216913556
 21
219.4128786029
 31
0.0
 11
167.9133763447
 21
219.4112124737
 31
0.0
 11
167.9050526732
 21
219.4094955517
 31
0.0
 11
167.8967207461
 21
219.4077275981
 31
0.0
 11
167.8883809729
 21
219.4059083778
 31
0.0
 11
167.8800337674
 21
219.4040376593
 31
0.0
 11
167.8716795479
 21
219.4021152148
 31
0.0
 11
167.8549517619
 21
219.3981142563
 31
0.0
 11
167.838201048
 21
219.3939037586
 31
0.0
 11
167.8214309078
 21
219.3894820434
 31
0.0
 11
167.80464491
 21
219.3848475003
 31
0.0
 11
167.7878466889
 21
219.3799985897
 31
0.0
 11
167.7710399436
 21
219.3749338452
 31
0.0
 11
167.7542284356
 21
219.369651876
 31
0.0
 11
167.7374159881
 21
219.36415137
 31
0.0
 11
167.7206064834
 21
219.358431096
 31
0.0
 11
167.7038038615
 21
219.3524899061
 31
0.0
 11
167.6870121179
 21
219.3463267385
 31
0.0
 11
167.6702353019
 21
219.3399406197
 31
0.0
 11
167.6534775139
 21
219.3333306669
 31
0.0
 11
167.6367429032
 21
219.3264960903
 31
0.0
 11
167.6200356661
 21
219.3194361955
 31
0.0
 11
167.6033600426
 21
219.3121503854
 31
0.0
 11
167.5867203144
 21
219.3046381626
 31
0.0
 11
167.5701208019
 21
219.2968991314
 31
0.0
 11
167.5535658614
 21
219.2889329996
 31
0.0
 11
167.5370598821
 21
219.2807395803
 31
0.0
 11
167.5206072834
 21
219.2723187943
 31
0.0
 11
167.5042125115
 21
219.2636706709
 31
0.0
 11
167.4878800362
 21
219.2547953501
 31
0.0
 11
167.4716143479
 21
219.2456930838
 31
0.0
 11
167.4554199538
 21
219.2363642374
 31
0.0
 11
167.4393013748
 21
219.2268092907
 31
0.0
 11
167.4232631421
 21
219.2170288393
 31
0.0
 11
167.4073097932
 21
219.2070235957
 31
0.0
 11
167.3914458686
 21
219.1967943897
 31
0.0
 11
167.3756759078
 21
219.1863421698
 31
0.0
 11
167.360004446
 21
219.1756680031
 31
0.0
 11
167.3444360099
 21
219.1647730763
 31
0.0
 11
167.328975114
 21
219.1536586959
 31
0.0
 11
167.3136262569
 21
219.1423262882
 31
0.0
 11
167.2983939171
 21
219.1307773997
 31
0.0
 11
167.2832825491
 21
219.1190136965
 31
0.0
 11
167.26829658
 21
219.1070369645
 31
0.0
 11
167.2534404047
 21
219.0948491085
 31
0.0
 11
167.2387183826
 21
219.0824521523
 31
0.0
 11
167.2241348336
 21
219.0698482372
 31
0.0
 11
167.2096940337
 21
219.0570396217
 31
0.0
 11
167.1954002117
 21
219.0440286802
 31
0.0
 11
167.1812575449
 21
219.030817902
 31
0.0
 11
167.1672701555
 21
219.0174098897
 31
0.0
 11
167.1534421066
 21
219.0038073577
 31
0.0
 11
167.1397773986
 21
218.990013131
 31
0.0
 11
167.1262799653
 21
218.9760301428
 31
0.0
 11
167.1129536704
 21
218.9618614329
 31
0.0
 11
167.099802304
 21
218.9475101455
 31
0.0
 11
167.086829579
 21
218.9329795271
 31
0.0
 11
167.0740391276
 21
218.9182729239
 31
0.0
 11
167.061434498
 21
218.9033937795
 31
0.0
 11
167.0490191513
 21
218.888345632
 31
0.0
 11
167.0367964583
 21
218.8731321115
 31
0.0
 11
167.0247696963
 21
218.857756937
 31
0.0
 11
167.0129420467
 21
218.8422239134
 31
0.0
 11
167.0013165914
 21
218.8265369286
 31
0.0
 11
166.9898963108
 21
218.8106999498
 31
0.0
 11
166.978684081
 21
218.7947170207
 31
0.0
 11
166.9676826713
 21
218.7785922578
 31
0.0
 11
166.9568947423
 21
218.7623298465
 31
0.0
 11
166.9463228433
 21
218.7459340383
 31
0.0
 11
166.9359694103
 21
218.7294091464
 31
0.0
 11
166.9258367648
 21
218.7127595422
 31
0.0
 11
166.9159271114
 21
218.6959896516
 31
0.0
 11
166.9062425364
 21
218.6791039507
 31
0.0
 11
166.8967850069
 21
218.6621069624
 31
0.0
 11
166.8875563689
 21
218.6450032521
 31
0.0
 11
166.8785583466
 21
218.6277974236
 31
0.0
 11
166.8697925416
 21
218.6104941155
 31
0.0
 11
166.8612604317
 21
218.5930979964
 31
0.0
 11
166.8529633707
 21
218.5756137618
 31
0.0
 11
166.8449025878
 21
218.5580461289
 31
0.0
 11
166.8370791876
 21
218.5403998335
 31
0.0
 11
166.8294941495
 21
218.5226796254
 31
0.0
 11
166.8221483281
 21
218.5048902644
 31
0.0
 11
166.8150424531
 21
218.4870365163
 31
0.0
 11
166.8081771303
 21
218.4691231491
 31
0.0
 11
166.8015528412
 21
218.4511549287
 31
0.0
 11
166.7951699443
 21
218.4331366149
 31
0.0
 11
166.7890286758
 21
218.4150729581
 31
0.0
 11
166.7831291502
 21
218.3969686948
 31
0.0
 11
166.7774713619
 21
218.3788285442
 31
0.0
 11
166.7720551859
 21
218.3606572044
 31
0.0
 11
166.7668803797
 21
218.3424593489
 31
0.0
 11
166.7619465841
 21
218.3242396227
 31
0.0
 11
166.7572533254
 21
218.3060026393
 31
0.0
 11
166.7528000169
 21
218.2877529768
 31
0.0
 11
166.7485859605
 21
218.2694951751
 31
0.0
 11
166.7446103492
 21
218.2512337324
 31
0.0
 11
166.7408722684
 21
218.232973102
 31
0.0
 11
166.7373706987
 21
218.2147176898
 31
0.0
 11
166.7341045179
 21
218.1964718506
 31
0.0
 11
166.731072503
 21
218.1782398862
 31
0.0
 11
166.7282733332
 21
218.160026042
 31
0.0
 11
166.7257055918
 21
218.1418345051
 31
0.0
 11
166.7233677693
 21
218.123669401
 31
0.0
 11
166.7212582654
 21
218.1055347921
 31
0.0
 11
166.7193753922
 21
218.0874346751
 31
0.0
 11
166.7177173768
 21
218.0693729788
 31
0.0
 11
166.7162823636
 21
218.0513535624
 31
0.0
 11
166.7150684179
 21
218.0333802135
 31
0.0
 11
166.7140735282
 21
218.0154566462
 31
0.0
 11
166.7132956091
 21
217.9975865
 31
0.0
 11
166.7127325046
 21
217.9797733376
 31
0.0
 11
166.7123819905
 21
217.9620206442
 31
0.0
 11
166.7122417777
 21
217.9443318257
 31
0.0
 11
166.7123095151
 21
217.9267102081
 31
0.0
 11
166.7125827923
 21
217.9091590358
 31
0.0
 11
166.7130591431
 21
217.8916814715
 31
0.0
 11
166.7137360478
 21
217.8742805947
 31
0.0
 11
166.7146109366
 21
217.8569594014
 31
0.0
 11
166.7156811922
 21
217.8397208035
 31
0.0
 11
166.7169441532
 21
217.8225676282
 31
0.0
 11
166.7183971163
 21
217.8055026178
 31
0.0
 11
166.7200373398
 21
217.7885284293
 31
0.0
 11
166.7218620461
 21
217.7716476344
 31
0.0
 11
166.7238684245
 21
217.7548627194
 31
0.0
 11
166.7260536341
 21
217.7381760851
 31
0.0
 11
166.7284148064
 21
217.7215900471
 31
0.0
 11
166.7309490481
 21
217.705106836
 31
0.0
  0
SPLINE
  5
289
100
AcDbEntity
  8
0
100
AcDbSpline
 62
7
  6
CONTINUOUS
 70
4
 71
3
 72
8
 73
4
 74
17
 42
0.0000001
 43
0.0000001
 44
0.0000000001
 12
-2.9887451323
 22
-0.258520268
 32
0.0
 13
-2.9314586837
 23
-0.6371657404
 33
0.0
 40
0.0
 40
0.0
 40
0.0
 40
0.0
 40
1.0
 40
1.0
 40
1.0
 40
1.0
 10
169.6970991461
 20
218.1538648896
 30
0.0
 41
1.0
 10
168.6994946445
 20
218.067574165
 30
0.0
 41
0.9986406195
 10
167.7094320734
 20
217.917784526
 30
0.0
 41
0.9986406195
 10
166.7309490481
 20
217.705106836
 30
0.0
 41
1.0
 11
169.6970991461
 21
218.1538648896
 31
0.0
 11
169.5103462119
 21
218.1369602171
 31
0.0
 11
169.3236924952
 21
218.1185616438
 31
0.0
 11
169.1371559093
 21
218.0986700008
 31
0.0
 11
168.950754359
 21
218.0772864052
 31
0.0
 11
168.7645057345
 21
218.0544122604
 31
0.0
 11
168.5784279061
 21
218.0300492557
 31
0.0
 11
168.3925387179
 21
218.0041993661
 31
0.0
 11
168.2068559829
 21
217.9768648514
 31
0.0
 11
168.0213974764
 21
217.9480482559
 31
0.0
 11
167.8361809312
 21
217.9177524074
 31
0.0
 11
167.6512240312
 21
217.8859804165
 31
0.0
 11
167.4665444065
 21
217.8527356753
 31
0.0
 11
167.2821596271
 21
217.8180218563
 31
0.0
 11
167.0980871976
 21
217.7818429113
 31
0.0
 11
166.9143445521
 21
217.7442030694
 31
0.0
 11
166.7309490481
 21
217.705106836
 31
0.0
  0
LINE
  5
28A
100
AcDbEntity
  8
0
100
AcDbLine
 62
7
  6
CONTINUOUS
 10
156.5222386871
 20
170.2412868633
 11
156.5222386871
 21
163.7412868633
  0
LINE
  5
28B
100
AcDbEntity
  8
0
100
AcDbLine
 62
7
  6
CONTINUOUS
 10
157.5222386871
 20
171.2412868633
 11
156.5222386871
 21
170.2412868633
  0
LINE
  5
28C
100
AcDbEntity
  8
0
100
AcDbLine
 62
7
  6
CONTINUOUS
 10
163.7222386871
 20
171.2412868633
 11
157.5222386871
 21
171.2412868633
  0
LINE
  5
28D
100
AcDbEntity
  8
0
100
AcDbLine
 62
7
  6
CONTINUOUS
 10
163.7222386871
 20
172.470229412
 11
163.7222386871
 21
171.2412868633
  0
LINE
  5
28E
100
AcDbEntity
  8
0
100
AcDbLine
 62
7
  6
CONTINUOUS
 10
163.7222386871
 20
172.470229412
 11
164.2222386871
 21
172.470229412
  0
SPLINE
  5
28F
100
AcDbEntity
  8
0
100
AcDbSpline
 62
7
  6
CONTINUOUS
 70
4
 71
3
 72
8
 73
4
 74
3
 42
0.0000001
 43
0.0000001
 44
0.0000000001
 12
-0.3002573992
 22
0.1011146641
 32
0.0
 13
-0.298866919
 23
0.1051534395
 33
0.0
 40
0.0
 40
0.0
 40
0.0
 40
0.0
 40
1.0
 40
1.0
 40
1.0
 40
1.0
 10
164.2222386871
 20
172.470229412
 30
0.0
 41
1.0
 10
164.1221513713
 20
172.5039348105
 30
0.0
 41
0.9999848529
 10
164.0222935369
 20
172.5383141297
 30
0.0
 41
0.9999848529
 10
163.9226697216
 20
172.5733658071
 30
0.0
 41
1.0
 11
164.2222386871
 21
172.470229412
 31
0.0
 11
164.0722803923
 21
172.5212927569
 31
0.0
 11
163.9226697216
 21
172.5733658071
 31
0.0
  0
SPLINE
  5
290
100
AcDbEntity
  8
0
100
AcDbSpline
 62
7
  6
CONTINUOUS
 70
4
 71
3
 72
8
 73
4
 74
65
 42
0.0000001
 43
0.0000001
 44
0.0000000001
 12
-0.3271261129
 22
0.115096164
 32
0.0
 13
0.0
 23
0.3467832474
 33
0.0
 40
0.0
 40
0.0
 40
0.0
 40
0.0
 40
1.0
 40
1.0
 40
1.0
 40
1.0
 10
163.9226697216
 20
172.5733658071
 30
0.0
 41
1.0
 10
163.7983870244
 20
172.617093474
 30
0.0
 41
0.8773710264
 10
163.7222386871
 20
172.7246096515
 30
0.0
 41
0.8773710264
 10
163.7222386871
 20
172.856360544
 30
0.0
 41
1.0
 11
163.9226697216
 21
172.5733658071
 31
0.0
 11
163.9175603968
 21
172.5752156427
 31
0.0
 11
163.9124570152
 21
172.5771688813
 31
0.0
 11
163.9073624724
 21
172.5792261807
 31
0.0
 11
163.9022797178
 21
172.5813880987
 31
0.0
 11
163.8972117511
 21
172.5836550888
 31
0.0
 11
163.8921616176
 21
172.5860274976
 31
0.0
 11
163.8871324043
 21
172.5885055602
 31
0.0
 11
163.8821272344
 21
172.5910893981
 31
0.0
 11
163.877149263
 21
172.5937790157
 31
0.0
 11
163.8722016714
 21
172.5965742974
 31
0.0
 11
163.8672876619
 21
172.5994750057
 31
0.0
 11
163.862410452
 21
172.6024807786
 31
0.0
 11
163.8575732689
 21
172.6055911279
 31
0.0
 11
163.8527793429
 21
172.6088054377
 31
0.0
 11
163.8480319018
 21
172.612122963
 31
0.0
 11
163.8433341644
 21
172.6155428292
 31
0.0
 11
163.8386893342
 21
172.6190640311
 31
0.0
 11
163.8341005927
 21
172.6226854331
 31
0.0
 11
163.8295710933
 21
172.6264057695
 31
0.0
 11
163.8251039544
 21
172.6302236448
 31
0.0
 11
163.8207022528
 21
172.6341375351
 31
0.0
 11
163.8163690177
 21
172.6381457892
 31
0.0
 11
163.8121072234
 21
172.6422466304
 31
0.0
 11
163.8079197837
 21
172.6464381592
 31
0.0
 11
163.803809545
 21
172.6507183551
 31
0.0
 11
163.7997792803
 21
172.6550850802
 31
0.0
 11
163.7958316835
 21
172.6595360823
 31
0.0
 11
163.791969363
 21
172.6640689988
 31
0.0
 11
163.7881948365
 21
172.6686813603
 31
0.0
 11
163.7845105256
 21
172.6733705955
 31
0.0
 11
163.7809187505
 21
172.6781340358
 31
0.0
 11
163.7774217252
 21
172.6829689203
 31
0.0
 11
163.774021553
 21
172.687872401
 31
0.0
 11
163.7707202223
 21
172.6928415486
 31
0.0
 11
163.7675196027
 21
172.6978733582
 31
0.0
 11
163.7644214416
 21
172.7029647555
 31
0.0
 11
163.7614273608
 21
172.7081126027
 31
0.0
 11
163.758538854
 21
172.7133137054
 31
0.0
 11
163.7557572842
 21
172.7185648187
 31
0.0
 11
163.7530838819
 21
172.7238626541
 31
0.0
 11
163.7505197434
 21
172.729203886
 31
0.0
 11
163.74806583
 21
172.7345851589
 31
0.0
 11
163.7457229664
 21
172.7400030938
 31
0.0
 11
163.7434918415
 21
172.745454295
 31
0.0
 11
163.7413730074
 21
172.7509353574
 31
0.0
 11
163.7393668806
 21
172.7564428725
 31
0.0
 11
163.7374737423
 21
172.7619734356
 31
0.0
 11
163.7356937401
 21
172.7675236521
 31
0.0
 11
163.7340268892
 21
172.7730901437
 31
0.0
 11
163.7324730745
 21
172.7786695551
 31
0.0
 11
163.7310320528
 21
172.7842585595
 31
0.0
 11
163.7297034556
 21
172.7898538649
 31
0.0
 11
163.7284867917
 21
172.7954522196
 31
0.0
 11
163.7273814506
 21
172.8010504175
 31
0.0
 11
163.7263867058
 21
172.8066453031
 31
0.0
 11
163.7255017187
 21
172.8122337769
 31
0.0
 11
163.7247255422
 21
172.8178127996
 31
0.0
 11
163.7240571251
 21
172.8233793964
 31
0.0
 11
163.7234953164
 21
172.8289306613
 31
0.0
 11
163.7230388694
 21
172.8344637606
 31
0.0
 11
163.7226864469
 21
172.8399759364
 31
0.0
 11
163.722436625
 21
172.8454645096
 31
0.0
 11
163.7222878989
 21
172.8509268832
 31
0.0
 11
163.7222386871
 21
172.856360544
 31
0.0
  0
LINE
  5
291
100
AcDbEntity
  8
0
100
AcDbLine
 62
7
  6
CONTINUOUS
 10
163.7222386871
 20
172.856360544
 11
163.7222386871
 21
176.0012868633
  0
LINE
  5
292
100
AcDbEntity
  8
0
100
AcDbLine
 62
7
  6
CONTINUOUS
 10
164.4222386871
 20
176.0012868633
 11
163.7222386871
 21
176.0012868633
  0
LINE
  5
293
100
AcDbEntity
  8
0
100
AcDbLine
 62
7
  6
CONTINUOUS
 10
164.4222386871
 20
176.0012868633
 11
164.4222386871
 21
177.5912868633
  0
LINE
  5
294
100
AcDbEntity
  8
0
100
AcDbLine
 62
7
  6
CONTINUOUS
 10
164.4222386871
 20
177.5912868633
 11
163.7222386871
 21
178.9112868633
  0
LINE
  5
295
100
AcDbEntity
  8
0
100
AcDbLine
 62
7
  6
CONTINUOUS
 10
163.7222386871
 20
178.9112868633
 11
163.7222386871
 21
180.2412868633
  0
LINE
  5
296
100
AcDbEntity
  8
0
100
AcDbLine
 62
7
  6
CONTINUOUS
 10
163.7222386871
 20
180.2412868633
 11
159.3222386871
 21
180.2412868633
  0
SPLINE
  5
297
100
AcDbEntity
  8
0
100
AcDbSpline
 62
7
  6
CONTINUOUS
 70
4
 71
3
 72
8
 73
4
 74
127
 42
0.0000001
 43
0.0000001
 44
0.0000000001
 12
-0.4242640687
 22
-0.0
 32
0.0
 13
-0.0
 23
0.4242640687
 33
0.0
 40
0.0
 40
0.0
 40
0.0
 40
0.0
 40
1.0
 40
1.0
 40
1.0
 40
1.0
 10
159.3222386871
 20
180.2412868633
 30
0.0
 41
1.0
 10
159.1465027558
 20
180.2412868633
 30
0.0
 41
0.8047378541
 10
159.0222386871
 20
180.365550932
 30
0.0
 41
0.8047378541
 10
159.0222386871
 20
180.5412868633
 30
0.0
 41
1.0
 11
159.3222386871
 21
180.2412868633
 31
0.0
 11
159.315579904
 21
180.2413607714
 31
0.0
 11
159.3122290532
 21
180.2414538977
 31
0.0
 11
159.3088646138
 21
180.2415851213
 31
0.0
 11
159.3054871435
 21
180.2417549188
 31
0.0
 11
159.3020972153
 21
180.2419637584
 31
0.0
 11
159.298695418
 21
180.2422120992
 31
0.0
 11
159.2952823557
 21
180.2425003907
 31
0.0
 11
159.2918586478
 21
180.2428290719
 31
0.0
 11
159.2884249287
 21
180.2431985714
 31
0.0
 11
159.2849818479
 21
180.2436093063
 31
0.0
 11
159.2815300696
 21
180.2440616819
 31
0.0
 11
159.2780702726
 21
180.2445560911
 31
0.0
 11
159.27460315
 21
180.245092914
 31
0.0
 11
159.2711294093
 21
180.245672517
 31
0.0
 11
159.2676497714
 21
180.2462952527
 31
0.0
 11
159.264164971
 21
180.2469614592
 31
0.0
 11
159.2606757561
 21
180.2476714592
 31
0.0
 11
159.2571828874
 21
180.24842556
 31
0.0
 11
159.2536871384
 21
180.249224053
 31
0.0
 11
159.2501892944
 21
180.2500672125
 31
0.0
 11
159.2466901529
 21
180.2509552959
 31
0.0
 11
159.2431905225
 21
180.2518885432
 31
0.0
 11
159.2396912226
 21
180.2528671758
 31
0.0
 11
159.2361930833
 21
180.2538913969
 31
0.0
 11
159.2326969444
 21
180.2549613906
 31
0.0
 11
159.2292036553
 21
180.2560773212
 31
0.0
 11
159.2257140742
 21
180.2572393336
 31
0.0
 11
159.2222290676
 21
180.258447552
 31
0.0
 11
159.21874951
 21
180.2597020799
 31
0.0
 11
159.2152762828
 21
180.2610029999
 31
0.0
 11
159.2118102742
 21
180.262350373
 31
0.0
 11
159.2083523783
 21
180.2637442383
 31
0.0
 11
159.2049034944
 21
180.2651846131
 31
0.0
 11
159.2014645266
 21
180.2666714919
 31
0.0
 11
159.1980363829
 21
180.2682048469
 31
0.0
 11
159.1946199746
 21
180.2697846271
 31
0.0
 11
159.1912162155
 21
180.2714107585
 31
0.0
 11
159.1878260214
 21
180.2730831435
 31
0.0
 11
159.1844503092
 21
180.2748016612
 31
0.0
 11
159.181089996
 21
180.276566167
 31
0.0
 11
159.1777459989
 21
180.2783764925
 31
0.0
 11
159.1744192335
 21
180.2802324453
 31
0.0
 11
159.1711106138
 21
180.2821338091
 31
0.0
 11
159.1678210511
 21
180.2840803438
 31
0.0
 11
159.1645514531
 21
180.2860717849
 31
0.0
 11
159.1613027236
 21
180.2881078443
 31
0.0
 11
159.1580757611
 21
180.2901882099
 31
0.0
 11
159.1548714585
 21
180.2923125457
 31
0.0
 11
159.1516907022
 21
180.2944804921
 31
0.0
 11
159.1485343711
 21
180.2966916658
 31
0.0
 11
159.1454033362
 21
180.2989456602
 31
0.0
 11
159.1422984595
 21
180.3012420456
 31
0.0
 11
159.1392205933
 21
180.3035803692
 31
0.0
 11
159.1361705795
 21
180.3059601556
 31
0.0
 11
159.1331492492
 21
180.308380907
 31
0.0
 11
159.1301574211
 21
180.3108421036
 31
0.0
 11
159.1271959016
 21
180.313343204
 31
0.0
 11
159.1242654836
 21
180.3158836452
 31
0.0
 11
159.1213669463
 21
180.3184628436
 31
0.0
 11
159.1185010537
 21
180.321080195
 31
0.0
 11
159.1156685548
 21
180.3237350753
 31
0.0
 11
159.1128701824
 21
180.3264268408
 31
0.0
 11
159.1101066527
 21
180.3291548289
 31
0.0
 11
159.1073786646
 21
180.3319183586
 31
0.0
 11
159.1046868991
 21
180.334716731
 31
0.0
 11
159.1020320188
 21
180.3375492299
 31
0.0
 11
159.0994146674
 21
180.3404151225
 31
0.0
 11
159.096835469
 21
180.3433136598
 31
0.0
 11
159.0942950278
 21
180.3462440777
 31
0.0
 11
159.0917939275
 21
180.3492055972
 31
0.0
 11
159.0893327308
 21
180.3521974254
 31
0.0
 11
159.0869119794
 21
180.3552187557
 31
0.0
 11
159.084532193
 21
180.3582687694
 31
0.0
 11
159.0821938694
 21
180.3613466357
 31
0.0
 11
159.0798974841
 21
180.3644515124
 31
0.0
 11
159.0776434896
 21
180.3675825473
 31
0.0
 11
159.0754323159
 21
180.3707388784
 31
0.0
 11
159.0732643695
 21
180.3739196347
 31
0.0
 11
159.0711400337
 21
180.3771239373
 31
0.0
 11
159.0690596681
 21
180.3803508997
 31
0.0
 11
159.0670236087
 21
180.3835996293
 31
0.0
 11
159.0650321676
 21
180.3868692272
 31
0.0
 11
159.063085633
 21
180.39015879
 31
0.0
 11
159.0611842691
 21
180.3934674097
 31
0.0
 11
159.0593283163
 21
180.396794175
 31
0.0
 11
159.0575179909
 21
180.4001381722
 31
0.0
 11
159.055753485
 21
180.4034984854
 31
0.0
 11
159.0540349673
 21
180.4068741976
 31
0.0
 11
159.0523625823
 21
180.4102643917
 31
0.0
 11
159.050736451
 21
180.4136681508
 31
0.0
 11
159.0491566708
 21
180.4170845591
 31
0.0
 11
159.0476233158
 21
180.4205127028
 31
0.0
 11
159.0461364369
 21
180.4239516706
 31
0.0
 11
159.0446960621
 21
180.4274005545
 31
0.0
 11
159.0433021968
 21
180.4308584504
 31
0.0
 11
159.0419548237
 21
180.434324459
 31
0.0
 11
159.0406539037
 21
180.4377976862
 31
0.0
 11
159.0393993758
 21
180.4412772438
 31
0.0
 11
159.0381911574
 21
180.4447622504
 31
0.0
 11
159.0370291451
 21
180.4482518315
 31
0.0
 11
159.0359132144
 21
180.4517451206
 31
0.0
 11
159.0348432208
 21
180.4552412595
 31
0.0
 11
159.0338189996
 21
180.4587393988
 31
0.0
 11
159.032840367
 21
180.4622386987
 31
0.0
 11
159.0319071198
 21
180.4657383291
 31
0.0
 11
159.0310190363
 21
180.4692374706
 31
0.0
 11
159.0301758768
 21
180.4727353145
 31
0.0
 11
159.0293773839
 21
180.4762310636
 31
0.0
 11
159.028623283
 21
180.4797239323
 31
0.0
 11
159.027913283
 21
180.4832131472
 31
0.0
 11
159.0272470766
 21
180.4866979475
 31
0.0
 11
159.0266243408
 21
180.4901775854
 31
0.0
 11
159.0260447378
 21
180.4936513262
 31
0.0
 11
159.0255079149
 21
180.4971184487
 31
0.0
 11
159.0250135057
 21
180.5005782457
 31
0.0
 11
159.0245611301
 21
180.5040300241
 31
0.0
 11
159.0241503952
 21
180.5074731049
 31
0.0
 11
159.0237808957
 21
180.510906824
 31
0.0
 11
159.0234522145
 21
180.5143305319
 31
0.0
 11
159.0231639231
 21
180.5177435942
 31
0.0
 11
159.0229155822
 21
180.5211453915
 31
0.0
 11
159.0227067426
 21
180.5245353196
 31
0.0
 11
159.0225369451
 21
180.52791279
 31
0.0
 11
159.0224057215
 21
180.5312772294
 31
0.0
 11
159.0223125952
 21
180.5346280801
 31
0.0
 11
159.0222386871
 21
180.5412868633
 31
0.0
  0
LINE
  5
298
100
AcDbEntity
  8
0
100
AcDbLine
 62
7
  6
CONTINUOUS
 10
159.0222386871
 20
180.5412868633
 11
159.0222386871
 21
184.1412868624
  0
SPLINE
  5
299
100
AcDbEntity
  8
0
100
AcDbSpline
 62
7
  6
CONTINUOUS
 70
4
 71
3
 72
8
 73
4
 74
129
 42
0.0000001
 43
0.0000001
 44
0.0000000001
 12
0.0
 22
0.8485281374
 32
0.0
 13
0.8485281374
 23
-0.0
 33
0.0
 40
0.0
 40
0.0
 40
0.0
 40
0.0
 40
1.0
 40
1.0
 40
1.0
 40
1.0
 10
159.0222386871
 20
184.1412868624
 30
0.0
 41
1.0
 10
159.0222386871
 20
184.492758725
 30
0.0
 41
0.8047378541
 10
159.2707668245
 20
184.7412868624
 30
0.0
 41
0.8047378541
 10
159.6222386871
 20
184.7412868624
 30
0.0
 41
1.0
 11
159.0222386871
 21
184.1412868624
 31
0.0
 11
159.0222754752
 21
184.1479309885
 31
0.0
 11
159.0223865033
 21
184.1546044286
 31
0.0
 11
159.022572756
 21
184.1613061301
 31
0.0
 11
159.0228352031
 21
184.1680350089
 31
0.0
 11
159.0231747981
 21
184.1747899496
 31
0.0
 11
159.0235924773
 21
184.181569806
 31
0.0
 11
159.024089159
 21
184.1883734006
 31
0.0
 11
159.0246657419
 21
184.1951995251
 31
0.0
 11
159.0253231044
 21
184.202046941
 31
0.0
 11
159.0260621034
 21
184.2089143792
 31
0.0
 11
159.0268835731
 21
184.2158005408
 31
0.0
 11
159.0277883243
 21
184.2227040974
 31
0.0
 11
159.0287771427
 21
184.2296236914
 31
0.0
 11
159.0298507885
 21
184.2365579365
 31
0.0
 11
159.0310099946
 21
184.243505418
 31
0.0
 11
159.032255466
 21
184.2504646938
 31
0.0
 11
159.0335878789
 21
184.2574342945
 31
0.0
 11
159.0350078789
 21
184.2644127244
 31
0.0
 11
159.0365160806
 21
184.2713984617
 31
0.0
 11
159.0381130665
 21
184.2783899598
 31
0.0
 11
159.0397993855
 21
184.2853856477
 31
0.0
 11
159.0415755524
 21
184.2923839307
 31
0.0
 11
159.0434420469
 21
184.2993831916
 31
0.0
 11
159.0453993122
 21
184.3063817913
 31
0.0
 11
159.0474477544
 21
184.3133780699
 31
0.0
 11
159.0495877417
 21
184.3203703477
 31
0.0
 11
159.051819603
 21
184.327356926
 31
0.0
 11
159.0541436278
 21
184.3343360882
 31
0.0
 11
159.0565600645
 21
184.3413061013
 31
0.0
 11
159.0590691204
 21
184.3482652166
 31
0.0
 11
159.0616709603
 21
184.3552116709
 31
0.0
 11
159.0643657065
 21
184.3621436881
 31
0.0
 11
159.0671534372
 21
184.36905948
 31
0.0
 11
159.0700341867
 21
184.3759572477
 31
0.0
 11
159.0730079444
 21
184.3828351833
 31
0.0
 11
159.0760746544
 21
184.3896914707
 31
0.0
 11
159.0792342148
 21
184.3965242874
 31
0.0
 11
159.0824864775
 21
184.4033318055
 31
0.0
 11
159.0858312475
 21
184.4101121937
 31
0.0
 11
159.089268283
 21
184.4168636182
 31
0.0
 11
159.0927972946
 21
184.4235842445
 31
0.0
 11
159.0964179456
 21
184.4302722389
 31
0.0
 11
159.1001298512
 21
184.4369257696
 31
0.0
 11
159.1039325788
 21
184.443543009
 31
0.0
 11
159.1078256481
 21
184.4501221344
 31
0.0
 11
159.1118085303
 21
184.4566613303
 31
0.0
 11
159.1158806492
 21
184.4631587894
 31
0.0
 11
159.1200413804
 21
184.4696127144
 31
0.0
 11
159.124290052
 21
184.4760213195
 31
0.0
 11
159.1286259447
 21
184.4823828322
 31
0.0
 11
159.1330482922
 21
184.4886954943
 31
0.0
 11
159.137556281
 21
184.4949575641
 31
0.0
 11
159.1421490518
 21
184.5011673176
 31
0.0
 11
159.1468256989
 21
184.50732305
 31
0.0
 11
159.1515852717
 21
184.5134230775
 31
0.0
 11
159.1564267745
 21
184.5194657382
 31
0.0
 11
159.1613491678
 21
184.5254493944
 31
0.0
 11
159.1663513685
 21
184.5313724334
 31
0.0
 11
159.171432251
 21
184.5372332693
 31
0.0
 11
159.1765906478
 21
184.543030344
 31
0.0
 11
159.1818253506
 21
184.5487621291
 31
0.0
 11
159.1871351111
 21
184.5544271269
 31
0.0
 11
159.1925186421
 21
184.5600238717
 31
0.0
 11
159.1979746184
 21
184.5655509311
 31
0.0
 11
159.2035016778
 21
184.5710069073
 31
0.0
 11
159.2090984226
 21
184.5763904383
 31
0.0
 11
159.2147634203
 21
184.5817001989
 31
0.0
 11
159.2204952055
 21
184.5869349017
 31
0.0
 11
159.2262922802
 21
184.5920932985
 31
0.0
 11
159.232153116
 21
184.597174181
 31
0.0
 11
159.238076155
 21
184.6021763816
 31
0.0
 11
159.2440598113
 21
184.6070987749
 31
0.0
 11
159.250102472
 21
184.6119402778
 31
0.0
 11
159.2562024994
 21
184.6166998506
 31
0.0
 11
159.2623582319
 21
184.6213764977
 31
0.0
 11
159.2685679854
 21
184.6259692684
 31
0.0
 11
159.2748300552
 21
184.6304772573
 31
0.0
 11
159.2811427173
 21
184.6348996047
 31
0.0
 11
159.2875042299
 21
184.6392354975
 31
0.0
 11
159.2939128351
 21
184.6434841691
 31
0.0
 11
159.30036676
 21
184.6476449003
 31
0.0
 11
159.3068642191
 21
184.6517170192
 31
0.0
 11
159.313403415
 21
184.6556999014
 31
0.0
 11
159.3199825405
 21
184.6595929706
 31
0.0
 11
159.3265997799
 21
184.6633956983
 31
0.0
 11
159.3332533106
 21
184.6671076039
 31
0.0
 11
159.3399413049
 21
184.6707282548
 31
0.0
 11
159.3466619313
 21
184.6742572665
 31
0.0
 11
159.3534133558
 21
184.677694302
 31
0.0
 11
159.360193744
 21
184.681039072
 31
0.0
 11
159.3670012621
 21
184.6842913346
 31
0.0
 11
159.3738340788
 21
184.687450895
 31
0.0
 11
159.3806903662
 21
184.690517605
 31
0.0
 11
159.3875683018
 21
184.6934913628
 31
0.0
 11
159.3944660695
 21
184.6963721123
 31
0.0
 11
159.4013818614
 21
184.699159843
 31
0.0
 11
159.4083138785
 21
184.7018545891
 31
0.0
 11
159.4152603329
 21
184.7044564291
 31
0.0
 11
159.4222194481
 21
184.706965485
 31
0.0
 11
159.4291894613
 21
184.7093819217
 31
0.0
 11
159.4361686235
 21
184.7117059464
 31
0.0
 11
159.4431552018
 21
184.7139378078
 31
0.0
 11
159.4501474795
 21
184.7160777951
 31
0.0
 11
159.4571437582
 21
184.7181262373
 31
0.0
 11
159.4641423579
 21
184.7200835026
 31
0.0
 11
159.4711416188
 21
184.721949997
 31
0.0
 11
159.4781399018
 21
184.723726164
 31
0.0
 11
159.4851355896
 21
184.725412483
 31
0.0
 11
159.4921270878
 21
184.7270094688
 31
0.0
 11
159.4991128251
 21
184.7285176706
 31
0.0
 11
159.5060912549
 21
184.7299376706
 31
0.0
 11
159.5130608556
 21
184.7312700834
 31
0.0
 11
159.5200201314
 21
184.7325155549
 31
0.0
 11
159.526967613
 21
184.733674761
 31
0.0
 11
159.533901858
 21
184.7347484067
 31
0.0
 11
159.540821452
 21
184.7357372252
 31
0.0
 11
159.5477250087
 21
184.7366419763
 31
0.0
 11
159.5546111703
 21
184.7374634461
 31
0.0
 11
159.5614786085
 21
184.7382024451
 31
0.0
 11
159.5683260244
 21
184.7388598075
 31
0.0
 11
159.5751521489
 21
184.7394363904
 31
0.0
 11
159.5819557435
 21
184.7399330721
 31
0.0
 11
159.5887355998
 21
184.7403507514
 31
0.0
 11
159.5954905406
 21
184.7406903464
 31
0.0
 11
159.6022194194
 21
184.7409527935
 31
0.0
 11
159.6089211208
 21
184.7411390462
 31
0.0
 11
159.615594561
 21
184.7412500742
 31
0.0
 11
159.6222386871
 21
184.7412868624
 31
0.0
  0
LINE
  5
29A
100
AcDbEntity
  8
0
100
AcDbLine
 62
7
  6
CONTINUOUS
 10
189.4222386871
 20
184.7412868624
 11
159.6222386871
 21
184.7412868624
  0
SPLINE
  5
29B
100
AcDbEntity
  8
0
100
AcDbSpline
 62
7
  6
CONTINUOUS
 70
4
 71
3
 72
8
 73
4
 74
129
 42
0.0000001
 43
0.0000001
 44
0.0000000001
 12
0.8485281374
 22
0.0
 32
0.0
 13
-0.0
 23
-0.8485281374
 33
0.0
 40
0.0
 40
0.0
 40
0.0
 40
0.0
 40
1.0
 40
1.0
 40
1.0
 40
1.0
 10
189.4222386871
 20
184.7412868624
 30
0.0
 41
1.0
 10
189.7737105497
 20
184.7412868624
 30
0.0
 41
0.8047378541
 10
190.0222386871
 20
184.492758725
 30
0.0
 41
0.8047378541
 10
190.0222386871
 20
184.1412868624
 30
0.0
 41
1.0
 11
189.4222386871
 21
184.7412868624
 31
0.0
 11
189.4288828132
 21
184.7412500742
 31
0.0
 11
189.4355562533
 21
184.7411390462
 31
0.0
 11
189.4422579548
 21
184.7409527935
 31
0.0
 11
189.4489868336
 21
184.7406903464
 31
0.0
 11
189.4557417744
 21
184.7403507514
 31
0.0
 11
189.4625216307
 21
184.7399330721
 31
0.0
 11
189.4693252253
 21
184.7394363904
 31
0.0
 11
189.4761513498
 21
184.7388598075
 31
0.0
 11
189.4829987657
 21
184.7382024451
 31
0.0
 11
189.4898662039
 21
184.7374634461
 31
0.0
 11
189.4967523655
 21
184.7366419763
 31
0.0
 11
189.5036559222
 21
184.7357372252
 31
0.0
 11
189.5105755162
 21
184.7347484067
 31
0.0
 11
189.5175097612
 21
184.733674761
 31
0.0
 11
189.5244572427
 21
184.7325155549
 31
0.0
 11
189.5314165185
 21
184.7312700834
 31
0.0
 11
189.5383861193
 21
184.7299376706
 31
0.0
 11
189.5453645491
 21
184.7285176706
 31
0.0
 11
189.5523502864
 21
184.7270094688
 31
0.0
 11
189.5593417845
 21
184.725412483
 31
0.0
 11
189.5663374724
 21
184.723726164
 31
0.0
 11
189.5733357554
 21
184.721949997
 31
0.0
 11
189.5803350163
 21
184.7200835026
 31
0.0
 11
189.587333616
 21
184.7181262373
 31
0.0
 11
189.5943298946
 21
184.7160777951
 31
0.0
 11
189.6013221724
 21
184.7139378078
 31
0.0
 11
189.6083087507
 21
184.7117059464
 31
0.0
 11
189.6152879129
 21
184.7093819217
 31
0.0
 11
189.622257926
 21
184.706965485
 31
0.0
 11
189.6292170413
 21
184.7044564291
 31
0.0
 11
189.6361634957
 21
184.7018545891
 31
0.0
 11
189.6430955128
 21
184.699159843
 31
0.0
 11
189.6500113047
 21
184.6963721123
 31
0.0
 11
189.6569090724
 21
184.6934913628
 31
0.0
 11
189.663787008
 21
184.690517605
 31
0.0
 11
189.6706432954
 21
184.687450895
 31
0.0
 11
189.6774761121
 21
184.6842913346
 31
0.0
 11
189.6842836302
 21
184.681039072
 31
0.0
 11
189.6910640184
 21
184.677694302
 31
0.0
 11
189.6978154429
 21
184.6742572665
 31
0.0
 11
189.7045360692
 21
184.6707282548
 31
0.0
 11
189.7112240636
 21
184.6671076039
 31
0.0
 11
189.7178775943
 21
184.6633956983
 31
0.0
 11
189.7244948337
 21
184.6595929706
 31
0.0
 11
189.7310739592
 21
184.6556999014
 31
0.0
 11
189.7376131551
 21
184.6517170192
 31
0.0
 11
189.7441106141
 21
184.6476449003
 31
0.0
 11
189.7505645391
 21
184.6434841691
 31
0.0
 11
189.7569731442
 21
184.6392354975
 31
0.0
 11
189.7633346569
 21
184.6348996047
 31
0.0
 11
189.769647319
 21
184.6304772573
 31
0.0
 11
189.7759093888
 21
184.6259692684
 31
0.0
 11
189.7821191423
 21
184.6213764977
 31
0.0
 11
189.7882748748
 21
184.6166998506
 31
0.0
 11
189.7943749022
 21
184.6119402778
 31
0.0
 11
189.8004175629
 21
184.6070987749
 31
0.0
 11
189.8064012191
 21
184.6021763816
 31
0.0
 11
189.8123242582
 21
184.597174181
 31
0.0
 11
189.818185094
 21
184.5920932985
 31
0.0
 11
189.8239821687
 21
184.5869349017
 31
0.0
 11
189.8297139539
 21
184.5817001989
 31
0.0
 11
189.8353789516
 21
184.5763904383
 31
0.0
 11
189.8409756964
 21
184.5710069073
 31
0.0
 11
189.8465027558
 21
184.5655509311
 31
0.0
 11
189.851958732
 21
184.5600238717
 31
0.0
 11
189.8573422631
 21
184.5544271269
 31
0.0
 11
189.8626520236
 21
184.5487621291
 31
0.0
 11
189.8678867264
 21
184.543030344
 31
0.0
 11
189.8730451232
 21
184.5372332693
 31
0.0
 11
189.8781260057
 21
184.5313724334
 31
0.0
 11
189.8831282064
 21
184.5254493944
 31
0.0
 11
189.8880505996
 21
184.5194657382
 31
0.0
 11
189.8928921025
 21
184.5134230775
 31
0.0
 11
189.8976516753
 21
184.50732305
 31
0.0
 11
189.9023283224
 21
184.5011673176
 31
0.0
 11
189.9069210932
 21
184.4949575641
 31
0.0
 11
189.911429082
 21
184.4886954943
 31
0.0
 11
189.9158514294
 21
184.4823828322
 31
0.0
 11
189.9201873222
 21
184.4760213195
 31
0.0
 11
189.9244359938
 21
184.4696127144
 31
0.0
 11
189.928596725
 21
184.4631587894
 31
0.0
 11
189.9326688439
 21
184.4566613303
 31
0.0
 11
189.9366517261
 21
184.4501221344
 31
0.0
 11
189.9405447953
 21
184.443543009
 31
0.0
 11
189.944347523
 21
184.4369257696
 31
0.0
 11
189.9480594286
 21
184.4302722389
 31
0.0
 11
189.9516800795
 21
184.4235842445
 31
0.0
 11
189.9552090912
 21
184.4168636182
 31
0.0
 11
189.9586461267
 21
184.4101121937
 31
0.0
 11
189.9619908967
 21
184.4033318055
 31
0.0
 11
189.9652431594
 21
184.3965242874
 31
0.0
 11
189.9684027197
 21
184.3896914707
 31
0.0
 11
189.9714694297
 21
184.3828351833
 31
0.0
 11
189.9744431875
 21
184.3759572477
 31
0.0
 11
189.977323937
 21
184.36905948
 31
0.0
 11
189.9801116677
 21
184.3621436881
 31
0.0
 11
189.9828064138
 21
184.3552116709
 31
0.0
 11
189.9854082538
 21
184.3482652166
 31
0.0
 11
189.9879173097
 21
184.3413061013
 31
0.0
 11
189.9903337464
 21
184.3343360882
 31
0.0
 11
189.9926577711
 21
184.327356926
 31
0.0
 11
189.9948896325
 21
184.3203703477
 31
0.0
 11
189.9970296198
 21
184.3133780699
 31
0.0
 11
189.999078062
 21
184.3063817913
 31
0.0
 11
190.0010353273
 21
184.2993831916
 31
0.0
 11
190.0029018218
 21
184.2923839307
 31
0.0
 11
190.0046779887
 21
184.2853856477
 31
0.0
 11
190.0063643077
 21
184.2783899598
 31
0.0
 11
190.0079612936
 21
184.2713984617
 31
0.0
 11
190.0094694953
 21
184.2644127244
 31
0.0
 11
190.0108894953
 21
184.2574342945
 31
0.0
 11
190.0122219081
 21
184.2504646938
 31
0.0
 11
190.0134673796
 21
184.243505418
 31
0.0
 11
190.0146265857
 21
184.2365579365
 31
0.0
 11
190.0157002314
 21
184.2296236914
 31
0.0
 11
190.0166890499
 21
184.2227040974
 31
0.0
 11
190.0175938011
 21
184.2158005408
 31
0.0
 11
190.0184152708
 21
184.2089143792
 31
0.0
 11
190.0191542698
 21
184.202046941
 31
0.0
 11
190.0198116323
 21
184.1951995251
 31
0.0
 11
190.0203882152
 21
184.1883734006
 31
0.0
 11
190.0208848968
 21
184.181569806
 31
0.0
 11
190.0213025761
 21
184.1747899496
 31
0.0
 11
190.0216421711
 21
184.1680350089
 31
0.0
 11
190.0219046182
 21
184.1613061301
 31
0.0
 11
190.0220908709
 21
184.1546044286
 31
0.0
 11
190.022201899
 21
184.1479309885
 31
0.0
 11
190.0222386871
 21
184.1412868624
 31
0.0
  0
LINE
  5
29C
100
AcDbEntity
  8
0
100
AcDbLine
 62
7
  6
CONTINUOUS
 10
190.0222386871
 20
180.5412868633
 11
190.0222386871
 21
184.1412868624
  0
SPLINE
  5
29D
100
AcDbEntity
  8
0
100
AcDbSpline
 62
7
  6
CONTINUOUS
 70
4
 71
3
 72
8
 73
4
 74
127
 42
0.0000001
 43
0.0000001
 44
0.0000000001
 12
0.0
 22
-0.4242640687
 32
0.0
 13
-0.4242640687
 23
0.0
 33
0.0
 40
0.0
 40
0.0
 40
0.0
 40
0.0
 40
1.0
 40
1.0
 40
1.0
 40
1.0
 10
190.0222386871
 20
180.5412868633
 30
0.0
 41
1.0
 10
190.0222386871
 20
180.365550932
 30
0.0
 41
0.8047378541
 10
189.8979746184
 20
180.2412868633
 30
0.0
 41
0.8047378541
 10
189.7222386871
 20
180.2412868633
 30
0.0
 41
1.0
 11
190.0222386871
 21
180.5412868633
 31
0.0
 11
190.022164779
 21
180.5346280801
 31
0.0
 11
190.0220716526
 21
180.5312772294
 31
0.0
 11
190.0219404291
 21
180.52791279
 31
0.0
 11
190.0217706316
 21
180.5245353196
 31
0.0
 11
190.021561792
 21
180.5211453915
 31
0.0
 11
190.0213134511
 21
180.5177435942
 31
0.0
 11
190.0210251597
 21
180.5143305319
 31
0.0
 11
190.0206964784
 21
180.510906824
 31
0.0
 11
190.0203269789
 21
180.5074731049
 31
0.0
 11
190.0199162441
 21
180.5040300241
 31
0.0
 11
190.0194638685
 21
180.5005782457
 31
0.0
 11
190.0189694593
 21
180.4971184487
 31
0.0
 11
190.0184326364
 21
180.4936513262
 31
0.0
 11
190.0178530334
 21
180.4901775854
 31
0.0
 11
190.0172302976
 21
180.4866979475
 31
0.0
 11
190.0165640912
 21
180.4832131472
 31
0.0
 11
190.0158540912
 21
180.4797239323
 31
0.0
 11
190.0150999903
 21
180.4762310636
 31
0.0
 11
190.0143014974
 21
180.4727353145
 31
0.0
 11
190.0134583379
 21
180.4692374706
 31
0.0
 11
190.0125702544
 21
180.4657383291
 31
0.0
 11
190.0116370072
 21
180.4622386987
 31
0.0
 11
190.0106583745
 21
180.4587393988
 31
0.0
 11
190.0096341534
 21
180.4552412595
 31
0.0
 11
190.0085641598
 21
180.4517451206
 31
0.0
 11
190.0074482291
 21
180.4482518315
 31
0.0
 11
190.0062862167
 21
180.4447622504
 31
0.0
 11
190.0050779984
 21
180.4412772438
 31
0.0
 11
190.0038234705
 21
180.4377976862
 31
0.0
 11
190.0025225505
 21
180.434324459
 31
0.0
 11
190.0011751774
 21
180.4308584504
 31
0.0
 11
189.9997813121
 21
180.4274005545
 31
0.0
 11
189.9983409373
 21
180.4239516706
 31
0.0
 11
189.9968540584
 21
180.4205127028
 31
0.0
 11
189.9953207034
 21
180.4170845591
 31
0.0
 11
189.9937409232
 21
180.4136681508
 31
0.0
 11
189.9921147919
 21
180.4102643917
 31
0.0
 11
189.9904424069
 21
180.4068741976
 31
0.0
 11
189.9887238891
 21
180.4034984854
 31
0.0
 11
189.9869593833
 21
180.4001381722
 31
0.0
 11
189.9851490578
 21
180.396794175
 31
0.0
 11
189.983293105
 21
180.3934674097
 31
0.0
 11
189.9813917412
 21
180.39015879
 31
0.0
 11
189.9794452066
 21
180.3868692272
 31
0.0
 11
189.9774537655
 21
180.3835996293
 31
0.0
 11
189.9754177061
 21
180.3803508997
 31
0.0
 11
189.9733373405
 21
180.3771239373
 31
0.0
 11
189.9712130046
 21
180.3739196347
 31
0.0
 11
189.9690450583
 21
180.3707388784
 31
0.0
 11
189.9668338846
 21
180.3675825473
 31
0.0
 11
189.9645798901
 21
180.3644515124
 31
0.0
 11
189.9622835048
 21
180.3613466357
 31
0.0
 11
189.9599451812
 21
180.3582687694
 31
0.0
 11
189.9575653948
 21
180.3552187557
 31
0.0
 11
189.9551446434
 21
180.3521974254
 31
0.0
 11
189.9526834467
 21
180.3492055972
 31
0.0
 11
189.9501823464
 21
180.3462440777
 31
0.0
 11
189.9476419052
 21
180.3433136598
 31
0.0
 11
189.9450627068
 21
180.3404151225
 31
0.0
 11
189.9424453553
 21
180.3375492299
 31
0.0
 11
189.9397904751
 21
180.334716731
 31
0.0
 11
189.9370987096
 21
180.3319183586
 31
0.0
 11
189.9343707214
 21
180.3291548289
 31
0.0
 11
189.9316071917
 21
180.3264268408
 31
0.0
 11
189.9288088194
 21
180.3237350753
 31
0.0
 11
189.9259763205
 21
180.321080195
 31
0.0
 11
189.9231104279
 21
180.3184628436
 31
0.0
 11
189.9202118905
 21
180.3158836452
 31
0.0
 11
189.9172814726
 21
180.313343204
 31
0.0
 11
189.9143199531
 21
180.3108421036
 31
0.0
 11
189.911328125
 21
180.308380907
 31
0.0
 11
189.9083067946
 21
180.3059601556
 31
0.0
 11
189.9052567809
 21
180.3035803692
 31
0.0
 11
189.9021789147
 21
180.3012420456
 31
0.0
 11
189.8990740379
 21
180.2989456602
 31
0.0
 11
189.895943003
 21
180.2966916658
 31
0.0
 11
189.892786672
 21
180.2944804921
 31
0.0
 11
189.8896059157
 21
180.2923125457
 31
0.0
 11
189.8864016131
 21
180.2901882099
 31
0.0
 11
189.8831746506
 21
180.2881078443
 31
0.0
 11
189.8799259211
 21
180.2860717849
 31
0.0
 11
189.8766563231
 21
180.2840803438
 31
0.0
 11
189.8733667604
 21
180.2821338091
 31
0.0
 11
189.8700581407
 21
180.2802324453
 31
0.0
 11
189.8667313753
 21
180.2783764925
 31
0.0
 11
189.8633873782
 21
180.276566167
 31
0.0
 11
189.860027065
 21
180.2748016612
 31
0.0
 11
189.8566513528
 21
180.2730831435
 31
0.0
 11
189.8532611587
 21
180.2714107585
 31
0.0
 11
189.8498573996
 21
180.2697846271
 31
0.0
 11
189.8464409913
 21
180.2682048469
 31
0.0
 11
189.8430128475
 21
180.2666714919
 31
0.0
 11
189.8395738798
 21
180.2651846131
 31
0.0
 11
189.8361249959
 21
180.2637442383
 31
0.0
 11
189.8326671
 21
180.262350373
 31
0.0
 11
189.8292010914
 21
180.2610029999
 31
0.0
 11
189.8257278642
 21
180.2597020799
 31
0.0
 11
189.8222483066
 21
180.258447552
 31
0.0
 11
189.8187633
 21
180.2572393336
 31
0.0
 11
189.8152737189
 21
180.2560773212
 31
0.0
 11
189.8117804298
 21
180.2549613906
 31
0.0
 11
189.8082842909
 21
180.2538913969
 31
0.0
 11
189.8047861515
 21
180.2528671758
 31
0.0
 11
189.8012868517
 21
180.2518885432
 31
0.0
 11
189.7977872212
 21
180.2509552959
 31
0.0
 11
189.7942880797
 21
180.2500672125
 31
0.0
 11
189.7907902358
 21
180.249224053
 31
0.0
 11
189.7872944868
 21
180.24842556
 31
0.0
 11
189.7838016181
 21
180.2476714592
 31
0.0
 11
189.7803124032
 21
180.2469614592
 31
0.0
 11
189.7768276028
 21
180.2462952527
 31
0.0
 11
189.7733479649
 21
180.245672517
 31
0.0
 11
189.7698742241
 21
180.245092914
 31
0.0
 11
189.7664071016
 21
180.2445560911
 31
0.0
 11
189.7629473046
 21
180.2440616819
 31
0.0
 11
189.7594955263
 21
180.2436093063
 31
0.0
 11
189.7560524455
 21
180.2431985714
 31
0.0
 11
189.7526187264
 21
180.2428290719
 31
0.0
 11
189.7491950185
 21
180.2425003907
 31
0.0
 11
189.7457819562
 21
180.2422120992
 31
0.0
 11
189.7423801589
 21
180.2419637584
 31
0.0
 11
189.7389902307
 21
180.2417549188
 31
0.0
 11
189.7356127603
 21
180.2415851213
 31
0.0
 11
189.732248321
 21
180.2414538977
 31
0.0
 11
189.7288974702
 21
180.2413607714
 31
0.0
 11
189.7222386871
 21
180.2412868633
 31
0.0
  0
LINE
  5
29E
100
AcDbEntity
  8
0
100
AcDbLine
 62
7
  6
CONTINUOUS
 10
189.7222386871
 20
180.2412868633
 11
179.7222386871
 21
180.2412868633
  0
LINE
  5
29F
100
AcDbEntity
  8
0
100
AcDbLine
 62
7
  6
CONTINUOUS
 10
179.7222386871
 20
178.9112868633
 11
179.7222386871
 21
180.2412868633
  0
LINE
  5
2A0
100
AcDbEntity
  8
0
100
AcDbLine
 62
7
  6
CONTINUOUS
 10
179.7222386871
 20
178.9112868633
 11
179.0222386871
 21
177.5912868633
  0
LINE
  5
2A1
100
AcDbEntity
  8
0
100
AcDbLine
 62
7
  6
CONTINUOUS
 10
179.0222386871
 20
176.0012868633
 11
179.0222386871
 21
177.5912868633
  0
LINE
  5
2A2
100
AcDbEntity
  8
0
100
AcDbLine
 62
7
  6
CONTINUOUS
 10
179.7222386871
 20
176.0012868633
 11
179.0222386871
 21
176.0012868633
  0
LINE
  5
2A3
100
AcDbEntity
  8
0
100
AcDbLine
 62
7
  6
CONTINUOUS
 10
179.7222386871
 20
172.856360544
 11
179.7222386871
 21
176.0012868633
  0
SPLINE
  5
2A4
100
AcDbEntity
  8
0
100
AcDbSpline
 62
7
  6
CONTINUOUS
 70
4
 71
3
 72
8
 73
4
 74
65
 42
0.0000001
 43
0.0000001
 44
0.0000000001
 12
0.0
 22
-0.3467832474
 32
0.0
 13
-0.3271261129
 23
-0.115096164
 33
0.0
 40
0.0
 40
0.0
 40
0.0
 40
0.0
 40
1.0
 40
1.0
 40
1.0
 40
1.0
 10
179.7222386871
 20
172.856360544
 30
0.0
 41
1.0
 10
179.7222386871
 20
172.7246096515
 30
0.0
 41
0.8773710264
 10
179.6460903498
 20
172.617093474
 30
0.0
 41
0.8773710264
 10
179.5218076526
 20
172.5733658071
 30
0.0
 41
1.0
 11
179.7222386871
 21
172.856360544
 31
0.0
 11
179.7221894753
 21
172.8509268832
 31
0.0
 11
179.7220407492
 21
172.8454645096
 31
0.0
 11
179.7217909273
 21
172.8399759364
 31
0.0
 11
179.7214385047
 21
172.8344637606
 31
0.0
 11
179.7209820578
 21
172.8289306613
 31
0.0
 11
179.7204202491
 21
172.8233793964
 31
0.0
 11
179.719751832
 21
172.8178127996
 31
0.0
 11
179.7189756555
 21
172.8122337769
 31
0.0
 11
179.7180906684
 21
172.8066453031
 31
0.0
 11
179.7170959236
 21
172.8010504175
 31
0.0
 11
179.7159905824
 21
172.7954522196
 31
0.0
 11
179.7147739185
 21
172.7898538649
 31
0.0
 11
179.7134453213
 21
172.7842585595
 31
0.0
 11
179.7120042997
 21
172.7786695551
 31
0.0
 11
179.710450485
 21
172.7730901437
 31
0.0
 11
179.7087836341
 21
172.7675236521
 31
0.0
 11
179.7070036319
 21
172.7619734356
 31
0.0
 11
179.7051104936
 21
172.7564428725
 31
0.0
 11
179.7031043668
 21
172.7509353574
 31
0.0
 11
179.7009855327
 21
172.745454295
 31
0.0
 11
179.6987544078
 21
172.7400030938
 31
0.0
 11
179.6964115442
 21
172.7345851589
 31
0.0
 11
179.6939576307
 21
172.729203886
 31
0.0
 11
179.6913934923
 21
172.7238626541
 31
0.0
 11
179.68872009
 21
172.7185648187
 31
0.0
 11
179.6859385202
 21
172.7133137054
 31
0.0
 11
179.6830500133
 21
172.7081126027
 31
0.0
 11
179.6800559326
 21
172.7029647555
 31
0.0
 11
179.6769577714
 21
172.6978733582
 31
0.0
 11
179.6737571519
 21
172.6928415486
 31
0.0
 11
179.6704558212
 21
172.687872401
 31
0.0
 11
179.667055649
 21
172.6829689203
 31
0.0
 11
179.6635586237
 21
172.6781340358
 31
0.0
 11
179.6599668485
 21
172.6733705955
 31
0.0
 11
179.6562825377
 21
172.6686813603
 31
0.0
 11
179.6525080112
 21
172.6640689988
 31
0.0
 11
179.6486456907
 21
172.6595360823
 31
0.0
 11
179.6446980939
 21
172.6550850802
 31
0.0
 11
179.6406678292
 21
172.6507183551
 31
0.0
 11
179.6365575905
 21
172.6464381592
 31
0.0
 11
179.6323701507
 21
172.6422466304
 31
0.0
 11
179.6281083565
 21
172.6381457892
 31
0.0
 11
179.6237751213
 21
172.6341375351
 31
0.0
 11
179.6193734198
 21
172.6302236448
 31
0.0
 11
179.6149062809
 21
172.6264057695
 31
0.0
 11
179.6103767815
 21
172.6226854331
 31
0.0
 11
179.60578804
 21
172.6190640311
 31
0.0
 11
179.6011432098
 21
172.6155428292
 31
0.0
 11
179.5964454724
 21
172.612122963
 31
0.0
 11
179.5916980313
 21
172.6088054377
 31
0.0
 11
179.5869041053
 21
172.6055911279
 31
0.0
 11
179.5820669221
 21
172.6024807786
 31
0.0
 11
179.5771897123
 21
172.5994750057
 31
0.0
 11
179.5722757028
 21
172.5965742974
 31
0.0
 11
179.5673281112
 21
172.5937790157
 31
0.0
 11
179.5623501398
 21
172.5910893981
 31
0.0
 11
179.5573449699
 21
172.5885055602
 31
0.0
 11
179.5523157566
 21
172.5860274976
 31
0.0
 11
179.5472656231
 21
172.5836550888
 31
0.0
 11
179.5421976564
 21
172.5813880987
 31
0.0
 11
179.5371149018
 21
172.5792261807
 31
0.0
 11
179.5320203589
 21
172.5771688813
 31
0.0
 11
179.5269169774
 21
172.5752156427
 31
0.0
 11
179.5218076526
 21
172.5733658071
 31
0.0
  0
SPLINE
  5
2A5
100
AcDbEntity
  8
0
100
AcDbSpline
 62
7
  6
CONTINUOUS
 70
4
 71
3
 72
8
 73
4
 74
3
 42
0.0000001
 43
0.0000001
 44
0.0000000001
 12
-0.2957421103
 22
-0.1040540057
 32
0.0
 13
-0.2971039449
 23
-0.1000993398
 33
0.0
 40
0.0
 40
0.0
 40
0.0
 40
0.0
 40
1.0
 40
1.0
 40
1.0
 40
1.0
 10
179.5218076526
 20
172.5733658071
 30
0.0
 41
1.0
 10
179.423225487
 20
172.5386806241
 30
0.0
 41
0.999985168
 10
179.3244141473
 20
172.5046538048
 30
0.0
 41
0.999985168
 10
179.2253780301
 20
172.4712868633
 30
0.0
 41
1.0
 11
179.5218076526
 21
172.5733658071
 31
0.0
 11
179.3737630726
 21
172.5218319965
 31
0.0
 11
179.2253780301
 21
172.4712868633
 31
0.0
  0
LINE
  5
2A6
100
AcDbEntity
  8
0
100
AcDbLine
 62
7
  6
CONTINUOUS
 10
179.2253780301
 20
172.4712868633
 11
181.9222386871
 21
172.4712868633
  0
LINE
  5
2A7
100
AcDbEntity
  8
0
100
AcDbLine
 62
7
  6
CONTINUOUS
 10
181.9222386871
 20
172.0212868633
 11
181.9222386871
 21
172.4712868633
  0
LINE
  5
2A8
100
AcDbEntity
  8
0
100
AcDbLine
 62
7
  6
CONTINUOUS
 10
181.9222386871
 20
172.0212868633
 11
181.4322386871
 21
168.4912868633
  0
LINE
  5
2A9
100
AcDbEntity
  8
0
100
AcDbLine
 62
7
  6
CONTINUOUS
 10
181.4322386871
 20
168.4912868633
 11
179.6422386871
 21
168.1412868633
  0
LINE
  5
2AA
100
AcDbEntity
  8
0
100
AcDbLine
 62
7
  6
CONTINUOUS
 10
179.6422386871
 20
168.1412868633
 11
179.3022386871
 21
168.7712868633
  0
LINE
  5
2AB
100
AcDbEntity
  8
0
100
AcDbLine
 62
7
  6
CONTINUOUS
 10
179.3022386871
 20
168.7712868633
 11
178.8022386871
 21
168.7712868633
  0
LINE
  5
2AC
100
AcDbEntity
  8
0
100
AcDbLine
 62
7
  6
CONTINUOUS
 10
178.8022386871
 20
168.7712868633
 11
177.8622386871
 21
168.1962868633
  0
LINE
  5
2AD
100
AcDbEntity
  8
0
100
AcDbLine
 62
7
  6
CONTINUOUS
 10
177.8622386871
 20
167.8612868633
 11
177.8622386871
 21
168.1962868633
  0
LINE
  5
2AE
100
AcDbEntity
  8
0
100
AcDbLine
 62
7
  6
CONTINUOUS
 10
177.8622386871
 20
167.8612868633
 11
177.1670692886
 21
167.7461152202
  0
SPLINE
  5
2AF
100
AcDbEntity
  8
0
100
AcDbSpline
 62
7
  6
CONTINUOUS
 70
4
 71
3
 72
8
 73
4
 74
129
 42
0.0000001
 43
0.0000001
 44
0.0000000001
 12
0.4612021233
 22
1.5130477396
 32
0.0
 13
1.5605063825
 23
0.2585356669
 33
0.0
 40
0.0
 40
0.0
 40
0.0
 40
0.0
 40
1.0
 40
1.0
 40
1.0
 40
1.0
 10
175.9774153659
 20
166.7036448825
 30
0.0
 41
1.0
 10
176.1482683691
 20
167.2641556372
 30
0.0
 41
0.8998029783
 10
176.5889774099
 20
167.6503403031
 30
0.0
 41
0.8998029783
 10
177.1670692886
 20
167.7461152202
 30
0.0
 41
1.0
 11
175.9774153659
 21
166.7036448825
 31
0.0
 11
175.9810714875
 21
166.7154643858
 31
0.0
 11
175.9848337917
 21
166.7272806427
 31
0.0
 11
175.9887025971
 21
166.7390923208
 31
0.0
 11
175.9926782016
 21
166.7508980766
 31
0.0
 11
175.9967608819
 21
166.7626965559
 31
0.0
 11
176.0009508932
 21
166.7744863939
 31
0.0
 11
176.0052484693
 21
166.7862662158
 31
0.0
 11
176.0096538215
 21
166.7980346371
 31
0.0
 11
176.0141671391
 21
166.809790264
 31
0.0
 11
176.0187885882
 21
166.8215316939
 31
0.0
 11
176.0235183124
 21
166.8332575159
 31
0.0
 11
176.0283564317
 21
166.844966311
 31
0.0
 11
176.0333030426
 21
166.8566566527
 31
0.0
 11
176.0383582178
 21
166.8683271078
 31
0.0
 11
176.0435220057
 21
166.879976236
 31
0.0
 11
176.0487944307
 21
166.8916025914
 31
0.0
 11
176.0541754923
 21
166.9032047222
 31
0.0
 11
176.0596651653
 21
166.9147811718
 31
0.0
 11
176.0652633994
 21
166.9263304788
 31
0.0
 11
176.0709701191
 21
166.9378511778
 31
0.0
 11
176.0767852235
 21
166.9493418
 31
0.0
 11
176.0827085861
 21
166.9608008735
 31
0.0
 11
176.0887400544
 21
166.972226924
 31
0.0
 11
176.0948794504
 21
166.9836184752
 31
0.0
 11
176.1011265696
 21
166.9949740495
 31
0.0
 11
176.1074811816
 21
167.0062921686
 31
0.0
 11
176.1139430296
 21
167.0175713537
 31
0.0
 11
176.1205118303
 21
167.0288101268
 31
0.0
 11
176.1271872741
 21
167.0400070104
 31
0.0
 11
176.1339690248
 21
167.0511605286
 31
0.0
 11
176.1408567196
 21
167.0622692078
 31
0.0
 11
176.147849969
 21
167.0733315767
 31
0.0
 11
176.1549483568
 21
167.0843461676
 31
0.0
 11
176.1621514403
 21
167.0953115164
 31
0.0
 11
176.1694587501
 21
167.1062261636
 31
0.0
 11
176.1768697901
 21
167.1170886547
 31
0.0
 11
176.1843840375
 21
167.1278975408
 31
0.0
 11
176.1920009433
 21
167.1386513792
 31
0.0
 11
176.1997199318
 21
167.1493487343
 31
0.0
 11
176.2075404009
 21
167.1599881776
 31
0.0
 11
176.2154617223
 21
167.1705682888
 31
0.0
 11
176.2234832416
 21
167.1810876563
 31
0.0
 11
176.2316042783
 21
167.1915448775
 31
0.0
 11
176.2398241261
 21
167.2019385598
 31
0.0
 11
176.2481420529
 21
167.212267321
 31
0.0
 11
176.2565573013
 21
167.2225297898
 31
0.0
 11
176.2650690884
 21
167.2327246066
 31
0.0
 11
176.2736766062
 21
167.2428504239
 31
0.0
 11
176.282379022
 21
167.2529059069
 31
0.0
 11
176.2911754785
 21
167.2628897342
 31
0.0
 11
176.3000650938
 21
167.2728005981
 31
0.0
 11
176.3090469622
 21
167.2826372055
 31
0.0
 11
176.318120154
 21
167.2923982781
 31
0.0
 11
176.3272837164
 21
167.3020825533
 31
0.0
 11
176.336536673
 21
167.3116887845
 31
0.0
 11
176.3458780249
 21
167.3212157415
 31
0.0
 11
176.3553067507
 21
167.3306622115
 31
0.0
 11
176.3648218069
 21
167.340026999
 31
0.0
 11
176.3744221283
 21
167.3493089269
 31
0.0
 11
176.3841066284
 21
167.3585068365
 31
0.0
 11
176.3938741997
 21
167.3676195881
 31
0.0
 11
176.4037237144
 21
167.3766460618
 31
0.0
 11
176.4136540245
 21
167.3855851576
 31
0.0
 11
176.4236639626
 21
167.3944357959
 31
0.0
 11
176.433752342
 21
167.403196918
 31
0.0
 11
176.4439179573
 21
167.4118674865
 31
0.0
 11
176.454159585
 21
167.4204464858
 31
0.0
 11
176.464475984
 21
167.4289329223
 31
0.0
 11
176.4748658957
 21
167.437325825
 31
0.0
 11
176.485328045
 21
167.4456242457
 31
0.0
 11
176.4958611408
 21
167.4538272595
 31
0.0
 11
176.5064638759
 21
167.4619339648
 31
0.0
 11
176.5171349286
 21
167.4699434843
 31
0.0
 11
176.527872962
 21
167.4778549647
 31
0.0
 11
176.5386766258
 21
167.485667577
 31
0.0
 11
176.5495445557
 21
167.4933805173
 31
0.0
 11
176.5604753751
 21
167.5009930066
 31
0.0
 11
176.5714676946
 21
167.5085042911
 31
0.0
 11
176.5825201133
 21
167.5159136429
 31
0.0
 11
176.5936312192
 21
167.5232203593
 31
0.0
 11
176.6047995897
 21
167.5304237641
 31
0.0
 11
176.6160237922
 21
167.5375232068
 31
0.0
 11
176.6273023848
 21
167.5445180635
 31
0.0
 11
176.6386339168
 21
167.5514077367
 31
0.0
 11
176.6500169294
 21
167.5581916555
 31
0.0
 11
176.6614499562
 21
167.5648692756
 31
0.0
 11
176.6729315238
 21
167.5714400797
 31
0.0
 11
176.6844601527
 21
167.5779035774
 31
0.0
 11
176.6960343574
 21
167.5842593054
 31
0.0
 11
176.7076526473
 21
167.5905068271
 31
0.0
 11
176.7193135275
 21
167.5966457333
 31
0.0
 11
176.7310154989
 21
167.602675642
 31
0.0
 11
176.7427570594
 21
167.608596198
 31
0.0
 11
176.7545367039
 21
167.6144070735
 31
0.0
 11
176.7663529255
 21
167.6201079677
 31
0.0
 11
176.7782042155
 21
167.6256986069
 31
0.0
 11
176.7900890645
 21
167.6311787444
 31
0.0
 11
176.8020059628
 21
167.6365481603
 31
0.0
 11
176.8139534007
 21
167.6418066618
 31
0.0
 11
176.8259298698
 21
167.6469540827
 31
0.0
 11
176.8379338626
 21
167.6519902834
 31
0.0
 11
176.8499638741
 21
167.656915151
 31
0.0
 11
176.8620184016
 21
167.6617285989
 31
0.0
 11
176.8740959455
 21
167.6664305665
 31
0.0
 11
176.88619501
 21
167.6710210196
 31
0.0
 11
176.8983141035
 21
167.6754999495
 31
0.0
 11
176.9104517391
 21
167.6798673735
 31
0.0
 11
176.9226064352
 21
167.6841233341
 31
0.0
 11
176.9347767161
 21
167.6882678991
 31
0.0
 11
176.9469611123
 21
167.6923011614
 31
0.0
 11
176.9591581614
 21
167.6962232385
 31
0.0
 11
176.9713664079
 21
167.7000342725
 31
0.0
 11
176.9835844046
 21
167.7037344296
 31
0.0
 11
176.9958107121
 21
167.7073239001
 31
0.0
 11
177.0080439002
 21
167.7108028979
 31
0.0
 11
177.0202825477
 21
167.7141716601
 31
0.0
 11
177.032525243
 21
167.7174304469
 31
0.0
 11
177.0447705848
 21
167.7205795414
 31
0.0
 11
177.0570171822
 21
167.723619249
 31
0.0
 11
177.0692636552
 21
167.7265498969
 31
0.0
 11
177.0815086352
 21
167.7293718344
 31
0.0
 11
177.0937507654
 21
167.7320854319
 31
0.0
 11
177.1059887011
 21
167.7346910808
 31
0.0
 11
177.11822111
 21
167.7371891933
 31
0.0
 11
177.1304466726
 21
167.7395802015
 31
0.0
 11
177.1426640827
 21
167.7418645578
 31
0.0
 11
177.1548720477
 21
167.7440427338
 31
0.0
 11
177.1670692886
 21
167.7461152202
 31
0.0
  0
SPLINE
  5
2B0
100
AcDbEntity
  8
0
100
AcDbSpline
 62
7
  6
CONTINUOUS
 70
4
 71
3
 72
8
 73
4
 74
65
 42
0.0000001
 43
0.0000001
 44
0.0000000001
 12
-0.3346583746
 22
-0.488218322
 32
0.0
 13
-0.0
 23
-0.5919065447
 33
0.0
 40
0.0
 40
0.0
 40
0.0
 40
0.0
 40
1.0
 40
1.0
 40
1.0
 40
1.0
 10
175.9774153659
 20
166.7036448825
 30
0.0
 41
1.0
 10
175.8624284849
 20
166.5358956004
 30
0.0
 41
0.9701349458
 10
175.8022386871
 20
166.3416303367
 30
0.0
 41
0.9701349458
 10
175.8022386871
 20
166.1382543194
 30
0.0
 41
1.0
 11
175.9774153659
 21
166.7036448825
 31
0.0
 11
175.9722181027
 21
166.6959870774
 31
0.0
 11
175.967085016
 21
166.688270997
 31
0.0
 11
175.9620170401
 21
166.6804974235
 31
0.0
 11
175.9570150972
 21
166.672667159
 31
0.0
 11
175.9520800966
 21
166.6647810243
 31
0.0
 11
175.9472129343
 21
166.6568398591
 31
0.0
 11
175.9424144928
 21
166.6488445218
 31
0.0
 11
175.9376856403
 21
166.6407958891
 31
0.0
 11
175.9330272305
 21
166.6326948554
 31
0.0
 11
175.9284401019
 21
166.6245423333
 31
0.0
 11
175.9239250775
 21
166.6163392525
 31
0.0
 11
175.9194829644
 21
166.6080865598
 31
0.0
 11
175.9151145533
 21
166.5997852189
 31
0.0
 11
175.9108206178
 21
166.5914362097
 31
0.0
 11
175.9066019145
 21
166.5830405282
 31
0.0
 11
175.9024591823
 21
166.5745991862
 31
0.0
 11
175.8983931421
 21
166.5661132106
 31
0.0
 11
175.8944044962
 21
166.5575836432
 31
0.0
 11
175.8904939281
 21
166.5490115401
 31
0.0
 11
175.8866621022
 21
166.5403979718
 31
0.0
 11
175.8829096633
 21
166.531744022
 31
0.0
 11
175.8792372364
 21
166.5230507877
 31
0.0
 11
175.8756454261
 21
166.5143193786
 31
0.0
 11
175.8721348167
 21
166.5055509166
 31
0.0
 11
175.8687059715
 21
166.4967465354
 31
0.0
 11
175.8653594327
 21
166.4879073798
 31
0.0
 11
175.862095721
 21
166.4790346055
 31
0.0
 11
175.8589153358
 21
166.4701293784
 31
0.0
 11
175.855818754
 21
166.4611928743
 31
0.0
 11
175.8528064308
 21
166.452226278
 31
0.0
 11
175.849878799
 21
166.4432307832
 31
0.0
 11
175.8470362684
 21
166.4342075917
 31
0.0
 11
175.8442792266
 21
166.425157913
 31
0.0
 11
175.8416080378
 21
166.4160829637
 31
0.0
 11
175.8390230432
 21
166.4069839668
 31
0.0
 11
175.836524561
 21
166.3978621517
 31
0.0
 11
175.8341128856
 21
166.3887187529
 31
0.0
 11
175.8317882882
 21
166.37955501
 31
0.0
 11
175.8295510163
 21
166.3703721669
 31
0.0
 11
175.8274012938
 21
166.3611714712
 31
0.0
 11
175.8253393206
 21
166.3519541738
 31
0.0
 11
175.8233652732
 21
166.3427215283
 31
0.0
 11
175.8214793039
 21
166.3334747904
 31
0.0
 11
175.8196815414
 21
166.3242152173
 31
0.0
 11
175.8179720905
 21
166.314944067
 31
0.0
 11
175.8163510321
 21
166.3056625982
 31
0.0
 11
175.8148184234
 21
166.2963720693
 31
0.0
 11
175.8133742977
 21
166.287073738
 31
0.0
 11
175.8120186647
 21
166.2777688605
 31
0.0
 11
175.8107515105
 21
166.2684586917
 31
0.0
 11
175.8095727976
 21
166.2591444836
 31
0.0
 11
175.8084824652
 21
166.2498274855
 31
0.0
 11
175.8074804291
 21
166.2405089433
 31
0.0
 11
175.806566582
 21
166.2311900988
 31
0.0
 11
175.8057407935
 21
166.2218721892
 31
0.0
 11
175.8050029106
 21
166.2125564468
 31
0.0
 11
175.8043527574
 21
166.2032440982
 31
0.0
 11
175.8037901356
 21
166.193936364
 31
0.0
 11
175.8033148248
 21
166.1846344582
 31
0.0
 11
175.8029265822
 21
166.1753395875
 31
0.0
 11
175.8026251437
 21
166.1660529514
 31
0.0
 11
175.8024102233
 21
166.156775741
 31
0.0
 11
175.8022815139
 21
166.1475091391
 31
0.0
 11
175.8022386871
 21
166.1382543194
 31
0.0
  0
LINE
  5
2B1
100
AcDbEntity
  8
0
100
AcDbLine
 62
7
  6
CONTINUOUS
 10
175.8022386871
 20
166.1382543194
 11
175.8022386871
 21
164.7412868633
  0
SPLINE
  5
2B2
100
AcDbEntity
  8
0
100
AcDbSpline
 62
7
  6
CONTINUOUS
 70
4
 71
3
 72
8
 73
4
 74
129
 42
0.0000001
 43
0.0000001
 44
0.0000000001
 12
1.4142135624
 22
0.0
 32
0.0
 13
0.0
 23
1.4142135624
 33
0.0
 40
0.0
 40
0.0
 40
0.0
 40
0.0
 40
1.0
 40
1.0
 40
1.0
 40
1.0
 10
174.8022386871
 20
163.7412868633
 30
0.0
 41
1.0
 10
175.3880251247
 20
163.7412868633
 30
0.0
 41
0.8047378541
 10
175.8022386871
 20
164.1555004256
 30
0.0
 41
0.8047378541
 10
175.8022386871
 20
164.7412868633
 30
0.0
 41
1.0
 11
174.8022386871
 21
163.7412868633
 31
0.0
 11
174.8133122306
 21
163.7413481768
 31
0.0
 11
174.8244346309
 21
163.7415332236
 31
0.0
 11
174.8356041333
 21
163.7418436448
 31
0.0
 11
174.8468189312
 21
163.7422810566
 31
0.0
 11
174.8580771659
 21
163.7428470482
 31
0.0
 11
174.8693769265
 21
163.7435431803
 31
0.0
 11
174.8807162507
 21
163.7443709832
 31
0.0
 11
174.892093125
 21
163.7453319547
 31
0.0
 11
174.9035054847
 21
163.7464275588
 31
0.0
 11
174.9149512151
 21
163.7476592237
 31
0.0
 11
174.9264281511
 21
163.74902834
 31
0.0
 11
174.9379340789
 21
163.7505362586
 31
0.0
 11
174.9494667355
 21
163.7521842893
 31
0.0
 11
174.9610238106
 21
163.7539736989
 31
0.0
 11
174.9726029465
 21
163.755905709
 31
0.0
 11
174.9842017395
 21
163.7579814949
 31
0.0
 11
174.9958177407
 21
163.7602021829
 31
0.0
 11
175.0074484571
 21
163.7625688496
 31
0.0
 11
175.0190913526
 21
163.7650825192
 31
0.0
 11
175.0307438495
 21
163.7677441622
 31
0.0
 11
175.0424033292
 21
163.7705546939
 31
0.0
 11
175.0540671342
 21
163.7735149722
 31
0.0
 11
175.0657325691
 21
163.7766257963
 31
0.0
 11
175.0773969019
 21
163.7798879051
 31
0.0
 11
175.0890573663
 21
163.7833019755
 31
0.0
 11
175.1007111626
 21
163.7868686209
 31
0.0
 11
175.1123554597
 21
163.7905883899
 31
0.0
 11
175.1239873968
 21
163.7944617644
 31
0.0
 11
175.1356040853
 21
163.798489159
 31
0.0
 11
175.1472026108
 21
163.8026709187
 31
0.0
 11
175.1587800347
 21
163.8070073187
 31
0.0
 11
175.1703333967
 21
163.8114985622
 31
0.0
 11
175.1818597164
 21
163.8161447801
 31
0.0
 11
175.193355996
 21
163.8209460293
 31
0.0
 11
175.2048192219
 21
163.8259022922
 31
0.0
 11
175.2162463676
 21
163.8310134755
 31
0.0
 11
175.2276343954
 21
163.8362794095
 31
0.0
 11
175.238980259
 21
163.8416998472
 31
0.0
 11
175.250280906
 21
163.847274464
 31
0.0
 11
175.2615332801
 21
163.8530028564
 31
0.0
 11
175.272734324
 21
163.8588845425
 31
0.0
 11
175.2838809812
 21
163.8649189608
 31
0.0
 11
175.2949701991
 21
163.8711054701
 31
0.0
 11
175.3059989314
 21
163.8774433495
 31
0.0
 11
175.3169641405
 21
163.8839317982
 31
0.0
 11
175.3278628004
 21
163.8905699353
 31
0.0
 11
175.3386918988
 21
163.8973568001
 31
0.0
 11
175.3494484405
 21
163.9042913521
 31
0.0
 11
175.360129449
 21
163.9113724714
 31
0.0
 11
175.37073197
 21
163.9185989594
 31
0.0
 11
175.3812530736
 21
163.9259695384
 31
0.0
 11
175.3916898566
 21
163.9334828532
 31
0.0
 11
175.4020394458
 21
163.9411374711
 31
0.0
 11
175.4122989999
 21
163.948931883
 31
0.0
 11
175.4224657122
 21
163.9568645043
 31
0.0
 11
175.4325368135
 21
163.9649336757
 31
0.0
 11
175.4425095738
 21
163.9731376645
 31
0.0
 11
175.4523813055
 21
163.9814746656
 31
0.0
 11
175.4621493653
 21
163.989942803
 31
0.0
 11
175.4718111565
 21
163.998540131
 31
0.0
 11
175.4813641317
 21
164.0072646357
 31
0.0
 11
175.4908057947
 21
164.0161142367
 31
0.0
 11
175.5001337026
 21
164.0250867883
 31
0.0
 11
175.5093454683
 21
164.0341800821
 31
0.0
 11
175.518438762
 21
164.0433918478
 31
0.0
 11
175.5274113137
 21
164.0527197557
 31
0.0
 11
175.5362609146
 21
164.0621614187
 31
0.0
 11
175.5449854193
 21
164.0717143939
 31
0.0
 11
175.5535827473
 21
164.0813761851
 31
0.0
 11
175.5620508847
 21
164.0911442448
 31
0.0
 11
175.5703878859
 21
164.1010159765
 31
0.0
 11
175.5785918747
 21
164.1109887369
 31
0.0
 11
175.5866610461
 21
164.1210598381
 31
0.0
 11
175.5945936674
 21
164.1312265505
 31
0.0
 11
175.6023880793
 21
164.1414861046
 31
0.0
 11
175.6100426972
 21
164.1518356937
 31
0.0
 11
175.617556012
 21
164.1622724768
 31
0.0
 11
175.624926591
 21
164.1727935803
 31
0.0
 11
175.6321530789
 21
164.1833961013
 31
0.0
 11
175.6392341983
 21
164.1940771099
 31
0.0
 11
175.6461687503
 21
164.2048336515
 31
0.0
 11
175.6529556151
 21
164.21566275
 31
0.0
 11
175.6595937522
 21
164.2265614098
 31
0.0
 11
175.6660822008
 21
164.237526619
 31
0.0
 11
175.6724200803
 21
164.2485553512
 31
0.0
 11
175.6786065896
 21
164.2596445692
 31
0.0
 11
175.6846410078
 21
164.2707912264
 31
0.0
 11
175.6905226939
 21
164.2819922702
 31
0.0
 11
175.6962510864
 21
164.2932446444
 31
0.0
 11
175.7018257031
 21
164.3045452914
 31
0.0
 11
175.7072461409
 21
164.315891155
 31
0.0
 11
175.7125120748
 21
164.3272791827
 31
0.0
 11
175.7176232582
 21
164.3387063284
 31
0.0
 11
175.7225795211
 21
164.3501695544
 31
0.0
 11
175.7273807703
 21
164.361665834
 31
0.0
 11
175.7320269882
 21
164.3731921537
 31
0.0
 11
175.7365182317
 21
164.3847455157
 31
0.0
 11
175.7408546316
 21
164.3963229396
 31
0.0
 11
175.7450363914
 21
164.407921465
 31
0.0
 11
175.7490637859
 21
164.4195381536
 31
0.0
 11
175.7529371605
 21
164.4311700907
 31
0.0
 11
175.7566569294
 21
164.4428143877
 31
0.0
 11
175.7602235749
 21
164.454468184
 31
0.0
 11
175.7636376453
 21
164.4661286484
 31
0.0
 11
175.7668997541
 21
164.4777929813
 31
0.0
 11
175.7700105782
 21
164.4894584161
 31
0.0
 11
175.7729708565
 21
164.5011222211
 31
0.0
 11
175.7757813881
 21
164.5127817009
 31
0.0
 11
175.7784430312
 21
164.5244341977
 31
0.0
 11
175.7809567008
 21
164.5360770933
 31
0.0
 11
175.7833233674
 21
164.5477078097
 31
0.0
 11
175.7855440555
 21
164.5593238109
 31
0.0
 11
175.7876198413
 21
164.5709226039
 31
0.0
 11
175.7895518515
 21
164.5825017397
 31
0.0
 11
175.791341261
 21
164.5940588148
 31
0.0
 11
175.7929892918
 21
164.6055914715
 31
0.0
 11
175.7944972104
 21
164.6170973992
 31
0.0
 11
175.7958663266
 21
164.6285743353
 31
0.0
 11
175.7970979916
 21
164.6400200656
 31
0.0
 11
175.7981935957
 21
164.6514324254
 31
0.0
 11
175.7991545672
 21
164.6628092996
 31
0.0
 11
175.79998237
 21
164.6741486239
 31
0.0
 11
175.8006785021
 21
164.6854483845
 31
0.0
 11
175.8012444938
 21
164.6967066191
 31
0.0
 11
175.8016819056
 21
164.7079214171
 31
0.0
 11
175.8019923268
 21
164.7190909195
 31
0.0
 11
175.8021773735
 21
164.7302133197
 31
0.0
 11
175.8022386871
 21
164.7412868633
 31
0.0
  0
LINE
  5
2B3
100
AcDbEntity
  8
0
100
AcDbLine
 62
7
  6
CONTINUOUS
 10
156.5222386871
 20
163.7412868633
 11
174.8022386871
 21
163.7412868633
  0
SPLINE
  5
2B4
100
AcDbEntity
  8
0
100
AcDbSpline
 62
7
  6
CONTINUOUS
 70
4
 71
3
 72
8
 73
4
 74
17
 42
0.0000001
 43
0.0000001
 44
0.0000000001
 12
-2.9887451323
 22
0.258520268
 32
0.0
 13
-2.9314586837
 23
0.6371657404
 33
0.0
 40
0.0
 40
0.0
 40
0.0
 40
0.0
 40
1.0
 40
1.0
 40
1.0
 40
1.0
 10
169.6970991461
 20
171.3287088369
 30
0.0
 41
1.0
 10
168.6994946445
 20
171.4149995615
 30
0.0
 41
0.9986406195
 10
167.7094320734
 20
171.5647892005
 30
0.0
 41
0.9986406195
 10
166.7309490481
 20
171.7774668906
 30
0.0
 41
1.0
 11
169.6970991461
 21
171.3287088369
 31
0.0
 11
169.5103462119
 21
171.3456135095
 31
0.0
 11
169.3236924952
 21
171.3640120827
 31
0.0
 11
169.1371559093
 21
171.3839037258
 31
0.0
 11
168.950754359
 21
171.4052873214
 31
0.0
 11
168.7645057345
 21
171.4281614662
 31
0.0
 11
168.5784279061
 21
171.4525244708
 31
0.0
 11
168.3925387179
 21
171.4783743604
 31
0.0
 11
168.2068559829
 21
171.5057088751
 31
0.0
 11
168.0213974764
 21
171.5345254707
 31
0.0
 11
167.8361809312
 21
171.5648213192
 31
0.0
 11
167.6512240312
 21
171.5965933101
 31
0.0
 11
167.4665444065
 21
171.6298380513
 31
0.0
 11
167.2821596271
 21
171.6645518702
 31
0.0
 11
167.0980871976
 21
171.7007308152
 31
0.0
 11
166.9143445521
 21
171.7383706571
 31
0.0
 11
166.7309490481
 21
171.7774668906
 31
0.0
  0
SPLINE
  5
2B5
100
AcDbEntity
  8
0
100
AcDbSpline
 62
7
  6
CONTINUOUS
 70
4
 71
3
 72
11
 73
7
 74
307
 42
0.0000001
 43
0.0000001
 44
0.0000000001
 12
-0.670670394
 22
-4.2063552845
 32
0.0
 13
0.6036487942
 23
4.2164951904
 33
0.0
 40
0.0
 40
0.0
 40
0.0
 40
0.0
 40
1.0
 40
1.0
 40
1.0
 40
2.0
 40
2.0
 40
2.0
 40
2.0
 10
166.7309490481
 20
171.7774668906
 30
0.0
 41
1.0
 10
166.5917235469
 20
170.9042631113
 30
0.0
 41
0.8028586576
 10
167.1135686218
 20
170.1904379939
 30
0.0
 41
0.8028586576
 10
167.987852557
 20
170.058164864
 30
0.0
 41
1.0
 10
168.8621364923
 20
169.9258917342
 30
0.0
 41
0.8028586576
 10
169.5717867621
 20
170.4534000989
 30
0.0
 41
0.8028586576
 10
169.6970991461
 20
171.3287088369
 30
0.0
 41
1.0
 11
166.7309490481
 21
171.7774668906
 31
0.0
 11
166.7284148064
 21
171.7609836795
 31
0.0
 11
166.7260536341
 21
171.7443976415
 31
0.0
 11
166.7238684245
 21
171.7277110072
 31
0.0
 11
166.7218620461
 21
171.7109260921
 31
0.0
 11
166.7200373398
 21
171.6940452973
 31
0.0
 11
166.7183971163
 21
171.6770711088
 31
0.0
 11
166.7169441532
 21
171.6600060984
 31
0.0
 11
166.7156811922
 21
171.642852923
 31
0.0
 11
166.7146109366
 21
171.6256143251
 31
0.0
 11
166.7137360478
 21
171.6082931318
 31
0.0
 11
166.7130591431
 21
171.590892255
 31
0.0
 11
166.7125827923
 21
171.5734146907
 31
0.0
 11
166.7123095151
 21
171.5558635185
 31
0.0
 11
166.7122417777
 21
171.5382419008
 31
0.0
 11
166.7123819905
 21
171.5205530824
 31
0.0
 11
166.7127325046
 21
171.502800389
 31
0.0
 11
166.7132956091
 21
171.4849872266
 31
0.0
 11
166.7140735282
 21
171.4671170803
 31
0.0
 11
166.7150684179
 21
171.4491935131
 31
0.0
 11
166.7162823636
 21
171.4312201641
 31
0.0
 11
166.7177173768
 21
171.4132007477
 31
0.0
 11
166.7193753922
 21
171.3951390514
 31
0.0
 11
166.7212582654
 21
171.3770389344
 31
0.0
 11
166.7233677693
 21
171.3589043256
 31
0.0
 11
166.7257055918
 21
171.3407392215
 31
0.0
 11
166.7282733332
 21
171.3225476845
 31
0.0
 11
166.731072503
 21
171.3043338404
 31
0.0
 11
166.7341045179
 21
171.286101876
 31
0.0
 11
166.7373706987
 21
171.2678560368
 31
0.0
 11
166.7408722684
 21
171.2496006245
 31
0.0
 11
166.7446103492
 21
171.2313399941
 31
0.0
 11
166.7485859605
 21
171.2130785514
 31
0.0
 11
166.7528000169
 21
171.1948207497
 31
0.0
 11
166.7572533254
 21
171.1765710873
 31
0.0
 11
166.7619465841
 21
171.1583341038
 31
0.0
 11
166.7668803797
 21
171.1401143777
 31
0.0
 11
166.7720551859
 21
171.1219165221
 31
0.0
 11
166.7774713619
 21
171.1037451824
 31
0.0
 11
166.7831291502
 21
171.0856050318
 31
0.0
 11
166.7890286758
 21
171.0675007685
 31
0.0
 11
166.7951699443
 21
171.0494371116
 31
0.0
 11
166.8015528412
 21
171.0314187979
 31
0.0
 11
166.8081771303
 21
171.0134505774
 31
0.0
 11
166.8150424531
 21
170.9955372102
 31
0.0
 11
166.8221483281
 21
170.9776834622
 31
0.0
 11
166.8294941495
 21
170.9598941012
 31
0.0
 11
166.8370791876
 21
170.9421738931
 31
0.0
 11
166.8449025878
 21
170.9245275977
 31
0.0
 11
166.8529633707
 21
170.9069599648
 31
0.0
 11
166.8612604317
 21
170.8894757301
 31
0.0
 11
166.8697925416
 21
170.8720796111
 31
0.0
 11
166.8785583466
 21
170.8547763029
 31
0.0
 11
166.8875563689
 21
170.8375704745
 31
0.0
 11
166.8967850069
 21
170.8204667641
 31
0.0
 11
166.9062425364
 21
170.8034697759
 31
0.0
 11
166.9159271114
 21
170.786584075
 31
0.0
 11
166.9258367648
 21
170.7698141843
 31
0.0
 11
166.9359694103
 21
170.7531645801
 31
0.0
 11
166.9463228433
 21
170.7366396882
 31
0.0
 11
166.9568947423
 21
170.72024388
 31
0.0
 11
166.9676826713
 21
170.7039814688
 31
0.0
 11
166.978684081
 21
170.6878567058
 31
0.0
 11
166.9898963108
 21
170.6718737767
 31
0.0
 11
167.0013165914
 21
170.656036798
 31
0.0
 11
167.0129420467
 21
170.6403498131
 31
0.0
 11
167.0247696963
 21
170.6248167896
 31
0.0
 11
167.0367964583
 21
170.609441615
 31
0.0
 11
167.0490191513
 21
170.5942280945
 31
0.0
 11
167.061434498
 21
170.579179947
 31
0.0
 11
167.0740391276
 21
170.5643008026
 31
0.0
 11
167.086829579
 21
170.5495941994
 31
0.0
 11
167.099802304
 21
170.5350635811
 31
0.0
 11
167.1129536704
 21
170.5207122937
 31
0.0
 11
167.1262799653
 21
170.5065435838
 31
0.0
 11
167.1397773986
 21
170.4925605955
 31
0.0
 11
167.1534421066
 21
170.4787663688
 31
0.0
 11
167.1672701555
 21
170.4651638368
 31
0.0
 11
167.1812575449
 21
170.4517558245
 31
0.0
 11
167.1954002117
 21
170.4385450463
 31
0.0
 11
167.2096940337
 21
170.4255341049
 31
0.0
 11
167.2241348336
 21
170.4127254894
 31
0.0
 11
167.2387183826
 21
170.4001215743
 31
0.0
 11
167.2534404047
 21
170.387724618
 31
0.0
 11
167.26829658
 21
170.3755367621
 31
0.0
 11
167.2832825491
 21
170.36356003
 31
0.0
 11
167.2983939171
 21
170.3517963268
 31
0.0
 11
167.3136262569
 21
170.3402474383
 31
0.0
 11
167.328975114
 21
170.3289150307
 31
0.0
 11
167.3444360099
 21
170.3178006503
 31
0.0
 11
167.360004446
 21
170.3069057235
 31
0.0
 11
167.3756759078
 21
170.2962315568
 31
0.0
 11
167.3914458686
 21
170.2857793368
 31
0.0
 11
167.4073097932
 21
170.2755501308
 31
0.0
 11
167.4232631421
 21
170.2655448872
 31
0.0
 11
167.4393013748
 21
170.2557644359
 31
0.0
 11
167.4554199538
 21
170.2462094892
 31
0.0
 11
167.4716143479
 21
170.2368806427
 31
0.0
 11
167.4878800362
 21
170.2277783765
 31
0.0
 11
167.5042125115
 21
170.2189030556
 31
0.0
 11
167.5206072834
 21
170.2102549322
 31
0.0
 11
167.5370598821
 21
170.2018341462
 31
0.0
 11
167.5535658614
 21
170.193640727
 31
0.0
 11
167.5701208019
 21
170.1856745951
 31
0.0
 11
167.5867203144
 21
170.1779355639
 31
0.0
 11
167.6033600426
 21
170.1704233411
 31
0.0
 11
167.6200356661
 21
170.163137531
 31
0.0
 11
167.6367429032
 21
170.1560776362
 31
0.0
 11
167.6534775139
 21
170.1492430596
 31
0.0
 11
167.6702353019
 21
170.1426331068
 31
0.0
 11
167.6870121179
 21
170.136246988
 31
0.0
 11
167.7038038615
 21
170.1300838204
 31
0.0
 11
167.7206064834
 21
170.1241426306
 31
0.0
 11
167.7374159881
 21
170.1184223565
 31
0.0
 11
167.7542284356
 21
170.1129218505
 31
0.0
 11
167.7710399436
 21
170.1076398814
 31
0.0
 11
167.7878466889
 21
170.1025751368
 31
0.0
 11
167.80464491
 21
170.0977262262
 31
0.0
 11
167.8214309078
 21
170.0930916832
 31
0.0
 11
167.838201048
 21
170.088669968
 31
0.0
 11
167.8549517619
 21
170.0844594702
 31
0.0
 11
167.8716795479
 21
170.0804585117
 31
0.0
 11
167.8800337674
 21
170.0785360672
 31
0.0
 11
167.8883809729
 21
170.0766653487
 31
0.0
 11
167.8967207461
 21
170.0748461284
 31
0.0
 11
167.9050526732
 21
170.0730781748
 31
0.0
 11
167.9133763447
 21
170.0713612528
 31
0.0
 11
167.9216913556
 21
170.0696951236
 31
0.0
 11
167.9299973055
 21
170.068079545
 31
0.0
 11
167.9382937984
 21
170.0665142713
 31
0.0
 11
167.9424383759
 21
170.0657504211
 31
0.0
 11
167.9465804428
 21
170.0649990535
 31
0.0
 11
167.9507199507
 21
170.0642601369
 31
0.0
 11
167.9548568518
 21
170.0635336393
 31
0.0
 11
167.9589910984
 21
170.0628195289
 31
0.0
 11
167.9631226431
 21
170.0621177733
 31
0.0
 11
167.967251439
 21
170.0614283402
 31
0.0
 11
167.9693147914
 21
170.0610882344
 31
0.0
 11
167.9713774391
 21
170.060751197
 31
0.0
 11
167.9734393762
 21
170.0604172238
 31
0.0
 11
167.975500597
 21
170.0600863108
 31
0.0
 11
167.9775610957
 21
170.0597584538
 31
0.0
 11
167.9796208666
 21
170.0594336487
 31
0.0
 11
167.9806504772
 21
170.0592723893
 31
0.0
 11
167.9816799038
 21
170.0591118913
 31
0.0
 11
167.9827091456
 21
170.0589521543
 31
0.0
 11
167.9837382018
 21
170.0587931775
 31
0.0
 11
167.9847670717
 21
170.0586349607
 31
0.0
 11
167.9857957547
 21
170.0584775032
 31
0.0
 11
167.9863100259
 21
170.058399059
 31
0.0
 11
167.9868242501
 21
170.0583208045
 31
0.0
 11
167.9873384271
 21
170.0582427395
 31
0.0
 11
167.987595498
 21
170.0582037781
 31
0.0
 11
167.987852557
 21
170.058164864
 31
0.0
 11
167.9881096228
 21
170.0581259945
 31
0.0
 11
167.9883667139
 21
170.0580871668
 31
0.0
 11
167.9888809719
 21
170.0580096366
 31
0.0
 11
167.9893953309
 21
170.0579322736
 31
0.0
 11
167.989909791
 21
170.0578550779
 31
0.0
 11
167.9909390138
 21
170.0577011884
 31
0.0
 11
167.9919686398
 21
170.057547969
 31
0.0
 11
167.9929986686
 21
170.0573954204
 31
0.0
 11
167.9940290995
 21
170.0572435432
 31
0.0
 11
167.995059932
 21
170.0570923382
 31
0.0
 11
167.9960911656
 21
170.056941806
 31
0.0
 11
167.9981548341
 21
170.0566427632
 31
0.0
 11
168.0002201007
 21
170.0563464204
 31
0.0
 11
168.0022869611
 21
170.0560527832
 31
0.0
 11
168.0043554109
 21
170.0557618573
 31
0.0
 11
168.006425446
 21
170.0554736483
 31
0.0
 11
168.008497062
 21
170.0551881619
 31
0.0
 11
168.0126450192
 21
170.0546253794
 31
0.0
 11
168.0167992475
 21
170.0540735546
 31
0.0
 11
168.0209597114
 21
170.0535327326
 31
0.0
 11
168.0251263753
 21
170.053002958
 31
0.0
 11
168.0292992032
 21
170.0524842755
 31
0.0
 11
168.0334781586
 21
170.0519767299
 31
0.0
 11
168.0376632049
 21
170.0514803654
 31
0.0
 11
168.0460514216
 21
170.0505213576
 31
0.0
 11
168.054463553
 21
170.0496076058
 31
0.0
 11
168.0628992936
 21
170.0487394618
 31
0.0
 11
168.0713583325
 21
170.0479172755
 31
0.0
 11
168.0798403533
 21
170.0471413947
 31
0.0
 11
168.0883450347
 21
170.0464121652
 31
0.0
 11
168.0968720496
 21
170.0457299306
 31
0.0
 11
168.1054210659
 21
170.0450950321
 31
0.0
 11
168.1225837474
 21
170.0439685966
 31
0.0
 11
168.1398303155
 21
170.04303554
 31
0.0
 11
168.1571579218
 21
170.0422985013
 31
0.0
 11
168.1745636338
 21
170.0417600745
 31
0.0
 11
168.1920444351
 21
170.0414228054
 31
0.0
 11
168.2095972262
 21
170.041289189
 31
0.0
 11
168.227218825
 21
170.0413616666
 31
0.0
 11
168.2449059678
 21
170.0416426225
 31
0.0
 11
168.2626553102
 21
170.0421343813
 31
0.0
 11
168.2804634282
 21
170.042839205
 31
0.0
 11
168.2983268189
 21
170.0437592897
 31
0.0
 11
168.3162419026
 21
170.0448967633
 31
0.0
 11
168.3342050234
 21
170.0462536821
 31
0.0
 11
168.3522124511
 21
170.0478320279
 31
0.0
 11
168.3702603831
 21
170.0496337053
 31
0.0
 11
168.3883449453
 21
170.0516605391
 31
0.0
 11
168.4064621951
 21
170.0539142708
 31
0.0
 11
168.4246081224
 21
170.0563965566
 31
0.0
 11
168.4427786523
 21
170.0591089642
 31
0.0
 11
168.4609696472
 21
170.0620529705
 31
0.0
 11
168.4791769092
 21
170.0652299587
 31
0.0
 11
168.4973961822
 21
170.0686412158
 31
0.0
 11
168.5156231551
 21
170.0722879305
 31
0.0
 11
168.533853464
 21
170.0761711903
 31
0.0
 11
168.5520826952
 21
170.0802919796
 31
0.0
 11
168.5703063882
 21
170.0846511774
 31
0.0
 11
168.5885200386
 21
170.089249555
 31
0.0
 11
168.6067191011
 21
170.0940877744
 31
0.0
 11
168.6248989929
 21
170.0991663856
 31
0.0
 11
168.6430550972
 21
170.104485826
 31
0.0
 11
168.6611827659
 21
170.1100464173
 31
0.0
 11
168.679277324
 21
170.1158483652
 31
0.0
 11
168.6973340725
 21
170.1218917572
 31
0.0
 11
168.7153482922
 21
170.1281765614
 31
0.0
 11
168.7333152478
 21
170.1347026255
 31
0.0
 11
168.7512301909
 21
170.1414696756
 31
0.0
 11
168.7690883645
 21
170.1484773154
 31
0.0
 11
168.7868850069
 21
170.1557250252
 31
0.0
 11
168.8046153551
 21
170.1632121616
 31
0.0
 11
168.8222746491
 21
170.1709379569
 31
0.0
 11
168.8398581361
 21
170.1789015187
 31
0.0
 11
168.8573610743
 21
170.1871018296
 31
0.0
 11
168.8747787369
 21
170.1955377476
 31
0.0
 11
168.8921064164
 21
170.204208006
 31
0.0
 11
168.9093394285
 21
170.2131112136
 31
0.0
 11
168.9264731162
 21
170.2222458555
 31
0.0
 11
168.9435028541
 21
170.2316102933
 31
0.0
 11
168.960424052
 21
170.2412027661
 31
0.0
 11
168.9772321595
 21
170.2510213917
 31
0.0
 11
168.9939226696
 21
170.2610641672
 31
0.0
 11
169.0104911226
 21
170.2713289706
 31
0.0
 11
169.0269331105
 21
170.2818135621
 31
0.0
 11
169.0432442805
 21
170.2925155857
 31
0.0
 11
169.0594203389
 21
170.303432571
 31
0.0
 11
169.0754570547
 21
170.3145619349
 31
0.0
 11
169.0913502636
 21
170.3259009838
 31
0.0
 11
169.1070958714
 21
170.3374469155
 31
0.0
 11
169.1226898575
 21
170.349196822
 31
0.0
 11
169.1381282783
 21
170.3611476915
 31
0.0
 11
169.1534072708
 21
170.3732964108
 31
0.0
 11
169.1685230554
 21
170.3856397688
 31
0.0
 11
169.1834719393
 21
170.3981744586
 31
0.0
 11
169.1982503194
 21
170.4108970805
 31
0.0
 11
169.2128546851
 21
170.4238041455
 31
0.0
 11
169.2272816213
 21
170.436892078
 31
0.0
 11
169.2415278107
 21
170.4501572193
 31
0.0
 11
169.2555900366
 21
170.4635958308
 31
0.0
 11
169.2694651849
 21
170.4772040976
 31
0.0
 11
169.2831502468
 21
170.4909781318
 31
0.0
 11
169.2966423202
 21
170.5049139765
 31
0.0
 11
169.3099386123
 21
170.5190076088
 31
0.0
 11
169.323036441
 21
170.5332549442
 31
0.0
 11
169.3359332366
 21
170.54765184
 31
0.0
 11
169.3486265431
 21
170.5621940992
 31
0.0
 11
169.3611140199
 21
170.5768774742
 31
0.0
 11
169.3733934426
 21
170.5916976711
 31
0.0
 11
169.3854627041
 21
170.6066503533
 31
0.0
 11
169.3973198157
 21
170.6217311452
 31
0.0
 11
169.4089629074
 21
170.636935637
 31
0.0
 11
169.4203902287
 21
170.6522593876
 31
0.0
 11
169.4316001488
 21
170.6676979292
 31
0.0
 11
169.4425911571
 21
170.6832467713
 31
0.0
 11
169.4533618631
 21
170.698901404
 31
0.0
 11
169.4639109962
 21
170.7146573026
 31
0.0
 11
169.4742374059
 21
170.730509931
 31
0.0
 11
169.4843400609
 21
170.7464547459
 31
0.0
 11
169.4942180492
 21
170.7624872002
 31
0.0
 11
169.5038705768
 21
170.7786027469
 31
0.0
 11
169.5132969677
 21
170.794796843
 31
0.0
 11
169.5224966623
 21
170.8110649528
 31
0.0
 11
169.5314692165
 21
170.8274025517
 31
0.0
 11
169.5402143011
 21
170.8438051297
 31
0.0
 11
169.5487316997
 21
170.8602681946
 31
0.0
 11
169.5570213081
 21
170.8767872755
 31
0.0
 11
169.5650831321
 21
170.8933579261
 31
0.0
 11
169.5729172864
 21
170.909975728
 31
0.0
 11
169.5805239925
 21
170.9266362935
 31
0.0
 11
169.5879035774
 21
170.9433352687
 31
0.0
 11
169.5950564712
 21
170.9600683365
 31
0.0
 11
169.6019832054
 21
170.9768312193
 31
0.0
 11
169.6086844106
 21
170.993619682
 31
0.0
 11
169.6151608147
 21
171.0104295341
 31
0.0
 11
169.6214132405
 21
171.0272566325
 31
0.0
 11
169.6274426033
 21
171.0440968839
 31
0.0
 11
169.6332499089
 21
171.0609462472
 31
0.0
 11
169.6388362509
 21
171.0778007352
 31
0.0
 11
169.6442028084
 21
171.0946564173
 31
0.0
 11
169.6493508435
 21
171.111509421
 31
0.0
 11
169.6542816987
 21
171.1283559338
 31
0.0
 11
169.6589967947
 21
171.1451922052
 31
0.0
 11
169.6634976271
 21
171.1620145481
 31
0.0
 11
169.6677857646
 21
171.1788193404
 31
0.0
 11
169.6718628459
 21
171.1956030263
 31
0.0
 11
169.675730577
 21
171.2123621178
 31
0.0
 11
169.679390729
 21
171.2290931958
 31
0.0
 11
169.6828451348
 21
171.245792911
 31
0.0
 11
169.6860956872
 21
171.2624579852
 31
0.0
 11
169.6891443354
 21
171.279085212
 31
0.0
 11
169.6919930831
 21
171.2956714576
 31
0.0
 11
169.6946439853
 21
171.3122136614
 31
0.0
 11
169.6970991461
 21
171.3287088369
 31
0.0
  0
HATCH
  5
2B6
100
AcDbEntity
  8
0
100
AcDbHatch
 62
2
  6
CONTINUOUS
 10
0.0
 20
0.0
 30
0.0
210
0.0
220
0.0
230
1.0
  2
A
 70
0
 71
1
 91
2
 92
1
 93
44
 72
1
 10
156.5222386871
 20
225.7412868633
 11
156.5222386871
 21
219.2412868633
 72
1
 10
156.5222386871
 20
225.7412868633
 11
174.8022386871
 21
225.7412868633
 72
4
 94
3
 73
1
 74
0
 95
8
 96
4
 40
0.0
 40
0.0
 40
0.0
 40
0.0
 40
1.0
 40
1.0
 40
1.0
 40
1.0
 10
174.8022386871
 20
225.7412868633
 42
1.0
 10
175.3880251247
 20
225.7412868633
 42
0.8047378541
 10
175.8022386871
 20
225.3270733009
 42
0.8047378541
 10
175.8022386871
 20
224.7412868633
 42
1.0
 72
1
 10
175.8022386871
 20
224.7412868633
 11
175.8022386871
 21
223.3443194072
 72
4
 94
3
 73
1
 74
0
 95
8
 96
4
 40
0.0
 40
0.0
 40
0.0
 40
0.0
 40
1.0
 40
1.0
 40
1.0
 40
1.0
 10
175.9774153659
 20
222.7789288441
 42
1.0
 10
175.8624284849
 20
222.9466781262
 42
0.9701349458
 10
175.8022386871
 20
223.1409433898
 42
0.9701349458
 10
175.8022386871
 20
223.3443194072
 42
1.0
 72
4
 94
3
 73
1
 74
0
 95
8
 96
4
 40
0.0
 40
0.0
 40
0.0
 40
0.0
 40
1.0
 40
1.0
 40
1.0
 40
1.0
 10
175.9774153659
 20
222.7789288441
 42
1.0
 10
176.1482683691
 20
222.2184180893
 42
0.8998029783
 10
176.5889774099
 20
221.8322334234
 42
0.8998029783
 10
177.1670692886
 20
221.7364585063
 42
1.0
 72
1
 10
177.8622386871
 20
221.6212868633
 11
177.1670692886
 21
221.7364585063
 72
1
 10
177.8622386871
 20
221.2862868633
 11
177.8622386871
 21
221.6212868633
 72
1
 10
178.8022386871
 20
220.7112868633
 11
177.8622386871
 21
221.2862868633
 72
1
 10
179.3022386871
 20
220.7112868633
 11
178.8022386871
 21
220.7112868633
 72
1
 10
179.6422386871
 20
221.3412868633
 11
179.3022386871
 21
220.7112868633
 72
1
 10
181.4322386871
 20
220.9912868633
 11
179.6422386871
 21
221.3412868633
 72
1
 10
181.9222386871
 20
217.4612868633
 11
181.4322386871
 21
220.9912868633
 72
1
 10
181.9222386871
 20
217.0112868633
 11
181.9222386871
 21
217.4612868633
 72
1
 10
179.2253780301
 20
217.0112868633
 11
181.9222386871
 21
217.0112868633
 72
4
 94
3
 73
1
 74
0
 95
8
 96
4
 40
0.0
 40
0.0
 40
0.0
 40
0.0
 40
1.0
 40
1.0
 40
1.0
 40
1.0
 10
179.5218076526
 20
216.9092079194
 42
1.0
 10
179.423225487
 20
216.9438931025
 42
0.999985168
 10
179.3244141473
 20
216.9779199218
 42
0.999985168
 10
179.2253780301
 20
217.0112868633
 42
1.0
 72
4
 94
3
 73
1
 74
0
 95
8
 96
4
 40
0.0
 40
0.0
 40
0.0
 40
0.0
 40
1.0
 40
1.0
 40
1.0
 40
1.0
 10
179.7222386871
 20
216.6262131825
 42
1.0
 10
179.7222386871
 20
216.7579640751
 42
0.8773710264
 10
179.6460903498
 20
216.8654802525
 42
0.8773710264
 10
179.5218076526
 20
216.9092079194
 42
1.0
 72
1
 10
179.7222386871
 20
213.4812868633
 11
179.7222386871
 21
216.6262131825
 72
1
 10
179.7222386871
 20
213.4812868633
 11
179.0222386871
 21
213.4812868633
 72
1
 10
179.0222386871
 20
211.8912868633
 11
179.0222386871
 21
213.4812868633
 72
1
 10
179.7222386871
 20
210.5712868633
 11
179.0222386871
 21
211.8912868633
 72
1
 10
179.7222386871
 20
209.2412868633
 11
179.7222386871
 21
210.5712868633
 72
1
 10
189.7222386871
 20
209.2412868633
 11
179.7222386871
 21
209.2412868633
 72
4
 94
3
 73
1
 74
0
 95
8
 96
4
 40
0.0
 40
0.0
 40
0.0
 40
0.0
 40
1.0
 40
1.0
 40
1.0
 40
1.0
 10
190.0222386871
 20
208.9412868633
 42
1.0
 10
190.0222386871
 20
209.1170227946
 42
0.8047378541
 10
189.8979746184
 20
209.2412868633
 42
0.8047378541
 10
189.7222386871
 20
209.2412868633
 42
1.0
 72
1
 10
190.0222386871
 20
205.3412868642
 11
190.0222386871
 21
208.9412868633
 72
4
 94
3
 73
1
 74
0
 95
8
 96
4
 40
0.0
 40
0.0
 40
0.0
 40
0.0
 40
1.0
 40
1.0
 40
1.0
 40
1.0
 10
189.4222386871
 20
204.7412868642
 42
1.0
 10
189.7737105497
 20
204.7412868642
 42
0.8047378541
 10
190.0222386871
 20
204.9898150016
 42
0.8047378541
 10
190.0222386871
 20
205.3412868642
 42
1.0
 72
1
 10
189.4222386871
 20
204.7412868642
 11
159.6222386871
 21
204.7412868642
 72
4
 94
3
 73
1
 74
0
 95
8
 96
4
 40
0.0
 40
0.0
 40
0.0
 40
0.0
 40
1.0
 40
1.0
 40
1.0
 40
1.0
 10
159.0222386871
 20
205.3412868642
 42
1.0
 10
159.0222386871
 20
204.9898150016
 42
0.8047378541
 10
159.2707668245
 20
204.7412868642
 42
0.8047378541
 10
159.6222386871
 20
204.7412868642
 42
1.0
 72
1
 10
159.0222386871
 20
205.3412868642
 11
159.0222386871
 21
208.9412868633
 72
4
 94
3
 73
1
 74
0
 95
8
 96
4
 40
0.0
 40
0.0
 40
0.0
 40
0.0
 40
1.0
 40
1.0
 40
1.0
 40
1.0
 10
159.3222386871
 20
209.2412868633
 42
1.0
 10
159.1465027558
 20
209.2412868633
 42
0.8047378541
 10
159.0222386871
 20
209.1170227946
 42
0.8047378541
 10
159.0222386871
 20
208.9412868633
 42
1.0
 72
1
 10
163.7222386871
 20
209.2412868633
 11
159.3222386871
 21
209.2412868633
 72
1
 10
163.7222386871
 20
209.2412868633
 11
163.7222386871
 21
210.5712868633
 72
1
 10
164.4222386871
 20
211.8912868633
 11
163.7222386871
 21
210.5712868633
 72
1
 10
164.4222386871
 20
211.8912868633
 11
164.4222386871
 21
213.4812868633
 72
1
 10
164.4222386871
 20
213.4812868633
 11
163.7222386871
 21
213.4812868633
 72
1
 10
163.7222386871
 20
213.4812868633
 11
163.7222386871
 21
216.6262131825
 72
4
 94
3
 73
1
 74
0
 95
8
 96
4
 40
0.0
 40
0.0
 40
0.0
 40
0.0
 40
1.0
 40
1.0
 40
1.0
 40
1.0
 10
163.9226697216
 20
216.9092079194
 42
1.0
 10
163.7983870244
 20
216.8654802525
 42
0.8773710264
 10
163.7222386871
 20
216.7579640751
 42
0.8773710264
 10
163.7222386871
 20
216.6262131825
 42
1.0
 72
4
 94
3
 73
1
 74
0
 95
8
 96
4
 40
0.0
 40
0.0
 40
0.0
 40
0.0
 40
1.0
 40
1.0
 40
1.0
 40
1.0
 10
164.2222386871
 20
217.0123443146
 42
1.0
 10
164.1221513713
 20
216.978638916
 42
0.9999848529
 10
164.0222935369
 20
216.9442595969
 42
0.9999848529
 10
163.9226697216
 20
216.9092079194
 42
1.0
 72
1
 10
163.7222386871
 20
217.0123443146
 11
164.2222386871
 21
217.0123443146
 72
1
 10
163.7222386871
 20
218.2412868633
 11
163.7222386871
 21
217.0123443146
 72
1
 10
163.7222386871
 20
218.2412868633
 11
157.5222386871
 21
218.2412868633
 72
1
 10
157.5222386871
 20
218.2412868633
 11
156.5222386871
 21
219.2412868633
 72
4
 94
3
 73
1
 74
0
 95
11
 96
7
 40
0.0
 40
0.0
 40
0.0
 40
0.0
 40
1.0
 40
1.0
 40
1.0
 40
2.0
 40
2.0
 40
2.0
 40
2.0
 10
169.6970991461
 20
218.1538648896
 42
1.0
 10
169.5717867621
 20
219.0291736276
 42
0.8028586576
 10
168.8621364923
 20
219.5566819924
 42
0.8028586576
 10
167.987852557
 20
219.4244088625
 42
1.0
 10
167.1135686218
 20
219.2921357326
 42
0.8028586576
 10
166.5917235469
 20
218.5783106153
 42
0.8028586576
 10
166.7309490481
 20
217.705106836
 42
1.0
 72
4
 94
3
 73
1
 74
0
 95
8
 96
4
 40
0.0
 40
0.0
 40
0.0
 40
0.0
 40
1.0
 40
1.0
 40
1.0
 40
1.0
 10
169.6970991461
 20
218.1538648896
 42
1.0
 10
168.6994946445
 20
218.067574165
 42
0.9986406195
 10
167.7094320734
 20
217.917784526
 42
0.9986406195
 10
166.7309490481
 20
217.705106836
 42
1.0
 97
88
330
25E
330
25F
330
260
330
261
330
262
330
263
330
264
330
265
330
266
330
267
330
268
330
269
330
26A
330
26B
330
26C
330
26D
330
26E
330
26F
330
270
330
271
330
272
330
273
330
274
330
275
330
276
330
277
330
278
330
279
330
27A
330
27B
330
27C
330
27D
330
27E
330
27F
330
280
330
281
330
282
330
283
330
284
330
285
330
286
330
287
330
288
330
289
330
28A
330
28B
330
28C
330
28D
330
28E
330
28F
330
290
330
291
330
292
330
293
330
294
330
295
330
296
330
297
330
298
330
299
330
29A
330
29B
330
29C
330
29D
330
29E
330
29F
330
2A0
330
2A1
330
2A2
330
2A3
330
2A4
330
2A5
330
2A6
330
2A7
330
2A8
330
2A9
330
2AA
330
2AB
330
2AC
330
2AD
330
2AE
330
2AF
330
2B0
330
2B1
330
2B2
330
2B3
330
2B4
330
2B5
 92
1
 93
44
 72
1
 10
156.5222386871
 20
170.2412868633
 11
156.5222386871
 21
163.7412868633
 72
1
 10
157.5222386871
 20
171.2412868633
 11
156.5222386871
 21
170.2412868633
 72
1
 10
163.7222386871
 20
171.2412868633
 11
157.5222386871
 21
171.2412868633
 72
1
 10
163.7222386871
 20
172.470229412
 11
163.7222386871
 21
171.2412868633
 72
1
 10
163.7222386871
 20
172.470229412
 11
164.2222386871
 21
172.470229412
 72
4
 94
3
 73
1
 74
0
 95
8
 96
4
 40
0.0
 40
0.0
 40
0.0
 40
0.0
 40
1.0
 40
1.0
 40
1.0
 40
1.0
 10
164.2222386871
 20
172.470229412
 42
1.0
 10
164.1221513713
 20
172.5039348105
 42
0.9999848529
 10
164.0222935369
 20
172.5383141297
 42
0.9999848529
 10
163.9226697216
 20
172.5733658071
 42
1.0
 72
4
 94
3
 73
1
 74
0
 95
8
 96
4
 40
0.0
 40
0.0
 40
0.0
 40
0.0
 40
1.0
 40
1.0
 40
1.0
 40
1.0
 10
163.9226697216
 20
172.5733658071
 42
1.0
 10
163.7983870244
 20
172.617093474
 42
0.8773710264
 10
163.7222386871
 20
172.7246096515
 42
0.8773710264
 10
163.7222386871
 20
172.856360544
 42
1.0
 72
1
 10
163.7222386871
 20
172.856360544
 11
163.7222386871
 21
176.0012868633
 72
1
 10
164.4222386871
 20
176.0012868633
 11
163.7222386871
 21
176.0012868633
 72
1
 10
164.4222386871
 20
176.0012868633
 11
164.4222386871
 21
177.5912868633
 72
1
 10
164.4222386871
 20
177.5912868633
 11
163.7222386871
 21
178.9112868633
 72
1
 10
163.7222386871
 20
178.9112868633
 11
163.7222386871
 21
180.2412868633
 72
1
 10
163.7222386871
 20
180.2412868633
 11
159.3222386871
 21
180.2412868633
 72
4
 94
3
 73
1
 74
0
 95
8
 96
4
 40
0.0
 40
0.0
 40
0.0
 40
0.0
 40
1.0
 40
1.0
 40
1.0
 40
1.0
 10
159.3222386871
 20
180.2412868633
 42
1.0
 10
159.1465027558
 20
180.2412868633
 42
0.8047378541
 10
159.0222386871
 20
180.365550932
 42
0.8047378541
 10
159.0222386871
 20
180.5412868633
 42
1.0
 72
1
 10
159.0222386871
 20
180.5412868633
 11
159.0222386871
 21
184.1412868624
 72
4
 94
3
 73
1
 74
0
 95
8
 96
4
 40
0.0
 40
0.0
 40
0.0
 40
0.0
 40
1.0
 40
1.0
 40
1.0
 40
1.0
 10
159.0222386871
 20
184.1412868624
 42
1.0
 10
159.0222386871
 20
184.492758725
 42
0.8047378541
 10
159.2707668245
 20
184.7412868624
 42
0.8047378541
 10
159.6222386871
 20
184.7412868624
 42
1.0
 72
1
 10
189.4222386871
 20
184.7412868624
 11
159.6222386871
 21
184.7412868624
 72
4
 94
3
 73
1
 74
0
 95
8
 96
4
 40
0.0
 40
0.0
 40
0.0
 40
0.0
 40
1.0
 40
1.0
 40
1.0
 40
1.0
 10
189.4222386871
 20
184.7412868624
 42
1.0
 10
189.7737105497
 20
184.7412868624
 42
0.8047378541
 10
190.0222386871
 20
184.492758725
 42
0.8047378541
 10
190.0222386871
 20
184.1412868624
 42
1.0
 72
1
 10
190.0222386871
 20
180.5412868633
 11
190.0222386871
 21
184.1412868624
 72
4
 94
3
 73
1
 74
0
 95
8
 96
4
 40
0.0
 40
0.0
 40
0.0
 40
0.0
 40
1.0
 40
1.0
 40
1.0
 40
1.0
 10
190.0222386871
 20
180.5412868633
 42
1.0
 10
190.0222386871
 20
180.365550932
 42
0.8047378541
 10
189.8979746184
 20
180.2412868633
 42
0.8047378541
 10
189.7222386871
 20
180.2412868633
 42
1.0
 72
1
 10
189.7222386871
 20
180.2412868633
 11
179.7222386871
 21
180.2412868633
 72
1
 10
179.7222386871
 20
178.9112868633
 11
179.7222386871
 21
180.2412868633
 72
1
 10
179.7222386871
 20
178.9112868633
 11
179.0222386871
 21
177.5912868633
 72
1
 10
179.0222386871
 20
176.0012868633
 11
179.0222386871
 21
177.5912868633
 72
1
 10
179.7222386871
 20
176.0012868633
 11
179.0222386871
 21
176.0012868633
 72
1
 10
179.7222386871
 20
172.856360544
 11
179.7222386871
 21
176.0012868633
 72
4
 94
3
 73
1
 74
0
 95
8
 96
4
 40
0.0
 40
0.0
 40
0.0
 40
0.0
 40
1.0
 40
1.0
 40
1.0
 40
1.0
 10
179.7222386871
 20
172.856360544
 42
1.0
 10
179.7222386871
 20
172.7246096515
 42
0.8773710264
 10
179.6460903498
 20
172.617093474
 42
0.8773710264
 10
179.5218076526
 20
172.5733658071
 42
1.0
 72
4
 94
3
 73
1
 74
0
 95
8
 96
4
 40
0.0
 40
0.0
 40
0.0
 40
0.0
 40
1.0
 40
1.0
 40
1.0
 40
1.0
 10
179.5218076526
 20
172.5733658071
 42
1.0
 10
179.423225487
 20
172.5386806241
 42
0.999985168
 10
179.3244141473
 20
172.5046538048
 42
0.999985168
 10
179.2253780301
 20
172.4712868633
 42
1.0
 72
1
 10
179.2253780301
 20
172.4712868633
 11
181.9222386871
 21
172.4712868633
 72
1
 10
181.9222386871
 20
172.0212868633
 11
181.9222386871
 21
172.4712868633
 72
1
 10
181.9222386871
 20
172.0212868633
 11
181.4322386871
 21
168.4912868633
 72
1
 10
181.4322386871
 20
168.4912868633
 11
179.6422386871
 21
168.1412868633
 72
1
 10
179.6422386871
 20
168.1412868633
 11
179.3022386871
 21
168.7712868633
 72
1
 10
179.3022386871
 20
168.7712868633
 11
178.8022386871
 21
168.7712868633
 72
1
 10
178.8022386871
 20
168.7712868633
 11
177.8622386871
 21
168.1962868633
 72
1
 10
177.8622386871
 20
167.8612868633
 11
177.8622386871
 21
168.1962868633
 72
1
 10
177.8622386871
 20
167.8612868633
 11
177.1670692886
 21
167.7461152202
 72
4
 94
3
 73
1
 74
0
 95
8
 96
4
 40
0.0
 40
0.0
 40
0.0
 40
0.0
 40
1.0
 40
1.0
 40
1.0
 40
1.0
 10
175.9774153659
 20
166.7036448825
 42
1.0
 10
176.1482683691
 20
167.2641556372
 42
0.8998029783
 10
176.5889774099
 20
167.6503403031
 42
0.8998029783
 10
177.1670692886
 20
167.7461152202
 42
1.0
 72
4
 94
3
 73
1
 74
0
 95
8
 96
4
 40
0.0
 40
0.0
 40
0.0
 40
0.0
 40
1.0
 40
1.0
 40
1.0
 40
1.0
 10
175.9774153659
 20
166.7036448825
 42
1.0
 10
175.8624284849
 20
166.5358956004
 42
0.9701349458
 10
175.8022386871
 20
166.3416303367
 42
0.9701349458
 10
175.8022386871
 20
166.1382543194
 42
1.0
 72
1
 10
175.8022386871
 20
166.1382543194
 11
175.8022386871
 21
164.7412868633
 72
4
 94
3
 73
1
 74
0
 95
8
 96
4
 40
0.0
 40
0.0
 40
0.0
 40
0.0
 40
1.0
 40
1.0
 40
1.0
 40
1.0
 10
174.8022386871
 20
163.7412868633
 42
1.0
 10
175.3880251247
 20
163.7412868633
 42
0.8047378541
 10
175.8022386871
 20
164.1555004256
 42
0.8047378541
 10
175.8022386871
 20
164.7412868633
 42
1.0
 72
1
 10
156.5222386871
 20
163.7412868633
 11
174.8022386871
 21
163.7412868633
 72
4
 94
3
 73
1
 74
0
 95
8
 96
4
 40
0.0
 40
0.0
 40
0.0
 40
0.0
 40
1.0
 40
1.0
 40
1.0
 40
1.0
 10
169.6970991461
 20
171.3287088369
 42
1.0
 10
168.6994946445
 20
171.4149995615
 42
0.9986406195
 10
167.7094320734
 20
171.5647892005
 42
0.9986406195
 10
166.7309490481
 20
171.7774668906
 42
1.0
 72
4
 94
3
 73
1
 74
0
 95
11
 96
7
 40
0.0
 40
0.0
 40
0.0
 40
0.0
 40
1.0
 40
1.0
 40
1.0
 40
2.0
 40
2.0
 40
2.0
 40
2.0
 10
166.7309490481
 20
171.7774668906
 42
1.0
 10
166.5917235469
 20
170.9042631113
 42
0.8028586576
 10
167.1135686218
 20
170.1904379939
 42
0.8028586576
 10
167.987852557
 20
170.058164864
 42
1.0
 10
168.8621364923
 20
169.9258917342
 42
0.8028586576
 10
169.5717867621
 20
170.4534000989
 42
0.8028586576
 10
169.6970991461
 20
171.3287088369
 42
1.0
 97
88
330
25E
330
25F
330
260
330
261
330
262
330
263
330
264
330
265
330
266
330
267
330
268
330
269
330
26A
330
26B
330
26C
330
26D
330
26E
330
26F
330
270
330
271
330
272
330
273
330
274
330
275
330
276
330
277
330
278
330
279
330
27A
330
27B
330
27C
330
27D
330
27E
330
27F
330
280
330
281
330
282
330
283
330
284
330
285
330
286
330
287
330
288
330
289
330
28A
330
28B
330
28C
330
28D
330
28E
330
28F
330
290
330
291
330
292
330
293
330
294
330
295
330
296
330
297
330
298
330
299
330
29A
330
29B
330
29C
330
29D
330
29E
330
29F
330
2A0
330
2A1
330
2A2
330
2A3
330
2A4
330
2A5
330
2A6
330
2A7
330
2A8
330
2A9
330
2AA
330
2AB
330
2AC
330
2AD
330
2AE
330
2AF
330
2B0
330
2B1
330
2B2
330
2B3
330
2B4
330
2B5
 75
0
 76
0
 52
45.0
 41
4.4689148571
 77
0
 78
1
 53
45.0
 43
0.0
 44
0.0
 45
-3.16
 46
3.16
 79
0
 98
1
 10
0.0
 20
0.0
  0
DIMENSION
  5
2B7
100
AcDbEntity
  8
0
100
AcDbDimension
 62
2
  6
CONTINUOUS
  2
*D0
 10
124.0482573727
 20
148.1854334227
 11
77.2982573727
 21
150.8104334227
 70
160
 71
2
 42
90.0
  3
DIMSTYLE_1
100
AcDbAlignedDimension
 13
34.0482573727
 23
194.2412868633
 14
124.0482573727
 24
194.2412868633
100
AcDbRotatedDimension
  0
DIMENSION
  5
2B8
100
AcDbEntity
  8
0
100
AcDbDimension
 62
2
  6
CONTINUOUS
  2
*D1
 10
137.0482573727
 20
136.7048153375
 11
76.4232573727
 21
139.3298153375
 70
160
 71
2
 42
116.0
  3
DIMSTYLE_1
100
AcDbAlignedDimension
 13
21.0482573727
 23
194.2412868633
 14
137.0482573727
 24
194.2412868633
100
AcDbRotatedDimension
  0
DIMENSION
  5
2B9
100
AcDbEntity
  8
0
100
AcDbDimension
 62
2
  6
CONTINUOUS
  2
*D2
 10
14.4766347494
 20
163.7412868633
 11
12.6357635776
 21
193.176792702
 70
160
 71
2
 42
62.0
  3
DIMSTYLE_1
100
AcDbAlignedDimension
 13
78.5482573727
 23
225.7412868633
 14
78.5482573727
 24
163.7412868633
 50
270.0
100
AcDbRotatedDimension
  0
DIMENSION
  5
2BA
100
AcDbEntity
  8
0
100
AcDbDimension
 62
2
  6
CONTINUOUS
  2
*D3
 10
190.0222386871
 20
248.3034072473
 11
169.7722386871
 21
250.9284072473
 70
160
 71
2
 42
33.5
  3
DIMSTYLE_1
100
AcDbAlignedDimension
 13
156.5222386871
 23
226.2412868633
 14
190.0222386871
 24
205.8412868642
100
AcDbRotatedDimension
  0
DIMENSION
  5
2BB
100
AcDbEntity
  8
0
100
AcDbDimension
 62
2
  6
CONTINUOUS
  2
*D4
 10
181.9222386871
 20
240.4152231844
 11
165.7222386871
 21
243.0402231844
 70
160
 71
2
 42
25.4
  3
DIMSTYLE_2
100
AcDbAlignedDimension
 13
156.5222386871
 23
226.2412868633
 14
181.9222386871
 24
217.5112868633
100
AcDbRotatedDimension
  0
DIMENSION
  5
2BC
100
AcDbEntity
  8
0
100
AcDbDimension
 62
2
  6
CONTINUOUS
  2
*D5
 10
171.7222386871
 20
232.8972474809
 11
160.6222386871
 21
235.5222474809
 70
160
 71
2
 42
15.2
  3
DIMSTYLE_2
100
AcDbAlignedDimension
 13
156.5222386871
 23
226.2412868633
 14
171.7222386871
 24
218.0651601068
100
AcDbRotatedDimension
  0
DIMENSION
  5
2BD
100
AcDbEntity
  8
0
100
AcDbDimension
 62
2
  6
CONTINUOUS
  2
*D6
 10
126.4038158099
 20
199.4331782142
 11
132.7081625674
 21
217.8409406111
 70
163
 71
1
 42
10.5
  1
<>
  3
DIMSTYLE_3
100
AcDbDiametricDimension
 15
121.6926989354
 25
190.0493955124
  0
DIMENSION
  5
2BE
100
AcDbEntity
  8
0
100
AcDbDimension
 62
2
  6
CONTINUOUS
  2
*D7
 10
150.0044633061
 20
184.7412868624
 11
148.2942802723
 21
192.9160436751
 70
160
 71
2
 42
20.0000000018
  1
%%c<>
  3
DIMSTYLE_2
100
AcDbAlignedDimension
 13
159.1222386871
 23
204.7412868642
 14
159.1222386871
 24
184.7412868624
 50
270.0
100
AcDbRotatedDimension
  0
MTEXT
  5
2BF
100
AcDbEntity
  8
0
100
AcDbMText
 62
2
  6
CONTINUOUS
  7
STANDARD
 71
3
 72
1
 10
181.4509696969
 20
154.5690884718
 30
0.0
 11
1.0
 21
0.0
 31
0.0
 44
0.9
  1
SEZIONE A-A
 40
3.5
 41
19.25
  0
LINE
  5
2C0
100
AcDbEntity
  8
0
100
AcDbLine
 62
7
  6
CONTINUOUS
 10
29.2482573727
 20
205.7394685312
 11
28.8482573727
 21
206.6559836702
  0
LINE
  5
2C1
100
AcDbEntity
  8
0
100
AcDbLine
 62
7
  6
CONTINUOUS
 10
34.0819219574
 20
180.9869828799
 11
34.68463218
 21
182.3679654874
  0
LINE
  5
2C2
100
AcDbEntity
  8
0
100
AcDbLine
 62
7
  6
CONTINUOUS
 10
33.1108675298
 20
182.1870863572
 11
32.7079393008
 21
181.2718722198
  0
LINE
  5
2C3
100
AcDbEntity
  8
0
100
AcDbLine
 62
7
  6
CONTINUOUS
 10
34.7304579366
 20
207.134608239
 11
33.9647725138
 21
208.8890139491
  0
LINE
  5
2C4
100
AcDbEntity
  8
0
100
AcDbLine
 62
7
  6
CONTINUOUS
 10
66.6482573727
 20
223.153256172
 11
28.8482573727
 21
206.6559836702
  0
LINE
  5
2C5
100
AcDbEntity
  8
0
100
AcDbLine
 62
7
  6
CONTINUOUS
 10
58.5088995212
 20
219.2813764742
 11
34.0819297992
 21
208.620572879
  0
LINE
  5
2C6
100
AcDbEntity
  8
0
100
AcDbLine
 62
7
  6
CONTINUOUS
 10
30.5569573667
 20
182.2188739796
 11
66.5570648913
 21
166.369291685
  0
LINE
  5
2C7
100
AcDbEntity
  8
0
100
AcDbLine
 62
7
  6
CONTINUOUS
 10
34.0819219574
 20
180.9869828799
 11
58.5661730905
 21
170.2074274858
  0
LINE
  5
2C8
100
AcDbEntity
  8
0
100
AcDbLine
 62
7
  6
CONTINUOUS
 10
67.0482573727
 20
222.236741033
 11
60.1413246509
 21
219.2223195761
  0
LINE
  5
2C9
100
AcDbEntity
  8
0
100
AcDbLine
 62
7
  6
CONTINUOUS
 10
33.0151604894
 20
207.3834638897
 11
29.2482573727
 21
205.7394685312
  0
LINE
  5
2CA
100
AcDbEntity
  8
0
100
AcDbLine
 62
7
  6
CONTINUOUS
 10
34.4476152241
 20
207.7826823088
 11
58.8745849461
 21
218.443485904
  0
LINE
  5
2CB
100
AcDbEntity
  8
0
100
AcDbLine
 62
7
  6
CONTINUOUS
 10
34.7304579366
 20
207.134608239
 11
59.1574276586
 21
217.7954118342
  0
LINE
  5
2CC
100
AcDbEntity
  8
0
100
AcDbLine
 62
7
  6
CONTINUOUS
 10
58.9204107031
 20
171.0190878225
 11
34.4017894672
 21
181.7198914177
  0
LINE
  5
2CD
100
AcDbEntity
  8
0
100
AcDbLine
 62
7
  6
CONTINUOUS
 10
59.2032534156
 20
171.6671618924
 11
34.6846321796
 21
182.3679654876
  0
LINE
  5
2CE
100
AcDbEntity
  8
0
100
AcDbLine
 62
7
  6
CONTINUOUS
 10
30.8931083629
 20
183.1635013887
 11
33.1108661327
 21
182.1870869723
  0
LINE
  5
2CF
100
AcDbEntity
  8
0
100
AcDbLine
 62
7
  6
CONTINUOUS
 10
60.1622207569
 20
170.2773119133
 11
66.9600065843
 21
167.2845173359
  0
LINE
  5
2D0
100
AcDbEntity
  8
0
100
AcDbLine
 62
7
  6
CONTINUOUS
 10
64.5382573727
 20
191.7412868633
 11
64.5382573727
 21
197.7412868633
  0
LINE
  5
2D1
100
AcDbEntity
  8
0
100
AcDbLine
 62
7
  6
CONTINUOUS
 10
58.5661730905
 20
170.2074274858
 11
59.2032534156
 21
171.6671618924
  0
LINE
  5
2D2
100
AcDbEntity
  8
0
100
AcDbLine
 62
7
  6
CONTINUOUS
 10
59.1574276524
 20
217.7954118318
 11
58.3917422337
 21
219.5498175433
  0
LINE
  5
2D3
100
AcDbEntity
  8
0
100
AcDbLine
 62
7
  6
CONTINUOUS
 10
60.1622181558
 20
170.2773130584
 11
59.7592897284
 21
169.3621132148
  0
LINE
  5
2D4
100
AcDbEntity
  8
ASSI
100
AcDbLine
 62
2
  6
CENTER
 10
79.0482573727
 20
194.7412868633
 11
79.0482573727
 21
157.8669999305
  0
LINE
  5
2D5
100
AcDbEntity
  8
ASSI
100
AcDbLine
 62
2
  6
CENTER
 10
79.0482573727
 20
194.7412868633
 11
79.0482573727
 21
231.7791821499
  0
LINE
  5
2D6
100
AcDbEntity
  8
0
100
AcDbLine
 62
7
  6
CONTINUOUS
 10
91.0482573727
 20
222.236741033
 11
91.4482573727
 21
223.153256172
  0
LINE
  5
2D7
100
AcDbEntity
  8
0
100
AcDbLine
 62
7
  6
CONTINUOUS
 10
66.9600065843
 20
167.2845173359
 11
66.5570648912
 21
166.3692916851
  0
LINE
  5
2D8
100
AcDbEntity
  8
0
100
AcDbLine
 62
7
  6
CONTINUOUS
 10
83.543767654
 20
208.5277390766
 11
83.7051811613
 21
208.8073154722
  0
LINE
  5
2D9
100
AcDbEntity
  8
0
100
AcDbLine
 62
7
  6
CONTINUOUS
 10
64.8610840582
 20
191.7412868633
 11
64.5382573727
 21
191.7412868633
  0
LINE
  5
2DA
100
AcDbEntity
  8
ASSI
100
AcDbLine
 62
2
  6
CENTER
 10
79.0482573727
 20
194.7412868633
 11
19.2454684342
 21
194.7412868633
  0
LINE
  5
2DB
100
AcDbEntity
  8
ASSI
100
AcDbLine
 62
2
  6
CENTER
 10
79.0482573727
 20
194.7412868633
 11
139.8470332489
 21
194.7412868633
  0
LINE
  5
2DC
100
AcDbEntity
  8
0
100
AcDbLine
 62
7
  6
CONTINUOUS
 10
91.136508161
 20
167.2845173359
 11
91.539449854
 21
166.369291685
  0
LINE
  5
2DD
100
AcDbEntity
  8
0
100
AcDbLine
 62
7
  6
CONTINUOUS
 10
67.0482573727
 20
222.236741033
 11
66.6482573727
 21
223.153256172
  0
LINE
  5
2DE
100
AcDbEntity
  8
0
100
AcDbLine
 62
7
  6
CONTINUOUS
 10
88.739920221
 20
205.5277393264
 11
88.901333584
 21
205.8073154722
  0
LINE
  5
2DF
100
AcDbEntity
  8
0
100
AcDbLine
 62
7
  6
CONTINUOUS
 10
111.8471635688
 20
225.7068828629
 11
110.2339514576
 21
224.0105495571
  0
LINE
  5
2E0
100
AcDbEntity
  8
0
100
AcDbLine
 62
7
  6
CONTINUOUS
 10
64.8610840684
 20
197.7412868633
 11
64.5382573727
 21
197.7412868633
  0
LINE
  5
2E1
100
AcDbEntity
  8
0
100
AcDbLine
 62
7
  6
CONTINUOUS
 10
98.9390870867
 20
217.7954118342
 11
99.7047725138
 21
219.5498175424
  0
LINE
  5
2E2
100
AcDbEntity
  8
0
100
AcDbLine
 62
7
  6
CONTINUOUS
 10
116.2829513749
 20
221.3705495571
 11
114.7097392637
 21
219.7658677652
  0
LINE
  5
2E3
100
AcDbEntity
  8
0
100
AcDbLine
 62
7
  6
CONTINUOUS
 10
97.934295886
 20
170.2773133545
 11
98.3372250251
 21
169.3621132184
  0
LINE
  5
2E4
100
AcDbEntity
  8
0
100
AcDbLine
 62
7
  6
CONTINUOUS
 10
99.5303416548
 20
170.2074274858
 11
98.8932613303
 21
171.6671618925
  0
LINE
  5
2E5
100
AcDbEntity
  8
0
100
AcDbLine
 62
7
  6
CONTINUOUS
 10
104.9249840486
 20
217.3443303353
 11
106.3829364228
 21
220.6849188926
  0
LINE
  5
2E6
100
AcDbEntity
  8
0
100
AcDbLine
 62
7
  6
CONTINUOUS
 10
83.7051811613
 20
208.8073154722
 11
88.901333584
 21
205.8073154722
  0
LINE
  5
2E7
100
AcDbEntity
  8
0
100
AcDbLine
 62
7
  6
CONTINUOUS
 10
110.4531014159
 20
216.2626851935
 11
111.2001814735
 21
217.9744606506
  0
LINE
  5
2E8
100
AcDbEntity
  8
0
100
AcDbLine
 62
7
  6
CONTINUOUS
 10
60.1411880376
 20
219.2222995277
 11
59.2750509676
 21
219.3663834904
  0
LINE
  5
2E9
100
AcDbEntity
  8
0
100
AcDbLine
 62
7
  6
CONTINUOUS
 10
115.0052965437
 20
212.9449212841
 11
116.463248918
 21
216.2855098413
  0
LINE
  5
2EA
100
AcDbEntity
  8
0
100
AcDbLine
 62
7
  6
CONTINUOUS
 10
110.2339514576
 20
224.0105495571
 11
110.1271635688
 21
221.7658677652
  0
LINE
  5
2EB
100
AcDbEntity
  8
0
100
AcDbLine
 62
7
  6
CONTINUOUS
 10
91.136508161
 20
167.2845173359
 11
97.9342936837
 21
170.277312385
  0
LINE
  5
2EC
100
AcDbEntity
  8
0
100
AcDbLine
 62
7
  6
CONTINUOUS
 10
124.985630401
 20
182.1870963956
 11
127.2034046434
 21
183.1635044616
  0
LINE
  5
2ED
100
AcDbEntity
  8
0
100
AcDbLine
 62
7
  6
CONTINUOUS
 10
99.5303416548
 20
170.2074274858
 11
124.0145927879
 21
180.9869828799
  0
LINE
  5
2EE
100
AcDbEntity
  8
0
100
AcDbLine
 62
7
  6
CONTINUOUS
 10
91.539449854
 20
166.369291685
 11
127.5395574184
 21
182.2188739971
  0
LINE
  5
2EF
100
AcDbEntity
  8
0
100
AcDbLine
 62
7
  6
CONTINUOUS
 10
123.4118825657
 20
182.3679654876
 11
98.8932613297
 21
171.6671618924
  0
LINE
  5
2F0
100
AcDbEntity
  8
0
100
AcDbLine
 62
7
  6
CONTINUOUS
 10
123.6947252781
 20
181.7198914177
 11
99.1761040422
 21
171.0190878225
  0
LINE
  5
2F1
100
AcDbEntity
  8
0
100
AcDbLine
 62
7
  6
CONTINUOUS
 10
98.9390870867
 20
217.7954118342
 11
123.3660568087
 21
207.134608239
  0
LINE
  5
2F2
100
AcDbEntity
  8
0
100
AcDbLine
 62
7
  6
CONTINUOUS
 10
99.2219297992
 20
218.443485904
 11
123.6488995212
 21
207.7826823088
  0
LINE
  5
2F3
100
AcDbEntity
  8
0
100
AcDbLine
 62
7
  6
CONTINUOUS
 10
128.8481258483
 20
205.7395259331
 11
125.0813671517
 21
207.3834742047
  0
LINE
  5
2F4
100
AcDbEntity
  8
0
100
AcDbLine
 62
7
  6
CONTINUOUS
 10
97.9527363006
 20
219.2233634455
 11
91.0482573727
 21
222.236741033
  0
LINE
  5
2F5
100
AcDbEntity
  8
0
100
AcDbLine
 62
7
  6
CONTINUOUS
 10
124.0145849461
 20
208.620572879
 11
99.5876152241
 21
219.2813764742
  0
LINE
  5
2F6
100
AcDbEntity
  8
0
100
AcDbLine
 62
7
  6
CONTINUOUS
 10
129.2482573727
 20
206.6559836702
 11
91.4482573727
 21
223.153256172
  0
LINE
  5
2F7
100
AcDbEntity
  8
0
100
AcDbLine
 62
7
  6
CONTINUOUS
 10
116.4297392637
 20
223.7068828629
 11
116.2829513749
 21
221.3705495571
  0
LINE
  5
2F8
100
AcDbEntity
  8
0
100
AcDbLine
 62
7
  6
CONTINUOUS
 10
123.3660568028
 20
207.1346082419
 11
124.1317422337
 21
208.8890139481
  0
LINE
  5
2F9
100
AcDbEntity
  8
0
100
AcDbLine
 62
7
  6
CONTINUOUS
 10
116.4167389628
 20
216.1789421462
 11
115.7332985121
 21
216.4772200127
  0
LINE
  5
2FA
100
AcDbEntity
  8
0
100
AcDbLine
 62
7
  6
CONTINUOUS
 10
112.0600231658
 20
218.0803688054
 11
110.6931422646
 21
218.6769245383
  0
LINE
  5
2FB
100
AcDbEntity
  8
0
100
AcDbLine
 62
7
  6
CONTINUOUS
 10
107.0198669182
 20
220.280073331
 11
106.3364264676
 21
220.5783511975
  0
LINE
  5
2FC
100
AcDbEntity
  8
0
100
AcDbLine
 62
7
  6
CONTINUOUS
 10
110.1271635688
 20
221.7658677652
 11
114.7097392637
 21
219.7658677652
  0
LINE
  5
2FD
100
AcDbEntity
  8
0
100
AcDbLine
 62
7
  6
CONTINUOUS
 10
110.2339514576
 20
224.0105495571
 11
116.2829513749
 21
221.3705495571
  0
LINE
  5
2FE
100
AcDbEntity
  8
0
100
AcDbLine
 62
7
  6
CONTINUOUS
 10
124.9856411961
 20
182.1871011483
 11
125.3885718081
 21
181.2718706188
  0
LINE
  5
2FF
100
AcDbEntity
  8
0
100
AcDbLine
 62
7
  6
CONTINUOUS
 10
124.0145927879
 20
180.9869828799
 11
123.4118825657
 21
182.3679654876
  0
LINE
  5
300
100
AcDbEntity
  8
0
100
AcDbLine
 62
7
  6
CONTINUOUS
 10
128.8482577452
 20
205.7394683686
 11
129.2482573727
 21
206.6559836702
  0
LINE
  5
301
100
AcDbEntity
  8
0
100
AcDbLine
 62
7
  6
CONTINUOUS
 10
111.8471775131
 20
225.7068767771
 11
116.4297253194
 21
223.7068889487
  0
LINE
  5
302
100
AcDbEntity
  8
0
100
AcDbLine
 62
7
  6
CONTINUOUS
 10
125.0816198784
 20
207.3843261544
 11
124.5978963296
 21
208.1166263232
  0
LINE
  5
303
100
AcDbEntity
  8
0
100
AcDbLine
 62
7
  6
CONTINUOUS
 10
156.5222386871
 20
163.7412868633
 11
174.8022386871
 21
163.7412868633
  0
LINE
  5
304
100
AcDbEntity
  8
0
100
AcDbLine
 62
7
  6
CONTINUOUS
 10
181.4322386871
 20
168.4912868633
 11
179.6422386871
 21
168.1412868633
  0
LINE
  5
305
100
AcDbEntity
  8
0
100
AcDbLine
 62
7
  6
CONTINUOUS
 10
177.8622386871
 20
167.8612868633
 11
177.1670692886
 21
167.7461152202
  0
LINE
  5
306
100
AcDbEntity
  8
0
100
AcDbLine
 62
7
  6
CONTINUOUS
 10
179.3022386871
 20
168.7712868633
 11
178.8022386871
 21
168.7712868633
  0
LINE
  5
307
100
AcDbEntity
  8
0
100
AcDbLine
 62
7
  6
CONTINUOUS
 10
164.2222386871
 20
217.0123443146
 11
163.9226697216
 21
216.9092079194
  0
LINE
  5
308
100
AcDbEntity
  8
0
100
AcDbLine
 62
7
  6
CONTINUOUS
 10
163.7222386871
 20
171.2412868633
 11
157.5222386871
 21
171.2412868633
  0
LINE
  5
309
100
AcDbEntity
  8
0
100
AcDbLine
 62
7
  6
CONTINUOUS
 10
163.7222386871
 20
172.470229412
 11
164.2222386871
 21
172.470229412
  0
LINE
  5
30A
100
AcDbEntity
  8
0
100
AcDbLine
 62
7
  6
CONTINUOUS
 10
179.2253780301
 20
172.4712868633
 11
181.9222386871
 21
172.4712868633
  0
LINE
  5
30B
100
AcDbEntity
  8
0
100
AcDbLine
 62
7
  6
CONTINUOUS
 10
179.7222386871
 20
176.0012868633
 11
179.0222386871
 21
176.0012868633
  0
LINE
  5
30C
100
AcDbEntity
  8
0
100
AcDbLine
 62
7
  6
CONTINUOUS
 10
164.4222386871
 20
176.0012868633
 11
163.7222386871
 21
176.0012868633
  0
LINE
  5
30D
100
AcDbEntity
  8
0
100
AcDbLine
 62
7
  6
CONTINUOUS
 10
156.5222386871
 20
163.7412868633
 11
156.5222386871
 21
225.7412868633
  0
LINE
  5
30E
100
AcDbEntity
  8
0
100
AcDbLine
 62
7
  6
CONTINUOUS
 10
157.5222386871
 20
171.2412868633
 11
157.5222386871
 21
218.2412868633
  0
LINE
  5
30F
100
AcDbEntity
  8
0
100
AcDbLine
 62
7
  6
CONTINUOUS
 10
159.0222386871
 20
180.5412868633
 11
159.0222386871
 21
208.9412868633
  0
LINE
  5
310
100
AcDbEntity
  8
0
100
AcDbLine
 62
7
  6
CONTINUOUS
 10
164.4222386871
 20
211.8912868633
 11
163.7222386871
 21
210.5712868633
  0
LINE
  5
311
100
AcDbEntity
  8
0
100
AcDbLine
 62
7
  6
CONTINUOUS
 10
189.7222386871
 20
180.2412868633
 11
179.7222386871
 21
180.2412868633
  0
LINE
  5
312
100
AcDbEntity
  8
0
100
AcDbLine
 62
7
  6
CONTINUOUS
 10
163.7222386871
 20
180.2412868633
 11
159.3222386871
 21
180.2412868633
  0
LINE
  5
313
100
AcDbEntity
  8
0
100
AcDbLine
 62
7
  6
CONTINUOUS
 10
164.4222386871
 20
177.5912868633
 11
163.7222386871
 21
178.9112868633
  0
LINE
  5
314
100
AcDbEntity
  8
0
100
AcDbLine
 62
7
  6
CONTINUOUS
 10
159.6222386871
 20
184.7412868624
 11
159.6222386871
 21
204.7412868642
  0
LINE
  5
315
100
AcDbEntity
  8
0
100
AcDbLine
 62
7
  6
CONTINUOUS
 10
163.7222386871
 20
171.2412868633
 11
163.7222386871
 21
172.8340253245
  0
LINE
  5
316
100
AcDbEntity
  8
0
100
AcDbLine
 62
7
  6
CONTINUOUS
 10
163.7222386871
 20
172.856360544
 11
163.7222386871
 21
180.2412868633
  0
LINE
  5
317
100
AcDbEntity
  8
0
100
AcDbLine
 62
7
  6
CONTINUOUS
 10
163.7222386871
 20
209.2412868633
 11
163.7222386871
 21
216.6262131825
  0
LINE
  5
318
100
AcDbEntity
  8
0
100
AcDbLine
 62
7
  6
CONTINUOUS
 10
163.7222386871
 20
216.648548402
 11
163.7222386871
 21
218.2412868633
  0
LINE
  5
319
100
AcDbEntity
  8
0
100
AcDbLine
 62
7
  6
CONTINUOUS
 10
189.4222386871
 20
184.7412868624
 11
159.6222386871
 21
184.7412868624
  0
LINE
  5
31A
100
AcDbEntity
  8
0
100
AcDbLine
 62
7
  6
CONTINUOUS
 10
164.4222386871
 20
176.0012868633
 11
164.4222386871
 21
177.5912868633
  0
LINE
  5
31B
100
AcDbEntity
  8
0
100
AcDbLine
 62
7
  6
CONTINUOUS
 10
164.4222386871
 20
211.8912868633
 11
164.4222386871
 21
213.4812868633
  0
LINE
  5
31C
100
AcDbEntity
  8
0
100
AcDbLine
 62
7
  6
CONTINUOUS
 10
179.6422386871
 20
221.3412868633
 11
179.3022386871
 21
220.7112868633
  0
LINE
  5
31D
100
AcDbEntity
  8
0
100
AcDbLine
 62
7
  6
CONTINUOUS
 10
179.6422386871
 20
168.1412868633
 11
179.3022386871
 21
168.7712868633
  0
LINE
  5
31E
100
AcDbEntity
  8
ASSI
100
AcDbLine
 62
2
  6
CENTER
 10
193.0222386871
 20
194.7412868633
 11
153.5222386871
 21
194.7412868633
  0
LINE
  5
31F
100
AcDbEntity
  8
0
100
AcDbLine
 62
7
  6
CONTINUOUS
 10
175.8022386871
 20
224.7412868633
 11
175.8022386871
 21
223.3443194072
  0
LINE
  5
320
100
AcDbEntity
  8
0
100
AcDbLine
 62
7
  6
CONTINUOUS
 10
175.8022386871
 20
166.1382543194
 11
175.8022386871
 21
164.7412868633
  0
LINE
  5
321
100
AcDbEntity
  8
0
100
AcDbLine
 62
7
  6
CONTINUOUS
 10
177.8622386871
 20
167.8612868633
 11
177.8622386871
 21
168.1962868633
  0
LINE
  5
322
100
AcDbEntity
  8
0
100
AcDbLine
 62
7
  6
CONTINUOUS
 10
177.8622386871
 20
221.2862868633
 11
177.8622386871
 21
221.6212868633
  0
LINE
  5
323
100
AcDbEntity
  8
0
100
AcDbLine
 62
7
  6
CONTINUOUS
 10
179.0222386871
 20
176.0012868633
 11
179.0222386871
 21
177.5912868633
  0
LINE
  5
324
100
AcDbEntity
  8
0
100
AcDbLine
 62
7
  6
CONTINUOUS
 10
179.0222386871
 20
211.8912868633
 11
179.0222386871
 21
213.4812868633
  0
LINE
  5
325
100
AcDbEntity
  8
0
100
AcDbLine
 62
7
  6
CONTINUOUS
 10
179.7222386871
 20
172.856360544
 11
179.7222386871
 21
180.2412868633
  0
LINE
  5
326
100
AcDbEntity
  8
0
100
AcDbLine
 62
7
  6
CONTINUOUS
 10
179.7222386871
 20
209.2412868633
 11
179.7222386871
 21
216.6262131825
  0
LINE
  5
327
100
AcDbEntity
  8
0
100
AcDbLine
 62
7
  6
CONTINUOUS
 10
157.5222386871
 20
171.2412868633
 11
156.5222386871
 21
170.2412868633
  0
LINE
  5
328
100
AcDbEntity
  8
0
100
AcDbLine
 62
7
  6
CONTINUOUS
 10
157.5222386871
 20
218.2412868633
 11
156.5222386871
 21
219.2412868633
  0
LINE
  5
329
100
AcDbEntity
  8
0
100
AcDbLine
 62
7
  6
CONTINUOUS
 10
181.9222386871
 20
172.0212868633
 11
181.9222386871
 21
180.2412868633
  0
LINE
  5
32A
100
AcDbEntity
  8
0
100
AcDbLine
 62
7
  6
CONTINUOUS
 10
181.9222386871
 20
209.2412868633
 11
181.9222386871
 21
217.4612868633
  0
LINE
  5
32B
100
AcDbEntity
  8
0
100
AcDbLine
 62
7
  6
CONTINUOUS
 10
181.9222386871
 20
172.0212868633
 11
181.4322386871
 21
168.4912868633
  0
LINE
  5
32C
100
AcDbEntity
  8
0
100
AcDbLine
 62
7
  6
CONTINUOUS
 10
189.4222386871
 20
204.7412868642
 11
159.6222386871
 21
204.7412868642
  0
LINE
  5
32D
100
AcDbEntity
  8
0
100
AcDbLine
 62
7
  6
CONTINUOUS
 10
181.9222386871
 20
217.4612868633
 11
181.4322386871
 21
220.9912868633
  0
LINE
  5
32E
100
AcDbEntity
  8
0
100
AcDbLine
 62
7
  6
CONTINUOUS
 10
179.7222386871
 20
178.9112868633
 11
179.0222386871
 21
177.5912868633
  0
LINE
  5
32F
100
AcDbEntity
  8
0
100
AcDbLine
 62
7
  6
CONTINUOUS
 10
179.7222386871
 20
210.5712868633
 11
179.0222386871
 21
211.8912868633
  0
LINE
  5
330
100
AcDbEntity
  8
0
100
AcDbLine
 62
7
  6
CONTINUOUS
 10
189.4222386871
 20
184.7412868624
 11
189.4222386871
 21
204.7412868642
  0
LINE
  5
331
100
AcDbEntity
  8
0
100
AcDbLine
 62
7
  6
CONTINUOUS
 10
190.0222386871
 20
180.5412868633
 11
190.0222386871
 21
208.9412868633
  0
LINE
  5
332
100
AcDbEntity
  8
0
100
AcDbLine
 62
7
  6
CONTINUOUS
 10
189.7222386871
 20
209.2412868633
 11
179.7222386871
 21
209.2412868633
  0
LINE
  5
333
100
AcDbEntity
  8
0
100
AcDbLine
 62
7
  6
CONTINUOUS
 10
163.7222386871
 20
209.2412868633
 11
159.3222386871
 21
209.2412868633
  0
LINE
  5
334
100
AcDbEntity
  8
0
100
AcDbLine
 62
7
  6
CONTINUOUS
 10
179.7222386871
 20
213.4812868633
 11
179.0222386871
 21
213.4812868633
  0
LINE
  5
335
100
AcDbEntity
  8
0
100
AcDbLine
 62
7
  6
CONTINUOUS
 10
164.4222386871
 20
213.4812868633
 11
163.7222386871
 21
213.4812868633
  0
LINE
  5
336
100
AcDbEntity
  8
0
100
AcDbLine
 62
7
  6
CONTINUOUS
 10
179.2253780301
 20
217.0112868633
 11
181.9222386871
 21
217.0112868633
  0
LINE
  5
337
100
AcDbEntity
  8
0
100
AcDbLine
 62
7
  6
CONTINUOUS
 10
163.7222386871
 20
217.0123443146
 11
164.2222386871
 21
217.0123443146
  0
LINE
  5
338
100
AcDbEntity
  8
0
100
AcDbLine
 62
7
  6
CONTINUOUS
 10
163.7222386871
 20
218.2412868633
 11
157.5222386871
 21
218.2412868633
  0
LINE
  5
339
100
AcDbEntity
  8
0
100
AcDbLine
 62
7
  6
CONTINUOUS
 10
179.5218076526
 20
216.9092079194
 11
179.2253780301
 21
217.0112868633
  0
LINE
  5
33A
100
AcDbEntity
  8
0
100
AcDbLine
 62
7
  6
CONTINUOUS
 10
178.8022386871
 20
168.7712868633
 11
177.8622386871
 21
168.1962868633
  0
LINE
  5
33B
100
AcDbEntity
  8
0
100
AcDbLine
 62
7
  6
CONTINUOUS
 10
179.3022386871
 20
220.7112868633
 11
178.8022386871
 21
220.7112868633
  0
LINE
  5
33C
100
AcDbEntity
  8
0
100
AcDbLine
 62
7
  6
CONTINUOUS
 10
178.8022386871
 20
220.7112868633
 11
177.8622386871
 21
221.2862868633
  0
LINE
  5
33D
100
AcDbEntity
  8
0
100
AcDbLine
 62
7
  6
CONTINUOUS
 10
177.8622386871
 20
221.6212868633
 11
177.1670692886
 21
221.7364585063
  0
LINE
  5
33E
100
AcDbEntity
  8
0
100
AcDbLine
 62
7
  6
CONTINUOUS
 10
181.4322386871
 20
220.9912868633
 11
179.6422386871
 21
221.3412868633
  0
LINE
  5
33F
100
AcDbEntity
  8
0
100
AcDbLine
 62
7
  6
CONTINUOUS
 10
156.5222386871
 20
225.7412868633
 11
174.8022386871
 21
225.7412868633
  0
ARC
  5
340
100
AcDbEntity
  8
0
100
AcDbCircle
 62
7
  6
CONTINUOUS
 10
34.0482573727
 20
194.7412868633
 40
13.0
100
AcDbArc
 50
113.5781784782
 51
254.4213118624
  0
ARC
  5
341
100
AcDbEntity
  8
0
100
AcDbCircle
 62
7
  6
CONTINUOUS
 10
34.0482573727
 20
194.7412868633
 40
12.0
100
AcDbArc
 50
113.5781784782
 51
254.7560695536
  0
CIRCLE
  5
342
100
AcDbEntity
  8
0
100
AcDbCircle
 62
7
  6
CONTINUOUS
 10
34.0482573727
 20
194.7412868633
 40
10.6
  0
CIRCLE
  5
343
100
AcDbEntity
  8
0
100
AcDbCircle
 62
7
  6
CONTINUOUS
 10
34.0482573727
 20
194.7412868633
 40
10.5
  0
CIRCLE
  5
344
100
AcDbEntity
  8
0
100
AcDbCircle
 62
7
  6
CONTINUOUS
 10
34.0482573727
 20
194.7412868633
 40
5.25
  0
ARC
  5
345
100
AcDbEntity
  8
0
100
AcDbCircle
 62
7
  6
CONTINUOUS
 10
79.0482573727
 20
194.7412868633
 40
31.0
100
AcDbArc
 50
246.2377928137
 51
293.7622071863
  0
ARC
  5
346
100
AcDbEntity
  8
0
100
AcDbCircle
 62
7
  6
CONTINUOUS
 10
79.0482573727
 20
194.7412868633
 40
31.0
100
AcDbArc
 50
66.4218215218
 51
113.5781784782
  0
ARC
  5
347
100
AcDbEntity
  8
0
100
AcDbCircle
 62
7
  6
CONTINUOUS
 10
79.0482573727
 20
194.7412868633
 40
30.0
100
AcDbArc
 50
246.2377928137
 51
293.7622071863
  0
ARC
  5
348
100
AcDbEntity
  8
0
100
AcDbCircle
 62
7
  6
CONTINUOUS
 10
79.0482573727
 20
194.7412868633
 40
30.0
100
AcDbArc
 50
66.4218215218
 51
113.5781784782
  0
CIRCLE
  5
349
100
AcDbEntity
  8
0
100
AcDbCircle
 62
7
  6
CONTINUOUS
 10
79.0482573727
 20
194.7412868633
 40
28.6030325439
  0
CIRCLE
  5
34A
100
AcDbEntity
  8
0
100
AcDbCircle
 62
7
  6
CONTINUOUS
 10
79.0482573727
 20
194.7412868633
 40
28.0376419808
  0
CIRCLE
  5
34B
100
AcDbEntity
  8
0
100
AcDbCircle
 62
7
  6
CONTINUOUS
 10
79.0482573727
 20
194.7412868633
 40
26.9951716431
  0
CIRCLE
  5
34C
100
AcDbEntity
  8
0
100
AcDbCircle
 62
7
  6
CONTINUOUS
 10
79.0482573727
 20
194.7412868633
 40
26.88
  0
CIRCLE
  5
34D
100
AcDbEntity
  8
0
100
AcDbCircle
 62
7
  6
CONTINUOUS
 10
79.0482573727
 20
194.7412868633
 40
26.6
  0
CIRCLE
  5
34E
100
AcDbEntity
  8
0
100
AcDbCircle
 62
7
  6
CONTINUOUS
 10
79.0482573727
 20
194.7412868633
 40
26.25
  0
CIRCLE
  5
34F
100
AcDbEntity
  8
0
100
AcDbCircle
 62
7
  6
CONTINUOUS
 10
79.0482573727
 20
194.7412868633
 40
22.72
  0
CIRCLE
  5
350
100
AcDbEntity
  8
0
100
AcDbCircle
 62
7
  6
CONTINUOUS
 10
79.0482573727
 20
194.7412868633
 40
22.27
  0
CIRCLE
  5
351
100
AcDbEntity
  8
0
100
AcDbCircle
 62
7
  6
CONTINUOUS
 10
79.0482573727
 20
194.7412868633
 40
22.1679210562
  0
CIRCLE
  5
352
100
AcDbEntity
  8
0
100
AcDbCircle
 62
7
  6
CONTINUOUS
 10
79.0482573727
 20
194.7412868633
 40
21.8849263193
  0
CIRCLE
  5
353
100
AcDbEntity
  8
0
100
AcDbCircle
 62
7
  6
CONTINUOUS
 10
79.0482573727
 20
194.7412868633
 40
18.74
  0
CIRCLE
  5
354
100
AcDbEntity
  8
0
100
AcDbCircle
 62
7
  6
CONTINUOUS
 10
79.0482573727
 20
194.7412868633
 40
17.15
  0
CIRCLE
  5
355
100
AcDbEntity
  8
0
100
AcDbCircle
 62
7
  6
CONTINUOUS
 10
79.0482573727
 20
194.7412868633
 40
15.83
  0
CIRCLE
  5
356
100
AcDbEntity
  8
0
100
AcDbCircle
 62
7
  6
CONTINUOUS
 10
79.0482573727
 20
194.7412868633
 40
14.5
  0
CIRCLE
  5
357
100
AcDbEntity
  8
0
100
AcDbCircle
 62
7
  6
CONTINUOUS
 10
79.0482573727
 20
194.7412868633
 40
14.2
  0
ARC
  5
358
100
AcDbEntity
  8
0
100
AcDbCircle
 62
7
  6
CONTINUOUS
 10
124.0482573727
 20
194.7412868633
 40
13.0
100
AcDbArc
 50
285.5786881376
 51
66.4218215218
  0
ARC
  5
359
100
AcDbEntity
  8
0
100
AcDbCircle
 62
7
  6
CONTINUOUS
 10
124.0482573727
 20
194.7412868633
 40
12.0
100
AcDbArc
 50
285.2439262932
 51
66.4225067071
  0
CIRCLE
  5
35A
100
AcDbEntity
  8
0
100
AcDbCircle
 62
7
  6
CONTINUOUS
 10
79.0482573727
 20
194.7412868633
 40
10.6000000009
  0
CIRCLE
  5
35B
100
AcDbEntity
  8
0
100
AcDbCircle
 62
7
  6
CONTINUOUS
 10
124.0482573727
 20
194.7412868633
 40
10.6
  0
CIRCLE
  5
35C
100
AcDbEntity
  8
0
100
AcDbCircle
 62
7
  6
CONTINUOUS
 10
124.0482573727
 20
194.7412868633
 40
10.5
  0
CIRCLE
  5
35D
100
AcDbEntity
  8
0
100
AcDbCircle
 62
7
  6
CONTINUOUS
 10
79.0482573727
 20
194.7412868633
 40
10.0000000009
  0
CIRCLE
  5
35E
100
AcDbEntity
  8
0
100
AcDbCircle
 62
7
  6
CONTINUOUS
 10
124.0482573727
 20
194.7412868633
 40
5.25
  0
ARC
  5
35F
100
AcDbEntity
  8
0
100
AcDbCircle
 62
7
  6
CONTINUOUS
 10
106.977890713
 20
225.6494331992
 40
5.0
100
AcDbArc
 50
263.0961759939
 51
309.0393938746
  0
ARC
  5
360
100
AcDbEntity
  8
0
100
AcDbCircle
 62
7
  6
CONTINUOUS
 10
119.6987220164
 20
220.097607261
 40
5.0
100
AcDbArc
 50
183.804249169
 51
229.7474670497
  0
ARC
  5
361
100
AcDbEntity
  8
0
100
AcDbCircle
 62
7
  6
CONTINUOUS
 10
105.8246999813
 20
218.2826852332
 40
1.3
100
AcDbArc
 50
226.1809556918
 51
238.1958876415
  0
ARC
  5
362
100
AcDbEntity
  8
0
100
AcDbCircle
 62
7
  6
CONTINUOUS
 10
115.0815028852
 20
214.2426852332
 40
1.3
100
AcDbArc
 50
254.6477554021
 51
266.6626871529
  0
ARC
  5
363
100
AcDbEntity
  8
0
100
AcDbCircle
 62
7
  6
CONTINUOUS
 10
113.8756661696
 20
224.1047662208
 40
1.1569631166
100
AcDbArc
 50
11.0211505577
 51
121.8224924859
  0
ARC
  5
364
100
AcDbEntity
  8
0
100
AcDbCircle
 62
7
  6
CONTINUOUS
 10
168.2122386871
 20
171.5412868633
 40
1.5
100
AcDbArc
 50
170.9408895771
 51
351.8526886823
  0
ARC
  5
365
100
AcDbEntity
  8
0
100
AcDbCircle
 62
7
  6
CONTINUOUS
 10
159.6222386871
 20
184.1412868624
 40
0.6
100
AcDbArc
 50
90.0
 51
180.0
  0
ARC
  5
366
100
AcDbEntity
  8
0
100
AcDbCircle
 62
7
  6
CONTINUOUS
 10
159.3222386871
 20
180.5412868633
 40
0.3
100
AcDbArc
 50
180.0
 51
270.0
  0
ARC
  5
367
100
AcDbEntity
  8
0
100
AcDbCircle
 62
7
  6
CONTINUOUS
 10
164.0222386871
 20
172.856360544
 40
0.3
100
AcDbArc
 50
180.0
 51
250.6160710495
  0
ARC
  5
368
100
AcDbEntity
  8
0
100
AcDbCircle
 62
7
  6
CONTINUOUS
 10
171.7222386871
 20
194.7412868633
 40
23.5
100
AcDbArc
 50
250.6160710495
 51
251.3885360335
  0
ARC
  5
369
100
AcDbEntity
  8
0
100
AcDbCircle
 62
7
  6
CONTINUOUS
 10
171.7222386871
 20
194.7412868633
 40
23.5
100
AcDbArc
 50
257.7372397885
 51
265.0563384709
  0
ARC
  5
36A
100
AcDbEntity
  8
0
100
AcDbCircle
 62
7
  6
CONTINUOUS
 10
171.7222386871
 20
194.7412868633
 40
23.5
100
AcDbArc
 50
108.6114639665
 51
109.3839289505
  0
ARC
  5
36B
100
AcDbEntity
  8
0
100
AcDbCircle
 62
7
  6
CONTINUOUS
 10
171.7222386871
 20
194.7412868633
 40
23.5
100
AcDbArc
 50
94.9436615291
 51
102.2627602115
  0
ARC
  5
36C
100
AcDbEntity
  8
0
100
AcDbCircle
 62
7
  6
CONTINUOUS
 10
171.7222386871
 20
194.7412868633
 40
23.5
100
AcDbArc
 50
288.6195406092
 51
289.3839289505
  0
ARC
  5
36D
100
AcDbEntity
  8
0
100
AcDbCircle
 62
7
  6
CONTINUOUS
 10
171.7222386871
 20
194.7412868633
 40
23.5
100
AcDbArc
 50
70.6160710495
 51
71.3804593908
  0
ARC
  5
36E
100
AcDbEntity
  8
0
100
AcDbCircle
 62
7
  6
CONTINUOUS
 10
168.2122386871
 20
217.9412868633
 40
1.5
100
AcDbArc
 50
8.1473113177
 51
189.0591104229
  0
ARC
  5
36F
100
AcDbEntity
  8
0
100
AcDbCircle
 62
7
  6
CONTINUOUS
 10
159.6222386871
 20
205.3412868642
 40
0.6
100
AcDbArc
 50
180.0
 51
270.0
  0
ARC
  5
370
100
AcDbEntity
  8
0
100
AcDbCircle
 62
7
  6
CONTINUOUS
 10
164.0222386871
 20
216.6262131825
 40
0.3
100
AcDbArc
 50
109.3839289505
 51
180.0
  0
ARC
  5
371
100
AcDbEntity
  8
0
100
AcDbCircle
 62
7
  6
CONTINUOUS
 10
159.3222386871
 20
208.9412868633
 40
0.3
100
AcDbArc
 50
90.0
 51
180.0
  0
ARC
  5
372
100
AcDbEntity
  8
0
100
AcDbCircle
 62
7
  6
CONTINUOUS
 10
177.4122386871
 20
166.2662868633
 40
1.5
100
AcDbArc
 50
99.406986766
 51
163.0479064046
  0
ARC
  5
373
100
AcDbEntity
  8
0
100
AcDbCircle
 62
7
  6
CONTINUOUS
 10
174.8022386871
 20
164.7412868633
 40
1.0
100
AcDbArc
 50
270.0
 51
360.0
  0
ARC
  5
374
100
AcDbEntity
  8
0
100
AcDbCircle
 62
7
  6
CONTINUOUS
 10
176.8022386871
 20
166.1382543194
 40
1.0
100
AcDbArc
 50
145.5705828986
 51
180.0
  0
ARC
  5
375
100
AcDbEntity
  8
0
100
AcDbCircle
 62
7
  6
CONTINUOUS
 10
189.4222386871
 20
184.1412868624
 40
0.6
100
AcDbArc
 50
0.0
 51
90.0
  0
ARC
  5
376
100
AcDbEntity
  8
0
100
AcDbCircle
 62
7
  6
CONTINUOUS
 10
179.4222386871
 20
172.856360544
 40
0.3
100
AcDbArc
 50
289.3839289505
 51
360.0
  0
ARC
  5
377
100
AcDbEntity
  8
0
100
AcDbCircle
 62
7
  6
CONTINUOUS
 10
189.7222386871
 20
180.5412868633
 40
0.3
100
AcDbArc
 50
270.0
 51
360.0
  0
ARC
  5
378
100
AcDbEntity
  8
0
100
AcDbCircle
 62
7
  6
CONTINUOUS
 10
177.4122386871
 20
223.2162868633
 40
1.5
100
AcDbArc
 50
196.9520935954
 51
260.593013234
  0
ARC
  5
379
100
AcDbEntity
  8
0
100
AcDbCircle
 62
7
  6
CONTINUOUS
 10
174.8022386871
 20
224.7412868633
 40
1.0
100
AcDbArc
 50
0.0
 51
90.0
  0
ARC
  5
37A
100
AcDbEntity
  8
0
100
AcDbCircle
 62
7
  6
CONTINUOUS
 10
176.8022386871
 20
223.3443194072
 40
1.0
100
AcDbArc
 50
180.0
 51
214.4294171014
  0
ARC
  5
37B
100
AcDbEntity
  8
0
100
AcDbCircle
 62
7
  6
CONTINUOUS
 10
189.4222386871
 20
205.3412868642
 40
0.6
100
AcDbArc
 50
270.0
 51
360.0
  0
ARC
  5
37C
100
AcDbEntity
  8
0
100
AcDbCircle
 62
7
  6
CONTINUOUS
 10
179.4222386871
 20
216.6262131825
 40
0.3
100
AcDbArc
 50
0.0
 51
70.6160710495
  0
ARC
  5
37D
100
AcDbEntity
  8
0
100
AcDbCircle
 62
7
  6
CONTINUOUS
 10
189.7222386871
 20
208.9412868633
 40
0.3
100
AcDbArc
 50
0.0
 51
90.0
  0
SPLINE
  5
37E
100
AcDbEntity
  8
0
100
AcDbSpline
 62
7
  6
CONTINUOUS
 70
0
 71
3
 72
14
 73
10
 74
8
 42
0.0000001
 43
0.0000001
 44
0.0000000001
 12
-0.8784128014
 22
0.2656871034
 32
0.0
 13
-0.5309470545
 23
-0.7485278298
 33
0.0
 40
0.0
 40
0.0
 40
0.0
 40
0.0
 40
0.2414018572
 40
0.3628632633
 40
0.4852103685
 40
0.6089996382
 40
0.735153565
 40
0.8650786129
 40
1.0
 40
1.0
 40
1.0
 40
1.0
 10
112.0600231658
 20
218.0803688054
 30
0.0
 10
111.9893396719
 20
218.1017479254
 30
0.0
 10
111.8812220048
 20
218.1285428646
 30
0.0
 10
111.7339393473
 20
218.1480810505
 30
0.0
 10
111.6213752718
 20
218.1525423379
 30
0.0
 10
111.5075050071
 20
218.1437136558
 30
0.0
 10
111.3938039899
 20
218.1168292686
 30
0.0
 10
111.2847638599
 20
218.0649535279
 30
0.0
 10
111.2240601779
 20
218.0081247883
 30
0.0
 10
111.2001814735
 20
217.9744606506
 30
0.0
 11
112.0600231658
 21
218.0803688054
 31
0.0
 11
111.8445876655
 21
218.1320074825
 31
0.0
 11
111.7340465487
 21
218.1463431689
 31
0.0
 11
111.6218382404
 21
218.1503445621
 31
0.0
 11
111.5086296729
 21
218.140884625
 31
0.0
 11
111.3962031955
 21
218.1132491045
 31
0.0
 11
111.2893231212
 21
218.0603964804
 31
0.0
 11
111.2001814735
 21
217.9744606506
 31
0.0
  0
SPLINE
  5
37F
100
AcDbEntity
  8
0
100
AcDbSpline
 62
7
  6
CONTINUOUS
 70
0
 71
3
 72
27
 73
23
 74
21
 42
0.0000001
 43
0.0000001
 44
0.0000000001
 12
-2.6329870414
 22
-6.0329312105
 32
0.0
 13
2.6329870414
 23
6.0329312105
 33
0.0
 40
0.0
 40
0.0
 40
0.0
 40
0.0
 40
0.0347108064
 40
0.0686219189
 40
0.101515371
 40
0.1335645899
 40
0.1959426784
 40
0.2572620418
 40
0.3181283653
 40
0.3788081745
 40
0.4394159903
 40
0.4999999431
 40
0.5605839114
 40
0.6211917465
 40
0.6818715645
 40
0.7427378596
 40
0.804057204
 40
0.8664352939
 40
0.8984845408
 40
0.9313780258
 40
0.9652891808
 40
1.0
 40
1.0
 40
1.0
 40
1.0
 10
110.4531014159
 20
216.2626851935
 30
0.0
 10
110.4226370481
 20
216.1928825578
 30
0.0
 10
110.3836226853
 20
216.0446215762
 30
0.0
 10
110.3902083125
 20
215.8195545335
 30
0.0
 10
110.4473194197
 20
215.6086357764
 30
0.0
 10
110.5694830486
 20
215.3560754491
 30
0.0
 10
110.7828024696
 20
215.0845659002
 30
0.0
 10
111.0876319395
 20
214.8161947764
 30
0.0
 10
111.4187870544
 20
214.5884634801
 30
0.0
 10
111.7653274963
 20
214.3888240675
 30
0.0
 10
112.1215013048
 20
214.2085620774
 30
0.0
 10
112.4842922589
 20
214.0426526577
 30
0.0
 10
112.8526369629
 20
213.8894683797
 30
0.0
 10
113.2270054719
 20
213.7508954302
 30
0.0
 10
113.6090309947
 20
213.6325625382
 30
0.0
 10
114.0011917102
 20
213.5446128048
 30
0.0
 10
114.4052485844
 20
213.5036003278
 30
0.0
 10
114.7493799173
 20
213.5318182338
 30
0.0
 10
115.0176316589
 20
213.6139872752
 30
0.0
 10
115.2111156661
 20
213.7155374584
 30
0.0
 10
115.3806160144
 20
213.8637544022
 30
0.0
 10
115.4627931617
 20
213.9931777251
 30
0.0
 10
115.4932575407
 20
214.0629803865
 30
0.0
 11
110.4531014159
 21
216.2626851935
 31
0.0
 11
110.3942892927
 21
216.0419013511
 31
0.0
 11
110.399102624
 21
215.8187344531
 31
0.0
 11
110.4541675149
 21
215.6093333929
 31
0.0
 11
110.5448442657
 21
215.4188521833
 31
0.0
 11
110.7931220464
 21
215.0918171123
 31
0.0
 11
111.0932824008
 21
214.8219594892
 31
0.0
 11
111.4219148619
 21
214.5927835507
 31
0.0
 11
111.7671621267
 21
214.3919279753
 31
0.0
 11
112.1226826987
 21
214.2109157801
 31
0.0
 11
112.4852177245
 21
214.0447732528
 31
0.0
 11
112.8535593604
 21
213.8919350845
 31
0.0
 11
113.2280337738
 21
213.7543512667
 31
0.0
 11
113.6100716901
 21
213.6377935027
 31
0.0
 11
114.0015761332
 21
213.5526757804
 31
0.0
 11
114.4035479104
 21
213.5160975819
 31
0.0
 11
114.8121629099
 21
213.5564409088
 31
0.0
 11
115.0134864463
 21
213.619482765
 31
0.0
 11
115.204466222
 21
213.7215012202
 31
0.0
 11
115.371368264
 21
213.8697255972
 31
0.0
 11
115.4932575407
 21
214.0629803865
 31
0.0
  0
SPLINE
  5
380
100
AcDbEntity
  8
0
100
AcDbSpline
 62
7
  6
CONTINUOUS
 70
0
 71
3
 72
14
 73
10
 74
8
 42
0.0000001
 43
0.0000001
 44
0.0000000001
 12
0.187785655
 22
0.8982956475
 32
0.0
 13
-0.7921256298
 23
0.4633956291
 33
0.0
 40
0.0
 40
0.0
 40
0.0
 40
0.0
 40
0.1349260573
 40
0.2648512658
 40
0.3910050469
 40
0.5147932223
 40
0.6371392622
 40
0.7585997872
 40
1.0
 40
1.0
 40
1.0
 40
1.0
 10
116.2403377211
 20
215.774756125
 30
0.0
 10
116.2487834471
 20
215.8151572883
 30
0.0
 10
116.24917162
 20
215.8983110782
 30
0.0
 10
116.2130596383
 20
216.0135374303
 30
0.0
 10
116.1554532645
 20
216.1151844906
 30
0.0
 10
116.0844952502
 20
216.2046784039
 30
0.0
 10
116.0046810542
 20
216.2841772214
 30
0.0
 10
115.8902039399
 20
216.3788797875
 30
0.0
 10
115.7970382773
 20
216.4399320782
 30
0.0
 10
115.7332985121
 20
216.4772200127
 30
0.0
 11
116.2403377211
 21
215.774756125
 31
0.0
 11
116.2427298905
 21
215.8985565131
 31
0.0
 11
116.208802837
 21
216.0128619705
 31
0.0
 11
116.152614358
 21
216.1140857625
 31
0.0
 11
116.0825689748
 21
216.2035233595
 31
0.0
 11
116.0033339925
 21
216.2830740428
 31
0.0
 11
115.917655465
 21
216.3543752184
 31
0.0
 11
115.7332985121
 21
216.4772200127
 31
0.0
  0
SPLINE
  5
381
100
AcDbEntity
  8
0
100
AcDbSpline
 62
7
  6
CONTINUOUS
 70
0
 71
3
 72
14
 73
10
 74
8
 42
0.0000001
 43
0.0000001
 44
0.0000000001
 12
-0.8784128014
 22
0.2656871034
 32
0.0
 13
-0.5309470545
 23
-0.7485278298
 33
0.0
 40
0.0
 40
0.0
 40
0.0
 40
0.0
 40
0.2414018572
 40
0.3628632633
 40
0.4852103685
 40
0.6089996382
 40
0.735153565
 40
0.8650786129
 40
1.0
 40
1.0
 40
1.0
 40
1.0
 10
107.0198669182
 20
220.280073331
 30
0.0
 10
106.9491834243
 20
220.301452451
 30
0.0
 10
106.8410657572
 20
220.3282473902
 30
0.0
 10
106.6937830998
 20
220.3477855761
 30
0.0
 10
106.5812190242
 20
220.3522468635
 30
0.0
 10
106.4673487595
 20
220.3434181814
 30
0.0
 10
106.3536477423
 20
220.3165337942
 30
0.0
 10
106.2446076123
 20
220.2646580535
 30
0.0
 10
106.1839039303
 20
220.2078293139
 30
0.0
 10
106.160025226
 20
220.1741651762
 30
0.0
 11
107.0198669182
 21
220.280073331
 31
0.0
 11
106.8044314179
 21
220.3317120081
 31
0.0
 11
106.6938903012
 21
220.3460476945
 31
0.0
 11
106.5816819928
 21
220.3500490877
 31
0.0
 11
106.4684734253
 21
220.3405891506
 31
0.0
 11
106.3560469479
 21
220.3129536302
 31
0.0
 11
106.2491668736
 21
220.2601010061
 31
0.0
 11
106.160025226
 21
220.1741651762
 31
0.0
  0
SPLINE
  5
382
100
AcDbEntity
  8
0
100
AcDbSpline
 62
7
  6
CONTINUOUS
 70
0
 71
3
 72
27
 73
23
 74
21
 42
0.0000001
 43
0.0000001
 44
0.0000000001
 12
-2.6329870101
 22
-6.0329311389
 32
0.0
 13
2.6330154191
 23
6.0329187402
 33
0.0
 40
0.0
 40
0.0
 40
0.0
 40
0.0
 40
0.0347108152
 40
0.0686219307
 40
0.1015153847
 40
0.1335646016
 40
0.1959426845
 40
0.2572620469
 40
0.3181283711
 40
0.3788081813
 40
0.4394159888
 40
0.4999999377
 40
0.5605839053
 40
0.6211917419
 40
0.6818715564
 40
0.742737848
 40
0.8040571932
 40
0.8664352869
 40
0.8984845325
 40
0.9313780155
 40
0.965289177
 40
1.0
 40
1.0
 40
1.0
 40
1.0
 10
105.4129451313
 20
218.4623896341
 30
0.0
 10
105.3824807561
 20
218.3925869815
 30
0.0
 10
105.3434664192
 20
218.2443259638
 30
0.0
 10
105.3500520921
 20
218.0192588973
 30
0.0
 10
105.4071632284
 20
217.8083401446
 30
0.0
 10
105.529326881
 20
217.5557798467
 30
0.0
 10
105.7426463079
 20
217.2842703335
 30
0.0
 10
106.047475777
 20
217.0158992372
 30
0.0
 10
106.3786308857
 20
216.7881679364
 30
0.0
 10
106.7251713356
 20
216.5885285766
 30
0.0
 10
107.0813451022
 20
216.4082665704
 30
0.0
 10
107.4441360299
 20
216.2423571709
 30
0.0
 10
107.8124807314
 20
216.0891729176
 30
0.0
 10
108.1868492241
 20
215.950599957
 30
0.0
 10
108.5688747272
 20
215.8322670541
 30
0.0
 10
108.9610354284
 20
215.7443173469
 30
0.0
 10
109.3650922989
 20
215.7033048413
 30
0.0
 10
109.7092236294
 20
215.7315227518
 30
0.0
 10
109.9774753848
 20
215.8136917818
 30
0.0
 10
110.1709593516
 20
215.9152419811
 30
0.0
 10
110.3404599018
 20
216.0634588508
 30
0.0
 10
110.4226365868
 20
216.1928823974
 30
0.0
 10
110.4531012975
 20
216.2626849222
 30
0.0
 11
105.4129451313
 21
218.4623896341
 31
0.0
 11
105.3541330268
 21
218.2416057293
 31
0.0
 11
105.3589464021
 21
218.0184388158
 31
0.0
 11
105.4140113261
 21
217.8090377534
 31
0.0
 11
105.5046880929
 21
217.6185565695
 31
0.0
 11
105.7529658755
 21
217.2915215515
 31
0.0
 11
106.0531262324
 21
217.0216639488
 31
0.0
 11
106.3817586976
 21
216.7924880155
 31
0.0
 11
106.7270059771
 21
216.5916324624
 31
0.0
 11
107.0825264901
 21
216.4106202832
 31
0.0
 11
107.4450614902
 21
216.2444777707
 31
0.0
 11
107.8134031218
 21
216.0916396184
 31
0.0
 11
108.1878775366
 21
215.9540557897
 31
0.0
 11
108.569915424
 21
215.8374980245
 31
0.0
 11
108.9614198412
 21
215.7523803153
 31
0.0
 11
109.3633916173
 21
215.7158021016
 31
0.0
 11
109.7720066377
 21
215.7561454255
 31
0.0
 11
109.9733301645
 21
215.8191872754
 31
0.0
 11
110.1643099301
 21
215.9212057169
 31
0.0
 11
110.3312120056
 21
216.069430116
 31
0.0
 11
110.4531012975
 21
216.2626849222
 31
0.0
  0
SPLINE
  5
383
100
AcDbEntity
  8
0
100
AcDbSpline
 62
7
  6
CONTINUOUS
 70
0
 71
3
 72
14
 73
10
 74
8
 42
0.0000001
 43
0.0000001
 44
0.0000000001
 12
0.187785655
 22
0.8982956475
 32
0.0
 13
-0.7921256298
 23
0.4633956291
 33
0.0
 40
0.0
 40
0.0
 40
0.0
 40
0.0
 40
0.1349260573
 40
0.2648512658
 40
0.3910050469
 40
0.5147932223
 40
0.6371392622
 40
0.7585997872
 40
1.0
 40
1.0
 40
1.0
 40
1.0
 10
111.2001814735
 20
217.9744606506
 30
0.0
 10
111.2086271996
 20
218.0148618139
 30
0.0
 10
111.2090153725
 20
218.0980156038
 30
0.0
 10
111.1729033907
 20
218.2132419559
 30
0.0
 10
111.1152970169
 20
218.3148890162
 30
0.0
 10
111.0443390027
 20
218.4043829295
 30
0.0
 10
110.9645248066
 20
218.4838817471
 30
0.0
 10
110.8500476923
 20
218.5785843131
 30
0.0
 10
110.7568820298
 20
218.6396366038
 30
0.0
 10
110.6931422646
 20
218.6769245383
 30
0.0
 11
111.2001814735
 21
217.9744606506
 31
0.0
 11
111.2025736429
 21
218.0982610387
 31
0.0
 11
111.1686465894
 21
218.2125664961
 31
0.0
 11
111.1124581104
 21
218.3137902881
 31
0.0
 11
111.0424127272
 21
218.4032278852
 31
0.0
 11
110.963177745
 21
218.4827785684
 31
0.0
 11
110.8774992174
 21
218.554079744
 31
0.0
 11
110.6931422646
 21
218.6769245383
 31
0.0
  0
SPLINE
  5
384
100
AcDbEntity
  8
0
100
AcDbSpline
 62
7
  6
CONTINUOUS
 70
0
 71
3
 72
13
 73
9
 74
7
 42
0.0000001
 43
0.0000001
 44
0.0000000001
 12
-0.0028806732
 22
-1.0603291208
 32
0.0
 13
0.9715706943
 23
-0.424684034
 33
0.0
 40
0.0
 40
0.0
 40
0.0
 40
0.0
 40
0.246086041
 40
0.4937920589
 40
0.6188657523
 40
0.7449069012
 40
0.8720567152
 40
1.0
 40
1.0
 40
1.0
 40
1.0
 10
98.8214686618
 20
219.3664788944
 30
0.0
 10
98.821232364
 20
219.2795014959
 30
0.0
 10
98.830479994
 20
219.1047893241
 30
0.0
 10
98.8751803862
 20
218.8890864884
 30
0.0
 10
98.9413865345
 20
218.7251369714
 30
0.0
 10
99.0103431867
 20
218.6097340592
 30
0.0
 10
99.1028452753
 20
218.5101658748
 30
0.0
 10
99.1804944838
 20
218.4615977274
 30
0.0
 10
99.2219297992
 20
218.443485904
 30
0.0
 11
98.8214686618
 21
219.3664788944
 31
0.0
 11
98.8370110772
 21
219.1060090372
 31
0.0
 11
98.8939954585
 21
218.8496142993
 31
0.0
 11
98.9443462662
 21
218.7269244495
 31
0.0
 11
99.0139311529
 21
218.61282323
 31
0.0
 11
99.1065626537
 21
218.5148633045
 31
0.0
 11
99.2219297992
 21
218.443485904
 31
0.0
  0
SPLINE
  5
385
100
AcDbEntity
  8
0
100
AcDbSpline
 62
7
  6
CONTINUOUS
 70
0
 71
3
 72
15
 73
11
 74
9
 42
0.0000001
 43
0.0000001
 44
0.0000000001
 12
0.2967337986
 22
-1.782264578
 32
0.0
 13
1.6551583484
 23
-0.7245473172
 33
0.0
 40
0.0
 40
0.0
 40
0.0
 40
0.0
 40
0.1251087898
 40
0.1877159468
 40
0.2502976038
 40
0.3753816896
 40
0.5004857344
 40
0.6255665124
 40
0.7506470599
 40
1.0
 40
1.0
 40
1.0
 40
1.0
 10
97.9527363006
 20
219.2233634455
 30
0.0
 10
97.9651109694
 20
219.1490377906
 30
0.0
 10
97.9896369774
 20
219.0384433895
 30
0.0
 10
98.031617223
 20
218.8936395972
 30
0.0
 10
98.0794130264
 20
218.7506469172
 30
0.0
 10
98.1522108193
 20
218.5764926997
 30
0.0
 10
98.2630344741
 20
218.3789089555
 30
0.0
 10
98.39783202
 20
218.1966254433
 30
0.0
 10
98.6078765362
 20
217.9803584926
 30
0.0
 10
98.8015142198
 20
217.8556345021
 30
0.0
 10
98.9390870867
 20
217.7954118342
 30
0.0
 11
97.9527363006
 21
219.2233634455
 31
0.0
 11
98.0008938101
 21
219.0025065396
 31
0.0
 11
98.0323495635
 21
218.8938496329
 31
0.0
 11
98.0683485054
 21
218.7866608153
 31
0.0
 11
98.1561188658
 21
218.5783987084
 31
0.0
 11
98.2670380375
 21
218.3814469883
 31
0.0
 11
98.401665307
 21
218.1999269118
 31
0.0
 11
98.5596587142
 21
218.0383350339
 31
0.0
 11
98.9390870867
 21
217.7954118342
 31
0.0
  0
SPLINE
  5
386
100
AcDbEntity
  8
0
100
AcDbSpline
 62
7
  6
CONTINUOUS
 70
0
 71
3
 72
12
 73
8
 74
6
 42
0.0000001
 43
0.0000001
 44
0.0000000001
 12
1.6541557003
 22
-0.7198556021
 32
0.0
 13
1.5060896712
 23
0.9930342748
 33
0.0
 40
0.0
 40
0.0
 40
0.0
 40
0.0
 40
0.249531131
 40
0.3746990714
 40
0.499871686
 40
0.7498516966
 40
1.0
 40
1.0
 40
1.0
 40
1.0
 10
123.3660568087
 20
207.134608239
 30
0.0
 10
123.5036445896
 20
207.0747327781
 30
0.0
 10
123.7265635218
 20
207.0175693644
 30
0.0
 10
124.0277193752
 20
207.0105950204
 30
0.0
 10
124.3276267064
 20
207.0437800758
 30
0.0
 10
124.6901921783
 20
207.1558363502
 30
0.0
 10
124.9557852263
 20
207.3006722584
 30
0.0
 10
125.0813671517
 20
207.3834742047
 30
0.0
 11
123.3660568087
 21
207.134608239
 31
0.0
 11
123.8018033533
 21
207.0216296421
 31
0.0
 11
124.0275265598
 21
207.0156192238
 31
0.0
 11
124.2519945756
 21
207.0402161559
 31
0.0
 11
124.6840001663
 21
207.1695996629
 31
0.0
 11
125.0813671517
 21
207.3834742047
 31
0.0
  0
SPLINE
  5
387
100
AcDbEntity
  8
0
100
AcDbSpline
 62
7
  6
CONTINUOUS
 70
0
 71
3
 72
13
 73
9
 74
7
 42
0.0000001
 43
0.0000001
 44
0.0000000001
 12
0.9720339913
 22
-0.4236209139
 32
0.0
 13
0.7754161772
 23
0.7232112492
 33
0.0
 40
0.0
 40
0.0
 40
0.0
 40
0.0
 40
0.1279431541
 40
0.2550928035
 40
0.381133283
 40
0.5062078409
 40
0.7539127944
 40
1.0
 40
1.0
 40
1.0
 40
1.0
 10
123.6488995212
 20
207.7826823088
 30
0.0
 10
123.6903545528
 20
207.7646158435
 30
0.0
 10
123.7787679245
 20
207.7407143285
 30
0.0
 10
123.9146734206
 20
207.7405879313
 30
0.0
 10
124.0461769653
 20
207.7685122949
 30
0.0
 10
124.2114083534
 20
207.8314487107
 30
0.0
 10
124.3999566239
 20
207.9453578936
 30
0.0
 10
124.5343576681
 20
208.0573683502
 30
0.0
 10
124.5979643349
 20
208.1166926954
 30
0.0
 11
123.6488995212
 21
207.7826823088
 31
0.0
 11
123.7796839879
 21
207.7466313093
 31
0.0
 11
123.9144985259
 21
207.7453225384
 31
0.0
 11
124.0454749424
 21
207.7718952943
 31
0.0
 11
124.169672385
 21
207.818405721
 31
0.0
 11
124.3964128947
 21
207.9509709684
 31
0.0
 11
124.5979643349
 21
208.1166926954
 31
0.0
  0
SPLINE
  5
388
100
AcDbEntity
  8
0
100
AcDbSpline
 62
7
  6
CONTINUOUS
 70
0
 71
3
 72
9
 73
5
 74
3
 42
0.0000001
 43
0.0000001
 44
0.0000000001
 12
-0.3749716485
 22
0.6810700648
 32
0.0
 13
-0.7124827805
 23
0.311172714
 33
0.0
 40
0.0
 40
0.0
 40
0.0
 40
0.0
 40
0.1820351813
 40
1.0
 40
1.0
 40
1.0
 40
1.0
 10
124.5979643349
 20
208.1166926954
 30
0.0
 10
124.5752116575
 20
208.1580189329
 30
0.0
 10
124.4316834211
 20
208.3745777737
 30
0.0
 10
124.2088468956
 20
208.5357301014
 30
0.0
 10
124.0145849461
 20
208.620572879
 30
0.0
 11
124.5979643349
 21
208.1166926954
 31
0.0
 11
124.520329257
 21
208.2350255937
 31
0.0
 11
124.0145849461
 21
208.620572879
 31
0.0
  0
SPLINE
  5
389
100
AcDbEntity
  8
0
100
AcDbSpline
 62
7
  6
CONTINUOUS
 70
0
 71
3
 72
13
 73
9
 74
7
 42
0.0000001
 43
0.0000001
 44
0.0000000001
 12
3.8085038777
 22
-1.2741652185
 32
0.0
 13
3.5240160067
 23
-1.9260088201
 33
0.0
 40
0.0
 40
0.0
 40
0.0
 40
0.0
 40
0.2500797475
 40
0.375057887
 40
0.5
 40
0.6249421131
 40
0.7499202525
 40
1.0
 40
1.0
 40
1.0
 40
1.0
 10
107.0198669182
 20
220.280073331
 30
0.0
 10
107.3373434809
 20
220.1738590256
 30
0.0
 10
107.8138536592
 20
220.0153833335
 30
0.0
 10
108.4405970179
 20
219.7801315511
 30
0.0
 10
108.9042720183
 20
219.5879478591
 30
0.0
 10
109.3604824284
 20
219.3786606423
 30
0.0
 10
109.9591573681
 20
219.0790960329
 30
0.0
 10
110.3993805869
 20
218.8374764714
 30
0.0
 10
110.6931422646
 20
218.6769245383
 30
0.0
 11
107.0198669182
 21
220.280073331
 31
0.0
 11
107.9699584299
 21
219.9545249657
 31
0.0
 11
108.4396068291
 21
219.7774787787
 31
0.0
 11
108.9030280395
 21
219.5850975456
 31
0.0
 11
109.359210712
 21
219.3761307389
 31
0.0
 11
109.8083840318
 21
219.1521702516
 31
0.0
 11
110.6931422646
 21
218.6769245383
 31
0.0
  0
SPLINE
  5
38A
100
AcDbEntity
  8
0
100
AcDbSpline
 62
7
  6
CONTINUOUS
 70
0
 71
3
 72
13
 73
9
 74
7
 42
0.0000001
 43
0.0000001
 44
0.0000000001
 12
-0.7185321077
 22
0.3133721464
 32
0.0
 13
-0.7605825176
 23
-0.1897491132
 33
0.0
 40
0.0
 40
0.0
 40
0.0
 40
0.0
 40
0.1714848006
 40
0.3313471185
 40
0.5402374627
 40
0.7163215177
 40
0.8674275297
 40
1.0
 40
1.0
 40
1.0
 40
1.0
 10
99.5876152241
 20
219.2813764742
 30
0.0
 10
99.5465427791
 20
219.2992893275
 30
0.0
 10
99.4654384365
 20
219.3300258443
 30
0.0
 10
99.3293529985
 20
219.3681847476
 30
0.0
 10
99.1884492166
 20
219.3911824874
 30
0.0
 10
99.0481863573
 20
219.3973647289
 30
0.0
 10
98.9281506138
 20
219.3883309386
 30
0.0
 10
98.8550794295
 20
219.3748640639
 30
0.0
 10
98.8214686618
 20
219.3664788944
 30
0.0
 11
99.5876152241
 21
219.2813764742
 31
0.0
 11
99.4619609949
 21
219.3291400504
 31
0.0
 11
99.3412375942
 21
219.3627518843
 31
0.0
 11
99.1796216829
 21
219.3890900302
 31
0.0
 11
99.0417043377
 21
219.3946979589
 31
0.0
 11
98.9235933519
 21
219.385727288
 31
0.0
 11
98.8214686618
 21
219.3664788944
 31
0.0
  0
SPLINE
  5
38B
100
AcDbEntity
  8
0
100
AcDbSpline
 62
7
  6
CONTINUOUS
 70
0
 71
3
 72
13
 73
9
 74
7
 42
0.0000001
 43
0.0000001
 44
0.0000000001
 12
-0.7046506888
 22
0.6186590996
 32
0.0
 13
-0.8594402935
 23
-0.3750120754
 33
0.0
 40
0.0
 40
0.0
 40
0.0
 40
0.0
 40
0.2458470162
 40
0.4934787215
 40
0.6185759233
 40
0.74470033
 40
0.8719485331
 40
1.0
 40
1.0
 40
1.0
 40
1.0
 10
124.5429827633
 20
181.4448916073
 30
0.0
 10
124.4852373402
 20
181.4955901052
 30
0.0
 10
124.3636161586
 20
181.5910808464
 30
0.0
 10
124.1940654531
 20
181.6867636197
 30
0.0
 10
124.0464933659
 20
181.7384825656
 30
0.0
 10
123.9295418382
 20
181.7600431924
 30
0.0
 10
123.8093657611
 20
181.7577004342
 30
0.0
 10
123.7314094749
 20
181.7358983665
 30
0.0
 10
123.6947252781
 20
181.7198914177
 30
0.0
 11
124.5429827633
 21
181.4448916073
 31
0.0
 11
124.3606704852
 21
181.5859805063
 31
0.0
 11
124.1569048718
 21
181.6973259102
 31
0.0
 11
124.045975662
 21
181.7354665095
 31
0.0
 11
123.9295086064
 21
181.7560169669
 31
0.0
 11
123.8102353273
 21
181.7526786539
 31
0.0
 11
123.6947252781
 21
181.7198914177
 31
0.0
  0
SPLINE
  5
38C
100
AcDbEntity
  8
0
100
AcDbSpline
 62
7
  6
CONTINUOUS
 70
0
 71
3
 72
12
 73
8
 74
6
 42
0.0000001
 43
0.0000001
 44
0.0000000001
 12
-1.4112319997
 22
0.8418363774
 32
0.0
 13
-1.5061377229
 23
-0.6571251044
 33
0.0
 40
0.0
 40
0.0
 40
0.0
 40
0.0
 40
0.2500885798
 40
0.5000281768
 40
0.7497685728
 40
0.8748846238
 40
1.0
 40
1.0
 40
1.0
 40
1.0
 10
124.985630401
 20
182.1870963956
 30
0.0
 10
124.8679860655
 20
182.2572742836
 30
0.0
 10
124.6206007636
 20
182.3787028975
 30
0.0
 10
124.2209295108
 20
182.4853649306
 30
0.0
 10
123.8743807509
 20
182.4926538013
 30
0.0
 10
123.604647194
 20
182.4408477436
 30
0.0
 10
123.4746962283
 20
182.3953709725
 30
0.0
 10
123.4118825657
 20
182.3679654876
 30
0.0
 11
124.985630401
 21
182.1870963956
 31
0.0
 11
124.6157343351
 21
182.3661579245
 31
0.0
 11
124.2181229601
 21
182.4690664642
 31
0.0
 11
123.8077793714
 21
182.4749262172
 31
0.0
 11
123.6059089037
 21
182.4359605717
 31
0.0
 11
123.4118825657
 21
182.3679654876
 31
0.0
  0
SPLINE
  5
38D
100
AcDbEntity
  8
0
100
AcDbSpline
 62
7
  6
CONTINUOUS
 70
0
 71
3
 72
13
 73
9
 74
7
 42
0.0000001
 43
0.0000001
 44
0.0000000001
 12
-1.6118396354
 22
-0.7038007746
 32
0.0
 13
-0.289382934
 23
-1.7348256564
 33
0.0
 40
0.0
 40
0.0
 40
0.0
 40
0.0
 40
0.1250469344
 40
0.250095566
 40
0.3751625573
 40
0.5002410593
 40
0.7500365855
 40
1.0
 40
1.0
 40
1.0
 40
1.0
 10
98.8932613297
 20
171.6671618924
 30
0.0
 10
98.826076128
 20
171.6378258493
 30
0.0
 10
98.6961611892
 20
171.5682845296
 30
0.0
 10
98.5202527273
 20
171.4348881909
 30
0.0
 10
98.3660867242
 20
171.276905555
 30
0.0
 10
98.1914875575
 20
171.040529762
 30
0.0
 10
98.0307918028
 20
170.7075768278
 30
0.0
 10
97.9584053991
 20
170.4218600332
 30
0.0
 10
97.9342936837
 20
170.277312385
 30
0.0
 11
98.8932613297
 21
171.6671618924
 31
0.0
 11
98.6993241867
 21
171.5634388124
 31
0.0
 11
98.5238868137
 21
171.4307997007
 31
0.0
 11
98.3699469107
 21
171.2736751737
 31
0.0
 11
98.2388855921
 21
171.0969905725
 31
0.0
 11
98.0448609642
 21
170.7028161491
 31
0.0
 11
97.9342936837
 21
170.277312385
 31
0.0
  0
SPLINE
  5
38E
100
AcDbEntity
  8
0
100
AcDbSpline
 62
7
  6
CONTINUOUS
 70
0
 71
3
 72
13
 73
9
 74
7
 42
0.0000001
 43
0.0000001
 44
0.0000000001
 12
-0.9300747795
 22
-0.4060469796
 32
0.0
 13
0.0086325052
 23
-1.0148096989
 33
0.0
 40
0.0
 40
0.0
 40
0.0
 40
0.0
 40
0.1281850405
 40
0.2554742118
 40
0.3815606417
 40
0.506594306
 40
0.7541409722
 40
1.0
 40
1.0
 40
1.0
 40
1.0
 10
99.1761040422
 20
171.0190878225
 30
0.0
 10
99.1363634845
 20
171.0017381064
 30
0.0
 10
99.0620194869
 20
170.954886523
 30
0.0
 10
98.9744223103
 20
170.8584944323
 30
0.0
 10
98.909527825
 20
170.7473355161
 30
0.0
 10
98.8480838926
 20
170.5897092255
 30
0.0
 10
98.8071784827
 20
170.3830845694
 30
0.0
 10
98.7995081163
 20
170.2159489711
 30
0.0
 10
98.8002155761
 20
170.1327822624
 30
0.0
 11
99.1761040422
 21
171.0190878225
 31
0.0
 11
99.0657096601
 21
170.9502692085
 31
0.0
 11
98.9778604169
 21
170.8555606348
 31
0.0
 11
98.9124035441
 21
170.7456118283
 31
0.0
 11
98.8655743001
 21
170.6276792826
 31
0.0
 11
98.8133508619
 21
170.3819454251
 31
0.0
 11
98.8002155761
 21
170.1327822624
 31
0.0
  0
SPLINE
  5
38F
100
AcDbEntity
  8
0
100
AcDbSpline
 62
7
  6
CONTINUOUS
 70
0
 71
3
 72
22
 73
18
 74
16
 42
0.0000001
 43
0.0000001
 44
0.0000000001
 12
0.1188913465
 22
-0.2677106163
 32
0.0
 13
0.2680910247
 23
0.1180310503
 33
0.0
 40
0.0
 40
0.0
 40
0.0
 40
0.0
 40
0.2249700052
 40
0.424573268
 40
0.5968016456
 40
0.740050314
 40
0.8003559907
 40
0.8529203351
 40
0.8976149001
 40
0.9343297637
 40
0.9629837669
 40
0.9742635333
 40
0.9835013771
 40
0.9906940857
 40
0.9958392567
 40
0.9989362601
 40
1.0
 40
1.0
 40
1.0
 40
1.0
 10
124.0145927879
 20
180.9869828799
 30
0.0
 10
124.0235084501
 20
180.9669072603
 30
0.0
 10
124.0403456648
 20
180.9290246321
 30
0.0
 10
124.0640536528
 20
180.8757930396
 30
0.0
 10
124.0845610075
 20
180.8298709157
 30
0.0
 10
124.0995673559
 20
180.7963881349
 30
0.0
 10
124.1098323645
 20
180.7735841158
 30
0.0
 10
124.1161665987
 20
180.7595641775
 30
0.0
 10
124.1215737775
 20
180.7476515372
 30
0.0
 10
124.1260415062
 20
180.7378806048
 30
0.0
 10
124.1291775802
 20
180.731078145
 30
0.0
 10
124.1312147367
 20
180.7267414386
 30
0.0
 10
124.1323725645
 20
180.7242731892
 30
0.0
 10
124.1332954098
 20
180.7224382781
 30
0.0
 10
124.1339572327
 20
180.7209507594
 30
0.0
 10
124.1344051213
 20
180.7203943243
 30
0.0
 10
124.1345967082
 20
180.7197894472
 30
0.0
 10
124.1346917679
 20
180.7198312986
 30
0.0
 11
124.0145927879
 21
180.9869828799
 31
0.0
 11
124.0413597675
 21
180.926764904
 31
0.0
 11
124.0651506398
 21
180.8733555763
 31
0.0
 11
124.0857260555
 21
180.8272922835
 31
0.0
 11
124.1028942371
 21
180.7890042991
 31
0.0
 11
124.1101465536
 21
180.7728967178
 31
0.0
 11
124.1164874907
 21
180.7588656736
 31
0.0
 11
124.1219015389
 21
180.7469454907
 31
0.0
 11
124.1263753681
 21
180.7371655519
 31
0.0
 11
124.1298990261
 21
180.7295475814
 31
0.0
 11
124.1313015262
 21
180.7265559061
 31
0.0
 11
124.1324631543
 21
180.7241119437
 31
0.0
 11
124.1333834323
 21
180.7222166418
 31
0.0
 11
124.1340619206
 21
180.7208708602
 31
0.0
 11
124.1344981791
 21
180.7200754592
 31
0.0
 11
124.1346917679
 21
180.7198312986
 31
0.0
  0
SPLINE
  5
390
100
AcDbEntity
  8
0
100
AcDbSpline
 62
7
  6
CONTINUOUS
 70
0
 71
3
 72
9
 73
5
 74
3
 42
0.0000001
 43
0.0000001
 44
0.0000000001
 12
0.6465945633
 22
0.2873498024
 32
0.0
 13
0.3525541738
 23
0.6134818602
 33
0.0
 40
0.0
 40
0.0
 40
0.0
 40
0.0
 40
0.5952283471
 40
1.0
 40
1.0
 40
1.0
 40
1.0
 10
124.0145927879
 20
180.9869828799
 30
0.0
 10
124.1428832589
 20
181.0439957959
 30
0.0
 10
124.3450254078
 20
181.1760864566
 30
0.0
 10
124.4954147847
 20
181.3621182518
 30
0.0
 10
124.5429827633
 20
181.4448916073
 30
0.0
 11
124.0145927879
 21
180.9869828799
 31
0.0
 11
124.3651888925
 21
181.2203551777
 31
0.0
 11
124.5429827633
 21
181.4448916073
 31
0.0
  0
SPLINE
  5
391
100
AcDbEntity
  8
0
100
AcDbSpline
 62
7
  6
CONTINUOUS
 70
0
 71
3
 72
22
 73
18
 74
16
 42
0.0000001
 43
0.0000001
 44
0.0000000001
 12
0.1188915096
 22
-0.2677105387
 32
0.0
 13
0.2680910176
 23
0.1180310544
 33
0.0
 40
0.0
 40
0.0
 40
0.0
 40
0.0
 40
0.2249700094
 40
0.4245732758
 40
0.5968016566
 40
0.7400503275
 40
0.800356005
 40
0.8529203502
 40
0.8976149156
 40
0.9343297793
 40
0.9629837822
 40
0.9742635482
 40
0.9835013914
 40
0.990694099
 40
0.9958392684
 40
0.998936269
 40
1.0
 40
1.0
 40
1.0
 40
1.0
 10
99.5303416548
 20
170.2074274858
 30
0.0
 10
99.5392573294
 20
170.1873518717
 30
0.0
 10
99.5560945659
 20
170.149469253
 30
0.0
 10
99.5798025793
 20
170.0962376717
 30
0.0
 10
99.6003099501
 20
170.0503155549
 30
0.0
 10
99.6153163039
 20
170.0168327765
 30
0.0
 10
99.6255813109
 20
169.9940287567
 30
0.0
 10
99.6319155416
 20
169.9800088168
 30
0.0
 10
99.6373227143
 20
169.9680961739
 30
0.0
 10
99.6417904347
 20
169.958325238
 30
0.0
 10
99.6449264989
 20
169.9515227737
 30
0.0
 10
99.6469636466
 20
169.9471860636
 30
0.0
 10
99.6481214664
 20
169.9447178102
 30
0.0
 10
99.6490443071
 20
169.9428828986
 30
0.0
 10
99.649706116
 20
169.9413953707
 30
0.0
 10
99.6501540079
 20
169.9408389432
 30
0.0
 10
99.6503455763
 20
169.9402340536
 30
0.0
 10
99.6504406352
 20
169.9402759047
 30
0.0
 11
99.5303416548
 21
170.2074274858
 31
0.0
 11
99.5571086689
 21
170.1472095251
 31
0.0
 11
99.5808995662
 21
170.0938002084
 31
0.0
 11
99.6014749974
 21
170.0477369224
 31
0.0
 11
99.6186431842
 21
170.0094489403
 31
0.0
 11
99.6258954995
 21
169.9933413585
 31
0.0
 11
99.6322364328
 21
169.9793103126
 31
0.0
 11
99.6376504746
 21
169.9673901269
 31
0.0
 11
99.6421242949
 21
169.9576101842
 31
0.0
 11
99.6456479415
 21
169.9499922087
 31
0.0
 11
99.6470504351
 21
169.9470005305
 31
0.0
 11
99.648212056
 21
169.944556565
 31
0.0
 11
99.6491323264
 21
169.9426612596
 31
0.0
 11
99.6498108063
 21
169.9413154744
 31
0.0
 11
99.6502470559
 21
169.9405200695
 31
0.0
 11
99.6504406352
 21
169.9402759047
 31
0.0
  0
SPLINE
  5
392
100
AcDbEntity
  8
0
100
AcDbSpline
 62
7
  6
CONTINUOUS
 70
0
 71
3
 72
9
 73
5
 74
3
 42
0.0000001
 43
0.0000001
 44
0.0000000001
 12
0.7183141232
 22
-0.1944593441
 32
0.0
 13
0.6800904876
 23
0.3021035332
 33
0.0
 40
0.0
 40
0.0
 40
0.0
 40
0.0
 40
0.3980789201
 40
1.0
 40
1.0
 40
1.0
 40
1.0
 10
98.8002155761
 20
170.1327822624
 30
0.0
 10
98.8955308129
 20
170.1069788738
 30
0.0
 10
99.1467484232
 20
170.0842812121
 30
0.0
 10
99.3938880545
 20
170.1468133242
 30
0.0
 10
99.5303416548
 20
170.2074274858
 30
0.0
 11
98.8002155761
 21
170.1327822624
 31
0.0
 11
99.0948934585
 21
170.1024140443
 31
0.0
 11
99.5303416548
 21
170.2074274858
 31
0.0
  0
SPLINE
  5
393
100
AcDbEntity
  8
0
100
AcDbSpline
 62
7
  6
CONTINUOUS
 70
0
 71
3
 72
13
 73
9
 74
7
 42
0.0000001
 43
0.0000001
 44
0.0000000001
 12
3.8085038779
 22
-1.2741652186
 32
0.0
 13
3.5240160069
 23
-1.9260088202
 33
0.0
 40
0.0
 40
0.0
 40
0.0
 40
0.0
 40
0.2500797477
 40
0.3750578872
 40
0.5
 40
0.6249421127
 40
0.7499202522
 40
1.0
 40
1.0
 40
1.0
 40
1.0
 10
112.0600231658
 20
218.0803688054
 30
0.0
 10
112.3774997288
 20
217.9741544999
 30
0.0
 10
112.8540099072
 20
217.8156788072
 30
0.0
 10
113.480753266
 20
217.5804270253
 30
0.0
 10
113.9444282662
 20
217.3882433348
 30
0.0
 10
114.4006386765
 20
217.1789561199
 30
0.0
 10
114.9993136164
 20
216.8793915106
 30
0.0
 10
115.4395368341
 20
216.637771946
 30
0.0
 10
115.7332985121
 20
216.4772200127
 30
0.0
 11
112.0600231658
 21
218.0803688054
 31
0.0
 11
113.0101146784
 21
217.7548204394
 31
0.0
 11
113.4797630776
 21
217.5777742529
 31
0.0
 11
113.9431842874
 21
217.3853930213
 31
0.0
 11
114.3993669597
 21
217.1764262164
 31
0.0
 11
114.8485402795
 21
216.9524657291
 31
0.0
 11
115.7332985121
 21
216.4772200127
 31
0.0
  0
LINE
  5
394
100
AcDbEntity
  8
0
100
AcDbLine
 62
7
  6
CONTINUOUS
 10
127.2034045508
 20
183.1635044208
 11
127.5395574184
 21
182.2188739971
  0
LINE
  5
395
100
AcDbEntity
  8
0
100
AcDbLine
 62
7
  6
CONTINUOUS
 10
125.0812019692
 20
207.3835462963
 11
125.4813289281
 21
208.3000060997
  0
SPLINE
  5
396
100
AcDbEntity
  8
0
100
AcDbSpline
 62
7
  6
CONTINUOUS
 70
0
 71
3
 72
11
 73
7
 74
5
 42
0.0000001
 43
0.0000001
 44
0.0000000001
 12
-0.8709487238
 22
0.3802620834
 32
0.0
 13
-0.7078093401
 23
-0.6341583947
 33
0.0
 40
0.0
 40
0.0
 40
0.0
 40
0.0
 40
0.2361577147
 40
0.4795126576
 40
0.733814221
 40
1.0
 40
1.0
 40
1.0
 40
1.0
 10
125.4812078341
 20
208.3000623739
 30
0.0
 10
125.4126474141
 20
208.3299963155
 30
0.0
 10
125.2625168651
 20
208.3683132262
 30
0.0
 10
125.0271339139
 20
208.3533208348
 30
0.0
 10
124.7971408224
 20
208.2690001852
 30
0.0
 10
124.6606992565
 20
208.1728943053
 30
0.0
 10
124.5978963296
 20
208.1166263232
 30
0.0
 11
125.4812078341
 21
208.3000623739
 31
0.0
 11
125.263877411
 21
208.3560680495
 31
0.0
 11
125.0329855164
 21
208.342839228
 31
0.0
 11
124.8055596348
 21
208.2610859805
 31
0.0
 11
124.5978963296
 21
208.1166263232
 31
0.0
  0
LINE
  5
397
100
AcDbEntity
  8
0
100
AcDbLine
 62
7
  6
CONTINUOUS
 10
124.5429854758
 20
181.4448834661
 11
124.9855461446
 21
182.1872623124
  0
SPLINE
  5
398
100
AcDbEntity
  8
0
100
AcDbSpline
 62
7
  6
CONTINUOUS
 70
0
 71
3
 72
11
 73
7
 74
5
 42
0.0000001
 43
0.0000001
 44
0.0000000001
 12
0.6852557611
 22
-0.5961438841
 32
0.0
 13
0.8312527207
 23
0.3660353847
 33
0.0
 40
0.0
 40
0.0
 40
0.0
 40
0.0
 40
0.2685154013
 40
0.5232548978
 40
0.7654414149
 40
1.0
 40
1.0
 40
1.0
 40
1.0
 10
124.5429854758
 20
181.4448834661
 30
0.0
 10
124.6043193843
 20
181.391525528
 30
0.0
 10
124.7362610841
 20
181.3006100867
 30
0.0
 10
124.9567129909
 20
181.2206518617
 30
0.0
 10
125.1809576204
 20
181.2065144895
 30
0.0
 10
125.3235701691
 20
181.2432472484
 30
0.0
 10
125.3885626564
 20
181.2718661624
 30
0.0
 11
124.5429854758
 21
181.4448834661
 31
0.0
 11
124.7446746889
 21
181.3077640933
 31
0.0
 11
124.9627513386
 21
181.230457902
 31
0.0
 11
125.1823827857
 21
181.2182242781
 31
0.0
 11
125.3885626564
 21
181.2718661624
 31
0.0
  0
SPLINE
  5
399
100
AcDbEntity
  8
0
100
AcDbSpline
 62
7
  6
CONTINUOUS
 70
0
 71
3
 72
13
 73
9
 74
7
 42
0.0000001
 43
0.0000001
 44
0.0000000001
 12
0.0086394634
 22
1.0148096116
 32
0.0
 13
-0.9300756984
 23
0.4060448046
 33
0.0
 40
0.0
 40
0.0
 40
0.0
 40
0.0
 40
0.2458591331
 40
0.4934057149
 40
0.6184393473
 40
0.744525771
 40
0.8718149552
 40
1.0
 40
1.0
 40
1.0
 40
1.0
 10
59.2962991637
 20
170.1327822528
 30
0.0
 10
59.297007194
 20
170.2159489899
 30
0.0
 10
59.2893359263
 20
170.3830846389
 30
0.0
 10
59.2484304421
 20
170.5897090966
 30
0.0
 10
59.1869872749
 20
170.7473357037
 30
0.0
 10
59.1220921018
 20
170.8584941934
 30
0.0
 10
59.0344954018
 20
170.9548866467
 30
0.0
 10
58.9601513014
 20
171.0017381987
 30
0.0
 10
58.9204107031
 20
171.0190878225
 30
0.0
 11
59.2962991637
 21
170.1327822528
 31
0.0
 11
59.283163751
 21
170.3819455088
 31
0.0
 11
59.230940294
 21
170.6276792676
 31
0.0
 11
59.1841113509
 21
170.7456118943
 31
0.0
 11
59.1186541947
 21
170.8555605206
 31
0.0
 11
59.0308051211
 21
170.9502692646
 31
0.0
 11
58.9204107031
 21
171.0190878225
 31
0.0
  0
SPLINE
  5
39A
100
AcDbEntity
  8
0
100
AcDbSpline
 62
7
  6
CONTINUOUS
 70
0
 71
3
 72
13
 73
9
 74
7
 42
0.0000001
 43
0.0000001
 44
0.0000000001
 12
-0.2893805888
 22
1.7348264535
 32
0.0
 13
-1.6118424135
 23
0.7037954128
 33
0.0
 40
0.0
 40
0.0
 40
0.0
 40
0.0
 40
0.2499634537
 40
0.4997589022
 40
0.6248374231
 40
0.7499043993
 40
0.8749530349
 40
1.0
 40
1.0
 40
1.0
 40
1.0
 10
60.1622207569
 20
170.2773119133
 30
0.0
 10
60.1381092331
 20
170.4218596506
 30
0.0
 10
60.0657236742
 20
170.7075767873
 30
0.0
 10
59.9050268794
 20
171.0405293319
 30
0.0
 10
59.7304281505
 20
171.276905364
 30
0.0
 10
59.5762626166
 20
171.4348886725
 30
0.0
 10
59.4003532376
 20
171.5682838194
 30
0.0
 10
59.2704387495
 20
171.6378260656
 30
0.0
 10
59.2032534156
 20
171.6671618924
 30
0.0
 11
60.1622207569
 21
170.2773119133
 31
0.0
 11
60.0516540715
 21
170.7028160067
 31
0.0
 11
59.8576290837
 21
171.0969902121
 31
0.0
 11
59.7265679782
 21
171.2736750751
 31
0.0
 11
59.5726283087
 21
171.4307998637
 31
0.0
 11
59.3971905213
 21
171.5634385221
 31
0.0
 11
59.2032534156
 21
171.6671618924
 31
0.0
  0
SPLINE
  5
39B
100
AcDbEntity
  8
0
100
AcDbSpline
 62
7
  6
CONTINUOUS
 70
0
 71
3
 72
12
 73
8
 74
6
 42
0.0000001
 43
0.0000001
 44
0.0000000001
 12
-1.5061591056
 22
0.6571274377
 32
0.0
 13
-1.4112569533
 23
-0.8418346231
 33
0.0
 40
0.0
 40
0.0
 40
0.0
 40
0.0
 40
0.1251153675
 40
0.2502314104
 40
0.4999718063
 40
0.7499114378
 40
1.0
 40
1.0
 40
1.0
 40
1.0
 10
34.6846321796
 20
182.3679654876
 30
0.0
 10
34.6218176297
 20
182.3953710679
 30
0.0
 10
34.4918653156
 20
182.4408492217
 30
0.0
 10
34.2221278726
 20
182.4926536065
 30
0.0
 10
33.8755749469
 20
182.4853644213
 30
0.0
 10
33.4758990804
 20
182.3786978344
 30
0.0
 10
33.2285125402
 20
182.2572647091
 30
0.0
 10
33.1108661327
 20
182.1870869723
 30
0.0
 11
34.6846321796
 21
182.3679654876
 31
0.0
 11
34.4906034582
 21
182.4359614945
 31
0.0
 11
34.2887302754
 21
182.4749265572
 31
0.0
 11
33.8783815807
 21
182.4690652616
 31
0.0
 11
33.4807659432
 21
182.3661524842
 31
0.0
 11
33.1108661327
 21
182.1870869723
 31
0.0
  0
SPLINE
  5
39C
100
AcDbEntity
  8
0
100
AcDbSpline
 62
7
  6
CONTINUOUS
 70
0
 71
3
 72
13
 73
9
 74
7
 42
0.0000001
 43
0.0000001
 44
0.0000000001
 12
-0.8594459643
 22
0.3750118609
 32
0.0
 13
-0.7046578683
 23
-0.6186586701
 33
0.0
 40
0.0
 40
0.0
 40
0.0
 40
0.0
 40
0.12805148
 40
0.2552997211
 40
0.3814241455
 40
0.5065214004
 40
0.7541532411
 40
1.0
 40
1.0
 40
1.0
 40
1.0
 10
34.4017894672
 20
181.7198914177
 30
0.0
 10
34.3651050246
 20
181.735898359
 30
0.0
 10
34.2871483034
 20
181.7577003459
 30
0.0
 10
34.1669714948
 20
181.7600436136
 30
0.0
 10
34.0500195138
 20
181.7384815873
 30
0.0
 10
33.9024464638
 20
181.6867628669
 30
0.0
 10
33.7328948938
 20
181.5910790534
 30
0.0
 10
33.6112743381
 20
181.4955863711
 30
0.0
 10
33.5535283871
 20
181.4448879615
 30
0.0
 11
34.4017894672
 21
181.7198914177
 31
0.0
 11
34.2862787294
 21
181.7526786703
 31
0.0
 11
34.1670047663
 21
181.7560170676
 31
0.0
 11
34.0505371833
 21
181.7354657938
 31
0.0
 11
33.9396073071
 21
181.6973250124
 31
0.0
 11
33.7358407892
 21
181.5859783595
 31
0.0
 11
33.5535283871
 21
181.4448879615
 31
0.0
  0
SPLINE
  5
39D
100
AcDbEntity
  8
0
100
AcDbSpline
 62
7
  6
CONTINUOUS
 70
0
 71
3
 72
9
 73
5
 74
3
 42
0.0000001
 43
0.0000001
 44
0.0000000001
 12
0.3525531335
 22
-0.6134817316
 32
0.0
 13
0.6465940071
 23
-0.2873495031
 33
0.0
 40
0.0
 40
0.0
 40
0.0
 40
0.0
 40
0.4047723702
 40
1.0
 40
1.0
 40
1.0
 40
1.0
 10
33.5535283871
 20
181.4448879615
 30
0.0
 10
33.6010963095
 20
181.3621144766
 30
0.0
 10
33.7514927979
 20
181.1760885271
 30
0.0
 10
33.9536317513
 20
181.0439956678
 30
0.0
 10
34.0819219574
 20
180.9869828799
 30
0.0
 11
33.5535283871
 21
181.4448879615
 31
0.0
 11
33.7313265159
 21
181.2203545814
 31
0.0
 11
34.0819219574
 21
180.9869828799
 31
0.0
  0
SPLINE
  5
39E
100
AcDbEntity
  8
0
100
AcDbSpline
 62
7
  6
CONTINUOUS
 70
0
 71
3
 72
22
 73
18
 74
16
 42
0.0000001
 43
0.0000001
 44
0.0000000001
 12
-0.1188915098
 22
-0.2677105386
 32
0.0
 13
-0.2680910177
 23
0.1180310544
 33
0.0
 40
0.0
 40
0.0
 40
0.0
 40
0.0
 40
0.2249700093
 40
0.4245732758
 40
0.5968016565
 40
0.7400503274
 40
0.800356005
 40
0.8529203501
 40
0.8976149155
 40
0.9343297793
 40
0.9629837821
 40
0.9742635481
 40
0.9835013913
 40
0.9906940989
 40
0.9958392684
 40
0.998936269
 40
1.0
 40
1.0
 40
1.0
 40
1.0
 10
34.0819219574
 20
180.9869828799
 30
0.0
 10
34.0730062827
 20
180.9669072658
 30
0.0
 10
34.0561690463
 20
180.9290246472
 30
0.0
 10
34.0324610328
 20
180.8757930658
 30
0.0
 10
34.0119536622
 20
180.829870949
 30
0.0
 10
33.9969473084
 20
180.7963881706
 30
0.0
 10
33.9866823014
 20
180.7735841507
 30
0.0
 10
33.9803480708
 20
180.7595642109
 30
0.0
 10
33.974940898
 20
180.7476515679
 30
0.0
 10
33.9704731776
 20
180.737880632
 30
0.0
 10
33.9673371134
 20
180.7310781677
 30
0.0
 10
33.9652999657
 20
180.7267414576
 30
0.0
 10
33.9641421459
 20
180.7242732043
 30
0.0
 10
33.9632193052
 20
180.7224382926
 30
0.0
 10
33.9625574963
 20
180.7209507647
 30
0.0
 10
33.9621096044
 20
180.7203943373
 30
0.0
 10
33.9619180359
 20
180.7197894477
 30
0.0
 10
33.961822977
 20
180.7198312988
 30
0.0
 11
34.0819219574
 21
180.9869828799
 31
0.0
 11
34.0551549433
 21
180.9267649192
 31
0.0
 11
34.031364046
 21
180.8733556026
 31
0.0
 11
34.0107886148
 21
180.8272923165
 31
0.0
 11
33.993620428
 21
180.7890043344
 31
0.0
 11
33.9863681128
 21
180.7728967525
 31
0.0
 11
33.9800271796
 21
180.7588657066
 31
0.0
 11
33.9746131377
 21
180.7469455209
 31
0.0
 11
33.9701393174
 21
180.7371655783
 31
0.0
 11
33.9666156708
 21
180.7295476027
 31
0.0
 11
33.9652131772
 21
180.7265559246
 31
0.0
 11
33.9640515563
 21
180.724111959
 31
0.0
 11
33.9631312859
 21
180.7222166537
 31
0.0
 11
33.9624528059
 21
180.7208708685
 31
0.0
 11
33.9620165563
 21
180.7200754636
 31
0.0
 11
33.961822977
 21
180.7198312988
 31
0.0
  0
SPLINE
  5
39F
100
AcDbEntity
  8
0
100
AcDbSpline
 62
7
  6
CONTINUOUS
 70
0
 71
3
 72
22
 73
18
 74
16
 42
0.0000001
 43
0.0000001
 44
0.0000000001
 12
-0.1188916494
 22
-0.2677104721
 32
0.0
 13
-0.2680910165
 23
0.1180310469
 33
0.0
 40
0.0
 40
0.0
 40
0.0
 40
0.0
 40
0.2249700129
 40
0.4245732824
 40
0.5968016658
 40
0.7400503388
 40
0.8003560172
 40
0.8529203629
 40
0.8976149287
 40
0.9343297926
 40
0.9629837952
 40
0.9742635608
 40
0.9835014035
 40
0.9906941103
 40
0.9958392785
 40
0.9989362767
 40
1.0
 40
1.0
 40
1.0
 40
1.0
 10
58.5661730905
 20
170.2074274858
 30
0.0
 10
58.5572574052
 20
170.1873518763
 30
0.0
 10
58.5404201501
 20
170.1494692659
 30
0.0
 10
58.5167121149
 20
170.0962376942
 30
0.0
 10
58.4962047305
 20
170.0503155834
 30
0.0
 10
58.4811983721
 20
170.0168328071
 30
0.0
 10
58.4709333663
 20
169.9940287867
 30
0.0
 10
58.4645991388
 20
169.9800088455
 30
0.0
 10
58.4591919712
 20
169.9680962002
 30
0.0
 10
58.454724258
 20
169.9583252613
 30
0.0
 10
58.4515882021
 20
169.9515227932
 30
0.0
 10
58.4495510618
 20
169.94718608
 30
0.0
 10
58.4483932489
 20
169.9447178232
 30
0.0
 10
58.4474704121
 20
169.9428829111
 30
0.0
 10
58.4468086152
 20
169.9413953753
 30
0.0
 10
58.4463607205
 20
169.9408389543
 30
0.0
 10
58.4461691678
 20
169.9402340542
 30
0.0
 10
58.4460741095
 20
169.940275905
 30
0.0
 11
58.5661730905
 21
170.2074274858
 31
0.0
 11
58.5394060469
 21
170.1472095381
 31
0.0
 11
58.5156151281
 21
170.0938002309
 31
0.0
 11
58.4950396837
 21
170.0477369506
 31
0.0
 11
58.4778714924
 21
170.0094489706
 31
0.0
 11
58.4706191783
 21
169.9933413882
 31
0.0
 11
58.4642782483
 21
169.9793103409
 31
0.0
 11
58.4588642119
 21
169.9673901528
 31
0.0
 11
58.4543903991
 21
169.9576102068
 31
0.0
 11
58.4508667622
 21
169.949992227
 31
0.0
 11
58.4494642742
 21
169.9470005463
 31
0.0
 11
58.4483026594
 21
169.9445565781
 31
0.0
 11
58.4473823956
 21
169.9426612699
 31
0.0
 11
58.4467039228
 21
169.9413154816
 31
0.0
 11
58.4462676808
 21
169.9405200733
 31
0.0
 11
58.4460741095
 21
169.940275905
 31
0.0
  0
SPLINE
  5
3A0
100
AcDbEntity
  8
0
100
AcDbSpline
 62
7
  6
CONTINUOUS
 70
0
 71
3
 72
9
 73
5
 74
3
 42
0.0000001
 43
0.0000001
 44
0.0000000001
 12
0.6800905006
 22
-0.3021034879
 32
0.0
 13
0.7183141601
 23
0.194459183
 33
0.0
 40
0.0
 40
0.0
 40
0.0
 40
0.0
 40
0.6019210784
 40
1.0
 40
1.0
 40
1.0
 40
1.0
 10
58.5661730905
 20
170.2074274858
 30
0.0
 10
58.702626693
 20
170.1468133334
 30
0.0
 10
58.9497663205
 20
170.0842812007
 30
0.0
 10
59.2009839216
 20
170.1069788855
 30
0.0
 10
59.2962991637
 20
170.1327822528
 30
0.0
 11
58.5661730905
 21
170.2074274858
 31
0.0
 11
59.0016212816
 21
170.1024140445
 31
0.0
 11
59.2962991637
 21
170.1327822528
 31
0.0
  0
SPLINE
  5
3A1
100
AcDbEntity
  8
0
100
AcDbSpline
 62
7
  6
CONTINUOUS
 70
0
 71
3
 72
12
 73
8
 74
6
 42
0.0000001
 43
0.0000001
 44
0.0000000001
 12
1.6526170596
 22
0.7233383285
 32
0.0
 13
0.2960334262
 23
1.7795296271
 33
0.0
 40
0.0
 40
0.0
 40
0.0
 40
0.0
 40
0.2495312884
 40
0.3746992881
 40
0.4998720356
 40
0.7498526113
 40
1.0
 40
1.0
 40
1.0
 40
1.0
 10
59.1574276586
 20
217.7954118342
 30
0.0
 10
59.2948875466
 20
217.8555770158
 30
0.0
 10
59.4883835195
 20
217.9801512782
 30
0.0
 10
59.6982826518
 20
218.1962172298
 30
0.0
 10
59.8778843995
 20
218.4386768093
 30
0.0
 10
60.0422949739
 20
218.780700226
 30
0.0
 10
60.1166406547
 20
219.073938013
 30
0.0
 10
60.1413246509
 20
219.2223195761
 30
0.0
 11
59.1574276586
 21
217.7954118342
 31
0.0
 11
59.5365695919
 21
218.0380783205
 31
0.0
 11
59.6944673042
 21
218.1994923392
 31
0.0
 11
59.829070589
 21
218.3807987007
 31
0.0
 11
60.0279723507
 21
218.7855258634
 31
0.0
 11
60.1413246509
 21
219.2223195761
 31
0.0
  0
SPLINE
  5
3A2
100
AcDbEntity
  8
0
100
AcDbSpline
 62
7
  6
CONTINUOUS
 70
0
 71
3
 72
13
 73
9
 74
7
 42
0.0000001
 43
0.0000001
 44
0.0000000001
 12
0.9715870987
 22
0.4246448735
 32
0.0
 13
-0.0029842463
 23
1.0603281818
 33
0.0
 40
0.0
 40
0.0
 40
0.0
 40
0.0
 40
0.1279431541
 40
0.2550928035
 40
0.381133283
 40
0.5062078409
 40
0.7539127944
 40
1.0
 40
1.0
 40
1.0
 40
1.0
 10
58.8745849461
 20
218.443485904
 30
0.0
 10
58.9160209188
 20
218.4615960388
 30
0.0
 10
58.9936668918
 20
218.5101687636
 30
0.0
 10
59.0861753051
 20
218.6097303692
 30
0.0
 10
59.155123234
 20
218.7251389281
 30
0.0
 10
59.2213348355
 20
218.8890853457
 30
0.0
 10
59.266028067
 20
219.1047894656
 30
0.0
 10
59.2752933537
 20
219.2795010495
 30
0.0
 10
59.2750485588
 20
219.3664787826
 30
0.0
 11
58.8745849461
 21
218.443485904
 31
0.0
 11
58.989951413
 21
218.5148639792
 31
0.0
 11
59.0825849055
 21
218.6128216671
 31
0.0
 11
59.1521654023
 21
218.7269246359
 31
0.0
 11
59.202517655
 21
218.8496147953
 31
0.0
 11
59.2595027568
 21
219.1060080513
 31
0.0
 11
59.2750485588
 21
219.3664787826
 31
0.0
  0
SPLINE
  5
3A3
100
AcDbEntity
  8
0
100
AcDbSpline
 62
7
  6
CONTINUOUS
 70
0
 71
3
 72
13
 73
9
 74
7
 42
0.0000001
 43
0.0000001
 44
0.0000000001
 12
0.7754872954
 22
-0.7231359466
 32
0.0
 13
0.9720515493
 23
0.4235822568
 33
0.0
 40
0.0
 40
0.0
 40
0.0
 40
0.0
 40
0.246086041
 40
0.4937920589
 40
0.6188657523
 40
0.7449069012
 40
0.8720567152
 40
1.0
 40
1.0
 40
1.0
 40
1.0
 10
33.4985520116
 20
208.1166945863
 30
0.0
 10
33.562164211
 20
208.0573766989
 30
0.0
 10
33.6965536798
 20
207.9453528964
 30
0.0
 10
33.885105878
 20
207.831449837
 30
0.0
 10
34.0503358304
 20
207.7685073153
 30
0.0
 10
34.1818411668
 20
207.7405931875
 30
0.0
 10
34.3177471857
 20
207.7407104738
 30
0.0
 10
34.4061594014
 20
207.7646174737
 30
0.0
 10
34.4476152241
 20
207.7826823088
 30
0.0
 11
33.4985520116
 21
208.1166945863
 31
0.0
 11
33.7001005079
 21
207.9509709707
 31
0.0
 11
33.9268416143
 21
207.8184041873
 31
0.0
 11
34.0510378473
 21
207.7718929115
 31
0.0
 11
34.1820159663
 21
207.745324564
 31
0.0
 11
34.3168307907
 21
207.7466303529
 31
0.0
 11
34.4476152241
 21
207.7826823088
 31
0.0
  0
SPLINE
  5
3A4
100
AcDbEntity
  8
0
100
AcDbSpline
 62
7
  6
CONTINUOUS
 70
0
 71
3
 72
12
 73
8
 74
6
 42
0.0000001
 43
0.0000001
 44
0.0000000001
 12
1.5062095494
 22
-0.9928237267
 32
0.0
 13
1.6541764982
 23
0.719768207
 33
0.0
 40
0.0
 40
0.0
 40
0.0
 40
0.0
 40
0.2501484839
 40
0.5001295704
 40
0.6253014981
 40
0.7504697331
 40
1.0
 40
1.0
 40
1.0
 40
1.0
 10
33.0151604894
 20
207.3834638897
 30
0.0
 10
33.1407525012
 20
207.3006794397
 30
0.0
 10
33.4063316667
 20
207.1558251249
 30
0.0
 10
33.7689000178
 20
207.043786559
 30
0.0
 10
34.0688028157
 20
207.0105827991
 30
0.0
 10
34.3699562444
 20
207.0175755875
 30
0.0
 10
34.5928689022
 20
207.0747402547
 30
0.0
 10
34.7304579366
 20
207.134608239
 30
0.0
 11
33.0151604894
 21
207.3834638897
 31
0.0
 11
33.4125273417
 21
207.1695967535
 31
0.0
 11
33.8445313794
 21
207.0402150637
 31
0.0
 11
34.0689954505
 21
207.0156116659
 31
0.0
 11
34.294717001
 21
207.0216299296
 31
0.0
 11
34.7304579366
 21
207.134608239
 31
0.0
  0
SPLINE
  5
3A5
100
AcDbEntity
  8
0
100
AcDbSpline
 62
7
  6
CONTINUOUS
 70
0
 71
3
 72
13
 73
9
 74
7
 42
0.0000001
 43
0.0000001
 44
0.0000000001
 12
-0.7183700863
 22
-0.3137433841
 32
0.0
 13
-0.3780697641
 23
-0.6866977104
 33
0.0
 40
0.0
 40
0.0
 40
0.0
 40
0.0
 40
0.1714848006
 40
0.3313471185
 40
0.5402374627
 40
0.7163215177
 40
0.8674275297
 40
1.0
 40
1.0
 40
1.0
 40
1.0
 10
34.0819297992
 20
208.620572879
 30
0.0
 10
34.0408666155
 20
208.6026388051
 30
0.0
 10
33.9631792762
 20
208.5640729503
 30
0.0
 10
33.8426626083
 20
208.4902415132
 30
0.0
 10
33.7299858153
 20
208.4025676169
 30
0.0
 10
33.6300741766
 20
208.3039291139
 30
0.0
 10
33.5550735555
 20
208.2097744756
 30
0.0
 10
33.5152592258
 20
208.1470403235
 30
0.0
 10
33.4985520116
 20
208.1166945863
 30
0.0
 11
34.0819297992
 21
208.620572879
 31
0.0
 11
33.9614640907
 21
208.5609209082
 31
0.0
 11
33.8547275746
 21
208.4952610956
 31
0.0
 11
33.7255173073
 21
208.3946722914
 31
0.0
 11
33.6276217113
 21
208.2973630151
 31
0.0
 11
33.5538836456
 21
208.2046625535
 31
0.0
 11
33.4985520116
 21
208.1166945863
 31
0.0
  0
SPLINE
  5
3A6
100
AcDbEntity
  8
0
100
AcDbSpline
 62
7
  6
CONTINUOUS
 70
0
 71
3
 72
9
 73
5
 74
3
 42
0.0000001
 43
0.0000001
 44
0.0000000001
 12
-0.7543495411
 22
0.18819389
 32
0.0
 13
-0.7126438933
 23
-0.3108035581
 33
0.0
 40
0.0
 40
0.0
 40
0.0
 40
0.0
 40
0.1820351813
 40
1.0
 40
1.0
 40
1.0
 40
1.0
 10
59.2750485588
 20
219.3664787826
 30
0.0
 10
59.2292758403
 20
219.3778980855
 30
0.0
 10
58.9728930747
 20
219.419921456
 30
0.0
 10
58.7032053989
 20
219.3661185995
 30
0.0
 10
58.5088995212
 20
219.2813764742
 30
0.0
 11
59.2750485588
 21
219.3664787826
 31
0.0
 11
59.1354935916
 21
219.390022174
 31
0.0
 11
58.5088995212
 21
219.2813764742
 31
0.0
  0
LINE
  5
3A7
100
AcDbEntity
  8
0
100
AcDbLine
 62
7
  6
CONTINUOUS
 10
33.4986184277
 20
208.1166257094
 11
33.0153936186
 21
207.3835851478
  0
SPLINE
  5
3A8
100
AcDbEntity
  8
0
100
AcDbSpline
 62
7
  6
CONTINUOUS
 70
0
 71
3
 72
11
 73
7
 74
5
 42
0.0000001
 43
0.0000001
 44
0.0000000001
 12
-0.7078088872
 22
0.6341584654
 32
0.0
 13
-0.8710662799
 23
-0.3799919947
 33
0.0
 40
0.0
 40
0.0
 40
0.0
 40
0.0
 40
0.2660205895
 40
0.5201723871
 40
0.7633892679
 40
1.0
 40
1.0
 40
1.0
 40
1.0
 10
33.4986184277
 20
208.1166257094
 30
0.0
 10
33.4358545153
 20
208.172858779
 30
0.0
 10
33.2995044264
 20
208.2689156912
 30
0.0
 10
33.0696743768
 20
208.3532394239
 30
0.0
 10
32.8342477726
 20
208.3683600479
 30
0.0
 10
32.6840076776
 20
208.3300321813
 30
0.0
 10
32.6153064675
 20
208.30006212
 30
0.0
 11
33.4986184277
 21
208.1166257094
 31
0.0
 11
33.2910956498
 21
208.2610123364
 31
0.0
 11
33.0638253317
 21
208.3427773538
 31
0.0
 11
32.8330708343
 21
208.3561087803
 31
0.0
 11
32.6153064675
 21
208.30006212
 31
0.0
  0
LINE
  5
3A9
100
AcDbEntity
  8
0
100
AcDbLine
 62
7
  6
CONTINUOUS
 10
33.0153322748
 20
207.3835388623
 11
32.6151860281
 21
208.3000061639
  0
LINE
  5
3AA
100
AcDbEntity
  8
0
100
AcDbLine
 62
7
  6
CONTINUOUS
 10
30.8931057783
 20
183.1634920483
 11
30.5569573897
 21
182.2188739695
  0
SPLINE
  5
3AB
100
AcDbEntity
  8
0
100
AcDbSpline
 62
7
  6
CONTINUOUS
 70
0
 71
3
 72
11
 73
7
 74
5
 42
0.0000001
 43
0.0000001
 44
0.0000000001
 12
0.8312864444
 22
-0.3659930838
 32
0.0
 13
0.6852675998
 23
0.5961513286
 33
0.0
 40
0.0
 40
0.0
 40
0.0
 40
0.0
 40
0.2346333412
 40
0.4767970834
 40
0.7315119222
 40
1.0
 40
1.0
 40
1.0
 40
1.0
 10
32.7079391547
 20
181.2718718894
 30
0.0
 10
32.7729549933
 20
181.2432471626
 30
0.0
 10
32.9155852862
 20
181.2065067987
 30
0.0
 10
33.1398410171
 20
181.2206630426
 30
0.0
 10
33.3602711794
 20
181.300621116
 30
0.0
 10
33.4922005514
 20
181.3915303721
 30
0.0
 10
33.5535292783
 20
181.4448835468
 30
0.0
 11
32.7079391547
 21
181.2718718894
 31
0.0
 11
32.9141896129
 21
181.2182187739
 31
0.0
 11
33.13380293
 21
181.2304660951
 31
0.0
 11
33.3518589848
 21
181.3077738874
 31
0.0
 11
33.5535292783
 21
181.4448835468
 31
0.0
  0
LINE
  5
3AC
100
AcDbEntity
  8
0
100
AcDbLine
 62
7
  6
CONTINUOUS
 10
33.1108007342
 20
182.1871325755
 11
33.5535292783
 21
181.4448835468
  0
SPLINE
  5
3AD
100
AcDbEntity
  8
0
100
AcDbSpline
 62
7
  6
CONTINUOUS
 70
0
 71
3
 72
11
 73
7
 74
5
 42
0.0000001
 43
0.0000001
 44
0.0000000001
 12
0.8666215688
 22
0.3815366267
 32
0.0
 13
0.01540428
 23
0.9467659949
 33
0.0
 40
0.0
 40
0.0
 40
0.0
 40
0.0
 40
0.2365210463
 40
0.4797011041
 40
0.7338668699
 40
1.0
 40
1.0
 40
1.0
 40
1.0
 10
98.3372381279
 20
169.3621185311
 30
0.0
 10
98.4055628746
 20
169.3921990119
 30
0.0
 10
98.5350920621
 20
169.4762998769
 30
0.0
 10
98.6831113142
 20
169.6588434777
 30
0.0
 10
98.7768024144
 20
169.8840664221
 30
0.0
 10
98.7988564135
 20
170.0488098737
 30
0.0
 10
98.8002229432
 20
170.1327984729
 30
0.0
 11
98.3372381279
 21
169.3621185311
 31
0.0
 11
98.5253262486
 21
169.4836949098
 31
0.0
 11
98.671504265
 21
169.6616106075
 31
0.0
 11
98.7653602086
 21
169.8832225134
 31
0.0
 11
98.8002229432
 21
170.1327984729
 31
0.0
  0
LINE
  5
3AE
100
AcDbEntity
  8
0
100
AcDbLine
 62
7
  6
CONTINUOUS
 10
97.9343012837
 20
170.2773463295
 11
98.8002229432
 21
170.1327984729
  0
LINE
  5
3AF
100
AcDbEntity
  8
0
100
AcDbLine
 62
7
  6
CONTINUOUS
 10
59.2962916574
 20
170.1327984057
 11
60.1622126616
 21
170.2773466161
  0
SPLINE
  5
3B0
100
AcDbEntity
  8
0
100
AcDbSpline
 62
7
  6
CONTINUOUS
 70
0
 71
3
 72
11
 73
7
 74
5
 42
0.0000001
 43
0.0000001
 44
0.0000000001
 12
0.0154043161
 22
-0.9467660342
 32
0.0
 13
0.8666216301
 23
-0.3815365865
 33
0.0
 40
0.0
 40
0.0
 40
0.0
 40
0.0
 40
0.2661331216
 40
0.5202988782
 40
0.7634789259
 40
1.0
 40
1.0
 40
1.0
 40
1.0
 10
59.2962916574
 20
170.1327984057
 30
0.0
 10
59.2976581904
 20
170.0488098057
 30
0.0
 10
59.3197121979
 20
169.8840663532
 30
0.0
 10
59.413403316
 20
169.6588434154
 30
0.0
 10
59.5614225911
 20
169.4762998134
 30
0.0
 10
59.6909518073
 20
169.392198971
 30
0.0
 10
59.7592765669
 20
169.3621184899
 30
0.0
 11
59.2962916574
 21
170.1327984057
 31
0.0
 11
59.3311544051
 21
169.8832224454
 31
0.0
 11
59.4250103654
 21
169.6616105451
 31
0.0
 11
59.5711883988
 21
169.4836948611
 31
0.0
 11
59.7592765669
 21
169.3621184899
 31
0.0
  0
SPLINE
  5
3B1
100
AcDbEntity
  8
0
100
AcDbSpline
 62
7
  6
CONTINUOUS
 70
0
 71
3
 72
11
 73
7
 74
5
 42
0.0000001
 43
0.0000001
 44
0.0000000001
 12
-0.8718610789
 22
-0.3801064961
 32
0.0
 13
-0.0163509128
 23
-0.9509759917
 33
0.0
 40
0.0
 40
0.0
 40
0.0
 40
0.0
 40
0.2366123001
 40
0.4798214237
 40
0.7339707045
 40
1.0
 40
1.0
 40
1.0
 40
1.0
 10
59.7419233695
 20
220.1390883638
 30
0.0
 10
59.6731590178
 20
220.109109073
 30
0.0
 10
59.5426770766
 20
220.0251274679
 30
0.0
 10
59.393441144
 20
219.8421482837
 30
0.0
 10
59.2988233112
 20
219.6161445309
 30
0.0
 10
59.2765009082
 20
219.4507126481
 30
0.0
 10
59.2750509676
 20
219.3663834904
 30
0.0
 11
59.7419233695
 21
220.1390883638
 31
0.0
 11
59.5524765969
 21
220.0176158736
 31
0.0
 11
59.4051064666
 21
219.8393153131
 31
0.0
 11
59.3103576822
 21
219.6169329235
 31
0.0
 11
59.2750509676
 21
219.3663834904
 31
0.0
  0
LINE
  5
3B2
100
AcDbEntity
  8
0
100
AcDbLine
 62
7
  6
CONTINUOUS
 10
60.141197894
 20
219.2222642551
 11
59.7413288798
 21
220.1388254387
  0
LINE
  5
3B3
100
AcDbEntity
  8
0
100
AcDbLine
 62
7
  6
CONTINUOUS
 10
97.9553205845
 20
219.2222355655
 11
98.3551860619
 21
220.1388254049
  0
LINE
  5
3B4
100
AcDbEntity
  8
0
100
AcDbLine
 62
7
  6
CONTINUOUS
 10
98.8214633234
 20
219.366383361
 11
97.9553962355
 21
219.2222220616
  0
SPLINE
  5
3B5
100
AcDbEntity
  8
0
100
AcDbSpline
 62
7
  6
CONTINUOUS
 70
0
 71
3
 72
11
 73
7
 74
5
 42
0.0000001
 43
0.0000001
 44
0.0000000001
 12
-0.0163373757
 22
0.950201784
 32
0.0
 13
-0.8709397023
 23
0.3802819679
 33
0.0
 40
0.0
 40
0.0
 40
0.0
 40
0.0
 40
0.2660205773
 40
0.5201723642
 40
0.7633892354
 40
1.0
 40
1.0
 40
1.0
 40
1.0
 10
98.8214633234
 20
219.366383361
 30
0.0
 10
98.8200146307
 20
219.4506411034
 30
0.0
 10
98.7977266648
 20
219.6159333297
 30
0.0
 10
98.7032694246
 20
219.8417876291
 30
0.0
 10
98.5542659726
 20
220.0246873048
 30
0.0
 10
98.424000244
 20
220.1087822031
 30
0.0
 10
98.3553090077
 20
220.1387751389
 30
0.0
 11
98.8214633234
 21
219.366383361
 31
0.0
 11
98.7862138626
 21
219.6167244648
 31
0.0
 11
98.6916211598
 21
219.8389620149
 31
0.0
 11
98.5444828833
 21
220.0172193737
 31
0.0
 11
98.3553090077
 21
220.1387751389
 31
0.0
  0
ENDSEC
  0
SECTION
  2
OBJECTS
  0
DICTIONARY
  5
C
100
AcDbDictionary
280
0
281
1
  3
ACAD_GROUP
350
D
  3
ACAD_MLINESTYLE
350
17
  3
ACAD_LAYOUT
350
1A
  3
ACAD_PLOTSETTINGS
350
19
  3
ACAD_PLOTSTYLENAME
350
E
  0
DICTIONARY
  5
D
102
{ACAD_REACTORS
330
C
102
}
100
AcDbDictionary
280
0
281
1
  0
ACDBDICTIONARYWDFLT
  5
E
102
{ACAD_REACTORS
330
C
102
}
100
AcDbDictionary
281
1
  3
Normal
350
F
100
AcDbDictionaryWithDefault
340
F
  0
DICTIONARY
  5
17
102
{ACAD_REACTORS
330
C
102
}
100
AcDbDictionary
280
0
281
1
  3
Standard
350
18
  0
DICTIONARY
  5
19
102
{ACAD_REACTORS
330
C
102
}
100
AcDbDictionary
281
1
  0
DICTIONARY
  5
1A
102
{ACAD_REACTORS
330
C
102
}
100
AcDbDictionary
281
1
  3
Model
350
3B6
  3
Layout1
350
3B7
  0
ACDBPLACEHOLDER
  5
F
102
{ACAD_REACTORS
330
E
102
}
  0
MLINESTYLE
  5
18
102
{ACAD_REACTORS
330
17
102
}
100
AcDbMlineStyle
  2
STANDARD
 70
0
  3

 62
256
 51
90.0
 52
90.0
 71
2
 49
0.5
 62
256
  6
BYLAYER
 49
-0.5
 62
256
  6
BYLAYER
  0
LAYOUT
  5
3B6
102
{ACAD_REACTORS
330
1A
102
}
100
AcDbPlotSettings
  1

  2
none_device
  4

  6

 40
0.0
 41
0.0
 42
0.0
 43
0.0
 44
210.0
 45
297.0
 46
0.0
 47
0.0
 48
0.0
 49
0.0
140
0.0
141
0.0
142
1.0
143
1.0
 70
1024
 72
1
 73
0
 74
0
  7

 75
0
147
1.0
148
0.0
149
0.0
100
AcDbLayout
  1
Model
 70
0
 71
0
 10
0.0
 20
0.0
 11
210.0
 21
297.0
 12
0.0
 22
0.0
 32
0.0
 14
0.0
 24
0.0
 34
0.0
 15
0.0
 25
0.0
 35
0.0
146
0.0
 13
0.0
 23
0.0
 33
0.0
 16
1.0
 26
0.0
 36
0.0
 17
0.0
 27
1.0
 37
0.0
 76
0
330
202
345
0
346
0
  0
LAYOUT
  5
3B7
102
{ACAD_REACTORS
330
1A
102
}
100
AcDbPlotSettings
  1

  2
none_device
  4

  6

 40
0.0
 41
0.0
 42
0.0
 43
0.0
 44
210.0
 45
297.0
 46
0.0
 47
0.0
 48
0.0
 49
0.0
140
0.0
141
0.0
142
1.0
143
1.0
 70
0
 72
1
 73
0
 74
0
  7

 75
0
147
1.0
148
0.0
149
0.0
100
AcDbLayout
  1
Layout1
 70
0
 71
1
 10
0.0
 20
0.0
 11
210.0
 21
297.0
 12
0.0
 22
0.0
 32
0.0
 14
0.0
 24
0.0
 34
0.0
 15
0.0
 25
0.0
 35
0.0
146
0.0
 13
0.0
 23
0.0
 33
0.0
 16
1.0
 26
0.0
 36
0.0
 17
0.0
 27
1.0
 37
0.0
 76
0
330
203
345
0
346
0
  0
ENDSEC
  0
EOF
