999
DXF file: b0000667752.dxf
999
Pro/ENGINEER 2009380 by Parametric Technology Corporation
  0
SECTION
  2
HEADER
  9
$ACADVER
  1
AC1014
  9
$DWGCODEPAGE
  3
ANSI_1252
  9
$EXTMAX
 10
297.0
 20
210.0
 30
0.0
  9
$EXTMIN
 10
0.0
 20
0.0
 30
0.0
  9
$LIMMIN
 10
0.0
 20
0.0
  9
$LIMMAX
 10
297.0
 20
210.0
  9
$VIEWCTR
 10
148.5
 20
105.0
  9
$VIEWSIZE
 40
210.0
  9
$CLAYER
  8
0
  9
$LTSCALE
 40
16.335
  9
$CELTYPE
  6
BYLAYER
  9
$DIMSCALE
 40
1.0
  9
$DIMASZ
 40
3.5
  9
$DIMEXO
 40
1.85625
  9
$DIMDLI
 40
11.286
  9
$DIMEXE
 40
5.346
  9
$DIMCEN
 40
2.673
  9
$DIMLFAC
 40
1.0
  9
$DIMBLK
  1
_ARROW_FILLED
  9
$DIMTXT
 40
3.5
  9
$DIMTOL
 70
1
  9
$DIMLIM
 70
0
  9
$DIMTFAC
 40
1.0
  9
$DIMTP
 40
0.01
  9
$DIMTM
 40
0.01
  9
$PDMODE
 70
3
  9
$PDSIZE
 40
0.3125
  9
$HANDSEED
  5
3E4
  9
$TILEMODE
 70
1
  9
$MEASUREMENT
 70
1
  0
ENDSEC
  0
SECTION
  2
CLASSES
  0
ENDSEC
  0
SECTION
  2
TABLES
  0
TABLE
  2
VPORT
  5
8
100
AcDbSymbolTable
 70
2
  0
VPORT
  5
1F4
100
AcDbSymbolTableRecord
100
AcDbViewportTableRecord
  2
*ACTIVE
 70
0
 10
0.0
 20
0.0
 11
1.0
 21
1.0
 12
148.5
 22
105.0
 13
0.0
 23
0.0
 14
1.0
 24
1.0
 15
0.0
 25
0.0
 16
0.0
 26
0.0
 36
1.0
 17
0.0
 27
0.0
 37
0.0
 40
210.0
 41
1.4142857143
 42
50.0
 43
0.0
 44
0.0
 50
0.0
 51
0.0
 71
0
 72
100
 73
1
 74
1
 75
0
 76
0
 77
0
 78
0
  0
ENDTAB
  0
TABLE
  2
LTYPE
  5
5
100
AcDbSymbolTable
 70
6
  0
LTYPE
  5
14
100
AcDbSymbolTableRecord
100
AcDbLinetypeTableRecord
  2
BYBLOCK
 70
0
  3

 72
65
 73
0
 40
0.0
  0
LTYPE
  5
15
100
AcDbSymbolTableRecord
100
AcDbLinetypeTableRecord
  2
BYLAYER
 70
0
  3

 72
65
 73
0
 40
0.0
  0
LTYPE
  5
16
100
AcDbSymbolTableRecord
100
AcDbLinetypeTableRecord
  2
CONTINUOUS
 70
64
  3
Solid line
 72
65
 73
0
 40
0.0
  0
LTYPE
  5
1F5
100
AcDbSymbolTableRecord
100
AcDbLinetypeTableRecord
  2
CENTER
 70
64
  3
____ _ ____ _ ____ _ ____ _ ____ _ ____ _ ____
 72
65
 73
4
 40
0.6
 49
0.375
 74
0
 49
-0.075
 74
0
 49
0.075
 74
0
 49
-0.075
 74
0
  0
LTYPE
  5
1F6
100
AcDbSymbolTableRecord
100
AcDbLinetypeTableRecord
  2
HIDDEN
 70
64
  3
- - - - - - - - - - - - - - - - - - - -
 72
65
 73
2
 40
0.2
 49
0.1
 74
0
 49
-0.1
 74
0
  0
LTYPE
  5
1F7
100
AcDbSymbolTableRecord
100
AcDbLinetypeTableRecord
  2
PHANTOM
 70
64
  3
_____ _ _ _____ _ _ _____ _ _ _____
 72
65
 73
6
 40
0.8
 49
0.45
 74
0
 49
-0.05
 74
0
 49
0.1
 74
0
 49
-0.05
 74
0
 49
0.1
 74
0
 49
-0.05
 74
0
  0
LTYPE
  5
1F8
100
AcDbSymbolTableRecord
100
AcDbLinetypeTableRecord
  2
DOT
 70
64
  3
. . . . . . . . . . . . . . . . . . . .
 72
65
 73
2
 40
0.2
 49
0.1
 74
0
 49
-0.1
 74
0
  0
LTYPE
  5
1F9
100
AcDbSymbolTableRecord
100
AcDbLinetypeTableRecord
  2
DASHED
 70
64
  3
- - - - - - - - - - - - - - - - - - - -
 72
65
 73
2
 40
0.2
 49
0.1
 74
0
 49
-0.1
 74
0
  0
ENDTAB
  0
TABLE
  2
LAYER
  5
2
100
AcDbSymbolTable
 70
36
  0
LAYER
  5
10
100
AcDbSymbolTableRecord
100
AcDbLayerTableRecord
  2
0
 70
0
 62
7
  6
CONTINUOUS
  0
LAYER
  5
1FA
100
AcDbSymbolTableRecord
100
AcDbLayerTableRecord
  2
DEFAULT_1
 70
0
 62
7
  6
CENTER
  0
LAYER
  5
1FB
100
AcDbSymbolTableRecord
100
AcDbLayerTableRecord
  2
DEFAULT_2
 70
0
 62
8
  6
HIDDEN
  0
LAYER
  5
1FC
100
AcDbSymbolTableRecord
100
AcDbLayerTableRecord
  2
DEFAULT_3
 70
0
 62
7
  6
PHANTOM
  0
LAYER
  5
1FD
100
AcDbSymbolTableRecord
100
AcDbLayerTableRecord
  2
ASSI
 70
0
 62
7
  6
CONTINUOUS
  0
LAYER
  5
1FE
100
AcDbSymbolTableRecord
100
AcDbLayerTableRecord
  2
PIANI
 70
0
 62
7
  6
CONTINUOUS
  0
ENDTAB
  0
TABLE
  2
STYLE
  5
3
100
AcDbSymbolTable
 70
1
  0
STYLE
  5
11
100
AcDbSymbolTableRecord
100
AcDbTextStyleTableRecord
  2
STANDARD
 70
0
 40
0.0
 41
0.5
 50
0.0
 71
0
 42
0.2
  3
txt
  4

  0
STYLE
  5
1FF
100
AcDbSymbolTableRecord
100
AcDbTextStyleTableRecord
  2
TEXTSTYLE_1
 70
0
 40
0.0
 41
0.8
 50
0.0
 71
0
 42
0.2
  3
gdt
  4

  0
ENDTAB
  0
TABLE
  2
VIEW
  5
6
100
AcDbSymbolTable
 70
0
  0
ENDTAB
  0
TABLE
  2
UCS
  5
7
100
AcDbSymbolTable
 70
0
  0
ENDTAB
  0
TABLE
  2
APPID
  5
9
100
AcDbSymbolTable
 70
1
  0
APPID
  5
200
100
AcDbSymbolTableRecord
100
AcDbRegAppTableRecord
  2
ACAD
 70
0
  0
ENDTAB
  0
TABLE
  2
BLOCK_RECORD
  5
1
100
AcDbSymbolTable
 70
0
  0
BLOCK_RECORD
  5
1F
100
AcDbSymbolTableRecord
100
AcDbBlockTableRecord
  2
*MODEL_SPACE
  0
BLOCK_RECORD
  5
1B
100
AcDbSymbolTableRecord
100
AcDbBlockTableRecord
  2
*PAPER_SPACE
  0
BLOCK_RECORD
  5
201
100
AcDbSymbolTableRecord
100
AcDbBlockTableRecord
  2
_ARROW_FILLED
  0
BLOCK_RECORD
  5
202
100
AcDbSymbolTableRecord
100
AcDbBlockTableRecord
  2
*D0
  0
BLOCK_RECORD
  5
203
100
AcDbSymbolTableRecord
100
AcDbBlockTableRecord
  2
*D1
  0
BLOCK_RECORD
  5
204
100
AcDbSymbolTableRecord
100
AcDbBlockTableRecord
  2
*D2
  0
BLOCK_RECORD
  5
205
100
AcDbSymbolTableRecord
100
AcDbBlockTableRecord
  2
*D3
  0
BLOCK_RECORD
  5
206
100
AcDbSymbolTableRecord
100
AcDbBlockTableRecord
  2
*D4
  0
BLOCK_RECORD
  5
207
100
AcDbSymbolTableRecord
100
AcDbBlockTableRecord
  2
*D5
  0
BLOCK_RECORD
  5
208
100
AcDbSymbolTableRecord
100
AcDbBlockTableRecord
  2
*D6
  0
BLOCK_RECORD
  5
209
100
AcDbSymbolTableRecord
100
AcDbBlockTableRecord
  2
*D7
  0
BLOCK_RECORD
  5
20A
100
AcDbSymbolTableRecord
100
AcDbBlockTableRecord
  2
*D8
  0
BLOCK_RECORD
  5
20B
100
AcDbSymbolTableRecord
100
AcDbBlockTableRecord
  2
*D9
  0
ENDTAB
  0
TABLE
  2
DIMSTYLE
  5
A
100
AcDbSymbolTable
 70
1
  0
DIMSTYLE
105
20C
100
AcDbSymbolTableRecord
100
AcDbDimStyleTableRecord
  2
STANDARD
 70
0
  3

  4

  5
_ARROW_FILLED
  6
_ARROW_FILLED
  7
_ARROW_FILLED
 40
1.0
 41
3.5
 42
0.0625
 43
0.38
 44
0.18
 45
0.0
 46
0.0
 47
0.01
 48
0.01
140
3.5
141
0.09
142
0.0
143
25.4
144
1.0
145
0.0
146
1.0
147
0.09
 71
1.0
 72
0.0
 73
0
 74
0
 75
0
 76
0
 77
1
 78
8
170
0
171
2
172
0
173
0
174
0
175
0
176
0
177
0
178
0
270
2
271
2
272
2
273
2
274
2
275
0
280
0
281
0
282
0
283
1
284
8
285
0
286
0
287
3
288
0
340
11
  0
DIMSTYLE
105
20D
100
AcDbSymbolTableRecord
100
AcDbDimStyleTableRecord
  2
DIMSTYLE_1
 70
0
  3

  4

  5
_ARROW_FILLED
  6
_ARROW_FILLED
  7
_ARROW_FILLED
 40
1.0
 41
3.5
 42
0.0625
 43
0.38
 44
0.18
 45
0.0
 46
0.0
 47
0.15
 48
0.15
140
3.5
141
0.09
142
0.0
143
25.4
144
1.0
145
0.0
146
1.0
147
0.09
 71
0.0
 72
0.0
 73
0
 74
0
 75
0
 76
0
 77
1
 78
8
170
0
171
2
172
0
173
0
174
0
175
0
176
0
177
0
178
0
270
2
271
2
272
2
273
2
274
2
275
0
280
0
281
0
282
0
283
1
284
8
285
0
286
0
287
3
288
0
340
11
  0
DIMSTYLE
105
20E
100
AcDbSymbolTableRecord
100
AcDbDimStyleTableRecord
  2
DIMSTYLE_2
 70
0
  3

  4

  5
_ARROW_FILLED
  6
_ARROW_FILLED
  7
_ARROW_FILLED
 40
1.0
 41
3.5
 42
0.0625
 43
0.38
 44
0.18
 45
0.0
 46
0.0
 47
0.1
 48
0.1
140
3.5
141
0.09
142
0.0
143
25.4
144
1.0
145
0.0
146
1.0
147
0.09
 71
0.0
 72
0.0
 73
0
 74
0
 75
0
 76
0
 77
1
 78
8
170
0
171
2
172
0
173
0
174
0
175
0
176
0
177
0
178
0
270
2
271
2
272
2
273
2
274
2
275
0
280
0
281
0
282
0
283
1
284
8
285
0
286
0
287
3
288
0
340
11
  0
ENDTAB
  0
ENDSEC
  0
SECTION
  2
BLOCKS
  0
BLOCK
  5
20
100
AcDbEntity
  8
0
100
AcDbBlockBegin
  2
*MODEL_SPACE
 70
0
 10
0.0
 20
0.0
 30
0.0
  3
*MODEL_SPACE
  1

  0
ENDBLK
  5
21
100
AcDbEntity
  8
0
100
AcDbBlockEnd
  0
BLOCK
  5
1C
100
AcDbEntity
  8
0
100
AcDbBlockBegin
  2
*PAPER_SPACE
 70
0
 10
0.0
 20
0.0
 30
0.0
  3
*PAPER_SPACE
  1

  0
ENDBLK
  5
1D
100
AcDbEntity
  8
0
100
AcDbBlockEnd
  0
BLOCK
  5
20F
100
AcDbEntity
  8
0
100
AcDbBlockBegin
  2
_ARROW_FILLED
 70
64
 10
0.0
 20
0.0
  3
_ARROW_FILLED
  1

  0
SOLID
  5
210
100
AcDbEntity
  8
0
  6
BYBLOCK
 62
0
100
AcDbTrace
 10
0.0
 20
0.0
 11
-1.0
 21
0.1857142857
 12
-1.0
 22
-0.1857142857
 13
-1.0
 23
-0.1857142857
  0
ENDBLK
  5
211
100
AcDbEntity
  8
0
  6
BYBLOCK
 62
0
100
AcDbBlockEnd
  0
BLOCK
  5
212
100
AcDbEntity
  8
0
100
AcDbBlockBegin
 62
2
  6
CONTINUOUS
  2
*D0
 70
65
 10
0.0
 20
0.0
  3
*D0
  1

  0
MTEXT
  5
213
100
AcDbEntity
  8
0
100
AcDbMText
 62
2
  6
CONTINUOUS
  7
STANDARD
 71
2
 72
1
 10
61.1950402145
 20
196.4313002681
 30
0.0
 11
1.0
 21
0.0
 31
0.0
  1
77
 40
3.5
 41
3.5
  0
LINE
  5
214
100
AcDbEntity
  8
0
100
AcDbLine
 62
2
  6
CONTINUOUS
 10
22.6950402145
 20
151.3130658929
 11
22.6950402145
 21
193.5563002681
  0
LINE
  5
215
100
AcDbEntity
  8
0
100
AcDbLine
 62
2
  6
CONTINUOUS
 10
99.6950402145
 20
183.591152815
 11
99.6950402145
 21
193.5563002681
  0
LINE
  5
216
100
AcDbEntity
  8
0
100
AcDbLine
 62
2
  6
CONTINUOUS
 10
22.6950402145
 20
192.0563002681
 11
61.1950402145
 21
192.0563002681
  0
LINE
  5
217
100
AcDbEntity
  8
0
100
AcDbLine
 62
2
  6
CONTINUOUS
 10
99.6950402145
 20
192.0563002681
 11
61.1950402145
 21
192.0563002681
  0
INSERT
  5
218
100
AcDbEntity
  8
0
100
AcDbBlockReference
 62
2
  6
CONTINUOUS
  2
_ARROW_FILLED
 10
22.6950402145
 20
192.0563002681
 41
3.5
 42
3.5
 43
3.5
 50
180.0
  0
INSERT
  5
219
100
AcDbEntity
  8
0
100
AcDbBlockReference
 62
2
  6
CONTINUOUS
  2
_ARROW_FILLED
 10
99.6950402145
 20
192.0563002681
 41
3.5
 42
3.5
 43
3.5
  0
ENDBLK
  5
21A
100
AcDbEntity
  8
0
  6
BYBLOCK
 62
0
100
AcDbBlockEnd
  0
BLOCK
  5
21B
100
AcDbEntity
  8
0
100
AcDbBlockBegin
 62
2
  6
CONTINUOUS
  2
*D1
 70
65
 10
0.0
 20
0.0
  3
*D1
  1

  0
MTEXT
  5
21C
100
AcDbEntity
  8
0
100
AcDbMText
 62
2
  6
CONTINUOUS
  7
STANDARD
 71
2
 72
1
 10
123.6950402145
 20
196.4313002681
 30
0.0
 11
1.0
 21
0.0
 31
0.0
  1
48
 40
3.5
 41
3.5
  0
LINE
  5
21D
100
AcDbEntity
  8
0
100
AcDbLine
 62
2
  6
CONTINUOUS
 10
99.6950402145
 20
183.591152815
 11
99.6950402145
 21
193.5563002681
  0
LINE
  5
21E
100
AcDbEntity
  8
0
100
AcDbLine
 62
2
  6
CONTINUOUS
 10
147.6950402145
 20
128.591152815
 11
147.6950402145
 21
193.5563002681
  0
LINE
  5
21F
100
AcDbEntity
  8
0
100
AcDbLine
 62
2
  6
CONTINUOUS
 10
99.6950402145
 20
192.0563002681
 11
123.6950402145
 21
192.0563002681
  0
LINE
  5
220
100
AcDbEntity
  8
0
100
AcDbLine
 62
2
  6
CONTINUOUS
 10
147.6950402145
 20
192.0563002681
 11
123.6950402145
 21
192.0563002681
  0
INSERT
  5
221
100
AcDbEntity
  8
0
100
AcDbBlockReference
 62
2
  6
CONTINUOUS
  2
_ARROW_FILLED
 10
99.6950402145
 20
192.0563002681
 41
3.5
 42
3.5
 43
3.5
 50
180.0
  0
INSERT
  5
222
100
AcDbEntity
  8
0
100
AcDbBlockReference
 62
2
  6
CONTINUOUS
  2
_ARROW_FILLED
 10
147.6950402145
 20
192.0563002681
 41
3.5
 42
3.5
 43
3.5
  0
ENDBLK
  5
223
100
AcDbEntity
  8
0
  6
BYBLOCK
 62
0
100
AcDbBlockEnd
  0
BLOCK
  5
224
100
AcDbEntity
  8
0
100
AcDbBlockBegin
 62
2
  6
CONTINUOUS
  2
*D2
 70
65
 10
0.0
 20
0.0
  3
*D2
  1

  0
MTEXT
  5
225
100
AcDbEntity
  8
0
100
AcDbMText
 62
2
  6
CONTINUOUS
  7
STANDARD
 71
2
 72
1
 10
99.6950402145
 20
65.798344522
 30
0.0
 11
1.0
 21
0.0
 31
0.0
  1
57
 40
3.5
 41
3.5
  0
LINE
  5
226
100
AcDbEntity
  8
0
100
AcDbLine
 62
2
  6
CONTINUOUS
 10
71.1950402145
 20
75.591152815
 11
71.1950402145
 21
59.923344522
  0
LINE
  5
227
100
AcDbEntity
  8
0
100
AcDbLine
 62
2
  6
CONTINUOUS
 10
128.1950402145
 20
75.591152815
 11
128.1950402145
 21
59.923344522
  0
LINE
  5
228
100
AcDbEntity
  8
0
100
AcDbLine
 62
2
  6
CONTINUOUS
 10
71.1950402145
 20
61.423344522
 11
99.6950402145
 21
61.423344522
  0
LINE
  5
229
100
AcDbEntity
  8
0
100
AcDbLine
 62
2
  6
CONTINUOUS
 10
128.1950402145
 20
61.423344522
 11
99.6950402145
 21
61.423344522
  0
INSERT
  5
22A
100
AcDbEntity
  8
0
100
AcDbBlockReference
 62
2
  6
CONTINUOUS
  2
_ARROW_FILLED
 10
71.1950402145
 20
61.423344522
 41
3.5
 42
3.5
 43
3.5
 50
180.0
  0
INSERT
  5
22B
100
AcDbEntity
  8
0
100
AcDbBlockReference
 62
2
  6
CONTINUOUS
  2
_ARROW_FILLED
 10
128.1950402145
 20
61.423344522
 41
3.5
 42
3.5
 43
3.5
  0
ENDBLK
  5
22C
100
AcDbEntity
  8
0
  6
BYBLOCK
 62
0
100
AcDbBlockEnd
  0
BLOCK
  5
22D
100
AcDbEntity
  8
0
100
AcDbBlockBegin
 62
2
  6
CONTINUOUS
  2
*D3
 70
65
 10
0.0
 20
0.0
  3
*D3
  1

  0
MTEXT
  5
22E
100
AcDbEntity
  8
0
100
AcDbMText
 62
2
  6
CONTINUOUS
  7
STANDARD
 71
2
 72
1
 10
6.7724530831
 20
128.091152815
 30
0.0
 11
0.0
 21
1.0
 31
0.0
  1
M24
 40
3.5
 41
5.25
  0
LINE
  5
22F
100
AcDbEntity
  8
0
100
AcDbLine
 62
2
  6
CONTINUOUS
 10
22.1950402145
 20
140.091152815
 11
9.6474530831
 21
140.091152815
  0
LINE
  5
230
100
AcDbEntity
  8
0
100
AcDbLine
 62
2
  6
CONTINUOUS
 10
22.1950402145
 20
116.091152815
 11
9.6474530831
 21
116.091152815
  0
LINE
  5
231
100
AcDbEntity
  8
0
100
AcDbLine
 62
2
  6
CONTINUOUS
 10
11.1474530831
 20
140.091152815
 11
11.1474530831
 21
128.091152815
  0
LINE
  5
232
100
AcDbEntity
  8
0
100
AcDbLine
 62
2
  6
CONTINUOUS
 10
11.1474530831
 20
116.091152815
 11
11.1474530831
 21
128.091152815
  0
INSERT
  5
233
100
AcDbEntity
  8
0
100
AcDbBlockReference
 62
2
  6
CONTINUOUS
  2
_ARROW_FILLED
 10
11.1474530831
 20
140.091152815
 41
3.5
 42
3.5
 43
3.5
 50
90.0
  0
INSERT
  5
234
100
AcDbEntity
  8
0
100
AcDbBlockReference
 62
2
  6
CONTINUOUS
  2
_ARROW_FILLED
 10
11.1474530831
 20
116.091152815
 41
3.5
 42
3.5
 43
3.5
 50
270.0
  0
ENDBLK
  5
235
100
AcDbEntity
  8
0
  6
BYBLOCK
 62
0
100
AcDbBlockEnd
  0
BLOCK
  5
236
100
AcDbEntity
  8
0
100
AcDbBlockBegin
 62
2
  6
CONTINUOUS
  2
*D4
 70
65
 10
0.0
 20
0.0
  3
*D4
  1

  0
MTEXT
  5
237
100
AcDbEntity
  8
0
100
AcDbMText
 62
2
  6
CONTINUOUS
  7
STANDARD
 71
2
 72
1
 10
36.6950402145
 20
174.9326407507
 30
0.0
 11
1.0
 21
0.0
 31
0.0
  1
28
 40
3.5
 41
3.5
  0
LINE
  5
238
100
AcDbEntity
  8
0
100
AcDbLine
 62
2
  6
CONTINUOUS
 10
50.6950402145
 20
140.591152815
 11
50.6950402145
 21
172.0576407507
  0
LINE
  5
239
100
AcDbEntity
  8
0
100
AcDbLine
 62
2
  6
CONTINUOUS
 10
22.6950402145
 20
140.591152815
 11
22.6950402145
 21
172.0576407507
  0
LINE
  5
23A
100
AcDbEntity
  8
0
100
AcDbLine
 62
2
  6
CONTINUOUS
 10
50.6950402145
 20
170.5576407507
 11
36.6950402145
 21
170.5576407507
  0
LINE
  5
23B
100
AcDbEntity
  8
0
100
AcDbLine
 62
2
  6
CONTINUOUS
 10
22.6950402145
 20
170.5576407507
 11
36.6950402145
 21
170.5576407507
  0
INSERT
  5
23C
100
AcDbEntity
  8
0
100
AcDbBlockReference
 62
2
  6
CONTINUOUS
  2
_ARROW_FILLED
 10
50.6950402145
 20
170.5576407507
 41
3.5
 42
3.5
 43
3.5
  0
INSERT
  5
23D
100
AcDbEntity
  8
0
100
AcDbBlockReference
 62
2
  6
CONTINUOUS
  2
_ARROW_FILLED
 10
22.6950402145
 20
170.5576407507
 41
3.5
 42
3.5
 43
3.5
 50
180.0
  0
ENDBLK
  5
23E
100
AcDbEntity
  8
0
  6
BYBLOCK
 62
0
100
AcDbBlockEnd
  0
BLOCK
  5
23F
100
AcDbEntity
  8
0
100
AcDbBlockBegin
 62
2
  6
CONTINUOUS
  2
*D5
 70
65
 10
0.0
 20
0.0
  3
*D5
  1

  0
MTEXT
  5
240
100
AcDbEntity
  8
0
100
AcDbMText
 62
2
  6
CONTINUOUS
  7
STANDARD
 71
2
 72
1
 10
215.5094927782
 20
71.4205764075
 30
0.0
 11
1.0
 21
0.0
 31
0.0
  1
13.5
 40
3.5
 41
7.0
  0
LINE
  5
241
100
AcDbEntity
  8
0
100
AcDbLine
 62
2
  6
CONTINUOUS
 10
208.7594927782
 20
75.591152815
 11
208.7594927782
 21
65.5455764075
  0
LINE
  5
242
100
AcDbEntity
  8
0
100
AcDbLine
 62
2
  6
CONTINUOUS
 10
222.2594927782
 20
75.591152815
 11
222.2594927782
 21
65.5455764075
  0
LINE
  5
243
100
AcDbEntity
  8
0
100
AcDbLine
 62
2
  6
CONTINUOUS
 10
208.7594927782
 20
67.0455764075
 11
200.7594927782
 21
67.0455764075
  0
LINE
  5
244
100
AcDbEntity
  8
0
100
AcDbLine
 62
2
  6
CONTINUOUS
 10
200.7594927782
 20
67.0455764075
 11
215.5094927782
 21
67.0455764075
  0
LINE
  5
245
100
AcDbEntity
  8
0
100
AcDbLine
 62
2
  6
CONTINUOUS
 10
222.2594927782
 20
67.0455764075
 11
230.2594927782
 21
67.0455764075
  0
LINE
  5
246
100
AcDbEntity
  8
0
100
AcDbLine
 62
2
  6
CONTINUOUS
 10
230.2594927782
 20
67.0455764075
 11
215.5094927782
 21
67.0455764075
  0
INSERT
  5
247
100
AcDbEntity
  8
0
100
AcDbBlockReference
 62
2
  6
CONTINUOUS
  2
_ARROW_FILLED
 10
208.7594927782
 20
67.0455764075
 41
3.5
 42
3.5
 43
3.5
  0
INSERT
  5
248
100
AcDbEntity
  8
0
100
AcDbBlockReference
 62
2
  6
CONTINUOUS
  2
_ARROW_FILLED
 10
222.2594927782
 20
67.0455764075
 41
3.5
 42
3.5
 43
3.5
 50
180.0
  0
ENDBLK
  5
249
100
AcDbEntity
  8
0
  6
BYBLOCK
 62
0
100
AcDbBlockEnd
  0
BLOCK
  5
24A
100
AcDbEntity
  8
0
100
AcDbBlockBegin
 62
2
  6
CONTINUOUS
  2
*D6
 70
65
 10
0.0
 20
0.0
  3
*D6
  1

  0
MTEXT
  5
24B
100
AcDbEntity
  8
0
100
AcDbMText
 62
2
  6
CONTINUOUS
  7
STANDARD
 71
2
 72
1
 10
213.6594927782
 20
195.9004691689
 30
0.0
 11
1.0
 21
0.0
 31
0.0
  1
40.7
 40
3.5
 41
7.0
  0
LINE
  5
24C
100
AcDbEntity
  8
0
100
AcDbLine
 62
2
  6
CONTINUOUS
 10
234.0094927782
 20
160.091152815
 11
234.0094927782
 21
193.0254691689
  0
LINE
  5
24D
100
AcDbEntity
  8
0
100
AcDbLine
 62
2
  6
CONTINUOUS
 10
193.3094927782
 20
128.591152815
 11
193.3094927782
 21
193.0254691689
  0
LINE
  5
24E
100
AcDbEntity
  8
0
100
AcDbLine
 62
2
  6
CONTINUOUS
 10
234.0094927782
 20
191.5254691689
 11
213.6594927782
 21
191.5254691689
  0
LINE
  5
24F
100
AcDbEntity
  8
0
100
AcDbLine
 62
2
  6
CONTINUOUS
 10
193.3094927782
 20
191.5254691689
 11
213.6594927782
 21
191.5254691689
  0
INSERT
  5
250
100
AcDbEntity
  8
0
100
AcDbBlockReference
 62
2
  6
CONTINUOUS
  2
_ARROW_FILLED
 10
234.0094927782
 20
191.5254691689
 41
3.5
 42
3.5
 43
3.5
  0
INSERT
  5
251
100
AcDbEntity
  8
0
100
AcDbBlockReference
 62
2
  6
CONTINUOUS
  2
_ARROW_FILLED
 10
193.3094927782
 20
191.5254691689
 41
3.5
 42
3.5
 43
3.5
 50
180.0
  0
ENDBLK
  5
252
100
AcDbEntity
  8
0
  6
BYBLOCK
 62
0
100
AcDbBlockEnd
  0
BLOCK
  5
253
100
AcDbEntity
  8
0
100
AcDbBlockBegin
 62
2
  6
CONTINUOUS
  2
*D7
 70
65
 10
0.0
 20
0.0
  3
*D7
  1

  0
MTEXT
  5
254
100
AcDbEntity
  8
0
100
AcDbMText
 62
2
  6
CONTINUOUS
  7
STANDARD
 71
2
 72
1
 10
215.5094927782
 20
63.19269437
 30
0.0
 11
1.0
 21
0.0
 31
0.0
  1
28
 40
3.5
 41
3.5
  0
LINE
  5
255
100
AcDbEntity
  8
0
100
AcDbLine
 62
2
  6
CONTINUOUS
 10
201.5094927782
 20
78.091152815
 11
201.5094927782
 21
57.31769437
  0
LINE
  5
256
100
AcDbEntity
  8
0
100
AcDbLine
 62
2
  6
CONTINUOUS
 10
229.5094927782
 20
78.091152815
 11
229.5094927782
 21
57.31769437
  0
LINE
  5
257
100
AcDbEntity
  8
0
100
AcDbLine
 62
2
  6
CONTINUOUS
 10
201.5094927782
 20
58.81769437
 11
215.5094927782
 21
58.81769437
  0
LINE
  5
258
100
AcDbEntity
  8
0
100
AcDbLine
 62
2
  6
CONTINUOUS
 10
229.5094927782
 20
58.81769437
 11
215.5094927782
 21
58.81769437
  0
INSERT
  5
259
100
AcDbEntity
  8
0
100
AcDbBlockReference
 62
2
  6
CONTINUOUS
  2
_ARROW_FILLED
 10
201.5094927782
 20
58.81769437
 41
3.5
 42
3.5
 43
3.5
 50
180.0
  0
INSERT
  5
25A
100
AcDbEntity
  8
0
100
AcDbBlockReference
 62
2
  6
CONTINUOUS
  2
_ARROW_FILLED
 10
229.5094927782
 20
58.81769437
 41
3.5
 42
3.5
 43
3.5
  0
ENDBLK
  5
25B
100
AcDbEntity
  8
0
  6
BYBLOCK
 62
0
100
AcDbBlockEnd
  0
BLOCK
  5
25C
100
AcDbEntity
  8
0
100
AcDbBlockBegin
 62
2
  6
CONTINUOUS
  2
*D8
 70
65
 10
0.0
 20
0.0
  3
*D8
  1

  0
MTEXT
  5
25D
100
AcDbEntity
  8
0
100
AcDbMText
 62
2
  6
CONTINUOUS
  7
STANDARD
 71
2
 72
1
 10
217.7594927782
 20
56.2032601039
 30
0.0
 11
1.0
 21
0.0
 31
0.0
  1
32.5
 40
3.5
 41
7.0
  0
LINE
  5
25E
100
AcDbEntity
  8
0
100
AcDbLine
 62
2
  6
CONTINUOUS
 10
201.5094927782
 20
78.091152815
 11
201.5094927782
 21
50.3282601039
  0
LINE
  5
25F
100
AcDbEntity
  8
0
100
AcDbLine
 62
2
  6
CONTINUOUS
 10
234.0094927782
 20
85.091152815
 11
234.0094927782
 21
50.3282601039
  0
LINE
  5
260
100
AcDbEntity
  8
0
100
AcDbLine
 62
2
  6
CONTINUOUS
 10
201.5094927782
 20
51.8282601039
 11
217.7594927782
 21
51.8282601039
  0
LINE
  5
261
100
AcDbEntity
  8
0
100
AcDbLine
 62
2
  6
CONTINUOUS
 10
234.0094927782
 20
51.8282601039
 11
217.7594927782
 21
51.8282601039
  0
INSERT
  5
262
100
AcDbEntity
  8
0
100
AcDbBlockReference
 62
2
  6
CONTINUOUS
  2
_ARROW_FILLED
 10
201.5094927782
 20
51.8282601039
 41
3.5
 42
3.5
 43
3.5
 50
180.0
  0
INSERT
  5
263
100
AcDbEntity
  8
0
100
AcDbBlockReference
 62
2
  6
CONTINUOUS
  2
_ARROW_FILLED
 10
234.0094927782
 20
51.8282601039
 41
3.5
 42
3.5
 43
3.5
  0
ENDBLK
  5
264
100
AcDbEntity
  8
0
  6
BYBLOCK
 62
0
100
AcDbBlockEnd
  0
BLOCK
  5
265
100
AcDbEntity
  8
0
100
AcDbBlockBegin
 62
2
  6
CONTINUOUS
  2
*D9
 70
65
 10
0.0
 20
0.0
  3
*D9
  1

  0
MTEXT
  5
266
100
AcDbEntity
  8
0
100
AcDbMText
 62
2
  6
CONTINUOUS
  7
STANDARD
 71
2
 72
1
 10
163.6330428954
 20
128.091152815
 30
0.0
 11
0.0
 21
1.0
 31
0.0
  1
104
 40
3.5
 41
5.25
  0
LINE
  5
267
100
AcDbEntity
  8
0
100
AcDbLine
 62
2
  6
CONTINUOUS
 10
128.6950402145
 20
180.091152815
 11
169.5080428954
 21
180.091152815
  0
LINE
  5
268
100
AcDbEntity
  8
0
100
AcDbLine
 62
2
  6
CONTINUOUS
 10
128.6950402145
 20
76.091152815
 11
169.5080428954
 21
76.091152815
  0
LINE
  5
269
100
AcDbEntity
  8
0
100
AcDbLine
 62
2
  6
CONTINUOUS
 10
168.0080428954
 20
180.091152815
 11
168.0080428954
 21
128.091152815
  0
LINE
  5
26A
100
AcDbEntity
  8
0
100
AcDbLine
 62
2
  6
CONTINUOUS
 10
168.0080428954
 20
76.091152815
 11
168.0080428954
 21
128.091152815
  0
INSERT
  5
26B
100
AcDbEntity
  8
0
100
AcDbBlockReference
 62
2
  6
CONTINUOUS
  2
_ARROW_FILLED
 10
168.0080428954
 20
180.091152815
 41
3.5
 42
3.5
 43
3.5
 50
90.0
  0
INSERT
  5
26C
100
AcDbEntity
  8
0
100
AcDbBlockReference
 62
2
  6
CONTINUOUS
  2
_ARROW_FILLED
 10
168.0080428954
 20
76.091152815
 41
3.5
 42
3.5
 43
3.5
 50
270.0
  0
ENDBLK
  5
26D
100
AcDbEntity
  8
0
  6
BYBLOCK
 62
0
100
AcDbBlockEnd
  0
ENDSEC
  0
SECTION
  2
ENTITIES
  0
LINE
  5
26E
100
AcDbEntity
  8
0
100
AcDbLine
 62
7
  6
CONTINUOUS
 10
50.6950402145
 20
116.091152815
 11
50.6950402145
 21
140.091152815
  0
LINE
  5
26F
100
AcDbEntity
  8
0
100
AcDbLine
 62
7
  6
CONTINUOUS
 10
50.6950402145
 20
140.091152815
 11
22.6950402145
 21
140.091152815
  0
LINE
  5
270
100
AcDbEntity
  8
0
100
AcDbLine
 62
7
  6
CONTINUOUS
 10
22.6950402145
 20
140.091152815
 11
22.6950402145
 21
142.141152815
  0
LINE
  5
271
100
AcDbEntity
  8
0
100
AcDbLine
 62
7
  6
CONTINUOUS
 10
22.6950402145
 20
142.141152815
 11
50.6950402145
 21
142.141152815
  0
LINE
  5
272
100
AcDbEntity
  8
0
100
AcDbLine
 62
7
  6
CONTINUOUS
 10
50.6950402145
 20
142.141152815
 11
50.6950402145
 21
142.191152815
  0
LINE
  5
273
100
AcDbEntity
  8
0
100
AcDbLine
 62
7
  6
CONTINUOUS
 10
50.6950402145
 20
142.191152815
 11
23.1950402145
 21
142.191152815
  0
LINE
  5
274
100
AcDbEntity
  8
0
100
AcDbLine
 62
7
  6
CONTINUOUS
 10
23.1950402145
 20
142.191152815
 11
22.6950402145
 21
142.691152815
  0
LINE
  5
275
100
AcDbEntity
  8
0
100
AcDbLine
 62
7
  6
CONTINUOUS
 10
22.6950402145
 20
142.691152815
 11
22.6950402145
 21
151.4447734423
  0
ARC
  5
276
100
AcDbEntity
  8
0
100
AcDbCircle
 62
7
  6
CONTINUOUS
 10
23.6950402145
 20
151.4447734423
 40
1.0
100
AcDbArc
 50
106.5366889512
 51
180.0
  0
LINE
  5
277
100
AcDbEntity
  8
0
100
AcDbLine
 62
7
  6
CONTINUOUS
 10
23.4104109545
 20
152.4034111134
 11
44.105273916
 21
158.5479260923
  0
SPLINE
  5
278
100
AcDbEntity
  8
0
100
AcDbSpline
 62
7
  6
CONTINUOUS
 70
0
 71
3
 72
36
 73
32
 74
30
 42
0.0000001
 43
0.0000001
 44
0.0000000001
 12
52.8228964618
 22
-8.0547805152
 32
0.0
 13
2.6219408402
 23
-33.7021915305
 33
0.0
 40
0.0
 40
0.0
 40
0.0
 40
0.0
 40
0.0344827586
 40
0.0689655172
 40
0.1034482759
 40
0.1379310345
 40
0.1724137931
 40
0.2068965517
 40
0.2413793103
 40
0.275862069
 40
0.3103448276
 40
0.3448275862
 40
0.3793103448
 40
0.4137931034
 40
0.4482758621
 40
0.4827586207
 40
0.5172413793
 40
0.5517241379
 40
0.5862068966
 40
0.6206896552
 40
0.6551724138
 40
0.6896551724
 40
0.724137931
 40
0.7586206897
 40
0.7931034483
 40
0.8275862069
 40
0.8620689655
 40
0.8965517241
 40
0.9310344828
 40
0.9655172414
 40
1.0
 40
1.0
 40
1.0
 40
1.0
 10
44.105273916
 20
158.5479260923
 30
0.0
 10
44.7124336455
 20
158.4553424082
 30
0.0
 10
45.8938143363
 20
158.2461164171
 30
0.0
 10
47.5541921795
 20
157.8597288449
 30
0.0
 10
49.1415074965
 20
157.4019108383
 30
0.0
 10
50.6724575722
 20
156.8704599837
 30
0.0
 10
52.1637179221
 20
156.2621696825
 30
0.0
 10
53.6380456626
 20
155.5658020485
 30
0.0
 10
55.0373724223
 20
154.8107810953
 30
0.0
 10
56.3109253721
 20
154.0309652864
 30
0.0
 10
57.4454672614
 20
153.2460623944
 30
0.0
 10
58.441569542
 20
152.4690064916
 30
0.0
 10
59.3065490557
 20
151.7081066426
 30
0.0
 10
60.0515298506
 20
150.9677938062
 30
0.0
 10
60.6887040306
 20
150.2499182564
 30
0.0
 10
61.2300556058
 20
149.5544486057
 30
0.0
 10
61.6864922365
 20
148.8803963901
 30
0.0
 10
62.067928947
 20
148.2251451802
 30
0.0
 10
62.3818259313
 20
147.5883613298
 30
0.0
 10
62.6355115585
 20
146.9664254806
 30
0.0
 10
62.8448730584
 20
146.3249318419
 30
0.0
 10
63.0211898569
 20
145.6207679119
 30
0.0
 10
63.1636994264
 20
144.825209843
 30
0.0
 10
63.2670885686
 20
143.9026514106
 30
0.0
 10
63.3218883178
 20
142.8216429602
 30
0.0
 10
63.3199193963
 20
141.5648757535
 30
0.0
 10
63.2649175268
 20
140.1342688371
 30
0.0
 10
63.173810327
 20
138.4774085343
 30
0.0
 10
63.1040650684
 20
136.8223863506
 30
0.0
 10
63.0997309575
 20
135.4190291814
 30
0.0
 10
63.1387635533
 20
134.5830919676
 30
0.0
 10
63.1689008043
 20
134.1957104558
 30
0.0
 11
44.105273916
 21
158.5479260923
 31
0.0
 11
45.8751988041
 21
158.2340249862
 31
0.0
 11
47.5420150918
 21
157.8478237725
 31
0.0
 11
49.1321132896
 21
157.3896386969
 31
0.0
 11
50.6658426179
 21
156.8576534092
 31
0.0
 11
52.1608958205
 21
156.247490127
 31
0.0
 11
53.6255454991
 21
155.5560264953
 31
0.0
 11
55.0164101206
 21
154.8066486193
 31
0.0
 11
56.287756862
 21
154.0301174392
 31
0.0
 11
57.4223939933
 21
153.2473702259
 31
0.0
 11
58.4197157475
 21
152.4716991672
 31
0.0
 11
59.2865492692
 21
151.7115378114
 31
0.0
 11
60.0335620815
 21
150.971533354
 31
0.0
 11
60.6727335965
 21
150.2536525729
 31
0.0
 11
61.2159031151
 21
149.5580181782
 31
0.0
 11
61.6739922498
 21
148.8835298911
 31
0.0
 11
62.056672326
 21
148.2282230735
 31
0.0
 11
62.3717907051
 21
147.5908359967
 31
0.0
 11
62.6281242039
 21
146.963165849
 31
0.0
 11
62.8393656082
 21
146.3144867934
 31
0.0
 11
63.0155553187
 21
145.6055355554
 31
0.0
 11
63.1571793552
 21
144.8040431157
 31
0.0
 11
63.2589903364
 21
143.8762430743
 31
0.0
 11
63.3124268727
 21
142.7923498342
 31
0.0
 11
63.3110805716
 21
141.5359024686
 31
0.0
 11
63.2588999718
 21
140.0965599394
 31
0.0
 11
63.1773706505
 21
138.4777148875
 31
0.0
 11
63.1149669264
 21
136.8643305197
 31
0.0
 11
63.1102114583
 21
135.4439377395
 31
0.0
 11
63.1689008043
 21
134.1957104558
 31
0.0
  0
SPLINE
  5
279
100
AcDbEntity
  8
0
100
AcDbSpline
 62
7
  6
CONTINUOUS
 70
0
 71
3
 72
40
 73
36
 74
34
 42
0.0000001
 43
0.0000001
 44
0.0000000001
 12
2.849197978
 22
-39.5507913082
 32
0.0
 13
-77.5037292062
 23
-31.1895127702
 33
0.0
 40
0.0
 40
0.0
 40
0.0
 40
0.0
 40
0.0303030303
 40
0.0606060606
 40
0.0909090909
 40
0.1212121212
 40
0.1515151515
 40
0.1818181818
 40
0.2121212121
 40
0.2424242424
 40
0.2727272727
 40
0.303030303
 40
0.3333333333
 40
0.3636363636
 40
0.3939393939
 40
0.4242424242
 40
0.4545454545
 40
0.4848484848
 40
0.5151515152
 40
0.5454545455
 40
0.5757575758
 40
0.6060606061
 40
0.6363636364
 40
0.6666666667
 40
0.696969697
 40
0.7272727273
 40
0.7575757576
 40
0.7878787879
 40
0.8181818182
 40
0.8484848485
 40
0.8787878788
 40
0.9090909091
 40
0.9393939394
 40
0.9696969697
 40
1.0
 40
1.0
 40
1.0
 40
1.0
 10
63.1689008043
 20
134.1957104558
 30
0.0
 10
63.1976805818
 20
133.7962075133
 30
0.0
 10
63.2896986268
 20
132.9506398455
 30
0.0
 10
63.51931009
 20
131.5690431932
 30
0.0
 10
63.8758791706
 20
129.9948807969
 30
0.0
 10
64.3892360532
 20
128.1900609323
 30
0.0
 10
65.0765774869
 20
126.1451212244
 30
0.0
 10
65.9370763373
 20
123.8520246786
 30
0.0
 10
66.9136378953
 20
121.3607971621
 30
0.0
 10
67.6984128725
 20
119.2813425591
 30
0.0
 10
68.3125095132
 20
117.4825156208
 30
0.0
 10
68.7612641017
 20
115.9398086877
 30
0.0
 10
69.067551216
 20
114.6170783234
 30
0.0
 10
69.257235483
 20
113.4869055665
 30
0.0
 10
69.3586304124
 20
112.4981367447
 30
0.0
 10
69.3898984582
 20
111.6080844579
 30
0.0
 10
69.3621339015
 20
110.7969934623
 30
0.0
 10
69.2820936662
 20
110.0377448812
 30
0.0
 10
69.1488790272
 20
109.2998454136
 30
0.0
 10
68.9592253138
 20
108.5586849074
 30
0.0
 10
68.7075442548
 20
107.804302775
 30
0.0
 10
68.3889341863
 20
107.0350367835
 30
0.0
 10
67.9967019589
 20
106.2474058004
 30
0.0
 10
67.5222130797
 20
105.437683405
 30
0.0
 10
66.9554077174
 20
104.6030088117
 30
0.0
 10
66.2842449459
 20
103.7406553682
 30
0.0
 10
65.4949084976
 20
102.8486800829
 30
0.0
 10
64.5718121796
 20
101.9260701598
 30
0.0
 10
63.497953599
 20
100.9732250179
 30
0.0
 10
62.2555451491
 20
99.9924672349
 30
0.0
 10
60.8272534402
 20
98.9887959041
 30
0.0
 10
59.1978209115
 20
97.9703794411
 30
0.0
 10
57.3578380131
 20
96.9504111922
 30
0.0
 10
55.3034095288
 20
95.9435180773
 30
0.0
 10
53.8045763195
 20
95.3020445883
 30
0.0
 10
53.0217103679
 20
94.9869990048
 30
0.0
 11
63.1689008043
 21
134.1957104558
 31
0.0
 11
63.3049626928
 21
132.9317656537
 31
0.0
 11
63.5404696929
 21
131.5369489025
 31
0.0
 11
63.9020104709
 21
129.9564378855
 31
0.0
 11
64.4182334784
 21
128.1500409584
 31
0.0
 11
65.1054370564
 21
126.1037617514
 31
0.0
 11
65.9564201219
 21
123.8190028502
 31
0.0
 11
66.8816734652
 21
121.429425981
 31
0.0
 11
67.6699664831
 21
119.3281138366
 31
0.0
 11
68.2849525045
 21
117.5252022884
 31
0.0
 11
68.7375195227
 21
115.9764714492
 31
0.0
 11
69.0481174081
 21
114.6491712579
 31
0.0
 11
69.2425205934
 21
113.510472889
 31
0.0
 11
69.3469425985
 21
112.5145895005
 31
0.0
 11
69.3800596911
 21
111.6212446731
 31
0.0
 11
69.3534212884
 21
110.8056338647
 31
0.0
 11
69.2732312656
 21
110.0413030668
 31
0.0
 11
69.1394725148
 21
109.2993019071
 31
0.0
 11
68.9488874229
 21
108.556481303
 31
0.0
 11
68.6963894199
 21
107.8018221318
 31
0.0
 11
68.3766638265
 21
107.0319759516
 31
0.0
 11
67.9829925169
 21
106.2437238984
 31
0.0
 11
67.5068269992
 21
105.4335247054
 31
0.0
 11
66.9380148159
 21
104.59839567
 31
0.0
 11
66.2645493331
 21
103.7357183945
 31
0.0
 11
65.472615186
 21
102.84357431
 31
0.0
 11
64.5466851358
 21
101.9210309567
 31
0.0
 11
63.4698619541
 21
100.968572911
 31
0.0
 11
62.2245646059
 21
99.9886483103
 31
0.0
 11
60.7937299702
 21
98.9863383821
 31
0.0
 11
59.1627291832
 21
97.9701208101
 31
0.0
 11
57.3220970821
 21
96.9525903812
 31
0.0
 11
55.2711059739
 21
95.9509652242
 31
0.0
 11
53.0217103679
 21
94.9869990048
 31
0.0
  0
LINE
  5
27A
100
AcDbEntity
  8
0
100
AcDbLine
 62
7
  6
CONTINUOUS
 10
53.0217103679
 20
94.9869990048
 11
23.4104109545
 21
103.7788945167
  0
ARC
  5
27B
100
AcDbEntity
  8
0
100
AcDbCircle
 62
7
  6
CONTINUOUS
 10
23.6950402145
 20
104.7375321877
 40
1.0
100
AcDbArc
 50
180.0
 51
253.4633110488
  0
LINE
  5
27C
100
AcDbEntity
  8
0
100
AcDbLine
 62
7
  6
CONTINUOUS
 10
22.6950402145
 20
104.7375321877
 11
22.6950402145
 21
113.491152815
  0
LINE
  5
27D
100
AcDbEntity
  8
0
100
AcDbLine
 62
7
  6
CONTINUOUS
 10
22.6950402145
 20
113.491152815
 11
23.1950402145
 21
113.991152815
  0
LINE
  5
27E
100
AcDbEntity
  8
0
100
AcDbLine
 62
7
  6
CONTINUOUS
 10
23.1950402145
 20
113.991152815
 11
50.6950402145
 21
113.991152815
  0
LINE
  5
27F
100
AcDbEntity
  8
0
100
AcDbLine
 62
7
  6
CONTINUOUS
 10
50.6950402145
 20
113.991152815
 11
50.6950402145
 21
114.041152815
  0
LINE
  5
280
100
AcDbEntity
  8
0
100
AcDbLine
 62
7
  6
CONTINUOUS
 10
50.6950402145
 20
114.041152815
 11
22.6950402145
 21
114.041152815
  0
LINE
  5
281
100
AcDbEntity
  8
0
100
AcDbLine
 62
7
  6
CONTINUOUS
 10
22.6950402145
 20
114.041152815
 11
22.6950402145
 21
116.091152815
  0
LINE
  5
282
100
AcDbEntity
  8
0
100
AcDbLine
 62
7
  6
CONTINUOUS
 10
22.6950402145
 20
116.091152815
 11
50.6950402145
 21
116.091152815
  0
HATCH
  5
283
100
AcDbEntity
  8
0
100
AcDbHatch
 62
2
  6
CONTINUOUS
 10
0.0
 20
0.0
 30
0.0
210
0.0
220
0.0
230
1.0
  2
A
 70
0
 71
1
 91
1
 92
1
 93
21
 72
1
 10
50.6950402145
 20
116.091152815
 11
50.6950402145
 21
140.091152815
 72
1
 10
50.6950402145
 20
140.091152815
 11
22.6950402145
 21
140.091152815
 72
1
 10
22.6950402145
 20
140.091152815
 11
22.6950402145
 21
142.141152815
 72
1
 10
22.6950402145
 20
142.141152815
 11
50.6950402145
 21
142.141152815
 72
1
 10
50.6950402145
 20
142.141152815
 11
50.6950402145
 21
142.191152815
 72
1
 10
50.6950402145
 20
142.191152815
 11
23.1950402145
 21
142.191152815
 72
1
 10
23.1950402145
 20
142.191152815
 11
22.6950402145
 21
142.691152815
 72
1
 10
22.6950402145
 20
142.691152815
 11
22.6950402145
 21
151.4447734423
 72
2
 10
23.6950402145
 20
151.4447734423
 40
1.0
 50
106.5366889512
 51
180.0
 73
1
 72
1
 10
23.4104109545
 20
152.4034111134
 11
44.105273916
 21
158.5479260923
 72
4
 94
3
 73
0
 74
0
 95
36
 96
32
 40
0.0
 40
0.0
 40
0.0
 40
0.0
 40
0.0344827586
 40
0.0689655172
 40
0.1034482759
 40
0.1379310345
 40
0.1724137931
 40
0.2068965517
 40
0.2413793103
 40
0.275862069
 40
0.3103448276
 40
0.3448275862
 40
0.3793103448
 40
0.4137931034
 40
0.4482758621
 40
0.4827586207
 40
0.5172413793
 40
0.5517241379
 40
0.5862068966
 40
0.6206896552
 40
0.6551724138
 40
0.6896551724
 40
0.724137931
 40
0.7586206897
 40
0.7931034483
 40
0.8275862069
 40
0.8620689655
 40
0.8965517241
 40
0.9310344828
 40
0.9655172414
 40
1.0
 40
1.0
 40
1.0
 40
1.0
 10
44.105273916
 20
158.5479260923
 10
44.7124336455
 20
158.4553424082
 10
45.8938143363
 20
158.2461164171
 10
47.5541921795
 20
157.8597288449
 10
49.1415074965
 20
157.4019108383
 10
50.6724575722
 20
156.8704599837
 10
52.1637179221
 20
156.2621696825
 10
53.6380456626
 20
155.5658020485
 10
55.0373724223
 20
154.8107810953
 10
56.3109253721
 20
154.0309652864
 10
57.4454672614
 20
153.2460623944
 10
58.441569542
 20
152.4690064916
 10
59.3065490557
 20
151.7081066426
 10
60.0515298506
 20
150.9677938062
 10
60.6887040306
 20
150.2499182564
 10
61.2300556058
 20
149.5544486057
 10
61.6864922365
 20
148.8803963901
 10
62.067928947
 20
148.2251451802
 10
62.3818259313
 20
147.5883613298
 10
62.6355115585
 20
146.9664254806
 10
62.8448730584
 20
146.3249318419
 10
63.0211898569
 20
145.6207679119
 10
63.1636994264
 20
144.825209843
 10
63.2670885686
 20
143.9026514106
 10
63.3218883178
 20
142.8216429602
 10
63.3199193963
 20
141.5648757535
 10
63.2649175268
 20
140.1342688371
 10
63.173810327
 20
138.4774085343
 10
63.1040650684
 20
136.8223863506
 10
63.0997309575
 20
135.4190291814
 10
63.1387635533
 20
134.5830919676
 10
63.1689008043
 20
134.1957104558
 72
4
 94
3
 73
0
 74
0
 95
40
 96
36
 40
0.0
 40
0.0
 40
0.0
 40
0.0
 40
0.0303030303
 40
0.0606060606
 40
0.0909090909
 40
0.1212121212
 40
0.1515151515
 40
0.1818181818
 40
0.2121212121
 40
0.2424242424
 40
0.2727272727
 40
0.303030303
 40
0.3333333333
 40
0.3636363636
 40
0.3939393939
 40
0.4242424242
 40
0.4545454545
 40
0.4848484848
 40
0.5151515152
 40
0.5454545455
 40
0.5757575758
 40
0.6060606061
 40
0.6363636364
 40
0.6666666667
 40
0.696969697
 40
0.7272727273
 40
0.7575757576
 40
0.7878787879
 40
0.8181818182
 40
0.8484848485
 40
0.8787878788
 40
0.9090909091
 40
0.9393939394
 40
0.9696969697
 40
1.0
 40
1.0
 40
1.0
 40
1.0
 10
63.1689008043
 20
134.1957104558
 10
63.1976805818
 20
133.7962075133
 10
63.2896986268
 20
132.9506398455
 10
63.51931009
 20
131.5690431932
 10
63.8758791706
 20
129.9948807969
 10
64.3892360532
 20
128.1900609323
 10
65.0765774869
 20
126.1451212244
 10
65.9370763373
 20
123.8520246786
 10
66.9136378953
 20
121.3607971621
 10
67.6984128725
 20
119.2813425591
 10
68.3125095132
 20
117.4825156208
 10
68.7612641017
 20
115.9398086877
 10
69.067551216
 20
114.6170783234
 10
69.257235483
 20
113.4869055665
 10
69.3586304124
 20
112.4981367447
 10
69.3898984582
 20
111.6080844579
 10
69.3621339015
 20
110.7969934623
 10
69.2820936662
 20
110.0377448812
 10
69.1488790272
 20
109.2998454136
 10
68.9592253138
 20
108.5586849074
 10
68.7075442548
 20
107.804302775
 10
68.3889341863
 20
107.0350367835
 10
67.9967019589
 20
106.2474058004
 10
67.5222130797
 20
105.437683405
 10
66.9554077174
 20
104.6030088117
 10
66.2842449459
 20
103.7406553682
 10
65.4949084976
 20
102.8486800829
 10
64.5718121796
 20
101.9260701598
 10
63.497953599
 20
100.9732250179
 10
62.2555451491
 20
99.9924672349
 10
60.8272534402
 20
98.9887959041
 10
59.1978209115
 20
97.9703794411
 10
57.3578380131
 20
96.9504111922
 10
55.3034095288
 20
95.9435180773
 10
53.8045763195
 20
95.3020445883
 10
53.0217103679
 20
94.9869990048
 72
1
 10
53.0217103679
 20
94.9869990048
 11
23.4104109545
 21
103.7788945167
 72
2
 10
23.6950402145
 20
104.7375321877
 40
1.0
 50
180.0
 51
253.4633110488
 73
1
 72
1
 10
22.6950402145
 20
104.7375321877
 11
22.6950402145
 21
113.491152815
 72
1
 10
22.6950402145
 20
113.491152815
 11
23.1950402145
 21
113.991152815
 72
1
 10
23.1950402145
 20
113.991152815
 11
50.6950402145
 21
113.991152815
 72
1
 10
50.6950402145
 20
113.991152815
 11
50.6950402145
 21
114.041152815
 72
1
 10
50.6950402145
 20
114.041152815
 11
22.6950402145
 21
114.041152815
 72
1
 10
22.6950402145
 20
114.041152815
 11
22.6950402145
 21
116.091152815
 72
1
 10
22.6950402145
 20
116.091152815
 11
50.6950402145
 21
116.091152815
 97
21
330
26E
330
26F
330
270
330
271
330
272
330
273
330
274
330
275
330
276
330
277
330
278
330
279
330
27A
330
27B
330
27C
330
27D
330
27E
330
27F
330
280
330
281
330
282
 75
0
 76
0
 52
45.0
 41
9.4517270133
 77
0
 78
1
 53
45.0
 43
0.0
 44
0.0
 45
-6.683380265
 46
6.683380265
 79
0
 98
1
 10
0.0
 20
0.0
  0
LINE
  5
284
100
AcDbEntity
  8
0
100
AcDbLine
 62
7
  6
CONTINUOUS
 10
234.0094927782
 20
85.591152815
 11
234.0094927782
 21
96.591152815
  0
LINE
  5
285
100
AcDbEntity
  8
0
100
AcDbLine
 62
7
  6
CONTINUOUS
 10
234.0094927782
 20
85.591152815
 11
231.5094927782
 21
85.591152815
  0
SPLINE
  5
286
100
AcDbEntity
  8
0
100
AcDbSpline
 62
7
  6
CONTINUOUS
 70
4
 71
3
 72
8
 73
4
 74
129
 42
0.0000001
 43
0.0000001
 44
0.0000000001
 12
-2.8284271247
 22
-0.0
 32
0.0
 13
0.0
 23
-2.8284271247
 33
0.0
 40
0.0
 40
0.0
 40
0.0
 40
0.0
 40
1.0
 40
1.0
 40
1.0
 40
1.0
 10
231.5094927782
 20
85.591152815
 30
0.0
 41
1.0
 10
230.3379199029
 20
85.591152815
 30
0.0
 41
0.8047378541
 10
229.5094927782
 20
84.7627256903
 30
0.0
 41
0.8047378541
 10
229.5094927782
 20
83.591152815
 30
0.0
 41
1.0
 11
231.5094927782
 21
85.591152815
 31
0.0
 11
231.4873456911
 21
85.5910301879
 31
0.0
 11
231.4651008906
 21
85.5906600944
 31
0.0
 11
231.4427618858
 21
85.590039252
 31
0.0
 11
231.4203322899
 21
85.5891644284
 31
0.0
 11
231.3978158206
 21
85.5880324451
 31
0.0
 11
231.3752162994
 21
85.5866401809
 31
0.0
 11
231.3525376509
 21
85.5849845752
 31
0.0
 11
231.3297839024
 21
85.5830626322
 31
0.0
 11
231.3069591828
 21
85.580871424
 31
0.0
 11
231.2840677222
 21
85.5784080941
 31
0.0
 11
231.26111385
 21
85.5756698616
 31
0.0
 11
231.2381019946
 21
85.5726540243
 31
0.0
 11
231.2150366813
 21
85.5693579629
 31
0.0
 11
231.1919225311
 21
85.5657791438
 31
0.0
 11
231.1687642593
 21
85.5619151235
 31
0.0
 11
231.1455666733
 21
85.5577635518
 31
0.0
 11
231.1223346709
 21
85.5533221757
 31
0.0
 11
231.0990732381
 21
85.5485888424
 31
0.0
 11
231.075787447
 21
85.5435615032
 31
0.0
 11
231.0524824533
 21
85.5382382171
 31
0.0
 11
231.0291634939
 21
85.5326171538
 31
0.0
 11
231.0058358839
 21
85.5266965972
 31
0.0
 11
230.9825050142
 21
85.520474949
 31
0.0
 11
230.9591763485
 21
85.5139507314
 31
0.0
 11
230.9358554196
 21
85.5071225906
 31
0.0
 11
230.9125478271
 21
85.4999892997
 31
0.0
 11
230.8892592329
 21
85.4925497618
 31
0.0
 11
230.8659953587
 21
85.4848030127
 31
0.0
 11
230.8427619817
 21
85.4767482236
 31
0.0
 11
230.8195649307
 21
85.4683847041
 31
0.0
 11
230.7964100829
 21
85.4597119042
 31
0.0
 11
230.773303359
 21
85.4507294171
 31
0.0
 11
230.7502507196
 21
85.4414369814
 31
0.0
 11
230.7272581604
 21
85.431834483
 31
0.0
 11
230.7043317084
 21
85.4219219572
 31
0.0
 11
230.6814774171
 21
85.4116995905
 31
0.0
 11
230.6587013616
 21
85.4011677225
 31
0.0
 11
230.6360096344
 21
85.3903268471
 31
0.0
 11
230.6134083404
 21
85.3791776136
 31
0.0
 11
230.590903592
 21
85.3677208287
 31
0.0
 11
230.5685015043
 21
85.3559574565
 31
0.0
 11
230.5462081899
 21
85.34388862
 31
0.0
 11
230.5240297541
 21
85.3315156014
 31
0.0
 11
230.5019722895
 21
85.3188398425
 31
0.0
 11
230.4800418713
 21
85.3058629451
 31
0.0
 11
230.4582445516
 21
85.292586671
 31
0.0
 11
230.4365863547
 21
85.2790129414
 31
0.0
 11
230.4150732714
 21
85.2651438375
 31
0.0
 11
230.3937112543
 21
85.2509815987
 31
0.0
 11
230.3725062123
 21
85.2365286228
 31
0.0
 11
230.3514640052
 21
85.2217874648
 31
0.0
 11
230.3305904391
 21
85.2067608352
 31
0.0
 11
230.3098912607
 21
85.1914515994
 31
0.0
 11
230.2893721526
 21
85.1758627756
 31
0.0
 11
230.2690387279
 21
85.159997533
 31
0.0
 11
230.2488965254
 21
85.1438591902
 31
0.0
 11
230.2289510047
 21
85.1274512126
 31
0.0
 11
230.2092075413
 21
85.1107772103
 31
0.0
 11
230.1896714218
 21
85.0938409355
 31
0.0
 11
230.1703478394
 21
85.0766462795
 31
0.0
 11
230.151241889
 21
85.0591972701
 31
0.0
 11
230.132358563
 21
85.0414980682
 31
0.0
 11
230.1137027471
 21
85.0235529649
 31
0.0
 11
230.0952792158
 21
85.0053663774
 31
0.0
 11
230.0770926283
 21
84.986942846
 31
0.0
 11
230.0591475249
 21
84.9682870301
 31
0.0
 11
230.0414483231
 21
84.9494037042
 31
0.0
 11
230.0239993137
 21
84.9302977538
 31
0.0
 11
230.0068046577
 21
84.9109741714
 31
0.0
 11
229.9898683829
 21
84.8914380519
 31
0.0
 11
229.9731943806
 21
84.8716945885
 31
0.0
 11
229.956786403
 21
84.8517490678
 31
0.0
 11
229.9406480602
 21
84.8316068653
 31
0.0
 11
229.9247828176
 21
84.8112734406
 31
0.0
 11
229.9091939937
 21
84.7907543324
 31
0.0
 11
229.8938847579
 21
84.7700551541
 31
0.0
 11
229.8788581284
 21
84.749181588
 31
0.0
 11
229.8641169703
 21
84.7281393809
 31
0.0
 11
229.8496639945
 21
84.7069343389
 31
0.0
 11
229.8355017557
 21
84.6855723218
 31
0.0
 11
229.8216326517
 21
84.6640592385
 31
0.0
 11
229.8080589222
 21
84.6424010416
 31
0.0
 11
229.794782648
 21
84.6206037219
 31
0.0
 11
229.7818057507
 21
84.5986733037
 31
0.0
 11
229.7691299918
 21
84.5766158391
 31
0.0
 11
229.7567569732
 21
84.5544374032
 31
0.0
 11
229.7446881367
 21
84.5321440888
 31
0.0
 11
229.7329247645
 21
84.5097420011
 31
0.0
 11
229.7214679795
 21
84.4872372527
 31
0.0
 11
229.7103187461
 21
84.4646359588
 31
0.0
 11
229.6994778706
 21
84.4419442316
 31
0.0
 11
229.6889460026
 21
84.4191681761
 31
0.0
 11
229.678723636
 21
84.3963138847
 31
0.0
 11
229.6688111102
 21
84.3733874328
 31
0.0
 11
229.6592086118
 21
84.3503948736
 31
0.0
 11
229.649916176
 21
84.3273422341
 31
0.0
 11
229.640933689
 21
84.3042355102
 31
0.0
 11
229.6322608891
 21
84.2810806624
 31
0.0
 11
229.6238973695
 21
84.2578836115
 31
0.0
 11
229.6158425805
 21
84.2346502344
 31
0.0
 11
229.6080958313
 21
84.2113863602
 31
0.0
 11
229.6006562934
 21
84.1880977661
 31
0.0
 11
229.5935230026
 21
84.1647901735
 31
0.0
 11
229.5866948618
 21
84.1414692447
 31
0.0
 11
229.5801706442
 21
84.1181405789
 31
0.0
 11
229.573948996
 21
84.0948097093
 31
0.0
 11
229.5680284394
 21
84.0714820993
 31
0.0
 11
229.5624073761
 21
84.0481631398
 31
0.0
 11
229.55708409
 21
84.0248581461
 31
0.0
 11
229.5520567508
 21
84.001572355
 31
0.0
 11
229.5473234175
 21
83.9783109222
 31
0.0
 11
229.5428820413
 21
83.9550789198
 31
0.0
 11
229.5387304697
 21
83.9318813339
 31
0.0
 11
229.5348664494
 21
83.9087230621
 31
0.0
 11
229.5312876303
 21
83.8856089119
 31
0.0
 11
229.5279915688
 21
83.8625435986
 31
0.0
 11
229.5249757316
 21
83.8395317431
 31
0.0
 11
229.5222374991
 21
83.816577871
 31
0.0
 11
229.5197741692
 21
83.7936864103
 31
0.0
 11
229.5175829609
 21
83.7708616908
 31
0.0
 11
229.5156610179
 21
83.7481079423
 31
0.0
 11
229.5140054123
 21
83.7254292938
 31
0.0
 11
229.512613148
 21
83.7028297726
 31
0.0
 11
229.5114811647
 21
83.6803133033
 31
0.0
 11
229.5106063412
 21
83.6578837074
 31
0.0
 11
229.5099854988
 21
83.6355447025
 31
0.0
 11
229.5096154053
 21
83.6132999021
 31
0.0
 11
229.5094927782
 21
83.591152815
 31
0.0
  0
LINE
  5
287
100
AcDbEntity
  8
0
100
AcDbLine
 62
7
  6
CONTINUOUS
 10
229.5094927782
 20
83.591152815
 11
229.5094927782
 21
78.591152815
  0
SPLINE
  5
288
100
AcDbEntity
  8
0
100
AcDbSpline
 62
7
  6
CONTINUOUS
 70
4
 71
3
 72
8
 73
4
 74
129
 42
0.0000001
 43
0.0000001
 44
0.0000000001
 12
3.5355339059
 22
0.0
 32
0.0
 13
0.0
 23
3.5355339059
 33
0.0
 40
0.0
 40
0.0
 40
0.0
 40
0.0
 40
1.0
 40
1.0
 40
1.0
 40
1.0
 10
227.0094927782
 20
76.091152815
 30
0.0
 41
1.0
 10
228.4739588722
 20
76.091152815
 30
0.0
 41
0.8047378541
 10
229.5094927782
 20
77.1266867209
 30
0.0
 41
0.8047378541
 10
229.5094927782
 20
78.591152815
 30
0.0
 41
1.0
 11
227.0094927782
 21
76.091152815
 31
0.0
 11
227.037176637
 21
76.0913060989
 31
0.0
 11
227.0649826376
 21
76.0917687158
 31
0.0
 11
227.0929063937
 21
76.0925447688
 31
0.0
 11
227.1209433885
 21
76.0936382982
 31
0.0
 11
227.1490889751
 21
76.0950532774
 31
0.0
 11
227.1773383766
 21
76.0967936077
 31
0.0
 11
227.2056866872
 21
76.0988631148
 31
0.0
 11
227.2341288729
 21
76.1012655435
 31
0.0
 11
227.2626597723
 21
76.1040045538
 31
0.0
 11
227.2912740981
 21
76.1070837162
 31
0.0
 11
227.3199664383
 21
76.1105065068
 31
0.0
 11
227.3487312576
 21
76.1142763033
 31
0.0
 11
227.3775628993
 21
76.1183963802
 31
0.0
 11
227.406455587
 21
76.1228699041
 31
0.0
 11
227.4354034267
 21
76.1276999294
 31
0.0
 11
227.4644004092
 21
76.132889394
 31
0.0
 11
227.4934404122
 21
76.1384411142
 31
0.0
 11
227.5225172032
 21
76.1443577808
 31
0.0
 11
227.551624442
 21
76.1506419548
 31
0.0
 11
227.5807556842
 21
76.1572960624
 31
0.0
 11
227.6099043835
 21
76.1643223916
 31
0.0
 11
227.639063896
 21
76.1717230873
 31
0.0
 11
227.6682274831
 21
76.1795001475
 31
0.0
 11
227.6973883153
 21
76.1876554195
 31
0.0
 11
227.7265394763
 21
76.1961905955
 31
0.0
 11
227.755673967
 21
76.2051072091
 31
0.0
 11
227.7847847097
 21
76.2144066315
 31
0.0
 11
227.8138645524
 21
76.2240900679
 31
0.0
 11
227.8429062738
 21
76.2341585542
 31
0.0
 11
227.8719025874
 21
76.2446129537
 31
0.0
 11
227.9008461472
 21
76.2554539535
 31
0.0
 11
227.9297295521
 21
76.2666820624
 31
0.0
 11
227.9585453514
 21
76.278297607
 31
0.0
 11
227.9872860504
 21
76.2903007301
 31
0.0
 11
228.0159441153
 21
76.3026913873
 31
0.0
 11
228.0445119795
 21
76.3154693456
 31
0.0
 11
228.0729820489
 21
76.3286341806
 31
0.0
 11
228.1013467078
 21
76.342185275
 31
0.0
 11
228.1295983253
 21
76.3561218167
 31
0.0
 11
228.1577292608
 21
76.3704427979
 31
0.0
 11
228.1857318704
 21
76.3851470132
 31
0.0
 11
228.2135985135
 21
76.4002330588
 31
0.0
 11
228.2413215583
 21
76.4156993321
 31
0.0
 11
228.268893389
 21
76.4315440306
 31
0.0
 11
228.2963064117
 21
76.4477651524
 31
0.0
 11
228.3235530614
 21
76.4643604951
 31
0.0
 11
228.3506258075
 21
76.481327657
 31
0.0
 11
228.3775171616
 21
76.498664037
 31
0.0
 11
228.404219683
 21
76.5163668355
 31
0.0
 11
228.4307259855
 21
76.5344330552
 31
0.0
 11
228.4570287443
 21
76.5528595028
 31
0.0
 11
228.483120702
 21
76.5716427897
 31
0.0
 11
228.5089946749
 21
76.5907793345
 31
0.0
 11
228.5346435601
 21
76.6102653643
 31
0.0
 11
228.560060341
 21
76.6300969175
 31
0.0
 11
228.5852380942
 21
76.6502698461
 31
0.0
 11
228.610169995
 21
76.6707798181
 31
0.0
 11
228.6348493243
 21
76.6916223209
 31
0.0
 11
228.6592694736
 21
76.7127926645
 31
0.0
 11
228.6834239516
 21
76.7342859844
 31
0.0
 11
228.7073063897
 21
76.7560972462
 31
0.0
 11
228.7309105471
 21
76.7782212485
 31
0.0
 11
228.7542303169
 21
76.8006526277
 31
0.0
 11
228.7772597311
 21
76.823385862
 31
0.0
 11
228.7999929655
 21
76.8464152762
 31
0.0
 11
228.8224243447
 21
76.8697350461
 31
0.0
 11
228.844548347
 21
76.8933392035
 31
0.0
 11
228.8663596087
 21
76.9172216415
 31
0.0
 11
228.8878529287
 21
76.9413761196
 31
0.0
 11
228.9090232723
 21
76.9657962689
 31
0.0
 11
228.9298657751
 21
76.9904755981
 31
0.0
 11
228.9503757471
 21
77.015407499
 31
0.0
 11
228.9705486756
 21
77.0405852522
 31
0.0
 11
228.9903802289
 21
77.0660020331
 31
0.0
 11
229.0098662587
 21
77.0916509183
 31
0.0
 11
229.0290028034
 21
77.1175248912
 31
0.0
 11
229.0477860904
 21
77.1436168488
 31
0.0
 11
229.0662125379
 21
77.1699196076
 31
0.0
 11
229.0842787577
 21
77.1964259102
 31
0.0
 11
229.1019815562
 21
77.2231284316
 31
0.0
 11
229.1193179362
 21
77.2500197856
 31
0.0
 11
229.1362850981
 21
77.2770925318
 31
0.0
 11
229.1528804408
 21
77.3043391814
 31
0.0
 11
229.1691015625
 21
77.3317522042
 31
0.0
 11
229.1849462611
 21
77.3593240349
 31
0.0
 11
229.2004125344
 21
77.3870470797
 31
0.0
 11
229.21549858
 21
77.4149137227
 31
0.0
 11
229.2302027952
 21
77.4429163324
 31
0.0
 11
229.2445237764
 21
77.4710472678
 31
0.0
 11
229.2584603182
 21
77.4992988853
 31
0.0
 11
229.2720114126
 21
77.5276635443
 31
0.0
 11
229.2851762475
 21
77.5561336137
 31
0.0
 11
229.2979542058
 21
77.5847014779
 31
0.0
 11
229.3103448631
 21
77.6133595428
 31
0.0
 11
229.3223479862
 21
77.6421002418
 31
0.0
 11
229.3339635308
 21
77.6709160411
 31
0.0
 11
229.3451916396
 21
77.699799446
 31
0.0
 11
229.3560326395
 21
77.7287430057
 31
0.0
 11
229.3664870389
 21
77.7577393194
 31
0.0
 11
229.3765555253
 21
77.7867810407
 31
0.0
 11
229.3862389617
 21
77.8158608835
 31
0.0
 11
229.395538384
 21
77.8449716261
 31
0.0
 11
229.4044549976
 21
77.8741061169
 31
0.0
 11
229.4129901736
 21
77.9032572779
 31
0.0
 11
229.4211454456
 21
77.9324181101
 31
0.0
 11
229.4289225059
 21
77.9615816971
 31
0.0
 11
229.4363232016
 21
77.9907412096
 31
0.0
 11
229.4433495308
 21
78.019889909
 31
0.0
 11
229.4500036384
 21
78.0490211511
 31
0.0
 11
229.4562878123
 21
78.07812839
 31
0.0
 11
229.462204479
 21
78.107205181
 31
0.0
 11
229.4677561992
 21
78.136245184
 31
0.0
 11
229.4729456637
 21
78.1652421665
 31
0.0
 11
229.4777756891
 21
78.1941900062
 31
0.0
 11
229.482249213
 21
78.2230826939
 31
0.0
 11
229.4863692898
 21
78.2519143356
 31
0.0
 11
229.4901390864
 21
78.2806791549
 31
0.0
 11
229.493561877
 21
78.3093714951
 31
0.0
 11
229.4966410393
 21
78.3379858209
 31
0.0
 11
229.4993800497
 21
78.3665167203
 31
0.0
 11
229.5017824784
 21
78.3949589059
 31
0.0
 11
229.5038519855
 21
78.4233072165
 31
0.0
 11
229.5055923158
 21
78.4515566181
 31
0.0
 11
229.5070072949
 21
78.4797022046
 31
0.0
 11
229.5081008244
 21
78.5077391995
 31
0.0
 11
229.5088768774
 21
78.5356629556
 31
0.0
 11
229.5093394942
 21
78.5634689562
 31
0.0
 11
229.5094927782
 21
78.591152815
 31
0.0
  0
LINE
  5
289
100
AcDbEntity
  8
0
100
AcDbLine
 62
7
  6
CONTINUOUS
 10
227.0094927782
 20
76.091152815
 11
222.2594927782
 21
76.091152815
  0
LINE
  5
28A
100
AcDbEntity
  8
0
100
AcDbLine
 62
7
  6
CONTINUOUS
 10
222.2594927782
 20
83.591152815
 11
222.2594927782
 21
76.091152815
  0
LINE
  5
28B
100
AcDbEntity
  8
0
100
AcDbLine
 62
7
  6
CONTINUOUS
 10
208.7594927782
 20
83.591152815
 11
222.2594927782
 21
83.591152815
  0
LINE
  5
28C
100
AcDbEntity
  8
0
100
AcDbLine
 62
7
  6
CONTINUOUS
 10
208.7594927782
 20
76.091152815
 11
208.7594927782
 21
83.591152815
  0
LINE
  5
28D
100
AcDbEntity
  8
0
100
AcDbLine
 62
7
  6
CONTINUOUS
 10
208.7594927782
 20
76.091152815
 11
204.0094927782
 21
76.091152815
  0
SPLINE
  5
28E
100
AcDbEntity
  8
0
100
AcDbSpline
 62
7
  6
CONTINUOUS
 70
4
 71
3
 72
8
 73
4
 74
129
 42
0.0000001
 43
0.0000001
 44
0.0000000001
 12
-3.5355339059
 22
0.0
 32
0.0
 13
-0.0
 23
3.5355339059
 33
0.0
 40
0.0
 40
0.0
 40
0.0
 40
0.0
 40
1.0
 40
1.0
 40
1.0
 40
1.0
 10
204.0094927782
 20
76.091152815
 30
0.0
 41
1.0
 10
202.5450266841
 20
76.091152815
 30
0.0
 41
0.8047378541
 10
201.5094927782
 20
77.1266867209
 30
0.0
 41
0.8047378541
 10
201.5094927782
 20
78.591152815
 30
0.0
 41
1.0
 11
204.0094927782
 21
76.091152815
 31
0.0
 11
203.9818089193
 21
76.0913060989
 31
0.0
 11
203.9540029188
 21
76.0917687158
 31
0.0
 11
203.9260791626
 21
76.0925447688
 31
0.0
 11
203.8980421678
 21
76.0936382982
 31
0.0
 11
203.8698965812
 21
76.0950532774
 31
0.0
 11
203.8416471797
 21
76.0967936077
 31
0.0
 11
203.8132988691
 21
76.0988631148
 31
0.0
 11
203.7848566834
 21
76.1012655435
 31
0.0
 11
203.756325784
 21
76.1040045538
 31
0.0
 11
203.7277114582
 21
76.1070837162
 31
0.0
 11
203.699019118
 21
76.1105065068
 31
0.0
 11
203.6702542987
 21
76.1142763033
 31
0.0
 11
203.641422657
 21
76.1183963802
 31
0.0
 11
203.6125299693
 21
76.1228699041
 31
0.0
 11
203.5835821296
 21
76.1276999294
 31
0.0
 11
203.5545851471
 21
76.132889394
 31
0.0
 11
203.5255451441
 21
76.1384411142
 31
0.0
 11
203.4964683531
 21
76.1443577808
 31
0.0
 11
203.4673611143
 21
76.1506419548
 31
0.0
 11
203.4382298721
 21
76.1572960624
 31
0.0
 11
203.4090811728
 21
76.1643223916
 31
0.0
 11
203.3799216603
 21
76.1717230873
 31
0.0
 11
203.3507580732
 21
76.1795001475
 31
0.0
 11
203.321597241
 21
76.1876554195
 31
0.0
 11
203.29244608
 21
76.1961905955
 31
0.0
 11
203.2633115893
 21
76.2051072091
 31
0.0
 11
203.2342008466
 21
76.2144066315
 31
0.0
 11
203.2051210039
 21
76.2240900679
 31
0.0
 11
203.1760792825
 21
76.2341585542
 31
0.0
 11
203.1470829689
 21
76.2446129537
 31
0.0
 11
203.1181394091
 21
76.2554539535
 31
0.0
 11
203.0892560043
 21
76.2666820624
 31
0.0
 11
203.0604402049
 21
76.278297607
 31
0.0
 11
203.031699506
 21
76.2903007301
 31
0.0
 11
203.003041441
 21
76.3026913873
 31
0.0
 11
202.9744735768
 21
76.3154693456
 31
0.0
 11
202.9460035074
 21
76.3286341806
 31
0.0
 11
202.9176388485
 21
76.342185275
 31
0.0
 11
202.889387231
 21
76.3561218167
 31
0.0
 11
202.8612562955
 21
76.3704427979
 31
0.0
 11
202.8332536859
 21
76.3851470132
 31
0.0
 11
202.8053870429
 21
76.4002330588
 31
0.0
 11
202.7776639981
 21
76.4156993321
 31
0.0
 11
202.7500921674
 21
76.4315440306
 31
0.0
 11
202.7226791446
 21
76.4477651524
 31
0.0
 11
202.695432495
 21
76.4643604951
 31
0.0
 11
202.6683597488
 21
76.481327657
 31
0.0
 11
202.6414683947
 21
76.498664037
 31
0.0
 11
202.6147658733
 21
76.5163668355
 31
0.0
 11
202.5882595708
 21
76.5344330552
 31
0.0
 11
202.561956812
 21
76.5528595028
 31
0.0
 11
202.5358648543
 21
76.5716427897
 31
0.0
 11
202.5099908814
 21
76.5907793345
 31
0.0
 11
202.4843419962
 21
76.6102653643
 31
0.0
 11
202.4589252153
 21
76.6300969175
 31
0.0
 11
202.4337474622
 21
76.6502698461
 31
0.0
 11
202.4088155613
 21
76.6707798181
 31
0.0
 11
202.384136232
 21
76.6916223209
 31
0.0
 11
202.3597160827
 21
76.7127926645
 31
0.0
 11
202.3355616047
 21
76.7342859844
 31
0.0
 11
202.3116791667
 21
76.7560972462
 31
0.0
 11
202.2880750092
 21
76.7782212485
 31
0.0
 11
202.2647552394
 21
76.8006526277
 31
0.0
 11
202.2417258252
 21
76.823385862
 31
0.0
 11
202.2189925908
 21
76.8464152762
 31
0.0
 11
202.1965612116
 21
76.8697350461
 31
0.0
 11
202.1744372093
 21
76.8933392035
 31
0.0
 11
202.1526259476
 21
76.9172216415
 31
0.0
 11
202.1311326276
 21
76.9413761196
 31
0.0
 11
202.1099622841
 21
76.9657962689
 31
0.0
 11
202.0891197812
 21
76.9904755981
 31
0.0
 11
202.0686098092
 21
77.015407499
 31
0.0
 11
202.0484368807
 21
77.0405852522
 31
0.0
 11
202.0286053274
 21
77.0660020331
 31
0.0
 11
202.0091192976
 21
77.0916509183
 31
0.0
 11
201.9899827529
 21
77.1175248912
 31
0.0
 11
201.971199466
 21
77.1436168488
 31
0.0
 11
201.9527730184
 21
77.1699196076
 31
0.0
 11
201.9347067986
 21
77.1964259102
 31
0.0
 11
201.9170040001
 21
77.2231284316
 31
0.0
 11
201.8996676201
 21
77.2500197856
 31
0.0
 11
201.8827004582
 21
77.2770925318
 31
0.0
 11
201.8661051155
 21
77.3043391814
 31
0.0
 11
201.8498839938
 21
77.3317522042
 31
0.0
 11
201.8340392952
 21
77.3593240349
 31
0.0
 11
201.8185730219
 21
77.3870470797
 31
0.0
 11
201.8034869763
 21
77.4149137227
 31
0.0
 11
201.7887827611
 21
77.4429163324
 31
0.0
 11
201.7744617799
 21
77.4710472678
 31
0.0
 11
201.7605252381
 21
77.4992988853
 31
0.0
 11
201.7469741437
 21
77.5276635443
 31
0.0
 11
201.7338093088
 21
77.5561336137
 31
0.0
 11
201.7210313505
 21
77.5847014779
 31
0.0
 11
201.7086406932
 21
77.6133595428
 31
0.0
 11
201.6966375701
 21
77.6421002418
 31
0.0
 11
201.6850220255
 21
77.6709160411
 31
0.0
 11
201.6737939167
 21
77.699799446
 31
0.0
 11
201.6629529168
 21
77.7287430057
 31
0.0
 11
201.6524985174
 21
77.7577393194
 31
0.0
 11
201.6424300311
 21
77.7867810407
 31
0.0
 11
201.6327465946
 21
77.8158608835
 31
0.0
 11
201.6234471723
 21
77.8449716261
 31
0.0
 11
201.6145305587
 21
77.8741061169
 31
0.0
 11
201.6059953827
 21
77.9032572779
 31
0.0
 11
201.5978401107
 21
77.9324181101
 31
0.0
 11
201.5900630504
 21
77.9615816971
 31
0.0
 11
201.5826623547
 21
77.9907412096
 31
0.0
 11
201.5756360255
 21
78.019889909
 31
0.0
 11
201.5689819179
 21
78.0490211511
 31
0.0
 11
201.562697744
 21
78.07812839
 31
0.0
 11
201.5567810773
 21
78.107205181
 31
0.0
 11
201.5512293571
 21
78.136245184
 31
0.0
 11
201.5460398926
 21
78.1652421665
 31
0.0
 11
201.5412098672
 21
78.1941900062
 31
0.0
 11
201.5367363433
 21
78.2230826939
 31
0.0
 11
201.5326162665
 21
78.2519143356
 31
0.0
 11
201.52884647
 21
78.2806791549
 31
0.0
 11
201.5254236793
 21
78.3093714951
 31
0.0
 11
201.522344517
 21
78.3379858209
 31
0.0
 11
201.5196055066
 21
78.3665167203
 31
0.0
 11
201.5172030779
 21
78.3949589059
 31
0.0
 11
201.5151335709
 21
78.4233072165
 31
0.0
 11
201.5133932405
 21
78.4515566181
 31
0.0
 11
201.5119782614
 21
78.4797022046
 31
0.0
 11
201.5108847319
 21
78.5077391995
 31
0.0
 11
201.5101086789
 21
78.5356629556
 31
0.0
 11
201.5096460621
 21
78.5634689562
 31
0.0
 11
201.5094927782
 21
78.591152815
 31
0.0
  0
LINE
  5
28F
100
AcDbEntity
  8
0
100
AcDbLine
 62
7
  6
CONTINUOUS
 10
201.5094927782
 20
85.791152815
 11
201.5094927782
 21
78.591152815
  0
LINE
  5
290
100
AcDbEntity
  8
0
100
AcDbLine
 62
7
  6
CONTINUOUS
 10
201.5094927782
 20
85.791152815
 11
201.8094927782
 21
86.091152815
  0
LINE
  5
291
100
AcDbEntity
  8
0
100
AcDbLine
 62
7
  6
CONTINUOUS
 10
201.8094927782
 20
86.091152815
 11
202.3494927782
 21
86.091152815
  0
LINE
  5
292
100
AcDbEntity
  8
0
100
AcDbLine
 62
7
  6
CONTINUOUS
 10
202.3494927782
 20
86.091152815
 11
203.5594927782
 21
87.741152815
  0
LINE
  5
293
100
AcDbEntity
  8
0
100
AcDbLine
 62
7
  6
CONTINUOUS
 10
203.5594927782
 20
87.741152815
 11
203.7094927782
 21
87.741152815
  0
LINE
  5
294
100
AcDbEntity
  8
0
100
AcDbLine
 62
7
  6
CONTINUOUS
 10
203.7094927782
 20
87.741152815
 11
204.2094927782
 21
87.591152815
  0
LINE
  5
295
100
AcDbEntity
  8
0
100
AcDbLine
 62
7
  6
CONTINUOUS
 10
204.2094927782
 20
87.591152815
 11
204.2094927782
 21
85.5751898499
  0
SPLINE
  5
296
100
AcDbEntity
  8
0
100
AcDbSpline
 62
7
  6
CONTINUOUS
 70
4
 71
3
 72
11
 73
7
 74
313
 42
0.0000001
 43
0.0000001
 44
0.0000000001
 12
1.0300551384
 22
5.5152512599
 32
0.0
 13
-3.6874302372
 23
-4.2286958148
 33
0.0
 40
0.0
 40
0.0
 40
0.0
 40
0.0
 40
1.0
 40
1.0
 40
1.0
 40
2.0
 40
2.0
 40
2.0
 40
2.0
 10
204.2094927782
 20
85.5751898499
 30
0.0
 41
1.0
 10
204.4421167046
 20
86.8207342443
 30
0.0
 41
0.737997415
 10
205.5731586254
 20
87.3919075129
 30
0.0
 41
0.737997415
 10
206.7136108197
 20
86.8397630372
 30
0.0
 41
1.0
 10
207.854063014
 20
86.2876185616
 30
0.0
 41
0.737997415
 10
208.1075212129
 20
85.0461461814
 30
0.0
 41
0.737997415
 10
207.2747653066
 20
84.091152815
 30
0.0
 41
1.0
 11
204.2094927782
 21
85.5751898499
 31
0.0
 11
204.2136632449
 21
85.5967741786
 31
0.0
 11
204.2181301227
 21
85.6184360596
 31
0.0
 11
204.2228975323
 21
85.6401705643
 31
0.0
 11
204.2279695178
 21
85.661972601
 31
0.0
 11
204.2333500402
 21
85.6838369151
 31
0.0
 11
204.2390429711
 21
85.7057580894
 31
0.0
 11
204.2450520856
 21
85.7277305448
 31
0.0
 11
204.2513810565
 21
85.749748541
 31
0.0
 11
204.2580334469
 21
85.7718061778
 31
0.0
 11
204.265012704
 21
85.7938973962
 31
0.0
 11
204.2723221516
 21
85.8160159805
 31
0.0
 11
204.279964984
 21
85.83815556
 31
0.0
 11
204.2879442586
 21
85.8603096112
 31
0.0
 11
204.296262889
 21
85.8824714609
 31
0.0
 11
204.3049236385
 21
85.9046342886
 31
0.0
 11
204.3139291126
 21
85.92679113
 31
0.0
 11
204.3232817528
 21
85.9489348808
 31
0.0
 11
204.3329838293
 21
85.9710583003
 31
0.0
 11
204.3430374343
 21
85.9931540156
 31
0.0
 11
204.3534444756
 21
86.0152145265
 31
0.0
 11
204.3642066699
 21
86.0372322105
 31
0.0
 11
204.3753255362
 21
86.0591993278
 31
0.0
 11
204.3868023897
 21
86.0811080269
 31
0.0
 11
204.3986383356
 21
86.102950351
 31
0.0
 11
204.4108342628
 21
86.1247182438
 31
0.0
 11
204.4233908389
 21
86.1464035566
 31
0.0
 11
204.4363085036
 21
86.167998055
 31
0.0
 11
204.4495874642
 21
86.1894934261
 31
0.0
 11
204.4632276902
 21
86.2108812865
 31
0.0
 11
204.4772289081
 21
86.23215319
 31
0.0
 11
204.4915905978
 21
86.2533006357
 31
0.0
 11
204.5063119875
 21
86.2743150766
 31
0.0
 11
204.5213920503
 21
86.2951879286
 31
0.0
 11
204.5368295004
 21
86.3159105792
 31
0.0
 11
204.5526227902
 21
86.3364743971
 31
0.0
 11
204.5687701072
 21
86.3568707413
 31
0.0
 11
204.5852693719
 21
86.3770909714
 31
0.0
 11
204.6021182357
 21
86.3971264569
 31
0.0
 11
204.6193140793
 21
86.4169685878
 31
0.0
 11
204.6368540115
 21
86.4366087847
 31
0.0
 11
204.6547348688
 21
86.4560385089
 31
0.0
 11
204.6729532151
 21
86.4752492734
 31
0.0
 11
204.6915053416
 21
86.4942326531
 31
0.0
 11
204.7103872682
 21
86.5129802954
 31
0.0
 11
204.7295947442
 21
86.5314839313
 31
0.0
 11
204.7491232505
 21
86.5497353855
 31
0.0
 11
204.7689680013
 21
86.5677265877
 31
0.0
 11
204.7891239472
 21
86.5854495828
 31
0.0
 11
204.8095857784
 21
86.6028965414
 31
0.0
 11
204.8303479282
 21
86.6200597707
 31
0.0
 11
204.8514045775
 21
86.6369317244
 31
0.0
 11
204.8727496595
 21
86.6535050132
 31
0.0
 11
204.8943768647
 21
86.6697724146
 31
0.0
 11
204.9162796467
 21
86.6857268829
 31
0.0
 11
204.9384512285
 21
86.7013615588
 31
0.0
 11
204.9608846089
 21
86.7166697782
 31
0.0
 11
204.9835725696
 21
86.7316450821
 31
0.0
 11
205.006507683
 21
86.7462812246
 31
0.0
 11
205.0296823195
 21
86.7605721818
 31
0.0
 11
205.0530886567
 21
86.7745121594
 31
0.0
 11
205.0767186872
 21
86.7880956009
 31
0.0
 11
205.1005642283
 21
86.8013171943
 31
0.0
 11
205.124616931
 21
86.8141718793
 31
0.0
 11
205.1488682901
 21
86.8266548537
 31
0.0
 11
205.1733096539
 21
86.8387615794
 31
0.0
 11
205.1979322345
 21
86.8504877876
 31
0.0
 11
205.2227271187
 21
86.8618294842
 31
0.0
 11
205.2476852781
 21
86.8727829541
 31
0.0
 11
205.2727975808
 21
86.8833447651
 31
0.0
 11
205.2980548018
 21
86.8935117717
 31
0.0
 11
205.3234476347
 21
86.9032811181
 31
0.0
 11
205.3489667029
 21
86.9126502401
 31
0.0
 11
205.3746025708
 21
86.9216168678
 31
0.0
 11
205.4003457557
 21
86.9301790262
 31
0.0
 11
205.4261867389
 21
86.9383350368
 31
0.0
 11
205.4521159773
 21
86.9460835174
 31
0.0
 11
205.4781239148
 21
86.953423382
 31
0.0
 11
205.5042009939
 21
86.9603538403
 31
0.0
 11
205.5303376665
 21
86.966874396
 31
0.0
 11
205.5565244056
 21
86.9729848457
 31
0.0
 11
205.5827517158
 21
86.978685276
 31
0.0
 11
205.6090101446
 21
86.9839760612
 31
0.0
 11
205.6352902927
 21
86.9888578599
 31
0.0
 11
205.6615828244
 21
86.9933316113
 31
0.0
 11
205.6878784782
 21
86.9973985311
 31
0.0
 11
205.7141680762
 21
87.0010601073
 31
0.0
 11
205.7404425339
 21
87.0043180947
 31
0.0
 11
205.7666928698
 21
87.0071745098
 31
0.0
 11
205.7929102141
 21
87.0096316253
 31
0.0
 11
205.8190858173
 21
87.0116919637
 31
0.0
 11
205.8452110588
 21
87.0133582912
 31
0.0
 11
205.8712774548
 21
87.0146336106
 31
0.0
 11
205.8972766657
 21
87.0155211549
 31
0.0
 11
205.9232005036
 21
87.0160243795
 31
0.0
 11
205.9490409388
 21
87.016146955
 31
0.0
 11
205.9747901063
 21
87.0158927596
 31
0.0
 11
206.000440312
 21
87.0152658708
 31
0.0
 11
206.0259840381
 21
87.0142705577
 31
0.0
 11
206.0514139481
 21
87.0129112728
 31
0.0
 11
206.0767228922
 21
87.0111926432
 31
0.0
 11
206.1019039108
 21
87.009119463
 31
0.0
 11
206.1269502391
 21
87.0066966837
 31
0.0
 11
206.1518553103
 21
87.0039294067
 31
0.0
 11
206.1766127588
 21
87.0008228738
 31
0.0
 11
206.2012164228
 21
86.9973824592
 31
0.0
 11
206.2256603468
 21
86.9936136606
 31
0.0
 11
206.2499387834
 21
86.9895220905
 31
0.0
 11
206.2740461947
 21
86.9851134679
 31
0.0
 11
206.2979772538
 21
86.9803936095
 31
0.0
 11
206.3217268453
 21
86.9753684218
 31
0.0
 11
206.3452900657
 21
86.9700438919
 31
0.0
 11
206.3686622238
 21
86.9644260803
 31
0.0
 11
206.3918388399
 21
86.9585211118
 31
0.0
 11
206.414815646
 21
86.9523351686
 31
0.0
 11
206.4375885842
 21
86.9458744813
 31
0.0
 11
206.4601538058
 21
86.9391453223
 31
0.0
 11
206.48250767
 21
86.9321539977
 31
0.0
 11
206.5046467419
 21
86.9249068402
 31
0.0
 11
206.5265677907
 21
86.917410202
 31
0.0
 11
206.5482677871
 21
86.9096704479
 31
0.0
 11
206.5697439014
 21
86.9016939484
 31
0.0
 11
206.5803971723
 21
86.8976189099
 31
0.0
 11
206.5909935004
 21
86.8934870734
 31
0.0
 11
206.6015325868
 21
86.8892992339
 31
0.0
 11
206.6120141445
 21
86.8850561859
 31
0.0
 11
206.6224378984
 21
86.8807587226
 31
0.0
 11
206.632803585
 21
86.876407636
 31
0.0
 11
206.6431109525
 21
86.872003717
 31
0.0
 11
206.6533597604
 21
86.8675477548
 31
0.0
 11
206.6584621326
 21
86.8653005037
 31
0.0
 11
206.6635497799
 21
86.863040537
 31
0.0
 11
206.6686226755
 21
86.8607679528
 31
0.0
 11
206.6736807932
 21
86.8584828492
 31
0.0
 11
206.6787241076
 21
86.856185324
 31
0.0
 11
206.6837525939
 21
86.853875475
 31
0.0
 11
206.688766228
 21
86.8515533998
 31
0.0
 11
206.6912674681
 21
86.8503878079
 31
0.0
 11
206.6937649864
 21
86.849219196
 31
0.0
 11
206.6962587802
 21
86.8480475762
 31
0.0
 11
206.6987488465
 21
86.8468729607
 31
0.0
 11
206.7012351828
 21
86.8456953616
 31
0.0
 11
206.7037177863
 21
86.8445147912
 31
0.0
 11
206.7049576874
 21
86.8439233954
 31
0.0
 11
206.7061966543
 21
86.8433312614
 31
0.0
 11
206.7074346867
 21
86.8427383905
 31
0.0
 11
206.7086717842
 21
86.8421447844
 31
0.0
 11
206.7099079466
 21
86.8415504445
 31
0.0
 11
206.710525677
 21
86.8412529999
 31
0.0
 11
206.7111431735
 21
86.8409553723
 31
0.0
 11
206.7117604361
 21
86.8406575621
 31
0.0
 11
206.7123774647
 21
86.8403595694
 31
0.0
 11
206.7126858912
 21
86.8402105047
 31
0.0
 11
206.7129942592
 21
86.8400613944
 31
0.0
 11
206.7133025687
 21
86.8399122386
 31
0.0
 11
206.7134567015
 21
86.8398376436
 31
0.0
 11
206.7136108197
 21
86.8397630372
 31
0.0
 11
206.7137649306
 21
86.8396884159
 31
0.0
 11
206.7139190417
 21
86.8396137761
 31
0.0
 11
206.7142272643
 21
86.8394644409
 31
0.0
 11
206.7145354875
 21
86.8393150315
 31
0.0
 11
206.7148437113
 21
86.8391655479
 31
0.0
 11
206.7154601604
 21
86.8388663583
 31
0.0
 11
206.7160766115
 21
86.838566872
 31
0.0
 11
206.7166930643
 21
86.8382670888
 31
0.0
 11
206.7173095188
 21
86.8379670087
 31
0.0
 11
206.718542432
 21
86.8373659575
 31
0.0
 11
206.7197753495
 21
86.8367637176
 31
0.0
 11
206.7210082701
 21
86.8361602884
 31
0.0
 11
206.7222411924
 21
86.8355556691
 31
0.0
 11
206.7234741149
 21
86.8349498592
 31
0.0
 11
206.7259399551
 21
86.8337346643
 31
0.0
 11
206.7284057797
 21
86.8325146984
 31
0.0
 11
206.7308715773
 21
86.831289956
 31
0.0
 11
206.7333373369
 21
86.8300604317
 31
0.0
 11
206.7358030472
 21
86.8288261203
 31
0.0
 11
206.7382686968
 21
86.8275870163
 31
0.0
 11
206.7431997688
 21
86.8250944096
 31
0.0
 11
206.748130462
 21
86.8225825694
 31
0.0
 11
206.7530606849
 21
86.8200514542
 31
0.0
 11
206.7579903455
 21
86.8175010228
 31
0.0
 11
206.762919351
 21
86.8149312344
 31
0.0
 11
206.7678476086
 21
86.8123420487
 31
0.0
 11
206.7727750244
 21
86.8097334259
 31
0.0
 11
206.7826269536
 21
86.8044577123
 31
0.0
 11
206.7924743789
 21
86.7991037848
 31
0.0
 11
206.8023165322
 21
86.7936713423
 31
0.0
 11
206.812152637
 21
86.788160092
 31
0.0
 11
206.8219819084
 21
86.7825697492
 31
0.0
 11
206.8318035536
 21
86.7769000378
 31
0.0
 11
206.8416167714
 21
86.7711506902
 31
0.0
 11
206.8514207529
 21
86.7653214478
 31
0.0
 11
206.8709977306
 21
86.7534222892
 31
0.0
 11
206.8905278567
 21
86.7412006767
 31
0.0
 11
206.9100043789
 21
86.7286548789
 31
0.0
 11
206.9294204259
 21
86.7157833243
 31
0.0
 11
206.9487690109
 21
86.7025846075
 31
0.0
 11
206.968043036
 21
86.6890574953
 31
0.0
 11
206.9872352964
 21
86.6752009324
 31
0.0
 11
207.0063384849
 21
86.6610140476
 31
0.0
 11
207.0253451971
 21
86.6464961593
 31
0.0
 11
207.0442479365
 21
86.6316467816
 31
0.0
 11
207.0630391203
 21
86.6164656292
 31
0.0
 11
207.0817110848
 21
86.6009526235
 31
0.0
 11
207.1002560924
 21
86.5851078973
 31
0.0
 11
207.1186663372
 21
86.5689318
 31
0.0
 11
207.1369339524
 21
86.5524249026
 31
0.0
 11
207.1550510173
 21
86.535588002
 31
0.0
 11
207.1730095646
 21
86.5184221256
 31
0.0
 11
207.190801588
 21
86.5009285351
 31
0.0
 11
207.2084190502
 21
86.483108731
 31
0.0
 11
207.2258538911
 21
86.4649644553
 31
0.0
 11
207.2430980365
 21
86.4464976953
 31
0.0
 11
207.2601434063
 21
86.4277106863
 31
0.0
 11
207.2769819237
 21
86.4086059143
 31
0.0
 11
207.2936055242
 21
86.3891861179
 31
0.0
 11
207.3100061652
 21
86.3694542903
 31
0.0
 11
207.3261758352
 21
86.3494136811
 31
0.0
 11
207.3421065633
 21
86.3290677966
 31
0.0
 11
207.3577904296
 21
86.308420401
 31
0.0
 11
207.3732195745
 21
86.2874755164
 31
0.0
 11
207.3883862091
 21
86.2662374224
 31
0.0
 11
207.403282625
 21
86.2447106557
 31
0.0
 11
207.4179012047
 21
86.2229000087
 31
0.0
 11
207.4322344318
 21
86.2008105281
 31
0.0
 11
207.4462749009
 21
86.1784475124
 31
0.0
 11
207.460015328
 21
86.1558165099
 31
0.0
 11
207.4734485607
 21
86.1329233152
 31
0.0
 11
207.486567588
 21
86.109773966
 31
0.0
 11
207.4993655504
 21
86.0863747388
 31
0.0
 11
207.5118357501
 21
86.0627321446
 31
0.0
 11
207.5239716601
 21
86.0388529239
 31
0.0
 11
207.535766934
 21
86.0147440413
 31
0.0
 11
207.5472154156
 21
85.9904126795
 31
0.0
 11
207.5583111477
 21
85.9658662331
 31
0.0
 11
207.569048381
 21
85.9411123016
 31
0.0
 11
207.5794215828
 21
85.9161586824
 31
0.0
 11
207.5894254452
 21
85.8910133629
 31
0.0
 11
207.5990548932
 21
85.8656845127
 31
0.0
 11
207.6083050921
 21
85.8401804748
 31
0.0
 11
207.6171714549
 21
85.8145097572
 31
0.0
 11
207.6256496494
 21
85.788681023
 31
0.0
 11
207.633735604
 21
85.7627030818
 31
0.0
 11
207.6414255144
 21
85.736584879
 31
0.0
 11
207.6487158488
 21
85.7103354862
 31
0.0
 11
207.6556033531
 21
85.6839640906
 31
0.0
 11
207.6620850556
 21
85.6574799842
 31
0.0
 11
207.668158271
 21
85.6308925531
 31
0.0
 11
207.6738206042
 21
85.6042112666
 31
0.0
 11
207.6790699531
 21
85.5774456654
 31
0.0
 11
207.6839045117
 21
85.550605351
 31
0.0
 11
207.6883227717
 21
85.5236999735
 31
0.0
 11
207.6923235244
 21
85.4967392205
 31
0.0
 11
207.6959058613
 21
85.4697328053
 31
0.0
 11
207.699069175
 21
85.4426904555
 31
0.0
 11
207.7018131587
 21
85.4156219009
 31
0.0
 11
207.7041378058
 21
85.3885368626
 31
0.0
 11
207.706043409
 21
85.3614450407
 31
0.0
 11
207.7075305579
 21
85.3343561035
 31
0.0
 11
207.7086001375
 21
85.3072796761
 31
0.0
 11
207.7092533254
 21
85.280225329
 31
0.0
 11
207.7094915879
 21
85.2532025671
 31
0.0
 11
207.7093166775
 21
85.2262208194
 31
0.0
 11
207.7087306275
 21
85.1992894279
 31
0.0
 11
207.7077357483
 21
85.1724176376
 31
0.0
 11
207.7063346219
 21
85.1456145864
 31
0.0
 11
207.7045300963
 21
85.1188892954
 31
0.0
 11
207.7023252801
 21
85.0922506595
 31
0.0
 11
207.6997235357
 21
85.065707438
 31
0.0
 11
207.6967284728
 21
85.0392682466
 31
0.0
 11
207.6933439417
 21
85.0129415482
 31
0.0
 11
207.6895740257
 21
84.9867356453
 31
0.0
 11
207.6854230333
 21
84.9606586726
 31
0.0
 11
207.6808954909
 21
84.9347185894
 31
0.0
 11
207.6759961343
 21
84.9089231732
 31
0.0
 11
207.6707299002
 21
84.8832800129
 31
0.0
 11
207.665101918
 21
84.8577965034
 31
0.0
 11
207.6591175009
 21
84.8324798398
 31
0.0
 11
207.6527821369
 21
84.8073370124
 31
0.0
 11
207.6461014801
 21
84.7823748021
 31
0.0
 11
207.6390813413
 21
84.7575997765
 31
0.0
 11
207.6317276787
 21
84.7330182858
 31
0.0
 11
207.6240465891
 21
84.7086364595
 31
0.0
 11
207.6160442984
 21
84.6844602041
 31
0.0
 11
207.6077271519
 21
84.6604952002
 31
0.0
 11
207.5991016058
 21
84.6367469007
 31
0.0
 11
207.5901742172
 21
84.6132205292
 31
0.0
 11
207.5809516354
 21
84.5899210791
 31
0.0
 11
207.5714405925
 21
84.5668533123
 31
0.0
 11
207.5616478945
 21
84.5440217595
 31
0.0
 11
207.5515804124
 21
84.52143072
 31
0.0
 11
207.5412450731
 21
84.4990842619
 31
0.0
 11
207.5306488512
 21
84.4769862231
 31
0.0
 11
207.5197987601
 21
84.4551402126
 31
0.0
 11
207.5087018439
 21
84.4335496114
 31
0.0
 11
207.4973651692
 21
84.4122175749
 31
0.0
 11
207.4857958171
 21
84.3911470346
 31
0.0
 11
207.4740008752
 21
84.3703407006
 31
0.0
 11
207.4619874309
 21
84.3498010641
 31
0.0
 11
207.449762563
 21
84.3295304006
 31
0.0
 11
207.4373333355
 21
84.3095307728
 31
0.0
 11
207.4247067902
 21
84.2898040341
 31
0.0
 11
207.4118899405
 21
84.2703518322
 31
0.0
 11
207.3988897648
 21
84.2511756127
 31
0.0
 11
207.3857132006
 21
84.2322766234
 31
0.0
 11
207.3723671386
 21
84.2136559183
 31
0.0
 11
207.3588584171
 21
84.1953143618
 31
0.0
 11
207.3451938167
 21
84.1772526331
 31
0.0
 11
207.3313800554
 21
84.1594712313
 31
0.0
 11
207.3174237838
 21
84.1419704793
 31
0.0
 11
207.3033315802
 21
84.124750529
 31
0.0
 11
207.2891099472
 21
84.1078113661
 31
0.0
 11
207.2747653066
 21
84.091152815
 31
0.0
  0
LINE
  5
297
100
AcDbEntity
  8
0
100
AcDbLine
 62
7
  6
CONTINUOUS
 10
207.2747653066
 20
84.091152815
 11
207.7094927782
 21
84.091152815
  0
LINE
  5
298
100
AcDbEntity
  8
0
100
AcDbLine
 62
7
  6
CONTINUOUS
 10
207.7094927782
 20
95.8520191495
 11
207.7094927782
 21
84.091152815
  0
LINE
  5
299
100
AcDbEntity
  8
0
100
AcDbLine
 62
7
  6
CONTINUOUS
 10
205.2986296264
 20
97.916152815
 11
207.7094927782
 21
95.8520191495
  0
LINE
  5
29A
100
AcDbEntity
  8
0
100
AcDbLine
 62
7
  6
CONTINUOUS
 10
205.2986296264
 20
98.491152815
 11
205.2986296264
 21
97.916152815
  0
LINE
  5
29B
100
AcDbEntity
  8
0
100
AcDbLine
 62
7
  6
CONTINUOUS
 10
206.2986296264
 20
98.491152815
 11
205.2986296264
 21
98.491152815
  0
LINE
  5
29C
100
AcDbEntity
  8
0
100
AcDbLine
 62
7
  6
CONTINUOUS
 10
206.219590498
 20
98.5158638794
 11
206.2986296264
 21
98.491152815
  0
SPLINE
  5
29D
100
AcDbEntity
  8
0
100
AcDbSpline
 62
7
  6
CONTINUOUS
 70
4
 71
3
 72
8
 73
4
 74
65
 42
0.0000001
 43
0.0000001
 44
0.0000000001
 12
-0.0
 22
-0.3550473657
 32
0.0
 13
0.3387299493
 23
-0.1063985591
 33
0.0
 40
0.0
 40
0.0
 40
0.0
 40
0.0
 40
1.0
 40
1.0
 40
1.0
 40
1.0
 10
206.0094927782
 20
98.802076353
 30
0.0
 41
1.0
 10
206.0094927782
 20
98.6661600241
 30
0.0
 41
0.870749842
 10
206.0899206691
 20
98.5565945056
 30
0.0
 41
0.870749842
 10
206.219590498
 20
98.5158638794
 30
0.0
 41
1.0
 11
206.0094927782
 21
98.802076353
 31
0.0
 11
206.0095443793
 21
98.79651236
 31
0.0
 11
206.0097003888
 21
98.790917354
 31
0.0
 11
206.009962557
 21
98.7852940223
 31
0.0
 11
206.0103325518
 21
98.7796451474
 31
0.0
 11
206.0108119526
 21
98.7739736048
 31
0.0
 11
206.0114022449
 21
98.7682823593
 31
0.0
 11
206.012104815
 21
98.7625744623
 31
0.0
 11
206.0129209443
 21
98.7568530476
 31
0.0
 11
206.0138518044
 21
98.7511213274
 31
0.0
 11
206.0148984521
 21
98.7453825875
 31
0.0
 11
206.0160618243
 21
98.739640183
 31
0.0
 11
206.0173427337
 21
98.7338975328
 31
0.0
 11
206.0187418642
 21
98.7281581141
 31
0.0
 11
206.0202597671
 21
98.7224254565
 31
0.0
 11
206.0218968571
 21
98.716703136
 31
0.0
 11
206.023653409
 21
98.7109947684
 31
0.0
 11
206.0255295548
 21
98.7053040028
 31
0.0
 11
206.0275252805
 21
98.6996345146
 31
0.0
 11
206.0296404243
 21
98.6939899984
 31
0.0
 11
206.0318746746
 21
98.6883741604
 31
0.0
 11
206.0342275685
 21
98.6827907111
 31
0.0
 11
206.0366984906
 21
98.6772433578
 31
0.0
 11
206.0392866728
 21
98.6717357966
 31
0.0
 11
206.0419911941
 21
98.6662717045
 31
0.0
 11
206.0448109809
 21
98.660854732
 31
0.0
 11
206.047744808
 21
98.6554884949
 31
0.0
 11
206.0507913001
 21
98.6501765662
 31
0.0
 11
206.0539489331
 21
98.644922469
 31
0.0
 11
206.0572160373
 21
98.6397296683
 31
0.0
 11
206.0605907995
 21
98.6346015637
 31
0.0
 11
206.0640712666
 21
98.6295414821
 31
0.0
 11
206.0676553493
 21
98.6245526701
 31
0.0
 11
206.071340826
 21
98.6196382877
 31
0.0
 11
206.0751253478
 21
98.6148014011
 31
0.0
 11
206.0790064434
 21
98.6100449766
 31
0.0
 11
206.0829815241
 21
98.6053718747
 31
0.0
 11
206.0870478899
 21
98.6007848437
 31
0.0
 11
206.0912027355
 21
98.5962865153
 31
0.0
 11
206.0954431564
 21
98.5918793991
 31
0.0
 11
206.0997661558
 21
98.5875658779
 31
0.0
 11
206.1041686514
 21
98.5833482044
 31
0.0
 11
206.1086474822
 21
98.5792284966
 31
0.0
 11
206.1131994161
 21
98.5752087351
 31
0.0
 11
206.1178211571
 21
98.5712907605
 31
0.0
 11
206.1225093528
 21
98.5674762706
 31
0.0
 11
206.1272606018
 21
98.5637668192
 31
0.0
 11
206.1320714616
 21
98.5601638142
 31
0.0
 11
206.136938456
 21
98.5566685171
 31
0.0
 11
206.1418580826
 21
98.5532820427
 31
0.0
 11
206.1468268206
 21
98.5500053585
 31
0.0
 11
206.1518411379
 21
98.5468392861
 31
0.0
 11
206.1568974985
 21
98.5437845013
 31
0.0
 11
206.16199237
 21
98.540841536
 31
0.0
 11
206.1671222299
 21
98.5380107797
 31
0.0
 11
206.172283573
 21
98.5352924816
 31
0.0
 11
206.1774729176
 21
98.5326867533
 31
0.0
 11
206.1826868122
 21
98.5301935713
 31
0.0
 11
206.187921841
 21
98.5278127804
 31
0.0
 11
206.1931746304
 21
98.5255440971
 31
0.0
 11
206.1984418538
 21
98.5233871135
 31
0.0
 11
206.2037202374
 21
98.5213413006
 31
0.0
 11
206.2090065646
 21
98.5194060134
 31
0.0
 11
206.2142976809
 21
98.5175804945
 31
0.0
 11
206.219590498
 21
98.5158638794
 31
0.0
  0
LINE
  5
29E
100
AcDbEntity
  8
0
100
AcDbLine
 62
7
  6
CONTINUOUS
 10
206.0094927782
 20
103.1861528153
 11
206.0094927782
 21
98.802076353
  0
LINE
  5
29F
100
AcDbEntity
  8
0
100
AcDbLine
 62
7
  6
CONTINUOUS
 10
206.0094927782
 20
103.1861528153
 11
206.9094927782
 21
103.1861528153
  0
LINE
  5
2A0
100
AcDbEntity
  8
0
100
AcDbLine
 62
7
  6
CONTINUOUS
 10
206.9094927782
 20
105.0911528153
 11
206.9094927782
 21
103.1861528153
  0
LINE
  5
2A1
100
AcDbEntity
  8
0
100
AcDbLine
 62
7
  6
CONTINUOUS
 10
206.0094927782
 20
106.6661528153
 11
206.9094927782
 21
105.0911528153
  0
LINE
  5
2A2
100
AcDbEntity
  8
0
100
AcDbLine
 62
7
  6
CONTINUOUS
 10
206.0094927782
 20
108.2411528144
 11
206.0094927782
 21
106.6661528153
  0
LINE
  5
2A3
100
AcDbEntity
  8
0
100
AcDbLine
 62
7
  6
CONTINUOUS
 10
193.6094927782
 20
108.2411528144
 11
206.0094927782
 21
108.2411528144
  0
SPLINE
  5
2A4
100
AcDbEntity
  8
0
100
AcDbSpline
 62
7
  6
CONTINUOUS
 70
4
 71
3
 72
8
 73
4
 74
127
 42
0.0000001
 43
0.0000001
 44
0.0000000001
 12
-0.0
 22
-0.4242640687
 32
0.0
 13
0.4242640687
 23
-0.0
 33
0.0
 40
0.0
 40
0.0
 40
0.0
 40
0.0
 40
1.0
 40
1.0
 40
1.0
 40
1.0
 10
193.3094927782
 20
108.5411528144
 30
0.0
 41
1.0
 10
193.3094927782
 20
108.3654168831
 30
0.0
 41
0.8047378541
 10
193.4337568469
 20
108.2411528144
 30
0.0
 41
0.8047378541
 10
193.6094927782
 20
108.2411528144
 30
0.0
 41
1.0
 11
193.3094927782
 21
108.5411528144
 31
0.0
 11
193.3095666862
 21
108.5344940313
 31
0.0
 11
193.3096598126
 21
108.5311431806
 31
0.0
 11
193.3097910361
 21
108.5277787412
 31
0.0
 11
193.3099608336
 21
108.5244012708
 31
0.0
 11
193.3101696733
 21
108.5210113426
 31
0.0
 11
193.3104180141
 21
108.5176095453
 31
0.0
 11
193.3107063056
 21
108.514196483
 31
0.0
 11
193.3110349868
 21
108.5107727751
 31
0.0
 11
193.3114044863
 21
108.507339056
 31
0.0
 11
193.3118152212
 21
108.5038959752
 31
0.0
 11
193.3122675968
 21
108.5004441969
 31
0.0
 11
193.312762006
 21
108.4969843999
 31
0.0
 11
193.3132988288
 21
108.4935172774
 31
0.0
 11
193.3138784319
 21
108.4900435366
 31
0.0
 11
193.3145011676
 21
108.4865638987
 31
0.0
 11
193.3151673741
 21
108.4830790983
 31
0.0
 11
193.3158773741
 21
108.4795898834
 31
0.0
 11
193.3166314749
 21
108.4760970147
 31
0.0
 11
193.3174299678
 21
108.4726012657
 31
0.0
 11
193.3182731273
 21
108.4691034218
 31
0.0
 11
193.3191612108
 21
108.4656042803
 31
0.0
 11
193.3200944581
 21
108.4621046498
 31
0.0
 11
193.3210730907
 21
108.45860535
 31
0.0
 11
193.3220973118
 21
108.4551072106
 31
0.0
 11
193.3231673054
 21
108.4516110718
 31
0.0
 11
193.3242832361
 21
108.4481177826
 31
0.0
 11
193.3254452485
 21
108.4446282015
 31
0.0
 11
193.3266534669
 21
108.4411431949
 31
0.0
 11
193.3279079948
 21
108.4376636373
 31
0.0
 11
193.3292089148
 21
108.4341904101
 31
0.0
 11
193.3305562878
 21
108.4307244015
 31
0.0
 11
193.3319501532
 21
108.4272665056
 31
0.0
 11
193.333390528
 21
108.4238176218
 31
0.0
 11
193.3348774068
 21
108.420378654
 31
0.0
 11
193.3364107618
 21
108.4169505103
 31
0.0
 11
193.337990542
 21
108.4135341019
 31
0.0
 11
193.3396166733
 21
108.4101303429
 31
0.0
 11
193.3412890584
 21
108.4067401488
 31
0.0
 11
193.3430075761
 21
108.4033644365
 31
0.0
 11
193.3447720819
 21
108.4000041233
 31
0.0
 11
193.3465824074
 21
108.3966601262
 31
0.0
 11
193.3484383602
 21
108.3933333608
 31
0.0
 11
193.350339724
 21
108.3900247411
 31
0.0
 11
193.3522862586
 21
108.3867351784
 31
0.0
 11
193.3542776998
 21
108.3834655804
 31
0.0
 11
193.3563137592
 21
108.3802168509
 31
0.0
 11
193.3583941248
 21
108.3769898884
 31
0.0
 11
193.3605184606
 21
108.3737855858
 31
0.0
 11
193.362686407
 21
108.3706048295
 31
0.0
 11
193.3648975807
 21
108.3674484985
 31
0.0
 11
193.3671515751
 21
108.3643174636
 31
0.0
 11
193.3694479605
 21
108.3612125868
 31
0.0
 11
193.3717862841
 21
108.3581347206
 31
0.0
 11
193.3741660705
 21
108.3550847069
 31
0.0
 11
193.3765868219
 21
108.3520633765
 31
0.0
 11
193.3790480185
 21
108.3490715484
 31
0.0
 11
193.3815491189
 21
108.3461100289
 31
0.0
 11
193.3840895601
 21
108.343179611
 31
0.0
 11
193.3866687585
 21
108.3402810736
 31
0.0
 11
193.3892861099
 21
108.337415181
 31
0.0
 11
193.3919409902
 21
108.3345826821
 31
0.0
 11
193.3946327557
 21
108.3317843098
 31
0.0
 11
193.3973607438
 21
108.3290207801
 31
0.0
 11
193.4001242735
 21
108.3262927919
 31
0.0
 11
193.4029226459
 21
108.3236010264
 31
0.0
 11
193.4057551448
 21
108.3209461462
 31
0.0
 11
193.4086210373
 21
108.3183287947
 31
0.0
 11
193.4115195747
 21
108.3157495963
 31
0.0
 11
193.4144499926
 21
108.3132091551
 31
0.0
 11
193.4174115121
 21
108.3107080548
 31
0.0
 11
193.4204033402
 21
108.3082468581
 31
0.0
 11
193.4234246706
 21
108.3058261067
 31
0.0
 11
193.4264746843
 21
108.3034463203
 31
0.0
 11
193.4295525505
 21
108.3011079968
 31
0.0
 11
193.4326574273
 21
108.2988116114
 31
0.0
 11
193.4357884622
 21
108.296557617
 31
0.0
 11
193.4389447933
 21
108.2943464432
 31
0.0
 11
193.4421255496
 21
108.2921784969
 31
0.0
 11
193.4453298521
 21
108.2900541611
 31
0.0
 11
193.4485568146
 21
108.2879737955
 31
0.0
 11
193.4518055442
 21
108.285937736
 31
0.0
 11
193.4550751421
 21
108.2839462949
 31
0.0
 11
193.4583647049
 21
108.2819997603
 31
0.0
 11
193.4616733245
 21
108.2800983965
 31
0.0
 11
193.4650000899
 21
108.2782424437
 31
0.0
 11
193.4683440871
 21
108.2764321182
 31
0.0
 11
193.4717044002
 21
108.2746676124
 31
0.0
 11
193.4750801125
 21
108.2729490946
 31
0.0
 11
193.4784703066
 21
108.2712767096
 31
0.0
 11
193.4818740657
 21
108.2696505783
 31
0.0
 11
193.485290474
 21
108.2680707981
 31
0.0
 11
193.4887186177
 21
108.2665374431
 31
0.0
 11
193.4921575855
 21
108.2650505642
 31
0.0
 11
193.4956064694
 21
108.2636101895
 31
0.0
 11
193.4990643653
 21
108.2622163241
 31
0.0
 11
193.5025303739
 21
108.260868951
 31
0.0
 11
193.506003601
 21
108.2595680311
 31
0.0
 11
193.5094831587
 21
108.2583135031
 31
0.0
 11
193.5129681652
 21
108.2571052848
 31
0.0
 11
193.5164577464
 21
108.2559432724
 31
0.0
 11
193.5199510355
 21
108.2548273417
 31
0.0
 11
193.5234471744
 21
108.2537573481
 31
0.0
 11
193.5269453137
 21
108.252733127
 31
0.0
 11
193.5304446136
 21
108.2517544943
 31
0.0
 11
193.533944244
 21
108.2508212471
 31
0.0
 11
193.5374433855
 21
108.2499331636
 31
0.0
 11
193.5409412294
 21
108.2490900041
 31
0.0
 11
193.5444369785
 21
108.2482915112
 31
0.0
 11
193.5479298472
 21
108.2475374103
 31
0.0
 11
193.5514190621
 21
108.2468274103
 31
0.0
 11
193.5549038624
 21
108.2461612039
 31
0.0
 11
193.5583835003
 21
108.2455384681
 31
0.0
 11
193.5618572411
 21
108.2449588651
 31
0.0
 11
193.5653243636
 21
108.2444220422
 31
0.0
 11
193.5687841606
 21
108.243927633
 31
0.0
 11
193.5722359389
 21
108.2434752574
 31
0.0
 11
193.5756790198
 21
108.2430645226
 31
0.0
 11
193.5791127389
 21
108.2426950231
 31
0.0
 11
193.5825364468
 21
108.2423663418
 31
0.0
 11
193.5859495091
 21
108.2420780504
 31
0.0
 11
193.5893513063
 21
108.2418297095
 31
0.0
 11
193.5927412345
 21
108.2416208699
 31
0.0
 11
193.5961187049
 21
108.2414510724
 31
0.0
 11
193.5994831443
 21
108.2413198489
 31
0.0
 11
193.602833995
 21
108.2412267225
 31
0.0
 11
193.6094927782
 21
108.2411528144
 31
0.0
  0
LINE
  5
2A5
100
AcDbEntity
  8
0
100
AcDbLine
 62
7
  6
CONTINUOUS
 10
193.3094927782
 20
112.491152815
 11
193.3094927782
 21
108.5411528144
  0
SPLINE
  5
2A6
100
AcDbEntity
  8
0
100
AcDbSpline
 62
7
  6
CONTINUOUS
 70
4
 71
3
 72
8
 73
4
 74
129
 42
0.0000001
 43
0.0000001
 44
0.0000000001
 12
-0.8485281374
 22
0.0
 32
0.0
 13
0.0
 23
-0.8485281374
 33
0.0
 40
0.0
 40
0.0
 40
0.0
 40
0.0
 40
1.0
 40
1.0
 40
1.0
 40
1.0
 10
193.9094927782
 20
113.091152815
 30
0.0
 41
1.0
 10
193.5580209156
 20
113.091152815
 30
0.0
 41
0.8047378541
 10
193.3094927782
 20
112.8426246776
 30
0.0
 41
0.8047378541
 10
193.3094927782
 20
112.491152815
 30
0.0
 41
1.0
 11
193.9094927782
 21
113.091152815
 31
0.0
 11
193.902848652
 21
113.0911160269
 31
0.0
 11
193.8961752119
 21
113.0910049988
 31
0.0
 11
193.8894735104
 21
113.0908187461
 31
0.0
 11
193.8827446317
 21
113.090556299
 31
0.0
 11
193.8759896909
 21
113.090216704
 31
0.0
 11
193.8692098345
 21
113.0897990248
 31
0.0
 11
193.86240624
 21
113.0893023431
 31
0.0
 11
193.8555801154
 21
113.0887257602
 31
0.0
 11
193.8487326996
 21
113.0880683977
 31
0.0
 11
193.8418652614
 21
113.0873293987
 31
0.0
 11
193.8349790997
 21
113.086507929
 31
0.0
 11
193.8280755431
 21
113.0856031778
 31
0.0
 11
193.8211559491
 21
113.0846143594
 31
0.0
 11
193.814221704
 21
113.0835407136
 31
0.0
 11
193.8072742225
 21
113.0823815076
 31
0.0
 11
193.8003149467
 21
113.0811360361
 31
0.0
 11
193.793345346
 21
113.0798036232
 31
0.0
 11
193.7863669162
 21
113.0783836232
 31
0.0
 11
193.7793811788
 21
113.0768754215
 31
0.0
 11
193.7723896807
 21
113.0752784356
 31
0.0
 11
193.7653939929
 21
113.0735921166
 31
0.0
 11
193.7583957099
 21
113.0718159497
 31
0.0
 11
193.751396449
 21
113.0699494552
 31
0.0
 11
193.7443978492
 21
113.0679921899
 31
0.0
 11
193.7374015706
 21
113.0659437477
 31
0.0
 11
193.7304092928
 21
113.0638037604
 31
0.0
 11
193.7234227146
 21
113.0615718991
 31
0.0
 11
193.7164435523
 21
113.0592478743
 31
0.0
 11
193.7094735392
 21
113.0568314376
 31
0.0
 11
193.7025144239
 21
113.0543223817
 31
0.0
 11
193.6955679696
 21
113.0517205418
 31
0.0
 11
193.6886359524
 21
113.0490257957
 31
0.0
 11
193.6817201606
 21
113.0462380649
 31
0.0
 11
193.6748223928
 21
113.0433573154
 31
0.0
 11
193.6679444572
 21
113.0403835577
 31
0.0
 11
193.6610881698
 21
113.0373168477
 31
0.0
 11
193.6542553532
 21
113.0341572873
 31
0.0
 11
193.647447835
 21
113.0309050246
 31
0.0
 11
193.6406674468
 21
113.0275602546
 31
0.0
 11
193.6339160223
 21
113.0241232191
 31
0.0
 11
193.627195396
 21
113.0205942075
 31
0.0
 11
193.6205074017
 21
113.0169735565
 31
0.0
 11
193.6138538709
 21
113.0132616509
 31
0.0
 11
193.6072366316
 21
113.0094589233
 31
0.0
 11
193.6006575061
 21
113.0055658541
 31
0.0
 11
193.5941183102
 21
113.0015829718
 31
0.0
 11
193.5876208511
 21
112.9975108529
 31
0.0
 11
193.5811669261
 21
112.9933501217
 31
0.0
 11
193.574758321
 21
112.9891014501
 31
0.0
 11
193.5683968084
 21
112.9847655574
 31
0.0
 11
193.5620841463
 21
112.9803432099
 31
0.0
 11
193.5558220764
 21
112.9758352211
 31
0.0
 11
193.5496123229
 21
112.9712424503
 31
0.0
 11
193.5434565905
 21
112.9665658032
 31
0.0
 11
193.5373565631
 21
112.9618062304
 31
0.0
 11
193.5313139023
 21
112.9569647276
 31
0.0
 11
193.5253302461
 21
112.9520423343
 31
0.0
 11
193.5194072071
 21
112.9470401336
 31
0.0
 11
193.5135463713
 21
112.9419592511
 31
0.0
 11
193.5077492965
 21
112.9368008543
 31
0.0
 11
193.5020175114
 21
112.9315661515
 31
0.0
 11
193.4963525136
 21
112.926256391
 31
0.0
 11
193.4907557688
 21
112.92087286
 31
0.0
 11
193.4852287094
 21
112.9154168837
 31
0.0
 11
193.4797727332
 21
112.9098898243
 31
0.0
 11
193.4743892022
 21
112.9042930796
 31
0.0
 11
193.4690794416
 21
112.8986280818
 31
0.0
 11
193.4638447388
 21
112.8928962966
 31
0.0
 11
193.458686342
 21
112.8870992219
 31
0.0
 11
193.4536054596
 21
112.8812383861
 31
0.0
 11
193.4486032589
 21
112.8753153471
 31
0.0
 11
193.4436808656
 21
112.8693316909
 31
0.0
 11
193.4388393628
 21
112.8632890301
 31
0.0
 11
193.43407979
 21
112.8571890027
 31
0.0
 11
193.4294031428
 21
112.8510332702
 31
0.0
 11
193.4248103721
 21
112.8448235167
 31
0.0
 11
193.4203023832
 21
112.8385614469
 31
0.0
 11
193.4158800358
 21
112.8322487848
 31
0.0
 11
193.4115441431
 21
112.8258872722
 31
0.0
 11
193.4072954714
 21
112.819478667
 31
0.0
 11
193.4031347402
 21
112.8130247421
 31
0.0
 11
193.3990626214
 21
112.806527283
 31
0.0
 11
193.3950797391
 21
112.7999880871
 31
0.0
 11
193.3911866699
 21
112.7934089616
 31
0.0
 11
193.3873839422
 21
112.7867917222
 31
0.0
 11
193.3836720367
 21
112.7801381915
 31
0.0
 11
193.3800513857
 21
112.7734501972
 31
0.0
 11
193.3765223741
 21
112.7667295708
 31
0.0
 11
193.3730853386
 21
112.7599781463
 31
0.0
 11
193.3697405685
 21
112.7531977581
 31
0.0
 11
193.3664883059
 21
112.74639024
 31
0.0
 11
193.3633287455
 21
112.7395574233
 31
0.0
 11
193.3602620355
 21
112.7327011359
 31
0.0
 11
193.3572882778
 21
112.7258232003
 31
0.0
 11
193.3544075282
 21
112.7189254326
 31
0.0
 11
193.3516197975
 21
112.7120096408
 31
0.0
 11
193.3489250514
 21
112.7050776236
 31
0.0
 11
193.3463232114
 21
112.6981311692
 31
0.0
 11
193.3438141556
 21
112.691172054
 31
0.0
 11
193.3413977189
 21
112.6842020408
 31
0.0
 11
193.3390736941
 21
112.6772228786
 31
0.0
 11
193.3368418327
 21
112.6702363003
 31
0.0
 11
193.3347018455
 21
112.6632440226
 31
0.0
 11
193.3326534032
 21
112.6562477439
 31
0.0
 11
193.330696138
 21
112.6492491442
 31
0.0
 11
193.3288296435
 21
112.6422498833
 31
0.0
 11
193.3270534765
 21
112.6352516003
 31
0.0
 11
193.3253671575
 21
112.6282559125
 31
0.0
 11
193.3237701717
 21
112.6212644143
 31
0.0
 11
193.32226197
 21
112.614278677
 31
0.0
 11
193.32084197
 21
112.6073002472
 31
0.0
 11
193.3195095571
 21
112.6003306465
 31
0.0
 11
193.3182640856
 21
112.5933713707
 31
0.0
 11
193.3171048795
 21
112.5864238891
 31
0.0
 11
193.3160312338
 21
112.5794896441
 31
0.0
 11
193.3150424154
 21
112.5725700501
 31
0.0
 11
193.3141376642
 21
112.5656664934
 31
0.0
 11
193.3133161944
 21
112.5587803318
 31
0.0
 11
193.3125771955
 21
112.5519128936
 31
0.0
 11
193.311919833
 21
112.5450654778
 31
0.0
 11
193.3113432501
 21
112.5382393532
 31
0.0
 11
193.3108465684
 21
112.5314357586
 31
0.0
 11
193.3104288891
 21
112.5246559023
 31
0.0
 11
193.3100892941
 21
112.5179009615
 31
0.0
 11
193.3098268471
 21
112.5111720827
 31
0.0
 11
193.3096405943
 21
112.5044703813
 31
0.0
 11
193.3095295663
 21
112.4977969411
 31
0.0
 11
193.3094927782
 21
112.491152815
 31
0.0
  0
LINE
  5
2A7
100
AcDbEntity
  8
0
100
AcDbLine
 62
7
  6
CONTINUOUS
 10
193.9094927782
 20
113.091152815
 11
230.8094927782
 21
113.091152815
  0
SPLINE
  5
2A8
100
AcDbEntity
  8
0
100
AcDbSpline
 62
7
  6
CONTINUOUS
 70
4
 71
3
 72
8
 73
4
 74
129
 42
0.0000001
 43
0.0000001
 44
0.0000000001
 12
0.0
 22
0.8485281374
 32
0.0
 13
-0.8485281374
 23
-0.0
 33
0.0
 40
0.0
 40
0.0
 40
0.0
 40
0.0
 40
1.0
 40
1.0
 40
1.0
 40
1.0
 10
231.4094927782
 20
112.491152815
 30
0.0
 41
1.0
 10
231.4094927782
 20
112.8426246776
 30
0.0
 41
0.8047378541
 10
231.1609646407
 20
113.091152815
 30
0.0
 41
0.8047378541
 10
230.8094927782
 20
113.091152815
 30
0.0
 41
1.0
 11
231.4094927782
 21
112.491152815
 31
0.0
 11
231.40945599
 21
112.4977969411
 31
0.0
 11
231.409344962
 21
112.5044703813
 31
0.0
 11
231.4091587093
 21
112.5111720827
 31
0.0
 11
231.4088962622
 21
112.5179009615
 31
0.0
 11
231.4085566672
 21
112.5246559023
 31
0.0
 11
231.4081389879
 21
112.5314357586
 31
0.0
 11
231.4076423062
 21
112.5382393532
 31
0.0
 11
231.4070657233
 21
112.5450654778
 31
0.0
 11
231.4064083608
 21
112.5519128936
 31
0.0
 11
231.4056693619
 21
112.5587803318
 31
0.0
 11
231.4048478921
 21
112.5656664934
 31
0.0
 11
231.403943141
 21
112.5725700501
 31
0.0
 11
231.4029543225
 21
112.5794896441
 31
0.0
 11
231.4018806768
 21
112.5864238891
 31
0.0
 11
231.4007214707
 21
112.5933713707
 31
0.0
 11
231.3994759992
 21
112.6003306465
 31
0.0
 11
231.3981435864
 21
112.6073002472
 31
0.0
 11
231.3967235864
 21
112.614278677
 31
0.0
 11
231.3952153846
 21
112.6212644143
 31
0.0
 11
231.3936183988
 21
112.6282559125
 31
0.0
 11
231.3919320798
 21
112.6352516003
 31
0.0
 11
231.3901559128
 21
112.6422498833
 31
0.0
 11
231.3882894184
 21
112.6492491442
 31
0.0
 11
231.3863321531
 21
112.6562477439
 31
0.0
 11
231.3842837108
 21
112.6632440226
 31
0.0
 11
231.3821437236
 21
112.6702363003
 31
0.0
 11
231.3799118622
 21
112.6772228786
 31
0.0
 11
231.3775878375
 21
112.6842020408
 31
0.0
 11
231.3751714007
 21
112.691172054
 31
0.0
 11
231.3726623449
 21
112.6981311692
 31
0.0
 11
231.3700605049
 21
112.7050776236
 31
0.0
 11
231.3673657588
 21
112.7120096408
 31
0.0
 11
231.3645780281
 21
112.7189254326
 31
0.0
 11
231.3616972785
 21
112.7258232003
 31
0.0
 11
231.3587235208
 21
112.7327011359
 31
0.0
 11
231.3556568108
 21
112.7395574233
 31
0.0
 11
231.3524972504
 21
112.74639024
 31
0.0
 11
231.3492449878
 21
112.7531977581
 31
0.0
 11
231.3459002177
 21
112.7599781463
 31
0.0
 11
231.3424631823
 21
112.7667295708
 31
0.0
 11
231.3389341706
 21
112.7734501972
 31
0.0
 11
231.3353135197
 21
112.7801381915
 31
0.0
 11
231.3316016141
 21
112.7867917222
 31
0.0
 11
231.3277988864
 21
112.7934089616
 31
0.0
 11
231.3239058172
 21
112.7999880871
 31
0.0
 11
231.3199229349
 21
112.806527283
 31
0.0
 11
231.3158508161
 21
112.8130247421
 31
0.0
 11
231.3116900849
 21
112.819478667
 31
0.0
 11
231.3074414133
 21
112.8258872722
 31
0.0
 11
231.3031055205
 21
112.8322487848
 31
0.0
 11
231.2986831731
 21
112.8385614469
 31
0.0
 11
231.2941751842
 21
112.8448235167
 31
0.0
 11
231.2895824135
 21
112.8510332702
 31
0.0
 11
231.2849057663
 21
112.8571890027
 31
0.0
 11
231.2801461936
 21
112.8632890301
 31
0.0
 11
231.2753046907
 21
112.8693316909
 31
0.0
 11
231.2703822974
 21
112.8753153471
 31
0.0
 11
231.2653800967
 21
112.8812383861
 31
0.0
 11
231.2602992143
 21
112.8870992219
 31
0.0
 11
231.2551408175
 21
112.8928962966
 31
0.0
 11
231.2499061147
 21
112.8986280818
 31
0.0
 11
231.2445963541
 21
112.9042930796
 31
0.0
 11
231.2392128231
 21
112.9098898243
 31
0.0
 11
231.2337568469
 21
112.9154168837
 31
0.0
 11
231.2282297875
 21
112.92087286
 31
0.0
 11
231.2226330427
 21
112.926256391
 31
0.0
 11
231.2169680449
 21
112.9315661515
 31
0.0
 11
231.2112362598
 21
112.9368008543
 31
0.0
 11
231.2054391851
 21
112.9419592511
 31
0.0
 11
231.1995783492
 21
112.9470401336
 31
0.0
 11
231.1936553102
 21
112.9520423343
 31
0.0
 11
231.187671654
 21
112.9569647276
 31
0.0
 11
231.1816289932
 21
112.9618062304
 31
0.0
 11
231.1755289658
 21
112.9665658032
 31
0.0
 11
231.1693732334
 21
112.9712424503
 31
0.0
 11
231.1631634799
 21
112.9758352211
 31
0.0
 11
231.15690141
 21
112.9803432099
 31
0.0
 11
231.1505887479
 21
112.9847655574
 31
0.0
 11
231.1442272353
 21
112.9891014501
 31
0.0
 11
231.1378186302
 21
112.9933501217
 31
0.0
 11
231.1313647052
 21
112.9975108529
 31
0.0
 11
231.1248672461
 21
113.0015829718
 31
0.0
 11
231.1183280502
 21
113.0055658541
 31
0.0
 11
231.1117489247
 21
113.0094589233
 31
0.0
 11
231.1051316854
 21
113.0132616509
 31
0.0
 11
231.0984781546
 21
113.0169735565
 31
0.0
 11
231.0917901603
 21
113.0205942075
 31
0.0
 11
231.085069534
 21
113.0241232191
 31
0.0
 11
231.0783181095
 21
113.0275602546
 31
0.0
 11
231.0715377213
 21
113.0309050246
 31
0.0
 11
231.0647302031
 21
113.0341572873
 31
0.0
 11
231.0578973865
 21
113.0373168477
 31
0.0
 11
231.0510410991
 21
113.0403835577
 31
0.0
 11
231.0441631635
 21
113.0433573154
 31
0.0
 11
231.0372653957
 21
113.0462380649
 31
0.0
 11
231.0303496039
 21
113.0490257957
 31
0.0
 11
231.0234175867
 21
113.0517205418
 31
0.0
 11
231.0164711324
 21
113.0543223817
 31
0.0
 11
231.0095120171
 21
113.0568314376
 31
0.0
 11
231.002542004
 21
113.0592478743
 31
0.0
 11
230.9955628417
 21
113.0615718991
 31
0.0
 11
230.9885762635
 21
113.0638037604
 31
0.0
 11
230.9815839857
 21
113.0659437477
 31
0.0
 11
230.9745877071
 21
113.0679921899
 31
0.0
 11
230.9675891073
 21
113.0699494552
 31
0.0
 11
230.9605898464
 21
113.0718159497
 31
0.0
 11
230.9535915634
 21
113.0735921166
 31
0.0
 11
230.9465958756
 21
113.0752784356
 31
0.0
 11
230.9396043775
 21
113.0768754215
 31
0.0
 11
230.9326186402
 21
113.0783836232
 31
0.0
 11
230.9256402103
 21
113.0798036232
 31
0.0
 11
230.9186706096
 21
113.0811360361
 31
0.0
 11
230.9117113338
 21
113.0823815076
 31
0.0
 11
230.9047638523
 21
113.0835407136
 31
0.0
 11
230.8978296072
 21
113.0846143594
 31
0.0
 11
230.8909100132
 21
113.0856031778
 31
0.0
 11
230.8840064566
 21
113.086507929
 31
0.0
 11
230.8771202949
 21
113.0873293987
 31
0.0
 11
230.8702528568
 21
113.0880683977
 31
0.0
 11
230.8634054409
 21
113.0887257602
 31
0.0
 11
230.8565793163
 21
113.0893023431
 31
0.0
 11
230.8497757218
 21
113.0897990248
 31
0.0
 11
230.8429958654
 21
113.090216704
 31
0.0
 11
230.8362409246
 21
113.090556299
 31
0.0
 11
230.8295120459
 21
113.0908187461
 31
0.0
 11
230.8228103444
 21
113.0910049988
 31
0.0
 11
230.8161369043
 21
113.0911160269
 31
0.0
 11
230.8094927782
 21
113.091152815
 31
0.0
  0
LINE
  5
2A9
100
AcDbEntity
  8
0
100
AcDbLine
 62
7
  6
CONTINUOUS
 10
231.4094927782
 20
112.491152815
 11
231.4094927782
 21
108.5411528144
  0
SPLINE
  5
2AA
100
AcDbEntity
  8
0
100
AcDbSpline
 62
7
  6
CONTINUOUS
 70
4
 71
3
 72
8
 73
4
 74
127
 42
0.0000001
 43
0.0000001
 44
0.0000000001
 12
0.4242640687
 22
0.0
 32
0.0
 13
0.0
 23
0.4242640687
 33
0.0
 40
0.0
 40
0.0
 40
0.0
 40
0.0
 40
1.0
 40
1.0
 40
1.0
 40
1.0
 10
231.1094927782
 20
108.2411528144
 30
0.0
 41
1.0
 10
231.2852287094
 20
108.2411528144
 30
0.0
 41
0.8047378541
 10
231.4094927782
 20
108.3654168831
 30
0.0
 41
0.8047378541
 10
231.4094927782
 20
108.5411528144
 30
0.0
 41
1.0
 11
231.1094927782
 21
108.2411528144
 31
0.0
 11
231.1161515613
 21
108.2412267225
 31
0.0
 11
231.119502412
 21
108.2413198489
 31
0.0
 11
231.1228668514
 21
108.2414510724
 31
0.0
 11
231.1262443218
 21
108.2416208699
 31
0.0
 11
231.12963425
 21
108.2418297095
 31
0.0
 11
231.1330360472
 21
108.2420780504
 31
0.0
 11
231.1364491095
 21
108.2423663418
 31
0.0
 11
231.1398728175
 21
108.2426950231
 31
0.0
 11
231.1433065366
 21
108.2430645226
 31
0.0
 11
231.1467496174
 21
108.2434752574
 31
0.0
 11
231.1502013957
 21
108.243927633
 31
0.0
 11
231.1536611927
 21
108.2444220422
 31
0.0
 11
231.1571283152
 21
108.2449588651
 31
0.0
 11
231.160602056
 21
108.2455384681
 31
0.0
 11
231.1640816939
 21
108.2461612039
 31
0.0
 11
231.1675664942
 21
108.2468274103
 31
0.0
 11
231.1710557092
 21
108.2475374103
 31
0.0
 11
231.1745485778
 21
108.2482915112
 31
0.0
 11
231.1780443269
 21
108.2490900041
 31
0.0
 11
231.1815421708
 21
108.2499331636
 31
0.0
 11
231.1850413123
 21
108.2508212471
 31
0.0
 11
231.1885409427
 21
108.2517544943
 31
0.0
 11
231.1920402426
 21
108.252733127
 31
0.0
 11
231.1955383819
 21
108.2537573481
 31
0.0
 11
231.1990345208
 21
108.2548273417
 31
0.0
 11
231.2025278099
 21
108.2559432724
 31
0.0
 11
231.2060173911
 21
108.2571052848
 31
0.0
 11
231.2095023976
 21
108.2583135031
 31
0.0
 11
231.2129819553
 21
108.2595680311
 31
0.0
 11
231.2164551824
 21
108.260868951
 31
0.0
 11
231.219921191
 21
108.2622163241
 31
0.0
 11
231.2233790869
 21
108.2636101895
 31
0.0
 11
231.2268279708
 21
108.2650505642
 31
0.0
 11
231.2302669386
 21
108.2665374431
 31
0.0
 11
231.2336950823
 21
108.2680707981
 31
0.0
 11
231.2371114906
 21
108.2696505783
 31
0.0
 11
231.2405152497
 21
108.2712767096
 31
0.0
 11
231.2439054438
 21
108.2729490946
 31
0.0
 11
231.2472811561
 21
108.2746676124
 31
0.0
 11
231.2506414692
 21
108.2764321182
 31
0.0
 11
231.2539854664
 21
108.2782424437
 31
0.0
 11
231.2573122318
 21
108.2800983965
 31
0.0
 11
231.2606208515
 21
108.2819997603
 31
0.0
 11
231.2639104142
 21
108.2839462949
 31
0.0
 11
231.2671800121
 21
108.285937736
 31
0.0
 11
231.2704287417
 21
108.2879737955
 31
0.0
 11
231.2736557042
 21
108.2900541611
 31
0.0
 11
231.2768600067
 21
108.2921784969
 31
0.0
 11
231.280040763
 21
108.2943464432
 31
0.0
 11
231.2831970941
 21
108.296557617
 31
0.0
 11
231.286328129
 21
108.2988116114
 31
0.0
 11
231.2894330058
 21
108.3011079968
 31
0.0
 11
231.292510872
 21
108.3034463203
 31
0.0
 11
231.2955608857
 21
108.3058261067
 31
0.0
 11
231.2985822161
 21
108.3082468581
 31
0.0
 11
231.3015740442
 21
108.3107080548
 31
0.0
 11
231.3045355637
 21
108.3132091551
 31
0.0
 11
231.3074659816
 21
108.3157495963
 31
0.0
 11
231.310364519
 21
108.3183287947
 31
0.0
 11
231.3132304115
 21
108.3209461462
 31
0.0
 11
231.3160629104
 21
108.3236010264
 31
0.0
 11
231.3188612828
 21
108.3262927919
 31
0.0
 11
231.3216248125
 21
108.3290207801
 31
0.0
 11
231.3243528006
 21
108.3317843098
 31
0.0
 11
231.3270445661
 21
108.3345826821
 31
0.0
 11
231.3296994464
 21
108.337415181
 31
0.0
 11
231.3323167978
 21
108.3402810736
 31
0.0
 11
231.3348959962
 21
108.343179611
 31
0.0
 11
231.3374364374
 21
108.3461100289
 31
0.0
 11
231.3399375378
 21
108.3490715484
 31
0.0
 11
231.3423987344
 21
108.3520633765
 31
0.0
 11
231.3448194859
 21
108.3550847069
 31
0.0
 11
231.3471992722
 21
108.3581347206
 31
0.0
 11
231.3495375958
 21
108.3612125868
 31
0.0
 11
231.3518339812
 21
108.3643174636
 31
0.0
 11
231.3540879756
 21
108.3674484985
 31
0.0
 11
231.3562991493
 21
108.3706048295
 31
0.0
 11
231.3584670957
 21
108.3737855858
 31
0.0
 11
231.3605914315
 21
108.3769898884
 31
0.0
 11
231.3626717971
 21
108.3802168509
 31
0.0
 11
231.3647078565
 21
108.3834655804
 31
0.0
 11
231.3666992977
 21
108.3867351784
 31
0.0
 11
231.3686458323
 21
108.3900247411
 31
0.0
 11
231.3705471961
 21
108.3933333608
 31
0.0
 11
231.3724031489
 21
108.3966601262
 31
0.0
 11
231.3742134744
 21
108.4000041233
 31
0.0
 11
231.3759779802
 21
108.4033644365
 31
0.0
 11
231.3776964979
 21
108.4067401488
 31
0.0
 11
231.379368883
 21
108.4101303429
 31
0.0
 11
231.3809950143
 21
108.4135341019
 31
0.0
 11
231.3825747945
 21
108.4169505103
 31
0.0
 11
231.3841081495
 21
108.420378654
 31
0.0
 11
231.3855950284
 21
108.4238176218
 31
0.0
 11
231.3870354031
 21
108.4272665056
 31
0.0
 11
231.3884292685
 21
108.4307244015
 31
0.0
 11
231.3897766415
 21
108.4341904101
 31
0.0
 11
231.3910775615
 21
108.4376636373
 31
0.0
 11
231.3923320894
 21
108.4411431949
 31
0.0
 11
231.3935403078
 21
108.4446282015
 31
0.0
 11
231.3947023202
 21
108.4481177826
 31
0.0
 11
231.3958182509
 21
108.4516110718
 31
0.0
 11
231.3968882445
 21
108.4551072106
 31
0.0
 11
231.3979124656
 21
108.45860535
 31
0.0
 11
231.3988910983
 21
108.4621046498
 31
0.0
 11
231.3998243455
 21
108.4656042803
 31
0.0
 11
231.400712429
 21
108.4691034218
 31
0.0
 11
231.4015555885
 21
108.4726012657
 31
0.0
 11
231.4023540814
 21
108.4760970147
 31
0.0
 11
231.4031081823
 21
108.4795898834
 31
0.0
 11
231.4038181823
 21
108.4830790983
 31
0.0
 11
231.4044843887
 21
108.4865638987
 31
0.0
 11
231.4051071244
 21
108.4900435366
 31
0.0
 11
231.4056867275
 21
108.4935172774
 31
0.0
 11
231.4062235503
 21
108.4969843999
 31
0.0
 11
231.4067179596
 21
108.5004441969
 31
0.0
 11
231.4071703351
 21
108.5038959752
 31
0.0
 11
231.40758107
 21
108.507339056
 31
0.0
 11
231.4079505695
 21
108.5107727751
 31
0.0
 11
231.4082792507
 21
108.514196483
 31
0.0
 11
231.4085675422
 21
108.5176095453
 31
0.0
 11
231.408815883
 21
108.5210113426
 31
0.0
 11
231.4090247227
 21
108.5244012708
 31
0.0
 11
231.4091945202
 21
108.5277787412
 31
0.0
 11
231.4093257437
 21
108.5311431806
 31
0.0
 11
231.4094188701
 21
108.5344940313
 31
0.0
 11
231.4094927782
 21
108.5411528144
 31
0.0
  0
LINE
  5
2AB
100
AcDbEntity
  8
0
100
AcDbLine
 62
7
  6
CONTINUOUS
 10
225.0094927782
 20
108.2411528144
 11
231.1094927782
 21
108.2411528144
  0
LINE
  5
2AC
100
AcDbEntity
  8
0
100
AcDbLine
 62
7
  6
CONTINUOUS
 10
225.0094927782
 20
108.2411528144
 11
225.0094927782
 21
106.6661528153
  0
LINE
  5
2AD
100
AcDbEntity
  8
0
100
AcDbLine
 62
7
  6
CONTINUOUS
 10
224.1094927782
 20
105.0911528153
 11
225.0094927782
 21
106.6661528153
  0
LINE
  5
2AE
100
AcDbEntity
  8
0
100
AcDbLine
 62
7
  6
CONTINUOUS
 10
224.1094927782
 20
105.0911528153
 11
224.1094927782
 21
103.1861528153
  0
LINE
  5
2AF
100
AcDbEntity
  8
0
100
AcDbLine
 62
7
  6
CONTINUOUS
 10
224.1094927782
 20
103.1861528153
 11
225.0094927782
 21
103.1861528153
  0
LINE
  5
2B0
100
AcDbEntity
  8
0
100
AcDbLine
 62
7
  6
CONTINUOUS
 10
225.0094927782
 20
103.1861528153
 11
225.0094927782
 21
98.802076353
  0
SPLINE
  5
2B1
100
AcDbEntity
  8
0
100
AcDbSpline
 62
7
  6
CONTINUOUS
 70
4
 71
3
 72
8
 73
4
 74
65
 42
0.0000001
 43
0.0000001
 44
0.0000000001
 12
0.3387299493
 22
0.1063985591
 32
0.0
 13
0.0
 23
0.3550473657
 33
0.0
 40
0.0
 40
0.0
 40
0.0
 40
0.0
 40
1.0
 40
1.0
 40
1.0
 40
1.0
 10
224.7993950583
 20
98.5158638794
 30
0.0
 41
1.0
 10
224.9290648873
 20
98.5565945056
 30
0.0
 41
0.870749842
 10
225.0094927782
 20
98.6661600241
 30
0.0
 41
0.870749842
 10
225.0094927782
 20
98.802076353
 30
0.0
 41
1.0
 11
224.7993950583
 21
98.5158638794
 31
0.0
 11
224.8046878754
 21
98.5175804945
 31
0.0
 11
224.8099789917
 21
98.5194060134
 31
0.0
 11
224.8152653189
 21
98.5213413006
 31
0.0
 11
224.8205437025
 21
98.5233871135
 31
0.0
 11
224.8258109259
 21
98.5255440971
 31
0.0
 11
224.8310637153
 21
98.5278127804
 31
0.0
 11
224.8362987441
 21
98.5301935713
 31
0.0
 11
224.8415126387
 21
98.5326867533
 31
0.0
 11
224.8467019834
 21
98.5352924816
 31
0.0
 11
224.8518633264
 21
98.5380107797
 31
0.0
 11
224.8569931863
 21
98.540841536
 31
0.0
 11
224.8620880578
 21
98.5437845013
 31
0.0
 11
224.8671444185
 21
98.5468392861
 31
0.0
 11
224.8721587357
 21
98.5500053585
 31
0.0
 11
224.8771274737
 21
98.5532820427
 31
0.0
 11
224.8820471004
 21
98.5566685171
 31
0.0
 11
224.8869140947
 21
98.5601638142
 31
0.0
 11
224.8917249545
 21
98.5637668192
 31
0.0
 11
224.8964762035
 21
98.5674762706
 31
0.0
 11
224.9011643992
 21
98.5712907605
 31
0.0
 11
224.9057861402
 21
98.5752087351
 31
0.0
 11
224.9103380741
 21
98.5792284966
 31
0.0
 11
224.9148169049
 21
98.5833482044
 31
0.0
 11
224.9192194005
 21
98.5875658779
 31
0.0
 11
224.9235423999
 21
98.5918793991
 31
0.0
 11
224.9277828208
 21
98.5962865153
 31
0.0
 11
224.9319376664
 21
98.6007848437
 31
0.0
 11
224.9360040322
 21
98.6053718747
 31
0.0
 11
224.9399791129
 21
98.6100449766
 31
0.0
 11
224.9438602085
 21
98.6148014011
 31
0.0
 11
224.9476447304
 21
98.6196382877
 31
0.0
 11
224.9513302071
 21
98.6245526701
 31
0.0
 11
224.9549142897
 21
98.6295414821
 31
0.0
 11
224.9583947568
 21
98.6346015637
 31
0.0
 11
224.961769519
 21
98.6397296683
 31
0.0
 11
224.9650366232
 21
98.644922469
 31
0.0
 11
224.9681942563
 21
98.6501765662
 31
0.0
 11
224.9712407483
 21
98.6554884949
 31
0.0
 11
224.9741745754
 21
98.660854732
 31
0.0
 11
224.9769943622
 21
98.6662717045
 31
0.0
 11
224.9796988835
 21
98.6717357966
 31
0.0
 11
224.9822870657
 21
98.6772433578
 31
0.0
 11
224.9847579878
 21
98.6827907111
 31
0.0
 11
224.9871108817
 21
98.6883741604
 31
0.0
 11
224.989345132
 21
98.6939899984
 31
0.0
 11
224.9914602759
 21
98.6996345146
 31
0.0
 11
224.9934560016
 21
98.7053040028
 31
0.0
 11
224.9953321473
 21
98.7109947684
 31
0.0
 11
224.9970886992
 21
98.716703136
 31
0.0
 11
224.9987257892
 21
98.7224254565
 31
0.0
 11
225.0002436921
 21
98.7281581141
 31
0.0
 11
225.0016428226
 21
98.7338975328
 31
0.0
 11
225.002923732
 21
98.739640183
 31
0.0
 11
225.0040871042
 21
98.7453825875
 31
0.0
 11
225.0051337519
 21
98.7511213274
 31
0.0
 11
225.006064612
 21
98.7568530476
 31
0.0
 11
225.0068807413
 21
98.7625744623
 31
0.0
 11
225.0075833114
 21
98.7682823593
 31
0.0
 11
225.0081736037
 21
98.7739736048
 31
0.0
 11
225.0086530045
 21
98.7796451474
 31
0.0
 11
225.0090229993
 21
98.7852940223
 31
0.0
 11
225.0092851676
 21
98.790917354
 31
0.0
 11
225.009441177
 21
98.79651236
 31
0.0
 11
225.0094927782
 21
98.802076353
 31
0.0
  0
LINE
  5
2B2
100
AcDbEntity
  8
0
100
AcDbLine
 62
7
  6
CONTINUOUS
 10
224.7203559299
 20
98.491152815
 11
224.7993950583
 21
98.5158638794
  0
LINE
  5
2B3
100
AcDbEntity
  8
0
100
AcDbLine
 62
7
  6
CONTINUOUS
 10
227.0094927782
 20
98.491152815
 11
224.7203559299
 21
98.491152815
  0
LINE
  5
2B4
100
AcDbEntity
  8
0
100
AcDbLine
 62
7
  6
CONTINUOUS
 10
227.0094927782
 20
98.491152815
 11
227.0094927782
 21
97.091152815
  0
LINE
  5
2B5
100
AcDbEntity
  8
0
100
AcDbLine
 62
7
  6
CONTINUOUS
 10
233.5094927782
 20
97.091152815
 11
227.0094927782
 21
97.091152815
  0
LINE
  5
2B6
100
AcDbEntity
  8
0
100
AcDbLine
 62
7
  6
CONTINUOUS
 10
234.0094927782
 20
96.591152815
 11
233.5094927782
 21
97.091152815
  0
LINE
  5
2B7
100
AcDbEntity
  8
0
100
AcDbLine
 62
7
  6
CONTINUOUS
 10
234.0094927782
 20
159.591152815
 11
234.0094927782
 21
170.591152815
  0
LINE
  5
2B8
100
AcDbEntity
  8
0
100
AcDbLine
 62
7
  6
CONTINUOUS
 10
234.0094927782
 20
159.591152815
 11
233.5094927782
 21
159.091152815
  0
LINE
  5
2B9
100
AcDbEntity
  8
0
100
AcDbLine
 62
7
  6
CONTINUOUS
 10
233.5094927782
 20
159.091152815
 11
227.0094927782
 21
159.091152815
  0
LINE
  5
2BA
100
AcDbEntity
  8
0
100
AcDbLine
 62
7
  6
CONTINUOUS
 10
227.0094927782
 20
159.091152815
 11
227.0094927782
 21
157.691152815
  0
LINE
  5
2BB
100
AcDbEntity
  8
0
100
AcDbLine
 62
7
  6
CONTINUOUS
 10
227.0094927782
 20
157.691152815
 11
224.7203559299
 21
157.691152815
  0
LINE
  5
2BC
100
AcDbEntity
  8
0
100
AcDbLine
 62
7
  6
CONTINUOUS
 10
224.7203559299
 20
157.691152815
 11
224.7993950583
 21
157.6664417506
  0
SPLINE
  5
2BD
100
AcDbEntity
  8
0
100
AcDbSpline
 62
7
  6
CONTINUOUS
 70
4
 71
3
 72
8
 73
4
 74
65
 42
0.0000001
 43
0.0000001
 44
0.0000000001
 12
0.3387299493
 22
-0.1063985591
 32
0.0
 13
0.0
 23
-0.3550473657
 33
0.0
 40
0.0
 40
0.0
 40
0.0
 40
0.0
 40
1.0
 40
1.0
 40
1.0
 40
1.0
 10
224.7993950583
 20
157.6664417506
 30
0.0
 41
1.0
 10
224.9290648873
 20
157.6257111244
 30
0.0
 41
0.870749842
 10
225.0094927782
 20
157.516145606
 30
0.0
 41
0.870749842
 10
225.0094927782
 20
157.3802292771
 30
0.0
 41
1.0
 11
224.7993950583
 21
157.6664417506
 31
0.0
 11
224.8046878754
 21
157.6647251355
 31
0.0
 11
224.8099789917
 21
157.6628996167
 31
0.0
 11
224.8152653189
 21
157.6609643294
 31
0.0
 11
224.8205437025
 21
157.6589185166
 31
0.0
 11
224.8258109259
 21
157.6567615329
 31
0.0
 11
224.8310637153
 21
157.6544928496
 31
0.0
 11
224.8362987441
 21
157.6521120588
 31
0.0
 11
224.8415126387
 21
157.6496188768
 31
0.0
 11
224.8467019834
 21
157.6470131484
 31
0.0
 11
224.8518633264
 21
157.6442948503
 31
0.0
 11
224.8569931863
 21
157.641464094
 31
0.0
 11
224.8620880578
 21
157.6385211287
 31
0.0
 11
224.8671444185
 21
157.6354663439
 31
0.0
 11
224.8721587357
 21
157.6323002715
 31
0.0
 11
224.8771274737
 21
157.6290235874
 31
0.0
 11
224.8820471004
 21
157.6256371129
 31
0.0
 11
224.8869140947
 21
157.6221418159
 31
0.0
 11
224.8917249545
 21
157.6185388109
 31
0.0
 11
224.8964762035
 21
157.6148293594
 31
0.0
 11
224.9011643992
 21
157.6110148696
 31
0.0
 11
224.9057861402
 21
157.6070968949
 31
0.0
 11
224.9103380741
 21
157.6030771335
 31
0.0
 11
224.9148169049
 21
157.5989574256
 31
0.0
 11
224.9192194005
 21
157.5947397521
 31
0.0
 11
224.9235423999
 21
157.590426231
 31
0.0
 11
224.9277828208
 21
157.5860191147
 31
0.0
 11
224.9319376664
 21
157.5815207863
 31
0.0
 11
224.9360040322
 21
157.5769337554
 31
0.0
 11
224.9399791129
 21
157.5722606534
 31
0.0
 11
224.9438602085
 21
157.5675042289
 31
0.0
 11
224.9476447304
 21
157.5626673424
 31
0.0
 11
224.9513302071
 21
157.5577529599
 31
0.0
 11
224.9549142897
 21
157.552764148
 31
0.0
 11
224.9583947568
 21
157.5477040663
 31
0.0
 11
224.961769519
 21
157.5425759618
 31
0.0
 11
224.9650366232
 21
157.5373831611
 31
0.0
 11
224.9681942563
 21
157.5321290639
 31
0.0
 11
224.9712407483
 21
157.5268171352
 31
0.0
 11
224.9741745754
 21
157.521450898
 31
0.0
 11
224.9769943622
 21
157.5160339255
 31
0.0
 11
224.9796988835
 21
157.5105698335
 31
0.0
 11
224.9822870657
 21
157.5050622722
 31
0.0
 11
224.9847579878
 21
157.4995149189
 31
0.0
 11
224.9871108817
 21
157.4939314697
 31
0.0
 11
224.989345132
 21
157.4883156316
 31
0.0
 11
224.9914602759
 21
157.4826711154
 31
0.0
 11
224.9934560016
 21
157.4770016272
 31
0.0
 11
224.9953321473
 21
157.4713108617
 31
0.0
 11
224.9970886992
 21
157.4656024941
 31
0.0
 11
224.9987257892
 21
157.4598801735
 31
0.0
 11
225.0002436921
 21
157.4541475159
 31
0.0
 11
225.0016428226
 21
157.4484080972
 31
0.0
 11
225.002923732
 21
157.442665447
 31
0.0
 11
225.0040871042
 21
157.4369230426
 31
0.0
 11
225.0051337519
 21
157.4311843027
 31
0.0
 11
225.006064612
 21
157.4254525824
 31
0.0
 11
225.0068807413
 21
157.4197311677
 31
0.0
 11
225.0075833114
 21
157.4140232707
 31
0.0
 11
225.0081736037
 21
157.4083320253
 31
0.0
 11
225.0086530045
 21
157.4026604826
 31
0.0
 11
225.0090229993
 21
157.3970116077
 31
0.0
 11
225.0092851676
 21
157.391388276
 31
0.0
 11
225.009441177
 21
157.3857932701
 31
0.0
 11
225.0094927782
 21
157.3802292771
 31
0.0
  0
LINE
  5
2BE
100
AcDbEntity
  8
0
100
AcDbLine
 62
7
  6
CONTINUOUS
 10
225.0094927782
 20
157.3802292771
 11
225.0094927782
 21
152.9961528147
  0
LINE
  5
2BF
100
AcDbEntity
  8
0
100
AcDbLine
 62
7
  6
CONTINUOUS
 10
224.1094927782
 20
152.9961528147
 11
225.0094927782
 21
152.9961528147
  0
LINE
  5
2C0
100
AcDbEntity
  8
0
100
AcDbLine
 62
7
  6
CONTINUOUS
 10
224.1094927782
 20
152.9961528147
 11
224.1094927782
 21
151.0911528147
  0
LINE
  5
2C1
100
AcDbEntity
  8
0
100
AcDbLine
 62
7
  6
CONTINUOUS
 10
224.1094927782
 20
151.0911528147
 11
225.0094927782
 21
149.5161528147
  0
LINE
  5
2C2
100
AcDbEntity
  8
0
100
AcDbLine
 62
7
  6
CONTINUOUS
 10
225.0094927782
 20
149.5161528147
 11
225.0094927782
 21
147.9411528156
  0
LINE
  5
2C3
100
AcDbEntity
  8
0
100
AcDbLine
 62
7
  6
CONTINUOUS
 10
225.0094927782
 20
147.9411528156
 11
231.1094927782
 21
147.9411528156
  0
SPLINE
  5
2C4
100
AcDbEntity
  8
0
100
AcDbSpline
 62
7
  6
CONTINUOUS
 70
4
 71
3
 72
8
 73
4
 74
127
 42
0.0000001
 43
0.0000001
 44
0.0000000001
 12
0.4242640687
 22
0.0
 32
0.0
 13
-0.0
 23
-0.4242640687
 33
0.0
 40
0.0
 40
0.0
 40
0.0
 40
0.0
 40
1.0
 40
1.0
 40
1.0
 40
1.0
 10
231.1094927782
 20
147.9411528156
 30
0.0
 41
1.0
 10
231.2852287094
 20
147.9411528156
 30
0.0
 41
0.8047378541
 10
231.4094927782
 20
147.8168887469
 30
0.0
 41
0.8047378541
 10
231.4094927782
 20
147.6411528156
 30
0.0
 41
1.0
 11
231.1094927782
 21
147.9411528156
 31
0.0
 11
231.1161515613
 21
147.9410789075
 31
0.0
 11
231.119502412
 21
147.9409857812
 31
0.0
 11
231.1228668514
 21
147.9408545576
 31
0.0
 11
231.1262443218
 21
147.9406847601
 31
0.0
 11
231.12963425
 21
147.9404759205
 31
0.0
 11
231.1330360472
 21
147.9402275796
 31
0.0
 11
231.1364491095
 21
147.9399392882
 31
0.0
 11
231.1398728175
 21
147.939610607
 31
0.0
 11
231.1433065366
 21
147.9392411075
 31
0.0
 11
231.1467496174
 21
147.9388303726
 31
0.0
 11
231.1502013957
 21
147.938377997
 31
0.0
 11
231.1536611927
 21
147.9378835878
 31
0.0
 11
231.1571283152
 21
147.9373467649
 31
0.0
 11
231.160602056
 21
147.9367671619
 31
0.0
 11
231.1640816939
 21
147.9361444261
 31
0.0
 11
231.1675664942
 21
147.9354782197
 31
0.0
 11
231.1710557092
 21
147.9347682197
 31
0.0
 11
231.1745485778
 21
147.9340141188
 31
0.0
 11
231.1780443269
 21
147.9332156259
 31
0.0
 11
231.1815421708
 21
147.9323724664
 31
0.0
 11
231.1850413123
 21
147.9314843829
 31
0.0
 11
231.1885409427
 21
147.9305511357
 31
0.0
 11
231.1920402426
 21
147.9295725031
 31
0.0
 11
231.1955383819
 21
147.9285482819
 31
0.0
 11
231.1990345208
 21
147.9274782883
 31
0.0
 11
231.2025278099
 21
147.9263623576
 31
0.0
 11
231.2060173911
 21
147.9252003453
 31
0.0
 11
231.2095023976
 21
147.9239921269
 31
0.0
 11
231.2129819553
 21
147.922737599
 31
0.0
 11
231.2164551824
 21
147.921436679
 31
0.0
 11
231.219921191
 21
147.9200893059
 31
0.0
 11
231.2233790869
 21
147.9186954406
 31
0.0
 11
231.2268279708
 21
147.9172550658
 31
0.0
 11
231.2302669386
 21
147.9157681869
 31
0.0
 11
231.2336950823
 21
147.9142348319
 31
0.0
 11
231.2371114906
 21
147.9126550517
 31
0.0
 11
231.2405152497
 21
147.9110289204
 31
0.0
 11
231.2439054438
 21
147.9093565354
 31
0.0
 11
231.2472811561
 21
147.9076380177
 31
0.0
 11
231.2506414692
 21
147.9058735118
 31
0.0
 11
231.2539854664
 21
147.9040631864
 31
0.0
 11
231.2573122318
 21
147.9022072336
 31
0.0
 11
231.2606208515
 21
147.9003058697
 31
0.0
 11
231.2639104142
 21
147.8983593351
 31
0.0
 11
231.2671800121
 21
147.896367894
 31
0.0
 11
231.2704287417
 21
147.8943318346
 31
0.0
 11
231.2736557042
 21
147.892251469
 31
0.0
 11
231.2768600067
 21
147.8901271332
 31
0.0
 11
231.280040763
 21
147.8879591868
 31
0.0
 11
231.2831970941
 21
147.8857480131
 31
0.0
 11
231.286328129
 21
147.8834940186
 31
0.0
 11
231.2894330058
 21
147.8811976333
 31
0.0
 11
231.292510872
 21
147.8788593097
 31
0.0
 11
231.2955608857
 21
147.8764795233
 31
0.0
 11
231.2985822161
 21
147.8740587719
 31
0.0
 11
231.3015740442
 21
147.8715975752
 31
0.0
 11
231.3045355637
 21
147.8690964749
 31
0.0
 11
231.3074659816
 21
147.8665560337
 31
0.0
 11
231.310364519
 21
147.8639768353
 31
0.0
 11
231.3132304115
 21
147.8613594839
 31
0.0
 11
231.3160629104
 21
147.8587046036
 31
0.0
 11
231.3188612828
 21
147.8560128381
 31
0.0
 11
231.3216248125
 21
147.85328485
 31
0.0
 11
231.3243528006
 21
147.8505213203
 31
0.0
 11
231.3270445661
 21
147.8477229479
 31
0.0
 11
231.3296994464
 21
147.844890449
 31
0.0
 11
231.3323167978
 21
147.8420245564
 31
0.0
 11
231.3348959962
 21
147.8391260191
 31
0.0
 11
231.3374364374
 21
147.8361956011
 31
0.0
 11
231.3399375378
 21
147.8332340816
 31
0.0
 11
231.3423987344
 21
147.8302422535
 31
0.0
 11
231.3448194859
 21
147.8272209232
 31
0.0
 11
231.3471992722
 21
147.8241709094
 31
0.0
 11
231.3495375958
 21
147.8210930432
 31
0.0
 11
231.3518339812
 21
147.8179881665
 31
0.0
 11
231.3540879756
 21
147.8148571316
 31
0.0
 11
231.3562991493
 21
147.8117008005
 31
0.0
 11
231.3584670957
 21
147.8085200442
 31
0.0
 11
231.3605914315
 21
147.8053157416
 31
0.0
 11
231.3626717971
 21
147.8020887791
 31
0.0
 11
231.3647078565
 21
147.7988400496
 31
0.0
 11
231.3666992977
 21
147.7955704516
 31
0.0
 11
231.3686458323
 21
147.7922808889
 31
0.0
 11
231.3705471961
 21
147.7889722692
 31
0.0
 11
231.3724031489
 21
147.7856455038
 31
0.0
 11
231.3742134744
 21
147.7823015067
 31
0.0
 11
231.3759779802
 21
147.7789411935
 31
0.0
 11
231.3776964979
 21
147.7755654813
 31
0.0
 11
231.379368883
 21
147.7721752872
 31
0.0
 11
231.3809950143
 21
147.7687715281
 31
0.0
 11
231.3825747945
 21
147.7653551198
 31
0.0
 11
231.3841081495
 21
147.7619269761
 31
0.0
 11
231.3855950284
 21
147.7584880083
 31
0.0
 11
231.3870354031
 21
147.7550391244
 31
0.0
 11
231.3884292685
 21
147.7515812285
 31
0.0
 11
231.3897766415
 21
147.7481152199
 31
0.0
 11
231.3910775615
 21
147.7446419927
 31
0.0
 11
231.3923320894
 21
147.7411624351
 31
0.0
 11
231.3935403078
 21
147.7376774285
 31
0.0
 11
231.3947023202
 21
147.7341878474
 31
0.0
 11
231.3958182509
 21
147.7306945583
 31
0.0
 11
231.3968882445
 21
147.7271984194
 31
0.0
 11
231.3979124656
 21
147.7237002801
 31
0.0
 11
231.3988910983
 21
147.7202009802
 31
0.0
 11
231.3998243455
 21
147.7167013498
 31
0.0
 11
231.400712429
 21
147.7132022083
 31
0.0
 11
231.4015555885
 21
147.7097043643
 31
0.0
 11
231.4023540814
 21
147.7062086153
 31
0.0
 11
231.4031081823
 21
147.7027157466
 31
0.0
 11
231.4038181823
 21
147.6992265317
 31
0.0
 11
231.4044843887
 21
147.6957417313
 31
0.0
 11
231.4051071244
 21
147.6922620934
 31
0.0
 11
231.4056867275
 21
147.6887883527
 31
0.0
 11
231.4062235503
 21
147.6853212301
 31
0.0
 11
231.4067179596
 21
147.6818614331
 31
0.0
 11
231.4071703351
 21
147.6784096548
 31
0.0
 11
231.40758107
 21
147.674966574
 31
0.0
 11
231.4079505695
 21
147.6715328549
 31
0.0
 11
231.4082792507
 21
147.668109147
 31
0.0
 11
231.4085675422
 21
147.6646960847
 31
0.0
 11
231.408815883
 21
147.6612942874
 31
0.0
 11
231.4090247227
 21
147.6579043592
 31
0.0
 11
231.4091945202
 21
147.6545268889
 31
0.0
 11
231.4093257437
 21
147.6511624495
 31
0.0
 11
231.4094188701
 21
147.6478115987
 31
0.0
 11
231.4094927782
 21
147.6411528156
 31
0.0
  0
LINE
  5
2C5
100
AcDbEntity
  8
0
100
AcDbLine
 62
7
  6
CONTINUOUS
 10
231.4094927782
 20
147.6411528156
 11
231.4094927782
 21
143.691152815
  0
SPLINE
  5
2C6
100
AcDbEntity
  8
0
100
AcDbSpline
 62
7
  6
CONTINUOUS
 70
4
 71
3
 72
8
 73
4
 74
129
 42
0.0000001
 43
0.0000001
 44
0.0000000001
 12
0.0
 22
-0.8485281374
 32
0.0
 13
-0.8485281374
 23
-0.0
 33
0.0
 40
0.0
 40
0.0
 40
0.0
 40
0.0
 40
1.0
 40
1.0
 40
1.0
 40
1.0
 10
231.4094927782
 20
143.691152815
 30
0.0
 41
1.0
 10
231.4094927782
 20
143.3396809524
 30
0.0
 41
0.8047378541
 10
231.1609646407
 20
143.091152815
 30
0.0
 41
0.8047378541
 10
230.8094927782
 20
143.091152815
 30
0.0
 41
1.0
 11
231.4094927782
 21
143.691152815
 31
0.0
 11
231.40945599
 21
143.6845086889
 31
0.0
 11
231.409344962
 21
143.6778352488
 31
0.0
 11
231.4091587093
 21
143.6711335473
 31
0.0
 11
231.4088962622
 21
143.6644046685
 31
0.0
 11
231.4085566672
 21
143.6576497277
 31
0.0
 11
231.4081389879
 21
143.6508698714
 31
0.0
 11
231.4076423062
 21
143.6440662768
 31
0.0
 11
231.4070657233
 21
143.6372401523
 31
0.0
 11
231.4064083608
 21
143.6303927364
 31
0.0
 11
231.4056693619
 21
143.6235252982
 31
0.0
 11
231.4048478921
 21
143.6166391366
 31
0.0
 11
231.403943141
 21
143.6097355799
 31
0.0
 11
231.4029543225
 21
143.6028159859
 31
0.0
 11
231.4018806768
 21
143.5958817409
 31
0.0
 11
231.4007214707
 21
143.5889342594
 31
0.0
 11
231.3994759992
 21
143.5819749836
 31
0.0
 11
231.3981435864
 21
143.5750053828
 31
0.0
 11
231.3967235864
 21
143.568026953
 31
0.0
 11
231.3952153846
 21
143.5610412157
 31
0.0
 11
231.3936183988
 21
143.5540497176
 31
0.0
 11
231.3919320798
 21
143.5470540297
 31
0.0
 11
231.3901559128
 21
143.5400557467
 31
0.0
 11
231.3882894184
 21
143.5330564858
 31
0.0
 11
231.3863321531
 21
143.5260578861
 31
0.0
 11
231.3842837108
 21
143.5190616075
 31
0.0
 11
231.3821437236
 21
143.5120693297
 31
0.0
 11
231.3799118622
 21
143.5050827514
 31
0.0
 11
231.3775878375
 21
143.4981035892
 31
0.0
 11
231.3751714007
 21
143.4911335761
 31
0.0
 11
231.3726623449
 21
143.4841744608
 31
0.0
 11
231.3700605049
 21
143.4772280064
 31
0.0
 11
231.3673657588
 21
143.4702959893
 31
0.0
 11
231.3645780281
 21
143.4633801974
 31
0.0
 11
231.3616972785
 21
143.4564824297
 31
0.0
 11
231.3587235208
 21
143.4496044941
 31
0.0
 11
231.3556568108
 21
143.4427482067
 31
0.0
 11
231.3524972504
 21
143.43591539
 31
0.0
 11
231.3492449878
 21
143.4291078719
 31
0.0
 11
231.3459002177
 21
143.4223274837
 31
0.0
 11
231.3424631823
 21
143.4155760592
 31
0.0
 11
231.3389341706
 21
143.4088554329
 31
0.0
 11
231.3353135197
 21
143.4021674385
 31
0.0
 11
231.3316016141
 21
143.3955139078
 31
0.0
 11
231.3277988864
 21
143.3888966684
 31
0.0
 11
231.3239058172
 21
143.382317543
 31
0.0
 11
231.3199229349
 21
143.375778347
 31
0.0
 11
231.3158508161
 21
143.369280888
 31
0.0
 11
231.3116900849
 21
143.362826963
 31
0.0
 11
231.3074414133
 21
143.3564183579
 31
0.0
 11
231.3031055205
 21
143.3500568452
 31
0.0
 11
231.2986831731
 21
143.3437441831
 31
0.0
 11
231.2941751842
 21
143.3374821133
 31
0.0
 11
231.2895824135
 21
143.3312723598
 31
0.0
 11
231.2849057663
 21
143.3251166274
 31
0.0
 11
231.2801461936
 21
143.3190165999
 31
0.0
 11
231.2753046907
 21
143.3129739392
 31
0.0
 11
231.2703822974
 21
143.306990283
 31
0.0
 11
231.2653800967
 21
143.3010672439
 31
0.0
 11
231.2602992143
 21
143.2952064081
 31
0.0
 11
231.2551408175
 21
143.2894093334
 31
0.0
 11
231.2499061147
 21
143.2836775483
 31
0.0
 11
231.2445963541
 21
143.2780125505
 31
0.0
 11
231.2392128231
 21
143.2724158057
 31
0.0
 11
231.2337568469
 21
143.2668887463
 31
0.0
 11
231.2282297875
 21
143.2614327701
 31
0.0
 11
231.2226330427
 21
143.2560492391
 31
0.0
 11
231.2169680449
 21
143.2507394785
 31
0.0
 11
231.2112362598
 21
143.2455047757
 31
0.0
 11
231.2054391851
 21
143.2403463789
 31
0.0
 11
231.1995783492
 21
143.2352654964
 31
0.0
 11
231.1936553102
 21
143.2302632957
 31
0.0
 11
231.187671654
 21
143.2253409025
 31
0.0
 11
231.1816289932
 21
143.2204993996
 31
0.0
 11
231.1755289658
 21
143.2157398268
 31
0.0
 11
231.1693732334
 21
143.2110631797
 31
0.0
 11
231.1631634799
 21
143.2064704089
 31
0.0
 11
231.15690141
 21
143.2019624201
 31
0.0
 11
231.1505887479
 21
143.1975400727
 31
0.0
 11
231.1442272353
 21
143.1932041799
 31
0.0
 11
231.1378186302
 21
143.1889555083
 31
0.0
 11
231.1313647052
 21
143.1847947771
 31
0.0
 11
231.1248672461
 21
143.1807226582
 31
0.0
 11
231.1183280502
 21
143.176739776
 31
0.0
 11
231.1117489247
 21
143.1728467068
 31
0.0
 11
231.1051316854
 21
143.1690439791
 31
0.0
 11
231.0984781546
 21
143.1653320735
 31
0.0
 11
231.0917901603
 21
143.1617114226
 31
0.0
 11
231.085069534
 21
143.1581824109
 31
0.0
 11
231.0783181095
 21
143.1547453754
 31
0.0
 11
231.0715377213
 21
143.1514006054
 31
0.0
 11
231.0647302031
 21
143.1481483428
 31
0.0
 11
231.0578973865
 21
143.1449887824
 31
0.0
 11
231.0510410991
 21
143.1419220724
 31
0.0
 11
231.0441631635
 21
143.1389483146
 31
0.0
 11
231.0372653957
 21
143.1360675651
 31
0.0
 11
231.0303496039
 21
143.1332798344
 31
0.0
 11
231.0234175867
 21
143.1305850883
 31
0.0
 11
231.0164711324
 21
143.1279832483
 31
0.0
 11
231.0095120171
 21
143.1254741924
 31
0.0
 11
231.002542004
 21
143.1230577557
 31
0.0
 11
230.9955628417
 21
143.120733731
 31
0.0
 11
230.9885762635
 21
143.1185018696
 31
0.0
 11
230.9815839857
 21
143.1163618823
 31
0.0
 11
230.9745877071
 21
143.1143134401
 31
0.0
 11
230.9675891073
 21
143.1123561748
 31
0.0
 11
230.9605898464
 21
143.1104896804
 31
0.0
 11
230.9535915634
 21
143.1087135134
 31
0.0
 11
230.9465958756
 21
143.1070271944
 31
0.0
 11
230.9396043775
 21
143.1054302086
 31
0.0
 11
230.9326186402
 21
143.1039220068
 31
0.0
 11
230.9256402103
 21
143.1025020068
 31
0.0
 11
230.9186706096
 21
143.101169594
 31
0.0
 11
230.9117113338
 21
143.0999241225
 31
0.0
 11
230.9047638523
 21
143.0987649164
 31
0.0
 11
230.8978296072
 21
143.0976912707
 31
0.0
 11
230.8909100132
 21
143.0967024522
 31
0.0
 11
230.8840064566
 21
143.095797701
 31
0.0
 11
230.8771202949
 21
143.0949762313
 31
0.0
 11
230.8702528568
 21
143.0942372323
 31
0.0
 11
230.8634054409
 21
143.0935798698
 31
0.0
 11
230.8565793163
 21
143.093003287
 31
0.0
 11
230.8497757218
 21
143.0925066053
 31
0.0
 11
230.8429958654
 21
143.092088926
 31
0.0
 11
230.8362409246
 21
143.091749331
 31
0.0
 11
230.8295120459
 21
143.0914868839
 31
0.0
 11
230.8228103444
 21
143.0913006312
 31
0.0
 11
230.8161369043
 21
143.0911896032
 31
0.0
 11
230.8094927782
 21
143.091152815
 31
0.0
  0
LINE
  5
2C7
100
AcDbEntity
  8
0
100
AcDbLine
 62
7
  6
CONTINUOUS
 10
193.9094927782
 20
143.091152815
 11
230.8094927782
 21
143.091152815
  0
SPLINE
  5
2C8
100
AcDbEntity
  8
0
100
AcDbSpline
 62
7
  6
CONTINUOUS
 70
4
 71
3
 72
8
 73
4
 74
129
 42
0.0000001
 43
0.0000001
 44
0.0000000001
 12
-0.8485281374
 22
0.0
 32
0.0
 13
0.0
 23
0.8485281374
 33
0.0
 40
0.0
 40
0.0
 40
0.0
 40
0.0
 40
1.0
 40
1.0
 40
1.0
 40
1.0
 10
193.9094927782
 20
143.091152815
 30
0.0
 41
1.0
 10
193.5580209156
 20
143.091152815
 30
0.0
 41
0.8047378541
 10
193.3094927782
 20
143.3396809524
 30
0.0
 41
0.8047378541
 10
193.3094927782
 20
143.691152815
 30
0.0
 41
1.0
 11
193.9094927782
 21
143.091152815
 31
0.0
 11
193.902848652
 21
143.0911896032
 31
0.0
 11
193.8961752119
 21
143.0913006312
 31
0.0
 11
193.8894735104
 21
143.0914868839
 31
0.0
 11
193.8827446317
 21
143.091749331
 31
0.0
 11
193.8759896909
 21
143.092088926
 31
0.0
 11
193.8692098345
 21
143.0925066053
 31
0.0
 11
193.86240624
 21
143.093003287
 31
0.0
 11
193.8555801154
 21
143.0935798698
 31
0.0
 11
193.8487326996
 21
143.0942372323
 31
0.0
 11
193.8418652614
 21
143.0949762313
 31
0.0
 11
193.8349790997
 21
143.095797701
 31
0.0
 11
193.8280755431
 21
143.0967024522
 31
0.0
 11
193.8211559491
 21
143.0976912707
 31
0.0
 11
193.814221704
 21
143.0987649164
 31
0.0
 11
193.8072742225
 21
143.0999241225
 31
0.0
 11
193.8003149467
 21
143.101169594
 31
0.0
 11
193.793345346
 21
143.1025020068
 31
0.0
 11
193.7863669162
 21
143.1039220068
 31
0.0
 11
193.7793811788
 21
143.1054302086
 31
0.0
 11
193.7723896807
 21
143.1070271944
 31
0.0
 11
193.7653939929
 21
143.1087135134
 31
0.0
 11
193.7583957099
 21
143.1104896804
 31
0.0
 11
193.751396449
 21
143.1123561748
 31
0.0
 11
193.7443978492
 21
143.1143134401
 31
0.0
 11
193.7374015706
 21
143.1163618823
 31
0.0
 11
193.7304092928
 21
143.1185018696
 31
0.0
 11
193.7234227146
 21
143.120733731
 31
0.0
 11
193.7164435523
 21
143.1230577557
 31
0.0
 11
193.7094735392
 21
143.1254741924
 31
0.0
 11
193.7025144239
 21
143.1279832483
 31
0.0
 11
193.6955679696
 21
143.1305850883
 31
0.0
 11
193.6886359524
 21
143.1332798344
 31
0.0
 11
193.6817201606
 21
143.1360675651
 31
0.0
 11
193.6748223928
 21
143.1389483146
 31
0.0
 11
193.6679444572
 21
143.1419220724
 31
0.0
 11
193.6610881698
 21
143.1449887824
 31
0.0
 11
193.6542553532
 21
143.1481483428
 31
0.0
 11
193.647447835
 21
143.1514006054
 31
0.0
 11
193.6406674468
 21
143.1547453754
 31
0.0
 11
193.6339160223
 21
143.1581824109
 31
0.0
 11
193.627195396
 21
143.1617114226
 31
0.0
 11
193.6205074017
 21
143.1653320735
 31
0.0
 11
193.6138538709
 21
143.1690439791
 31
0.0
 11
193.6072366316
 21
143.1728467068
 31
0.0
 11
193.6006575061
 21
143.176739776
 31
0.0
 11
193.5941183102
 21
143.1807226582
 31
0.0
 11
193.5876208511
 21
143.1847947771
 31
0.0
 11
193.5811669261
 21
143.1889555083
 31
0.0
 11
193.574758321
 21
143.1932041799
 31
0.0
 11
193.5683968084
 21
143.1975400727
 31
0.0
 11
193.5620841463
 21
143.2019624201
 31
0.0
 11
193.5558220764
 21
143.2064704089
 31
0.0
 11
193.5496123229
 21
143.2110631797
 31
0.0
 11
193.5434565905
 21
143.2157398268
 31
0.0
 11
193.5373565631
 21
143.2204993996
 31
0.0
 11
193.5313139023
 21
143.2253409025
 31
0.0
 11
193.5253302461
 21
143.2302632957
 31
0.0
 11
193.5194072071
 21
143.2352654964
 31
0.0
 11
193.5135463713
 21
143.2403463789
 31
0.0
 11
193.5077492965
 21
143.2455047757
 31
0.0
 11
193.5020175114
 21
143.2507394785
 31
0.0
 11
193.4963525136
 21
143.2560492391
 31
0.0
 11
193.4907557688
 21
143.2614327701
 31
0.0
 11
193.4852287094
 21
143.2668887463
 31
0.0
 11
193.4797727332
 21
143.2724158057
 31
0.0
 11
193.4743892022
 21
143.2780125505
 31
0.0
 11
193.4690794416
 21
143.2836775483
 31
0.0
 11
193.4638447388
 21
143.2894093334
 31
0.0
 11
193.458686342
 21
143.2952064081
 31
0.0
 11
193.4536054596
 21
143.3010672439
 31
0.0
 11
193.4486032589
 21
143.306990283
 31
0.0
 11
193.4436808656
 21
143.3129739392
 31
0.0
 11
193.4388393628
 21
143.3190165999
 31
0.0
 11
193.43407979
 21
143.3251166274
 31
0.0
 11
193.4294031428
 21
143.3312723598
 31
0.0
 11
193.4248103721
 21
143.3374821133
 31
0.0
 11
193.4203023832
 21
143.3437441831
 31
0.0
 11
193.4158800358
 21
143.3500568452
 31
0.0
 11
193.4115441431
 21
143.3564183579
 31
0.0
 11
193.4072954714
 21
143.362826963
 31
0.0
 11
193.4031347402
 21
143.369280888
 31
0.0
 11
193.3990626214
 21
143.375778347
 31
0.0
 11
193.3950797391
 21
143.382317543
 31
0.0
 11
193.3911866699
 21
143.3888966684
 31
0.0
 11
193.3873839422
 21
143.3955139078
 31
0.0
 11
193.3836720367
 21
143.4021674385
 31
0.0
 11
193.3800513857
 21
143.4088554329
 31
0.0
 11
193.3765223741
 21
143.4155760592
 31
0.0
 11
193.3730853386
 21
143.4223274837
 31
0.0
 11
193.3697405685
 21
143.4291078719
 31
0.0
 11
193.3664883059
 21
143.43591539
 31
0.0
 11
193.3633287455
 21
143.4427482067
 31
0.0
 11
193.3602620355
 21
143.4496044941
 31
0.0
 11
193.3572882778
 21
143.4564824297
 31
0.0
 11
193.3544075282
 21
143.4633801974
 31
0.0
 11
193.3516197975
 21
143.4702959893
 31
0.0
 11
193.3489250514
 21
143.4772280064
 31
0.0
 11
193.3463232114
 21
143.4841744608
 31
0.0
 11
193.3438141556
 21
143.4911335761
 31
0.0
 11
193.3413977189
 21
143.4981035892
 31
0.0
 11
193.3390736941
 21
143.5050827514
 31
0.0
 11
193.3368418327
 21
143.5120693297
 31
0.0
 11
193.3347018455
 21
143.5190616075
 31
0.0
 11
193.3326534032
 21
143.5260578861
 31
0.0
 11
193.330696138
 21
143.5330564858
 31
0.0
 11
193.3288296435
 21
143.5400557467
 31
0.0
 11
193.3270534765
 21
143.5470540297
 31
0.0
 11
193.3253671575
 21
143.5540497176
 31
0.0
 11
193.3237701717
 21
143.5610412157
 31
0.0
 11
193.32226197
 21
143.568026953
 31
0.0
 11
193.32084197
 21
143.5750053828
 31
0.0
 11
193.3195095571
 21
143.5819749836
 31
0.0
 11
193.3182640856
 21
143.5889342594
 31
0.0
 11
193.3171048795
 21
143.5958817409
 31
0.0
 11
193.3160312338
 21
143.6028159859
 31
0.0
 11
193.3150424154
 21
143.6097355799
 31
0.0
 11
193.3141376642
 21
143.6166391366
 31
0.0
 11
193.3133161944
 21
143.6235252982
 31
0.0
 11
193.3125771955
 21
143.6303927364
 31
0.0
 11
193.311919833
 21
143.6372401523
 31
0.0
 11
193.3113432501
 21
143.6440662768
 31
0.0
 11
193.3108465684
 21
143.6508698714
 31
0.0
 11
193.3104288891
 21
143.6576497277
 31
0.0
 11
193.3100892941
 21
143.6644046685
 31
0.0
 11
193.3098268471
 21
143.6711335473
 31
0.0
 11
193.3096405943
 21
143.6778352488
 31
0.0
 11
193.3095295663
 21
143.6845086889
 31
0.0
 11
193.3094927782
 21
143.691152815
 31
0.0
  0
LINE
  5
2C9
100
AcDbEntity
  8
0
100
AcDbLine
 62
7
  6
CONTINUOUS
 10
193.3094927782
 20
147.6411528156
 11
193.3094927782
 21
143.691152815
  0
SPLINE
  5
2CA
100
AcDbEntity
  8
0
100
AcDbSpline
 62
7
  6
CONTINUOUS
 70
4
 71
3
 72
8
 73
4
 74
127
 42
0.0000001
 43
0.0000001
 44
0.0000000001
 12
-0.0
 22
0.4242640687
 32
0.0
 13
0.4242640687
 23
0.0
 33
0.0
 40
0.0
 40
0.0
 40
0.0
 40
0.0
 40
1.0
 40
1.0
 40
1.0
 40
1.0
 10
193.3094927782
 20
147.6411528156
 30
0.0
 41
1.0
 10
193.3094927782
 20
147.8168887469
 30
0.0
 41
0.8047378541
 10
193.4337568469
 20
147.9411528156
 30
0.0
 41
0.8047378541
 10
193.6094927782
 20
147.9411528156
 30
0.0
 41
1.0
 11
193.3094927782
 21
147.6411528156
 31
0.0
 11
193.3095666862
 21
147.6478115987
 31
0.0
 11
193.3096598126
 21
147.6511624495
 31
0.0
 11
193.3097910361
 21
147.6545268889
 31
0.0
 11
193.3099608336
 21
147.6579043592
 31
0.0
 11
193.3101696733
 21
147.6612942874
 31
0.0
 11
193.3104180141
 21
147.6646960847
 31
0.0
 11
193.3107063056
 21
147.668109147
 31
0.0
 11
193.3110349868
 21
147.6715328549
 31
0.0
 11
193.3114044863
 21
147.674966574
 31
0.0
 11
193.3118152212
 21
147.6784096548
 31
0.0
 11
193.3122675968
 21
147.6818614331
 31
0.0
 11
193.312762006
 21
147.6853212301
 31
0.0
 11
193.3132988288
 21
147.6887883527
 31
0.0
 11
193.3138784319
 21
147.6922620934
 31
0.0
 11
193.3145011676
 21
147.6957417313
 31
0.0
 11
193.3151673741
 21
147.6992265317
 31
0.0
 11
193.3158773741
 21
147.7027157466
 31
0.0
 11
193.3166314749
 21
147.7062086153
 31
0.0
 11
193.3174299678
 21
147.7097043643
 31
0.0
 11
193.3182731273
 21
147.7132022083
 31
0.0
 11
193.3191612108
 21
147.7167013498
 31
0.0
 11
193.3200944581
 21
147.7202009802
 31
0.0
 11
193.3210730907
 21
147.7237002801
 31
0.0
 11
193.3220973118
 21
147.7271984194
 31
0.0
 11
193.3231673054
 21
147.7306945583
 31
0.0
 11
193.3242832361
 21
147.7341878474
 31
0.0
 11
193.3254452485
 21
147.7376774285
 31
0.0
 11
193.3266534669
 21
147.7411624351
 31
0.0
 11
193.3279079948
 21
147.7446419927
 31
0.0
 11
193.3292089148
 21
147.7481152199
 31
0.0
 11
193.3305562878
 21
147.7515812285
 31
0.0
 11
193.3319501532
 21
147.7550391244
 31
0.0
 11
193.333390528
 21
147.7584880083
 31
0.0
 11
193.3348774068
 21
147.7619269761
 31
0.0
 11
193.3364107618
 21
147.7653551198
 31
0.0
 11
193.337990542
 21
147.7687715281
 31
0.0
 11
193.3396166733
 21
147.7721752872
 31
0.0
 11
193.3412890584
 21
147.7755654813
 31
0.0
 11
193.3430075761
 21
147.7789411935
 31
0.0
 11
193.3447720819
 21
147.7823015067
 31
0.0
 11
193.3465824074
 21
147.7856455038
 31
0.0
 11
193.3484383602
 21
147.7889722692
 31
0.0
 11
193.350339724
 21
147.7922808889
 31
0.0
 11
193.3522862586
 21
147.7955704516
 31
0.0
 11
193.3542776998
 21
147.7988400496
 31
0.0
 11
193.3563137592
 21
147.8020887791
 31
0.0
 11
193.3583941248
 21
147.8053157416
 31
0.0
 11
193.3605184606
 21
147.8085200442
 31
0.0
 11
193.362686407
 21
147.8117008005
 31
0.0
 11
193.3648975807
 21
147.8148571316
 31
0.0
 11
193.3671515751
 21
147.8179881665
 31
0.0
 11
193.3694479605
 21
147.8210930432
 31
0.0
 11
193.3717862841
 21
147.8241709094
 31
0.0
 11
193.3741660705
 21
147.8272209232
 31
0.0
 11
193.3765868219
 21
147.8302422535
 31
0.0
 11
193.3790480185
 21
147.8332340816
 31
0.0
 11
193.3815491189
 21
147.8361956011
 31
0.0
 11
193.3840895601
 21
147.8391260191
 31
0.0
 11
193.3866687585
 21
147.8420245564
 31
0.0
 11
193.3892861099
 21
147.844890449
 31
0.0
 11
193.3919409902
 21
147.8477229479
 31
0.0
 11
193.3946327557
 21
147.8505213203
 31
0.0
 11
193.3973607438
 21
147.85328485
 31
0.0
 11
193.4001242735
 21
147.8560128381
 31
0.0
 11
193.4029226459
 21
147.8587046036
 31
0.0
 11
193.4057551448
 21
147.8613594839
 31
0.0
 11
193.4086210373
 21
147.8639768353
 31
0.0
 11
193.4115195747
 21
147.8665560337
 31
0.0
 11
193.4144499926
 21
147.8690964749
 31
0.0
 11
193.4174115121
 21
147.8715975752
 31
0.0
 11
193.4204033402
 21
147.8740587719
 31
0.0
 11
193.4234246706
 21
147.8764795233
 31
0.0
 11
193.4264746843
 21
147.8788593097
 31
0.0
 11
193.4295525505
 21
147.8811976333
 31
0.0
 11
193.4326574273
 21
147.8834940186
 31
0.0
 11
193.4357884622
 21
147.8857480131
 31
0.0
 11
193.4389447933
 21
147.8879591868
 31
0.0
 11
193.4421255496
 21
147.8901271332
 31
0.0
 11
193.4453298521
 21
147.892251469
 31
0.0
 11
193.4485568146
 21
147.8943318346
 31
0.0
 11
193.4518055442
 21
147.896367894
 31
0.0
 11
193.4550751421
 21
147.8983593351
 31
0.0
 11
193.4583647049
 21
147.9003058697
 31
0.0
 11
193.4616733245
 21
147.9022072336
 31
0.0
 11
193.4650000899
 21
147.9040631864
 31
0.0
 11
193.4683440871
 21
147.9058735118
 31
0.0
 11
193.4717044002
 21
147.9076380177
 31
0.0
 11
193.4750801125
 21
147.9093565354
 31
0.0
 11
193.4784703066
 21
147.9110289204
 31
0.0
 11
193.4818740657
 21
147.9126550517
 31
0.0
 11
193.485290474
 21
147.9142348319
 31
0.0
 11
193.4887186177
 21
147.9157681869
 31
0.0
 11
193.4921575855
 21
147.9172550658
 31
0.0
 11
193.4956064694
 21
147.9186954406
 31
0.0
 11
193.4990643653
 21
147.9200893059
 31
0.0
 11
193.5025303739
 21
147.921436679
 31
0.0
 11
193.506003601
 21
147.922737599
 31
0.0
 11
193.5094831587
 21
147.9239921269
 31
0.0
 11
193.5129681652
 21
147.9252003453
 31
0.0
 11
193.5164577464
 21
147.9263623576
 31
0.0
 11
193.5199510355
 21
147.9274782883
 31
0.0
 11
193.5234471744
 21
147.9285482819
 31
0.0
 11
193.5269453137
 21
147.9295725031
 31
0.0
 11
193.5304446136
 21
147.9305511357
 31
0.0
 11
193.533944244
 21
147.9314843829
 31
0.0
 11
193.5374433855
 21
147.9323724664
 31
0.0
 11
193.5409412294
 21
147.9332156259
 31
0.0
 11
193.5444369785
 21
147.9340141188
 31
0.0
 11
193.5479298472
 21
147.9347682197
 31
0.0
 11
193.5514190621
 21
147.9354782197
 31
0.0
 11
193.5549038624
 21
147.9361444261
 31
0.0
 11
193.5583835003
 21
147.9367671619
 31
0.0
 11
193.5618572411
 21
147.9373467649
 31
0.0
 11
193.5653243636
 21
147.9378835878
 31
0.0
 11
193.5687841606
 21
147.938377997
 31
0.0
 11
193.5722359389
 21
147.9388303726
 31
0.0
 11
193.5756790198
 21
147.9392411075
 31
0.0
 11
193.5791127389
 21
147.939610607
 31
0.0
 11
193.5825364468
 21
147.9399392882
 31
0.0
 11
193.5859495091
 21
147.9402275796
 31
0.0
 11
193.5893513063
 21
147.9404759205
 31
0.0
 11
193.5927412345
 21
147.9406847601
 31
0.0
 11
193.5961187049
 21
147.9408545576
 31
0.0
 11
193.5994831443
 21
147.9409857812
 31
0.0
 11
193.602833995
 21
147.9410789075
 31
0.0
 11
193.6094927782
 21
147.9411528156
 31
0.0
  0
LINE
  5
2CB
100
AcDbEntity
  8
0
100
AcDbLine
 62
7
  6
CONTINUOUS
 10
193.6094927782
 20
147.9411528156
 11
206.0094927782
 21
147.9411528156
  0
LINE
  5
2CC
100
AcDbEntity
  8
0
100
AcDbLine
 62
7
  6
CONTINUOUS
 10
206.0094927782
 20
149.5161528147
 11
206.0094927782
 21
147.9411528156
  0
LINE
  5
2CD
100
AcDbEntity
  8
0
100
AcDbLine
 62
7
  6
CONTINUOUS
 10
206.0094927782
 20
149.5161528147
 11
206.9094927782
 21
151.0911528147
  0
LINE
  5
2CE
100
AcDbEntity
  8
0
100
AcDbLine
 62
7
  6
CONTINUOUS
 10
206.9094927782
 20
152.9961528147
 11
206.9094927782
 21
151.0911528147
  0
LINE
  5
2CF
100
AcDbEntity
  8
0
100
AcDbLine
 62
7
  6
CONTINUOUS
 10
206.0094927782
 20
152.9961528147
 11
206.9094927782
 21
152.9961528147
  0
LINE
  5
2D0
100
AcDbEntity
  8
0
100
AcDbLine
 62
7
  6
CONTINUOUS
 10
206.0094927782
 20
157.3802292771
 11
206.0094927782
 21
152.9961528147
  0
SPLINE
  5
2D1
100
AcDbEntity
  8
0
100
AcDbSpline
 62
7
  6
CONTINUOUS
 70
4
 71
3
 72
8
 73
4
 74
65
 42
0.0000001
 43
0.0000001
 44
0.0000000001
 12
-0.0
 22
0.3550473657
 32
0.0
 13
0.3387299493
 23
0.1063985591
 33
0.0
 40
0.0
 40
0.0
 40
0.0
 40
0.0
 40
1.0
 40
1.0
 40
1.0
 40
1.0
 10
206.0094927782
 20
157.3802292771
 30
0.0
 41
1.0
 10
206.0094927782
 20
157.516145606
 30
0.0
 41
0.870749842
 10
206.0899206691
 20
157.6257111244
 30
0.0
 41
0.870749842
 10
206.219590498
 20
157.6664417506
 30
0.0
 41
1.0
 11
206.0094927782
 21
157.3802292771
 31
0.0
 11
206.0095443793
 21
157.3857932701
 31
0.0
 11
206.0097003888
 21
157.391388276
 31
0.0
 11
206.009962557
 21
157.3970116077
 31
0.0
 11
206.0103325518
 21
157.4026604826
 31
0.0
 11
206.0108119526
 21
157.4083320253
 31
0.0
 11
206.0114022449
 21
157.4140232707
 31
0.0
 11
206.012104815
 21
157.4197311677
 31
0.0
 11
206.0129209443
 21
157.4254525824
 31
0.0
 11
206.0138518044
 21
157.4311843027
 31
0.0
 11
206.0148984521
 21
157.4369230426
 31
0.0
 11
206.0160618243
 21
157.442665447
 31
0.0
 11
206.0173427337
 21
157.4484080972
 31
0.0
 11
206.0187418642
 21
157.4541475159
 31
0.0
 11
206.0202597671
 21
157.4598801735
 31
0.0
 11
206.0218968571
 21
157.4656024941
 31
0.0
 11
206.023653409
 21
157.4713108617
 31
0.0
 11
206.0255295548
 21
157.4770016272
 31
0.0
 11
206.0275252805
 21
157.4826711154
 31
0.0
 11
206.0296404243
 21
157.4883156316
 31
0.0
 11
206.0318746746
 21
157.4939314697
 31
0.0
 11
206.0342275685
 21
157.4995149189
 31
0.0
 11
206.0366984906
 21
157.5050622722
 31
0.0
 11
206.0392866728
 21
157.5105698335
 31
0.0
 11
206.0419911941
 21
157.5160339255
 31
0.0
 11
206.0448109809
 21
157.521450898
 31
0.0
 11
206.047744808
 21
157.5268171352
 31
0.0
 11
206.0507913001
 21
157.5321290639
 31
0.0
 11
206.0539489331
 21
157.5373831611
 31
0.0
 11
206.0572160373
 21
157.5425759618
 31
0.0
 11
206.0605907995
 21
157.5477040663
 31
0.0
 11
206.0640712666
 21
157.552764148
 31
0.0
 11
206.0676553493
 21
157.5577529599
 31
0.0
 11
206.071340826
 21
157.5626673424
 31
0.0
 11
206.0751253478
 21
157.5675042289
 31
0.0
 11
206.0790064434
 21
157.5722606534
 31
0.0
 11
206.0829815241
 21
157.5769337554
 31
0.0
 11
206.0870478899
 21
157.5815207863
 31
0.0
 11
206.0912027355
 21
157.5860191147
 31
0.0
 11
206.0954431564
 21
157.590426231
 31
0.0
 11
206.0997661558
 21
157.5947397521
 31
0.0
 11
206.1041686514
 21
157.5989574256
 31
0.0
 11
206.1086474822
 21
157.6030771335
 31
0.0
 11
206.1131994161
 21
157.6070968949
 31
0.0
 11
206.1178211571
 21
157.6110148696
 31
0.0
 11
206.1225093528
 21
157.6148293594
 31
0.0
 11
206.1272606018
 21
157.6185388109
 31
0.0
 11
206.1320714616
 21
157.6221418159
 31
0.0
 11
206.136938456
 21
157.6256371129
 31
0.0
 11
206.1418580826
 21
157.6290235874
 31
0.0
 11
206.1468268206
 21
157.6323002715
 31
0.0
 11
206.1518411379
 21
157.6354663439
 31
0.0
 11
206.1568974985
 21
157.6385211287
 31
0.0
 11
206.16199237
 21
157.641464094
 31
0.0
 11
206.1671222299
 21
157.6442948503
 31
0.0
 11
206.172283573
 21
157.6470131484
 31
0.0
 11
206.1774729176
 21
157.6496188768
 31
0.0
 11
206.1826868122
 21
157.6521120588
 31
0.0
 11
206.187921841
 21
157.6544928496
 31
0.0
 11
206.1931746304
 21
157.6567615329
 31
0.0
 11
206.1984418538
 21
157.6589185166
 31
0.0
 11
206.2037202374
 21
157.6609643294
 31
0.0
 11
206.2090065646
 21
157.6628996167
 31
0.0
 11
206.2142976809
 21
157.6647251355
 31
0.0
 11
206.219590498
 21
157.6664417506
 31
0.0
  0
LINE
  5
2D2
100
AcDbEntity
  8
0
100
AcDbLine
 62
7
  6
CONTINUOUS
 10
206.219590498
 20
157.6664417506
 11
206.2986296264
 21
157.691152815
  0
LINE
  5
2D3
100
AcDbEntity
  8
0
100
AcDbLine
 62
7
  6
CONTINUOUS
 10
206.2986296264
 20
157.691152815
 11
205.2986296264
 21
157.691152815
  0
LINE
  5
2D4
100
AcDbEntity
  8
0
100
AcDbLine
 62
7
  6
CONTINUOUS
 10
205.2986296264
 20
158.266152815
 11
205.2986296264
 21
157.691152815
  0
LINE
  5
2D5
100
AcDbEntity
  8
0
100
AcDbLine
 62
7
  6
CONTINUOUS
 10
205.2986296264
 20
158.266152815
 11
207.7094927782
 21
160.3302864805
  0
LINE
  5
2D6
100
AcDbEntity
  8
0
100
AcDbLine
 62
7
  6
CONTINUOUS
 10
207.7094927782
 20
172.091152815
 11
207.7094927782
 21
160.3302864805
  0
LINE
  5
2D7
100
AcDbEntity
  8
0
100
AcDbLine
 62
7
  6
CONTINUOUS
 10
207.2747653066
 20
172.091152815
 11
207.7094927782
 21
172.091152815
  0
SPLINE
  5
2D8
100
AcDbEntity
  8
0
100
AcDbSpline
 62
7
  6
CONTINUOUS
 70
4
 71
3
 72
11
 73
7
 74
313
 42
0.0000001
 43
0.0000001
 44
0.0000000001
 12
1.0300551384
 22
-5.5152512599
 32
0.0
 13
-3.6874302372
 23
4.2286958148
 33
0.0
 40
0.0
 40
0.0
 40
0.0
 40
0.0
 40
1.0
 40
1.0
 40
1.0
 40
2.0
 40
2.0
 40
2.0
 40
2.0
 10
204.2094927782
 20
170.6071157801
 30
0.0
 41
1.0
 10
204.4421167046
 20
169.3615713858
 30
0.0
 41
0.737997415
 10
205.5731586254
 20
168.7903981172
 30
0.0
 41
0.737997415
 10
206.7136108197
 20
169.3425425928
 30
0.0
 41
1.0
 10
207.854063014
 20
169.8946870684
 30
0.0
 41
0.737997415
 10
208.1075212129
 20
171.1361594486
 30
0.0
 41
0.737997415
 10
207.2747653066
 20
172.091152815
 30
0.0
 41
1.0
 11
204.2094927782
 21
170.6071157801
 31
0.0
 11
204.2136632449
 21
170.5855314515
 31
0.0
 11
204.2181301227
 21
170.5638695704
 31
0.0
 11
204.2228975323
 21
170.5421350657
 31
0.0
 11
204.2279695178
 21
170.520333029
 31
0.0
 11
204.2333500402
 21
170.498468715
 31
0.0
 11
204.2390429711
 21
170.4765475407
 31
0.0
 11
204.2450520856
 21
170.4545750853
 31
0.0
 11
204.2513810565
 21
170.432557089
 31
0.0
 11
204.2580334469
 21
170.4104994523
 31
0.0
 11
204.265012704
 21
170.3884082338
 31
0.0
 11
204.2723221516
 21
170.3662896495
 31
0.0
 11
204.279964984
 21
170.34415007
 31
0.0
 11
204.2879442586
 21
170.3219960188
 31
0.0
 11
204.296262889
 21
170.2998341691
 31
0.0
 11
204.3049236385
 21
170.2776713415
 31
0.0
 11
204.3139291126
 21
170.2555145
 31
0.0
 11
204.3232817528
 21
170.2333707492
 31
0.0
 11
204.3329838293
 21
170.2112473298
 31
0.0
 11
204.3430374343
 21
170.1891516145
 31
0.0
 11
204.3534444756
 21
170.1670911035
 31
0.0
 11
204.3642066699
 21
170.1450734195
 31
0.0
 11
204.3753255362
 21
170.1231063022
 31
0.0
 11
204.3868023897
 21
170.1011976031
 31
0.0
 11
204.3986383356
 21
170.079355279
 31
0.0
 11
204.4108342628
 21
170.0575873862
 31
0.0
 11
204.4233908389
 21
170.0359020734
 31
0.0
 11
204.4363085036
 21
170.0143075751
 31
0.0
 11
204.4495874642
 21
169.9928122039
 31
0.0
 11
204.4632276902
 21
169.9714243435
 31
0.0
 11
204.4772289081
 21
169.95015244
 31
0.0
 11
204.4915905978
 21
169.9290049944
 31
0.0
 11
204.5063119875
 21
169.9079905534
 31
0.0
 11
204.5213920503
 21
169.8871177014
 31
0.0
 11
204.5368295004
 21
169.8663950508
 31
0.0
 11
204.5526227902
 21
169.8458312329
 31
0.0
 11
204.5687701072
 21
169.8254348887
 31
0.0
 11
204.5852693719
 21
169.8052146587
 31
0.0
 11
204.6021182357
 21
169.7851791732
 31
0.0
 11
204.6193140793
 21
169.7653370422
 31
0.0
 11
204.6368540115
 21
169.7456968454
 31
0.0
 11
204.6547348688
 21
169.7262671211
 31
0.0
 11
204.6729532151
 21
169.7070563566
 31
0.0
 11
204.6915053416
 21
169.688072977
 31
0.0
 11
204.7103872682
 21
169.6693253346
 31
0.0
 11
204.7295947442
 21
169.6508216988
 31
0.0
 11
204.7491232505
 21
169.6325702445
 31
0.0
 11
204.7689680013
 21
169.6145790423
 31
0.0
 11
204.7891239472
 21
169.5968560472
 31
0.0
 11
204.8095857784
 21
169.5794090886
 31
0.0
 11
204.8303479282
 21
169.5622458594
 31
0.0
 11
204.8514045775
 21
169.5453739057
 31
0.0
 11
204.8727496595
 21
169.5288006169
 31
0.0
 11
204.8943768647
 21
169.5125332154
 31
0.0
 11
204.9162796467
 21
169.4965787471
 31
0.0
 11
204.9384512285
 21
169.4809440713
 31
0.0
 11
204.9608846089
 21
169.4656358518
 31
0.0
 11
204.9835725696
 21
169.450660548
 31
0.0
 11
205.006507683
 21
169.4360244054
 31
0.0
 11
205.0296823195
 21
169.4217334482
 31
0.0
 11
205.0530886567
 21
169.4077934706
 31
0.0
 11
205.0767186872
 21
169.3942100291
 31
0.0
 11
205.1005642283
 21
169.3809884357
 31
0.0
 11
205.124616931
 21
169.3681337507
 31
0.0
 11
205.1488682901
 21
169.3556507763
 31
0.0
 11
205.1733096539
 21
169.3435440506
 31
0.0
 11
205.1979322345
 21
169.3318178424
 31
0.0
 11
205.2227271187
 21
169.3204761458
 31
0.0
 11
205.2476852781
 21
169.309522676
 31
0.0
 11
205.2727975808
 21
169.298960865
 31
0.0
 11
205.2980548018
 21
169.2887938583
 31
0.0
 11
205.3234476347
 21
169.2790245119
 31
0.0
 11
205.3489667029
 21
169.2696553899
 31
0.0
 11
205.3746025708
 21
169.2606887622
 31
0.0
 11
205.4003457557
 21
169.2521266038
 31
0.0
 11
205.4261867389
 21
169.2439705932
 31
0.0
 11
205.4521159773
 21
169.2362221126
 31
0.0
 11
205.4781239148
 21
169.228882248
 31
0.0
 11
205.5042009939
 21
169.2219517898
 31
0.0
 11
205.5303376665
 21
169.215431234
 31
0.0
 11
205.5565244056
 21
169.2093207843
 31
0.0
 11
205.5827517158
 21
169.203620354
 31
0.0
 11
205.6090101446
 21
169.1983295688
 31
0.0
 11
205.6352902927
 21
169.1934477701
 31
0.0
 11
205.6615828244
 21
169.1889740188
 31
0.0
 11
205.6878784782
 21
169.1849070989
 31
0.0
 11
205.7141680762
 21
169.1812455227
 31
0.0
 11
205.7404425339
 21
169.1779875353
 31
0.0
 11
205.7666928698
 21
169.1751311202
 31
0.0
 11
205.7929102141
 21
169.1726740047
 31
0.0
 11
205.8190858173
 21
169.1706136663
 31
0.0
 11
205.8452110588
 21
169.1689473389
 31
0.0
 11
205.8712774548
 21
169.1676720194
 31
0.0
 11
205.8972766657
 21
169.1667844751
 31
0.0
 11
205.9232005036
 21
169.1662812506
 31
0.0
 11
205.9490409388
 21
169.166158675
 31
0.0
 11
205.9747901063
 21
169.1664128705
 31
0.0
 11
206.000440312
 21
169.1670397593
 31
0.0
 11
206.0259840381
 21
169.1680350723
 31
0.0
 11
206.0514139481
 21
169.1693943573
 31
0.0
 11
206.0767228922
 21
169.1711129868
 31
0.0
 11
206.1019039108
 21
169.1731861671
 31
0.0
 11
206.1269502391
 21
169.1756089463
 31
0.0
 11
206.1518553103
 21
169.1783762234
 31
0.0
 11
206.1766127588
 21
169.1814827562
 31
0.0
 11
206.2012164228
 21
169.1849231708
 31
0.0
 11
206.2256603468
 21
169.1886919694
 31
0.0
 11
206.2499387834
 21
169.1927835395
 31
0.0
 11
206.2740461947
 21
169.1971921622
 31
0.0
 11
206.2979772538
 21
169.2019120205
 31
0.0
 11
206.3217268453
 21
169.2069372083
 31
0.0
 11
206.3452900657
 21
169.2122617381
 31
0.0
 11
206.3686622238
 21
169.2178795498
 31
0.0
 11
206.3918388399
 21
169.2237845182
 31
0.0
 11
206.414815646
 21
169.2299704615
 31
0.0
 11
206.4375885842
 21
169.2364311487
 31
0.0
 11
206.4601538058
 21
169.2431603078
 31
0.0
 11
206.48250767
 21
169.2501516323
 31
0.0
 11
206.5046467419
 21
169.2573987898
 31
0.0
 11
206.5265677907
 21
169.264895428
 31
0.0
 11
206.5482677871
 21
169.2726351821
 31
0.0
 11
206.5697439014
 21
169.2806116817
 31
0.0
 11
206.5803971723
 21
169.2846867202
 31
0.0
 11
206.5909935004
 21
169.2888185567
 31
0.0
 11
206.6015325868
 21
169.2930063961
 31
0.0
 11
206.6120141445
 21
169.2972494441
 31
0.0
 11
206.6224378984
 21
169.3015469075
 31
0.0
 11
206.632803585
 21
169.305897994
 31
0.0
 11
206.6431109525
 21
169.310301913
 31
0.0
 11
206.6533597604
 21
169.3147578752
 31
0.0
 11
206.6584621326
 21
169.3170051263
 31
0.0
 11
206.6635497799
 21
169.319265093
 31
0.0
 11
206.6686226755
 21
169.3215376772
 31
0.0
 11
206.6736807932
 21
169.3238227809
 31
0.0
 11
206.6787241076
 21
169.326120306
 31
0.0
 11
206.6837525939
 21
169.328430155
 31
0.0
 11
206.688766228
 21
169.3307522302
 31
0.0
 11
206.6912674681
 21
169.3319178221
 31
0.0
 11
206.6937649864
 21
169.3330864341
 31
0.0
 11
206.6962587802
 21
169.3342580539
 31
0.0
 11
206.6987488465
 21
169.3354326693
 31
0.0
 11
206.7012351828
 21
169.3366102684
 31
0.0
 11
206.7037177863
 21
169.3377908389
 31
0.0
 11
206.7049576874
 21
169.3383822346
 31
0.0
 11
206.7061966543
 21
169.3389743686
 31
0.0
 11
206.7074346867
 21
169.3395672395
 31
0.0
 11
206.7086717842
 21
169.3401608456
 31
0.0
 11
206.7099079466
 21
169.3407551855
 31
0.0
 11
206.710525677
 21
169.3410526302
 31
0.0
 11
206.7111431735
 21
169.3413502577
 31
0.0
 11
206.7117604361
 21
169.3416480679
 31
0.0
 11
206.7123774647
 21
169.3419460606
 31
0.0
 11
206.7126858912
 21
169.3420951253
 31
0.0
 11
206.7129942592
 21
169.3422442356
 31
0.0
 11
206.7133025687
 21
169.3423933915
 31
0.0
 11
206.7134567015
 21
169.3424679864
 31
0.0
 11
206.7136108197
 21
169.3425425928
 31
0.0
 11
206.7137649306
 21
169.3426172141
 31
0.0
 11
206.7139190417
 21
169.3426918539
 31
0.0
 11
206.7142272643
 21
169.3428411892
 31
0.0
 11
206.7145354875
 21
169.3429905986
 31
0.0
 11
206.7148437113
 21
169.3431400821
 31
0.0
 11
206.7154601604
 21
169.3434392717
 31
0.0
 11
206.7160766115
 21
169.3437387581
 31
0.0
 11
206.7166930643
 21
169.3440385412
 31
0.0
 11
206.7173095188
 21
169.3443386213
 31
0.0
 11
206.718542432
 21
169.3449396725
 31
0.0
 11
206.7197753495
 21
169.3455419124
 31
0.0
 11
206.7210082701
 21
169.3461453416
 31
0.0
 11
206.7222411924
 21
169.3467499609
 31
0.0
 11
206.7234741149
 21
169.3473557709
 31
0.0
 11
206.7259399551
 21
169.3485709657
 31
0.0
 11
206.7284057797
 21
169.3497909317
 31
0.0
 11
206.7308715773
 21
169.3510156741
 31
0.0
 11
206.7333373369
 21
169.3522451983
 31
0.0
 11
206.7358030472
 21
169.3534795097
 31
0.0
 11
206.7382686968
 21
169.3547186137
 31
0.0
 11
206.7431997688
 21
169.3572112204
 31
0.0
 11
206.748130462
 21
169.3597230606
 31
0.0
 11
206.7530606849
 21
169.3622541758
 31
0.0
 11
206.7579903455
 21
169.3648046072
 31
0.0
 11
206.762919351
 21
169.3673743957
 31
0.0
 11
206.7678476086
 21
169.3699635814
 31
0.0
 11
206.7727750244
 21
169.3725722041
 31
0.0
 11
206.7826269536
 21
169.3778479177
 31
0.0
 11
206.7924743789
 21
169.3832018453
 31
0.0
 11
206.8023165322
 21
169.3886342877
 31
0.0
 11
206.812152637
 21
169.3941455381
 31
0.0
 11
206.8219819084
 21
169.3997358808
 31
0.0
 11
206.8318035536
 21
169.4054055922
 31
0.0
 11
206.8416167714
 21
169.4111549398
 31
0.0
 11
206.8514207529
 21
169.4169841822
 31
0.0
 11
206.8709977306
 21
169.4288833408
 31
0.0
 11
206.8905278567
 21
169.4411049533
 31
0.0
 11
206.9100043789
 21
169.4536507511
 31
0.0
 11
206.9294204259
 21
169.4665223057
 31
0.0
 11
206.9487690109
 21
169.4797210225
 31
0.0
 11
206.968043036
 21
169.4932481347
 31
0.0
 11
206.9872352964
 21
169.5071046976
 31
0.0
 11
207.0063384849
 21
169.5212915824
 31
0.0
 11
207.0253451971
 21
169.5358094707
 31
0.0
 11
207.0442479365
 21
169.5506588485
 31
0.0
 11
207.0630391203
 21
169.5658400008
 31
0.0
 11
207.0817110848
 21
169.5813530065
 31
0.0
 11
207.1002560924
 21
169.5971977327
 31
0.0
 11
207.1186663372
 21
169.61337383
 31
0.0
 11
207.1369339524
 21
169.6298807274
 31
0.0
 11
207.1550510173
 21
169.646717628
 31
0.0
 11
207.1730095646
 21
169.6638835045
 31
0.0
 11
207.190801588
 21
169.6813770949
 31
0.0
 11
207.2084190502
 21
169.699196899
 31
0.0
 11
207.2258538911
 21
169.7173411747
 31
0.0
 11
207.2430980365
 21
169.7358079347
 31
0.0
 11
207.2601434063
 21
169.7545949437
 31
0.0
 11
207.2769819237
 21
169.7736997157
 31
0.0
 11
207.2936055242
 21
169.7931195122
 31
0.0
 11
207.3100061652
 21
169.8128513397
 31
0.0
 11
207.3261758352
 21
169.8328919489
 31
0.0
 11
207.3421065633
 21
169.8532378334
 31
0.0
 11
207.3577904296
 21
169.873885229
 31
0.0
 11
207.3732195745
 21
169.8948301136
 31
0.0
 11
207.3883862091
 21
169.9160682076
 31
0.0
 11
207.403282625
 21
169.9375949743
 31
0.0
 11
207.4179012047
 21
169.9594056213
 31
0.0
 11
207.4322344318
 21
169.981495102
 31
0.0
 11
207.4462749009
 21
170.0038581176
 31
0.0
 11
207.460015328
 21
170.0264891201
 31
0.0
 11
207.4734485607
 21
170.0493823148
 31
0.0
 11
207.486567588
 21
170.072531664
 31
0.0
 11
207.4993655504
 21
170.0959308912
 31
0.0
 11
207.5118357501
 21
170.1195734854
 31
0.0
 11
207.5239716601
 21
170.1434527061
 31
0.0
 11
207.535766934
 21
170.1675615887
 31
0.0
 11
207.5472154156
 21
170.1918929505
 31
0.0
 11
207.5583111477
 21
170.2164393969
 31
0.0
 11
207.569048381
 21
170.2411933284
 31
0.0
 11
207.5794215828
 21
170.2661469476
 31
0.0
 11
207.5894254452
 21
170.2912922671
 31
0.0
 11
207.5990548932
 21
170.3166211173
 31
0.0
 11
207.6083050921
 21
170.3421251552
 31
0.0
 11
207.6171714549
 21
170.3677958729
 31
0.0
 11
207.6256496494
 21
170.393624607
 31
0.0
 11
207.633735604
 21
170.4196025482
 31
0.0
 11
207.6414255144
 21
170.445720751
 31
0.0
 11
207.6487158488
 21
170.4719701438
 31
0.0
 11
207.6556033531
 21
170.4983415394
 31
0.0
 11
207.6620850556
 21
170.5248256458
 31
0.0
 11
207.668158271
 21
170.5514130769
 31
0.0
 11
207.6738206042
 21
170.5780943635
 31
0.0
 11
207.6790699531
 21
170.6048599646
 31
0.0
 11
207.6839045117
 21
170.6317002791
 31
0.0
 11
207.6883227717
 21
170.6586056566
 31
0.0
 11
207.6923235244
 21
170.6855664096
 31
0.0
 11
207.6959058613
 21
170.7125728247
 31
0.0
 11
207.699069175
 21
170.7396151745
 31
0.0
 11
207.7018131587
 21
170.7666837291
 31
0.0
 11
207.7041378058
 21
170.7937687675
 31
0.0
 11
207.706043409
 21
170.8208605894
 31
0.0
 11
207.7075305579
 21
170.8479495265
 31
0.0
 11
207.7086001375
 21
170.8750259539
 31
0.0
 11
207.7092533254
 21
170.902080301
 31
0.0
 11
207.7094915879
 21
170.9291030629
 31
0.0
 11
207.7093166775
 21
170.9560848106
 31
0.0
 11
207.7087306275
 21
170.9830162021
 31
0.0
 11
207.7077357483
 21
171.0098879924
 31
0.0
 11
207.7063346219
 21
171.0366910436
 31
0.0
 11
207.7045300963
 21
171.0634163346
 31
0.0
 11
207.7023252801
 21
171.0900549706
 31
0.0
 11
207.6997235357
 21
171.116598192
 31
0.0
 11
207.6967284728
 21
171.1430373834
 31
0.0
 11
207.6933439417
 21
171.1693640818
 31
0.0
 11
207.6895740257
 21
171.1955699847
 31
0.0
 11
207.6854230333
 21
171.2216469574
 31
0.0
 11
207.6808954909
 21
171.2475870406
 31
0.0
 11
207.6759961343
 21
171.2733824569
 31
0.0
 11
207.6707299002
 21
171.2990256172
 31
0.0
 11
207.665101918
 21
171.3245091267
 31
0.0
 11
207.6591175009
 21
171.3498257903
 31
0.0
 11
207.6527821369
 21
171.3749686177
 31
0.0
 11
207.6461014801
 21
171.3999308279
 31
0.0
 11
207.6390813413
 21
171.4247058535
 31
0.0
 11
207.6317276787
 21
171.4492873443
 31
0.0
 11
207.6240465891
 21
171.4736691705
 31
0.0
 11
207.6160442984
 21
171.4978454259
 31
0.0
 11
207.6077271519
 21
171.5218104298
 31
0.0
 11
207.5991016058
 21
171.5455587293
 31
0.0
 11
207.5901742172
 21
171.5690851008
 31
0.0
 11
207.5809516354
 21
171.592384551
 31
0.0
 11
207.5714405925
 21
171.6154523177
 31
0.0
 11
207.5616478945
 21
171.6382838705
 31
0.0
 11
207.5515804124
 21
171.66087491
 31
0.0
 11
207.5412450731
 21
171.6832213681
 31
0.0
 11
207.5306488512
 21
171.7053194069
 31
0.0
 11
207.5197987601
 21
171.7271654174
 31
0.0
 11
207.5087018439
 21
171.7487560186
 31
0.0
 11
207.4973651692
 21
171.7700880551
 31
0.0
 11
207.4857958171
 21
171.7911585954
 31
0.0
 11
207.4740008752
 21
171.8119649294
 31
0.0
 11
207.4619874309
 21
171.8325045659
 31
0.0
 11
207.449762563
 21
171.8527752294
 31
0.0
 11
207.4373333355
 21
171.8727748572
 31
0.0
 11
207.4247067902
 21
171.8925015959
 31
0.0
 11
207.4118899405
 21
171.9119537979
 31
0.0
 11
207.3988897648
 21
171.9311300173
 31
0.0
 11
207.3857132006
 21
171.9500290066
 31
0.0
 11
207.3723671386
 21
171.9686497117
 31
0.0
 11
207.3588584171
 21
171.9869912683
 31
0.0
 11
207.3451938167
 21
172.0050529969
 31
0.0
 11
207.3313800554
 21
172.0228343987
 31
0.0
 11
207.3174237838
 21
172.0403351507
 31
0.0
 11
207.3033315802
 21
172.057555101
 31
0.0
 11
207.2891099472
 21
172.0744942639
 31
0.0
 11
207.2747653066
 21
172.091152815
 31
0.0
  0
LINE
  5
2D9
100
AcDbEntity
  8
0
100
AcDbLine
 62
7
  6
CONTINUOUS
 10
204.2094927782
 20
170.6071157801
 11
204.2094927782
 21
168.591152815
  0
LINE
  5
2DA
100
AcDbEntity
  8
0
100
AcDbLine
 62
7
  6
CONTINUOUS
 10
203.7094927782
 20
168.441152815
 11
204.2094927782
 21
168.591152815
  0
LINE
  5
2DB
100
AcDbEntity
  8
0
100
AcDbLine
 62
7
  6
CONTINUOUS
 10
203.5594927782
 20
168.441152815
 11
203.7094927782
 21
168.441152815
  0
LINE
  5
2DC
100
AcDbEntity
  8
0
100
AcDbLine
 62
7
  6
CONTINUOUS
 10
202.3494927782
 20
170.091152815
 11
203.5594927782
 21
168.441152815
  0
LINE
  5
2DD
100
AcDbEntity
  8
0
100
AcDbLine
 62
7
  6
CONTINUOUS
 10
201.8094927782
 20
170.091152815
 11
202.3494927782
 21
170.091152815
  0
LINE
  5
2DE
100
AcDbEntity
  8
0
100
AcDbLine
 62
7
  6
CONTINUOUS
 10
201.5094927782
 20
170.391152815
 11
201.8094927782
 21
170.091152815
  0
LINE
  5
2DF
100
AcDbEntity
  8
0
100
AcDbLine
 62
7
  6
CONTINUOUS
 10
201.5094927782
 20
177.591152815
 11
201.5094927782
 21
170.391152815
  0
SPLINE
  5
2E0
100
AcDbEntity
  8
0
100
AcDbSpline
 62
7
  6
CONTINUOUS
 70
4
 71
3
 72
8
 73
4
 74
129
 42
0.0000001
 43
0.0000001
 44
0.0000000001
 12
-3.5355339059
 22
0.0
 32
0.0
 13
-0.0
 23
-3.5355339059
 33
0.0
 40
0.0
 40
0.0
 40
0.0
 40
0.0
 40
1.0
 40
1.0
 40
1.0
 40
1.0
 10
204.0094927782
 20
180.091152815
 30
0.0
 41
1.0
 10
202.5450266841
 20
180.091152815
 30
0.0
 41
0.8047378541
 10
201.5094927782
 20
179.0556189091
 30
0.0
 41
0.8047378541
 10
201.5094927782
 20
177.591152815
 30
0.0
 41
1.0
 11
204.0094927782
 21
180.091152815
 31
0.0
 11
203.9818089193
 21
180.0909995311
 31
0.0
 11
203.9540029188
 21
180.0905369142
 31
0.0
 11
203.9260791626
 21
180.0897608613
 31
0.0
 11
203.8980421678
 21
180.0886673318
 31
0.0
 11
203.8698965812
 21
180.0872523527
 31
0.0
 11
203.8416471797
 21
180.0855120223
 31
0.0
 11
203.8132988691
 21
180.0834425153
 31
0.0
 11
203.7848566834
 21
180.0810400865
 31
0.0
 11
203.756325784
 21
180.0783010762
 31
0.0
 11
203.7277114582
 21
180.0752219138
 31
0.0
 11
203.699019118
 21
180.0717991232
 31
0.0
 11
203.6702542987
 21
180.0680293267
 31
0.0
 11
203.641422657
 21
180.0639092498
 31
0.0
 11
203.6125299693
 21
180.0594357259
 31
0.0
 11
203.5835821296
 21
180.0546057006
 31
0.0
 11
203.5545851471
 21
180.0494162361
 31
0.0
 11
203.5255451441
 21
180.0438645159
 31
0.0
 11
203.4964683531
 21
180.0379478492
 31
0.0
 11
203.4673611143
 21
180.0316636753
 31
0.0
 11
203.4382298721
 21
180.0250095676
 31
0.0
 11
203.4090811728
 21
180.0179832385
 31
0.0
 11
203.3799216603
 21
180.0105825428
 31
0.0
 11
203.3507580732
 21
180.0028054825
 31
0.0
 11
203.321597241
 21
179.9946502105
 31
0.0
 11
203.29244608
 21
179.9861150345
 31
0.0
 11
203.2633115893
 21
179.9771984209
 31
0.0
 11
203.2342008466
 21
179.9678989985
 31
0.0
 11
203.2051210039
 21
179.9582155621
 31
0.0
 11
203.1760792825
 21
179.9481470758
 31
0.0
 11
203.1470829689
 21
179.9376926764
 31
0.0
 11
203.1181394091
 21
179.9268516765
 31
0.0
 11
203.0892560043
 21
179.9156235677
 31
0.0
 11
203.0604402049
 21
179.904008023
 31
0.0
 11
203.031699506
 21
179.8920049
 31
0.0
 11
203.003041441
 21
179.8796142427
 31
0.0
 11
202.9744735768
 21
179.8668362844
 31
0.0
 11
202.9460035074
 21
179.8536714494
 31
0.0
 11
202.9176388485
 21
179.8401203551
 31
0.0
 11
202.889387231
 21
179.8261838133
 31
0.0
 11
202.8612562955
 21
179.8118628321
 31
0.0
 11
202.8332536859
 21
179.7971586169
 31
0.0
 11
202.8053870429
 21
179.7820725712
 31
0.0
 11
202.7776639981
 21
179.766606298
 31
0.0
 11
202.7500921674
 21
179.7507615994
 31
0.0
 11
202.7226791446
 21
179.7345404777
 31
0.0
 11
202.695432495
 21
179.7179451349
 31
0.0
 11
202.6683597488
 21
179.7009779731
 31
0.0
 11
202.6414683947
 21
179.6836415931
 31
0.0
 11
202.6147658733
 21
179.6659387946
 31
0.0
 11
202.5882595708
 21
179.6478725748
 31
0.0
 11
202.561956812
 21
179.6294461272
 31
0.0
 11
202.5358648543
 21
179.6106628403
 31
0.0
 11
202.5099908814
 21
179.5915262955
 31
0.0
 11
202.4843419962
 21
179.5720402657
 31
0.0
 11
202.4589252153
 21
179.5522087125
 31
0.0
 11
202.4337474622
 21
179.532035784
 31
0.0
 11
202.4088155613
 21
179.511525812
 31
0.0
 11
202.384136232
 21
179.4906833091
 31
0.0
 11
202.3597160827
 21
179.4695129656
 31
0.0
 11
202.3355616047
 21
179.4480196456
 31
0.0
 11
202.3116791667
 21
179.4262083838
 31
0.0
 11
202.2880750092
 21
179.4040843815
 31
0.0
 11
202.2647552394
 21
179.3816530023
 31
0.0
 11
202.2417258252
 21
179.358919768
 31
0.0
 11
202.2189925908
 21
179.3358903538
 31
0.0
 11
202.1965612116
 21
179.3125705839
 31
0.0
 11
202.1744372093
 21
179.2889664265
 31
0.0
 11
202.1526259476
 21
179.2650839885
 31
0.0
 11
202.1311326276
 21
179.2409295104
 31
0.0
 11
202.1099622841
 21
179.2165093611
 31
0.0
 11
202.0891197812
 21
179.1918300319
 31
0.0
 11
202.0686098092
 21
179.166898131
 31
0.0
 11
202.0484368807
 21
179.1417203779
 31
0.0
 11
202.0286053274
 21
179.1163035969
 31
0.0
 11
202.0091192976
 21
179.0906547118
 31
0.0
 11
201.9899827529
 21
179.0647807388
 31
0.0
 11
201.971199466
 21
179.0386887812
 31
0.0
 11
201.9527730184
 21
179.0123860224
 31
0.0
 11
201.9347067986
 21
178.9858797198
 31
0.0
 11
201.9170040001
 21
178.9591771985
 31
0.0
 11
201.8996676201
 21
178.9322858444
 31
0.0
 11
201.8827004582
 21
178.9052130982
 31
0.0
 11
201.8661051155
 21
178.8779664486
 31
0.0
 11
201.8498839938
 21
178.8505534258
 31
0.0
 11
201.8340392952
 21
178.8229815951
 31
0.0
 11
201.8185730219
 21
178.7952585503
 31
0.0
 11
201.8034869763
 21
178.7673919073
 31
0.0
 11
201.7887827611
 21
178.7393892977
 31
0.0
 11
201.7744617799
 21
178.7112583622
 31
0.0
 11
201.7605252381
 21
178.6830067447
 31
0.0
 11
201.7469741437
 21
178.6546420857
 31
0.0
 11
201.7338093088
 21
178.6261720164
 31
0.0
 11
201.7210313505
 21
178.5976041522
 31
0.0
 11
201.7086406932
 21
178.5689460872
 31
0.0
 11
201.6966375701
 21
178.5402053883
 31
0.0
 11
201.6850220255
 21
178.5113895889
 31
0.0
 11
201.6737939167
 21
178.482506184
 31
0.0
 11
201.6629529168
 21
178.4535626243
 31
0.0
 11
201.6524985174
 21
178.4245663106
 31
0.0
 11
201.6424300311
 21
178.3955245893
 31
0.0
 11
201.6327465946
 21
178.3664447466
 31
0.0
 11
201.6234471723
 21
178.3373340039
 31
0.0
 11
201.6145305587
 21
178.3081995132
 31
0.0
 11
201.6059953827
 21
178.2790483521
 31
0.0
 11
201.5978401107
 21
178.2498875199
 31
0.0
 11
201.5900630504
 21
178.2207239329
 31
0.0
 11
201.5826623547
 21
178.1915644204
 31
0.0
 11
201.5756360255
 21
178.162415721
 31
0.0
 11
201.5689819179
 21
178.1332844789
 31
0.0
 11
201.562697744
 21
178.10417724
 31
0.0
 11
201.5567810773
 21
178.075100449
 31
0.0
 11
201.5512293571
 21
178.046060446
 31
0.0
 11
201.5460398926
 21
178.0170634636
 31
0.0
 11
201.5412098672
 21
177.9881156238
 31
0.0
 11
201.5367363433
 21
177.9592229361
 31
0.0
 11
201.5326162665
 21
177.9303912945
 31
0.0
 11
201.52884647
 21
177.9016264752
 31
0.0
 11
201.5254236793
 21
177.872934135
 31
0.0
 11
201.522344517
 21
177.8443198092
 31
0.0
 11
201.5196055066
 21
177.8157889098
 31
0.0
 11
201.5172030779
 21
177.7873467241
 31
0.0
 11
201.5151335709
 21
177.7589984135
 31
0.0
 11
201.5133932405
 21
177.730749012
 31
0.0
 11
201.5119782614
 21
177.7026034254
 31
0.0
 11
201.5108847319
 21
177.6745664305
 31
0.0
 11
201.5101086789
 21
177.6466426744
 31
0.0
 11
201.5096460621
 21
177.6188366739
 31
0.0
 11
201.5094927782
 21
177.591152815
 31
0.0
  0
LINE
  5
2E1
100
AcDbEntity
  8
0
100
AcDbLine
 62
7
  6
CONTINUOUS
 10
204.0094927782
 20
180.091152815
 11
208.7594927782
 21
180.091152815
  0
LINE
  5
2E2
100
AcDbEntity
  8
0
100
AcDbLine
 62
7
  6
CONTINUOUS
 10
208.7594927782
 20
172.591152815
 11
208.7594927782
 21
180.091152815
  0
LINE
  5
2E3
100
AcDbEntity
  8
0
100
AcDbLine
 62
7
  6
CONTINUOUS
 10
222.2594927782
 20
172.591152815
 11
208.7594927782
 21
172.591152815
  0
LINE
  5
2E4
100
AcDbEntity
  8
0
100
AcDbLine
 62
7
  6
CONTINUOUS
 10
222.2594927782
 20
180.091152815
 11
222.2594927782
 21
172.591152815
  0
LINE
  5
2E5
100
AcDbEntity
  8
0
100
AcDbLine
 62
7
  6
CONTINUOUS
 10
222.2594927782
 20
180.091152815
 11
227.0094927782
 21
180.091152815
  0
SPLINE
  5
2E6
100
AcDbEntity
  8
0
100
AcDbSpline
 62
7
  6
CONTINUOUS
 70
4
 71
3
 72
8
 73
4
 74
129
 42
0.0000001
 43
0.0000001
 44
0.0000000001
 12
3.5355339059
 22
0.0
 32
0.0
 13
0.0
 23
-3.5355339059
 33
0.0
 40
0.0
 40
0.0
 40
0.0
 40
0.0
 40
1.0
 40
1.0
 40
1.0
 40
1.0
 10
227.0094927782
 20
180.091152815
 30
0.0
 41
1.0
 10
228.4739588722
 20
180.091152815
 30
0.0
 41
0.8047378541
 10
229.5094927782
 20
179.0556189091
 30
0.0
 41
0.8047378541
 10
229.5094927782
 20
177.591152815
 30
0.0
 41
1.0
 11
227.0094927782
 21
180.091152815
 31
0.0
 11
227.037176637
 21
180.0909995311
 31
0.0
 11
227.0649826376
 21
180.0905369142
 31
0.0
 11
227.0929063937
 21
180.0897608613
 31
0.0
 11
227.1209433885
 21
180.0886673318
 31
0.0
 11
227.1490889751
 21
180.0872523527
 31
0.0
 11
227.1773383766
 21
180.0855120223
 31
0.0
 11
227.2056866872
 21
180.0834425153
 31
0.0
 11
227.2341288729
 21
180.0810400865
 31
0.0
 11
227.2626597723
 21
180.0783010762
 31
0.0
 11
227.2912740981
 21
180.0752219138
 31
0.0
 11
227.3199664383
 21
180.0717991232
 31
0.0
 11
227.3487312576
 21
180.0680293267
 31
0.0
 11
227.3775628993
 21
180.0639092498
 31
0.0
 11
227.406455587
 21
180.0594357259
 31
0.0
 11
227.4354034267
 21
180.0546057006
 31
0.0
 11
227.4644004092
 21
180.0494162361
 31
0.0
 11
227.4934404122
 21
180.0438645159
 31
0.0
 11
227.5225172032
 21
180.0379478492
 31
0.0
 11
227.551624442
 21
180.0316636753
 31
0.0
 11
227.5807556842
 21
180.0250095676
 31
0.0
 11
227.6099043835
 21
180.0179832385
 31
0.0
 11
227.639063896
 21
180.0105825428
 31
0.0
 11
227.6682274831
 21
180.0028054825
 31
0.0
 11
227.6973883153
 21
179.9946502105
 31
0.0
 11
227.7265394763
 21
179.9861150345
 31
0.0
 11
227.755673967
 21
179.9771984209
 31
0.0
 11
227.7847847097
 21
179.9678989985
 31
0.0
 11
227.8138645524
 21
179.9582155621
 31
0.0
 11
227.8429062738
 21
179.9481470758
 31
0.0
 11
227.8719025874
 21
179.9376926764
 31
0.0
 11
227.9008461472
 21
179.9268516765
 31
0.0
 11
227.9297295521
 21
179.9156235677
 31
0.0
 11
227.9585453514
 21
179.904008023
 31
0.0
 11
227.9872860504
 21
179.8920049
 31
0.0
 11
228.0159441153
 21
179.8796142427
 31
0.0
 11
228.0445119795
 21
179.8668362844
 31
0.0
 11
228.0729820489
 21
179.8536714494
 31
0.0
 11
228.1013467078
 21
179.8401203551
 31
0.0
 11
228.1295983253
 21
179.8261838133
 31
0.0
 11
228.1577292608
 21
179.8118628321
 31
0.0
 11
228.1857318704
 21
179.7971586169
 31
0.0
 11
228.2135985135
 21
179.7820725712
 31
0.0
 11
228.2413215583
 21
179.766606298
 31
0.0
 11
228.268893389
 21
179.7507615994
 31
0.0
 11
228.2963064117
 21
179.7345404777
 31
0.0
 11
228.3235530614
 21
179.7179451349
 31
0.0
 11
228.3506258075
 21
179.7009779731
 31
0.0
 11
228.3775171616
 21
179.6836415931
 31
0.0
 11
228.404219683
 21
179.6659387946
 31
0.0
 11
228.4307259855
 21
179.6478725748
 31
0.0
 11
228.4570287443
 21
179.6294461272
 31
0.0
 11
228.483120702
 21
179.6106628403
 31
0.0
 11
228.5089946749
 21
179.5915262955
 31
0.0
 11
228.5346435601
 21
179.5720402657
 31
0.0
 11
228.560060341
 21
179.5522087125
 31
0.0
 11
228.5852380942
 21
179.532035784
 31
0.0
 11
228.610169995
 21
179.511525812
 31
0.0
 11
228.6348493243
 21
179.4906833091
 31
0.0
 11
228.6592694736
 21
179.4695129656
 31
0.0
 11
228.6834239516
 21
179.4480196456
 31
0.0
 11
228.7073063897
 21
179.4262083838
 31
0.0
 11
228.7309105471
 21
179.4040843815
 31
0.0
 11
228.7542303169
 21
179.3816530023
 31
0.0
 11
228.7772597311
 21
179.358919768
 31
0.0
 11
228.7999929655
 21
179.3358903538
 31
0.0
 11
228.8224243447
 21
179.3125705839
 31
0.0
 11
228.844548347
 21
179.2889664265
 31
0.0
 11
228.8663596087
 21
179.2650839885
 31
0.0
 11
228.8878529287
 21
179.2409295104
 31
0.0
 11
228.9090232723
 21
179.2165093611
 31
0.0
 11
228.9298657751
 21
179.1918300319
 31
0.0
 11
228.9503757471
 21
179.166898131
 31
0.0
 11
228.9705486756
 21
179.1417203779
 31
0.0
 11
228.9903802289
 21
179.1163035969
 31
0.0
 11
229.0098662587
 21
179.0906547118
 31
0.0
 11
229.0290028034
 21
179.0647807388
 31
0.0
 11
229.0477860904
 21
179.0386887812
 31
0.0
 11
229.0662125379
 21
179.0123860224
 31
0.0
 11
229.0842787577
 21
178.9858797198
 31
0.0
 11
229.1019815562
 21
178.9591771985
 31
0.0
 11
229.1193179362
 21
178.9322858444
 31
0.0
 11
229.1362850981
 21
178.9052130982
 31
0.0
 11
229.1528804408
 21
178.8779664486
 31
0.0
 11
229.1691015625
 21
178.8505534258
 31
0.0
 11
229.1849462611
 21
178.8229815951
 31
0.0
 11
229.2004125344
 21
178.7952585503
 31
0.0
 11
229.21549858
 21
178.7673919073
 31
0.0
 11
229.2302027952
 21
178.7393892977
 31
0.0
 11
229.2445237764
 21
178.7112583622
 31
0.0
 11
229.2584603182
 21
178.6830067447
 31
0.0
 11
229.2720114126
 21
178.6546420857
 31
0.0
 11
229.2851762475
 21
178.6261720164
 31
0.0
 11
229.2979542058
 21
178.5976041522
 31
0.0
 11
229.3103448631
 21
178.5689460872
 31
0.0
 11
229.3223479862
 21
178.5402053883
 31
0.0
 11
229.3339635308
 21
178.5113895889
 31
0.0
 11
229.3451916396
 21
178.482506184
 31
0.0
 11
229.3560326395
 21
178.4535626243
 31
0.0
 11
229.3664870389
 21
178.4245663106
 31
0.0
 11
229.3765555253
 21
178.3955245893
 31
0.0
 11
229.3862389617
 21
178.3664447466
 31
0.0
 11
229.395538384
 21
178.3373340039
 31
0.0
 11
229.4044549976
 21
178.3081995132
 31
0.0
 11
229.4129901736
 21
178.2790483521
 31
0.0
 11
229.4211454456
 21
178.2498875199
 31
0.0
 11
229.4289225059
 21
178.2207239329
 31
0.0
 11
229.4363232016
 21
178.1915644204
 31
0.0
 11
229.4433495308
 21
178.162415721
 31
0.0
 11
229.4500036384
 21
178.1332844789
 31
0.0
 11
229.4562878123
 21
178.10417724
 31
0.0
 11
229.462204479
 21
178.075100449
 31
0.0
 11
229.4677561992
 21
178.046060446
 31
0.0
 11
229.4729456637
 21
178.0170634636
 31
0.0
 11
229.4777756891
 21
177.9881156238
 31
0.0
 11
229.482249213
 21
177.9592229361
 31
0.0
 11
229.4863692898
 21
177.9303912945
 31
0.0
 11
229.4901390864
 21
177.9016264752
 31
0.0
 11
229.493561877
 21
177.872934135
 31
0.0
 11
229.4966410393
 21
177.8443198092
 31
0.0
 11
229.4993800497
 21
177.8157889098
 31
0.0
 11
229.5017824784
 21
177.7873467241
 31
0.0
 11
229.5038519855
 21
177.7589984135
 31
0.0
 11
229.5055923158
 21
177.730749012
 31
0.0
 11
229.5070072949
 21
177.7026034254
 31
0.0
 11
229.5081008244
 21
177.6745664305
 31
0.0
 11
229.5088768774
 21
177.6466426744
 31
0.0
 11
229.5093394942
 21
177.6188366739
 31
0.0
 11
229.5094927782
 21
177.591152815
 31
0.0
  0
LINE
  5
2E7
100
AcDbEntity
  8
0
100
AcDbLine
 62
7
  6
CONTINUOUS
 10
229.5094927782
 20
172.591152815
 11
229.5094927782
 21
177.591152815
  0
SPLINE
  5
2E8
100
AcDbEntity
  8
0
100
AcDbSpline
 62
7
  6
CONTINUOUS
 70
4
 71
3
 72
8
 73
4
 74
129
 42
0.0000001
 43
0.0000001
 44
0.0000000001
 12
-2.8284271247
 22
0.0
 32
0.0
 13
0.0
 23
2.8284271247
 33
0.0
 40
0.0
 40
0.0
 40
0.0
 40
0.0
 40
1.0
 40
1.0
 40
1.0
 40
1.0
 10
231.5094927782
 20
170.591152815
 30
0.0
 41
1.0
 10
230.3379199029
 20
170.591152815
 30
0.0
 41
0.8047378541
 10
229.5094927782
 20
171.4195799398
 30
0.0
 41
0.8047378541
 10
229.5094927782
 20
172.591152815
 30
0.0
 41
1.0
 11
231.5094927782
 21
170.591152815
 31
0.0
 11
231.4873456911
 21
170.5912754421
 31
0.0
 11
231.4651008906
 21
170.5916455356
 31
0.0
 11
231.4427618858
 21
170.592266378
 31
0.0
 11
231.4203322899
 21
170.5931412016
 31
0.0
 11
231.3978158206
 21
170.5942731849
 31
0.0
 11
231.3752162994
 21
170.5956654492
 31
0.0
 11
231.3525376509
 21
170.5973210548
 31
0.0
 11
231.3297839024
 21
170.5992429978
 31
0.0
 11
231.3069591828
 21
170.6014342061
 31
0.0
 11
231.2840677222
 21
170.603897536
 31
0.0
 11
231.26111385
 21
170.6066357685
 31
0.0
 11
231.2381019946
 21
170.6096516057
 31
0.0
 11
231.2150366813
 21
170.6129476672
 31
0.0
 11
231.1919225311
 21
170.6165264863
 31
0.0
 11
231.1687642593
 21
170.6203905066
 31
0.0
 11
231.1455666733
 21
170.6245420782
 31
0.0
 11
231.1223346709
 21
170.6289834543
 31
0.0
 11
231.0990732381
 21
170.6337167877
 31
0.0
 11
231.075787447
 21
170.6387441268
 31
0.0
 11
231.0524824533
 21
170.6440674129
 31
0.0
 11
231.0291634939
 21
170.6496884763
 31
0.0
 11
231.0058358839
 21
170.6556090328
 31
0.0
 11
230.9825050142
 21
170.661830681
 31
0.0
 11
230.9591763485
 21
170.6683548986
 31
0.0
 11
230.9358554196
 21
170.6751830394
 31
0.0
 11
230.9125478271
 21
170.6823163303
 31
0.0
 11
230.8892592329
 21
170.6897558682
 31
0.0
 11
230.8659953587
 21
170.6975026173
 31
0.0
 11
230.8427619817
 21
170.7055574064
 31
0.0
 11
230.8195649307
 21
170.7139209259
 31
0.0
 11
230.7964100829
 21
170.7225937258
 31
0.0
 11
230.773303359
 21
170.7315762129
 31
0.0
 11
230.7502507196
 21
170.7408686486
 31
0.0
 11
230.7272581604
 21
170.750471147
 31
0.0
 11
230.7043317084
 21
170.7603836729
 31
0.0
 11
230.6814774171
 21
170.7706060395
 31
0.0
 11
230.6587013616
 21
170.7811379075
 31
0.0
 11
230.6360096344
 21
170.791978783
 31
0.0
 11
230.6134083404
 21
170.8031280164
 31
0.0
 11
230.590903592
 21
170.8145848014
 31
0.0
 11
230.5685015043
 21
170.8263481735
 31
0.0
 11
230.5462081899
 21
170.83841701
 31
0.0
 11
230.5240297541
 21
170.8507900286
 31
0.0
 11
230.5019722895
 21
170.8634657875
 31
0.0
 11
230.4800418713
 21
170.8764426849
 31
0.0
 11
230.4582445516
 21
170.8897189591
 31
0.0
 11
230.4365863547
 21
170.9032926886
 31
0.0
 11
230.4150732714
 21
170.9171617926
 31
0.0
 11
230.3937112543
 21
170.9313240314
 31
0.0
 11
230.3725062123
 21
170.9457770072
 31
0.0
 11
230.3514640052
 21
170.9605181652
 31
0.0
 11
230.3305904391
 21
170.9755447948
 31
0.0
 11
230.3098912607
 21
170.9908540306
 31
0.0
 11
230.2893721526
 21
171.0064428544
 31
0.0
 11
230.2690387279
 21
171.022308097
 31
0.0
 11
230.2488965254
 21
171.0384464399
 31
0.0
 11
230.2289510047
 21
171.0548544175
 31
0.0
 11
230.2092075413
 21
171.0715284197
 31
0.0
 11
230.1896714218
 21
171.0884646946
 31
0.0
 11
230.1703478394
 21
171.1056593506
 31
0.0
 11
230.151241889
 21
171.12310836
 31
0.0
 11
230.132358563
 21
171.1408075618
 31
0.0
 11
230.1137027471
 21
171.1587526652
 31
0.0
 11
230.0952792158
 21
171.1769392526
 31
0.0
 11
230.0770926283
 21
171.195362784
 31
0.0
 11
230.0591475249
 21
171.2140185999
 31
0.0
 11
230.0414483231
 21
171.2329019258
 31
0.0
 11
230.0239993137
 21
171.2520078762
 31
0.0
 11
230.0068046577
 21
171.2713314587
 31
0.0
 11
229.9898683829
 21
171.2908675781
 31
0.0
 11
229.9731943806
 21
171.3106110415
 31
0.0
 11
229.956786403
 21
171.3305565622
 31
0.0
 11
229.9406480602
 21
171.3506987647
 31
0.0
 11
229.9247828176
 21
171.3710321895
 31
0.0
 11
229.9091939937
 21
171.3915512976
 31
0.0
 11
229.8938847579
 21
171.412250476
 31
0.0
 11
229.8788581284
 21
171.4331240421
 31
0.0
 11
229.8641169703
 21
171.4541662491
 31
0.0
 11
229.8496639945
 21
171.4753712912
 31
0.0
 11
229.8355017557
 21
171.4967333082
 31
0.0
 11
229.8216326517
 21
171.5182463915
 31
0.0
 11
229.8080589222
 21
171.5399045885
 31
0.0
 11
229.794782648
 21
171.5617019081
 31
0.0
 11
229.7818057507
 21
171.5836323264
 31
0.0
 11
229.7691299918
 21
171.6056897909
 31
0.0
 11
229.7567569732
 21
171.6278682268
 31
0.0
 11
229.7446881367
 21
171.6501615412
 31
0.0
 11
229.7329247645
 21
171.6725636289
 31
0.0
 11
229.7214679795
 21
171.6950683773
 31
0.0
 11
229.7103187461
 21
171.7176696713
 31
0.0
 11
229.6994778706
 21
171.7403613984
 31
0.0
 11
229.6889460026
 21
171.7631374539
 31
0.0
 11
229.678723636
 21
171.7859917453
 31
0.0
 11
229.6688111102
 21
171.8089181973
 31
0.0
 11
229.6592086118
 21
171.8319107564
 31
0.0
 11
229.649916176
 21
171.8549633959
 31
0.0
 11
229.640933689
 21
171.8780701198
 31
0.0
 11
229.6322608891
 21
171.9012249676
 31
0.0
 11
229.6238973695
 21
171.9244220185
 31
0.0
 11
229.6158425805
 21
171.9476553956
 31
0.0
 11
229.6080958313
 21
171.9709192698
 31
0.0
 11
229.6006562934
 21
171.9942078639
 31
0.0
 11
229.5935230026
 21
172.0175154565
 31
0.0
 11
229.5866948618
 21
172.0408363853
 31
0.0
 11
229.5801706442
 21
172.0641650511
 31
0.0
 11
229.573948996
 21
172.0874959207
 31
0.0
 11
229.5680284394
 21
172.1108235307
 31
0.0
 11
229.5624073761
 21
172.1341424902
 31
0.0
 11
229.55708409
 21
172.1574474839
 31
0.0
 11
229.5520567508
 21
172.180733275
 31
0.0
 11
229.5473234175
 21
172.2039947078
 31
0.0
 11
229.5428820413
 21
172.2272267102
 31
0.0
 11
229.5387304697
 21
172.2504242962
 31
0.0
 11
229.5348664494
 21
172.273582568
 31
0.0
 11
229.5312876303
 21
172.2966967181
 31
0.0
 11
229.5279915688
 21
172.3197620315
 31
0.0
 11
229.5249757316
 21
172.3427738869
 31
0.0
 11
229.5222374991
 21
172.365727759
 31
0.0
 11
229.5197741692
 21
172.3886192197
 31
0.0
 11
229.5175829609
 21
172.4114439392
 31
0.0
 11
229.5156610179
 21
172.4341976877
 31
0.0
 11
229.5140054123
 21
172.4568763362
 31
0.0
 11
229.512613148
 21
172.4794758575
 31
0.0
 11
229.5114811647
 21
172.5019923267
 31
0.0
 11
229.5106063412
 21
172.5244219226
 31
0.0
 11
229.5099854988
 21
172.5467609275
 31
0.0
 11
229.5096154053
 21
172.5690057279
 31
0.0
 11
229.5094927782
 21
172.591152815
 31
0.0
  0
LINE
  5
2E9
100
AcDbEntity
  8
0
100
AcDbLine
 62
7
  6
CONTINUOUS
 10
234.0094927782
 20
170.591152815
 11
231.5094927782
 21
170.591152815
  0
HATCH
  5
2EA
100
AcDbEntity
  8
0
100
AcDbHatch
 62
2
  6
CONTINUOUS
 10
0.0
 20
0.0
 30
0.0
210
0.0
220
0.0
230
1.0
  2
B
 70
0
 71
1
 91
2
 92
1
 93
51
 72
1
 10
234.0094927782
 20
85.591152815
 11
234.0094927782
 21
96.591152815
 72
1
 10
234.0094927782
 20
85.591152815
 11
231.5094927782
 21
85.591152815
 72
4
 94
3
 73
1
 74
0
 95
8
 96
4
 40
0.0
 40
0.0
 40
0.0
 40
0.0
 40
1.0
 40
1.0
 40
1.0
 40
1.0
 10
231.5094927782
 20
85.591152815
 42
1.0
 10
230.3379199029
 20
85.591152815
 42
0.8047378541
 10
229.5094927782
 20
84.7627256903
 42
0.8047378541
 10
229.5094927782
 20
83.591152815
 42
1.0
 72
1
 10
229.5094927782
 20
83.591152815
 11
229.5094927782
 21
78.591152815
 72
4
 94
3
 73
1
 74
0
 95
8
 96
4
 40
0.0
 40
0.0
 40
0.0
 40
0.0
 40
1.0
 40
1.0
 40
1.0
 40
1.0
 10
227.0094927782
 20
76.091152815
 42
1.0
 10
228.4739588722
 20
76.091152815
 42
0.8047378541
 10
229.5094927782
 20
77.1266867209
 42
0.8047378541
 10
229.5094927782
 20
78.591152815
 42
1.0
 72
1
 10
227.0094927782
 20
76.091152815
 11
222.2594927782
 21
76.091152815
 72
1
 10
222.2594927782
 20
83.591152815
 11
222.2594927782
 21
76.091152815
 72
1
 10
208.7594927782
 20
83.591152815
 11
222.2594927782
 21
83.591152815
 72
1
 10
208.7594927782
 20
76.091152815
 11
208.7594927782
 21
83.591152815
 72
1
 10
208.7594927782
 20
76.091152815
 11
204.0094927782
 21
76.091152815
 72
4
 94
3
 73
1
 74
0
 95
8
 96
4
 40
0.0
 40
0.0
 40
0.0
 40
0.0
 40
1.0
 40
1.0
 40
1.0
 40
1.0
 10
204.0094927782
 20
76.091152815
 42
1.0
 10
202.5450266841
 20
76.091152815
 42
0.8047378541
 10
201.5094927782
 20
77.1266867209
 42
0.8047378541
 10
201.5094927782
 20
78.591152815
 42
1.0
 72
1
 10
201.5094927782
 20
85.791152815
 11
201.5094927782
 21
78.591152815
 72
1
 10
201.5094927782
 20
85.791152815
 11
201.8094927782
 21
86.091152815
 72
1
 10
201.8094927782
 20
86.091152815
 11
202.3494927782
 21
86.091152815
 72
1
 10
202.3494927782
 20
86.091152815
 11
203.5594927782
 21
87.741152815
 72
1
 10
203.5594927782
 20
87.741152815
 11
203.7094927782
 21
87.741152815
 72
1
 10
203.7094927782
 20
87.741152815
 11
204.2094927782
 21
87.591152815
 72
1
 10
204.2094927782
 20
87.591152815
 11
204.2094927782
 21
85.5751898499
 72
4
 94
3
 73
1
 74
0
 95
11
 96
7
 40
0.0
 40
0.0
 40
0.0
 40
0.0
 40
1.0
 40
1.0
 40
1.0
 40
2.0
 40
2.0
 40
2.0
 40
2.0
 10
204.2094927782
 20
85.5751898499
 42
1.0
 10
204.4421167046
 20
86.8207342443
 42
0.737997415
 10
205.5731586254
 20
87.3919075129
 42
0.737997415
 10
206.7136108197
 20
86.8397630372
 42
1.0
 10
207.854063014
 20
86.2876185616
 42
0.737997415
 10
208.1075212129
 20
85.0461461814
 42
0.737997415
 10
207.2747653066
 20
84.091152815
 42
1.0
 72
1
 10
207.2747653066
 20
84.091152815
 11
207.7094927782
 21
84.091152815
 72
1
 10
207.7094927782
 20
95.8520191495
 11
207.7094927782
 21
84.091152815
 72
1
 10
205.2986296264
 20
97.916152815
 11
207.7094927782
 21
95.8520191495
 72
1
 10
205.2986296264
 20
98.491152815
 11
205.2986296264
 21
97.916152815
 72
1
 10
206.2986296264
 20
98.491152815
 11
205.2986296264
 21
98.491152815
 72
1
 10
206.219590498
 20
98.5158638794
 11
206.2986296264
 21
98.491152815
 72
4
 94
3
 73
1
 74
0
 95
8
 96
4
 40
0.0
 40
0.0
 40
0.0
 40
0.0
 40
1.0
 40
1.0
 40
1.0
 40
1.0
 10
206.0094927782
 20
98.802076353
 42
1.0
 10
206.0094927782
 20
98.6661600241
 42
0.870749842
 10
206.0899206691
 20
98.5565945056
 42
0.870749842
 10
206.219590498
 20
98.5158638794
 42
1.0
 72
1
 10
206.0094927782
 20
103.1861528153
 11
206.0094927782
 21
98.802076353
 72
1
 10
206.0094927782
 20
103.1861528153
 11
206.9094927782
 21
103.1861528153
 72
1
 10
206.9094927782
 20
105.0911528153
 11
206.9094927782
 21
103.1861528153
 72
1
 10
206.0094927782
 20
106.6661528153
 11
206.9094927782
 21
105.0911528153
 72
1
 10
206.0094927782
 20
108.2411528144
 11
206.0094927782
 21
106.6661528153
 72
1
 10
193.6094927782
 20
108.2411528144
 11
206.0094927782
 21
108.2411528144
 72
4
 94
3
 73
1
 74
0
 95
8
 96
4
 40
0.0
 40
0.0
 40
0.0
 40
0.0
 40
1.0
 40
1.0
 40
1.0
 40
1.0
 10
193.3094927782
 20
108.5411528144
 42
1.0
 10
193.3094927782
 20
108.3654168831
 42
0.8047378541
 10
193.4337568469
 20
108.2411528144
 42
0.8047378541
 10
193.6094927782
 20
108.2411528144
 42
1.0
 72
1
 10
193.3094927782
 20
112.491152815
 11
193.3094927782
 21
108.5411528144
 72
4
 94
3
 73
1
 74
0
 95
8
 96
4
 40
0.0
 40
0.0
 40
0.0
 40
0.0
 40
1.0
 40
1.0
 40
1.0
 40
1.0
 10
193.9094927782
 20
113.091152815
 42
1.0
 10
193.5580209156
 20
113.091152815
 42
0.8047378541
 10
193.3094927782
 20
112.8426246776
 42
0.8047378541
 10
193.3094927782
 20
112.491152815
 42
1.0
 72
1
 10
193.9094927782
 20
113.091152815
 11
230.8094927782
 21
113.091152815
 72
4
 94
3
 73
1
 74
0
 95
8
 96
4
 40
0.0
 40
0.0
 40
0.0
 40
0.0
 40
1.0
 40
1.0
 40
1.0
 40
1.0
 10
231.4094927782
 20
112.491152815
 42
1.0
 10
231.4094927782
 20
112.8426246776
 42
0.8047378541
 10
231.1609646407
 20
113.091152815
 42
0.8047378541
 10
230.8094927782
 20
113.091152815
 42
1.0
 72
1
 10
231.4094927782
 20
112.491152815
 11
231.4094927782
 21
108.5411528144
 72
4
 94
3
 73
1
 74
0
 95
8
 96
4
 40
0.0
 40
0.0
 40
0.0
 40
0.0
 40
1.0
 40
1.0
 40
1.0
 40
1.0
 10
231.1094927782
 20
108.2411528144
 42
1.0
 10
231.2852287094
 20
108.2411528144
 42
0.8047378541
 10
231.4094927782
 20
108.3654168831
 42
0.8047378541
 10
231.4094927782
 20
108.5411528144
 42
1.0
 72
1
 10
225.0094927782
 20
108.2411528144
 11
231.1094927782
 21
108.2411528144
 72
1
 10
225.0094927782
 20
108.2411528144
 11
225.0094927782
 21
106.6661528153
 72
1
 10
224.1094927782
 20
105.0911528153
 11
225.0094927782
 21
106.6661528153
 72
1
 10
224.1094927782
 20
105.0911528153
 11
224.1094927782
 21
103.1861528153
 72
1
 10
224.1094927782
 20
103.1861528153
 11
225.0094927782
 21
103.1861528153
 72
1
 10
225.0094927782
 20
103.1861528153
 11
225.0094927782
 21
98.802076353
 72
4
 94
3
 73
1
 74
0
 95
8
 96
4
 40
0.0
 40
0.0
 40
0.0
 40
0.0
 40
1.0
 40
1.0
 40
1.0
 40
1.0
 10
224.7993950583
 20
98.5158638794
 42
1.0
 10
224.9290648873
 20
98.5565945056
 42
0.870749842
 10
225.0094927782
 20
98.6661600241
 42
0.870749842
 10
225.0094927782
 20
98.802076353
 42
1.0
 72
1
 10
224.7203559299
 20
98.491152815
 11
224.7993950583
 21
98.5158638794
 72
1
 10
227.0094927782
 20
98.491152815
 11
224.7203559299
 21
98.491152815
 72
1
 10
227.0094927782
 20
98.491152815
 11
227.0094927782
 21
97.091152815
 72
1
 10
233.5094927782
 20
97.091152815
 11
227.0094927782
 21
97.091152815
 72
1
 10
234.0094927782
 20
96.591152815
 11
233.5094927782
 21
97.091152815
 97
102
330
284
330
285
330
286
330
287
330
288
330
289
330
28A
330
28B
330
28C
330
28D
330
28E
330
28F
330
290
330
291
330
292
330
293
330
294
330
295
330
296
330
297
330
298
330
299
330
29A
330
29B
330
29C
330
29D
330
29E
330
29F
330
2A0
330
2A1
330
2A2
330
2A3
330
2A4
330
2A5
330
2A6
330
2A7
330
2A8
330
2A9
330
2AA
330
2AB
330
2AC
330
2AD
330
2AE
330
2AF
330
2B0
330
2B1
330
2B2
330
2B3
330
2B4
330
2B5
330
2B6
330
2B7
330
2B8
330
2B9
330
2BA
330
2BB
330
2BC
330
2BD
330
2BE
330
2BF
330
2C0
330
2C1
330
2C2
330
2C3
330
2C4
330
2C5
330
2C6
330
2C7
330
2C8
330
2C9
330
2CA
330
2CB
330
2CC
330
2CD
330
2CE
330
2CF
330
2D0
330
2D1
330
2D2
330
2D3
330
2D4
330
2D5
330
2D6
330
2D7
330
2D8
330
2D9
330
2DA
330
2DB
330
2DC
330
2DD
330
2DE
330
2DF
330
2E0
330
2E1
330
2E2
330
2E3
330
2E4
330
2E5
330
2E6
330
2E7
330
2E8
330
2E9
 92
1
 93
51
 72
1
 10
234.0094927782
 20
159.591152815
 11
234.0094927782
 21
170.591152815
 72
1
 10
234.0094927782
 20
159.591152815
 11
233.5094927782
 21
159.091152815
 72
1
 10
233.5094927782
 20
159.091152815
 11
227.0094927782
 21
159.091152815
 72
1
 10
227.0094927782
 20
159.091152815
 11
227.0094927782
 21
157.691152815
 72
1
 10
227.0094927782
 20
157.691152815
 11
224.7203559299
 21
157.691152815
 72
1
 10
224.7203559299
 20
157.691152815
 11
224.7993950583
 21
157.6664417506
 72
4
 94
3
 73
1
 74
0
 95
8
 96
4
 40
0.0
 40
0.0
 40
0.0
 40
0.0
 40
1.0
 40
1.0
 40
1.0
 40
1.0
 10
224.7993950583
 20
157.6664417506
 42
1.0
 10
224.9290648873
 20
157.6257111244
 42
0.870749842
 10
225.0094927782
 20
157.516145606
 42
0.870749842
 10
225.0094927782
 20
157.3802292771
 42
1.0
 72
1
 10
225.0094927782
 20
157.3802292771
 11
225.0094927782
 21
152.9961528147
 72
1
 10
224.1094927782
 20
152.9961528147
 11
225.0094927782
 21
152.9961528147
 72
1
 10
224.1094927782
 20
152.9961528147
 11
224.1094927782
 21
151.0911528147
 72
1
 10
224.1094927782
 20
151.0911528147
 11
225.0094927782
 21
149.5161528147
 72
1
 10
225.0094927782
 20
149.5161528147
 11
225.0094927782
 21
147.9411528156
 72
1
 10
225.0094927782
 20
147.9411528156
 11
231.1094927782
 21
147.9411528156
 72
4
 94
3
 73
1
 74
0
 95
8
 96
4
 40
0.0
 40
0.0
 40
0.0
 40
0.0
 40
1.0
 40
1.0
 40
1.0
 40
1.0
 10
231.1094927782
 20
147.9411528156
 42
1.0
 10
231.2852287094
 20
147.9411528156
 42
0.8047378541
 10
231.4094927782
 20
147.8168887469
 42
0.8047378541
 10
231.4094927782
 20
147.6411528156
 42
1.0
 72
1
 10
231.4094927782
 20
147.6411528156
 11
231.4094927782
 21
143.691152815
 72
4
 94
3
 73
1
 74
0
 95
8
 96
4
 40
0.0
 40
0.0
 40
0.0
 40
0.0
 40
1.0
 40
1.0
 40
1.0
 40
1.0
 10
231.4094927782
 20
143.691152815
 42
1.0
 10
231.4094927782
 20
143.3396809524
 42
0.8047378541
 10
231.1609646407
 20
143.091152815
 42
0.8047378541
 10
230.8094927782
 20
143.091152815
 42
1.0
 72
1
 10
193.9094927782
 20
143.091152815
 11
230.8094927782
 21
143.091152815
 72
4
 94
3
 73
1
 74
0
 95
8
 96
4
 40
0.0
 40
0.0
 40
0.0
 40
0.0
 40
1.0
 40
1.0
 40
1.0
 40
1.0
 10
193.9094927782
 20
143.091152815
 42
1.0
 10
193.5580209156
 20
143.091152815
 42
0.8047378541
 10
193.3094927782
 20
143.3396809524
 42
0.8047378541
 10
193.3094927782
 20
143.691152815
 42
1.0
 72
1
 10
193.3094927782
 20
147.6411528156
 11
193.3094927782
 21
143.691152815
 72
4
 94
3
 73
1
 74
0
 95
8
 96
4
 40
0.0
 40
0.0
 40
0.0
 40
0.0
 40
1.0
 40
1.0
 40
1.0
 40
1.0
 10
193.3094927782
 20
147.6411528156
 42
1.0
 10
193.3094927782
 20
147.8168887469
 42
0.8047378541
 10
193.4337568469
 20
147.9411528156
 42
0.8047378541
 10
193.6094927782
 20
147.9411528156
 42
1.0
 72
1
 10
193.6094927782
 20
147.9411528156
 11
206.0094927782
 21
147.9411528156
 72
1
 10
206.0094927782
 20
149.5161528147
 11
206.0094927782
 21
147.9411528156
 72
1
 10
206.0094927782
 20
149.5161528147
 11
206.9094927782
 21
151.0911528147
 72
1
 10
206.9094927782
 20
152.9961528147
 11
206.9094927782
 21
151.0911528147
 72
1
 10
206.0094927782
 20
152.9961528147
 11
206.9094927782
 21
152.9961528147
 72
1
 10
206.0094927782
 20
157.3802292771
 11
206.0094927782
 21
152.9961528147
 72
4
 94
3
 73
1
 74
0
 95
8
 96
4
 40
0.0
 40
0.0
 40
0.0
 40
0.0
 40
1.0
 40
1.0
 40
1.0
 40
1.0
 10
206.0094927782
 20
157.3802292771
 42
1.0
 10
206.0094927782
 20
157.516145606
 42
0.870749842
 10
206.0899206691
 20
157.6257111244
 42
0.870749842
 10
206.219590498
 20
157.6664417506
 42
1.0
 72
1
 10
206.219590498
 20
157.6664417506
 11
206.2986296264
 21
157.691152815
 72
1
 10
206.2986296264
 20
157.691152815
 11
205.2986296264
 21
157.691152815
 72
1
 10
205.2986296264
 20
158.266152815
 11
205.2986296264
 21
157.691152815
 72
1
 10
205.2986296264
 20
158.266152815
 11
207.7094927782
 21
160.3302864805
 72
1
 10
207.7094927782
 20
172.091152815
 11
207.7094927782
 21
160.3302864805
 72
1
 10
207.2747653066
 20
172.091152815
 11
207.7094927782
 21
172.091152815
 72
4
 94
3
 73
1
 74
0
 95
11
 96
7
 40
0.0
 40
0.0
 40
0.0
 40
0.0
 40
1.0
 40
1.0
 40
1.0
 40
2.0
 40
2.0
 40
2.0
 40
2.0
 10
204.2094927782
 20
170.6071157801
 42
1.0
 10
204.4421167046
 20
169.3615713858
 42
0.737997415
 10
205.5731586254
 20
168.7903981172
 42
0.737997415
 10
206.7136108197
 20
169.3425425928
 42
1.0
 10
207.854063014
 20
169.8946870684
 42
0.737997415
 10
208.1075212129
 20
171.1361594486
 42
0.737997415
 10
207.2747653066
 20
172.091152815
 42
1.0
 72
1
 10
204.2094927782
 20
170.6071157801
 11
204.2094927782
 21
168.591152815
 72
1
 10
203.7094927782
 20
168.441152815
 11
204.2094927782
 21
168.591152815
 72
1
 10
203.5594927782
 20
168.441152815
 11
203.7094927782
 21
168.441152815
 72
1
 10
202.3494927782
 20
170.091152815
 11
203.5594927782
 21
168.441152815
 72
1
 10
201.8094927782
 20
170.091152815
 11
202.3494927782
 21
170.091152815
 72
1
 10
201.5094927782
 20
170.391152815
 11
201.8094927782
 21
170.091152815
 72
1
 10
201.5094927782
 20
177.591152815
 11
201.5094927782
 21
170.391152815
 72
4
 94
3
 73
1
 74
0
 95
8
 96
4
 40
0.0
 40
0.0
 40
0.0
 40
0.0
 40
1.0
 40
1.0
 40
1.0
 40
1.0
 10
204.0094927782
 20
180.091152815
 42
1.0
 10
202.5450266841
 20
180.091152815
 42
0.8047378541
 10
201.5094927782
 20
179.0556189091
 42
0.8047378541
 10
201.5094927782
 20
177.591152815
 42
1.0
 72
1
 10
204.0094927782
 20
180.091152815
 11
208.7594927782
 21
180.091152815
 72
1
 10
208.7594927782
 20
172.591152815
 11
208.7594927782
 21
180.091152815
 72
1
 10
222.2594927782
 20
172.591152815
 11
208.7594927782
 21
172.591152815
 72
1
 10
222.2594927782
 20
180.091152815
 11
222.2594927782
 21
172.591152815
 72
1
 10
222.2594927782
 20
180.091152815
 11
227.0094927782
 21
180.091152815
 72
4
 94
3
 73
1
 74
0
 95
8
 96
4
 40
0.0
 40
0.0
 40
0.0
 40
0.0
 40
1.0
 40
1.0
 40
1.0
 40
1.0
 10
227.0094927782
 20
180.091152815
 42
1.0
 10
228.4739588722
 20
180.091152815
 42
0.8047378541
 10
229.5094927782
 20
179.0556189091
 42
0.8047378541
 10
229.5094927782
 20
177.591152815
 42
1.0
 72
1
 10
229.5094927782
 20
172.591152815
 11
229.5094927782
 21
177.591152815
 72
4
 94
3
 73
1
 74
0
 95
8
 96
4
 40
0.0
 40
0.0
 40
0.0
 40
0.0
 40
1.0
 40
1.0
 40
1.0
 40
1.0
 10
231.5094927782
 20
170.591152815
 42
1.0
 10
230.3379199029
 20
170.591152815
 42
0.8047378541
 10
229.5094927782
 20
171.4195799398
 42
0.8047378541
 10
229.5094927782
 20
172.591152815
 42
1.0
 72
1
 10
234.0094927782
 20
170.591152815
 11
231.5094927782
 21
170.591152815
 97
102
330
284
330
285
330
286
330
287
330
288
330
289
330
28A
330
28B
330
28C
330
28D
330
28E
330
28F
330
290
330
291
330
292
330
293
330
294
330
295
330
296
330
297
330
298
330
299
330
29A
330
29B
330
29C
330
29D
330
29E
330
29F
330
2A0
330
2A1
330
2A2
330
2A3
330
2A4
330
2A5
330
2A6
330
2A7
330
2A8
330
2A9
330
2AA
330
2AB
330
2AC
330
2AD
330
2AE
330
2AF
330
2B0
330
2B1
330
2B2
330
2B3
330
2B4
330
2B5
330
2B6
330
2B7
330
2B8
330
2B9
330
2BA
330
2BB
330
2BC
330
2BD
330
2BE
330
2BF
330
2C0
330
2C1
330
2C2
330
2C3
330
2C4
330
2C5
330
2C6
330
2C7
330
2C8
330
2C9
330
2CA
330
2CB
330
2CC
330
2CD
330
2CE
330
2CF
330
2D0
330
2D1
330
2D2
330
2D3
330
2D4
330
2D5
330
2D6
330
2D7
330
2D8
330
2D9
330
2DA
330
2DB
330
2DC
330
2DD
330
2DE
330
2DF
330
2E0
330
2E1
330
2E2
330
2E3
330
2E4
330
2E5
330
2E6
330
2E7
330
2E8
330
2E9
 75
0
 76
0
 52
45.0
 41
7.0205405619
 77
0
 78
1
 53
45.0
 43
0.0
 44
0.0
 45
-4.9642718389
 46
4.9642718389
 79
0
 98
1
 10
0.0
 20
0.0
  0
DIMENSION
  5
2EB
100
AcDbEntity
  8
0
100
AcDbDimension
 62
2
  6
CONTINUOUS
  2
*D0
 10
99.6950402145
 20
192.0563002681
 11
59.4450402145
 21
194.6813002681
 70
160
  3
DIMSTYLE_1
100
AcDbAlignedDimension
 13
22.6950402145
 23
151.3130658929
 14
99.6950402145
 24
183.591152815
100
AcDbRotatedDimension
  0
DIMENSION
  5
2EC
100
AcDbEntity
  8
0
100
AcDbDimension
 62
2
  6
CONTINUOUS
  2
*D1
 10
147.6950402145
 20
192.0563002681
 11
121.9450402145
 21
194.6813002681
 70
160
  3
DIMSTYLE_1
100
AcDbAlignedDimension
 13
99.6950402145
 23
183.591152815
 14
147.6950402145
 24
128.591152815
100
AcDbRotatedDimension
  0
DIMENSION
  5
2ED
100
AcDbEntity
  8
0
100
AcDbDimension
 62
2
  6
CONTINUOUS
  2
*D2
 10
128.1950402145
 20
61.423344522
 11
97.9450402145
 21
64.048344522
 70
160
  3
DIMSTYLE_1
100
AcDbAlignedDimension
 13
71.1950402145
 23
75.591152815
 14
128.1950402145
 24
75.591152815
100
AcDbRotatedDimension
  0
DIMENSION
  5
2EE
100
AcDbEntity
  8
0
100
AcDbDimension
 62
2
  6
CONTINUOUS
  2
*D3
 10
11.1474530831
 20
116.091152815
 11
9.1105497043
 21
126.917782194
 70
160
  1
M<>
  3
DIMSTYLE_2
100
AcDbAlignedDimension
 13
22.1950402145
 23
140.091152815
 14
22.1950402145
 24
116.091152815
 50
270.0
100
AcDbRotatedDimension
  0
DIMENSION
  5
2EF
100
AcDbEntity
  8
0
100
AcDbDimension
 62
2
  6
CONTINUOUS
  2
*D4
 10
22.6950402145
 20
170.5576407507
 11
34.9450402145
 21
173.1826407507
 70
160
  3
DIMSTYLE_2
100
AcDbAlignedDimension
 13
50.6950402145
 23
140.591152815
 14
22.6950402145
 24
140.591152815
 50
180.0
100
AcDbRotatedDimension
  0
DIMENSION
  5
2F0
100
AcDbEntity
  8
0
100
AcDbDimension
 62
2
  6
CONTINUOUS
  2
*D5
 10
222.2594927782
 20
67.0455764075
 11
212.0094927782
 21
69.6705764075
 70
160
  3
DIMSTYLE_2
100
AcDbAlignedDimension
 13
208.7594927782
 23
75.591152815
 14
222.2594927782
 24
75.591152815
100
AcDbRotatedDimension
  0
DIMENSION
  5
2F1
100
AcDbEntity
  8
0
100
AcDbDimension
 62
2
  6
CONTINUOUS
  2
*D6
 10
193.3094927782
 20
191.5254691689
 11
210.1594927782
 21
194.1504691689
 70
160
  3
DIMSTYLE_1
100
AcDbAlignedDimension
 13
234.0094927782
 23
160.091152815
 14
193.3094927782
 24
128.591152815
 50
180.0
100
AcDbRotatedDimension
  0
DIMENSION
  5
2F2
100
AcDbEntity
  8
0
100
AcDbDimension
 62
2
  6
CONTINUOUS
  2
*D7
 10
229.5094927782
 20
58.81769437
 11
213.7594927782
 21
61.44269437
 70
160
  3
DIMSTYLE_2
100
AcDbAlignedDimension
 13
201.5094927782
 23
78.091152815
 14
229.5094927782
 24
78.091152815
100
AcDbRotatedDimension
  0
DIMENSION
  5
2F3
100
AcDbEntity
  8
0
100
AcDbDimension
 62
2
  6
CONTINUOUS
  2
*D8
 10
234.0094927782
 20
51.8282601039
 11
214.2594927782
 21
54.4532601039
 70
160
  3
DIMSTYLE_1
100
AcDbAlignedDimension
 13
201.5094927782
 23
78.091152815
 14
234.0094927782
 24
85.091152815
100
AcDbRotatedDimension
  0
DIMENSION
  5
2F4
100
AcDbEntity
  8
0
100
AcDbDimension
 62
2
  6
CONTINUOUS
  2
*D9
 10
168.0080428954
 20
76.091152815
 11
166.5592361378
 21
125.7444115731
 70
160
  3
DIMSTYLE_1
100
AcDbAlignedDimension
 13
128.6950402145
 23
180.091152815
 14
128.6950402145
 24
76.091152815
 50
270.0
100
AcDbRotatedDimension
  0
MTEXT
  5
2F5
100
AcDbEntity
  8
0
100
AcDbMText
 62
2
  6
CONTINUOUS
  7
STANDARD
 71
3
 72
1
 10
110.9436997319
 20
52.6845710456
 30
0.0
 11
1.0
 21
0.0
 31
0.0
  1
SEZIONE A-A
 40
3.5
 41
19.25
  0
MTEXT
  5
2F6
100
AcDbEntity
  8
0
100
AcDbMText
 62
2
  6
CONTINUOUS
  7
STANDARD
 71
3
 72
1
 10
228.2573726542
 20
43.6604423592
 30
0.0
 11
1.0
 21
0.0
 31
0.0
  1
SEZIONE B-B
 40
3.5
 41
19.25
  0
LINE
  5
2F7
100
AcDbEntity
  8
0
100
AcDbLine
 62
7
  6
CONTINUOUS
 10
0.0
 20
0.0
 11
0.0
 21
210.0
  0
LINE
  5
2F8
100
AcDbEntity
  8
0
100
AcDbLine
 62
7
  6
CONTINUOUS
 10
0.0
 20
0.0
 11
297.0
 21
0.0
  0
LINE
  5
2F9
100
AcDbEntity
  8
0
100
AcDbLine
 62
7
  6
CONTINUOUS
 10
0.0
 20
210.0
 11
297.0
 21
210.0
  0
LINE
  5
2FA
100
AcDbEntity
  8
0
100
AcDbLine
 62
7
  6
CONTINUOUS
 10
297.0
 20
0.0
 11
297.0
 21
210.0
  0
LINE
  5
2FB
100
AcDbEntity
  8
0
100
AcDbLine
 62
7
  6
CONTINUOUS
 10
22.6950402145
 20
104.7375321877
 11
22.6950402145
 21
151.4447734423
  0
LINE
  5
2FC
100
AcDbEntity
  8
0
100
AcDbLine
 62
7
  6
CONTINUOUS
 10
23.1950402145
 20
142.191152815
 11
23.1950402145
 21
142.141152815
  0
LINE
  5
2FD
100
AcDbEntity
  8
0
100
AcDbLine
 62
7
  6
CONTINUOUS
 10
23.1950402145
 20
114.041152815
 11
23.1950402145
 21
113.991152815
  0
LINE
  5
2FE
100
AcDbEntity
  8
0
100
AcDbLine
 62
7
  6
CONTINUOUS
 10
128.1950402145
 20
76.091152815
 11
71.1950402145
 21
76.091152815
  0
LINE
  5
2FF
100
AcDbEntity
  8
0
100
AcDbLine
 62
7
  6
CONTINUOUS
 10
125.6950402145
 20
78.591152815
 11
73.6950402145
 21
78.591152815
  0
LINE
  5
300
100
AcDbEntity
  8
0
100
AcDbLine
 62
7
  6
CONTINUOUS
 10
71.1950402145
 20
83.591152815
 11
128.1950402145
 21
83.5911528177
  0
LINE
  5
301
100
AcDbEntity
  8
0
100
AcDbLine
 62
7
  6
CONTINUOUS
 10
50.6950402145
 20
113.991152815
 11
50.6950402145
 21
114.041152815
  0
LINE
  5
302
100
AcDbEntity
  8
0
100
AcDbLine
 62
7
  6
CONTINUOUS
 10
50.6950402145
 20
116.091152815
 11
50.6950402145
 21
140.091152815
  0
LINE
  5
303
100
AcDbEntity
  8
0
100
AcDbLine
 62
7
  6
CONTINUOUS
 10
50.6950402145
 20
142.141152815
 11
50.6950402145
 21
142.191152815
  0
LINE
  5
304
100
AcDbEntity
  8
0
100
AcDbLine
 62
7
  6
CONTINUOUS
 10
23.4104109545
 20
152.4034111134
 11
71.1950402145
 21
166.591152815
  0
LINE
  5
305
100
AcDbEntity
  8
0
100
AcDbLine
 62
7
  6
CONTINUOUS
 10
125.6950402145
 20
85.591152815
 11
73.6950402145
 21
85.591152815
  0
LINE
  5
306
100
AcDbEntity
  8
0
100
AcDbLine
 62
7
  6
CONTINUOUS
 10
23.4104109545
 20
103.7788945167
 11
71.1250432912
 21
89.6119356124
  0
LINE
  5
307
100
AcDbEntity
  8
0
100
AcDbLine
 62
7
  6
CONTINUOUS
 10
23.1950402145
 20
113.991152815
 11
22.6950402145
 21
113.491152815
  0
LWPOLYLINE
  5
308
100
AcDbEntity
  8
0
100
AcDbPolyline
 62
7
  6
CONTINUOUS
 90
14
 70
0
 10
58.9722524233
 20
151.8244982401
 10
58.9849456034
 20
151.8299668335
 10
59.0075703695
 20
151.8411518863
 10
59.0295384242
 20
151.8534878388
 10
59.050790617
 20
151.8669414837
 10
59.0712700509
 20
151.881476777
 10
59.0909218976
 20
151.8970547773
 10
59.1096932775
 20
151.9136335016
 10
59.1275328394
 20
151.9311673136
 10
59.1443941459
 20
151.9496102742
 10
59.1602349167
 20
151.9689165589
 10
59.1750130884
 20
151.9890361221
 10
59.1886875425
 20
152.0099142922
 10
59.2012210836
 20
152.0314954706
  0
LINE
  5
309
100
AcDbEntity
  8
0
100
AcDbLine
 62
7
  6
CONTINUOUS
 10
23.1950402145
 20
142.191152815
 11
22.6950402145
 21
142.691152815
  0
LINE
  5
30A
100
AcDbEntity
  8
0
100
AcDbLine
 62
7
  6
CONTINUOUS
 10
58.7622609494
 20
152.0127970133
 11
58.7622609494
 21
152.2708988969
  0
LINE
  5
30B
100
AcDbEntity
  8
0
100
AcDbLine
 62
7
  6
CONTINUOUS
 10
63.1689008043
 20
134.1957104558
 11
63.1846885739
 21
138.6369039504
  0
LINE
  5
30C
100
AcDbEntity
  8
0
100
AcDbLine
 62
7
  6
CONTINUOUS
 10
63.1846885739
 20
138.6369039504
 11
63.3086053877
 21
142.9453492168
  0
LINE
  5
30D
100
AcDbEntity
  8
0
100
AcDbLine
 62
7
  6
CONTINUOUS
 10
68.2858987068
 20
117.5222288879
 11
65.2699792573
 21
125.6473002592
  0
LINE
  5
30E
100
AcDbEntity
  8
0
100
AcDbLine
 62
7
  6
CONTINUOUS
 10
65.2699792573
 20
125.6473002592
 11
63.1689008043
 21
134.1957104558
  0
LINE
  5
30F
100
AcDbEntity
  8
0
100
AcDbLine
 62
7
  6
CONTINUOUS
 10
63.3086053877
 20
142.9453492168
 11
62.6380697051
 21
146.9356568365
  0
LINE
  5
310
100
AcDbEntity
  8
0
100
AcDbLine
 62
7
  6
CONTINUOUS
 10
69.273458445
 20
110.0428954424
 11
68.2858987068
 21
117.5222288879
  0
LINE
  5
311
100
AcDbEntity
  8
0
100
AcDbLine
 62
7
  6
CONTINUOUS
 10
71.1950402145
 20
180.091152815
 11
71.1950402145
 21
166.591152815
  0
LINE
  5
312
100
AcDbEntity
  8
0
100
AcDbLine
 62
7
  6
CONTINUOUS
 10
71.1950402145
 20
76.091152815
 11
71.1950402145
 21
89.3568294607
  0
LINE
  5
313
100
AcDbEntity
  8
0
100
AcDbLine
 62
7
  6
CONTINUOUS
 10
73.6950402145
 20
177.591152815
 11
73.6950402145
 21
170.591152815
  0
LINE
  5
314
100
AcDbEntity
  8
0
100
AcDbLine
 62
7
  6
CONTINUOUS
 10
73.6950402145
 20
85.591152815
 11
73.6950402145
 21
78.591152815
  0
LINE
  5
315
100
AcDbEntity
  8
0
100
AcDbLine
 62
7
  6
CONTINUOUS
 10
50.6950402145
 20
113.991152815
 11
23.1950402145
 21
113.991152815
  0
LINE
  5
316
100
AcDbEntity
  8
0
100
AcDbLine
 62
7
  6
CONTINUOUS
 10
50.6950402145
 20
114.041152815
 11
22.6950402145
 21
114.041152815
  0
LINE
  5
317
100
AcDbEntity
  8
0
100
AcDbLine
 62
7
  6
CONTINUOUS
 10
50.6950402145
 20
116.091152815
 11
22.6950402145
 21
116.091152815
  0
LINE
  5
318
100
AcDbEntity
  8
0
100
AcDbLine
 62
7
  6
CONTINUOUS
 10
62.6380697051
 20
146.9356568365
 11
60.5087303661
 21
150.4467427234
  0
LINE
  5
319
100
AcDbEntity
  8
0
100
AcDbLine
 62
7
  6
CONTINUOUS
 10
66.1066474967
 20
103.5486249051
 11
69.273458445
 21
110.0428954424
  0
LINE
  5
31A
100
AcDbEntity
  8
0
100
AcDbLine
 62
7
  6
CONTINUOUS
 10
128.0416972384
 20
179.9377964594
 11
128.172870468
 21
180.0689862857
  0
LINE
  5
31B
100
AcDbEntity
  8
0
100
AcDbLine
 62
7
  6
CONTINUOUS
 10
128.172870468
 20
180.0689862857
 11
128.1941618694
 21
180.0902937943
  0
LINE
  5
31C
100
AcDbEntity
  8
0
100
AcDbLine
 62
7
  6
CONTINUOUS
 10
125.6950402145
 20
177.591152815
 11
128.0416972384
 21
179.9377964594
  0
LINE
  5
31D
100
AcDbEntity
  8
0
100
AcDbLine
 62
7
  6
CONTINUOUS
 10
128.1941618694
 20
180.0902937943
 11
128.1950402145
 21
180.091152815
  0
LINE
  5
31E
100
AcDbEntity
  8
0
100
AcDbLine
 62
7
  6
CONTINUOUS
 10
128.1941618694
 20
76.0920118357
 11
128.1950402145
 21
76.091152815
  0
LWPOLYLINE
  5
31F
100
AcDbEntity
  8
0
100
AcDbPolyline
 62
7
  6
CONTINUOUS
 90
3
 70
0
 10
126.9913827682
 20
77.2948122417
 10
127.6362947589
 20
76.6498982706
 10
127.7321153348
 20
76.5540916516
  0
LINE
  5
320
100
AcDbEntity
  8
0
100
AcDbLine
 62
7
  6
CONTINUOUS
 10
126.1916689252
 20
78.0944889273
 11
126.9913827682
 21
77.2948122417
  0
LINE
  5
321
100
AcDbEntity
  8
0
100
AcDbLine
 62
7
  6
CONTINUOUS
 10
125.6950402145
 20
78.591152815
 11
126.1916689252
 21
78.0944889273
  0
LINE
  5
322
100
AcDbEntity
  8
0
100
AcDbLine
 62
7
  6
CONTINUOUS
 10
127.7321153348
 20
76.5540916516
 11
128.1941618694
 21
76.0920118357
  0
LINE
  5
323
100
AcDbEntity
  8
0
100
AcDbLine
 62
7
  6
CONTINUOUS
 10
147.6950402145
 20
124.0696191215
 11
149.237167043
 21
124.0696191215
  0
LINE
  5
324
100
AcDbEntity
  8
0
100
AcDbLine
 62
7
  6
CONTINUOUS
 10
147.6950402145
 20
125.091152815
 11
147.6007188819
 21
125.091152815
  0
LINE
  5
325
100
AcDbEntity
  8
0
100
AcDbLine
 62
7
  6
CONTINUOUS
 10
147.6950402145
 20
126.0903450637
 11
149.2352062854
 21
126.0903450637
  0
LINE
  5
326
100
AcDbEntity
  8
0
100
AcDbLine
 62
7
  6
CONTINUOUS
 10
60.5087303661
 20
150.4467427234
 11
57.2286480381
 21
153.3879834641
  0
LINE
  5
327
100
AcDbEntity
  8
0
100
AcDbLine
 62
7
  6
CONTINUOUS
 10
59.471016468
 20
98.1532214366
 11
66.1066474967
 21
103.5486249051
  0
LINE
  5
328
100
AcDbEntity
  8
0
100
AcDbLine
 62
7
  6
CONTINUOUS
 10
147.6950402145
 20
130.131796948
 11
149.23144227
 21
130.131796948
  0
LINE
  5
329
100
AcDbEntity
  8
0
100
AcDbLine
 62
7
  6
CONTINUOUS
 10
147.6950402145
 20
131.091152815
 11
147.6007188819
 21
131.091152815
  0
LINE
  5
32A
100
AcDbEntity
  8
0
100
AcDbLine
 62
7
  6
CONTINUOUS
 10
147.6950402145
 20
132.1525228902
 11
149.2296379928
 21
132.1525228902
  0
LINE
  5
32B
100
AcDbEntity
  8
0
100
AcDbLine
 62
7
  6
CONTINUOUS
 10
57.2286480381
 20
153.3879834641
 11
53.3485254692
 21
155.6943699732
  0
LINE
  5
32C
100
AcDbEntity
  8
ASSI
100
AcDbLine
 62
2
  6
CENTER
 10
99.6950402145
 20
183.091152815
 11
99.6950402145
 21
73.091152815
  0
LINE
  5
32D
100
AcDbEntity
  8
0
100
AcDbLine
 62
7
  6
CONTINUOUS
 10
50.6950402145
 20
140.091152815
 11
22.6950402145
 21
140.091152815
  0
LWPOLYLINE
  5
32E
100
AcDbEntity
  8
0
100
AcDbPolyline
 62
7
  6
CONTINUOUS
 90
6
 70
0
 10
59.1889839783
 20
152.0381571037
 10
59.1933790564
 20
152.0357820789
 10
59.1967975431
 20
152.0339080146
 10
59.1992326387
 20
152.0325377215
 10
59.200705081
 20
152.0317242894
 10
59.2012210836
 20
152.0314954706
  0
LINE
  5
32F
100
AcDbEntity
  8
0
100
AcDbLine
 62
7
  6
CONTINUOUS
 10
58.7622609494
 20
152.2708988969
 11
59.1889839783
 21
152.0381571037
  0
LINE
  5
330
100
AcDbEntity
  8
0
100
AcDbLine
 62
7
  6
CONTINUOUS
 10
52.7560637783
 20
95.065872175
 11
59.471016468
 21
98.1532214366
  0
LINE
  5
331
100
AcDbEntity
  8
0
100
AcDbLine
 62
7
  6
CONTINUOUS
 10
50.6950402145
 20
142.141152815
 11
22.6950402145
 21
142.141152815
  0
LINE
  5
332
100
AcDbEntity
  8
0
100
AcDbLine
 62
7
  6
CONTINUOUS
 10
50.6950402145
 20
142.191152815
 11
23.1950402145
 21
142.191152815
  0
LINE
  5
333
100
AcDbEntity
  8
0
100
AcDbLine
 62
7
  6
CONTINUOUS
 10
53.3485254692
 20
155.6943699732
 11
45.8781454957
 21
158.2335001766
  0
LINE
  5
334
100
AcDbEntity
  8
0
100
AcDbLine
 62
7
  6
CONTINUOUS
 10
71.1950402145
 20
76.091152815
 11
71.1958992352
 21
76.0920311601
  0
LINE
  5
335
100
AcDbEntity
  8
0
100
AcDbLine
 62
7
  6
CONTINUOUS
 10
71.1950402145
 20
180.091152815
 11
71.1958992352
 21
180.09027447
  0
LWPOLYLINE
  5
336
100
AcDbEntity
  8
0
100
AcDbPolyline
 62
7
  6
CONTINUOUS
 90
3
 70
0
 10
71.657979051
 20
76.5540776947
 10
71.7537856701
 20
76.6498982706
 10
72.3986996412
 20
77.2948102613
  0
LINE
  5
337
100
AcDbEntity
  8
0
100
AcDbLine
 62
7
  6
CONTINUOUS
 10
72.3986996412
 20
77.2948102613
 11
73.1983763268
 21
78.0945241043
  0
LINE
  5
338
100
AcDbEntity
  8
0
100
AcDbLine
 62
7
  6
CONTINUOUS
 10
73.1983763268
 20
78.0945241043
 11
73.5942334693
 21
78.4906046762
  0
LINE
  5
339
100
AcDbEntity
  8
0
100
AcDbLine
 62
7
  6
CONTINUOUS
 10
73.5942334693
 20
78.4906046762
 11
73.6950402145
 21
78.591152815
  0
LINE
  5
33A
100
AcDbEntity
  8
0
100
AcDbLine
 62
7
  6
CONTINUOUS
 10
71.1958992352
 20
76.0920311601
 11
71.657979051
 21
76.5540776947
  0
LINE
  5
33B
100
AcDbEntity
  8
0
100
AcDbLine
 62
7
  6
CONTINUOUS
 10
155.6950402145
 20
125.7524226522
 11
153.4950402145
 21
124.841152815
  0
LINE
  5
33C
100
AcDbEntity
  8
0
100
AcDbLine
 62
7
  6
CONTINUOUS
 10
58.4744247938
 20
152.2708988969
 11
58.7622609494
 21
152.2708988969
  0
LINE
  5
33D
100
AcDbEntity
  8
0
100
AcDbLine
 62
7
  6
CONTINUOUS
 10
45.8781454957
 20
158.2335001766
 11
43.7563928441
 21
158.444339759
  0
LINE
  5
33E
100
AcDbEntity
  8
0
100
AcDbLine
 62
7
  6
CONTINUOUS
 10
155.6950402145
 20
130.4298829778
 11
153.4950402145
 21
131.341152815
  0
LINE
  5
33F
100
AcDbEntity
  8
0
100
AcDbLine
 62
7
  6
CONTINUOUS
 10
71.1958992352
 20
180.09027447
 11
73.3949672386
 21
177.8912257909
  0
LINE
  5
340
100
AcDbEntity
  8
0
100
AcDbLine
 62
7
  6
CONTINUOUS
 10
73.3949672386
 20
177.8912257909
 11
73.6950402145
 21
177.591152815
  0
LINE
  5
341
100
AcDbEntity
  8
0
100
AcDbLine
 62
7
  6
CONTINUOUS
 10
125.6950402145
 20
78.591152815
 11
125.6950402145
 21
85.591152815
  0
LINE
  5
342
100
AcDbEntity
  8
0
100
AcDbLine
 62
7
  6
CONTINUOUS
 10
125.6950402145
 20
170.591152815
 11
125.6950402145
 21
177.591152815
  0
LINE
  5
343
100
AcDbEntity
  8
0
100
AcDbLine
 62
7
  6
CONTINUOUS
 10
128.1950402145
 20
76.091152815
 11
128.1950402145
 21
89.591152815
  0
LINE
  5
344
100
AcDbEntity
  8
0
100
AcDbLine
 62
7
  6
CONTINUOUS
 10
128.1950402145
 20
166.591152815
 11
128.1950402145
 21
180.091152815
  0
LINE
  5
345
100
AcDbEntity
  8
0
100
AcDbLine
 62
7
  6
CONTINUOUS
 10
153.4950402145
 20
131.341152815
 11
152.6789432634
 21
130.7546498172
  0
LINE
  5
346
100
AcDbEntity
  8
0
100
AcDbLine
 62
7
  6
CONTINUOUS
 10
153.4950402145
 20
124.841152815
 11
152.6789432634
 21
125.4276558128
  0
LINE
  5
347
100
AcDbEntity
  8
0
100
AcDbLine
 62
7
  6
CONTINUOUS
 10
73.6950402145
 20
170.591152815
 11
125.6950402145
 21
170.591152815
  0
LINE
  5
348
100
AcDbEntity
  8
0
100
AcDbLine
 62
7
  6
CONTINUOUS
 10
71.1950402145
 20
172.5911528123
 11
128.1950402145
 21
172.591152815
  0
LINE
  5
349
100
AcDbEntity
  8
0
100
AcDbLine
 62
7
  6
CONTINUOUS
 10
73.6950402145
 20
177.591152815
 11
125.6950402145
 21
177.591152815
  0
LINE
  5
34A
100
AcDbEntity
  8
0
100
AcDbLine
 62
7
  6
CONTINUOUS
 10
71.1950402145
 20
180.091152815
 11
128.1950402145
 21
180.091152815
  0
LWPOLYLINE
  5
34B
100
AcDbEntity
  8
0
100
AcDbPolyline
 62
7
  6
CONTINUOUS
 90
5
 70
0
 10
149.23144227
 20
130.131796948
 10
149.2427958228
 20
130.0187967427
 10
149.2545384735
 20
129.9069033225
 10
149.2666702222
 20
129.7961166875
 10
149.2793793973
 20
129.6864381085
  0
LINE
  5
34C
100
AcDbEntity
  8
0
100
AcDbLine
 62
7
  6
CONTINUOUS
 10
147.6950402145
 20
132.1525228902
 11
147.6950402145
 21
124.0696191215
  0
LWPOLYLINE
  5
34D
100
AcDbEntity
  8
0
100
AcDbPolyline
 62
7
  6
CONTINUOUS
 90
3
 70
0
 10
149.2711326886
 20
126.4248761588
 10
149.2588388454
 20
126.3144750612
 10
149.2352062854
 20
126.0903450637
  0
LINE
  5
34E
100
AcDbEntity
  8
0
100
AcDbLine
 62
7
  6
CONTINUOUS
 10
149.3349031474
 20
126.9602335633
 11
149.2711326886
 21
126.4248761588
  0
LWPOLYLINE
  5
34F
100
AcDbEntity
  8
0
100
AcDbPolyline
 62
7
  6
CONTINUOUS
 90
7
 70
0
 10
149.3275808491
 20
130.5661621694
 10
149.2907843145
 20
130.4072338153
 10
149.27810568
 20
130.353207474
 10
149.2657775898
 20
130.2986514455
 10
149.253981939
 20
130.2435629668
 10
149.2425368324
 20
130.187944801
 10
149.23144227
 20
130.131796948
  0
LWPOLYLINE
  5
350
100
AcDbEntity
  8
0
100
AcDbPolyline
 62
7
  6
CONTINUOUS
 90
7
 70
0
 10
149.3402151198
 20
124.5057035677
 10
149.3011196804
 20
124.3464983863
 10
149.2875735396
 20
124.292279703
 10
149.274348626
 20
124.2374831876
 10
149.2616335378
 20
124.1821063311
 10
149.2492396768
 20
124.1261516424
 10
149.237167043
 20
124.0696191215
  0
LWPOLYLINE
  5
351
100
AcDbEntity
  8
0
100
AcDbPolyline
 62
7
  6
CONTINUOUS
 90
26
 70
0
 10
149.2852149627
 20
125.8673392074
 10
149.325151109
 20
125.7061355653
 10
149.3380126452
 20
125.6535437117
 10
149.3502004994
 20
125.6014746801
 10
149.361671461
 20
125.5499465798
 10
149.3724687407
 20
125.4989413013
 10
149.3822613741
 20
125.4483598662
 10
149.39100768
 20
125.3982180223
 10
149.3987493396
 20
125.3485000217
 10
149.4052804332
 20
125.2990596415
 10
149.4105648258
 20
125.2499075079
 10
149.4146386524
 20
125.2010329947
 10
149.417404398
 20
125.1522580006
 10
149.418830473
 20
125.1035859288
 10
149.4189484671
 20
125.0550133761
 10
149.4177556338
 20
125.0063520324
 10
149.4152204814
 20
124.9575986609
 10
149.4113745017
 20
124.9087564984
 10
149.4063094236
 20
124.8596469451
 10
149.3999894743
 20
124.810260084
 10
149.3924504265
 20
124.7606058322
 10
149.3838913278
 20
124.7105353414
 10
149.3742708423
 20
124.6600333259
 10
149.3636303057
 20
124.6091150713
 10
149.3522927731
 20
124.5576775869
 10
149.3402151198
 20
124.5057035677
  0
LWPOLYLINE
  5
352
100
AcDbEntity
  8
0
100
AcDbPolyline
 62
7
  6
CONTINUOUS
 90
25
 70
0
 10
149.2759109573
 20
131.9306942048
 10
149.3255210246
 20
131.7173446338
 10
149.3370407083
 20
131.6652875228
 10
149.3479042783
 20
131.6137307668
 10
149.358152217
 20
131.5626581734
 10
149.3674570192
 20
131.5119789591
 10
149.3757785092
 20
131.4617079378
 10
149.3831568627
 20
131.4118302956
 10
149.3893851008
 20
131.3622108074
 10
149.39442732
 20
131.3128594349
 10
149.3983194238
 20
131.2637662164
 10
149.400962144
 20
131.2147660423
 10
149.4023232984
 20
131.1658624375
 10
149.4024350691
 20
131.1170518771
 10
149.4012947347
 20
131.0681586778
 10
149.3988702709
 20
131.0191798972
 10
149.3951937018
 20
130.9701184777
 10
149.3903583784
 20
130.9208075629
 10
149.3843286599
 20
130.8712372926
 10
149.3771401869
 20
130.821417527
 10
149.3689932321
 20
130.7712109909
 10
149.3598477424
 20
130.7206028995
 10
149.3497437708
 20
130.6696080377
 10
149.3390017484
 20
130.6181334846
 10
149.3275808491
 20
130.5661621694
  0
LWPOLYLINE
  5
353
100
AcDbEntity
  8
0
100
AcDbPolyline
 62
7
  6
CONTINUOUS
 90
5
 70
0
 10
149.2352062854
 20
126.0903450637
 10
149.2471253818
 20
126.0337269096
 10
149.2594015197
 20
125.9776860057
 10
149.2720346992
 20
125.9222223518
 10
149.2852149627
 20
125.8673392074
  0
LWPOLYLINE
  5
354
100
AcDbEntity
  8
0
100
AcDbPolyline
 62
7
  6
CONTINUOUS
 90
5
 70
0
 10
149.2296379928
 20
132.1525228902
 10
149.2405821516
 20
132.0962717107
 10
149.2519116951
 20
132.0405497137
 10
149.2636266233
 20
131.9853568992
 10
149.2759109573
 20
131.9306942048
  0
LWPOLYLINE
  5
355
100
AcDbEntity
  8
0
100
AcDbPolyline
 62
7
  6
CONTINUOUS
 90
25
 70
0
 10
149.2793793973
 20
129.6864381085
 10
149.3306458648
 20
129.2588227044
 10
149.3425469057
 20
129.1546050545
 10
149.353772068
 20
129.0514404667
 10
149.3643633105
 20
128.9492941372
 10
149.3739884761
 20
128.84797694
 10
149.3826065144
 20
128.7475210241
 10
149.3902584759
 20
128.6478942405
 10
149.396735355
 20
128.548811016
 10
149.402001284
 20
128.4502904371
 10
149.4060921305
 20
128.3523134174
 10
149.4089064924
 20
128.2545371247
 10
149.4104123937
 20
128.1569670647
 10
149.4106418102
 20
128.0595977318
 10
149.409589268
 20
127.9620697769
 10
149.4072230185
 20
127.8643789627
 10
149.4035748102
 20
127.7665295265
 10
149.3987344148
 20
127.6681748306
 10
149.3926665918
 20
127.5692976864
 10
149.3854065818
 20
127.4699152824
 10
149.3771498786
 20
127.3697325467
 10
149.3678559291
 20
127.2687183509
 10
149.3575652864
 20
127.1669038234
 10
149.346595104
 20
127.0640872779
 10
149.3349031474
 20
126.9602335633
  0
LINE
  5
356
100
AcDbEntity
  8
0
100
AcDbLine
 62
7
  6
CONTINUOUS
 10
152.6789432634
 20
130.7546498172
 11
152.6789432634
 21
125.4276558128
  0
LINE
  5
357
100
AcDbEntity
  8
0
100
AcDbLine
 62
7
  6
CONTINUOUS
 10
153.4950402145
 20
131.341152815
 11
153.4950402145
 21
124.841152815
  0
LINE
  5
358
100
AcDbEntity
  8
0
100
AcDbLine
 62
7
  6
CONTINUOUS
 10
155.6950402145
 20
130.4298829778
 11
155.6950402145
 21
125.7524226522
  0
LINE
  5
359
100
AcDbEntity
  8
0
100
AcDbLine
 62
7
  6
CONTINUOUS
 10
227.0094927782
 20
76.091152815
 11
222.2594927782
 21
76.091152815
  0
LINE
  5
35A
100
AcDbEntity
  8
0
100
AcDbLine
 62
7
  6
CONTINUOUS
 10
208.7594927782
 20
76.091152815
 11
204.0094927782
 21
76.091152815
  0
LINE
  5
35B
100
AcDbEntity
  8
0
100
AcDbLine
 62
7
  6
CONTINUOUS
 10
208.7594927782
 20
83.591152815
 11
222.2594927782
 21
83.591152815
  0
LINE
  5
35C
100
AcDbEntity
  8
0
100
AcDbLine
 62
7
  6
CONTINUOUS
 10
203.7094927782
 20
168.441152815
 11
204.2094927782
 21
168.591152815
  0
LINE
  5
35D
100
AcDbEntity
  8
0
100
AcDbLine
 62
7
  6
CONTINUOUS
 10
207.2747653066
 20
84.091152815
 11
207.7094927782
 21
84.091152815
  0
LINE
  5
35E
100
AcDbEntity
  8
0
100
AcDbLine
 62
7
  6
CONTINUOUS
 10
234.0094927782
 20
85.591152815
 11
231.5094927782
 21
85.591152815
  0
LINE
  5
35F
100
AcDbEntity
  8
0
100
AcDbLine
 62
7
  6
CONTINUOUS
 10
201.8094927782
 20
86.091152815
 11
202.3494927782
 21
86.091152815
  0
LINE
  5
360
100
AcDbEntity
  8
0
100
AcDbLine
 62
7
  6
CONTINUOUS
 10
203.7094927782
 20
87.741152815
 11
204.2094927782
 21
87.591152815
  0
LINE
  5
361
100
AcDbEntity
  8
0
100
AcDbLine
 62
7
  6
CONTINUOUS
 10
203.5594927782
 20
87.741152815
 11
203.7094927782
 21
87.741152815
  0
LINE
  5
362
100
AcDbEntity
  8
0
100
AcDbLine
 62
7
  6
CONTINUOUS
 10
233.5094927782
 20
97.091152815
 11
227.0094927782
 21
97.091152815
  0
LINE
  5
363
100
AcDbEntity
  8
0
100
AcDbLine
 62
7
  6
CONTINUOUS
 10
227.0094927782
 20
98.491152815
 11
224.7203559299
 21
98.491152815
  0
LINE
  5
364
100
AcDbEntity
  8
0
100
AcDbLine
 62
7
  6
CONTINUOUS
 10
206.2986296264
 20
98.491152815
 11
205.2986296264
 21
98.491152815
  0
LINE
  5
365
100
AcDbEntity
  8
0
100
AcDbLine
 62
7
  6
CONTINUOUS
 10
206.219590498
 20
98.5158638794
 11
206.2986296264
 21
98.491152815
  0
LINE
  5
366
100
AcDbEntity
  8
0
100
AcDbLine
 62
7
  6
CONTINUOUS
 10
205.2986296264
 20
158.266152815
 11
207.7094927782
 21
160.3302864805
  0
LINE
  5
367
100
AcDbEntity
  8
0
100
AcDbLine
 62
7
  6
CONTINUOUS
 10
205.2986296264
 20
97.916152815
 11
207.7094927782
 21
95.8520191495
  0
LINE
  5
368
100
AcDbEntity
  8
0
100
AcDbLine
 62
7
  6
CONTINUOUS
 10
206.0094927782
 20
103.1861528153
 11
206.9094927782
 21
103.1861528153
  0
LINE
  5
369
100
AcDbEntity
  8
0
100
AcDbLine
 62
7
  6
CONTINUOUS
 10
224.1094927782
 20
103.1861528153
 11
225.0094927782
 21
103.1861528153
  0
LINE
  5
36A
100
AcDbEntity
  8
0
100
AcDbLine
 62
7
  6
CONTINUOUS
 10
193.3094927782
 20
108.5411528144
 11
193.3094927782
 21
147.6411528156
  0
LINE
  5
36B
100
AcDbEntity
  8
0
100
AcDbLine
 62
7
  6
CONTINUOUS
 10
193.9094927782
 20
113.091152815
 11
193.9094927782
 21
143.091152815
  0
LINE
  5
36C
100
AcDbEntity
  8
0
100
AcDbLine
 62
7
  6
CONTINUOUS
 10
193.6094927782
 20
108.2411528144
 11
206.0094927782
 21
108.2411528144
  0
LINE
  5
36D
100
AcDbEntity
  8
0
100
AcDbLine
 62
7
  6
CONTINUOUS
 10
225.0094927782
 20
108.2411528144
 11
231.1094927782
 21
108.2411528144
  0
LINE
  5
36E
100
AcDbEntity
  8
0
100
AcDbLine
 62
7
  6
CONTINUOUS
 10
206.0094927782
 20
149.5161528147
 11
206.9094927782
 21
151.0911528147
  0
LINE
  5
36F
100
AcDbEntity
  8
0
100
AcDbLine
 62
7
  6
CONTINUOUS
 10
193.9094927782
 20
113.091152815
 11
230.8094927782
 21
113.091152815
  0
LINE
  5
370
100
AcDbEntity
  8
0
100
AcDbLine
 62
7
  6
CONTINUOUS
 10
206.0094927782
 20
106.6661528153
 11
206.9094927782
 21
105.0911528153
  0
LINE
  5
371
100
AcDbEntity
  8
0
100
AcDbLine
 62
7
  6
CONTINUOUS
 10
201.5094927782
 20
177.591152815
 11
201.5094927782
 21
147.9411528156
  0
LINE
  5
372
100
AcDbEntity
  8
0
100
AcDbLine
 62
7
  6
CONTINUOUS
 10
201.5094927782
 20
108.2411528144
 11
201.5094927782
 21
78.591152815
  0
LINE
  5
373
100
AcDbEntity
  8
0
100
AcDbLine
 62
7
  6
CONTINUOUS
 10
201.8094927782
 20
170.091152815
 11
201.8094927782
 21
147.9411528156
  0
LINE
  5
374
100
AcDbEntity
  8
0
100
AcDbLine
 62
7
  6
CONTINUOUS
 10
201.8094927782
 20
108.2411528144
 11
201.8094927782
 21
86.091152815
  0
LINE
  5
375
100
AcDbEntity
  8
0
100
AcDbLine
 62
7
  6
CONTINUOUS
 10
202.3494927782
 20
108.2411528144
 11
202.3494927782
 21
86.091152815
  0
LINE
  5
376
100
AcDbEntity
  8
0
100
AcDbLine
 62
7
  6
CONTINUOUS
 10
202.3494927782
 20
147.9411528156
 11
202.3494927782
 21
170.091152815
  0
LINE
  5
377
100
AcDbEntity
  8
0
100
AcDbLine
 62
7
  6
CONTINUOUS
 10
203.5594927782
 20
108.2411528144
 11
203.5594927782
 21
87.741152815
  0
LINE
  5
378
100
AcDbEntity
  8
0
100
AcDbLine
 62
7
  6
CONTINUOUS
 10
203.5594927782
 20
147.9411528156
 11
203.5594927782
 21
168.441152815
  0
LINE
  5
379
100
AcDbEntity
  8
0
100
AcDbLine
 62
7
  6
CONTINUOUS
 10
203.7094927782
 20
108.2411528144
 11
203.7094927782
 21
87.741152815
  0
LINE
  5
37A
100
AcDbEntity
  8
0
100
AcDbLine
 62
7
  6
CONTINUOUS
 10
203.7094927782
 20
147.9411528156
 11
203.7094927782
 21
168.441152815
  0
LINE
  5
37B
100
AcDbEntity
  8
0
100
AcDbLine
 62
7
  6
CONTINUOUS
 10
204.2094927782
 20
108.2411528144
 11
204.2094927782
 21
85.5751898499
  0
LINE
  5
37C
100
AcDbEntity
  8
0
100
AcDbLine
 62
7
  6
CONTINUOUS
 10
204.2094927782
 20
147.9411528156
 11
204.2094927782
 21
170.6071157801
  0
LINE
  5
37D
100
AcDbEntity
  8
0
100
AcDbLine
 62
7
  6
CONTINUOUS
 10
205.2986296264
 20
97.916152815
 11
205.2986296264
 21
108.2411528144
  0
LINE
  5
37E
100
AcDbEntity
  8
0
100
AcDbLine
 62
7
  6
CONTINUOUS
 10
205.2986296264
 20
147.9411528156
 11
205.2986296264
 21
158.266152815
  0
LINE
  5
37F
100
AcDbEntity
  8
0
100
AcDbLine
 62
7
  6
CONTINUOUS
 10
206.0094927782
 20
108.2411528144
 11
206.0094927782
 21
98.802076353
  0
LINE
  5
380
100
AcDbEntity
  8
0
100
AcDbLine
 62
7
  6
CONTINUOUS
 10
206.0094927782
 20
147.9411528156
 11
206.0094927782
 21
157.3802292771
  0
LINE
  5
381
100
AcDbEntity
  8
0
100
AcDbLine
 62
7
  6
CONTINUOUS
 10
234.0094927782
 20
159.591152815
 11
233.5094927782
 21
159.091152815
  0
LINE
  5
382
100
AcDbEntity
  8
0
100
AcDbLine
 62
7
  6
CONTINUOUS
 10
234.0094927782
 20
96.591152815
 11
233.5094927782
 21
97.091152815
  0
LINE
  5
383
100
AcDbEntity
  8
0
100
AcDbLine
 62
7
  6
CONTINUOUS
 10
206.9094927782
 20
152.9961528147
 11
206.9094927782
 21
151.0911528147
  0
LINE
  5
384
100
AcDbEntity
  8
0
100
AcDbLine
 62
7
  6
CONTINUOUS
 10
206.9094927782
 20
105.0911528153
 11
206.9094927782
 21
103.1861528153
  0
LINE
  5
385
100
AcDbEntity
  8
0
100
AcDbLine
 62
7
  6
CONTINUOUS
 10
207.7094927782
 20
172.091152815
 11
207.7094927782
 21
160.3302864805
  0
LINE
  5
386
100
AcDbEntity
  8
0
100
AcDbLine
 62
7
  6
CONTINUOUS
 10
207.7094927782
 20
95.8520191495
 11
207.7094927782
 21
84.091152815
  0
LINE
  5
387
100
AcDbEntity
  8
0
100
AcDbLine
 62
7
  6
CONTINUOUS
 10
208.7594927782
 20
76.091152815
 11
208.7594927782
 21
83.591152815
  0
LINE
  5
388
100
AcDbEntity
  8
0
100
AcDbLine
 62
7
  6
CONTINUOUS
 10
208.7594927782
 20
172.591152815
 11
208.7594927782
 21
180.091152815
  0
LINE
  5
389
100
AcDbEntity
  8
0
100
AcDbLine
 62
7
  6
CONTINUOUS
 10
222.2594927782
 20
180.091152815
 11
222.2594927782
 21
172.591152815
  0
LINE
  5
38A
100
AcDbEntity
  8
0
100
AcDbLine
 62
7
  6
CONTINUOUS
 10
222.2594927782
 20
83.591152815
 11
222.2594927782
 21
76.091152815
  0
LINE
  5
38B
100
AcDbEntity
  8
0
100
AcDbLine
 62
7
  6
CONTINUOUS
 10
224.1094927782
 20
152.9961528147
 11
224.1094927782
 21
151.0911528147
  0
LINE
  5
38C
100
AcDbEntity
  8
0
100
AcDbLine
 62
7
  6
CONTINUOUS
 10
224.1094927782
 20
105.0911528153
 11
224.1094927782
 21
103.1861528153
  0
LINE
  5
38D
100
AcDbEntity
  8
0
100
AcDbLine
 62
7
  6
CONTINUOUS
 10
225.0094927782
 20
108.2411528144
 11
225.0094927782
 21
98.802076353
  0
LINE
  5
38E
100
AcDbEntity
  8
0
100
AcDbLine
 62
7
  6
CONTINUOUS
 10
225.0094927782
 20
147.9411528156
 11
225.0094927782
 21
157.3802292771
  0
LINE
  5
38F
100
AcDbEntity
  8
0
100
AcDbLine
 62
7
  6
CONTINUOUS
 10
227.0094927782
 20
159.091152815
 11
227.0094927782
 21
147.9411528156
  0
LINE
  5
390
100
AcDbEntity
  8
0
100
AcDbLine
 62
7
  6
CONTINUOUS
 10
227.0094927782
 20
108.2411528144
 11
227.0094927782
 21
97.091152815
  0
LINE
  5
391
100
AcDbEntity
  8
0
100
AcDbLine
 62
7
  6
CONTINUOUS
 10
193.9094927782
 20
143.091152815
 11
230.8094927782
 21
143.091152815
  0
LINE
  5
392
100
AcDbEntity
  8
0
100
AcDbLine
 62
7
  6
CONTINUOUS
 10
229.5094927782
 20
83.591152815
 11
229.5094927782
 21
78.591152815
  0
LINE
  5
393
100
AcDbEntity
  8
0
100
AcDbLine
 62
7
  6
CONTINUOUS
 10
229.5094927782
 20
172.591152815
 11
229.5094927782
 21
177.591152815
  0
LINE
  5
394
100
AcDbEntity
  8
0
100
AcDbLine
 62
7
  6
CONTINUOUS
 10
230.8094927782
 20
113.091152815
 11
230.8094927782
 21
143.091152815
  0
LINE
  5
395
100
AcDbEntity
  8
0
100
AcDbLine
 62
7
  6
CONTINUOUS
 10
231.4094927782
 20
108.5411528144
 11
231.4094927782
 21
147.6411528156
  0
LINE
  5
396
100
AcDbEntity
  8
0
100
AcDbLine
 62
7
  6
CONTINUOUS
 10
202.3494927782
 20
86.091152815
 11
203.5594927782
 21
87.741152815
  0
LINE
  5
397
100
AcDbEntity
  8
0
100
AcDbLine
 62
7
  6
CONTINUOUS
 10
202.3494927782
 20
170.091152815
 11
203.5594927782
 21
168.441152815
  0
LINE
  5
398
100
AcDbEntity
  8
0
100
AcDbLine
 62
7
  6
CONTINUOUS
 10
233.5094927782
 20
159.091152815
 11
233.5094927782
 21
97.091152815
  0
LINE
  5
399
100
AcDbEntity
  8
0
100
AcDbLine
 62
7
  6
CONTINUOUS
 10
234.0094927782
 20
85.591152815
 11
234.0094927782
 21
170.591152815
  0
LINE
  5
39A
100
AcDbEntity
  8
0
100
AcDbLine
 62
7
  6
CONTINUOUS
 10
224.1094927782
 20
105.0911528153
 11
225.0094927782
 21
106.6661528153
  0
LINE
  5
39B
100
AcDbEntity
  8
0
100
AcDbLine
 62
7
  6
CONTINUOUS
 10
201.5094927782
 20
85.791152815
 11
201.8094927782
 21
86.091152815
  0
LINE
  5
39C
100
AcDbEntity
  8
0
100
AcDbLine
 62
7
  6
CONTINUOUS
 10
193.6094927782
 20
147.9411528156
 11
206.0094927782
 21
147.9411528156
  0
LINE
  5
39D
100
AcDbEntity
  8
0
100
AcDbLine
 62
7
  6
CONTINUOUS
 10
225.0094927782
 20
147.9411528156
 11
231.1094927782
 21
147.9411528156
  0
LINE
  5
39E
100
AcDbEntity
  8
0
100
AcDbLine
 62
7
  6
CONTINUOUS
 10
201.5094927782
 20
170.391152815
 11
201.8094927782
 21
170.091152815
  0
LINE
  5
39F
100
AcDbEntity
  8
0
100
AcDbLine
 62
7
  6
CONTINUOUS
 10
224.1094927782
 20
151.0911528147
 11
225.0094927782
 21
149.5161528147
  0
LINE
  5
3A0
100
AcDbEntity
  8
0
100
AcDbLine
 62
7
  6
CONTINUOUS
 10
206.0094927782
 20
152.9961528147
 11
206.9094927782
 21
152.9961528147
  0
LINE
  5
3A1
100
AcDbEntity
  8
0
100
AcDbLine
 62
7
  6
CONTINUOUS
 10
224.1094927782
 20
152.9961528147
 11
225.0094927782
 21
152.9961528147
  0
LINE
  5
3A2
100
AcDbEntity
  8
0
100
AcDbLine
 62
7
  6
CONTINUOUS
 10
227.0094927782
 20
157.691152815
 11
224.7203559299
 21
157.691152815
  0
LINE
  5
3A3
100
AcDbEntity
  8
0
100
AcDbLine
 62
7
  6
CONTINUOUS
 10
206.2986296264
 20
157.691152815
 11
205.2986296264
 21
157.691152815
  0
LINE
  5
3A4
100
AcDbEntity
  8
0
100
AcDbLine
 62
7
  6
CONTINUOUS
 10
224.7203559299
 20
98.491152815
 11
224.7993950583
 21
98.5158638794
  0
LINE
  5
3A5
100
AcDbEntity
  8
0
100
AcDbLine
 62
7
  6
CONTINUOUS
 10
233.5094927782
 20
159.091152815
 11
227.0094927782
 21
159.091152815
  0
LINE
  5
3A6
100
AcDbEntity
  8
0
100
AcDbLine
 62
7
  6
CONTINUOUS
 10
203.5594927782
 20
168.441152815
 11
203.7094927782
 21
168.441152815
  0
LINE
  5
3A7
100
AcDbEntity
  8
0
100
AcDbLine
 62
7
  6
CONTINUOUS
 10
201.8094927782
 20
170.091152815
 11
202.3494927782
 21
170.091152815
  0
LINE
  5
3A8
100
AcDbEntity
  8
0
100
AcDbLine
 62
7
  6
CONTINUOUS
 10
234.0094927782
 20
170.591152815
 11
231.5094927782
 21
170.591152815
  0
LINE
  5
3A9
100
AcDbEntity
  8
0
100
AcDbLine
 62
7
  6
CONTINUOUS
 10
207.2747653066
 20
172.091152815
 11
207.7094927782
 21
172.091152815
  0
LINE
  5
3AA
100
AcDbEntity
  8
0
100
AcDbLine
 62
7
  6
CONTINUOUS
 10
222.2594927782
 20
172.591152815
 11
208.7594927782
 21
172.591152815
  0
LINE
  5
3AB
100
AcDbEntity
  8
0
100
AcDbLine
 62
7
  6
CONTINUOUS
 10
204.0094927782
 20
180.091152815
 11
208.7594927782
 21
180.091152815
  0
LINE
  5
3AC
100
AcDbEntity
  8
0
100
AcDbLine
 62
7
  6
CONTINUOUS
 10
222.2594927782
 20
180.091152815
 11
227.0094927782
 21
180.091152815
  0
ARC
  5
3AD
100
AcDbEntity
  8
0
100
AcDbCircle
 62
7
  6
CONTINUOUS
 10
73.6950402145
 20
88.091152815
 40
2.5
100
AcDbArc
 50
180.0
 51
270.0
  0
ARC
  5
3AE
100
AcDbEntity
  8
0
100
AcDbCircle
 62
7
  6
CONTINUOUS
 10
23.6950402145
 20
104.7375321877
 40
1.0
100
AcDbArc
 50
180.0
 51
253.4633110488
  0
ARC
  5
3AF
100
AcDbEntity
  8
0
100
AcDbCircle
 62
7
  6
CONTINUOUS
 10
70.6950402145
 20
89.3568294607
 40
0.5
100
AcDbArc
 50
0.0
 51
50.0867064139
  0
ARC
  5
3B0
100
AcDbEntity
  8
0
100
AcDbCircle
 62
7
  6
CONTINUOUS
 10
73.6950402145
 20
168.091152815
 40
2.5
100
AcDbArc
 50
90.0
 51
180.0
  0
ARC
  5
3B1
100
AcDbEntity
  8
0
100
AcDbCircle
 62
7
  6
CONTINUOUS
 10
23.6950402145
 20
151.4447734423
 40
1.0
100
AcDbArc
 50
106.5366889512
 51
180.0
  0
ARC
  5
3B2
100
AcDbEntity
  8
0
100
AcDbCircle
 62
7
  6
CONTINUOUS
 10
125.6950402145
 20
88.091152815
 40
2.5
100
AcDbArc
 50
270.0
 51
360.0
  0
ARC
  5
3B3
100
AcDbEntity
  8
0
100
AcDbCircle
 62
7
  6
CONTINUOUS
 10
151.3950402145
 20
123.641152815
 40
2.2
100
AcDbArc
 50
54.2963957641
 51
167.2847569639
  0
ARC
  5
3B4
100
AcDbEntity
  8
0
100
AcDbCircle
 62
7
  6
CONTINUOUS
 10
103.0972344964
 20
128.091152815
 40
50.5
100
AcDbArc
 50
130.9396505482
 51
151.3924953294
  0
ARC
  5
3B5
100
AcDbEntity
  8
0
100
AcDbCircle
 62
7
  6
CONTINUOUS
 10
103.0972344964
 20
128.091152815
 40
50.5
100
AcDbArc
 50
214.2366314766
 51
229.0603979418
  0
ARC
  5
3B6
100
AcDbEntity
  8
0
100
AcDbCircle
 62
7
  6
CONTINUOUS
 10
103.0972344964
 20
128.091152815
 40
50.0
100
AcDbArc
 50
214.1877336073
 51
230.0867064139
  0
ARC
  5
3B7
100
AcDbEntity
  8
0
100
AcDbCircle
 62
7
  6
CONTINUOUS
 10
103.0972344964
 20
128.091152815
 40
50.0
100
AcDbArc
 50
129.646111147
 51
151.7541913277
  0
ARC
  5
3B8
100
AcDbEntity
  8
0
100
AcDbCircle
 62
7
  6
CONTINUOUS
 10
99.9386299581
 20
128.091152815
 40
47.7564102564
100
AcDbArc
 50
306.2761643112
 51
53.7238356888
  0
CIRCLE
  5
3B9
100
AcDbEntity
  8
0
100
AcDbCircle
 62
7
  6
CONTINUOUS
 10
99.6950402145
 20
128.091152815
 40
31.5
  0
CIRCLE
  5
3BA
100
AcDbEntity
  8
0
100
AcDbCircle
 62
7
  6
CONTINUOUS
 10
99.6950402145
 20
128.091152815
 40
31.0
  0
CIRCLE
  5
3BB
100
AcDbEntity
  8
0
100
AcDbCircle
 62
7
  6
CONTINUOUS
 10
99.6950402145
 20
128.091152815
 40
29.6
  0
CIRCLE
  5
3BC
100
AcDbEntity
  8
0
100
AcDbCircle
 62
7
  6
CONTINUOUS
 10
99.6950402145
 20
128.091152815
 40
29.5752889356
  0
CIRCLE
  5
3BD
100
AcDbEntity
  8
0
100
AcDbCircle
 62
7
  6
CONTINUOUS
 10
99.6950402145
 20
128.091152815
 40
29.2890764621
  0
CIRCLE
  5
3BE
100
AcDbEntity
  8
0
100
AcDbCircle
 62
7
  6
CONTINUOUS
 10
99.6950402145
 20
128.091152815
 40
24.9049999997
  0
CIRCLE
  5
3BF
100
AcDbEntity
  8
0
100
AcDbCircle
 62
7
  6
CONTINUOUS
 10
99.6950402145
 20
128.091152815
 40
22.9999999997
  0
CIRCLE
  5
3C0
100
AcDbEntity
  8
0
100
AcDbCircle
 62
7
  6
CONTINUOUS
 10
99.6950402145
 20
128.091152815
 40
21.4249999997
  0
CIRCLE
  5
3C1
100
AcDbEntity
  8
0
100
AcDbCircle
 62
7
  6
CONTINUOUS
 10
99.6950402145
 20
128.091152815
 40
19.8500000006
  0
CIRCLE
  5
3C2
100
AcDbEntity
  8
0
100
AcDbCircle
 62
7
  6
CONTINUOUS
 10
99.6950402145
 20
128.091152815
 40
19.5500000006
  0
CIRCLE
  5
3C3
100
AcDbEntity
  8
0
100
AcDbCircle
 62
7
  6
CONTINUOUS
 10
99.6950402145
 20
128.091152815
 40
15.6
  0
CIRCLE
  5
3C4
100
AcDbEntity
  8
0
100
AcDbCircle
 62
7
  6
CONTINUOUS
 10
99.6950402145
 20
128.091152815
 40
15.0
  0
ARC
  5
3C5
100
AcDbEntity
  8
0
100
AcDbCircle
 62
7
  6
CONTINUOUS
 10
125.6950402145
 20
168.091152815
 40
2.5
100
AcDbArc
 50
0.0
 51
90.0
  0
ARC
  5
3C6
100
AcDbEntity
  8
0
100
AcDbCircle
 62
7
  6
CONTINUOUS
 10
151.3950402145
 20
132.541152815
 40
2.2
100
AcDbArc
 50
192.2015132932
 51
305.7036042359
  0
ARC
  5
3C7
100
AcDbEntity
  8
0
100
AcDbCircle
 62
7
  6
CONTINUOUS
 10
154.1950402145
 20
128.091152815
 40
2.0
100
AcDbArc
 50
318.5903778907
 51
41.4096221093
  0
ARC
  5
3C8
100
AcDbEntity
  8
0
100
AcDbCircle
 62
7
  6
CONTINUOUS
 10
215.5094927782
 20
128.091152815
 40
31.0
100
AcDbArc
 50
72.5619600924
 51
72.7150174196
  0
ARC
  5
3C9
100
AcDbEntity
  8
0
100
AcDbCircle
 62
7
  6
CONTINUOUS
 10
215.5094927782
 20
128.091152815
 40
31.0
100
AcDbArc
 50
287.2849825804
 51
287.4380399076
  0
ARC
  5
3CA
100
AcDbEntity
  8
0
100
AcDbCircle
 62
7
  6
CONTINUOUS
 10
215.5094927782
 20
128.091152815
 40
31.0
100
AcDbArc
 50
252.5619600924
 51
252.7150174196
  0
ARC
  5
3CB
100
AcDbEntity
  8
0
100
AcDbCircle
 62
7
  6
CONTINUOUS
 10
215.5094927782
 20
128.091152815
 40
31.0
100
AcDbArc
 50
107.2849825804
 51
107.4380399076
  0
ARC
  5
3CC
100
AcDbEntity
  8
0
100
AcDbCircle
 62
7
  6
CONTINUOUS
 10
227.0094927782
 20
177.591152815
 40
2.5
100
AcDbArc
 50
0.0
 51
90.0
  0
ARC
  5
3CD
100
AcDbEntity
  8
0
100
AcDbCircle
 62
7
  6
CONTINUOUS
 10
227.0094927782
 20
78.591152815
 40
2.5
100
AcDbArc
 50
270.0
 51
360.0
  0
ARC
  5
3CE
100
AcDbEntity
  8
0
100
AcDbCircle
 62
7
  6
CONTINUOUS
 10
204.0094927782
 20
177.591152815
 40
2.5
100
AcDbArc
 50
90.0
 51
180.0
  0
ARC
  5
3CF
100
AcDbEntity
  8
0
100
AcDbCircle
 62
7
  6
CONTINUOUS
 10
204.0094927782
 20
78.591152815
 40
2.5
100
AcDbArc
 50
180.0
 51
270.0
  0
ARC
  5
3D0
100
AcDbEntity
  8
0
100
AcDbCircle
 62
7
  6
CONTINUOUS
 10
231.5094927782
 20
83.591152815
 40
2.0
100
AcDbArc
 50
90.0
 51
180.0
  0
ARC
  5
3D1
100
AcDbEntity
  8
0
100
AcDbCircle
 62
7
  6
CONTINUOUS
 10
231.5094927782
 20
172.591152815
 40
2.0
100
AcDbArc
 50
180.0
 51
270.0
  0
ARC
  5
3D2
100
AcDbEntity
  8
0
100
AcDbCircle
 62
7
  6
CONTINUOUS
 10
205.9444927782
 20
170.931152815
 40
1.765
100
AcDbArc
 50
190.5789600396
 51
41.0884858107
  0
ARC
  5
3D3
100
AcDbEntity
  8
0
100
AcDbCircle
 62
7
  6
CONTINUOUS
 10
205.9444927782
 20
85.251152815
 40
1.765
100
AcDbArc
 50
318.9115141893
 51
169.4210399604
  0
ARC
  5
3D4
100
AcDbEntity
  8
0
100
AcDbCircle
 62
7
  6
CONTINUOUS
 10
230.8094927782
 20
112.491152815
 40
0.6
100
AcDbArc
 50
0.0
 51
90.0
  0
ARC
  5
3D5
100
AcDbEntity
  8
0
100
AcDbCircle
 62
7
  6
CONTINUOUS
 10
193.9094927782
 20
112.491152815
 40
0.6
100
AcDbArc
 50
90.0
 51
180.0
  0
ARC
  5
3D6
100
AcDbEntity
  8
0
100
AcDbCircle
 62
7
  6
CONTINUOUS
 10
230.8094927782
 20
143.691152815
 40
0.6
100
AcDbArc
 50
270.0
 51
360.0
  0
ARC
  5
3D7
100
AcDbEntity
  8
0
100
AcDbCircle
 62
7
  6
CONTINUOUS
 10
193.9094927782
 20
143.691152815
 40
0.6
100
AcDbArc
 50
180.0
 51
270.0
  0
ARC
  5
3D8
100
AcDbEntity
  8
0
100
AcDbCircle
 62
7
  6
CONTINUOUS
 10
193.6094927782
 20
108.5411528144
 40
0.3
100
AcDbArc
 50
180.0
 51
270.0
  0
ARC
  5
3D9
100
AcDbEntity
  8
0
100
AcDbCircle
 62
7
  6
CONTINUOUS
 10
206.3094927782
 20
98.802076353
 40
0.3
100
AcDbArc
 50
180.0
 51
252.5619600924
  0
ARC
  5
3DA
100
AcDbEntity
  8
0
100
AcDbCircle
 62
7
  6
CONTINUOUS
 10
224.7094927782
 20
98.802076353
 40
0.3
100
AcDbArc
 50
287.4380399076
 51
360.0
  0
ARC
  5
3DB
100
AcDbEntity
  8
0
100
AcDbCircle
 62
7
  6
CONTINUOUS
 10
231.1094927782
 20
147.6411528156
 40
0.3
100
AcDbArc
 50
0.0
 51
90.0
  0
ARC
  5
3DC
100
AcDbEntity
  8
0
100
AcDbCircle
 62
7
  6
CONTINUOUS
 10
231.1094927782
 20
108.5411528144
 40
0.3
100
AcDbArc
 50
270.0
 51
360.0
  0
ARC
  5
3DD
100
AcDbEntity
  8
0
100
AcDbCircle
 62
7
  6
CONTINUOUS
 10
193.6094927782
 20
147.6411528156
 40
0.3
100
AcDbArc
 50
90.0
 51
180.0
  0
ARC
  5
3DE
100
AcDbEntity
  8
0
100
AcDbCircle
 62
7
  6
CONTINUOUS
 10
224.7094927782
 20
157.3802292771
 40
0.3
100
AcDbArc
 50
0.0
 51
72.5619600924
  0
ARC
  5
3DF
100
AcDbEntity
  8
0
100
AcDbCircle
 62
7
  6
CONTINUOUS
 10
206.3094927782
 20
157.3802292771
 40
0.3
100
AcDbArc
 50
107.4380399076
 51
180.0
  0
ENDSEC
  0
SECTION
  2
OBJECTS
  0
DICTIONARY
  5
3E0
100
AcDbDictionary
  3
ACAD_GROUP
350
3E1
  3
ACAD_MLINESTYLE
350
3E2
  0
DICTIONARY
  5
3E1
102
{ACAD_REACTORS
330
3E0
102
}
100
AcDbDictionary
  0
DICTIONARY
  5
3E2
102
{ACAD_REACTORS
330
3E0
102
}
100
AcDbDictionary
  3
STANDARD
350
3E3
  0
MLINESTYLE
  5
3E3
102
{ACAD_REACTORS
330
3E2
102
}
100
AcDbMlineStyle
  2
STANDARD
 70
0
  3

 62
256
 51
90.0
 52
90.0
 71
2
 49
0.5
 62
256
  6
BYLAYER
 49
-0.5
 62
256
  6
BYLAYER
  0
ENDSEC
  0
EOF
