999
DXF file: b0000663922.dxf
999
Pro/ENGINEER 2009380 by Parametric Technology Corporation
  0
SECTION
  2
HEADER
  9
$ACADVER
  1
AC1015
  9
$DWGCODEPAGE
  3
ANSI_1252
  9
$EXTMAX
 10
297.0
 20
210.0
 30
0.0
  9
$EXTMIN
 10
0.0
 20
0.0
 30
0.0
  9
$LIMMIN
 10
0.0
 20
0.0
  9
$LIMMAX
 10
297.0
 20
210.0
  9
$VIEWCTR
 10
148.5
 20
105.0
  9
$VIEWSIZE
 40
210.0
  9
$CLAYER
  8
0
  9
$LTSCALE
 40
16.335
  9
$CELTYPE
  6
BYLAYER
  9
$DIMSCALE
 40
1.0
  9
$DIMASZ
 40
3.5
  9
$DIMEXO
 40
1.85625
  9
$DIMDLI
 40
11.286
  9
$DIMEXE
 40
5.346
  9
$DIMCEN
 40
2.673
  9
$DIMLFAC
 40
1.0
  9
$DIMBLK
  1
_FILLED
  9
$DIMTXT
 40
3.5
  9
$DIMTOL
 70
1
  9
$DIMLIM
 70
0
  9
$DIMTFAC
 40
1.0
  9
$DIMTP
 40
0.01
  9
$DIMTM
 40
0.01
  9
$PDMODE
 70
3
  9
$PDSIZE
 40
0.3125
  9
$HANDSEED
  5
3DC
  9
$TILEMODE
 70
1
  9
$MEASUREMENT
 70
1
  9
$INSUNITS
 70
4
  0
ENDSEC
  0
SECTION
  2
CLASSES
  0
CLASS
  1
ACDBDICTIONARYWDFLT
  2
AcDbDictionaryWithDefault
  3
AutoCAD 2000
 90
0
280
0
281
0
  0
CLASS
  1
ACDBPLACEHOLDER
  2
AcDbPlaceHolder
  3
AutoCAD 2000
 90
0
280
0
281
0
  0
CLASS
  1
LAYOUT
  2
AcDbLayout
  3
AutoCAD 2000
 90
0
280
0
281
0
  0
ENDSEC
  0
SECTION
  2
TABLES
  0
TABLE
  2
VPORT
  5
8
100
AcDbSymbolTable
 70
2
  0
VPORT
  5
1F4
100
AcDbSymbolTableRecord
100
AcDbViewportTableRecord
  2
*ACTIVE
 70
0
 10
0.0
 20
0.0
 11
1.0
 21
1.0
 12
148.5
 22
105.0
 13
0.0
 23
0.0
 14
1.0
 24
1.0
 15
0.0
 25
0.0
 16
0.0
 26
0.0
 36
1.0
 17
0.0
 27
0.0
 37
0.0
 40
210.0
 41
1.4142857143
 42
50.0
 43
0.0
 44
0.0
 50
0.0
 51
0.0
 71
0
 72
100
 73
1
 74
1
 75
0
 76
0
 77
0
 78
0
  0
ENDTAB
  0
TABLE
  2
LTYPE
  5
5
100
AcDbSymbolTable
 70
6
  0
LTYPE
  5
14
100
AcDbSymbolTableRecord
100
AcDbLinetypeTableRecord
  2
BYBLOCK
 70
0
  3

 72
65
 73
0
 40
0.0
  0
LTYPE
  5
15
100
AcDbSymbolTableRecord
100
AcDbLinetypeTableRecord
  2
BYLAYER
 70
0
  3

 72
65
 73
0
 40
0.0
  0
LTYPE
  5
16
100
AcDbSymbolTableRecord
100
AcDbLinetypeTableRecord
  2
CONTINUOUS
 70
64
  3
Solid line
 72
65
 73
0
 40
0.0
  0
LTYPE
  5
1F5
100
AcDbSymbolTableRecord
100
AcDbLinetypeTableRecord
  2
CENTER
 70
64
  3
____ _ ____ _ ____ _ ____ _ ____ _ ____ _ ____
 72
65
 73
4
 40
0.6
 49
0.375
 74
0
 49
-0.075
 74
0
 49
0.075
 74
0
 49
-0.075
 74
0
  0
LTYPE
  5
1F6
100
AcDbSymbolTableRecord
100
AcDbLinetypeTableRecord
  2
HIDDEN
 70
64
  3
- - - - - - - - - - - - - - - - - - - -
 72
65
 73
2
 40
0.2
 49
0.1
 74
0
 49
-0.1
 74
0
  0
LTYPE
  5
1F7
100
AcDbSymbolTableRecord
100
AcDbLinetypeTableRecord
  2
PHANTOM
 70
64
  3
_____ _ _ _____ _ _ _____ _ _ _____
 72
65
 73
6
 40
0.8
 49
0.45
 74
0
 49
-0.05
 74
0
 49
0.1
 74
0
 49
-0.05
 74
0
 49
0.1
 74
0
 49
-0.05
 74
0
  0
LTYPE
  5
1F8
100
AcDbSymbolTableRecord
100
AcDbLinetypeTableRecord
  2
DOT
 70
64
  3
. . . . . . . . . . . . . . . . . . . .
 72
65
 73
2
 40
0.2
 49
0.1
 74
0
 49
-0.1
 74
0
  0
LTYPE
  5
1F9
100
AcDbSymbolTableRecord
100
AcDbLinetypeTableRecord
  2
DASHED
 70
64
  3
- - - - - - - - - - - - - - - - - - - -
 72
65
 73
2
 40
0.2
 49
0.1
 74
0
 49
-0.1
 74
0
  0
ENDTAB
  0
TABLE
  2
LAYER
  5
2
100
AcDbSymbolTable
 70
36
  0
LAYER
  5
10
100
AcDbSymbolTableRecord
100
AcDbLayerTableRecord
  2
0
 70
0
 62
7
  6
CONTINUOUS
370
-3
390
F
  0
LAYER
  5
1FA
100
AcDbSymbolTableRecord
100
AcDbLayerTableRecord
  2
DEFAULT_1
 70
0
 62
7
  6
CENTER
370
-3
390
F
  0
LAYER
  5
1FB
100
AcDbSymbolTableRecord
100
AcDbLayerTableRecord
  2
DEFAULT_2
 70
0
 62
8
  6
HIDDEN
370
-3
390
F
  0
LAYER
  5
1FC
100
AcDbSymbolTableRecord
100
AcDbLayerTableRecord
  2
DEFAULT_3
 70
0
 62
7
  6
PHANTOM
370
-3
390
F
  0
LAYER
  5
1FD
100
AcDbSymbolTableRecord
100
AcDbLayerTableRecord
  2
ASSI
 70
0
 62
7
  6
CONTINUOUS
370
-3
390
F
  0
LAYER
  5
1FE
100
AcDbSymbolTableRecord
100
AcDbLayerTableRecord
  2
PIANI
 70
0
 62
7
  6
CONTINUOUS
370
-3
390
F
  0
ENDTAB
  0
TABLE
  2
STYLE
  5
3
100
AcDbSymbolTable
 70
1
  0
STYLE
  5
11
100
AcDbSymbolTableRecord
100
AcDbTextStyleTableRecord
  2
STANDARD
 70
0
 40
0.0
 41
0.5
 50
0.0
 71
0
 42
0.2
  3
txt
  4

  0
STYLE
  5
1FF
100
AcDbSymbolTableRecord
100
AcDbTextStyleTableRecord
  2
TEXTSTYLE_1
 70
0
 40
0.0
 41
0.8
 50
0.0
 71
0
 42
0.2
  3
gdt
  4

  0
STYLE
  5
200
100
AcDbSymbolTableRecord
100
AcDbTextStyleTableRecord
  2
TEXTSTYLE_2
 70
0
 40
0.0
 41
0.5
 50
0.0
 71
0
 42
0.2
  3
gdt
  4

  0
ENDTAB
  0
TABLE
  2
VIEW
  5
6
100
AcDbSymbolTable
 70
0
  0
ENDTAB
  0
TABLE
  2
UCS
  5
7
100
AcDbSymbolTable
 70
0
  0
ENDTAB
  0
TABLE
  2
APPID
  5
9
100
AcDbSymbolTable
 70
1
  0
APPID
  5
201
100
AcDbSymbolTableRecord
100
AcDbRegAppTableRecord
  2
ACAD
 70
0
  0
ENDTAB
  0
TABLE
  2
BLOCK_RECORD
  5
1
100
AcDbSymbolTable
 70
0
  0
BLOCK_RECORD
  5
202
100
AcDbSymbolTableRecord
100
AcDbBlockTableRecord
  2
*Model_Space
  0
BLOCK_RECORD
  5
203
100
AcDbSymbolTableRecord
100
AcDbBlockTableRecord
  2
*Paper_Space
  0
BLOCK_RECORD
  5
204
100
AcDbSymbolTableRecord
100
AcDbBlockTableRecord
  2
_FILLED
  0
BLOCK_RECORD
  5
205
100
AcDbSymbolTableRecord
100
AcDbBlockTableRecord
  2
*D0
  0
BLOCK_RECORD
  5
206
100
AcDbSymbolTableRecord
100
AcDbBlockTableRecord
  2
*D1
  0
BLOCK_RECORD
  5
207
100
AcDbSymbolTableRecord
100
AcDbBlockTableRecord
  2
*D2
  0
BLOCK_RECORD
  5
208
100
AcDbSymbolTableRecord
100
AcDbBlockTableRecord
  2
*D3
  0
BLOCK_RECORD
  5
209
100
AcDbSymbolTableRecord
100
AcDbBlockTableRecord
  2
*D4
  0
BLOCK_RECORD
  5
20A
100
AcDbSymbolTableRecord
100
AcDbBlockTableRecord
  2
*D5
  0
BLOCK_RECORD
  5
20B
100
AcDbSymbolTableRecord
100
AcDbBlockTableRecord
  2
*D6
  0
BLOCK_RECORD
  5
20C
100
AcDbSymbolTableRecord
100
AcDbBlockTableRecord
  2
*D7
  0
BLOCK_RECORD
  5
20D
100
AcDbSymbolTableRecord
100
AcDbBlockTableRecord
  2
*D8
  0
BLOCK_RECORD
  5
20E
100
AcDbSymbolTableRecord
100
AcDbBlockTableRecord
  2
*D9
  0
BLOCK_RECORD
  5
20F
100
AcDbSymbolTableRecord
100
AcDbBlockTableRecord
  2
*D10
  0
BLOCK_RECORD
  5
210
100
AcDbSymbolTableRecord
100
AcDbBlockTableRecord
  2
*D11
  0
ENDTAB
  0
TABLE
  2
DIMSTYLE
  5
A
100
AcDbSymbolTable
 70
1
100
AcDbDimStyleTable
 71
0
  0
DIMSTYLE
105
211
100
AcDbSymbolTableRecord
100
AcDbDimStyleTableRecord
  2
STANDARD
 70
0
  3

  4

 40
1.0
 41
3.5
 42
0.0625
 43
0.38
 44
0.18
 45
0.0
 46
0.0
 47
0.01
 48
0.01
140
3.5
141
0.09
142
0.0
143
25.4
144
1.0
145
0.0
146
1.0
147
0.09
 71
1.0
 72
0.0
 73
0
 74
0
 75
0
 76
0
 77
1
 78
8
170
0
171
2
172
0
173
0
174
0
175
0
176
0
177
0
178
0
270
2
271
2
272
2
273
2
274
2
275
0
280
0
281
0
282
0
283
1
284
8
285
0
286
0
287
3
288
0
340
11
341
204
342
204
343
204
344
204
  0
DIMSTYLE
105
212
100
AcDbSymbolTableRecord
100
AcDbDimStyleTableRecord
  2
DIMSTYLE_1
 70
0
  3

  4

 40
1.0
 41
3.5
 42
0.0625
 43
0.38
 44
0.18
 45
0.0
 46
0.0
 47
0.15
 48
0.15
140
3.5
141
0.09
142
0.0
143
25.4
144
1.0
145
0.0
146
1.0
147
0.09
 71
0.0
 72
0.0
 73
0
 74
0
 75
0
 76
0
 77
1
 78
8
170
0
171
2
172
0
173
0
174
0
175
0
176
0
177
0
178
0
270
2
271
2
272
2
273
2
274
2
275
0
280
0
281
0
282
0
283
1
284
8
285
0
286
0
287
3
288
0
340
11
341
204
342
204
343
204
344
204
  0
DIMSTYLE
105
213
100
AcDbSymbolTableRecord
100
AcDbDimStyleTableRecord
  2
DIMSTYLE_2
 70
0
  3

  4

 40
1.0
 41
3.5
 42
0.0625
 43
0.38
 44
0.18
 45
0.0
 46
0.0
 47
0.2
 48
0.2
140
3.5
141
0.09
142
0.0
143
25.4
144
1.0
145
0.0
146
1.0
147
0.09
 71
0.0
 72
0.0
 73
0
 74
0
 75
0
 76
0
 77
1
 78
8
170
0
171
2
172
0
173
0
174
0
175
0
176
0
177
0
178
0
270
2
271
1
272
1
273
2
274
2
275
0
280
0
281
0
282
0
283
1
284
8
285
0
286
0
287
3
288
0
340
11
341
204
342
204
343
204
344
204
  0
DIMSTYLE
105
214
100
AcDbSymbolTableRecord
100
AcDbDimStyleTableRecord
  2
DIMSTYLE_3
 70
0
  3

  4

 40
1.0
 41
3.5
 42
0.0625
 43
0.38
 44
0.18
 45
0.0
 46
0.0
 47
0.1
 48
0.1
140
3.5
141
0.09
142
0.0
143
25.4
144
1.0
145
0.0
146
1.0
147
0.09
 71
0.0
 72
0.0
 73
0
 74
0
 75
0
 76
0
 77
1
 78
8
170
0
171
2
172
0
173
0
174
0
175
0
176
0
177
0
178
0
270
2
271
2
272
2
273
2
274
2
275
0
280
0
281
0
282
0
283
1
284
8
285
0
286
0
287
3
288
0
340
11
341
204
342
204
343
204
344
204
  0
DIMSTYLE
105
215
100
AcDbSymbolTableRecord
100
AcDbDimStyleTableRecord
  2
DIMSTYLE_4
 70
0
  3

  4

 40
1.0
 41
3.5
 42
0.0625
 43
0.38
 44
0.18
 45
0.0
 46
0.0
 47
0.1
 48
0.1
140
3.5
141
0.09
142
0.0
143
25.4
144
1.0
145
0.0
146
1.0
147
0.09
 71
0.0
 72
0.0
 73
0
 74
0
 75
0
 76
0
 77
1
 78
8
170
0
171
2
172
0
173
0
174
0
175
0
176
0
177
0
178
0
270
2
271
2
272
2
273
2
274
2
275
0
280
0
281
0
282
0
283
1
284
8
285
0
286
0
287
3
288
0
340
11
341
204
342
204
343
204
344
204
  0
ENDTAB
  0
ENDSEC
  0
SECTION
  2
BLOCKS
  0
BLOCK
  5
20
100
AcDbEntity
  8
0
100
AcDbBlockBegin
  2
*Model_Space
 70
0
 10
0.0
 20
0.0
 30
0.0
  3
*Model_Space
  1

  0
ENDBLK
  5
21
100
AcDbEntity
  8
0
100
AcDbBlockEnd
  0
BLOCK
  5
1C
100
AcDbEntity
  8
0
100
AcDbBlockBegin
  2
*Paper_Space
 70
0
 10
0.0
 20
0.0
 30
0.0
  3
*Paper_Space
  1

  0
ENDBLK
  5
1D
100
AcDbEntity
  8
0
100
AcDbBlockEnd
  0
BLOCK
  5
216
100
AcDbEntity
  8
0
100
AcDbBlockBegin
  2
_FILLED
 70
64
 10
0.0
 20
0.0
  3
_FILLED
  1

  0
SOLID
  5
217
100
AcDbEntity
  8
0
  6
BYBLOCK
 62
0
100
AcDbTrace
 10
0.0
 20
0.0
 11
-1.0
 21
0.1857142857
 12
-1.0
 22
-0.1857142857
 13
-1.0
 23
-0.1857142857
  0
ENDBLK
  5
218
100
AcDbEntity
  8
0
  6
BYBLOCK
 62
0
100
AcDbBlockEnd
  0
BLOCK
  5
219
100
AcDbEntity
  8
0
100
AcDbBlockBegin
 62
2
  6
CONTINUOUS
  2
*D0
 70
65
 10
0.0
 20
0.0
  3
*D0
  1

  0
MTEXT
  5
21A
100
AcDbEntity
  8
0
100
AcDbMText
 62
2
  6
CONTINUOUS
  7
STANDARD
 71
2
 72
1
 10
77.7667559487
 20
24.1766085791
 30
0.0
 11
1.0
 21
0.0
 31
0.0
 44
0.9
  1
81.3
 40
3.5
 41
7.0
  0
LINE
  5
21B
100
AcDbEntity
  8
0
100
AcDbLine
 62
2
  6
CONTINUOUS
 10
37.1167559487
 20
91.1673045607
 11
37.1167559487
 21
18.3016085791
  0
LINE
  5
21C
100
AcDbEntity
  8
0
100
AcDbLine
 62
2
  6
CONTINUOUS
 10
118.4167559487
 20
91.1673045589
 11
118.4167559487
 21
18.3016085791
  0
LINE
  5
21D
100
AcDbEntity
  8
0
100
AcDbLine
 62
2
  6
CONTINUOUS
 10
37.1167559487
 20
19.8016085791
 11
77.7667559487
 21
19.8016085791
  0
LINE
  5
21E
100
AcDbEntity
  8
0
100
AcDbLine
 62
2
  6
CONTINUOUS
 10
118.4167559487
 20
19.8016085791
 11
77.7667559487
 21
19.8016085791
  0
INSERT
  5
21F
100
AcDbEntity
  8
0
100
AcDbBlockReference
 62
2
  6
CONTINUOUS
  2
_FILLED
 10
37.1167559487
 20
19.8016085791
 41
3.5
 42
3.5
 43
3.5
 50
180.0
  0
INSERT
  5
220
100
AcDbEntity
  8
0
100
AcDbBlockReference
 62
2
  6
CONTINUOUS
  2
_FILLED
 10
118.4167559487
 20
19.8016085791
 41
3.5
 42
3.5
 43
3.5
  0
ENDBLK
  5
221
100
AcDbEntity
  8
0
  6
BYBLOCK
 62
0
100
AcDbBlockEnd
  0
BLOCK
  5
222
100
AcDbEntity
  8
0
100
AcDbBlockBegin
 62
2
  6
CONTINUOUS
  2
*D1
 70
65
 10
0.0
 20
0.0
  3
*D1
  1

  0
MTEXT
  5
223
100
AcDbEntity
  8
0
100
AcDbMText
 62
2
  6
CONTINUOUS
  7
STANDARD
 71
2
 72
1
 10
5.1799597855
 20
112.1662198391
 30
0.0
 11
0.0
 21
1.0
 31
0.0
 44
0.9
  1
138.6
 40
3.5
 41
8.75
  0
LINE
  5
224
100
AcDbEntity
  8
0
100
AcDbLine
 62
2
  6
CONTINUOUS
 10
71.2361078757
 20
42.8912198391
 11
8.0549597855
 21
42.8912198391
  0
LINE
  5
225
100
AcDbEntity
  8
0
100
AcDbLine
 62
2
  6
CONTINUOUS
 10
77.2667559487
 20
181.4412198391
 11
8.0549597855
 21
181.4412198391
  0
LINE
  5
226
100
AcDbEntity
  8
0
100
AcDbLine
 62
2
  6
CONTINUOUS
 10
9.5549597855
 20
42.8912198391
 11
9.5549597855
 21
112.1662198391
  0
LINE
  5
227
100
AcDbEntity
  8
0
100
AcDbLine
 62
2
  6
CONTINUOUS
 10
9.5549597855
 20
181.4412198391
 11
9.5549597855
 21
112.1662198391
  0
INSERT
  5
228
100
AcDbEntity
  8
0
100
AcDbBlockReference
 62
2
  6
CONTINUOUS
  2
_FILLED
 10
9.5549597855
 20
42.8912198391
 41
3.5
 42
3.5
 43
3.5
 50
270.0
  0
INSERT
  5
229
100
AcDbEntity
  8
0
100
AcDbBlockReference
 62
2
  6
CONTINUOUS
  2
_FILLED
 10
9.5549597855
 20
181.4412198391
 41
3.5
 42
3.5
 43
3.5
 50
90.0
  0
ENDBLK
  5
22A
100
AcDbEntity
  8
0
  6
BYBLOCK
 62
0
100
AcDbBlockEnd
  0
BLOCK
  5
22B
100
AcDbEntity
  8
0
100
AcDbBlockBegin
 62
2
  6
CONTINUOUS
  2
*D2
 70
65
 10
0.0
 20
0.0
  3
*D2
  1

  0
MTEXT
  5
22C
100
AcDbEntity
  8
0
100
AcDbMText
 62
2
  6
CONTINUOUS
  7
STANDARD
 71
2
 72
1
 10
24.024463807
 20
114.5912198391
 30
0.0
 11
0.0
 21
1.0
 31
0.0
 44
0.9
  1
52.4
 40
3.5
 41
7.0
  0
LINE
  5
22D
100
AcDbEntity
  8
0
100
AcDbLine
 62
2
  6
CONTINUOUS
 10
77.2667559487
 20
140.7912198391
 11
26.899463807
 21
140.7912198391
  0
LINE
  5
22E
100
AcDbEntity
  8
0
100
AcDbLine
 62
2
  6
CONTINUOUS
 10
53.4667559487
 20
88.3912198391
 11
26.899463807
 21
88.3912198391
  0
LINE
  5
22F
100
AcDbEntity
  8
0
100
AcDbLine
 62
2
  6
CONTINUOUS
 10
28.399463807
 20
140.7912198391
 11
28.399463807
 21
114.5912198391
  0
LINE
  5
230
100
AcDbEntity
  8
0
100
AcDbLine
 62
2
  6
CONTINUOUS
 10
28.399463807
 20
88.3912198391
 11
28.399463807
 21
114.5912198391
  0
INSERT
  5
231
100
AcDbEntity
  8
0
100
AcDbBlockReference
 62
2
  6
CONTINUOUS
  2
_FILLED
 10
28.399463807
 20
140.7912198391
 41
3.5
 42
3.5
 43
3.5
 50
90.0
  0
INSERT
  5
232
100
AcDbEntity
  8
0
100
AcDbBlockReference
 62
2
  6
CONTINUOUS
  2
_FILLED
 10
28.399463807
 20
88.3912198391
 41
3.5
 42
3.5
 43
3.5
 50
270.0
  0
ENDBLK
  5
233
100
AcDbEntity
  8
0
  6
BYBLOCK
 62
0
100
AcDbBlockEnd
  0
BLOCK
  5
234
100
AcDbEntity
  8
0
100
AcDbBlockBegin
 62
2
  6
CONTINUOUS
  2
*D3
 70
65
 10
0.0
 20
0.0
  3
*D3
  1

  0
MTEXT
  5
235
100
AcDbEntity
  8
0
100
AcDbMText
 62
2
  6
CONTINUOUS
  7
STANDARD
 71
2
 72
1
 10
24.024463807
 20
72.5412198391
 30
0.0
 11
0.0
 21
1.0
 31
0.0
 44
0.9
  1
31.7
 40
3.5
 41
7.0
  0
LINE
  5
236
100
AcDbEntity
  8
0
100
AcDbLine
 62
2
  6
CONTINUOUS
 10
53.4667559487
 20
88.3912198391
 11
26.899463807
 21
88.3912198391
  0
LINE
  5
237
100
AcDbEntity
  8
0
100
AcDbLine
 62
2
  6
CONTINUOUS
 10
77.2667559487
 20
56.6912198391
 11
26.899463807
 21
56.6912198391
  0
LINE
  5
238
100
AcDbEntity
  8
0
100
AcDbLine
 62
2
  6
CONTINUOUS
 10
28.399463807
 20
88.3912198391
 11
28.399463807
 21
72.5412198391
  0
LINE
  5
239
100
AcDbEntity
  8
0
100
AcDbLine
 62
2
  6
CONTINUOUS
 10
28.399463807
 20
56.6912198391
 11
28.399463807
 21
72.5412198391
  0
INSERT
  5
23A
100
AcDbEntity
  8
0
100
AcDbBlockReference
 62
2
  6
CONTINUOUS
  2
_FILLED
 10
28.399463807
 20
88.3912198391
 41
3.5
 42
3.5
 43
3.5
 50
90.0
  0
INSERT
  5
23B
100
AcDbEntity
  8
0
100
AcDbBlockReference
 62
2
  6
CONTINUOUS
  2
_FILLED
 10
28.399463807
 20
56.6912198391
 41
3.5
 42
3.5
 43
3.5
 50
270.0
  0
ENDBLK
  5
23C
100
AcDbEntity
  8
0
  6
BYBLOCK
 62
0
100
AcDbBlockEnd
  0
BLOCK
  5
23D
100
AcDbEntity
  8
0
100
AcDbBlockBegin
 62
2
  6
CONTINUOUS
  2
*D4
 70
65
 10
0.0
 20
0.0
  3
*D4
  1

  0
MTEXT
  5
23E
100
AcDbEntity
  8
0
100
AcDbMText
 62
2
  6
CONTINUOUS
  7
STANDARD
 71
2
 72
1
 10
77.7667559487
 20
34.793230563
 30
0.0
 11
1.0
 21
0.0
 31
0.0
 44
0.9
  1
47.6
 40
3.5
 41
7.0
  0
LINE
  5
23F
100
AcDbEntity
  8
0
100
AcDbLine
 62
2
  6
CONTINUOUS
 10
53.9667559487
 20
87.8912198391
 11
53.9667559487
 21
28.918230563
  0
LINE
  5
240
100
AcDbEntity
  8
0
100
AcDbLine
 62
2
  6
CONTINUOUS
 10
101.5667559487
 20
87.8912198391
 11
101.5667559487
 21
28.918230563
  0
LINE
  5
241
100
AcDbEntity
  8
0
100
AcDbLine
 62
2
  6
CONTINUOUS
 10
53.9667559487
 20
30.418230563
 11
77.7667559487
 21
30.418230563
  0
LINE
  5
242
100
AcDbEntity
  8
0
100
AcDbLine
 62
2
  6
CONTINUOUS
 10
101.5667559487
 20
30.418230563
 11
77.7667559487
 21
30.418230563
  0
INSERT
  5
243
100
AcDbEntity
  8
0
100
AcDbBlockReference
 62
2
  6
CONTINUOUS
  2
_FILLED
 10
53.9667559487
 20
30.418230563
 41
3.5
 42
3.5
 43
3.5
 50
180.0
  0
INSERT
  5
244
100
AcDbEntity
  8
0
100
AcDbBlockReference
 62
2
  6
CONTINUOUS
  2
_FILLED
 10
101.5667559487
 20
30.418230563
 41
3.5
 42
3.5
 43
3.5
  0
ENDBLK
  5
245
100
AcDbEntity
  8
0
  6
BYBLOCK
 62
0
100
AcDbBlockEnd
  0
BLOCK
  5
246
100
AcDbEntity
  8
0
100
AcDbBlockBegin
 62
2
  6
CONTINUOUS
  2
*D5
 70
65
 10
0.0
 20
0.0
  3
*D5
  1

  0
MTEXT
  5
247
100
AcDbEntity
  8
0
100
AcDbMText
 62
2
  6
CONTINUOUS
  7
TEXTSTYLE_2
 71
1
 72
1
 10
121.1391571003
 20
107.7627139672
 30
0.0
 11
0.8134767122
 21
0.5815974885
 31
0.0
 44
0.9
  1
{\Fgdt;n}\Ftxt;11
 40
3.5
 41
8.1666666667
  0
LINE
  5
248
100
AcDbEntity
  8
0
100
AcDbLine
 62
2
  6
CONTINUOUS
 10
106.0408778659
 20
91.590006026
 11
101.5667559487
 21
88.3912198391
  0
LINE
  5
249
100
AcDbEntity
  8
0
100
AcDbLine
 62
2
  6
CONTINUOUS
 10
101.5667559487
 20
88.3912198391
 11
130.3270392625
 21
108.9534661742
  0
LINE
  5
24A
100
AcDbEntity
  8
0
100
AcDbLine
 62
2
  6
CONTINUOUS
 10
97.0926340314
 20
85.1924336522
 11
101.5667559487
 21
88.3912198391
  0
INSERT
  5
24B
100
AcDbEntity
  8
0
100
AcDbBlockReference
 62
2
  6
CONTINUOUS
  2
_FILLED
 10
106.0408778659
 20
91.590006026
 41
3.5
 42
3.5
 43
3.5
 50
35.5629800867
  0
INSERT
  5
24C
100
AcDbEntity
  8
0
100
AcDbBlockReference
 62
2
  6
CONTINUOUS
  2
_FILLED
 10
97.0926340314
 20
85.1924336522
 41
3.5
 42
3.5
 43
3.5
 50
215.5629800867
  0
ENDBLK
  5
24D
100
AcDbEntity
  8
0
  6
BYBLOCK
 62
0
100
AcDbBlockEnd
  0
BLOCK
  5
24E
100
AcDbEntity
  8
0
100
AcDbBlockBegin
 62
2
  6
CONTINUOUS
  2
*D6
 70
65
 10
0.0
 20
0.0
  3
*D6
  1

  0
MTEXT
  5
24F
100
AcDbEntity
  8
0
100
AcDbMText
 62
2
  6
CONTINUOUS
  7
STANDARD
 71
2
 72
1
 10
166.4155495979
 20
207.3133378016
 30
0.0
 11
1.0
 21
0.0
 31
0.0
 44
0.9
  1
42.2
 40
3.5
 41
7.0
  0
LINE
  5
250
100
AcDbEntity
  8
0
100
AcDbLine
 62
2
  6
CONTINUOUS
 10
145.3155495979
 20
181.9412198391
 11
145.3155495979
 21
204.4383378016
  0
LINE
  5
251
100
AcDbEntity
  8
0
100
AcDbLine
 62
2
  6
CONTINUOUS
 10
187.5155495979
 20
156.8912198394
 11
187.5155495979
 21
204.4383378016
  0
LINE
  5
252
100
AcDbEntity
  8
0
100
AcDbLine
 62
2
  6
CONTINUOUS
 10
145.3155495979
 20
202.9383378016
 11
166.4155495979
 21
202.9383378016
  0
LINE
  5
253
100
AcDbEntity
  8
0
100
AcDbLine
 62
2
  6
CONTINUOUS
 10
187.5155495979
 20
202.9383378016
 11
166.4155495979
 21
202.9383378016
  0
INSERT
  5
254
100
AcDbEntity
  8
0
100
AcDbBlockReference
 62
2
  6
CONTINUOUS
  2
_FILLED
 10
145.3155495979
 20
202.9383378016
 41
3.5
 42
3.5
 43
3.5
 50
180.0
  0
INSERT
  5
255
100
AcDbEntity
  8
0
100
AcDbBlockReference
 62
2
  6
CONTINUOUS
  2
_FILLED
 10
187.5155495979
 20
202.9383378016
 41
3.5
 42
3.5
 43
3.5
  0
ENDBLK
  5
256
100
AcDbEntity
  8
0
  6
BYBLOCK
 62
0
100
AcDbBlockEnd
  0
BLOCK
  5
257
100
AcDbEntity
  8
0
100
AcDbBlockBegin
 62
2
  6
CONTINUOUS
  2
*D7
 70
65
 10
0.0
 20
0.0
  3
*D7
  1

  0
MTEXT
  5
258
100
AcDbEntity
  8
0
100
AcDbMText
 62
2
  6
CONTINUOUS
  7
STANDARD
 71
2
 72
1
 10
161.0655495979
 20
23.6457774799
 30
0.0
 11
1.0
 21
0.0
 31
0.0
 44
0.9
  1
31.5
 40
3.5
 41
7.0
  0
LINE
  5
259
100
AcDbEntity
  8
0
100
AcDbLine
 62
2
  6
CONTINUOUS
 10
145.3155495979
 20
61.6912198391
 11
145.3155495979
 21
17.7707774799
  0
LINE
  5
25A
100
AcDbEntity
  8
0
100
AcDbLine
 62
2
  6
CONTINUOUS
 10
176.8155495979
 20
110.6912198391
 11
176.8155495979
 21
17.7707774799
  0
LINE
  5
25B
100
AcDbEntity
  8
0
100
AcDbLine
 62
2
  6
CONTINUOUS
 10
145.3155495979
 20
19.2707774799
 11
161.0655495979
 21
19.2707774799
  0
LINE
  5
25C
100
AcDbEntity
  8
0
100
AcDbLine
 62
2
  6
CONTINUOUS
 10
176.8155495979
 20
19.2707774799
 11
161.0655495979
 21
19.2707774799
  0
INSERT
  5
25D
100
AcDbEntity
  8
0
100
AcDbBlockReference
 62
2
  6
CONTINUOUS
  2
_FILLED
 10
145.3155495979
 20
19.2707774799
 41
3.5
 42
3.5
 43
3.5
 50
180.0
  0
INSERT
  5
25E
100
AcDbEntity
  8
0
100
AcDbBlockReference
 62
2
  6
CONTINUOUS
  2
_FILLED
 10
176.8155495979
 20
19.2707774799
 41
3.5
 42
3.5
 43
3.5
  0
ENDBLK
  5
25F
100
AcDbEntity
  8
0
  6
BYBLOCK
 62
0
100
AcDbBlockEnd
  0
BLOCK
  5
260
100
AcDbEntity
  8
0
100
AcDbBlockBegin
 62
2
  6
CONTINUOUS
  2
*D8
 70
65
 10
0.0
 20
0.0
  3
*D8
  1

  0
MTEXT
  5
261
100
AcDbEntity
  8
0
100
AcDbMText
 62
2
  6
CONTINUOUS
  7
STANDARD
 71
2
 72
1
 10
157.3655495979
 20
189.4753756705
 30
0.0
 11
1.0
 21
0.0
 31
0.0
 44
0.9
  1
15.9
 40
3.5
 41
7.0
  0
LINE
  5
262
100
AcDbEntity
  8
0
100
AcDbLine
 62
2
  6
CONTINUOUS
 10
149.4155495979
 20
156.8912198394
 11
149.4155495979
 21
186.6003756705
  0
LINE
  5
263
100
AcDbEntity
  8
0
100
AcDbLine
 62
2
  6
CONTINUOUS
 10
165.3155495979
 20
171.8809893456
 11
165.3155495979
 21
186.6003756705
  0
LINE
  5
264
100
AcDbEntity
  8
0
100
AcDbLine
 62
2
  6
CONTINUOUS
 10
149.4155495979
 20
185.1003756705
 11
141.4155495979
 21
185.1003756705
  0
LINE
  5
265
100
AcDbEntity
  8
0
100
AcDbLine
 62
2
  6
CONTINUOUS
 10
141.4155495979
 20
185.1003756705
 11
157.3655495979
 21
185.1003756705
  0
LINE
  5
266
100
AcDbEntity
  8
0
100
AcDbLine
 62
2
  6
CONTINUOUS
 10
165.3155495979
 20
185.1003756705
 11
173.3155495979
 21
185.1003756705
  0
LINE
  5
267
100
AcDbEntity
  8
0
100
AcDbLine
 62
2
  6
CONTINUOUS
 10
173.3155495979
 20
185.1003756705
 11
157.3655495979
 21
185.1003756705
  0
INSERT
  5
268
100
AcDbEntity
  8
0
100
AcDbBlockReference
 62
2
  6
CONTINUOUS
  2
_FILLED
 10
149.4155495979
 20
185.1003756705
 41
3.5
 42
3.5
 43
3.5
  0
INSERT
  5
269
100
AcDbEntity
  8
0
100
AcDbBlockReference
 62
2
  6
CONTINUOUS
  2
_FILLED
 10
165.3155495979
 20
185.1003756705
 41
3.5
 42
3.5
 43
3.5
 50
180.0
  0
ENDBLK
  5
26A
100
AcDbEntity
  8
0
  6
BYBLOCK
 62
0
100
AcDbBlockEnd
  0
BLOCK
  5
26B
100
AcDbEntity
  8
0
100
AcDbBlockBegin
 62
2
  6
CONTINUOUS
  2
*D9
 70
65
 10
0.0
 20
0.0
  3
*D9
  1

  0
MTEXT
  5
26C
100
AcDbEntity
  8
0
100
AcDbMText
 62
2
  6
CONTINUOUS
  7
STANDARD
 71
2
 72
1
 10
152.3155495979
 20
36.9791423587
 30
0.0
 11
1.0
 21
0.0
 31
0.0
 44
0.9
  1
14
 40
3.5
 41
3.5
  0
LINE
  5
26D
100
AcDbEntity
  8
0
100
AcDbLine
 62
2
  6
CONTINUOUS
 10
145.3155495979
 20
61.6912198391
 11
145.3155495979
 21
31.1041423587
  0
LINE
  5
26E
100
AcDbEntity
  8
0
100
AcDbLine
 62
2
  6
CONTINUOUS
 10
159.3155495979
 20
56.1912198391
 11
159.3155495979
 21
31.1041423587
  0
LINE
  5
26F
100
AcDbEntity
  8
0
100
AcDbLine
 62
2
  6
CONTINUOUS
 10
145.3155495979
 20
32.6041423587
 11
137.3155495979
 21
32.6041423587
  0
LINE
  5
270
100
AcDbEntity
  8
0
100
AcDbLine
 62
2
  6
CONTINUOUS
 10
137.3155495979
 20
32.6041423587
 11
152.3155495979
 21
32.6041423587
  0
LINE
  5
271
100
AcDbEntity
  8
0
100
AcDbLine
 62
2
  6
CONTINUOUS
 10
159.3155495979
 20
32.6041423587
 11
167.3155495979
 21
32.6041423587
  0
LINE
  5
272
100
AcDbEntity
  8
0
100
AcDbLine
 62
2
  6
CONTINUOUS
 10
167.3155495979
 20
32.6041423587
 11
152.3155495979
 21
32.6041423587
  0
INSERT
  5
273
100
AcDbEntity
  8
0
100
AcDbBlockReference
 62
2
  6
CONTINUOUS
  2
_FILLED
 10
145.3155495979
 20
32.6041423587
 41
3.5
 42
3.5
 43
3.5
  0
INSERT
  5
274
100
AcDbEntity
  8
0
100
AcDbBlockReference
 62
2
  6
CONTINUOUS
  2
_FILLED
 10
159.3155495979
 20
32.6041423587
 41
3.5
 42
3.5
 43
3.5
 50
180.0
  0
ENDBLK
  5
275
100
AcDbEntity
  8
0
  6
BYBLOCK
 62
0
100
AcDbBlockEnd
  0
BLOCK
  5
276
100
AcDbEntity
  8
0
100
AcDbBlockBegin
 62
2
  6
CONTINUOUS
  2
*D10
 70
65
 10
0.0
 20
0.0
  3
*D10
  1

  0
MTEXT
  5
277
100
AcDbEntity
  8
0
100
AcDbMText
 62
2
  6
CONTINUOUS
  7
STANDARD
 71
2
 72
1
 10
155.3155495979
 20
198.9182412445
 30
0.0
 11
1.0
 21
0.0
 31
0.0
 44
0.9
  1
20
 40
3.5
 41
3.5
  0
LINE
  5
278
100
AcDbEntity
  8
0
100
AcDbLine
 62
2
  6
CONTINUOUS
 10
145.3155495979
 20
172.7912198391
 11
145.3155495979
 21
196.0432412445
  0
LINE
  5
279
100
AcDbEntity
  8
0
100
AcDbLine
 62
2
  6
CONTINUOUS
 10
165.3155495979
 20
171.6971056438
 11
165.3155495979
 21
196.0432412445
  0
LINE
  5
27A
100
AcDbEntity
  8
0
100
AcDbLine
 62
2
  6
CONTINUOUS
 10
145.3155495979
 20
194.5432412445
 11
155.3155495979
 21
194.5432412445
  0
LINE
  5
27B
100
AcDbEntity
  8
0
100
AcDbLine
 62
2
  6
CONTINUOUS
 10
165.3155495979
 20
194.5432412445
 11
155.3155495979
 21
194.5432412445
  0
INSERT
  5
27C
100
AcDbEntity
  8
0
100
AcDbBlockReference
 62
2
  6
CONTINUOUS
  2
_FILLED
 10
145.3155495979
 20
194.5432412445
 41
3.5
 42
3.5
 43
3.5
 50
180.0
  0
INSERT
  5
27D
100
AcDbEntity
  8
0
100
AcDbBlockReference
 62
2
  6
CONTINUOUS
  2
_FILLED
 10
165.3155495979
 20
194.5432412445
 41
3.5
 42
3.5
 43
3.5
  0
ENDBLK
  5
27E
100
AcDbEntity
  8
0
  6
BYBLOCK
 62
0
100
AcDbBlockEnd
  0
BLOCK
  5
27F
100
AcDbEntity
  8
0
100
AcDbBlockBegin
 62
2
  6
CONTINUOUS
  2
*D11
 70
65
 10
0.0
 20
0.0
  3
*D11
  1

  0
MTEXT
  5
280
100
AcDbEntity
  8
0
100
AcDbMText
 62
2
  6
CONTINUOUS
  7
STANDARD
 71
2
 72
1
 10
13.9386729223
 20
91.8412198391
 30
0.0
 11
0.0
 21
1.0
 31
0.0
 44
0.9
  1
97.9
 40
3.5
 41
7.0
  0
LINE
  5
281
100
AcDbEntity
  8
0
100
AcDbLine
 62
2
  6
CONTINUOUS
 10
71.2361078757
 20
42.8912198391
 11
16.8136729223
 21
42.8912198391
  0
LINE
  5
282
100
AcDbEntity
  8
0
100
AcDbLine
 62
2
  6
CONTINUOUS
 10
77.2667559487
 20
140.7912198391
 11
16.8136729223
 21
140.7912198391
  0
LINE
  5
283
100
AcDbEntity
  8
0
100
AcDbLine
 62
2
  6
CONTINUOUS
 10
18.3136729223
 20
42.8912198391
 11
18.3136729223
 21
91.8412198391
  0
LINE
  5
284
100
AcDbEntity
  8
0
100
AcDbLine
 62
2
  6
CONTINUOUS
 10
18.3136729223
 20
140.7912198391
 11
18.3136729223
 21
91.8412198391
  0
INSERT
  5
285
100
AcDbEntity
  8
0
100
AcDbBlockReference
 62
2
  6
CONTINUOUS
  2
_FILLED
 10
18.3136729223
 20
42.8912198391
 41
3.5
 42
3.5
 43
3.5
 50
270.0
  0
INSERT
  5
286
100
AcDbEntity
  8
0
100
AcDbBlockReference
 62
2
  6
CONTINUOUS
  2
_FILLED
 10
18.3136729223
 20
140.7912198391
 41
3.5
 42
3.5
 43
3.5
 50
90.0
  0
ENDBLK
  5
287
100
AcDbEntity
  8
0
  6
BYBLOCK
 62
0
100
AcDbBlockEnd
  0
ENDSEC
  0
SECTION
  2
ENTITIES
  0
LINE
  5
288
100
AcDbEntity
  8
0
100
AcDbLine
 62
7
  6
CONTINUOUS
 10
145.3155495979
 20
42.8912198391
 11
145.3155495979
 21
51.1912198391
  0
LINE
  5
289
100
AcDbEntity
  8
0
100
AcDbLine
 62
7
  6
CONTINUOUS
 10
159.3155495979
 20
51.1912198391
 11
145.3155495979
 21
51.1912198391
  0
LINE
  5
28A
100
AcDbEntity
  8
0
100
AcDbLine
 62
7
  6
CONTINUOUS
 10
159.3155495979
 20
47.5912198391
 11
159.3155495979
 21
51.1912198391
  0
SPLINE
  5
28B
100
AcDbEntity
  8
0
100
AcDbSpline
 62
7
  6
CONTINUOUS
 70
4
 71
3
 72
8
 73
4
 74
129
 42
0.0000001
 43
0.0000001
 44
0.0000000001
 12
2.1213203436
 22
-0.0
 32
0.0
 13
0.0
 23
2.1213203436
 33
0.0
 40
0.0
 40
0.0
 40
0.0
 40
0.0
 40
1.0
 40
1.0
 40
1.0
 40
1.0
 10
157.8155495979
 20
46.0912198391
 30
0.0
 41
1.0
 10
158.6942292543
 20
46.0912198391
 30
0.0
 41
0.8047378541
 10
159.3155495979
 20
46.7125401827
 30
0.0
 41
0.8047378541
 10
159.3155495979
 20
47.5912198391
 30
0.0
 41
1.0
 11
157.8155495979
 21
46.0912198391
 31
0.0
 11
157.8321599132
 21
46.0913118095
 31
0.0
 11
157.8488435135
 21
46.0915893796
 31
0.0
 11
157.8655977672
 21
46.0920550114
 31
0.0
 11
157.8824199641
 21
46.0927111291
 31
0.0
 11
157.899307316
 21
46.0935601166
 31
0.0
 11
157.9162569569
 21
46.0946043148
 31
0.0
 11
157.9332659433
 21
46.095846019
 31
0.0
 11
157.9503312547
 21
46.0972874762
 31
0.0
 11
157.9674497943
 21
46.0989308824
 31
0.0
 11
157.9846183898
 21
46.1007783798
 31
0.0
 11
158.0018337939
 21
46.1028320542
 31
0.0
 11
158.0190926855
 21
46.1050939321
 31
0.0
 11
158.0363916705
 21
46.1075659783
 31
0.0
 11
158.0537272831
 21
46.1102500926
 31
0.0
 11
158.071095987
 21
46.1131481078
 31
0.0
 11
158.0884941765
 21
46.1162617865
 31
0.0
 11
158.1059181783
 21
46.1195928186
 31
0.0
 11
158.1233642529
 21
46.1231428186
 31
0.0
 11
158.1408285962
 21
46.126913323
 31
0.0
 11
158.1583073415
 21
46.1309057876
 31
0.0
 11
158.1757965611
 21
46.1351215851
 31
0.0
 11
158.1932922686
 21
46.1395620025
 31
0.0
 11
158.2107904208
 21
46.1442282387
 31
0.0
 11
158.2282869201
 21
46.1491214019
 31
0.0
 11
158.2457776167
 21
46.1542425075
 31
0.0
 11
158.2632583112
 21
46.1595924756
 31
0.0
 11
158.2807247568
 21
46.165172129
 31
0.0
 11
158.2981726624
 21
46.1709821909
 31
0.0
 11
158.3155976952
 21
46.1770232827
 31
0.0
 11
158.3329954834
 21
46.1832959223
 31
0.0
 11
158.3503616193
 21
46.1898005223
 31
0.0
 11
158.3676916622
 21
46.1965373875
 31
0.0
 11
158.3849811418
 21
46.2035067143
 31
0.0
 11
158.4022255612
 21
46.2107085882
 31
0.0
 11
158.4194204001
 21
46.2181429825
 31
0.0
 11
158.4365611187
 21
46.2258097575
 31
0.0
 11
158.4536431603
 21
46.2337086585
 31
0.0
 11
158.4706619557
 21
46.2418393151
 31
0.0
 11
158.4876129262
 21
46.2502012402
 31
0.0
 11
158.5044914874
 21
46.2587938289
 31
0.0
 11
158.5212930532
 21
46.267616358
 31
0.0
 11
158.538013039
 21
46.2766679854
 31
0.0
 11
158.5546468659
 21
46.2859477494
 31
0.0
 11
158.5711899643
 21
46.2954545685
 31
0.0
 11
158.587637778
 21
46.3051872416
 31
0.0
 11
158.6039857678
 21
46.3151444472
 31
0.0
 11
158.6202294155
 21
46.3253247443
 31
0.0
 11
158.6363642279
 21
46.3357265723
 31
0.0
 11
158.6523857407
 21
46.3463482514
 31
0.0
 11
158.6682895223
 21
46.3571879833
 31
0.0
 11
158.6840711776
 21
46.3682438518
 31
0.0
 11
158.6997263521
 21
46.379513824
 31
0.0
 11
158.7152507359
 21
46.3909957508
 31
0.0
 11
158.730640067
 21
46.4026873687
 31
0.0
 11
158.7458901356
 21
46.4145863007
 31
0.0
 11
158.7609967875
 21
46.4266900578
 31
0.0
 11
158.775955928
 21
46.438996041
 31
0.0
 11
158.7907635255
 21
46.4515015427
 31
0.0
 11
158.8054156151
 21
46.4642037488
 31
0.0
 11
158.8199083019
 21
46.4770997408
 31
0.0
 11
158.8342377648
 21
46.4901864979
 31
0.0
 11
158.8484002592
 21
46.5034608992
 31
0.0
 11
158.8623921211
 21
46.5169197268
 31
0.0
 11
158.8762097696
 21
46.5305596674
 31
0.0
 11
158.8898497102
 21
46.5443773159
 31
0.0
 11
158.9033085378
 21
46.5583691778
 31
0.0
 11
158.9165829391
 21
46.5725316722
 31
0.0
 11
158.9296696962
 21
46.5868611351
 31
0.0
 11
158.9425656882
 21
46.6013538219
 31
0.0
 11
158.9552678943
 21
46.6160059115
 31
0.0
 11
158.967773396
 21
46.630813509
 31
0.0
 11
158.9800793792
 21
46.6457726495
 31
0.0
 11
158.9921831363
 21
46.6608793014
 31
0.0
 11
159.0040820683
 21
46.67612937
 31
0.0
 11
159.0157736862
 21
46.6915187011
 31
0.0
 11
159.027255613
 21
46.7070430849
 31
0.0
 11
159.0385255852
 21
46.7226982594
 31
0.0
 11
159.0495814537
 21
46.7384799147
 31
0.0
 11
159.0604211856
 21
46.7543836963
 31
0.0
 11
159.0710428647
 21
46.7704052091
 31
0.0
 11
159.0814446927
 21
46.7865400215
 31
0.0
 11
159.0916249898
 21
46.8027836692
 31
0.0
 11
159.1015821954
 21
46.819131659
 31
0.0
 11
159.1113148685
 21
46.8355794727
 31
0.0
 11
159.1208216876
 21
46.8521225711
 31
0.0
 11
159.1301014516
 21
46.868756398
 31
0.0
 11
159.139153079
 21
46.8854763838
 31
0.0
 11
159.1479756081
 21
46.9022779496
 31
0.0
 11
159.1565681968
 21
46.9191565108
 31
0.0
 11
159.1649301219
 21
46.9361074813
 31
0.0
 11
159.1730607785
 21
46.9531262767
 31
0.0
 11
159.1809596795
 21
46.9702083183
 31
0.0
 11
159.1886264545
 21
46.9873490369
 31
0.0
 11
159.1960608488
 21
47.0045438758
 31
0.0
 11
159.2032627227
 21
47.0217882952
 31
0.0
 11
159.2102320494
 21
47.0390777748
 31
0.0
 11
159.2169689147
 21
47.0564078177
 31
0.0
 11
159.2234735147
 21
47.0737739536
 31
0.0
 11
159.2297461543
 21
47.0911717418
 31
0.0
 11
159.2357872461
 21
47.1085967746
 31
0.0
 11
159.241597308
 21
47.1260446802
 31
0.0
 11
159.2471769614
 21
47.1435111258
 31
0.0
 11
159.2525269295
 21
47.1609918203
 31
0.0
 11
159.2576480351
 21
47.1784825169
 31
0.0
 11
159.2625411983
 21
47.1959790162
 31
0.0
 11
159.2672074345
 21
47.2134771684
 31
0.0
 11
159.2716478519
 21
47.2309728759
 31
0.0
 11
159.2758636494
 21
47.2484620955
 31
0.0
 11
159.279856114
 21
47.2659408408
 31
0.0
 11
159.2836266184
 21
47.2834051841
 31
0.0
 11
159.2871766184
 21
47.3008512587
 31
0.0
 11
159.2905076505
 21
47.3182752605
 31
0.0
 11
159.2936213292
 21
47.33567345
 31
0.0
 11
159.2965193444
 21
47.3530421539
 31
0.0
 11
159.2992034587
 21
47.3703777665
 31
0.0
 11
159.3016755049
 21
47.3876767515
 31
0.0
 11
159.3039373828
 21
47.4049356431
 31
0.0
 11
159.3059910571
 21
47.4221510472
 31
0.0
 11
159.3078385546
 21
47.4393196427
 31
0.0
 11
159.3094819608
 21
47.4564381823
 31
0.0
 11
159.310923418
 21
47.4735034937
 31
0.0
 11
159.3121651222
 21
47.4905124801
 31
0.0
 11
159.3132093204
 21
47.507462121
 31
0.0
 11
159.3140583079
 21
47.5243494729
 31
0.0
 11
159.3147144256
 21
47.5411716698
 31
0.0
 11
159.3151800574
 21
47.5579259235
 31
0.0
 11
159.3154576275
 21
47.5746095238
 31
0.0
 11
159.3155495979
 21
47.5912198391
 31
0.0
  0
LINE
  5
28C
100
AcDbEntity
  8
0
100
AcDbLine
 62
7
  6
CONTINUOUS
 10
155.8155495979
 20
46.0912198391
 11
157.8155495979
 21
46.0912198391
  0
SPLINE
  5
28D
100
AcDbEntity
  8
0
100
AcDbSpline
 62
7
  6
CONTINUOUS
 70
4
 71
3
 72
8
 73
4
 74
129
 42
0.0000001
 43
0.0000001
 44
0.0000000001
 12
-1.4142135624
 22
-0.0
 32
0.0
 13
-0.0
 23
-1.4142135624
 33
0.0
 40
0.0
 40
0.0
 40
0.0
 40
0.0
 40
1.0
 40
1.0
 40
1.0
 40
1.0
 10
155.8155495979
 20
46.0912198391
 30
0.0
 41
1.0
 10
155.2297631602
 20
46.0912198391
 30
0.0
 41
0.8047378541
 10
154.8155495979
 20
45.6770062768
 30
0.0
 41
0.8047378541
 10
154.8155495979
 20
45.0912198391
 30
0.0
 41
1.0
 11
155.8155495979
 21
46.0912198391
 31
0.0
 11
155.8044760543
 21
46.0911585256
 31
0.0
 11
155.7933536541
 21
46.0909734788
 31
0.0
 11
155.7821841517
 21
46.0906630576
 31
0.0
 11
155.7709693537
 21
46.0902256458
 31
0.0
 11
155.7597111191
 21
46.0896596542
 31
0.0
 11
155.7484113585
 21
46.0889635221
 31
0.0
 11
155.7370720342
 21
46.0881357192
 31
0.0
 11
155.72569516
 21
46.0871747478
 31
0.0
 11
155.7142828002
 21
46.0860791436
 31
0.0
 11
155.7028370699
 21
46.0848474787
 31
0.0
 11
155.6913601338
 21
46.0834783624
 31
0.0
 11
155.6798542061
 21
46.0819704438
 31
0.0
 11
155.6683215494
 21
46.0803224131
 31
0.0
 11
155.6567644743
 21
46.0785330035
 31
0.0
 11
155.6451853384
 21
46.0766009934
 31
0.0
 11
155.6335865454
 21
46.0745252076
 31
0.0
 11
155.6219705442
 21
46.0723045195
 31
0.0
 11
155.6103398278
 21
46.0699378528
 31
0.0
 11
155.5986969323
 21
46.0674241832
 31
0.0
 11
155.5870444354
 21
46.0647625402
 31
0.0
 11
155.5753849557
 21
46.0619520085
 31
0.0
 11
155.5637211507
 21
46.0589917302
 31
0.0
 11
155.5520557159
 21
46.0558809061
 31
0.0
 11
155.540391383
 21
46.0526187973
 31
0.0
 11
155.5287309186
 21
46.0492047269
 31
0.0
 11
155.5170771223
 21
46.0456380815
 31
0.0
 11
155.5054328252
 21
46.0419183126
 31
0.0
 11
155.4938008881
 21
46.038044938
 31
0.0
 11
155.4821841996
 21
46.0340175435
 31
0.0
 11
155.4705856741
 21
46.0298357837
 31
0.0
 11
155.4590082502
 21
46.0254993837
 31
0.0
 11
155.4474548883
 21
46.0210081402
 31
0.0
 11
155.4359285686
 21
46.0163619223
 31
0.0
 11
155.424432289
 21
46.0115606731
 31
0.0
 11
155.412969063
 21
46.0066044102
 31
0.0
 11
155.4015419173
 21
46.0014932269
 31
0.0
 11
155.3901538896
 21
45.9962272929
 31
0.0
 11
155.378808026
 21
45.9908068552
 31
0.0
 11
155.367507379
 21
45.9852322384
 31
0.0
 11
155.3562550048
 21
45.979503846
 31
0.0
 11
155.3450539609
 21
45.9736221599
 31
0.0
 11
155.3339073037
 21
45.9675877416
 31
0.0
 11
155.3228180858
 21
45.9614012323
 31
0.0
 11
155.3117893535
 21
45.9550633529
 31
0.0
 11
155.3008241444
 21
45.9485749042
 31
0.0
 11
155.2899254846
 21
45.9419367671
 31
0.0
 11
155.2790963861
 21
45.9351499024
 31
0.0
 11
155.2683398445
 21
45.9282153504
 31
0.0
 11
155.2576588359
 21
45.921134231
 31
0.0
 11
155.2470563149
 21
45.9139077431
 31
0.0
 11
155.2365352114
 21
45.906537164
 31
0.0
 11
155.2260984283
 21
45.8990238493
 31
0.0
 11
155.2157488392
 21
45.8913692314
 31
0.0
 11
155.2054892851
 21
45.8835748194
 31
0.0
 11
155.1953225727
 21
45.8756421981
 31
0.0
 11
155.1852514715
 21
45.8675730267
 31
0.0
 11
155.1752787111
 21
45.8593690379
 31
0.0
 11
155.1654069794
 21
45.8510320368
 31
0.0
 11
155.1556389197
 21
45.8425638994
 31
0.0
 11
155.1459771285
 21
45.8339665714
 31
0.0
 11
155.1364241533
 21
45.8252420667
 31
0.0
 11
155.1269824903
 21
45.8163924657
 31
0.0
 11
155.1176545823
 21
45.8074199141
 31
0.0
 11
155.1084428167
 21
45.7983266203
 31
0.0
 11
155.0993495229
 21
45.7891148547
 31
0.0
 11
155.0903769713
 21
45.7797869467
 31
0.0
 11
155.0815273703
 21
45.7703452837
 31
0.0
 11
155.0728028656
 21
45.7607923085
 31
0.0
 11
155.0642055376
 21
45.7511305173
 31
0.0
 11
155.0557374002
 21
45.7413624576
 31
0.0
 11
155.0474003991
 21
45.7314907259
 31
0.0
 11
155.0391964103
 21
45.7215179655
 31
0.0
 11
155.0311272389
 21
45.7114468643
 31
0.0
 11
155.0231946176
 21
45.7012801519
 31
0.0
 11
155.0154002056
 21
45.6910205978
 31
0.0
 11
155.0077455877
 21
45.6806710087
 31
0.0
 11
155.000232273
 21
45.6702342256
 31
0.0
 11
154.9928616939
 21
45.6597131221
 31
0.0
 11
154.985635206
 21
45.6491106011
 31
0.0
 11
154.9785540866
 21
45.6384295925
 31
0.0
 11
154.9716195346
 21
45.6276730509
 31
0.0
 11
154.9648326699
 21
45.6168439524
 31
0.0
 11
154.9581945328
 21
45.6059452926
 31
0.0
 11
154.9517060841
 21
45.5949800835
 31
0.0
 11
154.9453682047
 21
45.5839513512
 31
0.0
 11
154.9391816954
 21
45.5728621333
 31
0.0
 11
154.9331472771
 21
45.5617154761
 31
0.0
 11
154.927265591
 21
45.5505144322
 31
0.0
 11
154.9215371985
 21
45.539262058
 31
0.0
 11
154.9159625818
 21
45.527961411
 31
0.0
 11
154.9105421441
 21
45.5166155474
 31
0.0
 11
154.9052762101
 21
45.5052275197
 31
0.0
 11
154.9001650268
 21
45.493800374
 31
0.0
 11
154.8952087639
 21
45.482337148
 31
0.0
 11
154.8904075147
 21
45.4708408684
 31
0.0
 11
154.8857612968
 21
45.4593145487
 31
0.0
 11
154.8812700533
 21
45.4477611868
 31
0.0
 11
154.8769336533
 21
45.4361837629
 31
0.0
 11
154.8727518935
 21
45.4245852374
 31
0.0
 11
154.868724499
 21
45.4129685489
 31
0.0
 11
154.8648511244
 21
45.4013366118
 31
0.0
 11
154.8611313555
 21
45.3896923147
 31
0.0
 11
154.8575647101
 21
45.3780385184
 31
0.0
 11
154.8541506397
 21
45.366378054
 31
0.0
 11
154.8508885309
 21
45.3547137211
 31
0.0
 11
154.8477777068
 21
45.3430482863
 31
0.0
 11
154.8448174285
 21
45.3313844813
 31
0.0
 11
154.8420068968
 21
45.3197250015
 31
0.0
 11
154.8393452538
 21
45.3080725047
 31
0.0
 11
154.8368315842
 21
45.2964296091
 31
0.0
 11
154.8344649175
 21
45.2847988928
 31
0.0
 11
154.8322442294
 21
45.2731828916
 31
0.0
 11
154.8301684436
 21
45.2615840986
 31
0.0
 11
154.8282364335
 21
45.2500049627
 31
0.0
 11
154.8264470239
 21
45.2384478876
 31
0.0
 11
154.8247989932
 21
45.2269152309
 31
0.0
 11
154.8232910746
 21
45.2154093032
 31
0.0
 11
154.8219219583
 21
45.2039323671
 31
0.0
 11
154.8206902934
 21
45.1924866368
 31
0.0
 11
154.8195946892
 21
45.181074277
 31
0.0
 11
154.8186337178
 21
45.1696974028
 31
0.0
 11
154.8178059149
 21
45.1583580785
 31
0.0
 11
154.8171097828
 21
45.1470583179
 31
0.0
 11
154.8165437911
 21
45.1358000833
 31
0.0
 11
154.8161063794
 21
45.1245852853
 31
0.0
 11
154.8157959582
 21
45.1134157829
 31
0.0
 11
154.8156109114
 21
45.1022933827
 31
0.0
 11
154.8155495979
 21
45.0912198391
 31
0.0
  0
LINE
  5
28E
100
AcDbEntity
  8
0
100
AcDbLine
 62
7
  6
CONTINUOUS
 10
154.8155495979
 20
44.3912198391
 11
154.8155495979
 21
45.0912198391
  0
SPLINE
  5
28F
100
AcDbEntity
  8
0
100
AcDbSpline
 62
7
  6
CONTINUOUS
 70
4
 71
3
 72
8
 73
4
 74
129
 42
0.0000001
 43
0.0000001
 44
0.0000000001
 12
0.0
 22
-2.1213203436
 32
0.0
 13
-2.1213203436
 23
-0.0
 33
0.0
 40
0.0
 40
0.0
 40
0.0
 40
0.0
 40
1.0
 40
1.0
 40
1.0
 40
1.0
 10
154.8155495979
 20
44.3912198391
 30
0.0
 41
1.0
 10
154.8155495979
 20
43.5125401827
 30
0.0
 41
0.8047378541
 10
154.1942292543
 20
42.8912198391
 30
0.0
 41
0.8047378541
 10
153.3155495979
 20
42.8912198391
 30
0.0
 41
1.0
 11
154.8155495979
 21
44.3912198391
 31
0.0
 11
154.8154576275
 21
44.3746095238
 31
0.0
 11
154.8151800574
 21
44.3579259235
 31
0.0
 11
154.8147144256
 21
44.3411716698
 31
0.0
 11
154.8140583079
 21
44.3243494729
 31
0.0
 11
154.8132093204
 21
44.307462121
 31
0.0
 11
154.8121651222
 21
44.2905124801
 31
0.0
 11
154.810923418
 21
44.2735034937
 31
0.0
 11
154.8094819608
 21
44.2564381823
 31
0.0
 11
154.8078385546
 21
44.2393196427
 31
0.0
 11
154.8059910571
 21
44.2221510472
 31
0.0
 11
154.8039373828
 21
44.2049356431
 31
0.0
 11
154.8016755049
 21
44.1876767515
 31
0.0
 11
154.7992034587
 21
44.1703777665
 31
0.0
 11
154.7965193444
 21
44.1530421539
 31
0.0
 11
154.7936213292
 21
44.13567345
 31
0.0
 11
154.7905076505
 21
44.1182752605
 31
0.0
 11
154.7871766184
 21
44.1008512587
 31
0.0
 11
154.7836266184
 21
44.0834051841
 31
0.0
 11
154.779856114
 21
44.0659408408
 31
0.0
 11
154.7758636494
 21
44.0484620955
 31
0.0
 11
154.7716478519
 21
44.0309728759
 31
0.0
 11
154.7672074345
 21
44.0134771684
 31
0.0
 11
154.7625411983
 21
43.9959790162
 31
0.0
 11
154.7576480351
 21
43.9784825169
 31
0.0
 11
154.7525269295
 21
43.9609918203
 31
0.0
 11
154.7471769614
 21
43.9435111258
 31
0.0
 11
154.741597308
 21
43.9260446802
 31
0.0
 11
154.7357872461
 21
43.9085967746
 31
0.0
 11
154.7297461543
 21
43.8911717418
 31
0.0
 11
154.7234735147
 21
43.8737739536
 31
0.0
 11
154.7169689147
 21
43.8564078177
 31
0.0
 11
154.7102320494
 21
43.8390777748
 31
0.0
 11
154.7032627227
 21
43.8217882952
 31
0.0
 11
154.6960608488
 21
43.8045438758
 31
0.0
 11
154.6886264545
 21
43.7873490369
 31
0.0
 11
154.6809596795
 21
43.7702083183
 31
0.0
 11
154.6730607785
 21
43.7531262767
 31
0.0
 11
154.6649301219
 21
43.7361074813
 31
0.0
 11
154.6565681968
 21
43.7191565108
 31
0.0
 11
154.6479756081
 21
43.7022779496
 31
0.0
 11
154.639153079
 21
43.6854763838
 31
0.0
 11
154.6301014516
 21
43.668756398
 31
0.0
 11
154.6208216876
 21
43.6521225711
 31
0.0
 11
154.6113148685
 21
43.6355794727
 31
0.0
 11
154.6015821954
 21
43.619131659
 31
0.0
 11
154.5916249898
 21
43.6027836692
 31
0.0
 11
154.5814446927
 21
43.5865400215
 31
0.0
 11
154.5710428647
 21
43.5704052091
 31
0.0
 11
154.5604211856
 21
43.5543836963
 31
0.0
 11
154.5495814537
 21
43.5384799147
 31
0.0
 11
154.5385255852
 21
43.5226982594
 31
0.0
 11
154.527255613
 21
43.5070430849
 31
0.0
 11
154.5157736862
 21
43.4915187011
 31
0.0
 11
154.5040820683
 21
43.47612937
 31
0.0
 11
154.4921831363
 21
43.4608793014
 31
0.0
 11
154.4800793792
 21
43.4457726495
 31
0.0
 11
154.467773396
 21
43.430813509
 31
0.0
 11
154.4552678943
 21
43.4160059115
 31
0.0
 11
154.4425656882
 21
43.4013538219
 31
0.0
 11
154.4296696962
 21
43.3868611351
 31
0.0
 11
154.4165829391
 21
43.3725316722
 31
0.0
 11
154.4033085378
 21
43.3583691778
 31
0.0
 11
154.3898497102
 21
43.3443773159
 31
0.0
 11
154.3762097696
 21
43.3305596674
 31
0.0
 11
154.3623921211
 21
43.3169197268
 31
0.0
 11
154.3484002592
 21
43.3034608992
 31
0.0
 11
154.3342377648
 21
43.2901864979
 31
0.0
 11
154.3199083019
 21
43.2770997408
 31
0.0
 11
154.3054156151
 21
43.2642037488
 31
0.0
 11
154.2907635255
 21
43.2515015427
 31
0.0
 11
154.275955928
 21
43.238996041
 31
0.0
 11
154.2609967875
 21
43.2266900578
 31
0.0
 11
154.2458901356
 21
43.2145863007
 31
0.0
 11
154.230640067
 21
43.2026873687
 31
0.0
 11
154.2152507359
 21
43.1909957508
 31
0.0
 11
154.1997263521
 21
43.179513824
 31
0.0
 11
154.1840711776
 21
43.1682438518
 31
0.0
 11
154.1682895223
 21
43.1571879833
 31
0.0
 11
154.1523857407
 21
43.1463482514
 31
0.0
 11
154.1363642279
 21
43.1357265723
 31
0.0
 11
154.1202294155
 21
43.1253247443
 31
0.0
 11
154.1039857678
 21
43.1151444472
 31
0.0
 11
154.087637778
 21
43.1051872416
 31
0.0
 11
154.0711899643
 21
43.0954545685
 31
0.0
 11
154.0546468659
 21
43.0859477494
 31
0.0
 11
154.038013039
 21
43.0766679854
 31
0.0
 11
154.0212930532
 21
43.067616358
 31
0.0
 11
154.0044914874
 21
43.0587938289
 31
0.0
 11
153.9876129262
 21
43.0502012402
 31
0.0
 11
153.9706619557
 21
43.0418393151
 31
0.0
 11
153.9536431603
 21
43.0337086585
 31
0.0
 11
153.9365611187
 21
43.0258097575
 31
0.0
 11
153.9194204001
 21
43.0181429825
 31
0.0
 11
153.9022255612
 21
43.0107085882
 31
0.0
 11
153.8849811418
 21
43.0035067143
 31
0.0
 11
153.8676916622
 21
42.9965373875
 31
0.0
 11
153.8503616193
 21
42.9898005223
 31
0.0
 11
153.8329954834
 21
42.9832959223
 31
0.0
 11
153.8155976952
 21
42.9770232827
 31
0.0
 11
153.7981726624
 21
42.9709821909
 31
0.0
 11
153.7807247568
 21
42.965172129
 31
0.0
 11
153.7632583112
 21
42.9595924756
 31
0.0
 11
153.7457776167
 21
42.9542425075
 31
0.0
 11
153.7282869201
 21
42.9491214019
 31
0.0
 11
153.7107904208
 21
42.9442282387
 31
0.0
 11
153.6932922686
 21
42.9395620025
 31
0.0
 11
153.6757965611
 21
42.9351215851
 31
0.0
 11
153.6583073415
 21
42.9309057876
 31
0.0
 11
153.6408285962
 21
42.926913323
 31
0.0
 11
153.6233642529
 21
42.9231428186
 31
0.0
 11
153.6059181783
 21
42.9195928186
 31
0.0
 11
153.5884941765
 21
42.9162617865
 31
0.0
 11
153.571095987
 21
42.9131481078
 31
0.0
 11
153.5537272831
 21
42.9102500926
 31
0.0
 11
153.5363916705
 21
42.9075659783
 31
0.0
 11
153.5190926855
 21
42.9050939321
 31
0.0
 11
153.5018337939
 21
42.9028320542
 31
0.0
 11
153.4846183898
 21
42.9007783798
 31
0.0
 11
153.4674497943
 21
42.8989308824
 31
0.0
 11
153.4503312547
 21
42.8972874762
 31
0.0
 11
153.4332659433
 21
42.895846019
 31
0.0
 11
153.4162569569
 21
42.8946043148
 31
0.0
 11
153.399307316
 21
42.8935601166
 31
0.0
 11
153.3824199641
 21
42.8927111291
 31
0.0
 11
153.3655977672
 21
42.8920550114
 31
0.0
 11
153.3488435135
 21
42.8915893796
 31
0.0
 11
153.3321599132
 21
42.8913118095
 31
0.0
 11
153.3155495979
 21
42.8912198391
 31
0.0
  0
LINE
  5
290
100
AcDbEntity
  8
0
100
AcDbLine
 62
7
  6
CONTINUOUS
 10
145.3155495979
 20
42.8912198391
 11
153.3155495979
 21
42.8912198391
  0
LINE
  5
291
100
AcDbEntity
  8
0
100
AcDbLine
 62
7
  6
CONTINUOUS
 10
145.3155495979
 20
62.1912198391
 11
145.3155495979
 21
109.2912198391
  0
LINE
  5
292
100
AcDbEntity
  8
0
100
AcDbLine
 62
7
  6
CONTINUOUS
 10
145.8155495979
 20
109.7912198391
 11
145.3155495979
 21
109.2912198391
  0
LINE
  5
293
100
AcDbEntity
  8
0
100
AcDbLine
 62
7
  6
CONTINUOUS
 10
152.5155495979
 20
109.7912198391
 11
145.8155495979
 21
109.7912198391
  0
LINE
  5
294
100
AcDbEntity
  8
0
100
AcDbLine
 62
7
  6
CONTINUOUS
 10
152.5155495979
 20
109.7912198391
 11
152.5155495979
 21
111.1912198391
  0
LINE
  5
295
100
AcDbEntity
  8
0
100
AcDbLine
 62
7
  6
CONTINUOUS
 10
156.1046864461
 20
111.1912198391
 11
152.5155495979
 21
111.1912198391
  0
SPLINE
  5
296
100
AcDbEntity
  8
0
100
AcDbSpline
 62
7
  6
CONTINUOUS
 70
4
 71
3
 72
8
 73
4
 74
17
 42
0.0000001
 43
0.0000001
 44
0.0000000001
 12
-2.1162182389
 22
0.4989125311
 32
0.0
 13
-2.0760427567
 23
0.6460184368
 33
0.0
 40
0.0
 40
0.0
 40
0.0
 40
0.0
 40
1.0
 40
1.0
 40
1.0
 40
1.0
 10
158.2021070288
 20
110.6184020255
 30
0.0
 41
1.0
 10
157.4964115756
 20
110.7847744242
 30
0.0
 41
0.9995899456
 10
156.7969845783
 20
110.9757920231
 30
0.0
 41
0.9995899456
 10
156.1046864461
 20
111.1912198391
 30
0.0
 41
1.0
 11
158.2021070288
 21
110.6184020255
 31
0.0
 11
158.0699072883
 21
110.6498750197
 31
0.0
 11
157.9378379051
 21
110.6819294095
 31
0.0
 11
157.8059027124
 21
110.7145643792
 31
0.0
 11
157.6741055361
 21
110.74777908
 31
0.0
 11
157.5424501952
 21
110.781572629
 31
0.0
 11
157.4109405009
 21
110.8159441102
 31
0.0
 11
157.2795802566
 21
110.850892574
 31
0.0
 11
157.1483732573
 21
110.8864170372
 31
0.0
 11
157.0173232892
 21
110.9225164838
 31
0.0
 11
156.8864341298
 21
110.9591898642
 31
0.0
 11
156.7557095467
 21
110.996436096
 31
0.0
 11
156.625153298
 21
111.0342540639
 31
0.0
 11
156.4947691317
 21
111.0726426194
 31
0.0
 11
156.3645607851
 21
111.1116005816
 31
0.0
 11
156.2345319848
 21
111.1511267369
 31
0.0
 11
156.1046864461
 21
111.1912198391
 31
0.0
  0
LINE
  5
297
100
AcDbEntity
  8
0
100
AcDbLine
 62
7
  6
CONTINUOUS
 10
158.1155495979
 20
110.63893966
 11
158.2021070288
 21
110.6184020255
  0
LINE
  5
298
100
AcDbEntity
  8
0
100
AcDbLine
 62
7
  6
CONTINUOUS
 10
158.1155495979
 20
110.3412198391
 11
158.1155495979
 21
110.63893966
  0
SPLINE
  5
299
100
AcDbEntity
  8
0
100
AcDbSpline
 62
7
  6
CONTINUOUS
 70
4
 71
3
 72
8
 73
4
 74
257
 42
0.0000001
 43
0.0000001
 44
0.0000000001
 12
0.0
 22
-2.9885348726
 32
0.0
 13
0.5200605071
 23
2.9429369266
 33
0.0
 40
0.0
 40
0.0
 40
0.0
 40
0.0
 40
1.0
 40
1.0
 40
1.0
 40
1.0
 10
158.1155495979
 20
110.3412198391
 30
0.0
 41
1.0
 10
158.1155495979
 20
107.7971063567
 30
0.0
 41
0.3915620501
 10
160.6499402186
 20
107.5748956616
 30
0.0
 41
0.3915620501
 10
161.0926631595
 20
110.0801920131
 30
0.0
 41
1.0
 11
158.1155495979
 21
110.3412198391
 31
0.0
 11
158.1155953499
 21
110.3295042861
 31
0.0
 11
158.1157339143
 21
110.3177056859
 31
0.0
 11
158.1159672717
 21
110.3058242593
 31
0.0
 11
158.1162974275
 21
110.2938602618
 31
0.0
 11
158.1167264113
 21
110.2818139852
 31
0.0
 11
158.117256277
 21
110.2696857581
 31
0.0
 11
158.1178891021
 21
110.2574759475
 31
0.0
 11
158.1186269873
 21
110.2451849597
 31
0.0
 11
158.1194720565
 21
110.2328132418
 31
0.0
 11
158.120426456
 21
110.2203612825
 31
0.0
 11
158.1214923541
 21
110.2078296136
 31
0.0
 11
158.1226719405
 21
110.1952188111
 31
0.0
 11
158.1239674261
 21
110.1825294965
 31
0.0
 11
158.1253810418
 21
110.169762338
 31
0.0
 11
158.1269150385
 21
110.1569180518
 31
0.0
 11
158.1285716858
 21
110.1439974033
 31
0.0
 11
158.1303532717
 21
110.1310012084
 31
0.0
 11
158.1322621014
 21
110.1179303347
 31
0.0
 11
158.1343004968
 21
110.1047857031
 31
0.0
 11
158.1364707956
 21
110.0915682887
 31
0.0
 11
158.1387753499
 21
110.0782791223
 31
0.0
 11
158.1412165258
 21
110.0649192916
 31
0.0
 11
158.1437967018
 21
110.0514899427
 31
0.0
 11
158.146518268
 21
110.037992281
 31
0.0
 11
158.1493836249
 21
110.0244275731
 31
0.0
 11
158.152395182
 21
110.0107971472
 31
0.0
 11
158.1555553565
 21
109.9971023952
 31
0.0
 11
158.1588665721
 21
109.9833447735
 31
0.0
 11
158.1623312575
 21
109.9695258045
 31
0.0
 11
158.1659518449
 21
109.9556470775
 31
0.0
 11
158.1697307681
 21
109.9417102503
 31
0.0
 11
158.1736704617
 21
109.9277170499
 31
0.0
 11
158.1777733585
 21
109.9136692743
 31
0.0
 11
158.1820418882
 21
109.8995687931
 31
0.0
 11
158.1864784757
 21
109.8854175488
 31
0.0
 11
158.1910855388
 21
109.8712175578
 31
0.0
 11
158.1958654864
 21
109.8569709118
 31
0.0
 11
158.2008207166
 21
109.8426797781
 31
0.0
 11
158.2059536143
 21
109.8283464013
 31
0.0
 11
158.2112665495
 21
109.8139731036
 31
0.0
 11
158.2167618744
 21
109.7995622861
 31
0.0
 11
158.2224419216
 21
109.7851164294
 31
0.0
 11
158.2283090014
 21
109.7706380943
 31
0.0
 11
158.2343653996
 21
109.7561299226
 31
0.0
 11
158.2406133746
 21
109.7415946378
 31
0.0
 11
158.2470551554
 21
109.7270350453
 31
0.0
 11
158.2536929382
 21
109.7124540332
 31
0.0
 11
158.2605288843
 21
109.6978545728
 31
0.0
 11
158.2675651169
 21
109.6832397185
 31
0.0
 11
158.2748037185
 21
109.6686126083
 31
0.0
 11
158.2822467278
 21
109.653976464
 31
0.0
 11
158.2898961369
 21
109.6393345911
 31
0.0
 11
158.2977538882
 21
109.6246903787
 31
0.0
 11
158.3058218713
 21
109.6100472998
 31
0.0
 11
158.3141019199
 21
109.5954089103
 31
0.0
 11
158.3225958086
 21
109.5807788494
 31
0.0
 11
158.3313052499
 21
109.5661608384
 31
0.0
 11
158.3402318904
 21
109.5515586808
 31
0.0
 11
158.3493773083
 21
109.5369762609
 31
0.0
 11
158.3587430093
 21
109.5224175437
 31
0.0
 11
158.368330424
 21
109.5078865731
 31
0.0
 11
158.3781409038
 21
109.4933874714
 31
0.0
 11
158.388175718
 21
109.4789244379
 31
0.0
 11
158.3984360504
 21
109.4645017473
 31
0.0
 11
158.4089229957
 21
109.4501237484
 31
0.0
 11
158.4196375562
 21
109.4357948624
 31
0.0
 11
158.4305806383
 21
109.4215195809
 31
0.0
 11
158.4417530496
 21
109.4073024642
 31
0.0
 11
158.4531554947
 21
109.3931481388
 31
0.0
 11
158.4647885727
 21
109.3790612955
 31
0.0
 11
158.4766527735
 21
109.3650466867
 31
0.0
 11
158.4887484745
 21
109.3511091239
 31
0.0
 11
158.5010759376
 21
109.3372534748
 31
0.0
 11
158.5136353061
 21
109.3234846606
 31
0.0
 11
158.5264266012
 21
109.3098076528
 31
0.0
 11
158.5394497194
 21
109.29622747
 31
0.0
 11
158.5527044297
 21
109.2827491742
 31
0.0
 11
158.5661903701
 21
109.269377868
 31
0.0
 11
158.5799070457
 21
109.2561186899
 31
0.0
 11
158.5938538253
 21
109.2429768112
 31
0.0
 11
158.6080299396
 21
109.2299574317
 31
0.0
 11
158.622434478
 21
109.2170657755
 31
0.0
 11
158.6370663872
 21
109.2043070868
 31
0.0
 11
158.6519244685
 21
109.1916866252
 31
0.0
 11
158.6670073759
 21
109.1792096614
 31
0.0
 11
158.6823136146
 21
109.1668814724
 31
0.0
 11
158.6978415389
 21
109.1547073366
 31
0.0
 11
158.7135893512
 21
109.1426925289
 31
0.0
 11
158.7295551003
 21
109.1308423153
 31
0.0
 11
158.7457366804
 21
109.1191619483
 31
0.0
 11
158.7621318305
 21
109.107656661
 31
0.0
 11
158.7787381334
 21
109.0963316623
 31
0.0
 11
158.795553015
 21
109.0851921308
 31
0.0
 11
158.8125737447
 21
109.0742432098
 31
0.0
 11
158.8297974346
 21
109.0634900015
 31
0.0
 11
158.8472210403
 21
109.0529375612
 31
0.0
 11
158.8648413606
 21
109.0425908919
 31
0.0
 11
158.8826550392
 21
109.0324549382
 31
0.0
 11
158.9006585643
 21
109.022534581
 31
0.0
 11
158.9188482708
 21
109.0128346311
 31
0.0
 11
158.9372203412
 21
109.0033598242
 31
0.0
 11
158.9557708072
 21
108.9941148145
 31
0.0
 11
158.9744955518
 21
108.9851041693
 31
0.0
 11
158.9933903112
 21
108.9763323632
 31
0.0
 11
159.0124506774
 21
108.9678037725
 31
0.0
 11
159.0316721008
 21
108.9595226696
 31
0.0
 11
159.0510498928
 21
108.9514932175
 31
0.0
 11
159.0705792295
 21
108.9437194643
 31
0.0
 11
159.0902551544
 21
108.9362053382
 31
0.0
 11
159.1100725828
 21
108.9289546419
 31
0.0
 11
159.130026305
 21
108.9219710477
 31
0.0
 11
159.1501109906
 21
108.9152580925
 31
0.0
 11
159.1703211932
 21
108.9088191732
 31
0.0
 11
159.1906513543
 21
108.9026575421
 31
0.0
 11
159.2110958085
 21
108.8967763019
 31
0.0
 11
159.2316487887
 21
108.8911784022
 31
0.0
 11
159.2523044305
 21
108.8858666351
 31
0.0
 11
159.2730567783
 21
108.8808436313
 31
0.0
 11
159.2938997905
 21
108.8761118563
 31
0.0
 11
159.3148273451
 21
108.8716736076
 31
0.0
 11
159.3358332461
 21
108.8675310109
 31
0.0
 11
159.3569112287
 21
108.8636860175
 31
0.0
 11
159.3780549663
 21
108.8601404017
 31
0.0
 11
159.3992580761
 21
108.8568957581
 31
0.0
 11
159.4205141258
 21
108.8539534996
 31
0.0
 11
159.4418166402
 21
108.8513148558
 31
0.0
 11
159.4631591072
 21
108.8489808709
 31
0.0
 11
159.4845349851
 21
108.8469524028
 31
0.0
 11
159.505937709
 21
108.845230122
 31
0.0
 11
159.5273606973
 21
108.8438145106
 31
0.0
 11
159.5487973588
 21
108.8427058624
 31
0.0
 11
159.5702410992
 21
108.841904282
 31
0.0
 11
159.5916853281
 21
108.8414096856
 31
0.0
 11
159.6131234654
 21
108.8412218012
 31
0.0
 11
159.6345489482
 21
108.8413401691
 31
0.0
 11
159.6559552377
 21
108.8417641431
 31
0.0
 11
159.6773358252
 21
108.842492892
 31
0.0
 11
159.6986842391
 21
108.8435254005
 31
0.0
 11
159.7199940512
 21
108.8448604718
 31
0.0
 11
159.741258883
 21
108.8464967291
 31
0.0
 11
159.7624724118
 21
108.8484326183
 31
0.0
 11
159.7836283772
 21
108.8506664104
 31
0.0
 11
159.8047205864
 21
108.8531962046
 31
0.0
 11
159.8257429206
 21
108.856019931
 31
0.0
 11
159.8466893404
 21
108.8591353546
 31
0.0
 11
159.8675538911
 21
108.8625400779
 31
0.0
 11
159.8883307082
 21
108.8662315457
 31
0.0
 11
159.9090140227
 21
108.8702070481
 31
0.0
 11
159.9295981653
 21
108.8744637254
 31
0.0
 11
159.9500775718
 21
108.8789985718
 31
0.0
 11
159.9704467874
 21
108.8838084405
 31
0.0
 11
159.9907004707
 21
108.8888900479
 31
0.0
 11
160.0108333979
 21
108.8942399784
 31
0.0
 11
160.0308404668
 21
108.8998546897
 31
0.0
 11
160.0507166999
 21
108.9057305173
 31
0.0
 11
160.0704572483
 21
108.91186368
 31
0.0
 11
160.0900573943
 21
108.9182502853
 31
0.0
 11
160.1095125546
 21
108.9248863341
 31
0.0
 11
160.1288182826
 21
108.9317677267
 31
0.0
 11
160.1479702712
 21
108.9388902678
 31
0.0
 11
160.1669643543
 21
108.9462496723
 31
0.0
 11
160.1857965093
 21
108.9538415706
 31
0.0
 11
160.2044628585
 21
108.9616615144
 31
0.0
 11
160.2229596701
 21
108.9697049817
 31
0.0
 11
160.24128336
 21
108.9779673831
 31
0.0
 11
160.2594304925
 21
108.9864440667
 31
0.0
 11
160.2773977807
 21
108.995130324
 31
0.0
 11
160.2951820873
 21
109.0040213949
 31
0.0
 11
160.3127804248
 21
109.0131124738
 31
0.0
 11
160.3301899554
 21
109.0223987143
 31
0.0
 11
160.3474079907
 21
109.0318752349
 31
0.0
 11
160.364431992
 21
109.0415371241
 31
0.0
 11
160.3812595687
 21
109.0513794457
 31
0.0
 11
160.3978884782
 21
109.0613972435
 31
0.0
 11
160.4143166249
 21
109.0715855467
 31
0.0
 11
160.4305420589
 21
109.0819393745
 31
0.0
 11
160.4465629744
 21
109.092453741
 31
0.0
 11
160.4623777091
 21
109.1031236595
 31
0.0
 11
160.4779847414
 21
109.1139441476
 31
0.0
 11
160.4933826897
 21
109.124910231
 31
0.0
 11
160.5085703099
 21
109.1360169484
 31
0.0
 11
160.5235464933
 21
109.1472593549
 31
0.0
 11
160.5383102646
 21
109.1586325266
 31
0.0
 11
160.5528607799
 21
109.1701315641
 31
0.0
 11
160.5671973237
 21
109.1817515965
 31
0.0
 11
160.5813193069
 21
109.1934877846
 31
0.0
 11
160.5952262638
 21
109.2053353247
 31
0.0
 11
160.6089178499
 21
109.2172894517
 31
0.0
 11
160.6223938387
 21
109.2293454422
 31
0.0
 11
160.6356541192
 21
109.2414986174
 31
0.0
 11
160.6486986929
 21
109.2537443464
 31
0.0
 11
160.6615276708
 21
109.2660780481
 31
0.0
 11
160.6741412707
 21
109.2784951945
 31
0.0
 11
160.6865398136
 21
109.2909913127
 31
0.0
 11
160.6987237214
 21
109.303561987
 31
0.0
 11
160.7106935133
 21
109.3162028615
 31
0.0
 11
160.7224498029
 21
109.3289096416
 31
0.0
 11
160.733993295
 21
109.3416780959
 31
0.0
 11
160.7453247825
 21
109.3545040583
 31
0.0
 11
160.7564451434
 21
109.3673834288
 31
0.0
 11
160.7673553376
 21
109.3803121755
 31
0.0
 11
160.7780564036
 21
109.3932863359
 31
0.0
 11
160.7885494558
 21
109.4063020175
 31
0.0
 11
160.7988356811
 21
109.4193553994
 31
0.0
 11
160.8089163359
 21
109.432442733
 31
0.0
 11
160.8187927432
 21
109.4455603429
 31
0.0
 11
160.8284662894
 21
109.4587046271
 31
0.0
 11
160.8379384215
 21
109.4718720585
 31
0.0
 11
160.8472106442
 21
109.4850591844
 31
0.0
 11
160.8562845168
 21
109.4982626274
 31
0.0
 11
160.8651616505
 21
109.5114790858
 31
0.0
 11
160.8738437055
 21
109.5247053331
 31
0.0
 11
160.8823323884
 21
109.5379382189
 31
0.0
 11
160.8906294494
 21
109.5511746682
 31
0.0
 11
160.8987366796
 21
109.5644116819
 31
0.0
 11
160.9066559085
 21
109.5776463361
 31
0.0
 11
160.9143890013
 21
109.5908757821
 31
0.0
 11
160.9219378567
 21
109.6040972462
 31
0.0
 11
160.9293044042
 21
109.6173080291
 31
0.0
 11
160.9364906019
 21
109.6305055056
 31
0.0
 11
160.9434984339
 21
109.643687124
 31
0.0
 11
160.9503299087
 21
109.6568504054
 31
0.0
 11
160.9569870561
 21
109.6699929434
 31
0.0
 11
160.963471926
 21
109.6831124031
 31
0.0
 11
160.9697865856
 21
109.6962065207
 31
0.0
 11
160.975933118
 21
109.7092731023
 31
0.0
 11
160.9819136197
 21
109.7223100235
 31
0.0
 11
160.9877301992
 21
109.7353152283
 31
0.0
 11
160.9933849749
 21
109.7482867284
 31
0.0
 11
160.9988800735
 21
109.761222602
 31
0.0
 11
161.0042176284
 21
109.7741209932
 31
0.0
 11
161.0093997775
 21
109.7869801107
 31
0.0
 11
161.0144286627
 21
109.799798227
 31
0.0
 11
161.0193064271
 21
109.8125736775
 31
0.0
 11
161.0240352148
 21
109.825304859
 31
0.0
 11
161.0286171686
 21
109.8379902291
 31
0.0
 11
161.0330544291
 21
109.8506283049
 31
0.0
 11
161.0373491332
 21
109.863217662
 31
0.0
 11
161.0415034132
 21
109.8757569334
 31
0.0
 11
161.0455193952
 21
109.8882448083
 31
0.0
 11
161.0493991986
 21
109.900680031
 31
0.0
 11
161.0531449342
 21
109.9130614
 31
0.0
 11
161.0567587039
 21
109.9253877666
 31
0.0
 11
161.0602425996
 21
109.9376580338
 31
0.0
 11
161.0635987019
 21
109.9498711555
 31
0.0
 11
161.0668290798
 21
109.9620261349
 31
0.0
 11
161.0699357893
 21
109.9741220236
 31
0.0
 11
161.0729208732
 21
109.9861579208
 31
0.0
 11
161.0757863599
 21
109.9981329716
 31
0.0
 11
161.0785342631
 21
110.0100463662
 31
0.0
 11
161.0811665808
 21
110.0218973389
 31
0.0
 11
161.083685295
 21
110.0336851668
 31
0.0
 11
161.0860923709
 21
110.0454091688
 31
0.0
 11
161.0883897564
 21
110.0570687045
 31
0.0
 11
161.0905793819
 21
110.0686631734
 31
0.0
 11
161.0926631595
 21
110.0801920131
 31
0.0
  0
SPLINE
  5
29A
100
AcDbEntity
  8
0
100
AcDbSpline
 62
7
  6
CONTINUOUS
 70
4
 71
3
 72
8
 73
4
 74
65
 42
0.0000001
 43
0.0000001
 44
0.0000000001
 12
-12.8708578511
 22
-4.0051253484
 32
0.0
 13
-13.3539619462
 23
1.8362219956
 33
0.0
 40
0.0
 40
0.0
 40
0.0
 40
0.0
 40
1.0
 40
1.0
 40
1.0
 40
1.0
 10
174.5264127496
 20
111.1912198391
 30
0.0
 41
1.0
 10
170.1666013885
 20
109.8345432914
 30
0.0
 41
0.9840531149
 10
165.6161188361
 20
109.4581991662
 30
0.0
 41
0.9840531149
 10
161.0926631595
 20
110.0801920131
 30
0.0
 41
1.0
 11
174.5264127496
 21
111.1912198391
 31
0.0
 11
174.32501998
 21
111.1293007604
 31
0.0
 11
174.1230645732
 21
111.0687085058
 31
0.0
 11
173.9205595071
 21
111.0094501728
 31
0.0
 11
173.7175178735
 21
110.9515326911
 31
0.0
 11
173.5139528753
 21
110.8949628209
 31
0.0
 11
173.3098778234
 21
110.8397471504
 31
0.0
 11
173.1053061347
 21
110.785892094
 31
0.0
 11
172.9002513286
 21
110.7334038896
 31
0.0
 11
172.6947270244
 21
110.6822885976
 31
0.0
 11
172.4887469383
 21
110.6325520981
 31
0.0
 11
172.2823248806
 21
110.5842000894
 31
0.0
 11
172.0754747527
 21
110.5372380863
 31
0.0
 11
171.8682105436
 21
110.4916714179
 31
0.0
 11
171.6605463276
 21
110.4475052264
 31
0.0
 11
171.4524962604
 21
110.404744465
 31
0.0
 11
171.2440745765
 21
110.3633938968
 31
0.0
 11
171.0352955857
 21
110.3234580928
 31
0.0
 11
170.8261736701
 21
110.2849414307
 31
0.0
 11
170.6167232805
 21
110.2478480936
 31
0.0
 11
170.4069589336
 21
110.2121820685
 31
0.0
 11
170.1968952081
 21
110.1779471452
 31
0.0
 11
169.9865467418
 21
110.1451469148
 31
0.0
 11
169.775928228
 21
110.1137847691
 31
0.0
 11
169.5650544124
 21
110.083863899
 31
0.0
 11
169.353940089
 21
110.055387294
 31
0.0
 11
169.1426000974
 21
110.0283577409
 31
0.0
 11
168.9310493191
 21
110.0027778233
 31
0.0
 11
168.7193026736
 21
109.9786499204
 31
0.0
 11
168.5073751156
 21
109.9559762068
 31
0.0
 11
168.2952816308
 21
109.9347586517
 31
0.0
 11
168.0830372329
 21
109.9149990181
 31
0.0
 11
167.8706569598
 21
109.8966988626
 31
0.0
 11
167.65815587
 21
109.879859535
 31
0.0
 11
167.4455490394
 21
109.8644821777
 31
0.0
 11
167.2328515571
 21
109.8505677258
 31
0.0
 11
167.0200785225
 21
109.8381169067
 31
0.0
 11
166.8072450413
 21
109.82713024
 31
0.0
 11
166.5943662221
 21
109.8176080375
 31
0.0
 11
166.3814571727
 21
109.8095504031
 31
0.0
 11
166.1685329968
 21
109.8029572334
 31
0.0
 11
165.9556087901
 21
109.7978282172
 31
0.0
 11
165.742699637
 21
109.7941628362
 31
0.0
 11
165.5298206068
 21
109.7919603652
 31
0.0
 11
165.3169867504
 21
109.7912198725
 31
0.0
 11
165.1042130967
 21
109.7919402204
 31
0.0
 11
164.8915146491
 21
109.7941200657
 31
0.0
 11
164.6789063819
 21
109.7977578606
 31
0.0
 11
164.4664032368
 21
109.8028518528
 31
0.0
 11
164.2540201197
 21
109.8094000868
 31
0.0
 11
164.0417718968
 21
109.8174004045
 31
0.0
 11
163.8296733919
 21
109.8268504462
 31
0.0
 11
163.617739382
 21
109.8377476515
 31
0.0
 11
163.4059845949
 21
109.8500892603
 31
0.0
 11
163.1944237051
 21
109.8638723139
 31
0.0
 11
162.9830713312
 21
109.8790936564
 31
0.0
 11
162.7719420318
 21
109.8957499358
 31
0.0
 11
162.5610503029
 21
109.913837605
 31
0.0
 11
162.3504105743
 21
109.9333529237
 31
0.0
 11
162.1400372066
 21
109.9542919595
 31
0.0
 11
161.929944488
 21
109.9766505895
 31
0.0
 11
161.7201466312
 21
110.0004245018
 31
0.0
 11
161.51065777
 21
110.0256091971
 31
0.0
 11
161.3014919569
 21
110.0521999905
 31
0.0
 11
161.0926631595
 21
110.0801920131
 31
0.0
  0
LINE
  5
29B
100
AcDbEntity
  8
0
100
AcDbLine
 62
7
  6
CONTINUOUS
 10
176.8155495979
 20
111.1912198391
 11
174.5264127496
 21
111.1912198391
  0
LINE
  5
29C
100
AcDbEntity
  8
0
100
AcDbLine
 62
7
  6
CONTINUOUS
 10
176.8155495979
 20
108.1912198391
 11
176.8155495979
 21
111.1912198391
  0
LINE
  5
29D
100
AcDbEntity
  8
0
100
AcDbLine
 62
7
  6
CONTINUOUS
 10
176.8155495979
 20
108.1912198391
 11
176.3255495979
 21
103.7712198391
  0
LINE
  5
29E
100
AcDbEntity
  8
0
100
AcDbLine
 62
7
  6
CONTINUOUS
 10
176.3255495979
 20
103.7712198391
 11
174.8155495979
 21
103.5412198391
  0
LINE
  5
29F
100
AcDbEntity
  8
0
100
AcDbLine
 62
7
  6
CONTINUOUS
 10
174.8155495979
 20
103.5412198391
 11
174.4455495979
 21
104.1712198391
  0
LINE
  5
2A0
100
AcDbEntity
  8
0
100
AcDbLine
 62
7
  6
CONTINUOUS
 10
174.4455495979
 20
104.1712198391
 11
173.9455495979
 21
104.1712198391
  0
LINE
  5
2A1
100
AcDbEntity
  8
0
100
AcDbLine
 62
7
  6
CONTINUOUS
 10
173.9455495979
 20
104.1712198391
 11
172.8155495979
 21
103.5412198391
  0
LINE
  5
2A2
100
AcDbEntity
  8
0
100
AcDbLine
 62
7
  6
CONTINUOUS
 10
172.8155495979
 20
103.1712198391
 11
172.8155495979
 21
103.5412198391
  0
SPLINE
  5
2A3
100
AcDbEntity
  8
0
100
AcDbSpline
 62
7
  6
CONTINUOUS
 70
4
 71
3
 72
8
 73
4
 74
129
 42
0.0000001
 43
0.0000001
 44
0.0000000001
 12
1.3223820901
 22
3.0515882905
 32
0.0
 13
3.3257909566
 23
-0.0
 33
0.0
 40
0.0
 40
0.0
 40
0.0
 40
0.0
 40
1.0
 40
1.0
 40
1.0
 40
1.0
 10
170.0353650821
 20
101.3459912109
 30
0.0
 41
1.0
 10
170.5302882437
 20
102.4880981225
 30
0.0
 41
0.8906312417
 10
171.5708178463
 20
103.1712198391
 30
0.0
 41
0.8906312417
 10
172.8155495979
 20
103.1712198391
 30
0.0
 41
1.0
 11
170.0353650821
 21
101.3459912109
 31
0.0
 11
170.0458117384
 21
101.3698174909
 31
0.0
 11
170.0564898182
 21
101.3936132008
 31
0.0
 11
170.0673997799
 21
101.4173752286
 31
0.0
 11
170.0785420301
 21
101.441100439
 31
0.0
 11
170.089916923
 21
101.4647856749
 31
0.0
 11
170.1015247594
 21
101.4884277579
 31
0.0
 11
170.1133657862
 21
101.5120234896
 31
0.0
 11
170.1254401954
 21
101.5355696528
 31
0.0
 11
170.1377481235
 21
101.5590630125
 31
0.0
 11
170.1502896509
 21
101.5825003167
 31
0.0
 11
170.1630648008
 21
101.605878298
 31
0.0
 11
170.1760735391
 21
101.6291936747
 31
0.0
 11
170.1893157735
 21
101.6524431516
 31
0.0
 11
170.202791353
 21
101.6756234216
 31
0.0
 11
170.2165000671
 21
101.698731167
 31
0.0
 11
170.2304416455
 21
101.7217630605
 31
0.0
 11
170.2446157576
 21
101.7447157666
 31
0.0
 11
170.2590220121
 21
101.7675859428
 31
0.0
 11
170.273659956
 21
101.7903702412
 31
0.0
 11
170.2885290751
 21
101.8130653097
 31
0.0
 11
170.3036287928
 21
101.8356677932
 31
0.0
 11
170.3189584702
 21
101.8581743352
 31
0.0
 11
170.3345174059
 21
101.8805815791
 31
0.0
 11
170.3503048353
 21
101.9028861698
 31
0.0
 11
170.3663199306
 21
101.9250847547
 31
0.0
 11
170.3825618008
 21
101.9471739856
 31
0.0
 11
170.3990294912
 21
101.96915052
 31
0.0
 11
170.4157219835
 21
101.9910110224
 31
0.0
 11
170.4326381959
 21
102.012752166
 31
0.0
 11
170.4497769824
 21
102.034370634
 31
0.0
 11
170.4671371336
 21
102.0558631213
 31
0.0
 11
170.4847173763
 21
102.0772263358
 31
0.0
 11
170.5025163737
 21
102.098457
 31
0.0
 11
170.5205327254
 21
102.1195518525
 31
0.0
 11
170.5387649678
 21
102.1405076494
 31
0.0
 11
170.5572115742
 21
102.161321166
 31
0.0
 11
170.575870955
 21
102.1819891981
 31
0.0
 11
170.594741458
 21
102.2025085637
 31
0.0
 11
170.613821369
 21
102.2228761043
 31
0.0
 11
170.6331089118
 21
102.2430886866
 31
0.0
 11
170.6526022489
 21
102.2631432039
 31
0.0
 11
170.6722994818
 21
102.2830365773
 31
0.0
 11
170.6921986516
 21
102.3027657579
 31
0.0
 11
170.7122977395
 21
102.3223277274
 31
0.0
 11
170.7325946675
 21
102.3417195001
 31
0.0
 11
170.753087299
 21
102.3609381244
 31
0.0
 11
170.7737734394
 21
102.3799806836
 31
0.0
 11
170.7946508368
 21
102.3988442981
 31
0.0
 11
170.8157171829
 21
102.4175261261
 31
0.0
 11
170.8369701138
 21
102.4360233657
 31
0.0
 11
170.8584072107
 21
102.4543332554
 31
0.0
 11
170.8800260007
 21
102.472453076
 31
0.0
 11
170.9018239581
 21
102.490380152
 31
0.0
 11
170.923798505
 21
102.5081118525
 31
0.0
 11
170.9459470124
 21
102.5256455924
 31
0.0
 11
170.9682668014
 21
102.5429788341
 31
0.0
 11
170.9907551439
 21
102.5601090885
 31
0.0
 11
171.0134092639
 21
102.577033916
 31
0.0
 11
171.0362263389
 21
102.5937509277
 31
0.0
 11
171.0592035005
 21
102.6102577867
 31
0.0
 11
171.082337836
 21
102.626552209
 31
0.0
 11
171.1056263897
 21
102.6426319648
 31
0.0
 11
171.1290661637
 21
102.658494879
 31
0.0
 11
171.1526541195
 21
102.6741388328
 31
0.0
 11
171.1763871796
 21
102.6895617641
 31
0.0
 11
171.2002622282
 21
102.704761669
 31
0.0
 11
171.2242761129
 21
102.719736602
 31
0.0
 11
171.2484256462
 21
102.7344846772
 31
0.0
 11
171.2727076067
 21
102.7490040692
 31
0.0
 11
171.2971187406
 21
102.7632930135
 31
0.0
 11
171.3216557632
 21
102.7773498076
 31
0.0
 11
171.3463153603
 21
102.7911728114
 31
0.0
 11
171.3710941897
 21
102.8047604478
 31
0.0
 11
171.3959888828
 21
102.8181112034
 31
0.0
 11
171.4209960458
 21
102.8312236292
 31
0.0
 11
171.4461122617
 21
102.8440963406
 31
0.0
 11
171.4713340914
 21
102.8567280185
 31
0.0
 11
171.4966580757
 21
102.8691174092
 31
0.0
 11
171.5220807363
 21
102.881263325
 31
0.0
 11
171.5475985779
 21
102.8931646444
 31
0.0
 11
171.5732080893
 21
102.9048203125
 31
0.0
 11
171.5989057454
 21
102.9162293412
 31
0.0
 11
171.6246880085
 21
102.9273908093
 31
0.0
 11
171.65055133
 21
102.9383038629
 31
0.0
 11
171.6764921519
 21
102.9489677151
 31
0.0
 11
171.7025069085
 21
102.9593816464
 31
0.0
 11
171.7285920277
 21
102.9695450044
 31
0.0
 11
171.7547439329
 21
102.9794572043
 31
0.0
 11
171.7809590443
 21
102.9891177282
 31
0.0
 11
171.8072337809
 21
102.9985261253
 31
0.0
 11
171.8335645612
 21
103.0076820119
 31
0.0
 11
171.8599478056
 21
103.0165850707
 31
0.0
 11
171.8863799376
 21
103.025235051
 31
0.0
 11
171.912857385
 21
103.0336317685
 31
0.0
 11
171.939376582
 21
103.0417751043
 31
0.0
 11
171.9659339703
 21
103.0496650054
 31
0.0
 11
171.9925260004
 21
103.0573014838
 31
0.0
 11
172.0191491336
 21
103.0646846158
 31
0.0
 11
172.045799843
 21
103.0718145424
 31
0.0
 11
172.072474615
 21
103.0786914679
 31
0.0
 11
172.0991699507
 21
103.0853156598
 31
0.0
 11
172.1258823674
 21
103.091687448
 31
0.0
 11
172.1526083997
 21
103.0978072246
 31
0.0
 11
172.1793446011
 21
103.1036754425
 31
0.0
 11
172.2060875452
 21
103.1092926156
 31
0.0
 11
172.2328338267
 21
103.1146593173
 31
0.0
 11
172.259580063
 21
103.1197761801
 31
0.0
 11
172.2863228954
 21
103.1246438951
 31
0.0
 11
172.3130589901
 21
103.1292632105
 31
0.0
 11
172.3397850395
 21
103.1336349315
 31
0.0
 11
172.3664977632
 21
103.1377599189
 31
0.0
 11
172.3931939092
 21
103.1416390886
 31
0.0
 11
172.4198702551
 21
103.1452734102
 31
0.0
 11
172.446523609
 21
103.1486639067
 31
0.0
 11
172.4731508104
 21
103.1518116531
 31
0.0
 11
172.4997487314
 21
103.1547177756
 31
0.0
 11
172.5263142775
 21
103.1573834503
 31
0.0
 11
172.5528443886
 21
103.1598099029
 31
0.0
 11
172.5793360398
 21
103.1619984068
 31
0.0
 11
172.6057862425
 21
103.1639502828
 31
0.0
 11
172.6321920449
 21
103.1656668973
 31
0.0
 11
172.6585505327
 21
103.1671496621
 31
0.0
 11
172.6848588304
 21
103.1684000325
 31
0.0
 11
172.7111141014
 21
103.1694195068
 31
0.0
 11
172.7373135492
 21
103.1702096246
 31
0.0
 11
172.7634544176
 21
103.1707719665
 31
0.0
 11
172.7895339916
 21
103.171108152
 31
0.0
 11
172.8155495979
 21
103.1712198391
 31
0.0
  0
SPLINE
  5
2A4
100
AcDbEntity
  8
0
100
AcDbSpline
 62
7
  6
CONTINUOUS
 70
4
 71
3
 72
8
 73
4
 74
129
 42
0.0000001
 43
0.0000001
 44
0.0000000001
 12
-0.8728594654
 22
-2.0142496967
 32
0.0
 13
-2.1952415555
 23
-0.0
 33
0.0
 40
0.0
 40
0.0
 40
0.0
 40
0.0
 40
1.0
 40
1.0
 40
1.0
 40
1.0
 10
170.0353650821
 20
101.3459912109
 30
0.0
 41
1.0
 10
169.7086831272
 20
100.5921252627
 30
0.0
 41
0.8906312417
 10
169.0218649077
 20
100.1412198391
 30
0.0
 41
0.8906312417
 10
168.2002597911
 20
100.1412198391
 30
0.0
 41
1.0
 11
170.0353650821
 21
101.3459912109
 31
0.0
 11
170.0284695994
 21
101.3302642935
 31
0.0
 11
170.0214213619
 21
101.3145575542
 31
0.0
 11
170.014220067
 21
101.2988730474
 31
0.0
 11
170.0068654464
 21
101.2832128425
 31
0.0
 11
169.9993572663
 21
101.2675790235
 31
0.0
 11
169.9916953281
 21
101.2519736882
 31
0.0
 11
169.9838794688
 21
101.2363989478
 31
0.0
 11
169.9759095617
 21
101.2208569258
 31
0.0
 11
169.9677855168
 21
101.2053497577
 31
0.0
 11
169.9595072809
 21
101.1898795899
 31
0.0
 11
169.9510748387
 21
101.1744485791
 31
0.0
 11
169.9424882128
 21
101.1590588916
 31
0.0
 11
169.933747464
 21
101.1437127022
 31
0.0
 11
169.924852692
 21
101.128412194
 31
0.0
 11
169.9158040359
 21
101.1131595567
 31
0.0
 11
169.9066016739
 21
101.0979569868
 31
0.0
 11
169.8972458243
 21
101.0828066857
 31
0.0
 11
169.8877367455
 21
101.0677108598
 31
0.0
 11
169.8780747362
 21
101.052671719
 31
0.0
 11
169.8682601362
 21
101.0376914757
 31
0.0
 11
169.8582933258
 21
101.0227723447
 31
0.0
 11
169.8481747269
 21
101.0079165414
 31
0.0
 11
169.8379048023
 21
100.9931262814
 31
0.0
 11
169.8274840569
 21
100.9784037793
 31
0.0
 11
169.8169130369
 21
100.963751248
 31
0.0
 11
169.8061923305
 21
100.9491708976
 31
0.0
 11
169.7953225678
 21
100.9346649343
 31
0.0
 11
169.7843044211
 21
100.9202355598
 31
0.0
 11
169.7731386043
 21
100.90588497
 31
0.0
 11
169.7618258739
 21
100.8916153541
 31
0.0
 11
169.7503670283
 21
100.8774288938
 31
0.0
 11
169.7387629077
 21
100.8633277621
 31
0.0
 11
169.7270143945
 21
100.8493141224
 31
0.0
 11
169.7151224132
 21
100.8353901274
 31
0.0
 11
169.7030879298
 21
100.8215579182
 31
0.0
 11
169.690911952
 21
100.8078196234
 31
0.0
 11
169.678595529
 21
100.794177358
 31
0.0
 11
169.6661397514
 21
100.7806332223
 31
0.0
 11
169.6535457508
 21
100.7671893011
 31
0.0
 11
169.6408146994
 21
100.7538476626
 31
0.0
 11
169.6279478102
 21
100.7406103575
 31
0.0
 11
169.6149463364
 21
100.7274794179
 31
0.0
 11
169.6018115709
 21
100.7144568565
 31
0.0
 11
169.5885448462
 21
100.7015446654
 31
0.0
 11
169.575147534
 21
100.6887448154
 31
0.0
 11
169.5616210445
 21
100.6760592548
 31
0.0
 11
169.5479668264
 21
100.6634899088
 31
0.0
 11
169.5341863661
 21
100.6510386781
 31
0.0
 11
169.5202811871
 21
100.6387074385
 31
0.0
 11
169.5062528499
 21
100.6264980395
 31
0.0
 11
169.492102951
 21
100.6144123037
 31
0.0
 11
169.4778331226
 21
100.602452026
 31
0.0
 11
169.4634450319
 21
100.5906189725
 31
0.0
 11
169.4489403805
 21
100.5789148799
 31
0.0
 11
169.4343209036
 21
100.5673414542
 31
0.0
 11
169.4195883697
 21
100.5559003705
 31
0.0
 11
169.4047445792
 21
100.5445932719
 31
0.0
 11
169.3897913647
 21
100.5334217686
 31
0.0
 11
169.3747305891
 21
100.5223874375
 31
0.0
 11
169.3595641458
 21
100.511491821
 31
0.0
 11
169.3442939574
 21
100.5007364267
 31
0.0
 11
169.3289219748
 21
100.4901227265
 31
0.0
 11
169.3134501768
 21
100.4796521561
 31
0.0
 11
169.2978805689
 21
100.469326114
 31
0.0
 11
169.2822151827
 21
100.4591459613
 31
0.0
 11
169.2664560747
 21
100.4491130208
 31
0.0
 11
169.2506053258
 21
100.4392285766
 31
0.0
 11
169.2346650398
 21
100.4294938734
 31
0.0
 11
169.2186373431
 21
100.4199101164
 31
0.0
 11
169.2025243834
 21
100.4104784699
 31
0.0
 11
169.1863283289
 21
100.401200058
 31
0.0
 11
169.1700513671
 21
100.3920759631
 31
0.0
 11
169.1536957041
 21
100.3831072262
 31
0.0
 11
169.1372635635
 21
100.3742948462
 31
0.0
 11
169.1207571853
 21
100.3656397797
 31
0.0
 11
169.1041788249
 21
100.3571429405
 31
0.0
 11
169.0875307525
 21
100.3488051993
 31
0.0
 11
169.0708152513
 21
100.3406273836
 31
0.0
 11
169.0540346172
 21
100.3326102775
 31
0.0
 11
169.0371911575
 21
100.3247546212
 31
0.0
 11
169.0202871895
 21
100.3170611109
 31
0.0
 11
169.0033250403
 21
100.3095303989
 31
0.0
 11
168.9863070448
 21
100.3021630932
 31
0.0
 11
168.9692355455
 21
100.2949597575
 31
0.0
 11
168.9521128908
 21
100.2879209111
 31
0.0
 11
168.9349414343
 21
100.2810470291
 31
0.0
 11
168.9177235338
 21
100.2743385419
 31
0.0
 11
168.9004615502
 21
100.2677958357
 31
0.0
 11
168.8831578463
 21
100.2614192523
 31
0.0
 11
168.8658147859
 21
100.2552090892
 31
0.0
 11
168.8484347328
 21
100.2491655997
 31
0.0
 11
168.83102005
 21
100.2432889933
 31
0.0
 11
168.8135730983
 21
100.2375794353
 31
0.0
 11
168.7960962353
 21
100.2320370475
 31
0.0
 11
168.7785918148
 21
100.2266619083
 31
0.0
 11
168.7610621856
 21
100.2214540528
 31
0.0
 11
168.7435096904
 21
100.2164134731
 31
0.0
 11
168.7259366652
 21
100.2115401186
 31
0.0
 11
168.7083454379
 21
100.2068338964
 31
0.0
 11
168.6907383277
 21
100.2022946716
 31
0.0
 11
168.6731176441
 21
100.1979222678
 31
0.0
 11
168.6554856859
 21
100.1937164669
 31
0.0
 11
168.6378447404
 21
100.1896770105
 31
0.0
 11
168.6201970827
 21
100.1858035993
 31
0.0
 11
168.6025449744
 21
100.1820958943
 31
0.0
 11
168.5848906632
 21
100.178553517
 31
0.0
 11
168.5672363818
 21
100.1751760497
 31
0.0
 11
168.5495843472
 21
100.1719630366
 31
0.0
 11
168.5319367599
 21
100.1689139835
 31
0.0
 11
168.5142958033
 21
100.166028359
 31
0.0
 11
168.4966636424
 21
100.1633055951
 31
0.0
 11
168.4790424239
 21
100.1607450871
 31
0.0
 11
168.4614342748
 21
100.1583461949
 31
0.0
 11
168.4438413019
 21
100.1561082434
 31
0.0
 11
168.4262655914
 21
100.154030523
 31
0.0
 11
168.4087092079
 21
100.1521122904
 31
0.0
 11
168.391174194
 21
100.1503527691
 31
0.0
 11
168.3736625695
 21
100.1487511502
 31
0.0
 11
168.3561763311
 21
100.1473065931
 31
0.0
 11
168.3387174514
 21
100.1460182262
 31
0.0
 11
168.3212878789
 21
100.1448851473
 31
0.0
 11
168.3038895371
 21
100.1439064246
 31
0.0
 11
168.2865243241
 21
100.1430810976
 31
0.0
 11
168.2691941122
 21
100.1424081773
 31
0.0
 11
168.2519007474
 21
100.1418866474
 31
0.0
 11
168.2346460487
 21
100.1415154647
 31
0.0
 11
168.2174318085
 21
100.14129356
 31
0.0
 11
168.2002597911
 21
100.1412198391
 31
0.0
  0
LINE
  5
2A5
100
AcDbEntity
  8
0
100
AcDbLine
 62
7
  6
CONTINUOUS
 10
156.8155495979
 20
100.1412198391
 11
168.2002597911
 21
100.1412198391
  0
SPLINE
  5
2A6
100
AcDbEntity
  8
0
100
AcDbSpline
 62
7
  6
CONTINUOUS
 70
4
 71
3
 72
8
 73
4
 74
129
 42
0.0000001
 43
0.0000001
 44
0.0000000001
 12
-2.8284271247
 22
0.0
 32
0.0
 13
0.0
 23
-2.8284271247
 33
0.0
 40
0.0
 40
0.0
 40
0.0
 40
0.0
 40
1.0
 40
1.0
 40
1.0
 40
1.0
 10
156.8155495979
 20
100.1412198391
 30
0.0
 41
1.0
 10
155.6439767226
 20
100.1412198391
 30
0.0
 41
0.8047378541
 10
154.8155495979
 20
99.3127927144
 30
0.0
 41
0.8047378541
 10
154.8155495979
 20
98.1412198391
 30
0.0
 41
1.0
 11
156.8155495979
 21
100.1412198391
 31
0.0
 11
156.7934025108
 21
100.141097212
 31
0.0
 11
156.7711577103
 21
100.1407271185
 31
0.0
 11
156.7488187054
 21
100.1401062761
 31
0.0
 11
156.7263891096
 21
100.1392314526
 31
0.0
 11
156.7038726403
 21
100.1380994693
 31
0.0
 11
156.6812731191
 21
100.136707205
 31
0.0
 11
156.6585944706
 21
100.1350515994
 31
0.0
 11
156.6358407221
 21
100.1331296564
 31
0.0
 11
156.6130160025
 21
100.1309384481
 31
0.0
 11
156.5901245419
 21
100.1284751182
 31
0.0
 11
156.5671706697
 21
100.1257368857
 31
0.0
 11
156.5441588143
 21
100.1227210485
 31
0.0
 11
156.521093501
 21
100.119424987
 31
0.0
 11
156.4979793508
 21
100.1158461679
 31
0.0
 11
156.474821079
 21
100.1119821476
 31
0.0
 11
156.451623493
 21
100.107830576
 31
0.0
 11
156.4283914906
 21
100.1033891998
 31
0.0
 11
156.4051300578
 21
100.0986558665
 31
0.0
 11
156.3818442667
 21
100.0936285273
 31
0.0
 11
156.358539273
 21
100.0883052412
 31
0.0
 11
156.3352203136
 21
100.0826841779
 31
0.0
 11
156.3118927036
 21
100.0767636213
 31
0.0
 11
156.2885618339
 21
100.0705419731
 31
0.0
 11
156.2652331682
 21
100.0640177555
 31
0.0
 11
156.2419122393
 21
100.0571896147
 31
0.0
 11
156.2186046468
 21
100.0500563239
 31
0.0
 11
156.1953160526
 21
100.042616786
 31
0.0
 11
156.1720521784
 21
100.0348700368
 31
0.0
 11
156.1488188014
 21
100.0268152478
 31
0.0
 11
156.1256217504
 21
100.0184517282
 31
0.0
 11
156.1024669026
 21
100.0097789283
 31
0.0
 11
156.0793601787
 21
100.0007964413
 31
0.0
 11
156.0563075393
 21
99.9915040055
 31
0.0
 11
156.0333149801
 21
99.9819015071
 31
0.0
 11
156.0103885281
 21
99.9719889813
 31
0.0
 11
155.9875342368
 21
99.9617666147
 31
0.0
 11
155.9647581813
 21
99.9512347467
 31
0.0
 11
155.9420664541
 21
99.9403938712
 31
0.0
 11
155.9194651601
 21
99.9292446378
 31
0.0
 11
155.8969604117
 21
99.9177878528
 31
0.0
 11
155.874558324
 21
99.9060244806
 31
0.0
 11
155.8522650096
 21
99.8939556441
 31
0.0
 11
155.8300865738
 21
99.8815826255
 31
0.0
 11
155.8080291092
 21
99.8689068666
 31
0.0
 11
155.786098691
 21
99.8559299693
 31
0.0
 11
155.7643013713
 21
99.8426536951
 31
0.0
 11
155.7426431743
 21
99.8290799656
 31
0.0
 11
155.7211300911
 21
99.8152108616
 31
0.0
 11
155.699768074
 21
99.8010486228
 31
0.0
 11
155.678563032
 21
99.786595647
 31
0.0
 11
155.6575208249
 21
99.7718544889
 31
0.0
 11
155.6366472588
 21
99.7568278594
 31
0.0
 11
155.6159480804
 21
99.7415186236
 31
0.0
 11
155.5954289723
 21
99.7259297997
 31
0.0
 11
155.5750955476
 21
99.7100645571
 31
0.0
 11
155.5549533451
 21
99.6939262143
 31
0.0
 11
155.5350078244
 21
99.6775182367
 31
0.0
 11
155.515264361
 21
99.6608442344
 31
0.0
 11
155.4957282415
 21
99.6439079596
 31
0.0
 11
155.4764046591
 21
99.6267133036
 31
0.0
 11
155.4572987087
 21
99.6092642942
 31
0.0
 11
155.4384153827
 21
99.5915650924
 31
0.0
 11
155.4197595668
 21
99.573619989
 31
0.0
 11
155.4013360355
 21
99.5554334015
 31
0.0
 11
155.383149448
 21
99.5370098702
 31
0.0
 11
155.3652043446
 21
99.5183540543
 31
0.0
 11
155.3475051428
 21
99.4994707283
 31
0.0
 11
155.3300561334
 21
99.4803647779
 31
0.0
 11
155.3128614774
 21
99.4610411955
 31
0.0
 11
155.2959252026
 21
99.441505076
 31
0.0
 11
155.2792512003
 21
99.4217616126
 31
0.0
 11
155.2628432227
 21
99.4018160919
 31
0.0
 11
155.2467048799
 21
99.3816738894
 31
0.0
 11
155.2308396373
 21
99.3613404647
 31
0.0
 11
155.2152508134
 21
99.3408213565
 31
0.0
 11
155.1999415776
 21
99.3201221782
 31
0.0
 11
155.1849149481
 21
99.2992486121
 31
0.0
 11
155.17017379
 21
99.278206405
 31
0.0
 11
155.1557208142
 21
99.257001363
 31
0.0
 11
155.1415585754
 21
99.2356393459
 31
0.0
 11
155.1276894714
 21
99.2141262626
 31
0.0
 11
155.1141157419
 21
99.1924680657
 31
0.0
 11
155.1008394677
 21
99.170670746
 31
0.0
 11
155.0878625704
 21
99.1487403278
 31
0.0
 11
155.0751868115
 21
99.1266828632
 31
0.0
 11
155.0628137929
 21
99.1045044274
 31
0.0
 11
155.0507449564
 21
99.082211113
 31
0.0
 11
155.0389815842
 21
99.0598090253
 31
0.0
 11
155.0275247992
 21
99.0373042769
 31
0.0
 11
155.0163755658
 21
99.0147029829
 31
0.0
 11
155.0055346903
 21
98.9920112557
 31
0.0
 11
154.9950028223
 21
98.9692352002
 31
0.0
 11
154.9847804557
 21
98.9463809089
 31
0.0
 11
154.9748679299
 21
98.9234544569
 31
0.0
 11
154.9652654314
 21
98.9004618977
 31
0.0
 11
154.9559729957
 21
98.8774092583
 31
0.0
 11
154.9469905087
 21
98.8543025344
 31
0.0
 11
154.9383177088
 21
98.8311476866
 31
0.0
 11
154.9299541892
 21
98.8079506356
 31
0.0
 11
154.9218994002
 21
98.7847172586
 31
0.0
 11
154.914152651
 21
98.7614533844
 31
0.0
 11
154.9067131131
 21
98.7381647902
 31
0.0
 11
154.8995798223
 21
98.7148571977
 31
0.0
 11
154.8927516815
 21
98.6915362688
 31
0.0
 11
154.8862274639
 21
98.6682076031
 31
0.0
 11
154.8800058157
 21
98.6448767334
 31
0.0
 11
154.8740852591
 21
98.6215491234
 31
0.0
 11
154.8684641958
 21
98.598230164
 31
0.0
 11
154.8631409097
 21
98.5749251703
 31
0.0
 11
154.8581135705
 21
98.5516393792
 31
0.0
 11
154.8533802372
 21
98.5283779464
 31
0.0
 11
154.848938861
 21
98.505145944
 31
0.0
 11
154.8447872894
 21
98.481948358
 31
0.0
 11
154.8409232691
 21
98.4587900862
 31
0.0
 11
154.83734445
 21
98.435675936
 31
0.0
 11
154.8340483885
 21
98.4126106227
 31
0.0
 11
154.8310325513
 21
98.3895987673
 31
0.0
 11
154.8282943188
 21
98.3666448951
 31
0.0
 11
154.8258309889
 21
98.3437534345
 31
0.0
 11
154.8236397806
 21
98.3209287149
 31
0.0
 11
154.8217178376
 21
98.2981749664
 31
0.0
 11
154.820062232
 21
98.2754963179
 31
0.0
 11
154.8186699677
 21
98.2528967967
 31
0.0
 11
154.8175379844
 21
98.2303803274
 31
0.0
 11
154.8166631609
 21
98.2079507315
 31
0.0
 11
154.8160423185
 21
98.1856117267
 31
0.0
 11
154.815672225
 21
98.1633669262
 31
0.0
 11
154.8155495979
 21
98.1412198391
 31
0.0
  0
LINE
  5
2A7
100
AcDbEntity
  8
0
100
AcDbLine
 62
7
  6
CONTINUOUS
 10
154.8155495979
 20
82.8912198391
 11
154.8155495979
 21
98.1412198391
  0
LINE
  5
2A8
100
AcDbEntity
  8
0
100
AcDbLine
 62
7
  6
CONTINUOUS
 10
154.7655495979
 20
82.8912198391
 11
154.8155495979
 21
82.8912198391
  0
LINE
  5
2A9
100
AcDbEntity
  8
0
100
AcDbLine
 62
7
  6
CONTINUOUS
 10
154.7655495979
 20
72.8912198391
 11
154.7655495979
 21
82.8912198391
  0
LINE
  5
2AA
100
AcDbEntity
  8
0
100
AcDbLine
 62
7
  6
CONTINUOUS
 10
154.7655495979
 20
72.8912198391
 11
154.8155495979
 21
72.8912198391
  0
LINE
  5
2AB
100
AcDbEntity
  8
0
100
AcDbLine
 62
7
  6
CONTINUOUS
 10
154.8155495979
 20
68.2912198391
 11
154.8155495979
 21
72.8912198391
  0
SPLINE
  5
2AC
100
AcDbEntity
  8
0
100
AcDbSpline
 62
7
  6
CONTINUOUS
 70
4
 71
3
 72
8
 73
4
 74
129
 42
0.0000001
 43
0.0000001
 44
0.0000000001
 12
-1.4142135624
 22
0.0
 32
0.0
 13
-0.0
 23
1.4142135624
 33
0.0
 40
0.0
 40
0.0
 40
0.0
 40
0.0
 40
1.0
 40
1.0
 40
1.0
 40
1.0
 10
155.8155495979
 20
67.2912198391
 30
0.0
 41
1.0
 10
155.2297631602
 20
67.2912198391
 30
0.0
 41
0.8047378541
 10
154.8155495979
 20
67.7054334015
 30
0.0
 41
0.8047378541
 10
154.8155495979
 20
68.2912198391
 30
0.0
 41
1.0
 11
155.8155495979
 21
67.2912198391
 31
0.0
 11
155.8044760543
 21
67.2912811527
 31
0.0
 11
155.7933536541
 21
67.2914661994
 31
0.0
 11
155.7821841517
 21
67.2917766206
 31
0.0
 11
155.7709693537
 21
67.2922140324
 31
0.0
 11
155.7597111191
 21
67.2927800241
 31
0.0
 11
155.7484113585
 21
67.2934761562
 31
0.0
 11
155.7370720342
 21
67.294303959
 31
0.0
 11
155.72569516
 21
67.2952649305
 31
0.0
 11
155.7142828002
 21
67.2963605347
 31
0.0
 11
155.7028370699
 21
67.2975921996
 31
0.0
 11
155.6913601338
 21
67.2989613159
 31
0.0
 11
155.6798542061
 21
67.3004692345
 31
0.0
 11
155.6683215494
 21
67.3021172652
 31
0.0
 11
155.6567644743
 21
67.3039066748
 31
0.0
 11
155.6451853384
 21
67.3058386849
 31
0.0
 11
155.6335865454
 21
67.3079144707
 31
0.0
 11
155.6219705442
 21
67.3101351588
 31
0.0
 11
155.6103398278
 21
67.3125018255
 31
0.0
 11
155.5986969323
 21
67.315015495
 31
0.0
 11
155.5870444354
 21
67.3176771381
 31
0.0
 11
155.5753849557
 21
67.3204876698
 31
0.0
 11
155.5637211507
 21
67.323447948
 31
0.0
 11
155.5520557159
 21
67.3265587722
 31
0.0
 11
155.540391383
 21
67.329820881
 31
0.0
 11
155.5287309186
 21
67.3332349514
 31
0.0
 11
155.5170771223
 21
67.3368015968
 31
0.0
 11
155.5054328252
 21
67.3405213657
 31
0.0
 11
155.4938008881
 21
67.3443947403
 31
0.0
 11
155.4821841996
 21
67.3484221348
 31
0.0
 11
155.4705856741
 21
67.3526038946
 31
0.0
 11
155.4590082502
 21
67.3569402946
 31
0.0
 11
155.4474548883
 21
67.3614315381
 31
0.0
 11
155.4359285686
 21
67.3660777559
 31
0.0
 11
155.424432289
 21
67.3708790052
 31
0.0
 11
155.412969063
 21
67.3758352681
 31
0.0
 11
155.4015419173
 21
67.3809464514
 31
0.0
 11
155.3901538896
 21
67.3862123854
 31
0.0
 11
155.378808026
 21
67.3916328231
 31
0.0
 11
155.367507379
 21
67.3972074398
 31
0.0
 11
155.3562550048
 21
67.4029358323
 31
0.0
 11
155.3450539609
 21
67.4088175184
 31
0.0
 11
155.3339073037
 21
67.4148519367
 31
0.0
 11
155.3228180858
 21
67.421038446
 31
0.0
 11
155.3117893535
 21
67.4273763254
 31
0.0
 11
155.3008241444
 21
67.4338647741
 31
0.0
 11
155.2899254846
 21
67.4405029112
 31
0.0
 11
155.2790963861
 21
67.4472897759
 31
0.0
 11
155.2683398445
 21
67.4542243279
 31
0.0
 11
155.2576588359
 21
67.4613054473
 31
0.0
 11
155.2470563149
 21
67.4685319352
 31
0.0
 11
155.2365352114
 21
67.4759025143
 31
0.0
 11
155.2260984283
 21
67.483415829
 31
0.0
 11
155.2157488392
 21
67.4910704469
 31
0.0
 11
155.2054892851
 21
67.4988648589
 31
0.0
 11
155.1953225727
 21
67.5067974802
 31
0.0
 11
155.1852514715
 21
67.5148666516
 31
0.0
 11
155.1752787111
 21
67.5230706404
 31
0.0
 11
155.1654069794
 21
67.5314076415
 31
0.0
 11
155.1556389197
 21
67.5398757789
 31
0.0
 11
155.1459771285
 21
67.5484731069
 31
0.0
 11
155.1364241533
 21
67.5571976116
 31
0.0
 11
155.1269824903
 21
67.5660472125
 31
0.0
 11
155.1176545823
 21
67.5750197642
 31
0.0
 11
155.1084428167
 21
67.584113058
 31
0.0
 11
155.0993495229
 21
67.5933248236
 31
0.0
 11
155.0903769713
 21
67.6026527316
 31
0.0
 11
155.0815273703
 21
67.6120943945
 31
0.0
 11
155.0728028656
 21
67.6216473697
 31
0.0
 11
155.0642055376
 21
67.631309161
 31
0.0
 11
155.0557374002
 21
67.6410772207
 31
0.0
 11
155.0474003991
 21
67.6509489524
 31
0.0
 11
155.0391964103
 21
67.6609217127
 31
0.0
 11
155.0311272389
 21
67.670992814
 31
0.0
 11
155.0231946176
 21
67.6811595264
 31
0.0
 11
155.0154002056
 21
67.6914190804
 31
0.0
 11
155.0077455877
 21
67.7017686696
 31
0.0
 11
155.000232273
 21
67.7122054527
 31
0.0
 11
154.9928616939
 21
67.7227265562
 31
0.0
 11
154.985635206
 21
67.7333290772
 31
0.0
 11
154.9785540866
 21
67.7440100858
 31
0.0
 11
154.9716195346
 21
67.7547666274
 31
0.0
 11
154.9648326699
 21
67.7655957259
 31
0.0
 11
154.9581945328
 21
67.7764943857
 31
0.0
 11
154.9517060841
 21
67.7874595948
 31
0.0
 11
154.9453682047
 21
67.7984883271
 31
0.0
 11
154.9391816954
 21
67.809577545
 31
0.0
 11
154.9331472771
 21
67.8207242022
 31
0.0
 11
154.927265591
 21
67.8319252461
 31
0.0
 11
154.9215371985
 21
67.8431776203
 31
0.0
 11
154.9159625818
 21
67.8544782673
 31
0.0
 11
154.9105421441
 21
67.8658241309
 31
0.0
 11
154.9052762101
 21
67.8772121586
 31
0.0
 11
154.9001650268
 21
67.8886393043
 31
0.0
 11
154.8952087639
 21
67.9001025303
 31
0.0
 11
154.8904075147
 21
67.9115988098
 31
0.0
 11
154.8857612968
 21
67.9231251296
 31
0.0
 11
154.8812700533
 21
67.9346784915
 31
0.0
 11
154.8769336533
 21
67.9462559154
 31
0.0
 11
154.8727518935
 21
67.9578544409
 31
0.0
 11
154.868724499
 21
67.9694711294
 31
0.0
 11
154.8648511244
 21
67.9811030665
 31
0.0
 11
154.8611313555
 21
67.9927473636
 31
0.0
 11
154.8575647101
 21
68.0044011599
 31
0.0
 11
154.8541506397
 21
68.0160616243
 31
0.0
 11
154.8508885309
 21
68.0277259572
 31
0.0
 11
154.8477777068
 21
68.039391392
 31
0.0
 11
154.8448174285
 21
68.051055197
 31
0.0
 11
154.8420068968
 21
68.0627146767
 31
0.0
 11
154.8393452538
 21
68.0743671736
 31
0.0
 11
154.8368315842
 21
68.0860100691
 31
0.0
 11
154.8344649175
 21
68.0976407855
 31
0.0
 11
154.8322442294
 21
68.1092567867
 31
0.0
 11
154.8301684436
 21
68.1208555797
 31
0.0
 11
154.8282364335
 21
68.1324347156
 31
0.0
 11
154.8264470239
 21
68.1439917907
 31
0.0
 11
154.8247989932
 21
68.1555244474
 31
0.0
 11
154.8232910746
 21
68.1670303751
 31
0.0
 11
154.8219219583
 21
68.1785073112
 31
0.0
 11
154.8206902934
 21
68.1899530415
 31
0.0
 11
154.8195946892
 21
68.2013654012
 31
0.0
 11
154.8186337178
 21
68.2127422755
 31
0.0
 11
154.8178059149
 21
68.2240815998
 31
0.0
 11
154.8171097828
 21
68.2353813604
 31
0.0
 11
154.8165437911
 21
68.246639595
 31
0.0
 11
154.8161063794
 21
68.2578543929
 31
0.0
 11
154.8157959582
 21
68.2690238954
 31
0.0
 11
154.8156109114
 21
68.2801462956
 31
0.0
 11
154.8155495979
 21
68.2912198391
 31
0.0
  0
LINE
  5
2AD
100
AcDbEntity
  8
0
100
AcDbLine
 62
7
  6
CONTINUOUS
 10
155.8155495979
 20
67.2912198391
 11
157.8155495979
 21
67.2912198391
  0
SPLINE
  5
2AE
100
AcDbEntity
  8
0
100
AcDbSpline
 62
7
  6
CONTINUOUS
 70
4
 71
3
 72
8
 73
4
 74
129
 42
0.0000001
 43
0.0000001
 44
0.0000000001
 12
2.1213203436
 22
0.0
 32
0.0
 13
0.0
 23
-2.1213203436
 33
0.0
 40
0.0
 40
0.0
 40
0.0
 40
0.0
 40
1.0
 40
1.0
 40
1.0
 40
1.0
 10
157.8155495979
 20
67.2912198391
 30
0.0
 41
1.0
 10
158.6942292543
 20
67.2912198391
 30
0.0
 41
0.8047378541
 10
159.3155495979
 20
66.6698994956
 30
0.0
 41
0.8047378541
 10
159.3155495979
 20
65.7912198391
 30
0.0
 41
1.0
 11
157.8155495979
 21
67.2912198391
 31
0.0
 11
157.8321599132
 21
67.2911278688
 31
0.0
 11
157.8488435135
 21
67.2908502987
 31
0.0
 11
157.8655977672
 21
67.2903846669
 31
0.0
 11
157.8824199641
 21
67.2897285492
 31
0.0
 11
157.899307316
 21
67.2888795617
 31
0.0
 11
157.9162569569
 21
67.2878353635
 31
0.0
 11
157.9332659433
 21
67.2865936593
 31
0.0
 11
157.9503312547
 21
67.2851522021
 31
0.0
 11
157.9674497943
 21
67.2835087958
 31
0.0
 11
157.9846183898
 21
67.2816612984
 31
0.0
 11
158.0018337939
 21
67.2796076241
 31
0.0
 11
158.0190926855
 21
67.2773457461
 31
0.0
 11
158.0363916705
 21
67.2748737
 31
0.0
 11
158.0537272831
 21
67.2721895857
 31
0.0
 11
158.071095987
 21
67.2692915705
 31
0.0
 11
158.0884941765
 21
67.2661778918
 31
0.0
 11
158.1059181783
 21
67.2628468597
 31
0.0
 11
158.1233642529
 21
67.2592968597
 31
0.0
 11
158.1408285962
 21
67.2555263553
 31
0.0
 11
158.1583073415
 21
67.2515338907
 31
0.0
 11
158.1757965611
 21
67.2473180932
 31
0.0
 11
158.1932922686
 21
67.2428776758
 31
0.0
 11
158.2107904208
 21
67.2382114396
 31
0.0
 11
158.2282869201
 21
67.2333182764
 31
0.0
 11
158.2457776167
 21
67.2281971708
 31
0.0
 11
158.2632583112
 21
67.2228472027
 31
0.0
 11
158.2807247568
 21
67.2172675493
 31
0.0
 11
158.2981726624
 21
67.2114574874
 31
0.0
 11
158.3155976952
 21
67.2054163956
 31
0.0
 11
158.3329954834
 21
67.1991437559
 31
0.0
 11
158.3503616193
 21
67.192639156
 31
0.0
 11
158.3676916622
 21
67.1859022907
 31
0.0
 11
158.3849811418
 21
67.1789329639
 31
0.0
 11
158.4022255612
 21
67.1717310901
 31
0.0
 11
158.4194204001
 21
67.1642966957
 31
0.0
 11
158.4365611187
 21
67.1566299208
 31
0.0
 11
158.4536431603
 21
67.1487310198
 31
0.0
 11
158.4706619557
 21
67.1406003632
 31
0.0
 11
158.4876129262
 21
67.1322384381
 31
0.0
 11
158.5044914874
 21
67.1236458494
 31
0.0
 11
158.5212930532
 21
67.1148233202
 31
0.0
 11
158.538013039
 21
67.1057716929
 31
0.0
 11
158.5546468659
 21
67.0964919289
 31
0.0
 11
158.5711899643
 21
67.0869851098
 31
0.0
 11
158.587637778
 21
67.0772524367
 31
0.0
 11
158.6039857678
 21
67.0672952311
 31
0.0
 11
158.6202294155
 21
67.057114934
 31
0.0
 11
158.6363642279
 21
67.046713106
 31
0.0
 11
158.6523857407
 21
67.0360914269
 31
0.0
 11
158.6682895223
 21
67.025251695
 31
0.0
 11
158.6840711776
 21
67.0141958265
 31
0.0
 11
158.6997263521
 21
67.0029258543
 31
0.0
 11
158.7152507359
 21
66.9914439275
 31
0.0
 11
158.730640067
 21
66.9797523096
 31
0.0
 11
158.7458901356
 21
66.9678533776
 31
0.0
 11
158.7609967875
 21
66.9557496205
 31
0.0
 11
158.775955928
 21
66.9434436373
 31
0.0
 11
158.7907635255
 21
66.9309381356
 31
0.0
 11
158.8054156151
 21
66.9182359295
 31
0.0
 11
158.8199083019
 21
66.9053399375
 31
0.0
 11
158.8342377648
 21
66.8922531804
 31
0.0
 11
158.8484002592
 21
66.878978779
 31
0.0
 11
158.8623921211
 21
66.8655199515
 31
0.0
 11
158.8762097696
 21
66.8518800109
 31
0.0
 11
158.8898497102
 21
66.8380623624
 31
0.0
 11
158.9033085378
 21
66.8240705005
 31
0.0
 11
158.9165829391
 21
66.809908006
 31
0.0
 11
158.9296696962
 21
66.7955785432
 31
0.0
 11
158.9425656882
 21
66.7810858564
 31
0.0
 11
158.9552678943
 21
66.7664337668
 31
0.0
 11
158.967773396
 21
66.7516261693
 31
0.0
 11
158.9800793792
 21
66.7366670287
 31
0.0
 11
158.9921831363
 21
66.7215603769
 31
0.0
 11
159.0040820683
 21
66.7063103083
 31
0.0
 11
159.0157736862
 21
66.6909209772
 31
0.0
 11
159.027255613
 21
66.6753965934
 31
0.0
 11
159.0385255852
 21
66.6597414189
 31
0.0
 11
159.0495814537
 21
66.6439597636
 31
0.0
 11
159.0604211856
 21
66.628055982
 31
0.0
 11
159.0710428647
 21
66.6120344692
 31
0.0
 11
159.0814446927
 21
66.5958996568
 31
0.0
 11
159.0916249898
 21
66.5796560091
 31
0.0
 11
159.1015821954
 21
66.5633080193
 31
0.0
 11
159.1113148685
 21
66.5468602056
 31
0.0
 11
159.1208216876
 21
66.5303171072
 31
0.0
 11
159.1301014516
 21
66.5136832803
 31
0.0
 11
159.139153079
 21
66.4969632945
 31
0.0
 11
159.1479756081
 21
66.4801617287
 31
0.0
 11
159.1565681968
 21
66.4632831674
 31
0.0
 11
159.1649301219
 21
66.446332197
 31
0.0
 11
159.1730607785
 21
66.4293134016
 31
0.0
 11
159.1809596795
 21
66.4122313599
 31
0.0
 11
159.1886264545
 21
66.3950906414
 31
0.0
 11
159.1960608488
 21
66.3778958025
 31
0.0
 11
159.2032627227
 21
66.3606513831
 31
0.0
 11
159.2102320494
 21
66.3433619035
 31
0.0
 11
159.2169689147
 21
66.3260318606
 31
0.0
 11
159.2234735147
 21
66.3086657247
 31
0.0
 11
159.2297461543
 21
66.2912679365
 31
0.0
 11
159.2357872461
 21
66.2738429037
 31
0.0
 11
159.241597308
 21
66.2563949981
 31
0.0
 11
159.2471769614
 21
66.2389285525
 31
0.0
 11
159.2525269295
 21
66.221447858
 31
0.0
 11
159.2576480351
 21
66.2039571614
 31
0.0
 11
159.2625411983
 21
66.1864606621
 31
0.0
 11
159.2672074345
 21
66.1689625099
 31
0.0
 11
159.2716478519
 21
66.1514668024
 31
0.0
 11
159.2758636494
 21
66.1339775828
 31
0.0
 11
159.279856114
 21
66.1164988375
 31
0.0
 11
159.2836266184
 21
66.0990344942
 31
0.0
 11
159.2871766184
 21
66.0815884196
 31
0.0
 11
159.2905076505
 21
66.0641644178
 31
0.0
 11
159.2936213292
 21
66.0467662283
 31
0.0
 11
159.2965193444
 21
66.0293975244
 31
0.0
 11
159.2992034587
 21
66.0120619118
 31
0.0
 11
159.3016755049
 21
65.9947629268
 31
0.0
 11
159.3039373828
 21
65.9775040352
 31
0.0
 11
159.3059910571
 21
65.9602886311
 31
0.0
 11
159.3078385546
 21
65.9431200356
 31
0.0
 11
159.3094819608
 21
65.926001496
 31
0.0
 11
159.310923418
 21
65.9089361846
 31
0.0
 11
159.3121651222
 21
65.8919271982
 31
0.0
 11
159.3132093204
 21
65.8749775573
 31
0.0
 11
159.3140583079
 21
65.8580902054
 31
0.0
 11
159.3147144256
 21
65.8412680084
 31
0.0
 11
159.3151800574
 21
65.8245137548
 31
0.0
 11
159.3154576275
 21
65.8078301545
 31
0.0
 11
159.3155495979
 21
65.7912198391
 31
0.0
  0
LINE
  5
2AF
100
AcDbEntity
  8
0
100
AcDbLine
 62
7
  6
CONTINUOUS
 10
159.3155495979
 20
62.1912198391
 11
159.3155495979
 21
65.7912198391
  0
LINE
  5
2B0
100
AcDbEntity
  8
0
100
AcDbLine
 62
7
  6
CONTINUOUS
 10
159.3155495979
 20
62.1912198391
 11
145.3155495979
 21
62.1912198391
  0
LINE
  5
2B1
100
AcDbEntity
  8
0
100
AcDbLine
 62
7
  6
CONTINUOUS
 10
145.3155495979
 20
172.2912198391
 11
145.3155495979
 21
181.4412198391
  0
LINE
  5
2B2
100
AcDbEntity
  8
0
100
AcDbLine
 62
7
  6
CONTINUOUS
 10
145.3155495979
 20
181.4412198391
 11
168.2002597911
 21
181.4412198391
  0
SPLINE
  5
2B3
100
AcDbEntity
  8
0
100
AcDbSpline
 62
7
  6
CONTINUOUS
 70
4
 71
3
 72
8
 73
4
 74
129
 42
0.0000001
 43
0.0000001
 44
0.0000000001
 12
2.1952415555
 22
0.0
 32
0.0
 13
0.8728594654
 23
-2.0142496967
 33
0.0
 40
0.0
 40
0.0
 40
0.0
 40
0.0
 40
1.0
 40
1.0
 40
1.0
 40
1.0
 10
168.2002597911
 20
181.4412198391
 30
0.0
 41
1.0
 10
169.0218649077
 20
181.4412198391
 30
0.0
 41
0.8906312417
 10
169.7086831272
 20
180.9903144156
 30
0.0
 41
0.8906312417
 10
170.0353650821
 20
180.2364484674
 30
0.0
 41
1.0
 11
168.2002597911
 21
181.4412198391
 31
0.0
 11
168.2174318085
 21
181.4411461182
 31
0.0
 11
168.2346460487
 21
181.4409242136
 31
0.0
 11
168.2519007474
 21
181.4405530309
 31
0.0
 11
168.2691941122
 21
181.4400315009
 31
0.0
 11
168.2865243241
 21
181.4393585807
 31
0.0
 11
168.3038895371
 21
181.4385332536
 31
0.0
 11
168.3212878789
 21
181.437554531
 31
0.0
 11
168.3387174514
 21
181.4364214521
 31
0.0
 11
168.3561763311
 21
181.4351330851
 31
0.0
 11
168.3736625695
 21
181.4336885281
 31
0.0
 11
168.391174194
 21
181.4320869092
 31
0.0
 11
168.4087092079
 21
181.4303273879
 31
0.0
 11
168.4262655914
 21
181.4284091553
 31
0.0
 11
168.4438413019
 21
181.4263314349
 31
0.0
 11
168.4614342748
 21
181.4240934834
 31
0.0
 11
168.4790424239
 21
181.4216945912
 31
0.0
 11
168.4966636424
 21
181.4191340832
 31
0.0
 11
168.5142958033
 21
181.4164113192
 31
0.0
 11
168.5319367599
 21
181.4135256948
 31
0.0
 11
168.5495843472
 21
181.4104766417
 31
0.0
 11
168.5672363818
 21
181.4072636286
 31
0.0
 11
168.5848906632
 21
181.4038861613
 31
0.0
 11
168.6025449744
 21
181.400343784
 31
0.0
 11
168.6201970827
 21
181.396636079
 31
0.0
 11
168.6378447404
 21
181.3927626678
 31
0.0
 11
168.6554856859
 21
181.3887232114
 31
0.0
 11
168.6731176441
 21
181.3845174105
 31
0.0
 11
168.6907383277
 21
181.3801450066
 31
0.0
 11
168.7083454379
 21
181.3756057819
 31
0.0
 11
168.7259366652
 21
181.3708995597
 31
0.0
 11
168.7435096904
 21
181.3660262052
 31
0.0
 11
168.7610621856
 21
181.3609856255
 31
0.0
 11
168.7785918148
 21
181.35577777
 31
0.0
 11
168.7960962353
 21
181.3504026308
 31
0.0
 11
168.8135730983
 21
181.344860243
 31
0.0
 11
168.83102005
 21
181.339150685
 31
0.0
 11
168.8484347328
 21
181.3332740786
 31
0.0
 11
168.8658147859
 21
181.3272305891
 31
0.0
 11
168.8831578463
 21
181.321020426
 31
0.0
 11
168.9004615502
 21
181.3146438426
 31
0.0
 11
168.9177235338
 21
181.3081011364
 31
0.0
 11
168.9349414343
 21
181.3013926492
 31
0.0
 11
168.9521128907
 21
181.2945187672
 31
0.0
 11
168.9692355455
 21
181.2874799208
 31
0.0
 11
168.9863070448
 21
181.2802765851
 31
0.0
 11
169.0033250403
 21
181.2729092794
 31
0.0
 11
169.0202871895
 21
181.2653785674
 31
0.0
 11
169.0371911575
 21
181.2576850571
 31
0.0
 11
169.0540346172
 21
181.2498294007
 31
0.0
 11
169.0708152513
 21
181.2418122946
 31
0.0
 11
169.0875307525
 21
181.233634479
 31
0.0
 11
169.1041788249
 21
181.2252967378
 31
0.0
 11
169.1207571852
 21
181.2167998986
 31
0.0
 11
169.1372635635
 21
181.2081448321
 31
0.0
 11
169.1536957041
 21
181.1993324521
 31
0.0
 11
169.1700513671
 21
181.1903637152
 31
0.0
 11
169.1863283289
 21
181.1812396203
 31
0.0
 11
169.2025243834
 21
181.1719612084
 31
0.0
 11
169.2186373431
 21
181.1625295619
 31
0.0
 11
169.2346650398
 21
181.1529458048
 31
0.0
 11
169.2506053258
 21
181.1432111017
 31
0.0
 11
169.2664560747
 21
181.1333266575
 31
0.0
 11
169.2822151827
 21
181.123293717
 31
0.0
 11
169.2978805689
 21
181.1131135643
 31
0.0
 11
169.3134501767
 21
181.1027875222
 31
0.0
 11
169.3289219747
 21
181.0923169518
 31
0.0
 11
169.3442939574
 21
181.0817032516
 31
0.0
 11
169.3595641458
 21
181.0709478573
 31
0.0
 11
169.3747305891
 21
181.0600522408
 31
0.0
 11
169.3897913647
 21
181.0490179097
 31
0.0
 11
169.4047445792
 21
181.0378464064
 31
0.0
 11
169.4195883696
 21
181.0265393078
 31
0.0
 11
169.4343209036
 21
181.0150982241
 31
0.0
 11
169.4489403805
 21
181.0035247984
 31
0.0
 11
169.4634450319
 21
180.9918207057
 31
0.0
 11
169.4778331226
 21
180.9799876523
 31
0.0
 11
169.492102951
 21
180.9680273746
 31
0.0
 11
169.5062528499
 21
180.9559416388
 31
0.0
 11
169.5202811871
 21
180.9437322398
 31
0.0
 11
169.5341863661
 21
180.9314010001
 31
0.0
 11
169.5479668264
 21
180.9189497695
 31
0.0
 11
169.5616210445
 21
180.9063804235
 31
0.0
 11
169.575147534
 21
180.8936948629
 31
0.0
 11
169.5885448462
 21
180.8808950129
 31
0.0
 11
169.6018115709
 21
180.8679828218
 31
0.0
 11
169.6149463364
 21
180.8549602604
 31
0.0
 11
169.6279478102
 21
180.8418293208
 31
0.0
 11
169.6408146994
 21
180.8285920157
 31
0.0
 11
169.6535457508
 21
180.8152503772
 31
0.0
 11
169.6661397514
 21
180.801806456
 31
0.0
 11
169.678595529
 21
180.7882623203
 31
0.0
 11
169.690911952
 21
180.7746200549
 31
0.0
 11
169.7030879298
 21
180.7608817601
 31
0.0
 11
169.7151224132
 21
180.7470495509
 31
0.0
 11
169.7270143945
 21
180.7331255559
 31
0.0
 11
169.7387629076
 21
180.7191119162
 31
0.0
 11
169.7503670282
 21
180.7050107845
 31
0.0
 11
169.7618258739
 21
180.6908243242
 31
0.0
 11
169.7731386043
 21
180.6765547083
 31
0.0
 11
169.784304421
 21
180.6622041185
 31
0.0
 11
169.7953225678
 21
180.647774744
 31
0.0
 11
169.8061923305
 21
180.6332687807
 31
0.0
 11
169.8169130369
 21
180.6186884303
 31
0.0
 11
169.8274840569
 21
180.604035899
 31
0.0
 11
169.8379048023
 21
180.5893133969
 31
0.0
 11
169.8481747269
 21
180.5745231369
 31
0.0
 11
169.8582933258
 21
180.5596673336
 31
0.0
 11
169.8682601362
 21
180.5447482026
 31
0.0
 11
169.8780747362
 21
180.5297679593
 31
0.0
 11
169.8877367455
 21
180.5147288185
 31
0.0
 11
169.8972458243
 21
180.4996329926
 31
0.0
 11
169.9066016739
 21
180.4844826915
 31
0.0
 11
169.9158040359
 21
180.4692801216
 31
0.0
 11
169.924852692
 21
180.4540274843
 31
0.0
 11
169.933747464
 21
180.438726976
 31
0.0
 11
169.9424882128
 21
180.4233807867
 31
0.0
 11
169.9510748387
 21
180.4079910991
 31
0.0
 11
169.9595072809
 21
180.3925600884
 31
0.0
 11
169.9677855168
 21
180.3770899206
 31
0.0
 11
169.9759095617
 21
180.3615827525
 31
0.0
 11
169.9838794688
 21
180.3460407305
 31
0.0
 11
169.9916953281
 21
180.3304659901
 31
0.0
 11
169.9993572663
 21
180.3148606548
 31
0.0
 11
170.0068654464
 21
180.2992268358
 31
0.0
 11
170.014220067
 21
180.2835666309
 31
0.0
 11
170.0214213619
 21
180.2678821241
 31
0.0
 11
170.0284695994
 21
180.2521753848
 31
0.0
 11
170.0353650821
 21
180.2364484674
 31
0.0
  0
SPLINE
  5
2B4
100
AcDbEntity
  8
0
100
AcDbSpline
 62
7
  6
CONTINUOUS
 70
4
 71
3
 72
8
 73
4
 74
129
 42
0.0000001
 43
0.0000001
 44
0.0000000001
 12
1.3223820901
 22
-3.0515882905
 32
0.0
 13
3.3257909566
 23
-0.0
 33
0.0
 40
0.0
 40
0.0
 40
0.0
 40
0.0
 40
1.0
 40
1.0
 40
1.0
 40
1.0
 10
170.0353650821
 20
180.2364484674
 30
0.0
 41
1.0
 10
170.5302882437
 20
179.0943415558
 30
0.0
 41
0.8906312417
 10
171.5708178463
 20
178.4112198391
 30
0.0
 41
0.8906312417
 10
172.8155495979
 20
178.4112198391
 30
0.0
 41
1.0
 11
170.0353650821
 21
180.2364484674
 31
0.0
 11
170.0458117384
 21
180.2126221874
 31
0.0
 11
170.0564898182
 21
180.1888264775
 31
0.0
 11
170.0673997799
 21
180.1650644497
 31
0.0
 11
170.0785420301
 21
180.1413392392
 31
0.0
 11
170.089916923
 21
180.1176540034
 31
0.0
 11
170.1015247594
 21
180.0940119204
 31
0.0
 11
170.1133657862
 21
180.0704161887
 31
0.0
 11
170.1254401954
 21
180.0468700255
 31
0.0
 11
170.1377481235
 21
180.0233766658
 31
0.0
 11
170.1502896509
 21
179.9999393616
 31
0.0
 11
170.1630648008
 21
179.9765613802
 31
0.0
 11
170.1760735391
 21
179.9532460036
 31
0.0
 11
170.1893157735
 21
179.9299965267
 31
0.0
 11
170.202791353
 21
179.9068162567
 31
0.0
 11
170.2165000671
 21
179.8837085113
 31
0.0
 11
170.2304416455
 21
179.8606766178
 31
0.0
 11
170.2446157576
 21
179.8377239117
 31
0.0
 11
170.2590220121
 21
179.8148537355
 31
0.0
 11
170.273659956
 21
179.792069437
 31
0.0
 11
170.2885290751
 21
179.7693743686
 31
0.0
 11
170.3036287928
 21
179.7467718851
 31
0.0
 11
170.3189584702
 21
179.7242653431
 31
0.0
 11
170.3345174059
 21
179.7018580991
 31
0.0
 11
170.3503048353
 21
179.6795535085
 31
0.0
 11
170.3663199306
 21
179.6573549236
 31
0.0
 11
170.3825618008
 21
179.6352656927
 31
0.0
 11
170.3990294912
 21
179.6132891583
 31
0.0
 11
170.4157219835
 21
179.5914286559
 31
0.0
 11
170.4326381959
 21
179.5696875123
 31
0.0
 11
170.4497769824
 21
179.5480690443
 31
0.0
 11
170.4671371336
 21
179.526576557
 31
0.0
 11
170.4847173763
 21
179.5052133425
 31
0.0
 11
170.5025163737
 21
179.4839826783
 31
0.0
 11
170.5205327254
 21
179.4628878258
 31
0.0
 11
170.5387649678
 21
179.4419320289
 31
0.0
 11
170.5572115742
 21
179.4211185123
 31
0.0
 11
170.575870955
 21
179.4004504802
 31
0.0
 11
170.594741458
 21
179.3799311146
 31
0.0
 11
170.613821369
 21
179.359563574
 31
0.0
 11
170.6331089118
 21
179.3393509916
 31
0.0
 11
170.6526022489
 21
179.3192964744
 31
0.0
 11
170.6722994818
 21
179.299403101
 31
0.0
 11
170.6921986516
 21
179.2796739204
 31
0.0
 11
170.7122977395
 21
179.2601119509
 31
0.0
 11
170.7325946675
 21
179.2407201781
 31
0.0
 11
170.753087299
 21
179.2215015539
 31
0.0
 11
170.7737734394
 21
179.2024589947
 31
0.0
 11
170.7946508368
 21
179.1835953802
 31
0.0
 11
170.8157171829
 21
179.1649135521
 31
0.0
 11
170.8369701138
 21
179.1464163126
 31
0.0
 11
170.8584072107
 21
179.1281064229
 31
0.0
 11
170.8800260007
 21
179.1099866022
 31
0.0
 11
170.9018239581
 21
179.0920595262
 31
0.0
 11
170.923798505
 21
179.0743278258
 31
0.0
 11
170.9459470124
 21
179.0567940859
 31
0.0
 11
170.9682668014
 21
179.0394608442
 31
0.0
 11
170.9907551439
 21
179.0223305898
 31
0.0
 11
171.0134092639
 21
179.0054057623
 31
0.0
 11
171.0362263389
 21
178.9886887506
 31
0.0
 11
171.0592035005
 21
178.9721818916
 31
0.0
 11
171.082337836
 21
178.9558874693
 31
0.0
 11
171.1056263897
 21
178.9398077135
 31
0.0
 11
171.1290661637
 21
178.9239447993
 31
0.0
 11
171.1526541195
 21
178.9083008455
 31
0.0
 11
171.1763871796
 21
178.8928779141
 31
0.0
 11
171.2002622282
 21
178.8776780093
 31
0.0
 11
171.2242761129
 21
178.8627030763
 31
0.0
 11
171.2484256462
 21
178.8479550011
 31
0.0
 11
171.2727076067
 21
178.8334356091
 31
0.0
 11
171.2971187406
 21
178.8191466648
 31
0.0
 11
171.3216557632
 21
178.8050898706
 31
0.0
 11
171.3463153603
 21
178.7912668669
 31
0.0
 11
171.3710941897
 21
178.7776792305
 31
0.0
 11
171.3959888828
 21
178.7643284749
 31
0.0
 11
171.4209960458
 21
178.7512160491
 31
0.0
 11
171.4461122617
 21
178.7383433377
 31
0.0
 11
171.4713340914
 21
178.7257116598
 31
0.0
 11
171.4966580757
 21
178.7133222691
 31
0.0
 11
171.5220807363
 21
178.7011763533
 31
0.0
 11
171.5475985779
 21
178.6892750339
 31
0.0
 11
171.5732080893
 21
178.6776193658
 31
0.0
 11
171.5989057454
 21
178.6662103371
 31
0.0
 11
171.6246880085
 21
178.655048869
 31
0.0
 11
171.65055133
 21
178.6441358154
 31
0.0
 11
171.6764921519
 21
178.6334719632
 31
0.0
 11
171.7025069085
 21
178.6230580319
 31
0.0
 11
171.7285920277
 21
178.6128946738
 31
0.0
 11
171.7547439329
 21
178.602982474
 31
0.0
 11
171.7809590443
 21
178.5933219501
 31
0.0
 11
171.8072337809
 21
178.5839135529
 31
0.0
 11
171.8335645612
 21
178.5747576664
 31
0.0
 11
171.8599478056
 21
178.5658546076
 31
0.0
 11
171.8863799376
 21
178.5572046273
 31
0.0
 11
171.912857385
 21
178.5488079098
 31
0.0
 11
171.939376582
 21
178.540664574
 31
0.0
 11
171.9659339703
 21
178.5327746728
 31
0.0
 11
171.9925260004
 21
178.5251381945
 31
0.0
 11
172.0191491336
 21
178.5177550624
 31
0.0
 11
172.045799843
 21
178.5106251359
 31
0.0
 11
172.072474615
 21
178.5037482104
 31
0.0
 11
172.0991699507
 21
178.4971240185
 31
0.0
 11
172.1258823674
 21
178.4907522302
 31
0.0
 11
172.1526083997
 21
178.4846324537
 31
0.0
 11
172.1793446011
 21
178.4787642357
 31
0.0
 11
172.2060875452
 21
178.4731470627
 31
0.0
 11
172.2328338267
 21
178.467780361
 31
0.0
 11
172.259580063
 21
178.4626634982
 31
0.0
 11
172.2863228954
 21
178.4577957832
 31
0.0
 11
172.3130589901
 21
178.4531764678
 31
0.0
 11
172.3397850395
 21
178.4488047468
 31
0.0
 11
172.3664977632
 21
178.4446797594
 31
0.0
 11
172.3931939092
 21
178.4408005897
 31
0.0
 11
172.4198702551
 21
178.4371662681
 31
0.0
 11
172.446523609
 21
178.4337757716
 31
0.0
 11
172.4731508104
 21
178.4306280252
 31
0.0
 11
172.4997487314
 21
178.4277219027
 31
0.0
 11
172.5263142775
 21
178.425056228
 31
0.0
 11
172.5528443886
 21
178.4226297754
 31
0.0
 11
172.5793360398
 21
178.4204412715
 31
0.0
 11
172.6057862425
 21
178.4184893955
 31
0.0
 11
172.6321920449
 21
178.416772781
 31
0.0
 11
172.6585505327
 21
178.4152900162
 31
0.0
 11
172.6848588304
 21
178.4140396457
 31
0.0
 11
172.7111141014
 21
178.4130201715
 31
0.0
 11
172.7373135492
 21
178.4122300536
 31
0.0
 11
172.7634544176
 21
178.4116677118
 31
0.0
 11
172.7895339916
 21
178.4113315263
 31
0.0
 11
172.8155495979
 21
178.4112198391
 31
0.0
  0
LINE
  5
2B5
100
AcDbEntity
  8
0
100
AcDbLine
 62
7
  6
CONTINUOUS
 10
172.8155495979
 20
178.0412198391
 11
172.8155495979
 21
178.4112198391
  0
LINE
  5
2B6
100
AcDbEntity
  8
0
100
AcDbLine
 62
7
  6
CONTINUOUS
 10
173.9455495979
 20
177.4112198391
 11
172.8155495979
 21
178.0412198391
  0
LINE
  5
2B7
100
AcDbEntity
  8
0
100
AcDbLine
 62
7
  6
CONTINUOUS
 10
174.4455495979
 20
177.4112198391
 11
173.9455495979
 21
177.4112198391
  0
LINE
  5
2B8
100
AcDbEntity
  8
0
100
AcDbLine
 62
7
  6
CONTINUOUS
 10
174.8155495979
 20
178.0412198391
 11
174.4455495979
 21
177.4112198391
  0
LINE
  5
2B9
100
AcDbEntity
  8
0
100
AcDbLine
 62
7
  6
CONTINUOUS
 10
176.3255495979
 20
177.8112198391
 11
174.8155495979
 21
178.0412198391
  0
LINE
  5
2BA
100
AcDbEntity
  8
0
100
AcDbLine
 62
7
  6
CONTINUOUS
 10
176.8155495979
 20
173.3912198391
 11
176.3255495979
 21
177.8112198391
  0
LINE
  5
2BB
100
AcDbEntity
  8
0
100
AcDbLine
 62
7
  6
CONTINUOUS
 10
176.8155495979
 20
170.3912198391
 11
176.8155495979
 21
173.3912198391
  0
LINE
  5
2BC
100
AcDbEntity
  8
0
100
AcDbLine
 62
7
  6
CONTINUOUS
 10
176.8155495979
 20
170.3912198391
 11
174.5264127496
 21
170.3912198391
  0
SPLINE
  5
2BD
100
AcDbEntity
  8
0
100
AcDbSpline
 62
7
  6
CONTINUOUS
 70
4
 71
3
 72
8
 73
4
 74
65
 42
0.0000001
 43
0.0000001
 44
0.0000000001
 12
-12.8708578511
 22
4.0051253484
 32
0.0
 13
-13.3539619462
 23
-1.8362219956
 33
0.0
 40
0.0
 40
0.0
 40
0.0
 40
0.0
 40
1.0
 40
1.0
 40
1.0
 40
1.0
 10
174.5264127496
 20
170.3912198391
 30
0.0
 41
1.0
 10
170.1666013885
 20
171.7478963869
 30
0.0
 41
0.9840531149
 10
165.6161188361
 20
172.1242405121
 30
0.0
 41
0.9840531149
 10
161.0926631595
 20
171.5022476651
 30
0.0
 41
1.0
 11
174.5264127496
 21
170.3912198391
 31
0.0
 11
174.32501998
 21
170.4531389179
 31
0.0
 11
174.1230645732
 21
170.5137311725
 31
0.0
 11
173.9205595071
 21
170.5729895055
 31
0.0
 11
173.7175178735
 21
170.6309069872
 31
0.0
 11
173.5139528753
 21
170.6874768574
 31
0.0
 11
173.3098778234
 21
170.7426925278
 31
0.0
 11
173.1053061347
 21
170.7965475843
 31
0.0
 11
172.9002513286
 21
170.8490357887
 31
0.0
 11
172.6947270244
 21
170.9001510807
 31
0.0
 11
172.4887469383
 21
170.9498875802
 31
0.0
 11
172.2823248806
 21
170.9982395889
 31
0.0
 11
172.0754747527
 21
171.045201592
 31
0.0
 11
171.8682105436
 21
171.0907682604
 31
0.0
 11
171.6605463276
 21
171.1349344519
 31
0.0
 11
171.4524962604
 21
171.1776952133
 31
0.0
 11
171.2440745765
 21
171.2190457815
 31
0.0
 11
171.0352955857
 21
171.2589815855
 31
0.0
 11
170.8261736701
 21
171.2974982476
 31
0.0
 11
170.6167232805
 21
171.3345915847
 31
0.0
 11
170.4069589336
 21
171.3702576097
 31
0.0
 11
170.1968952081
 21
171.4044925331
 31
0.0
 11
169.9865467418
 21
171.4372927634
 31
0.0
 11
169.775928228
 21
171.4686549092
 31
0.0
 11
169.5650544124
 21
171.4985757792
 31
0.0
 11
169.353940089
 21
171.5270523843
 31
0.0
 11
169.1426000974
 21
171.5540819374
 31
0.0
 11
168.9310493191
 21
171.579661855
 31
0.0
 11
168.7193026736
 21
171.6037897579
 31
0.0
 11
168.5073751156
 21
171.6264634715
 31
0.0
 11
168.2952816308
 21
171.6476810266
 31
0.0
 11
168.0830372329
 21
171.6674406602
 31
0.0
 11
167.8706569598
 21
171.6857408157
 31
0.0
 11
167.65815587
 21
171.7025801433
 31
0.0
 11
167.4455490394
 21
171.7179575006
 31
0.0
 11
167.2328515571
 21
171.7318719525
 31
0.0
 11
167.0200785225
 21
171.7443227716
 31
0.0
 11
166.8072450413
 21
171.7553094383
 31
0.0
 11
166.5943662221
 21
171.7648316408
 31
0.0
 11
166.3814571727
 21
171.7728892751
 31
0.0
 11
166.1685329968
 21
171.7794824449
 31
0.0
 11
165.9556087901
 21
171.7846114611
 31
0.0
 11
165.742699637
 21
171.7882768421
 31
0.0
 11
165.5298206068
 21
171.7904793131
 31
0.0
 11
165.3169867504
 21
171.7912198058
 31
0.0
 11
165.1042130967
 21
171.7904994579
 31
0.0
 11
164.8915146491
 21
171.7883196125
 31
0.0
 11
164.6789063819
 21
171.7846818177
 31
0.0
 11
164.4664032368
 21
171.7795878255
 31
0.0
 11
164.2540201197
 21
171.7730395915
 31
0.0
 11
164.0417718968
 21
171.7650392738
 31
0.0
 11
163.8296733919
 21
171.7555892321
 31
0.0
 11
163.617739382
 21
171.7446920268
 31
0.0
 11
163.4059845949
 21
171.732350418
 31
0.0
 11
163.1944237051
 21
171.7185673644
 31
0.0
 11
162.9830713312
 21
171.7033460218
 31
0.0
 11
162.7719420318
 21
171.6866897425
 31
0.0
 11
162.5610503029
 21
171.6686020733
 31
0.0
 11
162.3504105743
 21
171.6490867546
 31
0.0
 11
162.1400372066
 21
171.6281477188
 31
0.0
 11
161.929944488
 21
171.6057890888
 31
0.0
 11
161.7201466312
 21
171.5820151765
 31
0.0
 11
161.51065777
 21
171.5568304812
 31
0.0
 11
161.3014919569
 21
171.5302396878
 31
0.0
 11
161.0926631595
 21
171.5022476651
 31
0.0
  0
SPLINE
  5
2BE
100
AcDbEntity
  8
0
100
AcDbSpline
 62
7
  6
CONTINUOUS
 70
4
 71
3
 72
8
 73
4
 74
257
 42
0.0000001
 43
0.0000001
 44
0.0000000001
 12
-0.5200605071
 22
2.9429369266
 32
0.0
 13
0.0
 23
-2.9885348726
 33
0.0
 40
0.0
 40
0.0
 40
0.0
 40
0.0
 40
1.0
 40
1.0
 40
1.0
 40
1.0
 10
161.0926631595
 20
171.5022476651
 30
0.0
 41
1.0
 10
160.6499402186
 20
174.0075440167
 30
0.0
 41
0.3915620501
 10
158.1155495979
 20
173.7853333216
 30
0.0
 41
0.3915620501
 10
158.1155495979
 20
171.2412198391
 30
0.0
 41
1.0
 11
161.0926631595
 21
171.5022476651
 31
0.0
 11
161.0905793819
 21
171.5137765049
 31
0.0
 11
161.0883897564
 21
171.5253709738
 31
0.0
 11
161.0860923709
 21
171.5370305095
 31
0.0
 11
161.083685295
 21
171.5487545115
 31
0.0
 11
161.0811665808
 21
171.5605423394
 31
0.0
 11
161.0785342631
 21
171.5723933121
 31
0.0
 11
161.0757863599
 21
171.5843067067
 31
0.0
 11
161.0729208732
 21
171.5962817575
 31
0.0
 11
161.0699357893
 21
171.6083176547
 31
0.0
 11
161.0668290798
 21
171.6204135434
 31
0.0
 11
161.0635987019
 21
171.6325685228
 31
0.0
 11
161.0602425996
 21
171.6447816444
 31
0.0
 11
161.0567587039
 21
171.6570519117
 31
0.0
 11
161.0531449342
 21
171.6693782783
 31
0.0
 11
161.0493991986
 21
171.6817596473
 31
0.0
 11
161.0455193952
 21
171.69419487
 31
0.0
 11
161.0415034132
 21
171.7066827449
 31
0.0
 11
161.0373491332
 21
171.7192220163
 31
0.0
 11
161.0330544291
 21
171.7318113734
 31
0.0
 11
161.0286171686
 21
171.7444494492
 31
0.0
 11
161.0240352148
 21
171.7571348193
 31
0.0
 11
161.0193064271
 21
171.7698660008
 31
0.0
 11
161.0144286627
 21
171.7826414513
 31
0.0
 11
161.0093997775
 21
171.7954595676
 31
0.0
 11
161.0042176284
 21
171.8083186851
 31
0.0
 11
160.9988800735
 21
171.8212170763
 31
0.0
 11
160.9933849749
 21
171.8341529499
 31
0.0
 11
160.9877301992
 21
171.8471244499
 31
0.0
 11
160.9819136197
 21
171.8601296548
 31
0.0
 11
160.975933118
 21
171.873166576
 31
0.0
 11
160.9697865856
 21
171.8862331576
 31
0.0
 11
160.963471926
 21
171.8993272752
 31
0.0
 11
160.9569870561
 21
171.9124467349
 31
0.0
 11
160.9503299087
 21
171.9255892729
 31
0.0
 11
160.9434984339
 21
171.9387525543
 31
0.0
 11
160.9364906019
 21
171.9519341727
 31
0.0
 11
160.9293044042
 21
171.9651316492
 31
0.0
 11
160.9219378567
 21
171.9783424321
 31
0.0
 11
160.9143890013
 21
171.9915638962
 31
0.0
 11
160.9066559085
 21
172.0047933422
 31
0.0
 11
160.8987366796
 21
172.0180279964
 31
0.0
 11
160.8906294494
 21
172.0312650101
 31
0.0
 11
160.8823323884
 21
172.0445014594
 31
0.0
 11
160.8738437055
 21
172.0577343452
 31
0.0
 11
160.8651616505
 21
172.0709605925
 31
0.0
 11
160.8562845168
 21
172.0841770509
 31
0.0
 11
160.8472106442
 21
172.0973804939
 31
0.0
 11
160.8379384215
 21
172.1105676198
 31
0.0
 11
160.8284662894
 21
172.1237350512
 31
0.0
 11
160.8187927432
 21
172.1368793354
 31
0.0
 11
160.8089163359
 21
172.1499969452
 31
0.0
 11
160.7988356811
 21
172.1630842789
 31
0.0
 11
160.7885494558
 21
172.1761376608
 31
0.0
 11
160.7780564036
 21
172.1891533424
 31
0.0
 11
160.7673553376
 21
172.2021275027
 31
0.0
 11
160.7564451434
 21
172.2150562495
 31
0.0
 11
160.7453247825
 21
172.22793562
 31
0.0
 11
160.733993295
 21
172.2407615823
 31
0.0
 11
160.7224498029
 21
172.2535300367
 31
0.0
 11
160.7106935133
 21
172.2662368168
 31
0.0
 11
160.6987237214
 21
172.2788776913
 31
0.0
 11
160.6865398136
 21
172.2914483656
 31
0.0
 11
160.6741412707
 21
172.3039444838
 31
0.0
 11
160.6615276708
 21
172.3163616302
 31
0.0
 11
160.6486986929
 21
172.3286953319
 31
0.0
 11
160.6356541192
 21
172.3409410609
 31
0.0
 11
160.6223938387
 21
172.3530942361
 31
0.0
 11
160.6089178499
 21
172.3651502266
 31
0.0
 11
160.5952262638
 21
172.3771043536
 31
0.0
 11
160.5813193069
 21
172.3889518937
 31
0.0
 11
160.5671973237
 21
172.4006880818
 31
0.0
 11
160.5528607799
 21
172.4123081142
 31
0.0
 11
160.5383102646
 21
172.4238071517
 31
0.0
 11
160.5235464933
 21
172.4351803234
 31
0.0
 11
160.5085703099
 21
172.4464227299
 31
0.0
 11
160.4933826897
 21
172.4575294473
 31
0.0
 11
160.4779847414
 21
172.4684955307
 31
0.0
 11
160.4623777091
 21
172.4793160188
 31
0.0
 11
160.4465629744
 21
172.4899859373
 31
0.0
 11
160.4305420589
 21
172.5005003037
 31
0.0
 11
160.4143166249
 21
172.5108541316
 31
0.0
 11
160.3978884782
 21
172.5210424348
 31
0.0
 11
160.3812595687
 21
172.5310602326
 31
0.0
 11
160.364431992
 21
172.5409025542
 31
0.0
 11
160.3474079907
 21
172.5505644434
 31
0.0
 11
160.3301899554
 21
172.560040964
 31
0.0
 11
160.3127804248
 21
172.5693272045
 31
0.0
 11
160.2951820873
 21
172.5784182834
 31
0.0
 11
160.2773977807
 21
172.5873093543
 31
0.0
 11
160.2594304925
 21
172.5959956115
 31
0.0
 11
160.24128336
 21
172.6044722952
 31
0.0
 11
160.2229596701
 21
172.6127346966
 31
0.0
 11
160.2044628585
 21
172.6207781639
 31
0.0
 11
160.1857965093
 21
172.6285981077
 31
0.0
 11
160.1669643543
 21
172.636190006
 31
0.0
 11
160.1479702712
 21
172.6435494105
 31
0.0
 11
160.1288182826
 21
172.6506719516
 31
0.0
 11
160.1095125546
 21
172.6575533441
 31
0.0
 11
160.0900573943
 21
172.664189393
 31
0.0
 11
160.0704572483
 21
172.6705759982
 31
0.0
 11
160.0507166999
 21
172.676709161
 31
0.0
 11
160.0308404668
 21
172.6825849886
 31
0.0
 11
160.0108333979
 21
172.6881996999
 31
0.0
 11
159.9907004707
 21
172.6935496304
 31
0.0
 11
159.9704467874
 21
172.6986312378
 31
0.0
 11
159.9500775718
 21
172.7034411065
 31
0.0
 11
159.9295981653
 21
172.7079759529
 31
0.0
 11
159.9090140227
 21
172.7122326302
 31
0.0
 11
159.8883307082
 21
172.7162081326
 31
0.0
 11
159.8675538911
 21
172.7198996003
 31
0.0
 11
159.8466893404
 21
172.7233043237
 31
0.0
 11
159.8257429206
 21
172.7264197473
 31
0.0
 11
159.8047205864
 21
172.7292434737
 31
0.0
 11
159.7836283772
 21
172.7317732679
 31
0.0
 11
159.7624724118
 21
172.73400706
 31
0.0
 11
159.741258883
 21
172.7359429492
 31
0.0
 11
159.7199940512
 21
172.7375792065
 31
0.0
 11
159.6986842391
 21
172.7389142777
 31
0.0
 11
159.6773358252
 21
172.7399467863
 31
0.0
 11
159.6559552377
 21
172.7406755351
 31
0.0
 11
159.6345489482
 21
172.7410995092
 31
0.0
 11
159.6131234654
 21
172.7412178771
 31
0.0
 11
159.5916853281
 21
172.7410299927
 31
0.0
 11
159.5702410992
 21
172.7405353963
 31
0.0
 11
159.5487973588
 21
172.7397338159
 31
0.0
 11
159.5273606973
 21
172.7386251676
 31
0.0
 11
159.505937709
 21
172.7372095563
 31
0.0
 11
159.4845349851
 21
172.7354872755
 31
0.0
 11
159.4631591072
 21
172.7334588074
 31
0.0
 11
159.4418166402
 21
172.7311248225
 31
0.0
 11
159.4205141258
 21
172.7284861787
 31
0.0
 11
159.3992580761
 21
172.7255439202
 31
0.0
 11
159.3780549663
 21
172.7222992766
 31
0.0
 11
159.3569112287
 21
172.7187536608
 31
0.0
 11
159.3358332461
 21
172.7149086674
 31
0.0
 11
159.3148273451
 21
172.7107660707
 31
0.0
 11
159.2938997905
 21
172.706327822
 31
0.0
 11
159.2730567783
 21
172.701596047
 31
0.0
 11
159.2523044305
 21
172.6965730431
 31
0.0
 11
159.2316487887
 21
172.691261276
 31
0.0
 11
159.2110958085
 21
172.6856633764
 31
0.0
 11
159.1906513543
 21
172.6797821362
 31
0.0
 11
159.1703211932
 21
172.673620505
 31
0.0
 11
159.1501109906
 21
172.6671815858
 31
0.0
 11
159.130026305
 21
172.6604686306
 31
0.0
 11
159.1100725828
 21
172.6534850364
 31
0.0
 11
159.0902551544
 21
172.64623434
 31
0.0
 11
159.0705792295
 21
172.6387202139
 31
0.0
 11
159.0510498928
 21
172.6309464608
 31
0.0
 11
159.0316721008
 21
172.6229170087
 31
0.0
 11
159.0124506774
 21
172.6146359058
 31
0.0
 11
158.9933903112
 21
172.6061073151
 31
0.0
 11
158.9744955518
 21
172.597335509
 31
0.0
 11
158.9557708072
 21
172.5883248638
 31
0.0
 11
158.9372203412
 21
172.5790798541
 31
0.0
 11
158.9188482708
 21
172.5696050472
 31
0.0
 11
158.9006585643
 21
172.5599050973
 31
0.0
 11
158.8826550392
 21
172.54998474
 31
0.0
 11
158.8648413606
 21
172.5398487864
 31
0.0
 11
158.8472210403
 21
172.529502117
 31
0.0
 11
158.8297974346
 21
172.5189496768
 31
0.0
 11
158.8125737447
 21
172.5081964685
 31
0.0
 11
158.795553015
 21
172.4972475475
 31
0.0
 11
158.7787381334
 21
172.486108016
 31
0.0
 11
158.7621318305
 21
172.4747830173
 31
0.0
 11
158.7457366804
 21
172.46327773
 31
0.0
 11
158.7295551003
 21
172.451597363
 31
0.0
 11
158.7135893512
 21
172.4397471494
 31
0.0
 11
158.6978415389
 21
172.4277323416
 31
0.0
 11
158.6823136146
 21
172.4155582059
 31
0.0
 11
158.6670073759
 21
172.4032300169
 31
0.0
 11
158.6519244685
 21
172.3907530531
 31
0.0
 11
158.6370663872
 21
172.3781325915
 31
0.0
 11
158.622434478
 21
172.3653739028
 31
0.0
 11
158.6080299396
 21
172.3524822466
 31
0.0
 11
158.5938538253
 21
172.3394628671
 31
0.0
 11
158.5799070457
 21
172.3263209884
 31
0.0
 11
158.5661903701
 21
172.3130618103
 31
0.0
 11
158.5527044297
 21
172.299690504
 31
0.0
 11
158.5394497194
 21
172.2862122083
 31
0.0
 11
158.5264266012
 21
172.2726320254
 31
0.0
 11
158.5136353061
 21
172.2589550177
 31
0.0
 11
158.5010759376
 21
172.2451862035
 31
0.0
 11
158.4887484745
 21
172.2313305544
 31
0.0
 11
158.4766527735
 21
172.2173929915
 31
0.0
 11
158.4647885727
 21
172.2033783827
 31
0.0
 11
158.4531554947
 21
172.1892915395
 31
0.0
 11
158.4417530496
 21
172.1751372141
 31
0.0
 11
158.4305806383
 21
172.1609200974
 31
0.0
 11
158.4196375562
 21
172.1466448159
 31
0.0
 11
158.4089229957
 21
172.1323159299
 31
0.0
 11
158.3984360504
 21
172.117937931
 31
0.0
 11
158.388175718
 21
172.1035152404
 31
0.0
 11
158.3781409038
 21
172.0890522069
 31
0.0
 11
158.368330424
 21
172.0745531052
 31
0.0
 11
158.3587430093
 21
172.0600221346
 31
0.0
 11
158.3493773083
 21
172.0454634174
 31
0.0
 11
158.3402318904
 21
172.0308809975
 31
0.0
 11
158.3313052499
 21
172.0162788399
 31
0.0
 11
158.3225958086
 21
172.0016608289
 31
0.0
 11
158.3141019199
 21
171.9870307679
 31
0.0
 11
158.3058218713
 21
171.9723923785
 31
0.0
 11
158.2977538882
 21
171.9577492995
 31
0.0
 11
158.2898961369
 21
171.9431050872
 31
0.0
 11
158.2822467278
 21
171.9284632143
 31
0.0
 11
158.2748037185
 21
171.91382707
 31
0.0
 11
158.2675651169
 21
171.8991999598
 31
0.0
 11
158.2605288843
 21
171.8845851055
 31
0.0
 11
158.2536929382
 21
171.869985645
 31
0.0
 11
158.2470551554
 21
171.855404633
 31
0.0
 11
158.2406133746
 21
171.8408450405
 31
0.0
 11
158.2343653996
 21
171.8263097557
 31
0.0
 11
158.2283090014
 21
171.811801584
 31
0.0
 11
158.2224419216
 21
171.7973232489
 31
0.0
 11
158.2167618744
 21
171.7828773922
 31
0.0
 11
158.2112665495
 21
171.7684665747
 31
0.0
 11
158.2059536143
 21
171.754093277
 31
0.0
 11
158.2008207166
 21
171.7397599002
 31
0.0
 11
158.1958654864
 21
171.7254687665
 31
0.0
 11
158.1910855388
 21
171.7112221204
 31
0.0
 11
158.1864784757
 21
171.6970221295
 31
0.0
 11
158.1820418882
 21
171.6828708852
 31
0.0
 11
158.1777733585
 21
171.668770404
 31
0.0
 11
158.1736704617
 21
171.6547226284
 31
0.0
 11
158.1697307681
 21
171.640729428
 31
0.0
 11
158.1659518449
 21
171.6267926008
 31
0.0
 11
158.1623312575
 21
171.6129138738
 31
0.0
 11
158.1588665721
 21
171.5990949048
 31
0.0
 11
158.1555553565
 21
171.5853372831
 31
0.0
 11
158.152395182
 21
171.5716425311
 31
0.0
 11
158.1493836249
 21
171.5580121052
 31
0.0
 11
158.146518268
 21
171.5444473972
 31
0.0
 11
158.1437967018
 21
171.5309497356
 31
0.0
 11
158.1412165258
 21
171.5175203867
 31
0.0
 11
158.1387753499
 21
171.504160556
 31
0.0
 11
158.1364707956
 21
171.4908713896
 31
0.0
 11
158.1343004968
 21
171.4776539752
 31
0.0
 11
158.1322621014
 21
171.4645093436
 31
0.0
 11
158.1303532717
 21
171.4514384699
 31
0.0
 11
158.1285716858
 21
171.438442275
 31
0.0
 11
158.1269150385
 21
171.4255216264
 31
0.0
 11
158.1253810418
 21
171.4126773402
 31
0.0
 11
158.1239674261
 21
171.3999101818
 31
0.0
 11
158.1226719405
 21
171.3872208672
 31
0.0
 11
158.1214923541
 21
171.3746100647
 31
0.0
 11
158.120426456
 21
171.3620783958
 31
0.0
 11
158.1194720565
 21
171.3496264365
 31
0.0
 11
158.1186269873
 21
171.3372547186
 31
0.0
 11
158.1178891021
 21
171.3249637308
 31
0.0
 11
158.117256277
 21
171.3127539202
 31
0.0
 11
158.1167264113
 21
171.3006256931
 31
0.0
 11
158.1162974275
 21
171.2885794164
 31
0.0
 11
158.1159672717
 21
171.276615419
 31
0.0
 11
158.1157339143
 21
171.2647339924
 31
0.0
 11
158.1155953499
 21
171.2529353922
 31
0.0
 11
158.1155495979
 21
171.2412198391
 31
0.0
  0
LINE
  5
2BF
100
AcDbEntity
  8
0
100
AcDbLine
 62
7
  6
CONTINUOUS
 10
158.1155495979
 20
170.9435000183
 11
158.1155495979
 21
171.2412198391
  0
LINE
  5
2C0
100
AcDbEntity
  8
0
100
AcDbLine
 62
7
  6
CONTINUOUS
 10
158.2021070288
 20
170.9640376528
 11
158.1155495979
 21
170.9435000183
  0
SPLINE
  5
2C1
100
AcDbEntity
  8
0
100
AcDbSpline
 62
7
  6
CONTINUOUS
 70
4
 71
3
 72
8
 73
4
 74
17
 42
0.0000001
 43
0.0000001
 44
0.0000000001
 12
-2.1162182389
 22
-0.4989125311
 32
0.0
 13
-2.0760427567
 23
-0.6460184368
 33
0.0
 40
0.0
 40
0.0
 40
0.0
 40
0.0
 40
1.0
 40
1.0
 40
1.0
 40
1.0
 10
158.2021070288
 20
170.9640376528
 30
0.0
 41
1.0
 10
157.4964115756
 20
170.797665254
 30
0.0
 41
0.9995899456
 10
156.7969845783
 20
170.6066476552
 30
0.0
 41
0.9995899456
 10
156.1046864461
 20
170.3912198391
 30
0.0
 41
1.0
 11
158.2021070288
 21
170.9640376528
 31
0.0
 11
158.0699072883
 21
170.9325646585
 31
0.0
 11
157.9378379051
 21
170.9005102688
 31
0.0
 11
157.8059027124
 21
170.8678752991
 31
0.0
 11
157.6741055361
 21
170.8346605983
 31
0.0
 11
157.5424501952
 21
170.8008670493
 31
0.0
 11
157.4109405009
 21
170.766495568
 31
0.0
 11
157.2795802566
 21
170.7315471043
 31
0.0
 11
157.1483732573
 21
170.6960226411
 31
0.0
 11
157.0173232892
 21
170.6599231945
 31
0.0
 11
156.8864341298
 21
170.6232498141
 31
0.0
 11
156.7557095467
 21
170.5860035822
 31
0.0
 11
156.625153298
 21
170.5481856144
 31
0.0
 11
156.4947691317
 21
170.5097970589
 31
0.0
 11
156.3645607851
 21
170.4708390967
 31
0.0
 11
156.2345319848
 21
170.4313129414
 31
0.0
 11
156.1046864461
 21
170.3912198391
 31
0.0
  0
LINE
  5
2C2
100
AcDbEntity
  8
0
100
AcDbLine
 62
7
  6
CONTINUOUS
 10
156.1046864461
 20
170.3912198391
 11
152.5155495979
 21
170.3912198391
  0
LINE
  5
2C3
100
AcDbEntity
  8
0
100
AcDbLine
 62
7
  6
CONTINUOUS
 10
152.5155495979
 20
170.3912198391
 11
152.5155495979
 21
171.7912198391
  0
LINE
  5
2C4
100
AcDbEntity
  8
0
100
AcDbLine
 62
7
  6
CONTINUOUS
 10
152.5155495979
 20
171.7912198391
 11
145.8155495979
 21
171.7912198391
  0
LINE
  5
2C5
100
AcDbEntity
  8
0
100
AcDbLine
 62
7
  6
CONTINUOUS
 10
145.8155495979
 20
171.7912198391
 11
145.3155495979
 21
172.2912198391
  0
HATCH
  5
2C6
100
AcDbEntity
  8
0
100
AcDbHatch
 62
2
  6
CONTINUOUS
 10
0.0
 20
0.0
 30
0.0
210
0.0
220
0.0
230
1.0
  2
A
 70
0
 71
1
 91
3
 92
1
 93
9
 72
1
 10
145.3155495979
 20
42.8912198391
 11
145.3155495979
 21
51.1912198391
 72
1
 10
159.3155495979
 20
51.1912198391
 11
145.3155495979
 21
51.1912198391
 72
1
 10
159.3155495979
 20
47.5912198391
 11
159.3155495979
 21
51.1912198391
 72
4
 94
3
 73
1
 74
0
 95
8
 96
4
 40
0.0
 40
0.0
 40
0.0
 40
0.0
 40
1.0
 40
1.0
 40
1.0
 40
1.0
 10
157.8155495979
 20
46.0912198391
 42
1.0
 10
158.6942292543
 20
46.0912198391
 42
0.8047378541
 10
159.3155495979
 20
46.7125401827
 42
0.8047378541
 10
159.3155495979
 20
47.5912198391
 42
1.0
 72
1
 10
155.8155495979
 20
46.0912198391
 11
157.8155495979
 21
46.0912198391
 72
4
 94
3
 73
1
 74
0
 95
8
 96
4
 40
0.0
 40
0.0
 40
0.0
 40
0.0
 40
1.0
 40
1.0
 40
1.0
 40
1.0
 10
155.8155495979
 20
46.0912198391
 42
1.0
 10
155.2297631602
 20
46.0912198391
 42
0.8047378541
 10
154.8155495979
 20
45.6770062768
 42
0.8047378541
 10
154.8155495979
 20
45.0912198391
 42
1.0
 72
1
 10
154.8155495979
 20
44.3912198391
 11
154.8155495979
 21
45.0912198391
 72
4
 94
3
 73
1
 74
0
 95
8
 96
4
 40
0.0
 40
0.0
 40
0.0
 40
0.0
 40
1.0
 40
1.0
 40
1.0
 40
1.0
 10
154.8155495979
 20
44.3912198391
 42
1.0
 10
154.8155495979
 20
43.5125401827
 42
0.8047378541
 10
154.1942292543
 20
42.8912198391
 42
0.8047378541
 10
153.3155495979
 20
42.8912198391
 42
1.0
 72
1
 10
145.3155495979
 20
42.8912198391
 11
153.3155495979
 21
42.8912198391
 97
62
330
288
330
289
330
28A
330
28B
330
28C
330
28D
330
28E
330
28F
330
290
330
291
330
292
330
293
330
294
330
295
330
296
330
297
330
298
330
299
330
29A
330
29B
330
29C
330
29D
330
29E
330
29F
330
2A0
330
2A1
330
2A2
330
2A3
330
2A4
330
2A5
330
2A6
330
2A7
330
2A8
330
2A9
330
2AA
330
2AB
330
2AC
330
2AD
330
2AE
330
2AF
330
2B0
330
2B1
330
2B2
330
2B3
330
2B4
330
2B5
330
2B6
330
2B7
330
2B8
330
2B9
330
2BA
330
2BB
330
2BC
330
2BD
330
2BE
330
2BF
330
2C0
330
2C1
330
2C2
330
2C3
330
2C4
330
2C5
 92
1
 93
32
 72
1
 10
145.3155495979
 20
62.1912198391
 11
145.3155495979
 21
109.2912198391
 72
1
 10
145.8155495979
 20
109.7912198391
 11
145.3155495979
 21
109.2912198391
 72
1
 10
152.5155495979
 20
109.7912198391
 11
145.8155495979
 21
109.7912198391
 72
1
 10
152.5155495979
 20
109.7912198391
 11
152.5155495979
 21
111.1912198391
 72
1
 10
156.1046864461
 20
111.1912198391
 11
152.5155495979
 21
111.1912198391
 72
4
 94
3
 73
1
 74
0
 95
8
 96
4
 40
0.0
 40
0.0
 40
0.0
 40
0.0
 40
1.0
 40
1.0
 40
1.0
 40
1.0
 10
158.2021070288
 20
110.6184020255
 42
1.0
 10
157.4964115756
 20
110.7847744242
 42
0.9995899456
 10
156.7969845783
 20
110.9757920231
 42
0.9995899456
 10
156.1046864461
 20
111.1912198391
 42
1.0
 72
1
 10
158.1155495979
 20
110.63893966
 11
158.2021070288
 21
110.6184020255
 72
1
 10
158.1155495979
 20
110.3412198391
 11
158.1155495979
 21
110.63893966
 72
4
 94
3
 73
1
 74
0
 95
8
 96
4
 40
0.0
 40
0.0
 40
0.0
 40
0.0
 40
1.0
 40
1.0
 40
1.0
 40
1.0
 10
158.1155495979
 20
110.3412198391
 42
1.0
 10
158.1155495979
 20
107.7971063567
 42
0.3915620501
 10
160.6499402186
 20
107.5748956616
 42
0.3915620501
 10
161.0926631595
 20
110.0801920131
 42
1.0
 72
4
 94
3
 73
1
 74
0
 95
8
 96
4
 40
0.0
 40
0.0
 40
0.0
 40
0.0
 40
1.0
 40
1.0
 40
1.0
 40
1.0
 10
174.5264127496
 20
111.1912198391
 42
1.0
 10
170.1666013885
 20
109.8345432914
 42
0.9840531149
 10
165.6161188361
 20
109.4581991662
 42
0.9840531149
 10
161.0926631595
 20
110.0801920131
 42
1.0
 72
1
 10
176.8155495979
 20
111.1912198391
 11
174.5264127496
 21
111.1912198391
 72
1
 10
176.8155495979
 20
108.1912198391
 11
176.8155495979
 21
111.1912198391
 72
1
 10
176.8155495979
 20
108.1912198391
 11
176.3255495979
 21
103.7712198391
 72
1
 10
176.3255495979
 20
103.7712198391
 11
174.8155495979
 21
103.5412198391
 72
1
 10
174.8155495979
 20
103.5412198391
 11
174.4455495979
 21
104.1712198391
 72
1
 10
174.4455495979
 20
104.1712198391
 11
173.9455495979
 21
104.1712198391
 72
1
 10
173.9455495979
 20
104.1712198391
 11
172.8155495979
 21
103.5412198391
 72
1
 10
172.8155495979
 20
103.1712198391
 11
172.8155495979
 21
103.5412198391
 72
4
 94
3
 73
1
 74
0
 95
8
 96
4
 40
0.0
 40
0.0
 40
0.0
 40
0.0
 40
1.0
 40
1.0
 40
1.0
 40
1.0
 10
170.0353650821
 20
101.3459912109
 42
1.0
 10
170.5302882437
 20
102.4880981225
 42
0.8906312417
 10
171.5708178463
 20
103.1712198391
 42
0.8906312417
 10
172.8155495979
 20
103.1712198391
 42
1.0
 72
4
 94
3
 73
1
 74
0
 95
8
 96
4
 40
0.0
 40
0.0
 40
0.0
 40
0.0
 40
1.0
 40
1.0
 40
1.0
 40
1.0
 10
170.0353650821
 20
101.3459912109
 42
1.0
 10
169.7086831272
 20
100.5921252627
 42
0.8906312417
 10
169.0218649077
 20
100.1412198391
 42
0.8906312417
 10
168.2002597911
 20
100.1412198391
 42
1.0
 72
1
 10
156.8155495979
 20
100.1412198391
 11
168.2002597911
 21
100.1412198391
 72
4
 94
3
 73
1
 74
0
 95
8
 96
4
 40
0.0
 40
0.0
 40
0.0
 40
0.0
 40
1.0
 40
1.0
 40
1.0
 40
1.0
 10
156.8155495979
 20
100.1412198391
 42
1.0
 10
155.6439767226
 20
100.1412198391
 42
0.8047378541
 10
154.8155495979
 20
99.3127927144
 42
0.8047378541
 10
154.8155495979
 20
98.1412198391
 42
1.0
 72
1
 10
154.8155495979
 20
82.8912198391
 11
154.8155495979
 21
98.1412198391
 72
1
 10
154.7655495979
 20
82.8912198391
 11
154.8155495979
 21
82.8912198391
 72
1
 10
154.7655495979
 20
72.8912198391
 11
154.7655495979
 21
82.8912198391
 72
1
 10
154.7655495979
 20
72.8912198391
 11
154.8155495979
 21
72.8912198391
 72
1
 10
154.8155495979
 20
68.2912198391
 11
154.8155495979
 21
72.8912198391
 72
4
 94
3
 73
1
 74
0
 95
8
 96
4
 40
0.0
 40
0.0
 40
0.0
 40
0.0
 40
1.0
 40
1.0
 40
1.0
 40
1.0
 10
155.8155495979
 20
67.2912198391
 42
1.0
 10
155.2297631602
 20
67.2912198391
 42
0.8047378541
 10
154.8155495979
 20
67.7054334015
 42
0.8047378541
 10
154.8155495979
 20
68.2912198391
 42
1.0
 72
1
 10
155.8155495979
 20
67.2912198391
 11
157.8155495979
 21
67.2912198391
 72
4
 94
3
 73
1
 74
0
 95
8
 96
4
 40
0.0
 40
0.0
 40
0.0
 40
0.0
 40
1.0
 40
1.0
 40
1.0
 40
1.0
 10
157.8155495979
 20
67.2912198391
 42
1.0
 10
158.6942292543
 20
67.2912198391
 42
0.8047378541
 10
159.3155495979
 20
66.6698994956
 42
0.8047378541
 10
159.3155495979
 20
65.7912198391
 42
1.0
 72
1
 10
159.3155495979
 20
62.1912198391
 11
159.3155495979
 21
65.7912198391
 72
1
 10
159.3155495979
 20
62.1912198391
 11
145.3155495979
 21
62.1912198391
 97
62
330
288
330
289
330
28A
330
28B
330
28C
330
28D
330
28E
330
28F
330
290
330
291
330
292
330
293
330
294
330
295
330
296
330
297
330
298
330
299
330
29A
330
29B
330
29C
330
29D
330
29E
330
29F
330
2A0
330
2A1
330
2A2
330
2A3
330
2A4
330
2A5
330
2A6
330
2A7
330
2A8
330
2A9
330
2AA
330
2AB
330
2AC
330
2AD
330
2AE
330
2AF
330
2B0
330
2B1
330
2B2
330
2B3
330
2B4
330
2B5
330
2B6
330
2B7
330
2B8
330
2B9
330
2BA
330
2BB
330
2BC
330
2BD
330
2BE
330
2BF
330
2C0
330
2C1
330
2C2
330
2C3
330
2C4
330
2C5
 92
1
 93
21
 72
1
 10
145.3155495979
 20
172.2912198391
 11
145.3155495979
 21
181.4412198391
 72
1
 10
145.3155495979
 20
181.4412198391
 11
168.2002597911
 21
181.4412198391
 72
4
 94
3
 73
1
 74
0
 95
8
 96
4
 40
0.0
 40
0.0
 40
0.0
 40
0.0
 40
1.0
 40
1.0
 40
1.0
 40
1.0
 10
168.2002597911
 20
181.4412198391
 42
1.0
 10
169.0218649077
 20
181.4412198391
 42
0.8906312417
 10
169.7086831272
 20
180.9903144156
 42
0.8906312417
 10
170.0353650821
 20
180.2364484674
 42
1.0
 72
4
 94
3
 73
1
 74
0
 95
8
 96
4
 40
0.0
 40
0.0
 40
0.0
 40
0.0
 40
1.0
 40
1.0
 40
1.0
 40
1.0
 10
170.0353650821
 20
180.2364484674
 42
1.0
 10
170.5302882437
 20
179.0943415558
 42
0.8906312417
 10
171.5708178463
 20
178.4112198391
 42
0.8906312417
 10
172.8155495979
 20
178.4112198391
 42
1.0
 72
1
 10
172.8155495979
 20
178.0412198391
 11
172.8155495979
 21
178.4112198391
 72
1
 10
173.9455495979
 20
177.4112198391
 11
172.8155495979
 21
178.0412198391
 72
1
 10
174.4455495979
 20
177.4112198391
 11
173.9455495979
 21
177.4112198391
 72
1
 10
174.8155495979
 20
178.0412198391
 11
174.4455495979
 21
177.4112198391
 72
1
 10
176.3255495979
 20
177.8112198391
 11
174.8155495979
 21
178.0412198391
 72
1
 10
176.8155495979
 20
173.3912198391
 11
176.3255495979
 21
177.8112198391
 72
1
 10
176.8155495979
 20
170.3912198391
 11
176.8155495979
 21
173.3912198391
 72
1
 10
176.8155495979
 20
170.3912198391
 11
174.5264127496
 21
170.3912198391
 72
4
 94
3
 73
1
 74
0
 95
8
 96
4
 40
0.0
 40
0.0
 40
0.0
 40
0.0
 40
1.0
 40
1.0
 40
1.0
 40
1.0
 10
174.5264127496
 20
170.3912198391
 42
1.0
 10
170.1666013885
 20
171.7478963869
 42
0.9840531149
 10
165.6161188361
 20
172.1242405121
 42
0.9840531149
 10
161.0926631595
 20
171.5022476651
 42
1.0
 72
4
 94
3
 73
1
 74
0
 95
8
 96
4
 40
0.0
 40
0.0
 40
0.0
 40
0.0
 40
1.0
 40
1.0
 40
1.0
 40
1.0
 10
161.0926631595
 20
171.5022476651
 42
1.0
 10
160.6499402186
 20
174.0075440167
 42
0.3915620501
 10
158.1155495979
 20
173.7853333216
 42
0.3915620501
 10
158.1155495979
 20
171.2412198391
 42
1.0
 72
1
 10
158.1155495979
 20
170.9435000183
 11
158.1155495979
 21
171.2412198391
 72
1
 10
158.2021070288
 20
170.9640376528
 11
158.1155495979
 21
170.9435000183
 72
4
 94
3
 73
1
 74
0
 95
8
 96
4
 40
0.0
 40
0.0
 40
0.0
 40
0.0
 40
1.0
 40
1.0
 40
1.0
 40
1.0
 10
158.2021070288
 20
170.9640376528
 42
1.0
 10
157.4964115756
 20
170.797665254
 42
0.9995899456
 10
156.7969845783
 20
170.6066476552
 42
0.9995899456
 10
156.1046864461
 20
170.3912198391
 42
1.0
 72
1
 10
156.1046864461
 20
170.3912198391
 11
152.5155495979
 21
170.3912198391
 72
1
 10
152.5155495979
 20
170.3912198391
 11
152.5155495979
 21
171.7912198391
 72
1
 10
152.5155495979
 20
171.7912198391
 11
145.8155495979
 21
171.7912198391
 72
1
 10
145.8155495979
 20
171.7912198391
 11
145.3155495979
 21
172.2912198391
 97
62
330
288
330
289
330
28A
330
28B
330
28C
330
28D
330
28E
330
28F
330
290
330
291
330
292
330
293
330
294
330
295
330
296
330
297
330
298
330
299
330
29A
330
29B
330
29C
330
29D
330
29E
330
29F
330
2A0
330
2A1
330
2A2
330
2A3
330
2A4
330
2A5
330
2A6
330
2A7
330
2A8
330
2A9
330
2AA
330
2AB
330
2AC
330
2AD
330
2AE
330
2AF
330
2B0
330
2B1
330
2B2
330
2B3
330
2B4
330
2B5
330
2B6
330
2B7
330
2B8
330
2B9
330
2BA
330
2BB
330
2BC
330
2BD
330
2BE
330
2BF
330
2C0
330
2C1
330
2C2
330
2C3
330
2C4
330
2C5
 75
0
 76
0
 52
45.0
 41
8.0757751867
 77
0
 78
1
 53
45.0
 43
0.0
 44
0.0
 45
-5.7104353978
 46
5.7104353978
 79
0
 98
1
 10
0.0
 20
0.0
  0
DIMENSION
  5
2C7
100
AcDbEntity
  8
0
100
AcDbDimension
 62
2
  6
CONTINUOUS
  2
*D0
 10
118.4167559487
 20
19.8016085791
 11
74.2667559487
 21
22.4266085791
 70
160
 71
2
 42
81.3
  3
DIMSTYLE_1
100
AcDbAlignedDimension
 13
37.1167559487
 23
91.1673045607
 14
118.4167559487
 24
91.1673045589
100
AcDbRotatedDimension
  0
DIMENSION
  5
2C8
100
AcDbEntity
  8
0
100
AcDbDimension
 62
2
  6
CONTINUOUS
  2
*D1
 10
9.5549597855
 20
181.4412198391
 11
8.8902818561
 21
108.2549844359
 70
160
 71
2
 42
138.55
  3
DIMSTYLE_2
100
AcDbAlignedDimension
 13
71.2361078757
 23
42.8912198391
 14
77.2667559487
 24
181.4412198391
 50
90.0
100
AcDbRotatedDimension
  0
DIMENSION
  5
2C9
100
AcDbEntity
  8
0
100
AcDbDimension
 62
2
  6
CONTINUOUS
  2
*D2
 10
28.399463807
 20
88.3912198391
 11
27.3427214634
 21
111.4622315165
 70
160
 71
2
 42
52.4
  3
DIMSTYLE_1
100
AcDbAlignedDimension
 13
77.2667559487
 23
140.7912198391
 14
53.4667559487
 24
88.3912198391
 50
270.0
100
AcDbRotatedDimension
  0
DIMENSION
  5
2CA
100
AcDbEntity
  8
0
100
AcDbDimension
 62
2
  6
CONTINUOUS
  2
*D3
 10
28.399463807
 20
56.6912198391
 11
27.3427214634
 21
69.4122315165
 70
160
 71
2
 42
31.7
  3
DIMSTYLE_1
100
AcDbAlignedDimension
 13
53.4667559487
 23
88.3912198391
 14
77.2667559487
 24
56.6912198391
 50
270.0
100
AcDbRotatedDimension
  0
DIMENSION
  5
2CB
100
AcDbEntity
  8
0
100
AcDbDimension
 62
2
  6
CONTINUOUS
  2
*D4
 10
101.5667559487
 20
30.418230563
 11
74.2667559487
 21
33.043230563
 70
160
 71
2
 42
47.6
  3
DIMSTYLE_1
100
AcDbAlignedDimension
 13
53.9667559487
 23
87.8912198391
 14
101.5667559487
 24
87.8912198391
100
AcDbRotatedDimension
  0
DIMENSION
  5
2CC
100
AcDbEntity
  8
0
100
AcDbDimension
 62
2
  6
CONTINUOUS
  2
*D5
 10
106.0408778659
 20
91.590006026
 11
125.4786492801
 21
108.7139861323
 70
163
 71
1
 42
11.0
  1
<>
  3
DIMSTYLE_3
100
AcDbDiametricDimension
 15
97.0926340314
 25
85.1924336522
  0
DIMENSION
  5
2CD
100
AcDbEntity
  8
0
100
AcDbDimension
 62
2
  6
CONTINUOUS
  2
*D6
 10
187.5155495979
 20
202.9383378016
 11
162.9155495979
 21
205.5633378016
 70
160
 71
2
 42
42.2
  3
DIMSTYLE_1
100
AcDbAlignedDimension
 13
145.3155495979
 23
181.9412198391
 14
187.5155495979
 24
156.8912198394
100
AcDbRotatedDimension
  0
DIMENSION
  5
2CE
100
AcDbEntity
  8
0
100
AcDbDimension
 62
2
  6
CONTINUOUS
  2
*D7
 10
176.8155495979
 20
19.2707774799
 11
157.5655495979
 21
21.8957774799
 70
160
 71
2
 42
31.5
  3
DIMSTYLE_1
100
AcDbAlignedDimension
 13
145.3155495979
 23
61.6912198391
 14
176.8155495979
 24
110.6912198391
100
AcDbRotatedDimension
  0
DIMENSION
  5
2CF
100
AcDbEntity
  8
0
100
AcDbDimension
 62
2
  6
CONTINUOUS
  2
*D8
 10
165.3155495979
 20
185.1003756705
 11
153.8655495979
 21
187.7253756705
 70
160
 71
2
 42
15.9
  3
DIMSTYLE_4
100
AcDbAlignedDimension
 13
149.4155495979
 23
156.8912198394
 14
165.3155495979
 24
171.8809893456
100
AcDbRotatedDimension
  0
DIMENSION
  5
2D0
100
AcDbEntity
  8
0
100
AcDbDimension
 62
2
  6
CONTINUOUS
  2
*D9
 10
159.3155495979
 20
32.6041423587
 11
150.5655495979
 21
35.2291423587
 70
160
 71
2
 42
14.0
  3
DIMSTYLE_4
100
AcDbAlignedDimension
 13
145.3155495979
 23
61.6912198391
 14
159.3155495979
 24
56.1912198391
100
AcDbRotatedDimension
  0
DIMENSION
  5
2D1
100
AcDbEntity
  8
0
100
AcDbDimension
 62
2
  6
CONTINUOUS
  2
*D10
 10
165.3155495979
 20
194.5432412445
 11
153.5655495979
 21
197.1682412445
 70
160
 71
2
 42
20.0
  3
DIMSTYLE_4
100
AcDbAlignedDimension
 13
145.3155495979
 23
172.7912198391
 14
165.3155495979
 24
171.6971056438
100
AcDbRotatedDimension
  0
DIMENSION
  5
2D2
100
AcDbEntity
  8
0
100
AcDbDimension
 62
2
  6
CONTINUOUS
  2
*D11
 10
18.3136729223
 20
140.7912198391
 11
17.2569305787
 21
88.7122315165
 70
160
 71
2
 42
97.9
  3
DIMSTYLE_1
100
AcDbAlignedDimension
 13
71.2361078757
 23
42.8912198391
 14
77.2667559487
 24
140.7912198391
 50
90.0
100
AcDbRotatedDimension
  0
MTEXT
  5
2D3
100
AcDbEntity
  8
0
100
AcDbMText
 62
2
  6
CONTINUOUS
  7
STANDARD
 71
3
 72
1
 10
170.3967828418
 20
11.5221715818
 30
0.0
 11
1.0
 21
0.0
 31
0.0
 44
0.9
  1
SEZIONE A-A
 40
3.5
 41
19.25
  0
LINE
  5
2D4
100
AcDbEntity
  8
0
100
AcDbLine
 62
7
  6
CONTINUOUS
 10
0.0
 20
0.0
 11
0.0
 21
210.0
  0
LINE
  5
2D5
100
AcDbEntity
  8
0
100
AcDbLine
 62
7
  6
CONTINUOUS
 10
0.0
 20
0.0
 11
297.0
 21
0.0
  0
LINE
  5
2D6
100
AcDbEntity
  8
0
100
AcDbLine
 62
7
  6
CONTINUOUS
 10
0.0
 20
210.0
 11
297.0
 21
210.0
  0
LINE
  5
2D7
100
AcDbEntity
  8
0
100
AcDbLine
 62
7
  6
CONTINUOUS
 10
297.0
 20
0.0
 11
297.0
 21
210.0
  0
LINE
  5
2D8
100
AcDbEntity
  8
0
100
AcDbLine
 62
7
  6
CONTINUOUS
 10
71.7361078757
 20
42.8912198391
 11
83.7974040217
 21
42.8912198391
  0
LINE
  5
2D9
100
AcDbEntity
  8
0
100
AcDbLine
 62
7
  6
CONTINUOUS
 10
71.7361078757
 20
44.3912198391
 11
83.7974040217
 21
44.3912198391
  0
LINE
  5
2DA
100
AcDbEntity
  8
0
100
AcDbLine
 62
7
  6
CONTINUOUS
 10
111.4683630505
 20
177.8002908559
 11
109.2683630505
 21
176.8890210187
  0
LINE
  5
2DB
100
AcDbEntity
  8
0
100
AcDbLine
 62
7
  6
CONTINUOUS
 10
41.2355042083
 20
79.5105844767
 11
67.7657949406
 21
44.8520398186
  0
LINE
  5
2DC
100
AcDbEntity
  8
0
100
AcDbLine
 62
7
  6
CONTINUOUS
 10
86.5766230762
 20
45.7637938248
 11
87.7677169568
 21
44.8520398186
  0
LINE
  5
2DD
100
AcDbEntity
  8
0
100
AcDbLine
 62
7
  6
CONTINUOUS
 10
42.4265980888
 20
80.4223384829
 11
68.9568888211
 21
45.7637938248
  0
LINE
  5
2DE
100
AcDbEntity
  8
0
100
AcDbLine
 62
7
  6
CONTINUOUS
 10
37.1167559487
 20
140.7912198391
 11
37.1167559487
 21
91.6673045589
  0
LINE
  5
2DF
100
AcDbEntity
  8
0
100
AcDbLine
 62
7
  6
CONTINUOUS
 10
38.6167559487
 20
123.8708179527
 11
38.6167559487
 21
91.6673045589
  0
LINE
  5
2E0
100
AcDbEntity
  8
0
100
AcDbLine
 62
7
  6
CONTINUOUS
 10
67.7667559487
 20
72.8912198391
 11
87.7667559487
 21
72.8912198391
  0
LINE
  5
2E1
100
AcDbEntity
  8
0
100
AcDbLine
 62
7
  6
CONTINUOUS
 10
87.7667559487
 20
82.8912198391
 11
67.7667559487
 21
82.8912198391
  0
LINE
  5
2E2
100
AcDbEntity
  8
0
100
AcDbLine
 62
7
  6
CONTINUOUS
 10
104.6215870131
 20
173.3333583944
 11
105.712035351
 21
174.4238067323
  0
LINE
  5
2E3
100
AcDbEntity
  8
0
100
AcDbLine
 62
7
  6
CONTINUOUS
 10
104.2832602432
 20
172.9645783831
 11
103.5427209692
 21
172.2240391092
  0
LINE
  5
2E4
100
AcDbEntity
  8
0
100
AcDbLine
 62
7
  6
CONTINUOUS
 10
106.0504560297
 20
171.9044893778
 11
107.1395179026
 21
172.9935512507
  0
LINE
  5
2E5
100
AcDbEntity
  8
0
100
AcDbLine
 62
6
  6
CONTINUOUS
 10
65.2047348842
 20
125.0331611098
 11
65.0011797373
 21
124.6805932532
  0
LINE
  5
2E6
100
AcDbEntity
  8
0
100
AcDbLine
 62
7
  6
CONTINUOUS
 10
108.908194063
 20
169.0467513445
 11
109.9945943751
 21
170.1331516566
  0
LINE
  5
2E7
100
AcDbEntity
  8
0
100
AcDbLine
 62
7
  6
CONTINUOUS
 10
109.9401144927
 20
167.3077241336
 11
109.1995752187
 21
166.5671848597
  0
LINE
  5
2E8
100
AcDbEntity
  8
0
100
AcDbLine
 62
7
  6
CONTINUOUS
 10
110.3370630796
 20
167.6178823279
 11
111.422187575
 21
168.7030068234
  0
LINE
  5
2E9
100
AcDbEntity
  8
0
100
AcDbLine
 62
7
  6
CONTINUOUS
 10
38.6167559487
 20
91.6673045589
 11
37.1167559487
 21
91.6673045607
  0
LINE
  5
2EA
100
AcDbEntity
  8
0
100
AcDbLine
 62
7
  6
CONTINUOUS
 10
116.9167559487
 20
91.6673045589
 11
118.4167559487
 21
91.6673045589
  0
LINE
  5
2EB
100
AcDbEntity
  8
0
100
AcDbLine
 62
7
  6
CONTINUOUS
 10
67.7667559487
 20
82.8912198391
 11
67.7667559487
 21
72.8912198391
  0
LINE
  5
2EC
100
AcDbEntity
  8
0
100
AcDbLine
 62
6
  6
CONTINUOUS
 10
70.400887307
 20
122.0331611098
 11
70.19733216
 21
121.6805932532
  0
LINE
  5
2ED
100
AcDbEntity
  8
0
100
AcDbLine
 62
7
  6
CONTINUOUS
 10
71.7361078757
 20
44.3912198391
 11
71.7361078757
 21
42.8912198391
  0
LINE
  5
2EE
100
AcDbEntity
  8
0
100
AcDbLine
 62
7
  6
CONTINUOUS
 10
113.1069138086
 20
80.4223384829
 11
114.298007688
 21
79.5105844753
  0
LINE
  5
2EF
100
AcDbEntity
  8
0
100
AcDbLine
 62
7
  6
CONTINUOUS
 10
83.7974040217
 20
44.3912198391
 11
83.797404017
 21
42.8912198391
  0
LINE
  5
2F0
100
AcDbEntity
  8
0
100
AcDbLine
 62
7
  6
CONTINUOUS
 10
42.4265980888
 20
80.4223384829
 11
41.2355042083
 21
79.5105844767
  0
LINE
  5
2F1
100
AcDbEntity
  8
0
100
AcDbLine
 62
6
  6
CONTINUOUS
 10
70.19733216
 20
121.6805932532
 11
65.0011797373
 21
124.6805932532
  0
LINE
  5
2F2
100
AcDbEntity
  8
0
100
AcDbLine
 62
7
  6
CONTINUOUS
 10
87.7667559487
 20
72.8912198391
 11
87.7667559487
 21
82.8912198391
  0
LINE
  5
2F3
100
AcDbEntity
  8
0
100
AcDbLine
 62
7
  6
CONTINUOUS
 10
114.7758269655
 20
174.492826941
 11
113.8645571283
 21
172.292826941
  0
LINE
  5
2F4
100
AcDbEntity
  8
0
100
AcDbLine
 62
7
  6
CONTINUOUS
 10
38.6167559487
 20
123.8708179527
 11
37.1167559487
 21
123.8708179527
  0
LINE
  5
2F5
100
AcDbEntity
  8
0
100
AcDbLine
 62
7
  6
CONTINUOUS
 10
116.9167559487
 20
123.8708179527
 11
118.4167559487
 21
123.8708179527
  0
LINE
  5
2F6
100
AcDbEntity
  8
0
100
AcDbLine
 62
6
  6
CONTINUOUS
 10
98.1017559487
 20
143.7912198391
 11
98.1017559487
 21
137.7912198391
  0
LINE
  5
2F7
100
AcDbEntity
  8
0
100
AcDbLine
 62
7
  6
CONTINUOUS
 10
109.2683630505
 20
176.8890210187
 11
109.1060156092
 21
175.8972330836
  0
LINE
  5
2F8
100
AcDbEntity
  8
0
100
AcDbLine
 62
6
  6
CONTINUOUS
 10
97.6946300235
 20
137.7912198391
 11
98.1017559487
 21
137.7912198391
  0
LINE
  5
2F9
100
AcDbEntity
  8
0
100
AcDbLine
 62
6
  6
CONTINUOUS
 10
97.6946124989
 20
143.7912198391
 11
98.1017559487
 21
143.7912198391
  0
LINE
  5
2FA
100
AcDbEntity
  8
0
100
AcDbLine
 62
7
  6
CONTINUOUS
 10
116.9167559487
 20
91.6673045589
 11
116.9167559487
 21
123.8708179527
  0
LINE
  5
2FB
100
AcDbEntity
  8
0
100
AcDbLine
 62
7
  6
CONTINUOUS
 10
118.4167559487
 20
91.6673045589
 11
118.4167559487
 21
140.7912202522
  0
LINE
  5
2FC
100
AcDbEntity
  8
0
100
AcDbLine
 62
7
  6
CONTINUOUS
 10
86.5766230762
 20
45.7637938248
 11
113.1069138086
 21
80.4223384829
  0
LINE
  5
2FD
100
AcDbEntity
  8
0
100
AcDbLine
 62
7
  6
CONTINUOUS
 10
87.7677169568
 20
44.8520398186
 11
114.2980076891
 21
79.5105844767
  0
LINE
  5
2FE
100
AcDbEntity
  8
0
100
AcDbLine
 62
7
  6
CONTINUOUS
 10
68.9568888211
 20
45.7637938248
 11
67.7657949378
 21
44.8520398223
  0
LINE
  5
2FF
100
AcDbEntity
  8
0
100
AcDbLine
 62
7
  6
CONTINUOUS
 10
113.8645571283
 20
172.292826941
 11
112.8727691931
 21
172.1304794997
  0
LINE
  5
300
100
AcDbEntity
  8
0
100
AcDbLine
 62
7
  6
CONTINUOUS
 10
104.2832602432
 20
172.9645783831
 11
109.9401144927
 21
167.3077241336
  0
LINE
  5
301
100
AcDbEntity
  8
0
100
AcDbLine
 62
7
  6
CONTINUOUS
 10
104.6215870131
 20
173.3333583944
 11
110.3370630796
 21
167.6178823279
  0
LINE
  5
302
100
AcDbEntity
  8
0
100
AcDbLine
 62
7
  6
CONTINUOUS
 10
112.8727691931
 20
172.1304794997
 11
109.1060156092
 21
175.8972330836
  0
LINE
  5
303
100
AcDbEntity
  8
0
100
AcDbLine
 62
7
  6
CONTINUOUS
 10
113.8645571283
 20
172.292826941
 11
109.2683630505
 21
176.8890210187
  0
LINE
  5
304
100
AcDbEntity
  8
0
100
AcDbLine
 62
7
  6
CONTINUOUS
 10
114.7758269655
 20
174.492826941
 11
111.4683630505
 21
177.8002908559
  0
LINE
  5
305
100
AcDbEntity
  8
0
100
AcDbLine
 62
7
  6
CONTINUOUS
 10
145.3155495979
 20
42.8912198391
 11
153.3155495979
 21
42.8912198391
  0
LINE
  5
306
100
AcDbEntity
  8
0
100
AcDbLine
 62
7
  6
CONTINUOUS
 10
155.8155495979
 20
46.0912198391
 11
157.8155495979
 21
46.0912198391
  0
LINE
  5
307
100
AcDbEntity
  8
0
100
AcDbLine
 62
7
  6
CONTINUOUS
 10
159.3155495979
 20
51.1912198391
 11
145.3155495979
 21
51.1912198391
  0
LINE
  5
308
100
AcDbEntity
  8
0
100
AcDbLine
 62
7
  6
CONTINUOUS
 10
159.3155495979
 20
62.1912198391
 11
145.3155495979
 21
62.1912198391
  0
LINE
  5
309
100
AcDbEntity
  8
0
100
AcDbLine
 62
7
  6
CONTINUOUS
 10
155.8155495979
 20
67.2912198391
 11
157.8155495979
 21
67.2912198391
  0
LINE
  5
30A
100
AcDbEntity
  8
0
100
AcDbLine
 62
7
  6
CONTINUOUS
 10
154.7655495979
 20
72.8912198391
 11
154.8155495979
 21
72.8912198391
  0
LINE
  5
30B
100
AcDbEntity
  8
0
100
AcDbLine
 62
6
  6
CONTINUOUS
 10
156.7155495979
 20
164.0962198378
 11
155.8155495979
 21
162.5212198391
  0
LINE
  5
30C
100
AcDbEntity
  8
0
100
AcDbLine
 62
7
  6
CONTINUOUS
 10
155.8155495979
 20
77.7912198391
 11
157.8155495979
 21
77.7912198391
  0
LINE
  5
30D
100
AcDbEntity
  8
0
100
AcDbLine
 62
7
  6
CONTINUOUS
 10
154.7655495979
 20
82.8912198391
 11
154.8155495979
 21
82.8912198391
  0
LINE
  5
30E
100
AcDbEntity
  8
0
100
AcDbLine
 62
7
  6
CONTINUOUS
 10
174.8155495979
 20
178.0412198391
 11
174.4455495979
 21
177.4112198391
  0
LINE
  5
30F
100
AcDbEntity
  8
0
100
AcDbLine
 62
7
  6
CONTINUOUS
 10
145.3155495979
 20
42.8912198391
 11
145.3155495979
 21
181.4412198391
  0
LINE
  5
310
100
AcDbEntity
  8
0
100
AcDbLine
 62
7
  6
CONTINUOUS
 10
145.8155495979
 20
109.7912198391
 11
145.8155495979
 21
171.7912198391
  0
LINE
  5
311
100
AcDbEntity
  8
0
100
AcDbLine
 62
6
  6
CONTINUOUS
 10
149.4155495979
 20
120.9412198391
 11
149.4155495979
 21
160.6412198391
  0
LINE
  5
312
100
AcDbEntity
  8
0
100
AcDbLine
 62
6
  6
CONTINUOUS
 10
149.7155495979
 20
120.6412198391
 11
149.7155495979
 21
160.9412198391
  0
LINE
  5
313
100
AcDbEntity
  8
0
100
AcDbLine
 62
6
  6
CONTINUOUS
 10
150.0155495979
 20
125.7912198389
 11
150.0155495979
 21
155.7912198394
  0
LINE
  5
314
100
AcDbEntity
  8
0
100
AcDbLine
 62
7
  6
CONTINUOUS
 10
152.5155495979
 20
109.7912198391
 11
152.5155495979
 21
171.7912198391
  0
LINE
  5
315
100
AcDbEntity
  8
0
100
AcDbLine
 62
6
  6
CONTINUOUS
 10
182.0155495979
 20
142.5232706467
 11
180.5155495979
 21
141.6572452429
  0
LINE
  5
316
100
AcDbEntity
  8
0
100
AcDbLine
 62
6
  6
CONTINUOUS
 10
183.5155495979
 20
139.9251944354
 11
182.0155495979
 21
139.0591690316
  0
LINE
  5
317
100
AcDbEntity
  8
0
100
AcDbLine
 62
7
  6
CONTINUOUS
 10
154.7655495979
 20
72.8912198391
 11
154.7655495979
 21
82.8912198391
  0
LINE
  5
318
100
AcDbEntity
  8
0
100
AcDbLine
 62
7
  6
CONTINUOUS
 10
154.8155495979
 20
44.3912198391
 11
154.8155495979
 21
45.0912198391
  0
LINE
  5
319
100
AcDbEntity
  8
0
100
AcDbLine
 62
7
  6
CONTINUOUS
 10
154.8155495979
 20
68.2912198391
 11
154.8155495979
 21
98.1412198391
  0
LINE
  5
31A
100
AcDbEntity
  8
0
100
AcDbLine
 62
7
  6
CONTINUOUS
 10
155.8155495979
 20
98.9912198391
 11
155.8155495979
 21
77.7912198391
  0
LINE
  5
31B
100
AcDbEntity
  8
0
100
AcDbLine
 62
6
  6
CONTINUOUS
 10
155.8155495979
 20
111.5021433771
 11
155.8155495979
 21
170.0802963012
  0
LINE
  5
31C
100
AcDbEntity
  8
0
100
AcDbLine
 62
6
  6
CONTINUOUS
 10
156.0256473177
 20
111.2159309035
 11
156.0256473177
 21
170.3665087748
  0
LINE
  5
31D
100
AcDbEntity
  8
0
100
AcDbLine
 62
7
  6
CONTINUOUS
 10
156.1046864461
 20
111.1912198391
 11
156.1046864461
 21
170.3912198391
  0
LINE
  5
31E
100
AcDbEntity
  8
0
100
AcDbLine
 62
6
  6
CONTINUOUS
 10
156.7155495979
 20
115.5812198391
 11
156.7155495979
 21
166.0012198391
  0
LINE
  5
31F
100
AcDbEntity
  8
0
100
AcDbLine
 62
7
  6
CONTINUOUS
 10
145.8155495979
 20
109.7912198391
 11
145.3155495979
 21
109.2912198391
  0
LINE
  5
320
100
AcDbEntity
  8
0
100
AcDbLine
 62
7
  6
CONTINUOUS
 10
176.3255495979
 20
103.7712198391
 11
174.8155495979
 21
103.5412198391
  0
LINE
  5
321
100
AcDbEntity
  8
0
100
AcDbLine
 62
7
  6
CONTINUOUS
 10
155.8155495979
 20
98.9912198391
 11
157.8155495979
 21
98.9912198391
  0
LINE
  5
322
100
AcDbEntity
  8
0
100
AcDbLine
 62
7
  6
CONTINUOUS
 10
156.8155495979
 20
100.1412198391
 11
168.2002597911
 21
100.1412198391
  0
LINE
  5
323
100
AcDbEntity
  8
0
100
AcDbLine
 62
6
  6
CONTINUOUS
 10
157.4730569749
 20
115.5812198391
 11
157.4730569749
 21
166.0012198391
  0
LINE
  5
324
100
AcDbEntity
  8
0
100
AcDbLine
 62
7
  6
CONTINUOUS
 10
157.8155495979
 20
98.9912198391
 11
157.8155495979
 21
77.7912198391
  0
LINE
  5
325
100
AcDbEntity
  8
0
100
AcDbLine
 62
7
  6
CONTINUOUS
 10
158.1155495979
 20
110.3412198391
 11
158.1155495979
 21
110.63893966
  0
LINE
  5
326
100
AcDbEntity
  8
0
100
AcDbLine
 62
7
  6
CONTINUOUS
 10
158.1155495979
 20
170.9435000183
 11
158.1155495979
 21
171.2412198391
  0
LINE
  5
327
100
AcDbEntity
  8
0
100
AcDbLine
 62
7
  6
CONTINUOUS
 10
158.2021070288
 20
170.9640376528
 11
158.2021070288
 21
162.47876038
  0
LINE
  5
328
100
AcDbEntity
  8
0
100
AcDbLine
 62
7
  6
CONTINUOUS
 10
158.2021070288
 20
161.7685771586
 11
158.2021070288
 21
110.6184020255
  0
LINE
  5
329
100
AcDbEntity
  8
0
100
AcDbLine
 62
7
  6
CONTINUOUS
 10
159.3155495979
 20
97.4912198391
 11
159.3155495979
 21
79.2912198391
  0
LINE
  5
32A
100
AcDbEntity
  8
0
100
AcDbLine
 62
7
  6
CONTINUOUS
 10
159.3155495979
 20
47.5912198391
 11
159.3155495979
 21
65.7912198391
  0
LINE
  5
32B
100
AcDbEntity
  8
0
100
AcDbLine
 62
7
  6
CONTINUOUS
 10
161.0926631595
 20
171.5022476651
 11
161.0926631595
 21
162.6909860098
  0
LINE
  5
32C
100
AcDbEntity
  8
0
100
AcDbLine
 62
7
  6
CONTINUOUS
 10
161.0926631595
 20
162.3218369181
 11
161.0926631595
 21
110.0801920131
  0
LINE
  5
32D
100
AcDbEntity
  8
0
100
AcDbLine
 62
6
  6
CONTINUOUS
 10
161.0996866969
 20
115.5812198391
 11
161.0996866969
 21
166.0012198391
  0
LINE
  5
32E
100
AcDbEntity
  8
0
100
AcDbLine
 62
6
  6
CONTINUOUS
 10
161.5030569749
 20
120.6412198391
 11
161.5030569749
 21
160.9412198391
  0
LINE
  5
32F
100
AcDbEntity
  8
0
100
AcDbLine
 62
6
  6
CONTINUOUS
 10
180.5155495979
 20
123.6136059551
 11
182.0155495979
 21
124.046618657
  0
LINE
  5
330
100
AcDbEntity
  8
0
100
AcDbLine
 62
6
  6
CONTINUOUS
 10
183.5155495979
 20
122.7475805513
 11
182.0155495979
 21
122.3145678494
  0
LINE
  5
331
100
AcDbEntity
  8
0
100
AcDbLine
 62
7
  6
CONTINUOUS
 10
174.4455495979
 20
104.1712198391
 11
173.9455495979
 21
104.1712198391
  0
LINE
  5
332
100
AcDbEntity
  8
0
100
AcDbLine
 62
6
  6
CONTINUOUS
 10
156.7155495979
 20
117.4862198405
 11
155.8155495979
 21
119.0612198391
  0
LINE
  5
333
100
AcDbEntity
  8
0
100
AcDbLine
 62
7
  6
CONTINUOUS
 10
152.5155495979
 20
109.7912198391
 11
145.8155495979
 21
109.7912198391
  0
LINE
  5
334
100
AcDbEntity
  8
0
100
AcDbLine
 62
7
  6
CONTINUOUS
 10
176.8155495979
 20
111.1912198391
 11
174.5264127496
 21
111.1912198391
  0
LINE
  5
335
100
AcDbEntity
  8
0
100
AcDbLine
 62
7
  6
CONTINUOUS
 10
156.1046864461
 20
111.1912198391
 11
152.5155495979
 21
111.1912198391
  0
LINE
  5
336
100
AcDbEntity
  8
0
100
AcDbLine
 62
7
  6
CONTINUOUS
 10
158.1155495979
 20
110.63893966
 11
158.2021070288
 21
110.6184020255
  0
LINE
  5
337
100
AcDbEntity
  8
0
100
AcDbLine
 62
6
  6
CONTINUOUS
 10
169.1280422208
 20
120.6412198391
 11
169.1280422208
 21
160.9412198391
  0
LINE
  5
338
100
AcDbEntity
  8
0
100
AcDbLine
 62
6
  6
CONTINUOUS
 10
169.5314124989
 20
115.5812198391
 11
169.5314124989
 21
166.0012198391
  0
LINE
  5
339
100
AcDbEntity
  8
0
100
AcDbLine
 62
6
  6
CONTINUOUS
 10
174.8155495979
 20
119.0612198391
 11
173.9155495979
 21
117.4862198405
  0
LINE
  5
33A
100
AcDbEntity
  8
0
100
AcDbLine
 62
6
  6
CONTINUOUS
 10
174.8155495979
 20
115.5812198391
 11
173.9155495979
 21
115.5812198391
  0
LINE
  5
33B
100
AcDbEntity
  8
0
100
AcDbLine
 62
6
  6
CONTINUOUS
 10
173.1630569749
 20
115.5812198391
 11
169.5314124989
 21
115.5812198391
  0
LINE
  5
33C
100
AcDbEntity
  8
0
100
AcDbLine
 62
6
  6
CONTINUOUS
 10
161.0996866969
 20
115.5812198391
 11
157.4730569749
 21
115.5812198391
  0
LINE
  5
33D
100
AcDbEntity
  8
0
100
AcDbLine
 62
6
  6
CONTINUOUS
 10
156.7155495979
 20
115.5812198391
 11
155.8155495979
 21
115.5812198391
  0
LINE
  5
33E
100
AcDbEntity
  8
0
100
AcDbLine
 62
7
  6
CONTINUOUS
 10
174.4455495979
 20
104.1712198391
 11
174.8155495979
 21
103.5412198391
  0
LINE
  5
33F
100
AcDbEntity
  8
0
100
AcDbLine
 62
7
  6
CONTINUOUS
 10
172.8155495979
 20
103.1712198391
 11
172.8155495979
 21
103.5412198391
  0
LINE
  5
340
100
AcDbEntity
  8
0
100
AcDbLine
 62
7
  6
CONTINUOUS
 10
172.8155495979
 20
178.0412198391
 11
172.8155495979
 21
178.4112198391
  0
LINE
  5
341
100
AcDbEntity
  8
0
100
AcDbLine
 62
6
  6
CONTINUOUS
 10
173.1630569749
 20
115.5812198391
 11
173.1630569749
 21
166.0012198391
  0
LINE
  5
342
100
AcDbEntity
  8
0
100
AcDbLine
 62
6
  6
CONTINUOUS
 10
173.9155495979
 20
115.5812198391
 11
173.9155495979
 21
166.0012198391
  0
LINE
  5
343
100
AcDbEntity
  8
0
100
AcDbLine
 62
7
  6
CONTINUOUS
 10
174.5264127496
 20
111.1912198391
 11
174.5264127496
 21
170.3912198391
  0
LINE
  5
344
100
AcDbEntity
  8
0
100
AcDbLine
 62
6
  6
CONTINUOUS
 10
174.605451878
 20
111.2159309035
 11
174.605451878
 21
170.3665087748
  0
LINE
  5
345
100
AcDbEntity
  8
0
100
AcDbLine
 62
6
  6
CONTINUOUS
 10
174.8155495979
 20
111.5021433771
 11
174.8155495979
 21
170.0802963012
  0
LINE
  5
346
100
AcDbEntity
  8
0
100
AcDbLine
 62
6
  6
CONTINUOUS
 10
187.2155495979
 20
120.6412198391
 11
174.8155495979
 21
120.6412198391
  0
LINE
  5
347
100
AcDbEntity
  8
0
100
AcDbLine
 62
6
  6
CONTINUOUS
 10
173.1630569749
 20
120.6412198391
 11
169.1280422208
 21
120.6412198391
  0
LINE
  5
348
100
AcDbEntity
  8
0
100
AcDbLine
 62
6
  6
CONTINUOUS
 10
161.5030569749
 20
120.6412198391
 11
157.4730569749
 21
120.6412198391
  0
LINE
  5
349
100
AcDbEntity
  8
0
100
AcDbLine
 62
6
  6
CONTINUOUS
 10
155.8155495979
 20
120.6412198391
 11
149.7155495979
 21
120.6412198391
  0
LINE
  5
34A
100
AcDbEntity
  8
0
100
AcDbLine
 62
7
  6
CONTINUOUS
 10
176.8155495979
 20
108.1912198391
 11
176.8155495979
 21
173.3912198391
  0
LINE
  5
34B
100
AcDbEntity
  8
0
100
AcDbLine
 62
6
  6
CONTINUOUS
 10
179.0155495979
 20
123.3408079529
 11
179.0155495979
 21
123.1805932532
  0
LINE
  5
34C
100
AcDbEntity
  8
0
100
AcDbLine
 62
6
  6
CONTINUOUS
 10
180.5155495979
 20
141.6572452429
 11
180.5155495979
 21
139.9251944354
  0
LINE
  5
34D
100
AcDbEntity
  8
0
100
AcDbLine
 62
6
  6
CONTINUOUS
 10
180.5155495979
 20
122.7475805513
 11
180.5155495979
 21
123.7899452026
  0
LINE
  5
34E
100
AcDbEntity
  8
0
100
AcDbLine
 62
7
  6
CONTINUOUS
 10
176.8155495979
 20
108.1912198391
 11
176.3255495979
 21
103.7712198391
  0
LINE
  5
34F
100
AcDbEntity
  8
0
100
AcDbLine
 62
7
  6
CONTINUOUS
 10
173.9455495979
 20
104.1712198391
 11
172.8155495979
 21
103.5412198391
  0
LINE
  5
350
100
AcDbEntity
  8
0
100
AcDbLine
 62
6
  6
CONTINUOUS
 10
186.9155495979
 20
125.7912198389
 11
150.0155495979
 21
125.7912198389
  0
LINE
  5
351
100
AcDbEntity
  8
0
100
AcDbLine
 62
6
  6
CONTINUOUS
 10
182.0155495979
 20
122.3145678494
 11
180.5155495979
 21
122.7475805513
  0
LINE
  5
352
100
AcDbEntity
  8
0
100
AcDbLine
 62
6
  6
CONTINUOUS
 10
182.0155495979
 20
124.2714212763
 11
182.0155495979
 21
124.046618657
  0
LINE
  5
353
100
AcDbEntity
  8
0
100
AcDbLine
 62
6
  6
CONTINUOUS
 10
182.0155495979
 20
122.5393704687
 11
182.0155495979
 21
122.3145678494
  0
LINE
  5
354
100
AcDbEntity
  8
0
100
AcDbLine
 62
6
  6
CONTINUOUS
 10
183.5155495979
 20
123.7899452026
 11
183.5155495979
 21
122.7475805513
  0
LINE
  5
355
100
AcDbEntity
  8
0
100
AcDbLine
 62
6
  6
CONTINUOUS
 10
183.5155495979
 20
139.9251944354
 11
183.5155495979
 21
141.6572452429
  0
LINE
  5
356
100
AcDbEntity
  8
0
100
AcDbLine
 62
6
  6
CONTINUOUS
 10
185.0155495979
 20
123.3408079529
 11
185.0155495979
 21
123.1805932532
  0
LINE
  5
357
100
AcDbEntity
  8
0
100
AcDbLine
 62
6
  6
CONTINUOUS
 10
182.0155495979
 20
124.046618657
 11
183.5155495979
 21
123.6136059551
  0
LINE
  5
358
100
AcDbEntity
  8
0
100
AcDbLine
 62
7
  6
CONTINUOUS
 10
176.8155495979
 20
173.3912198391
 11
176.3255495979
 21
177.8112198391
  0
LINE
  5
359
100
AcDbEntity
  8
0
100
AcDbLine
 62
6
  6
CONTINUOUS
 10
186.9155495979
 20
125.7912198389
 11
186.9155495979
 21
155.7912198394
  0
LINE
  5
35A
100
AcDbEntity
  8
0
100
AcDbLine
 62
6
  6
CONTINUOUS
 10
187.2155495979
 20
120.6412198391
 11
187.2155495979
 21
160.9412198391
  0
LINE
  5
35B
100
AcDbEntity
  8
0
100
AcDbLine
 62
6
  6
CONTINUOUS
 10
187.5155495979
 20
120.9412198391
 11
187.5155495979
 21
160.6412198391
  0
LINE
  5
35C
100
AcDbEntity
  8
0
100
AcDbLine
 62
7
  6
CONTINUOUS
 10
145.8155495979
 20
171.7912198391
 11
145.3155495979
 21
172.2912198391
  0
LINE
  5
35D
100
AcDbEntity
  8
0
100
AcDbLine
 62
6
  6
CONTINUOUS
 10
180.5155495979
 20
139.9251944354
 11
182.0155495979
 21
139.0591690316
  0
LINE
  5
35E
100
AcDbEntity
  8
0
100
AcDbLine
 62
6
  6
CONTINUOUS
 10
183.5155495979
 20
141.6572452429
 11
182.0155495979
 21
142.5232706467
  0
LINE
  5
35F
100
AcDbEntity
  8
0
100
AcDbLine
 62
6
  6
CONTINUOUS
 10
174.8155495979
 20
162.5212198391
 11
173.9155495979
 21
164.0962198378
  0
LINE
  5
360
100
AcDbEntity
  8
0
100
AcDbLine
 62
6
  6
CONTINUOUS
 10
186.9155495979
 20
155.7912198394
 11
150.0155495979
 21
155.7912198394
  0
LINE
  5
361
100
AcDbEntity
  8
0
100
AcDbLine
 62
6
  6
CONTINUOUS
 10
187.2155495979
 20
160.9412198391
 11
174.8155495979
 21
160.9412198391
  0
LINE
  5
362
100
AcDbEntity
  8
0
100
AcDbLine
 62
6
  6
CONTINUOUS
 10
173.1630569749
 20
160.9412198391
 11
169.1280422208
 21
160.9412198391
  0
LINE
  5
363
100
AcDbEntity
  8
0
100
AcDbLine
 62
6
  6
CONTINUOUS
 10
161.5030569749
 20
160.9412198391
 11
157.4730569749
 21
160.9412198391
  0
LINE
  5
364
100
AcDbEntity
  8
0
100
AcDbLine
 62
6
  6
CONTINUOUS
 10
155.8155495979
 20
160.9412198391
 11
149.7155495979
 21
160.9412198391
  0
LINE
  5
365
100
AcDbEntity
  8
0
100
AcDbLine
 62
6
  6
CONTINUOUS
 10
174.8155495979
 20
166.0012198391
 11
173.9155495979
 21
166.0012198391
  0
LINE
  5
366
100
AcDbEntity
  8
0
100
AcDbLine
 62
6
  6
CONTINUOUS
 10
173.1630569749
 20
166.0012198391
 11
169.5314124989
 21
166.0012198391
  0
LINE
  5
367
100
AcDbEntity
  8
0
100
AcDbLine
 62
6
  6
CONTINUOUS
 10
161.0996866969
 20
166.0012198391
 11
157.4730569749
 21
166.0012198391
  0
LINE
  5
368
100
AcDbEntity
  8
0
100
AcDbLine
 62
6
  6
CONTINUOUS
 10
156.7155495979
 20
166.0012198391
 11
155.8155495979
 21
166.0012198391
  0
LINE
  5
369
100
AcDbEntity
  8
0
100
AcDbLine
 62
7
  6
CONTINUOUS
 10
176.8155495979
 20
170.3912198391
 11
174.5264127496
 21
170.3912198391
  0
LINE
  5
36A
100
AcDbEntity
  8
0
100
AcDbLine
 62
7
  6
CONTINUOUS
 10
156.1046864461
 20
170.3912198391
 11
152.5155495979
 21
170.3912198391
  0
LINE
  5
36B
100
AcDbEntity
  8
0
100
AcDbLine
 62
7
  6
CONTINUOUS
 10
158.2021070288
 20
170.9640376528
 11
158.1155495979
 21
170.9435000183
  0
LINE
  5
36C
100
AcDbEntity
  8
0
100
AcDbLine
 62
7
  6
CONTINUOUS
 10
152.5155495979
 20
171.7912198391
 11
145.8155495979
 21
171.7912198391
  0
LINE
  5
36D
100
AcDbEntity
  8
0
100
AcDbLine
 62
7
  6
CONTINUOUS
 10
173.9455495979
 20
177.4112198391
 11
172.8155495979
 21
178.0412198391
  0
LINE
  5
36E
100
AcDbEntity
  8
0
100
AcDbLine
 62
7
  6
CONTINUOUS
 10
174.4455495979
 20
177.4112198391
 11
173.9455495979
 21
177.4112198391
  0
LINE
  5
36F
100
AcDbEntity
  8
0
100
AcDbLine
 62
7
  6
CONTINUOUS
 10
145.3155495979
 20
181.4412198391
 11
168.2002597911
 21
181.4412198391
  0
LINE
  5
370
100
AcDbEntity
  8
0
100
AcDbLine
 62
7
  6
CONTINUOUS
 10
176.3255495979
 20
177.8112198391
 11
174.8155495979
 21
178.0412198391
  0
ARC
  5
371
100
AcDbEntity
  8
0
100
AcDbCircle
 62
7
  6
CONTINUOUS
 10
57.1167559487
 20
91.6673045589
 40
20.0
100
AcDbArc
 50
180.0
 51
217.4331959143
  0
ARC
  5
372
100
AcDbEntity
  8
0
100
AcDbCircle
 62
7
  6
CONTINUOUS
 10
57.1167559487
 20
91.6673045589
 40
18.5
100
AcDbArc
 50
180.0
 51
217.4331959143
  0
CIRCLE
  5
373
100
AcDbEntity
  8
0
100
AcDbCircle
 62
7
  6
CONTINUOUS
 10
53.9667559487
 20
88.3912198391
 40
11.6
  0
CIRCLE
  5
374
100
AcDbEntity
  8
0
100
AcDbCircle
 62
7
  6
CONTINUOUS
 10
53.9667559487
 20
88.3912198391
 40
10.6
  0
CIRCLE
  5
375
100
AcDbEntity
  8
0
100
AcDbCircle
 62
7
  6
CONTINUOUS
 10
53.9667559487
 20
88.3912198391
 40
9.1
  0
CIRCLE
  5
376
100
AcDbEntity
  8
0
100
AcDbCircle
 62
7
  6
CONTINUOUS
 10
53.9667559487
 20
88.3912198391
 40
5.5
  0
CIRCLE
  5
377
100
AcDbEntity
  8
0
100
AcDbCircle
 62
7
  6
CONTINUOUS
 10
77.7667559487
 20
56.6912198391
 40
11.6
  0
CIRCLE
  5
378
100
AcDbEntity
  8
0
100
AcDbCircle
 62
7
  6
CONTINUOUS
 10
77.7667559487
 20
56.6912198391
 40
10.6
  0
CIRCLE
  5
379
100
AcDbEntity
  8
0
100
AcDbCircle
 62
7
  6
CONTINUOUS
 10
77.7667559487
 20
56.6912198391
 40
9.1
  0
CIRCLE
  5
37A
100
AcDbEntity
  8
0
100
AcDbCircle
 62
7
  6
CONTINUOUS
 10
77.7667559487
 20
56.6912198391
 40
5.5
  0
ARC
  5
37B
100
AcDbEntity
  8
0
100
AcDbCircle
 62
7
  6
CONTINUOUS
 10
71.7361078757
 20
47.8912198391
 40
5.0
100
AcDbArc
 50
217.4331959143
 51
270.0
  0
ARC
  5
37C
100
AcDbEntity
  8
0
100
AcDbCircle
 62
7
  6
CONTINUOUS
 10
71.7361078757
 20
47.8912198391
 40
3.5
100
AcDbArc
 50
217.4331959143
 51
270.0
  0
ARC
  5
37D
100
AcDbEntity
  8
0
100
AcDbCircle
 62
7
  6
CONTINUOUS
 10
77.7667559487
 20
140.7912198391
 40
42.65
100
AcDbArc
 50
203.3737194143
 51
336.6262805857
  0
CIRCLE
  5
37E
100
AcDbEntity
  8
0
100
AcDbCircle
 62
7
  6
CONTINUOUS
 10
77.7667559487
 20
140.7912198391
 40
40.65
  0
CIRCLE
  5
37F
100
AcDbEntity
  8
0
100
AcDbCircle
 62
7
  6
CONTINUOUS
 10
77.7667559487
 20
140.7912198391
 40
39.4452286282
  0
CIRCLE
  5
380
100
AcDbEntity
  8
0
100
AcDbCircle
 62
7
  6
CONTINUOUS
 10
77.7667559487
 20
140.7912198391
 40
37.62
  0
CIRCLE
  5
381
100
AcDbEntity
  8
0
100
AcDbCircle
 62
7
  6
CONTINUOUS
 10
77.7667559487
 20
140.7912198391
 40
37.25
  0
CIRCLE
  5
382
100
AcDbEntity
  8
0
100
AcDbCircle
 62
7
  6
CONTINUOUS
 10
77.7667559487
 20
140.7912198391
 40
37.02
  0
CIRCLE
  5
383
100
AcDbEntity
  8
0
100
AcDbCircle
 62
7
  6
CONTINUOUS
 10
77.7667559487
 20
140.7912198391
 40
32.6
  0
CIRCLE
  5
384
100
AcDbEntity
  8
0
100
AcDbCircle
 62
7
  6
CONTINUOUS
 10
77.7667559487
 20
140.7912198391
 40
29.6
  0
CIRCLE
  5
385
100
AcDbEntity
  8
0
100
AcDbCircle
 62
6
  6
CONTINUOUS
 10
77.7667559487
 20
140.7912198391
 40
29.5752889356
  0
CIRCLE
  5
386
100
AcDbEntity
  8
0
100
AcDbCircle
 62
6
  6
CONTINUOUS
 10
77.7667559487
 20
140.7912198391
 40
29.2890764621
  0
CIRCLE
  5
387
100
AcDbEntity
  8
0
100
AcDbCircle
 62
6
  6
CONTINUOUS
 10
77.7667559487
 20
140.7912198391
 40
25.21
  0
CIRCLE
  5
388
100
AcDbEntity
  8
0
100
AcDbCircle
 62
6
  6
CONTINUOUS
 10
77.7667559487
 20
140.7912198391
 40
23.3049999986
  0
CIRCLE
  5
389
100
AcDbEntity
  8
0
100
AcDbCircle
 62
6
  6
CONTINUOUS
 10
77.7667559487
 20
140.7912198391
 40
21.73
  0
CIRCLE
  5
38A
100
AcDbEntity
  8
0
100
AcDbCircle
 62
6
  6
CONTINUOUS
 10
77.7667559487
 20
140.7912198391
 40
20.15
  0
CIRCLE
  5
38B
100
AcDbEntity
  8
0
100
AcDbCircle
 62
6
  6
CONTINUOUS
 10
77.7667559487
 20
140.7912198391
 40
19.85
  0
CIRCLE
  5
38C
100
AcDbEntity
  8
0
100
AcDbCircle
 62
6
  6
CONTINUOUS
 10
77.7667559487
 20
140.7912198391
 40
15.6000000003
  0
CIRCLE
  5
38D
100
AcDbEntity
  8
0
100
AcDbCircle
 62
6
  6
CONTINUOUS
 10
77.7667559487
 20
140.7912198391
 40
15.0000000003
  0
ARC
  5
38E
100
AcDbEntity
  8
0
100
AcDbCircle
 62
7
  6
CONTINUOUS
 10
98.4167559487
 20
91.6673045589
 40
20.0
100
AcDbArc
 50
322.5668040857
 51
360.0
  0
ARC
  5
38F
100
AcDbEntity
  8
0
100
AcDbCircle
 62
7
  6
CONTINUOUS
 10
98.4167559487
 20
91.6673045589
 40
18.5
100
AcDbArc
 50
322.5668040857
 51
360.0
  0
CIRCLE
  5
390
100
AcDbEntity
  8
0
100
AcDbCircle
 62
7
  6
CONTINUOUS
 10
101.5667559487
 20
88.3912198391
 40
11.6
  0
CIRCLE
  5
391
100
AcDbEntity
  8
0
100
AcDbCircle
 62
7
  6
CONTINUOUS
 10
101.5667559487
 20
88.3912198391
 40
10.6
  0
CIRCLE
  5
392
100
AcDbEntity
  8
0
100
AcDbCircle
 62
7
  6
CONTINUOUS
 10
101.5667559487
 20
88.3912198391
 40
9.1
  0
CIRCLE
  5
393
100
AcDbEntity
  8
0
100
AcDbCircle
 62
7
  6
CONTINUOUS
 10
101.5667559487
 20
88.3912198391
 40
5.5
  0
ARC
  5
394
100
AcDbEntity
  8
0
100
AcDbCircle
 62
7
  6
CONTINUOUS
 10
83.7974040217
 20
47.8912198391
 40
5.0
100
AcDbArc
 50
270.0
 51
322.5668040857
  0
ARC
  5
395
100
AcDbEntity
  8
0
100
AcDbCircle
 62
7
  6
CONTINUOUS
 10
83.7974040217
 20
47.8912198391
 40
3.5
100
AcDbArc
 50
270.0
 51
322.5668040857
  0
ARC
  5
396
100
AcDbEntity
  8
0
100
AcDbCircle
 62
7
  6
CONTINUOUS
 10
106.9349106726
 20
176.2526249156
 40
2.2
100
AcDbArc
 50
237.7153204112
 51
350.7036042359
  0
ARC
  5
397
100
AcDbEntity
  8
0
100
AcDbCircle
 62
7
  6
CONTINUOUS
 10
113.2281610252
 20
169.9593745631
 40
2.2
100
AcDbArc
 50
99.2963957641
 51
212.7984867068
  0
ARC
  5
398
100
AcDbEntity
  8
0
100
AcDbCircle
 62
7
  6
CONTINUOUS
 10
112.0614348362
 20
175.0858987267
 40
2.0
100
AcDbArc
 50
3.5903778907
 51
86.4096221093
  0
ARC
  5
399
100
AcDbEntity
  8
0
100
AcDbCircle
 62
7
  6
CONTINUOUS
 10
104.6368136338
 20
172.6110249925
 40
0.5
100
AcDbArc
 50
45.0
 51
135.0
  0
ARC
  5
39A
100
AcDbEntity
  8
0
100
AcDbCircle
 62
7
  6
CONTINUOUS
 10
109.5865611021
 20
167.6612775242
 40
0.5
100
AcDbArc
 50
315.0
 51
45.0
  0
ARC
  5
39B
100
AcDbEntity
  8
0
100
AcDbCircle
 62
6
  6
CONTINUOUS
 10
165.3155495979
 20
117.7912198391
 40
4.76
100
AcDbArc
 50
207.6640044962
 51
332.3359955038
  0
ARC
  5
39C
100
AcDbEntity
  8
0
100
AcDbCircle
 62
6
  6
CONTINUOUS
 10
165.3155495979
 20
117.7912198391
 40
4.76
100
AcDbArc
 50
36.7796739233
 51
143.2203260767
  0
ARC
  5
39D
100
AcDbEntity
  8
0
100
AcDbCircle
 62
7
  6
CONTINUOUS
 10
156.8155495979
 20
98.1412198391
 40
2.0
100
AcDbArc
 50
90.0
 51
180.0
  0
ARC
  5
39E
100
AcDbEntity
  8
0
100
AcDbCircle
 62
7
  6
CONTINUOUS
 10
168.2002597911
 20
102.1412198391
 40
2.0
100
AcDbArc
 50
270.0
 51
336.5708777964
  0
ARC
  5
39F
100
AcDbEntity
  8
0
100
AcDbCircle
 62
7
  6
CONTINUOUS
 10
157.8155495979
 20
65.7912198391
 40
1.5
100
AcDbArc
 50
0.0
 51
90.0
  0
ARC
  5
3A0
100
AcDbEntity
  8
0
100
AcDbCircle
 62
7
  6
CONTINUOUS
 10
157.8155495979
 20
47.5912198391
 40
1.5
100
AcDbArc
 50
270.0
 51
360.0
  0
ARC
  5
3A1
100
AcDbEntity
  8
0
100
AcDbCircle
 62
7
  6
CONTINUOUS
 10
157.8155495979
 20
97.4912198391
 40
1.5
100
AcDbArc
 50
0.0
 51
90.0
  0
ARC
  5
3A2
100
AcDbEntity
  8
0
100
AcDbCircle
 62
7
  6
CONTINUOUS
 10
157.8155495979
 20
79.2912198391
 40
1.5
100
AcDbArc
 50
270.0
 51
360.0
  0
ARC
  5
3A3
100
AcDbEntity
  8
0
100
AcDbCircle
 62
7
  6
CONTINUOUS
 10
153.3155495979
 20
44.3912198391
 40
1.5
100
AcDbArc
 50
270.0
 51
360.0
  0
ARC
  5
3A4
100
AcDbEntity
  8
0
100
AcDbCircle
 62
7
  6
CONTINUOUS
 10
159.6155495979
 20
110.3412198391
 40
1.5
100
AcDbArc
 50
180.0
 51
349.9784511103
  0
ARC
  5
3A5
100
AcDbEntity
  8
0
100
AcDbCircle
 62
7
  6
CONTINUOUS
 10
155.8155495979
 20
45.0912198391
 40
1.0
100
AcDbArc
 50
90.0
 51
180.0
  0
ARC
  5
3A6
100
AcDbEntity
  8
0
100
AcDbCircle
 62
7
  6
CONTINUOUS
 10
155.8155495979
 20
68.2912198391
 40
1.0
100
AcDbArc
 50
180.0
 51
270.0
  0
ARC
  5
3A7
100
AcDbEntity
  8
0
100
AcDbCircle
 62
7
  6
CONTINUOUS
 10
155.8155495979
 20
99.9912198391
 40
1.0
100
AcDbArc
 50
228.1722099232
 51
270.0
  0
ARC
  5
3A8
100
AcDbEntity
  8
0
100
AcDbCircle
 62
7
  6
CONTINUOUS
 10
155.8155495979
 20
76.7912198391
 40
1.0
100
AcDbArc
 50
90.0
 51
180.0
  0
ARC
  5
3A9
100
AcDbEntity
  8
0
100
AcDbCircle
 62
6
  6
CONTINUOUS
 10
150.0155495979
 20
125.1912198389
 40
0.6
100
AcDbArc
 50
90.0
 51
180.0
  0
ARC
  5
3AA
100
AcDbEntity
  8
0
100
AcDbCircle
 62
6
  6
CONTINUOUS
 10
156.1155495979
 20
111.5021433771
 40
0.3
100
AcDbArc
 50
180.0
 51
252.5619600924
  0
ARC
  5
3AB
100
AcDbEntity
  8
0
100
AcDbCircle
 62
6
  6
CONTINUOUS
 10
149.7155495979
 20
120.9412198391
 40
0.3
100
AcDbArc
 50
180.0
 51
270.0
  0
ARC
  5
3AC
100
AcDbEntity
  8
0
100
AcDbCircle
 62
6
  6
CONTINUOUS
 10
165.3155495979
 20
140.7912198391
 40
31.0
100
AcDbArc
 50
107.2849825804
 51
107.4380399076
  0
ARC
  5
3AD
100
AcDbEntity
  8
0
100
AcDbCircle
 62
6
  6
CONTINUOUS
 10
165.3155495979
 20
140.7912198391
 40
31.0
100
AcDbArc
 50
256.734371532
 51
287.4380399076
  0
ARC
  5
3AE
100
AcDbEntity
  8
0
100
AcDbCircle
 62
6
  6
CONTINUOUS
 10
165.3155495979
 20
140.7912198391
 40
31.0
100
AcDbArc
 50
97.8292964384
 51
103.265628468
  0
ARC
  5
3AF
100
AcDbEntity
  8
0
100
AcDbCircle
 62
7
  6
CONTINUOUS
 10
159.5945093762
 20
206.2441067149
 40
43.9464022863
100
AcDbArc
 50
268.1083455208
 51
270.0274315048
  0
ARC
  5
3B0
100
AcDbEntity
  8
0
100
AcDbCircle
 62
7
  6
CONTINUOUS
 10
159.6372905264
 20
206.1941576304
 40
43.896453549
100
AcDbArc
 50
269.9716226847
 51
271.8999711186
  0
ARC
  5
3B1
100
AcDbEntity
  8
0
100
AcDbCircle
 62
7
  6
CONTINUOUS
 10
165.3155495979
 20
140.7912198391
 40
31.0
100
AcDbArc
 50
103.265628468
 51
107.2849825804
  0
ARC
  5
3B2
100
AcDbEntity
  8
0
100
AcDbCircle
 62
7
  6
CONTINUOUS
 10
165.3155495979
 20
140.7912198391
 40
31.0
100
AcDbArc
 50
252.7150174196
 51
256.734371532
  0
ARC
  5
3B3
100
AcDbEntity
  8
0
100
AcDbCircle
 62
7
  6
CONTINUOUS
 10
165.3155495979
 20
140.7912198391
 40
31.0
100
AcDbArc
 50
262.1707035616
 51
287.2849825804
  0
ARC
  5
3B4
100
AcDbEntity
  8
0
100
AcDbCircle
 62
7
  6
CONTINUOUS
 10
165.3155495979
 20
140.7912198391
 40
31.0
100
AcDbArc
 50
72.7150174196
 51
97.8292964384
  0
ARC
  5
3B5
100
AcDbEntity
  8
0
100
AcDbCircle
 62
6
  6
CONTINUOUS
 10
165.3155495979
 20
140.7912198391
 40
31.0
100
AcDbArc
 50
252.5619600924
 51
252.7150174196
  0
ARC
  5
3B6
100
AcDbEntity
  8
0
100
AcDbCircle
 62
6
  6
CONTINUOUS
 10
165.3155495979
 20
140.7912198391
 40
31.0
100
AcDbArc
 50
72.5619600924
 51
72.7150174196
  0
ARC
  5
3B7
100
AcDbEntity
  8
0
100
AcDbCircle
 62
6
  6
CONTINUOUS
 10
165.3155495979
 20
163.7912198391
 40
4.76
100
AcDbArc
 50
27.6640044962
 51
152.3359955038
  0
ARC
  5
3B8
100
AcDbEntity
  8
0
100
AcDbCircle
 62
6
  6
CONTINUOUS
 10
165.3155495979
 20
163.7912198391
 40
4.76
100
AcDbArc
 50
216.7796739233
 51
323.2203260767
  0
ARC
  5
3B9
100
AcDbEntity
  8
0
100
AcDbCircle
 62
7
  6
CONTINUOUS
 10
168.2002597911
 20
179.4412198391
 40
2.0
100
AcDbArc
 50
23.4291222039
 51
90.0
  0
ARC
  5
3BA
100
AcDbEntity
  8
0
100
AcDbCircle
 62
7
  6
CONTINUOUS
 10
159.6155495979
 20
171.2412198391
 40
1.5
100
AcDbArc
 50
10.0215488897
 51
180.0
  0
ARC
  5
3BB
100
AcDbEntity
  8
0
100
AcDbCircle
 62
7
  6
CONTINUOUS
 10
160.3879584418
 20
162.509929772
 40
0.7275919876
100
AcDbArc
 50
359.9594669852
 51
14.4090627249
  0
ARC
  5
3BC
100
AcDbEntity
  8
0
100
AcDbCircle
 62
6
  6
CONTINUOUS
 10
150.0155495979
 20
156.3912198394
 40
0.6
100
AcDbArc
 50
180.0
 51
270.0
  0
ARC
  5
3BD
100
AcDbEntity
  8
0
100
AcDbCircle
 62
6
  6
CONTINUOUS
 10
156.1155495979
 20
170.0802963012
 40
0.3
100
AcDbArc
 50
107.4380399076
 51
180.0
  0
ARC
  5
3BE
100
AcDbEntity
  8
0
100
AcDbCircle
 62
6
  6
CONTINUOUS
 10
149.7155495979
 20
160.6412198391
 40
0.3
100
AcDbArc
 50
90.0
 51
180.0
  0
ARC
  5
3BF
100
AcDbEntity
  8
0
100
AcDbCircle
 62
7
  6
CONTINUOUS
 10
172.8155495979
 20
100.1412198391
 40
3.03
100
AcDbArc
 50
90.0
 51
156.5708777961
  0
ARC
  5
3C0
100
AcDbEntity
  8
0
100
AcDbCircle
 62
6
  6
CONTINUOUS
 10
186.9155495979
 20
125.1912198389
 40
0.6
100
AcDbArc
 50
0.0
 51
90.0
  0
ARC
  5
3C1
100
AcDbEntity
  8
0
100
AcDbCircle
 62
6
  6
CONTINUOUS
 10
187.2155495979
 20
120.9412198391
 40
0.3
100
AcDbArc
 50
270.0
 51
360.0
  0
ARC
  5
3C2
100
AcDbEntity
  8
0
100
AcDbCircle
 62
6
  6
CONTINUOUS
 10
174.5155495979
 20
111.5021433771
 40
0.3
100
AcDbArc
 50
287.4380399076
 51
360.0
  0
ARC
  5
3C3
100
AcDbEntity
  8
0
100
AcDbCircle
 62
7
  6
CONTINUOUS
 10
172.8155495979
 20
181.4412198391
 40
3.03
100
AcDbArc
 50
203.4291222039
 51
270.0
  0
CIRCLE
  5
3C4
100
AcDbEntity
  8
0
100
AcDbCircle
 62
6
  6
CONTINUOUS
 10
182.0155495979
 20
140.7912198391
 40
3.0
  0
ARC
  5
3C5
100
AcDbEntity
  8
0
100
AcDbCircle
 62
6
  6
CONTINUOUS
 10
186.9155495979
 20
156.3912198394
 40
0.6
100
AcDbArc
 50
270.0
 51
360.0
  0
ARC
  5
3C6
100
AcDbEntity
  8
0
100
AcDbCircle
 62
6
  6
CONTINUOUS
 10
187.2155495979
 20
160.6412198391
 40
0.3
100
AcDbArc
 50
0.0
 51
90.0
  0
ARC
  5
3C7
100
AcDbEntity
  8
0
100
AcDbCircle
 62
6
  6
CONTINUOUS
 10
174.5155495979
 20
170.0802963012
 40
0.3
100
AcDbArc
 50
0.0
 51
72.5619600924
  0
SPLINE
  5
3C8
100
AcDbEntity
  8
0
100
AcDbSpline
 62
7
  6
CONTINUOUS
 70
0
 71
3
 72
11
 73
7
 74
5
 42
0.0000001
 43
0.0000001
 44
0.0000000001
 12
2.8069711103
 22
16.7722858993
 32
0.0
 13
-0.000001117
 23
17.0055479506
 33
0.0
 40
0.0
 40
0.0
 40
0.0
 40
0.0
 40
0.2516141455
 40
0.5019790832
 40
0.7512700064
 40
1.0
 40
1.0
 40
1.0
 40
1.0
 10
116.9167559487
 20
123.8708179527
 30
0.0
 10
117.1521804945
 20
125.2775327478
 30
0.0
 10
117.5783352683
 20
128.0915737169
 30
0.0
 10
118.0559884337
 20
132.3244574584
 30
0.0
 10
118.350431589
 20
136.5578179681
 30
0.0
 10
118.4167560413
 20
139.3812905043
 30
0.0
 10
118.4167559487
 20
140.7912204486
 30
0.0
 11
116.9167559487
 21
123.8708179527
 31
0.0
 11
117.5525126421
 21
128.1021598806
 31
0.0
 11
118.0262672696
 21
132.3333127138
 31
0.0
 11
118.3181753155
 21
136.5625795454
 31
0.0
 11
118.4167559487
 21
140.7912204486
 31
0.0
  0
SPLINE
  5
3C9
100
AcDbEntity
  8
0
100
AcDbSpline
 62
7
  6
CONTINUOUS
 70
0
 71
3
 72
11
 73
7
 74
5
 42
0.0000001
 43
0.0000001
 44
0.0000000001
 12
0.000003171
 22
-17.0055479782
 32
0.0
 13
2.8069699767
 23
-16.7722861169
 33
0.0
 40
0.0
 40
0.0
 40
0.0
 40
0.0
 40
0.2487299847
 40
0.4980209039
 40
0.74838585
 40
1.0
 40
1.0
 40
1.0
 40
1.0
 10
37.1167559487
 20
140.791220447
 30
0.0
 10
37.1167562116
 20
139.381290551
 30
0.0
 10
37.1830803927
 20
136.5578180952
 30
0.0
 10
37.4775229896
 20
132.3244575597
 30
0.0
 10
37.9551760152
 20
128.0915737285
 30
0.0
 10
38.3813314938
 20
125.2775327911
 30
0.0
 10
38.6167559487
 20
123.8708179527
 30
0.0
 11
37.1167559487
 21
140.791220447
 31
0.0
 11
37.2153366392
 21
136.5625796899
 31
0.0
 11
37.5072442168
 21
132.3333128875
 31
0.0
 11
37.980998842
 21
128.1021599025
 31
0.0
 11
38.6167559487
 21
123.8708179527
 31
0.0
  0
SPLINE
  5
3CA
100
AcDbEntity
  8
0
100
AcDbSpline
 62
7
  6
CONTINUOUS
 70
0
 71
3
 72
15
 73
11
 74
9
 42
0.0000001
 43
0.0000001
 44
0.0000000001
 12
1.7108276
 22
-1.1439785926
 32
0.0
 13
1.1495299771
 23
-1.7071024951
 33
0.0
 40
0.0
 40
0.0
 40
0.0
 40
0.0
 40
0.1256815565
 40
0.2516333943
 40
0.3764647109
 40
0.499963915
 40
0.6234971727
 40
0.7483882575
 40
0.8743589386
 40
1.0
 40
1.0
 40
1.0
 40
1.0
 10
105.712035351
 20
174.4238067323
 30
0.0
 10
105.7837085095
 20
174.3758810623
 30
0.0
 10
105.9310633594
 20
174.2857961644
 30
0.0
 10
106.1530495556
 20
174.1538700981
 30
0.0
 10
106.3661774708
 20
174.01005746
 30
0.0
 10
106.5595832294
 20
173.8423898312
 30
0.0
 10
106.7261768368
 20
173.6480231576
 30
0.0
 10
106.8692590886
 20
173.4343363614
 30
0.0
 10
107.0010123073
 20
173.2122240288
 30
0.0
 10
107.0913751804
 20
173.0650453072
 30
0.0
 10
107.1395179026
 20
172.9935512507
 30
0.0
 11
105.712035351
 21
174.4238067323
 31
0.0
 11
105.931160362
 21
174.2863678982
 31
0.0
 11
106.1524306372
 21
174.1513392313
 31
0.0
 11
106.3638403837
 21
174.0053633676
 31
0.0
 11
106.5551094123
 21
173.8379774898
 31
0.0
 11
106.7215293598
 21
173.6457747166
 31
0.0
 11
106.8668425608
 21
173.4337597976
 31
0.0
 11
107.0017076661
 21
173.2123443836
 31
0.0
 11
107.1395179026
 21
172.9935512507
 31
0.0
  0
SPLINE
  5
3CB
100
AcDbEntity
  8
0
100
AcDbSpline
 62
7
  6
CONTINUOUS
 70
0
 71
3
 72
15
 73
11
 74
9
 42
0.0000001
 43
0.0000001
 44
0.0000000001
 12
1.6897447434
 22
-1.1673336512
 32
0.0
 13
1.1728500757
 23
-1.6859204759
 33
0.0
 40
0.0
 40
0.0
 40
0.0
 40
0.0
 40
0.1255723406
 40
0.2514317329
 40
0.3762980816
 40
0.499969334
 40
0.6236711374
 40
0.7485910124
 40
0.8744661971
 40
1.0
 40
1.0
 40
1.0
 40
1.0
 10
109.9945943751
 20
170.1331516566
 30
0.0
 10
110.0653227759
 20
170.0842900503
 30
0.0
 10
110.2108984505
 20
169.9922831855
 30
0.0
 10
110.4305295158
 20
169.8577246547
 30
0.0
 10
110.6417793193
 20
169.7120357643
 30
0.0
 10
110.8342602173
 20
169.5438644623
 30
0.0
 10
111.0014195784
 20
169.3504726109
 30
0.0
 10
111.1464202355
 20
169.1386897702
 30
0.0
 10
111.2808241459
 20
168.9189456263
 30
0.0
 10
111.3731101316
 20
168.773553493
 30
0.0
 10
111.422187575
 20
168.7030068234
 30
0.0
 11
109.9945943751
 21
170.1331516566
 31
0.0
 11
110.2110254782
 21
169.9929116948
 31
0.0
 11
110.4298820349
 21
169.8553766101
 31
0.0
 11
110.6394956908
 21
169.7076402693
 31
0.0
 11
110.8300345869
 21
169.5396938159
 31
0.0
 11
110.9970682891
 21
169.348270982
 31
0.0
 11
111.1441810106
 21
169.1380849874
 31
0.0
 11
111.2815719057
 21
168.919099595
 31
0.0
 11
111.422187575
 21
168.7030068234
 31
0.0
  0
SPLINE
  5
3CC
100
AcDbEntity
  8
0
100
AcDbSpline
 62
7
  6
CONTINUOUS
 70
0
 71
3
 72
15
 73
11
 74
9
 42
0.0000001
 43
0.0000001
 44
0.0000000001
 12
3.1318134551
 22
-2.5823573471
 32
0.0
 13
2.5928171116
 23
-3.1231593637
 33
0.0
 40
0.0
 40
0.0
 40
0.0
 40
0.0
 40
0.1250043611
 40
0.2500098313
 40
0.3750089736
 40
0.4999995126
 40
0.6249905103
 40
0.7499903824
 40
0.8749960386
 40
1.0
 40
1.0
 40
1.0
 40
1.0
 10
107.1395179026
 20
172.9935512507
 30
0.0
 10
107.2700146826
 20
172.8859492739
 30
0.0
 10
107.535433687
 20
172.6761574424
 30
0.0
 10
107.9354570686
 20
172.3640210863
 30
0.0
 10
108.3261202428
 20
172.0399761198
 30
0.0
 10
108.6968312186
 20
171.6929729474
 30
0.0
 10
109.04179555
 20
171.3203799332
 30
0.0
 10
109.3644224584
 20
170.928568128
 30
0.0
 10
109.6762231971
 20
170.5282900613
 30
0.0
 10
109.886556905
 20
170.2632874209
 30
0.0
 10
109.9945943751
 20
170.1331516566
 30
0.0
 11
107.1395179026
 21
172.9935512507
 31
0.0
 11
107.5357493457
 21
172.6765828002
 31
0.0
 11
107.9339061136
 21
172.3620289706
 31
0.0
 11
108.3228060892
 21
172.0361399307
 31
0.0
 11
108.6925396573
 21
171.6887086301
 31
0.0
 11
109.0380625305
 21
171.317188437
 31
0.0
 11
109.3626113509
 21
170.9271654552
 31
0.0
 11
109.6768405676
 21
170.5287514879
 31
0.0
 11
109.9945943751
 21
170.1331516566
 31
0.0
  0
SPLINE
  5
3CD
100
AcDbEntity
  8
0
100
AcDbSpline
 62
7
  6
CONTINUOUS
 70
0
 71
3
 72
14
 73
10
 74
8
 42
0.0000001
 43
0.0000001
 44
0.0000000001
 12
-0.3077258486
 22
2.4522474608
 32
0.0
 13
-2.471479882
 23
-0.0
 33
0.0
 40
0.0
 40
0.0
 40
0.0
 40
0.0
 40
0.249996737
 40
0.4996884771
 40
0.624794677
 40
0.7498367208
 40
0.8747972756
 40
0.9373982265
 40
1.0
 40
1.0
 40
1.0
 40
1.0
 10
161.0926631595
 20
162.6909860098
 30
0.0
 10
161.0670196735
 20
162.8953372976
 30
0.0
 10
160.9723648374
 20
163.2997727623
 30
0.0
 10
160.7322572052
 20
163.7636961273
 30
0.0
 10
160.4584617081
 20
164.0740758879
 30
0.0
 10
160.2108929626
 20
164.2628817137
 30
0.0
 10
159.972436072
 20
164.3680939428
 30
0.0
 10
159.7704269587
 20
164.41162625
 30
0.0
 10
159.6671226058
 20
164.4190298088
 30
0.0
 10
159.6155495979
 20
164.4190298088
 30
0.0
 11
161.0926631595
 21
162.6909860098
 31
0.0
 11
160.9479336669
 21
163.2916578911
 31
0.0
 11
160.6571870286
 21
163.8359820726
 31
0.0
 11
160.4514047096
 21
164.0667562135
 31
0.0
 11
160.2044088333
 21
164.2524927906
 31
0.0
 11
159.9211461776
 21
164.37554915
 31
0.0
 11
159.7698771254
 21
164.4080302377
 31
0.0
 11
159.6155495979
 21
164.4190298088
 31
0.0
  0
SPLINE
  5
3CE
100
AcDbEntity
  8
0
100
AcDbSpline
 62
7
  6
CONTINUOUS
 70
0
 71
3
 72
13
 73
9
 74
7
 42
0.0000001
 43
0.0000001
 44
0.0000000001
 12
-2.1287278147
 22
0.0
 32
0.0
 13
-0.5215350792
 23
-2.0638515621
 33
0.0
 40
0.0
 40
0.0
 40
0.0
 40
0.0
 40
0.1249903223
 40
0.2500158194
 40
0.3750918688
 40
0.5002129479
 40
0.7499637098
 40
1.0
 40
1.0
 40
1.0
 40
1.0
 10
159.6155495979
 20
164.4190298088
 30
0.0
 10
159.5268594727
 20
164.4190298088
 30
0.0
 10
159.3487260387
 20
164.396907655
 30
0.0
 10
159.0977208673
 20
164.3021117213
 30
0.0
 10
158.872488838
 20
164.15682784
 30
0.0
 10
158.6131739844
 20
163.9124397698
 30
0.0
 10
158.3661109502
 20
163.5369747396
 30
0.0
 10
158.2452237006
 20
163.2005536407
 30
0.0
 10
158.2017561351
 20
163.0285410446
 30
0.0
 11
159.6155495979
 21
164.4190298088
 31
0.0
 11
159.3514571017
 21
164.3866477421
 31
0.0
 11
159.1020622537
 21
164.293720321
 31
0.0
 11
158.8776167155
 21
164.1504904754
 31
0.0
 11
158.6829676302
 21
163.9686846037
 31
0.0
 11
158.385378942
 21
163.528123397
 31
0.0
 11
158.2017561351
 21
163.0285410446
 31
0.0
  0
SPLINE
  5
3CF
100
AcDbEntity
  8
0
100
AcDbSpline
 62
7
  6
CONTINUOUS
 70
0
 71
3
 72
9
 73
5
 74
3
 42
0.0000001
 43
0.0000001
 44
0.0000000001
 12
0.0007485633
 22
0.3790372038
 32
0.0
 13
0.1609543428
 23
0.3431668133
 33
0.0
 40
0.0
 40
0.0
 40
0.0
 40
0.0
 40
0.4866254894
 40
1.0
 40
1.0
 40
1.0
 40
1.0
 10
158.1155495979
 20
162.112101622
 30
0.0
 10
158.1156710212
 20
162.173584677
 30
0.0
 10
158.1311907011
 20
162.3002959969
 30
0.0
 10
158.1745637431
 20
162.420036015
 30
0.0
 10
158.2021070288
 20
162.47876038
 30
0.0
 11
158.1155495979
 21
162.112101622
 31
0.0
 11
158.1373713627
 21
162.2952557584
 31
0.0
 11
158.2021070288
 21
162.47876038
 31
0.0
  0
SPLINE
  5
3D0
100
AcDbEntity
  8
0
100
AcDbSpline
 62
7
  6
CONTINUOUS
 70
0
 71
3
 72
9
 73
5
 74
3
 42
0.0000001
 43
0.0000001
 44
0.0000000001
 12
-0.1688670077
 22
0.3145660153
 32
0.0
 13
-0.0007198123
 23
0.3570256659
 33
0.0
 40
0.0
 40
0.0
 40
0.0
 40
0.0
 40
0.49949619
 40
1.0
 40
1.0
 40
1.0
 40
1.0
 10
158.2021070288
 20
161.7685771586
 30
0.0
 10
158.1739908865
 20
161.8209520006
 30
0.0
 10
158.1298538836
 20
161.9329806415
 30
0.0
 10
158.1156696875
 20
162.0525373867
 30
0.0
 10
158.1155495979
 20
162.112101622
 30
0.0
 11
158.2021070288
 21
161.7685771586
 31
0.0
 11
158.1373714757
 21
161.9347459944
 31
0.0
 11
158.1155495979
 21
162.112101622
 31
0.0
  0
SPLINE
  5
3D1
100
AcDbEntity
  8
0
100
AcDbSpline
 62
7
  6
CONTINUOUS
 70
0
 71
3
 72
9
 73
5
 74
3
 42
0.0000001
 43
0.0000001
 44
0.0000000001
 12
0.0445015303
 22
0.1839090523
 32
0.0
 13
0.0000000039
 23
0.1892166106
 33
0.0
 40
0.0
 40
0.0
 40
0.0
 40
0.0
 40
0.2545821392
 40
1.0
 40
1.0
 40
1.0
 40
1.0
 10
161.0926631595
 20
162.3218369181
 30
0.0
 10
161.0964395911
 20
162.3374435714
 30
0.0
 10
161.1095544449
 20
162.399144561
 30
0.0
 10
161.1155502464
 20
162.4623999013
 30
0.0
 10
161.1155502473
 20
162.5094150483
 30
0.0
 11
161.0926631595
 21
162.3218369181
 31
0.0
 11
161.1026558057
 21
162.3689602519
 31
0.0
 11
161.1155502473
 21
162.5094150483
 31
0.0
  0
SPLINE
  5
3D2
100
AcDbEntity
  8
0
100
AcDbSpline
 62
6
  6
CONTINUOUS
 70
0
 71
3
 72
22
 73
18
 74
16
 42
0.0000001
 43
0.0000001
 44
0.0000000001
 12
0.0
 22
7.445557249
 32
0.0
 13
-0.0
 23
-7.445557249
 33
0.0
 40
0.0
 40
0.0
 40
0.0
 40
0.0
 40
0.0438296089
 40
0.0942894363
 40
0.1532258091
 40
0.2203015223
 40
0.2948377315
 40
0.3745093999
 40
0.4579989555
 40
0.5422130434
 40
0.6256763172
 40
0.7053415742
 40
0.7798287335
 40
0.8468906588
 40
0.9057719439
 40
0.9562134789
 40
1.0
 40
1.0
 40
1.0
 40
1.0
 10
185.0155495979
 20
123.3408079529
 30
0.0
 10
185.0155495979
 20
123.4495865736
 30
0.0
 10
184.9624391615
 20
123.6846040263
 30
0.0
 10
184.7559672845
 20
124.0097749443
 30
0.0
 10
184.4359936122
 20
124.3137558101
 30
0.0
 10
184.01452927
 20
124.58309841
 30
0.0
 10
183.5087807511
 20
124.8024355481
 30
0.0
 10
182.9378303624
 20
124.9581402363
 30
0.0
 10
182.3273607791
 20
125.0388073927
 30
0.0
 10
181.70221667
 20
125.0387038774
 30
0.0
 10
181.091854527
 20
124.9578527833
 30
0.0
 10
180.5211486195
 20
124.8020203606
 30
0.0
 10
180.0156296233
 20
124.5825925514
 30
0.0
 10
179.5944961982
 20
124.3132725444
 30
0.0
 10
179.2747862153
 20
124.0093361751
 30
0.0
 10
179.0685707089
 20
123.6843444073
 30
0.0
 10
179.0155495979
 20
123.4494796361
 30
0.0
 10
179.0155495979
 20
123.3408079529
 30
0.0
 11
185.0155495979
 21
123.3408079529
 31
0.0
 11
184.9501960095
 21
123.6605328399
 31
0.0
 11
184.7565509785
 21
123.9824850796
 31
0.0
 11
184.4428022214
 21
124.2892742005
 31
0.0
 11
184.0243633074
 21
124.5619008291
 31
0.0
 11
183.5163214295
 21
124.7852347989
 31
0.0
 11
182.9444417765
 21
124.9428414775
 31
0.0
 11
182.3282687777
 21
125.0250001632
 31
0.0
 11
181.7012479735
 21
125.0248954624
 31
0.0
 11
181.0852953835
 21
124.9425645658
 31
0.0
 11
180.5135124464
 21
124.7847867399
 31
0.0
 11
180.0058758983
 21
124.5614382898
 31
0.0
 11
179.5876121653
 21
124.2887308903
 31
0.0
 11
179.2742581719
 21
123.982124753
 31
0.0
 11
179.0807813589
 21
123.6602302908
 31
0.0
 11
179.0155495979
 21
123.3408079529
 31
0.0
  0
SPLINE
  5
3D3
100
AcDbEntity
  8
0
100
AcDbSpline
 62
6
  6
CONTINUOUS
 70
0
 71
3
 72
22
 73
18
 74
16
 42
0.0000001
 43
0.0000001
 44
0.0000000001
 12
0.0
 22
-7.0787509373
 32
0.0
 13
0.0
 23
7.0787509373
 33
0.0
 40
0.0
 40
0.0
 40
0.0
 40
0.0
 40
0.0437956132
 40
0.0912702624
 40
0.1468083983
 40
0.2118725737
 40
0.2865529638
 40
0.3685029542
 40
0.4558223822
 40
0.5444002702
 40
0.6316898394
 40
0.7136291222
 40
0.7882556465
 40
0.8533024636
 40
0.9087869044
 40
0.956245548
 40
1.0
 40
1.0
 40
1.0
 40
1.0
 10
179.0155495979
 20
123.3408079529
 30
0.0
 10
179.0155495979
 20
123.2374685401
 30
0.0
 10
179.0635777738
 20
123.0193503781
 30
0.0
 10
179.2753882997
 20
122.7356680097
 30
0.0
 10
179.6008016294
 20
122.5018887914
 30
0.0
 10
180.0242326614
 20
122.3146975687
 30
0.0
 10
180.5294781185
 20
122.1741425197
 30
0.0
 10
181.0982360065
 20
122.0801300159
 30
0.0
 10
181.7055043731
 20
122.033218392
 30
0.0
 10
182.3271084046
 20
122.0332777823
 30
0.0
 10
182.9342719375
 20
122.0802997426
 30
0.0
 10
183.5027906321
 20
122.1743999707
 30
0.0
 10
184.007811681
 20
122.3150363922
 30
0.0
 10
184.4309168913
 20
122.5022435647
 30
0.0
 10
184.7560657449
 20
122.7360317145
 30
0.0
 10
184.9676040229
 20
123.019587613
 30
0.0
 10
185.0155495979
 20
123.2375656634
 30
0.0
 10
185.0155495979
 20
123.3408079529
 30
0.0
 11
179.0155495979
 21
123.3408079529
 31
0.0
 11
179.0809031862
 21
123.0377564447
 31
0.0
 11
179.2745482172
 21
122.7630953013
 31
0.0
 11
179.5882969743
 21
122.5261960112
 31
0.0
 11
180.0067358883
 21
122.3337474501
 31
0.0
 11
180.5147777662
 21
122.1876043577
 31
0.0
 11
181.0866574192
 21
122.0902708262
 31
0.0
 11
181.702830418
 21
122.0413435618
 31
0.0
 11
182.3298512222
 21
122.0414051425
 31
0.0
 11
182.9458038122
 21
122.0904377985
 31
0.0
 11
183.5175867493
 21
122.1878877439
 31
0.0
 11
184.0252232974
 21
122.3340605442
 31
0.0
 11
184.4434870304
 21
122.5265958718
 31
0.0
 11
184.7568410238
 21
122.7633871611
 31
0.0
 11
184.9503178368
 21
123.0380282469
 31
0.0
 11
185.0155495979
 21
123.3408079529
 31
0.0
  0
SPLINE
  5
3D4
100
AcDbEntity
  8
0
100
AcDbSpline
 62
6
  6
CONTINUOUS
 70
0
 71
3
 72
19
 73
15
 74
13
 42
0.0000001
 43
0.0000001
 44
0.0000000001
 12
0.0
 22
7.245602995
 32
0.0
 13
0.0
 23
-7.245602995
 33
0.0
 40
0.0
 40
0.0
 40
0.0
 40
0.0
 40
0.0554075228
 40
0.1202449929
 40
0.198780824
 40
0.2906268075
 40
0.3926055501
 40
0.5
 40
0.6073944499
 40
0.7093731925
 40
0.801219176
 40
0.8797550071
 40
0.9445924772
 40
1.0
 40
1.0
 40
1.0
 40
1.0
 10
185.0155495979
 20
123.1805932532
 30
0.0
 10
185.0155495979
 20
123.3144135575
 30
0.0
 10
184.9306757759
 20
123.6070615442
 30
0.0
 10
184.603471715
 20
123.9718064079
 30
0.0
 10
184.1168605869
 20
124.2744337412
 30
0.0
 10
183.496789154
 20
124.5040469972
 30
0.0
 10
182.7811981655
 20
124.648130212
 30
0.0
 10
182.0155495979
 20
124.697244623
 30
0.0
 10
181.2499010302
 20
124.648130212
 30
0.0
 10
180.5343100417
 20
124.5040469972
 30
0.0
 10
179.9142386088
 20
124.2744337412
 30
0.0
 10
179.4276274807
 20
123.9718064079
 30
0.0
 10
179.1004234198
 20
123.6070615442
 30
0.0
 10
179.0155495979
 20
123.3144135575
 30
0.0
 10
179.0155495979
 20
123.1805932532
 30
0.0
 11
185.0155495979
 21
123.1805932532
 31
0.0
 11
184.9133270767
 21
123.5688218208
 31
0.0
 11
184.6136258092
 21
123.9305932532
 31
0.0
 11
184.1368699414
 21
124.241253425
 31
0.0
 11
183.5155495979
 21
124.4796313589
 31
0.0
 11
182.7920067332
 21
124.6294819926
 31
0.0
 11
182.0155495979
 21
124.6805932532
 31
0.0
 11
181.2390924625
 21
124.6294819926
 31
0.0
 11
180.5155495979
 21
124.4796313589
 31
0.0
 11
179.8942292543
 21
124.241253425
 31
0.0
 11
179.4174733865
 21
123.9305932532
 31
0.0
 11
179.117772119
 21
123.5688218208
 31
0.0
 11
179.0155495979
 21
123.1805932532
 31
0.0
  0
SPLINE
  5
3D5
100
AcDbEntity
  8
0
100
AcDbSpline
 62
6
  6
CONTINUOUS
 70
0
 71
3
 72
19
 73
15
 74
13
 42
0.0000001
 43
0.0000001
 44
0.0000000001
 12
0.0
 22
-7.245602995
 32
0.0
 13
0.0
 23
7.245602995
 33
0.0
 40
0.0
 40
0.0
 40
0.0
 40
0.0
 40
0.0554075228
 40
0.1202449929
 40
0.198780824
 40
0.2906268075
 40
0.3926055501
 40
0.5
 40
0.6073944499
 40
0.7093731925
 40
0.801219176
 40
0.8797550071
 40
0.9445924772
 40
1.0
 40
1.0
 40
1.0
 40
1.0
 10
179.0155495979
 20
123.1805932532
 30
0.0
 10
179.0155495979
 20
123.0467729489
 30
0.0
 10
179.1004234198
 20
122.7541249622
 30
0.0
 10
179.4276274807
 20
122.3893800984
 30
0.0
 10
179.9142386088
 20
122.0867527651
 30
0.0
 10
180.5343100417
 20
121.8571395091
 30
0.0
 10
181.2499010302
 20
121.7130562944
 30
0.0
 10
182.0155495979
 20
121.6639418834
 30
0.0
 10
182.7811981655
 20
121.7130562944
 30
0.0
 10
183.496789154
 20
121.8571395091
 30
0.0
 10
184.1168605869
 20
122.0867527651
 30
0.0
 10
184.603471715
 20
122.3893800984
 30
0.0
 10
184.9306757759
 20
122.7541249622
 30
0.0
 10
185.0155495979
 20
123.0467729489
 30
0.0
 10
185.0155495979
 20
123.1805932532
 30
0.0
 11
179.0155495979
 21
123.1805932532
 31
0.0
 11
179.117772119
 21
122.7923646855
 31
0.0
 11
179.4174733865
 21
122.4305932532
 31
0.0
 11
179.8942292543
 21
122.1199330814
 31
0.0
 11
180.5155495979
 21
121.8815551475
 31
0.0
 11
181.2390924625
 21
121.7317045138
 31
0.0
 11
182.0155495979
 21
121.6805932532
 31
0.0
 11
182.7920067332
 21
121.7317045138
 31
0.0
 11
183.5155495979
 21
121.8815551475
 31
0.0
 11
184.1368699414
 21
122.1199330814
 31
0.0
 11
184.6136258092
 21
122.4305932532
 31
0.0
 11
184.9133270767
 21
122.7923646855
 31
0.0
 11
185.0155495979
 21
123.1805932532
 31
0.0
  0
ELLIPSE
  5
3D6
100
AcDbEntity
  8
0
100
AcDbEllipse
 62
6
  6
CONTINUOUS
 10
179.0155495979
 20
140.7912198391
 30
0.0
 11
34.4168062276
 21
12.8314352252
 31
0.0
 40
0.4514162296
 41
-1.694540742
 42
-1.6514688494
  0
ELLIPSE
  5
3D7
100
AcDbEntity
  8
0
100
AcDbEllipse
 62
6
  6
CONTINUOUS
 10
185.0155495979
 20
140.7912198391
 30
0.0
 11
34.4168062276
 21
-12.8314352252
 31
0.0
 40
0.4514162296
 41
-1.4901238042
 42
-1.4470519116
  0
ELLIPSE
  5
3D8
100
AcDbEntity
  8
0
100
AcDbEllipse
 62
6
  6
CONTINUOUS
 10
185.0155495979
 20
140.7912198391
 30
0.0
 11
34.4168062276
 21
12.8314352252
 31
0.0
 40
0.4514162296
 41
-1.8235969765
 42
-1.7805250839
  0
ELLIPSE
  5
3D9
100
AcDbEntity
  8
0
100
AcDbEllipse
 62
6
  6
CONTINUOUS
 10
179.0155495979
 20
140.7912198391
 30
0.0
 11
34.4168062276
 21
-12.8314352252
 31
0.0
 40
0.4514162296
 41
-1.3610675697
 42
-1.3179956771
  0
ENDSEC
  0
SECTION
  2
OBJECTS
  0
DICTIONARY
  5
C
100
AcDbDictionary
280
0
281
1
  3
ACAD_GROUP
350
D
  3
ACAD_MLINESTYLE
350
17
  3
ACAD_LAYOUT
350
1A
  3
ACAD_PLOTSETTINGS
350
19
  3
ACAD_PLOTSTYLENAME
350
E
  0
DICTIONARY
  5
D
102
{ACAD_REACTORS
330
C
102
}
100
AcDbDictionary
280
0
281
1
  0
ACDBDICTIONARYWDFLT
  5
E
102
{ACAD_REACTORS
330
C
102
}
100
AcDbDictionary
281
1
  3
Normal
350
F
100
AcDbDictionaryWithDefault
340
F
  0
DICTIONARY
  5
17
102
{ACAD_REACTORS
330
C
102
}
100
AcDbDictionary
280
0
281
1
  3
Standard
350
18
  0
DICTIONARY
  5
19
102
{ACAD_REACTORS
330
C
102
}
100
AcDbDictionary
281
1
  0
DICTIONARY
  5
1A
102
{ACAD_REACTORS
330
C
102
}
100
AcDbDictionary
281
1
  3
Model
350
3DA
  3
Layout1
350
3DB
  0
ACDBPLACEHOLDER
  5
F
102
{ACAD_REACTORS
330
E
102
}
  0
MLINESTYLE
  5
18
102
{ACAD_REACTORS
330
17
102
}
100
AcDbMlineStyle
  2
STANDARD
 70
0
  3

 62
256
 51
90.0
 52
90.0
 71
2
 49
0.5
 62
256
  6
BYLAYER
 49
-0.5
 62
256
  6
BYLAYER
  0
LAYOUT
  5
3DA
102
{ACAD_REACTORS
330
1A
102
}
100
AcDbPlotSettings
  1

  2
none_device
  4
ISO_A4_(297.00_x_210.00_MM)
  6

 40
0.0
 41
0.0
 42
0.0
 43
0.0
 44
297.0
 45
210.0
 46
0.0
 47
0.0
 48
0.0
 49
0.0
140
0.0
141
0.0
142
1.0
143
1.0
 70
1024
 72
1
 73
0
 74
0
  7

 75
0
147
1.0
148
0.0
149
0.0
100
AcDbLayout
  1
Model
 70
0
 71
0
 10
0.0
 20
0.0
 11
297.0
 21
210.0
 12
0.0
 22
0.0
 32
0.0
 14
0.0
 24
0.0
 34
0.0
 15
0.0
 25
0.0
 35
0.0
146
0.0
 13
0.0
 23
0.0
 33
0.0
 16
1.0
 26
0.0
 36
0.0
 17
0.0
 27
1.0
 37
0.0
 76
0
330
202
345
0
346
0
  0
LAYOUT
  5
3DB
102
{ACAD_REACTORS
330
1A
102
}
100
AcDbPlotSettings
  1

  2
none_device
  4
ISO_A4_(297.00_x_210.00_MM)
  6

 40
0.0
 41
0.0
 42
0.0
 43
0.0
 44
297.0
 45
210.0
 46
0.0
 47
0.0
 48
0.0
 49
0.0
140
0.0
141
0.0
142
1.0
143
1.0
 70
0
 72
1
 73
0
 74
0
  7

 75
0
147
1.0
148
0.0
149
0.0
100
AcDbLayout
  1
Layout1
 70
0
 71
1
 10
0.0
 20
0.0
 11
297.0
 21
210.0
 12
0.0
 22
0.0
 32
0.0
 14
0.0
 24
0.0
 34
0.0
 15
0.0
 25
0.0
 35
0.0
146
0.0
 13
0.0
 23
0.0
 33
0.0
 16
1.0
 26
0.0
 36
0.0
 17
0.0
 27
1.0
 37
0.0
 76
0
330
203
345
0
346
0
  0
ENDSEC
  0
EOF
