  0
SECTION
  2
HEADER
  9
$ACADVER
  1
AC1014
  9
$DWGCODEPAGE
  3
ANSI_1252
  9
$EXTMAX
 10
297.0
 20
210.0
 30
0.0
  9
$EXTMIN
 10
0.0
 20
0.0
 30
0.0
  9
$LIMMIN
 10
0.0
 20
0.0
  9
$LIMMAX
 10
297.0
 20
210.0
  9
$VIEWCTR
 10
148.5
 20
105.0
  9
$VIEWSIZE
 40
210.0
  9
$CLAYER
  8
0
  9
$LTSCALE
 40
16.335
  9
$CELTYPE
  6
BYLAYER
  9
$DIMSCALE
 40
1.0
  9
$DIMASZ
 40
3.5
  9
$DIMEXO
 40
1.85625
  9
$DIMDLI
 40
11.286
  9
$DIMEXE
 40
5.346
  9
$DIMCEN
 40
2.673
  9
$DIMLFAC
 40
1.0
  9
$DIMBLK
  1
_ARROW_FILLED
  9
$DIMTXT
 40
3.5
  9
$DIMTOL
 70
1
  9
$DIMLIM
 70
0
  9
$DIMTFAC
 40
1.0
  9
$DIMTP
 40
0.01
  9
$DIMTM
 40
0.01
  9
$PDMODE
 70
3
  9
$PDSIZE
 40
0.3125
  9
$HANDSEED
  5
3AA
  9
$TILEMODE
 70
1
  9
$MEASUREMENT
 70
1
  0
ENDSEC
  0
SECTION
  2
CLASSES
  0
ENDSEC
  0
SECTION
  2
TABLES
  0
TABLE
  2
VPORT
  5
8
100
AcDbSymbolTable
 70
2
  0
VPORT
  5
1F4
100
AcDbSymbolTableRecord
100
AcDbViewportTableRecord
  2
*ACTIVE
 70
0
 10
0.0
 20
0.0
 11
1.0
 21
1.0
 12
148.5
 22
105.0
 13
0.0
 23
0.0
 14
1.0
 24
1.0
 15
0.0
 25
0.0
 16
0.0
 26
0.0
 36
1.0
 17
0.0
 27
0.0
 37
0.0
 40
210.0
 41
1.4142857143
 42
50.0
 43
0.0
 44
0.0
 50
0.0
 51
0.0
 71
0
 72
100
 73
1
 74
1
 75
0
 76
0
 77
0
 78
0
  0
ENDTAB
  0
TABLE
  2
LTYPE
  5
5
100
AcDbSymbolTable
 70
6
  0
LTYPE
  5
14
100
AcDbSymbolTableRecord
100
AcDbLinetypeTableRecord
  2
BYBLOCK
 70
0
  3

 72
65
 73
0
 40
0.0
  0
LTYPE
  5
15
100
AcDbSymbolTableRecord
100
AcDbLinetypeTableRecord
  2
BYLAYER
 70
0
  3

 72
65
 73
0
 40
0.0
  0
LTYPE
  5
16
100
AcDbSymbolTableRecord
100
AcDbLinetypeTableRecord
  2
CONTINUOUS
 70
64
  3
Solid line
 72
65
 73
0
 40
0.0
  0
LTYPE
  5
1F5
100
AcDbSymbolTableRecord
100
AcDbLinetypeTableRecord
  2
CENTER
 70
64
  3
____ _ ____ _ ____ _ ____ _ ____ _ ____ _ ____
 72
65
 73
4
 40
0.6
 49
0.375
 74
0
 49
-0.075
 74
0
 49
0.075
 74
0
 49
-0.075
 74
0
  0
LTYPE
  5
1F6
100
AcDbSymbolTableRecord
100
AcDbLinetypeTableRecord
  2
HIDDEN
 70
64
  3
- - - - - - - - - - - - - - - - - - - -
 72
65
 73
2
 40
0.2
 49
0.1
 74
0
 49
-0.1
 74
0
  0
LTYPE
  5
1F7
100
AcDbSymbolTableRecord
100
AcDbLinetypeTableRecord
  2
PHANTOM
 70
64
  3
_____ _ _ _____ _ _ _____ _ _ _____
 72
65
 73
6
 40
0.8
 49
0.45
 74
0
 49
-0.05
 74
0
 49
0.1
 74
0
 49
-0.05
 74
0
 49
0.1
 74
0
 49
-0.05
 74
0
  0
LTYPE
  5
1F8
100
AcDbSymbolTableRecord
100
AcDbLinetypeTableRecord
  2
DOT
 70
64
  3
. . . . . . . . . . . . . . . . . . . .
 72
65
 73
2
 40
0.2
 49
0.1
 74
0
 49
-0.1
 74
0
  0
LTYPE
  5
1F9
100
AcDbSymbolTableRecord
100
AcDbLinetypeTableRecord
  2
DASHED
 70
64
  3
- - - - - - - - - - - - - - - - - - - -
 72
65
 73
2
 40
0.2
 49
0.1
 74
0
 49
-0.1
 74
0
  0
ENDTAB
  0
TABLE
  2
LAYER
  5
2
100
AcDbSymbolTable
 70
36
  0
LAYER
  5
10
100
AcDbSymbolTableRecord
100
AcDbLayerTableRecord
  2
0
 70
0
 62
7
  6
CONTINUOUS
  0
LAYER
  5
1FA
100
AcDbSymbolTableRecord
100
AcDbLayerTableRecord
  2
DEFAULT_1
 70
0
 62
7
  6
CENTER
  0
LAYER
  5
1FB
100
AcDbSymbolTableRecord
100
AcDbLayerTableRecord
  2
DEFAULT_2
 70
0
 62
8
  6
HIDDEN
  0
LAYER
  5
1FC
100
AcDbSymbolTableRecord
100
AcDbLayerTableRecord
  2
DEFAULT_3
 70
0
 62
7
  6
PHANTOM
  0
LAYER
  5
1FD
100
AcDbSymbolTableRecord
100
AcDbLayerTableRecord
  2
ASSI
 70
0
 62
7
  6
CONTINUOUS
  0
LAYER
  5
1FE
100
AcDbSymbolTableRecord
100
AcDbLayerTableRecord
  2
PIANI
 70
0
 62
7
  6
CONTINUOUS
  0
ENDTAB
  0
TABLE
  2
STYLE
  5
3
100
AcDbSymbolTable
 70
1
  0
STYLE
  5
11
100
AcDbSymbolTableRecord
100
AcDbTextStyleTableRecord
  2
STANDARD
 70
0
 40
0.0
 41
0.5
 50
0.0
 71
0
 42
0.2
  3
txt
  4

  0
STYLE
  5
1FF
100
AcDbSymbolTableRecord
100
AcDbTextStyleTableRecord
  2
TEXTSTYLE_1
 70
0
 40
0.0
 41
0.8
 50
0.0
 71
0
 42
0.2
  3
gdt
  4

  0
STYLE
  5
200
100
AcDbSymbolTableRecord
100
AcDbTextStyleTableRecord
  2
TEXTSTYLE_2
 70
0
 40
0.0
 41
0.5
 50
0.0
 71
0
 42
0.2
  3
gdt
  4

  0
ENDTAB
  0
TABLE
  2
VIEW
  5
6
100
AcDbSymbolTable
 70
0
  0
ENDTAB
  0
TABLE
  2
UCS
  5
7
100
AcDbSymbolTable
 70
0
  0
ENDTAB
  0
TABLE
  2
APPID
  5
9
100
AcDbSymbolTable
 70
1
  0
APPID
  5
201
100
AcDbSymbolTableRecord
100
AcDbRegAppTableRecord
  2
ACAD
 70
0
  0
ENDTAB
  0
TABLE
  2
BLOCK_RECORD
  5
1
100
AcDbSymbolTable
 70
0
  0
BLOCK_RECORD
  5
1F
100
AcDbSymbolTableRecord
100
AcDbBlockTableRecord
  2
*MODEL_SPACE
  0
BLOCK_RECORD
  5
1B
100
AcDbSymbolTableRecord
100
AcDbBlockTableRecord
  2
*PAPER_SPACE
  0
BLOCK_RECORD
  5
202
100
AcDbSymbolTableRecord
100
AcDbBlockTableRecord
  2
_ARROW_FILLED
  0
BLOCK_RECORD
  5
203
100
AcDbSymbolTableRecord
100
AcDbBlockTableRecord
  2
*D0
  0
BLOCK_RECORD
  5
204
100
AcDbSymbolTableRecord
100
AcDbBlockTableRecord
  2
*D1
  0
BLOCK_RECORD
  5
205
100
AcDbSymbolTableRecord
100
AcDbBlockTableRecord
  2
*D2
  0
BLOCK_RECORD
  5
206
100
AcDbSymbolTableRecord
100
AcDbBlockTableRecord
  2
*D3
  0
BLOCK_RECORD
  5
207
100
AcDbSymbolTableRecord
100
AcDbBlockTableRecord
  2
*D4
  0
BLOCK_RECORD
  5
208
100
AcDbSymbolTableRecord
100
AcDbBlockTableRecord
  2
*D5
  0
BLOCK_RECORD
  5
209
100
AcDbSymbolTableRecord
100
AcDbBlockTableRecord
  2
*D6
  0
BLOCK_RECORD
  5
20A
100
AcDbSymbolTableRecord
100
AcDbBlockTableRecord
  2
*D7
  0
ENDTAB
  0
TABLE
  2
DIMSTYLE
  5
A
100
AcDbSymbolTable
 70
1
  0
DIMSTYLE
105
20B
100
AcDbSymbolTableRecord
100
AcDbDimStyleTableRecord
  2
STANDARD
 70
0
  3

  4

  5
_ARROW_FILLED
  6
_ARROW_FILLED
  7
_ARROW_FILLED
 40
1.0
 41
3.5
 42
0.0625
 43
0.38
 44
0.18
 45
0.0
 46
0.0
 47
0.01
 48
0.01
140
3.5
141
0.09
142
0.0
143
25.4
144
1.0
145
0.0
146
1.0
147
0.09
 71
1.0
 72
0.0
 73
0
 74
0
 75
0
 76
0
 77
1
 78
8
170
0
171
2
172
0
173
0
174
0
175
0
176
0
177
0
178
0
270
2
271
2
272
2
273
2
274
2
275
0
280
0
281
0
282
0
283
1
284
8
285
0
286
0
287
3
288
0
340
11
  0
DIMSTYLE
105
20C
100
AcDbSymbolTableRecord
100
AcDbDimStyleTableRecord
  2
DIMSTYLE_1
 70
0
  3

  4

  5
_ARROW_FILLED
  6
_ARROW_FILLED
  7
_ARROW_FILLED
 40
1.0
 41
3.5
 42
0.0625
 43
0.38
 44
0.18
 45
0.0
 46
0.0
 47
0.15
 48
0.15
140
3.5
141
0.09
142
0.0
143
25.4
144
1.0
145
0.0
146
1.0
147
0.09
 71
0.0
 72
0.0
 73
0
 74
0
 75
0
 76
0
 77
1
 78
8
170
0
171
2
172
0
173
0
174
0
175
0
176
0
177
0
178
0
270
2
271
2
272
2
273
2
274
2
275
0
280
0
281
0
282
0
283
1
284
8
285
0
286
0
287
3
288
0
340
11
  0
DIMSTYLE
105
20D
100
AcDbSymbolTableRecord
100
AcDbDimStyleTableRecord
  2
DIMSTYLE_2
 70
0
  3

  4

  5
_ARROW_FILLED
  6
_ARROW_FILLED
  7
_ARROW_FILLED
 40
1.0
 41
3.5
 42
0.0625
 43
0.38
 44
0.18
 45
0.0
 46
0.0
 47
0.1
 48
0.1
140
3.5
141
0.09
142
0.0
143
25.4
144
1.0
145
0.0
146
1.0
147
0.09
 71
0.0
 72
0.0
 73
0
 74
0
 75
0
 76
0
 77
1
 78
8
170
0
171
2
172
0
173
0
174
0
175
0
176
0
177
0
178
0
270
2
271
2
272
2
273
2
274
2
275
0
280
0
281
0
282
0
283
1
284
8
285
0
286
0
287
3
288
0
340
11
  0
DIMSTYLE
105
20E
100
AcDbSymbolTableRecord
100
AcDbDimStyleTableRecord
  2
DIMSTYLE_3
 70
0
  3

  4

  5
_ARROW_FILLED
  6
_ARROW_FILLED
  7
_ARROW_FILLED
 40
1.0
 41
3.5
 42
0.0625
 43
0.38
 44
0.18
 45
0.0
 46
0.0
 47
0.1
 48
0.1
140
3.5
141
0.09
142
0.0
143
25.4
144
1.0
145
0.0
146
1.0
147
0.09
 71
0.0
 72
0.0
 73
0
 74
0
 75
0
 76
0
 77
1
 78
8
170
0
171
2
172
0
173
0
174
0
175
0
176
0
177
0
178
0
270
2
271
2
272
2
273
2
274
2
275
0
280
0
281
0
282
0
283
1
284
8
285
0
286
0
287
3
288
0
340
11
  0
ENDTAB
  0
ENDSEC
  0
SECTION
  2
BLOCKS
  0
BLOCK
  5
20
100
AcDbEntity
  8
0
100
AcDbBlockBegin
  2
*MODEL_SPACE
 70
0
 10
0.0
 20
0.0
 30
0.0
  3
*MODEL_SPACE
  1

  0
ENDBLK
  5
21
100
AcDbEntity
  8
0
100
AcDbBlockEnd
  0
BLOCK
  5
1C
100
AcDbEntity
  8
0
100
AcDbBlockBegin
  2
*PAPER_SPACE
 70
0
 10
0.0
 20
0.0
 30
0.0
  3
*PAPER_SPACE
  1

  0
ENDBLK
  5
1D
100
AcDbEntity
  8
0
100
AcDbBlockEnd
  0
BLOCK
  5
20F
100
AcDbEntity
  8
0
100
AcDbBlockBegin
  2
_ARROW_FILLED
 70
64
 10
0.0
 20
0.0
  3
_ARROW_FILLED
  1

  0
SOLID
  5
210
100
AcDbEntity
  8
0
  6
BYBLOCK
 62
0
100
AcDbTrace
 10
0.0
 20
0.0
 11
-1.0
 21
0.1857142857
 12
-1.0
 22
-0.1857142857
 13
-1.0
 23
-0.1857142857
  0
ENDBLK
  5
211
100
AcDbEntity
  8
0
  6
BYBLOCK
 62
0
100
AcDbBlockEnd
  0
BLOCK
  5
212
100
AcDbEntity
  8
0
100
AcDbBlockBegin
 62
2
  6
CONTINUOUS
  2
*D0
 70
65
 10
0.0
 20
0.0
  3
*D0
  1

  0
MTEXT
  5
213
100
AcDbEntity
  8
0
100
AcDbMText
 62
2
  6
CONTINUOUS
  7
STANDARD
 71
2
 72
1
 10
106.6970509383
 20
20.4607908847
 30
0.0
 11
1.0
 21
0.0
 31
0.0
  1
120
 40
3.5
 41
5.25
  0
LINE
  5
214
100
AcDbEntity
  8
0
100
AcDbLine
 62
2
  6
CONTINUOUS
 10
46.6970509383
 20
58.8699731903
 11
46.6970509383
 21
14.5857908847
  0
LINE
  5
215
100
AcDbEntity
  8
0
100
AcDbLine
 62
2
  6
CONTINUOUS
 10
166.6970509383
 20
58.8699731903
 11
166.6970509383
 21
14.5857908847
  0
LINE
  5
216
100
AcDbEntity
  8
0
100
AcDbLine
 62
2
  6
CONTINUOUS
 10
46.6970509383
 20
16.0857908847
 11
106.6970509383
 21
16.0857908847
  0
LINE
  5
217
100
AcDbEntity
  8
0
100
AcDbLine
 62
2
  6
CONTINUOUS
 10
166.6970509383
 20
16.0857908847
 11
106.6970509383
 21
16.0857908847
  0
INSERT
  5
218
100
AcDbEntity
  8
0
100
AcDbBlockReference
 62
2
  6
CONTINUOUS
  2
_ARROW_FILLED
 10
46.6970509383
 20
16.0857908847
 41
3.5
 42
3.5
 43
3.5
 50
180.0
  0
INSERT
  5
219
100
AcDbEntity
  8
0
100
AcDbBlockReference
 62
2
  6
CONTINUOUS
  2
_ARROW_FILLED
 10
166.6970509383
 20
16.0857908847
 41
3.5
 42
3.5
 43
3.5
 50
360.0
  0
ENDBLK
  5
21A
100
AcDbEntity
  8
0
  6
BYBLOCK
 62
0
100
AcDbBlockEnd
  0
BLOCK
  5
21B
100
AcDbEntity
  8
0
100
AcDbBlockBegin
 62
2
  6
CONTINUOUS
  2
*D1
 70
65
 10
0.0
 20
0.0
  3
*D1
  1

  0
MTEXT
  5
21C
100
AcDbEntity
  8
0
100
AcDbMText
 62
2
  6
CONTINUOUS
  7
STANDARD
 71
2
 72
1
 10
106.6970509383
 20
36.3857238606
 30
0.0
 11
1.0
 21
0.0
 31
0.0
  1
92
 40
3.5
 41
3.5
  0
LINE
  5
21D
100
AcDbEntity
  8
0
100
AcDbLine
 62
2
  6
CONTINUOUS
 10
60.6970509383
 20
59.3699731903
 11
60.6970509383
 21
30.5107238606
  0
LINE
  5
21E
100
AcDbEntity
  8
0
100
AcDbLine
 62
2
  6
CONTINUOUS
 10
152.6970509383
 20
59.3699731903
 11
152.6970509383
 21
30.5107238606
  0
LINE
  5
21F
100
AcDbEntity
  8
0
100
AcDbLine
 62
2
  6
CONTINUOUS
 10
60.6970509383
 20
32.0107238606
 11
106.6970509383
 21
32.0107238606
  0
LINE
  5
220
100
AcDbEntity
  8
0
100
AcDbLine
 62
2
  6
CONTINUOUS
 10
152.6970509383
 20
32.0107238606
 11
106.6970509383
 21
32.0107238606
  0
INSERT
  5
221
100
AcDbEntity
  8
0
100
AcDbBlockReference
 62
2
  6
CONTINUOUS
  2
_ARROW_FILLED
 10
60.6970509383
 20
32.0107238606
 41
3.5
 42
3.5
 43
3.5
 50
180.0
  0
INSERT
  5
222
100
AcDbEntity
  8
0
100
AcDbBlockReference
 62
2
  6
CONTINUOUS
  2
_ARROW_FILLED
 10
152.6970509383
 20
32.0107238606
 41
3.5
 42
3.5
 43
3.5
  0
ENDBLK
  5
223
100
AcDbEntity
  8
0
  6
BYBLOCK
 62
0
100
AcDbBlockEnd
  0
BLOCK
  5
224
100
AcDbEntity
  8
0
100
AcDbBlockBegin
 62
2
  6
CONTINUOUS
  2
*D2
 70
65
 10
0.0
 20
0.0
  3
*D2
  1

  0
MTEXT
  5
225
100
AcDbEntity
  8
0
100
AcDbMText
 62
2
  6
CONTINUOUS
  7
STANDARD
 71
2
 72
1
 10
22.9628016086
 20
105.8699731903
 30
0.0
 11
0.0
 21
1.0
 31
0.0
  1
92
 40
3.5
 41
3.5
  0
LINE
  5
226
100
AcDbEntity
  8
0
100
AcDbLine
 62
2
  6
CONTINUOUS
 10
60.1970509383
 20
151.8699731903
 11
25.8378016086
 21
151.8699731903
  0
LINE
  5
227
100
AcDbEntity
  8
0
100
AcDbLine
 62
2
  6
CONTINUOUS
 10
60.1970509383
 20
59.8699731903
 11
25.8378016086
 21
59.8699731903
  0
LINE
  5
228
100
AcDbEntity
  8
0
100
AcDbLine
 62
2
  6
CONTINUOUS
 10
27.3378016086
 20
151.8699731903
 11
27.3378016086
 21
105.8699731903
  0
LINE
  5
229
100
AcDbEntity
  8
0
100
AcDbLine
 62
2
  6
CONTINUOUS
 10
27.3378016086
 20
59.8699731903
 11
27.3378016086
 21
105.8699731903
  0
INSERT
  5
22A
100
AcDbEntity
  8
0
100
AcDbBlockReference
 62
2
  6
CONTINUOUS
  2
_ARROW_FILLED
 10
27.3378016086
 20
151.8699731903
 41
3.5
 42
3.5
 43
3.5
 50
90.0
  0
INSERT
  5
22B
100
AcDbEntity
  8
0
100
AcDbBlockReference
 62
2
  6
CONTINUOUS
  2
_ARROW_FILLED
 10
27.3378016086
 20
59.8699731903
 41
3.5
 42
3.5
 43
3.5
 50
270.0
  0
ENDBLK
  5
22C
100
AcDbEntity
  8
0
  6
BYBLOCK
 62
0
100
AcDbBlockEnd
  0
BLOCK
  5
22D
100
AcDbEntity
  8
0
100
AcDbBlockBegin
 62
2
  6
CONTINUOUS
  2
*D3
 70
65
 10
0.0
 20
0.0
  3
*D3
  1

  0
MTEXT
  5
22E
100
AcDbEntity
  8
0
100
AcDbMText
 62
2
  6
CONTINUOUS
  7
STANDARD
 71
2
 72
1
 10
4.9145442359
 20
105.8699731903
 30
0.0
 11
0.0
 21
1.0
 31
0.0
  1
120
 40
3.5
 41
5.25
  0
LINE
  5
22F
100
AcDbEntity
  8
0
100
AcDbLine
 62
2
  6
CONTINUOUS
 10
59.6970509383
 20
165.8699731903
 11
7.7895442359
 21
165.8699731903
  0
LINE
  5
230
100
AcDbEntity
  8
0
100
AcDbLine
 62
2
  6
CONTINUOUS
 10
59.6970509383
 20
45.8699731903
 11
7.7895442359
 21
45.8699731903
  0
LINE
  5
231
100
AcDbEntity
  8
0
100
AcDbLine
 62
2
  6
CONTINUOUS
 10
9.2895442359
 20
165.8699731903
 11
9.2895442359
 21
105.8699731903
  0
LINE
  5
232
100
AcDbEntity
  8
0
100
AcDbLine
 62
2
  6
CONTINUOUS
 10
9.2895442359
 20
45.8699731903
 11
9.2895442359
 21
105.8699731903
  0
INSERT
  5
233
100
AcDbEntity
  8
0
100
AcDbBlockReference
 62
2
  6
CONTINUOUS
  2
_ARROW_FILLED
 10
9.2895442359
 20
165.8699731903
 41
3.5
 42
3.5
 43
3.5
 50
90.0
  0
INSERT
  5
234
100
AcDbEntity
  8
0
100
AcDbBlockReference
 62
2
  6
CONTINUOUS
  2
_ARROW_FILLED
 10
9.2895442359
 20
45.8699731903
 41
3.5
 42
3.5
 43
3.5
 50
270.0
  0
ENDBLK
  5
235
100
AcDbEntity
  8
0
  6
BYBLOCK
 62
0
100
AcDbBlockEnd
  0
BLOCK
  5
236
100
AcDbEntity
  8
0
100
AcDbBlockBegin
 62
2
  6
CONTINUOUS
  2
*D4
 70
65
 10
0.0
 20
0.0
  3
*D4
  1

  0
MTEXT
  5
237
100
AcDbEntity
  8
0
100
AcDbMText
 62
2
  6
CONTINUOUS
  7
STANDARD
 71
2
 72
1
 10
223.4798927614
 20
191.3884048257
 30
0.0
 11
1.0
 21
0.0
 31
0.0
  1
44.9
 40
3.5
 41
7.0
  0
LINE
  5
238
100
AcDbEntity
  8
0
100
AcDbLine
 62
2
  6
CONTINUOUS
 10
201.0298927614
 20
165.7801608579
 11
201.0298927614
 21
188.5134048257
  0
LINE
  5
239
100
AcDbEntity
  8
0
100
AcDbLine
 62
2
  6
CONTINUOUS
 10
245.9298927614
 20
124.8699731903
 11
245.9298927614
 21
188.5134048257
  0
LINE
  5
23A
100
AcDbEntity
  8
0
100
AcDbLine
 62
2
  6
CONTINUOUS
 10
201.0298927614
 20
187.0134048257
 11
223.4798927614
 21
187.0134048257
  0
LINE
  5
23B
100
AcDbEntity
  8
0
100
AcDbLine
 62
2
  6
CONTINUOUS
 10
245.9298927614
 20
187.0134048257
 11
223.4798927614
 21
187.0134048257
  0
INSERT
  5
23C
100
AcDbEntity
  8
0
100
AcDbBlockReference
 62
2
  6
CONTINUOUS
  2
_ARROW_FILLED
 10
201.0298927614
 20
187.0134048257
 41
3.5
 42
3.5
 43
3.5
 50
180.0
  0
INSERT
  5
23D
100
AcDbEntity
  8
0
100
AcDbBlockReference
 62
2
  6
CONTINUOUS
  2
_ARROW_FILLED
 10
245.9298927614
 20
187.0134048257
 41
3.5
 42
3.5
 43
3.5
  0
ENDBLK
  5
23E
100
AcDbEntity
  8
0
  6
BYBLOCK
 62
0
100
AcDbBlockEnd
  0
BLOCK
  5
23F
100
AcDbEntity
  8
0
100
AcDbBlockBegin
 62
2
  6
CONTINUOUS
  2
*D5
 70
65
 10
0.0
 20
0.0
  3
*D5
  1

  0
MTEXT
  5
240
100
AcDbEntity
  8
0
100
AcDbMText
 62
2
  6
CONTINUOUS
  7
STANDARD
 71
2
 72
1
 10
214.0298927614
 20
35.5894772118
 30
0.0
 11
1.0
 21
0.0
 31
0.0
  1
26
 40
3.5
 41
3.5
  0
LINE
  5
241
100
AcDbEntity
  8
0
100
AcDbLine
 62
2
  6
CONTINUOUS
 10
201.0298927614
 20
45.3699731903
 11
201.0298927614
 21
29.7144772118
  0
LINE
  5
242
100
AcDbEntity
  8
0
100
AcDbLine
 62
2
  6
CONTINUOUS
 10
227.0298927614
 20
47.3699731903
 11
227.0298927614
 21
29.7144772118
  0
LINE
  5
243
100
AcDbEntity
  8
0
100
AcDbLine
 62
2
  6
CONTINUOUS
 10
201.0298927614
 20
31.2144772118
 11
214.0298927614
 21
31.2144772118
  0
LINE
  5
244
100
AcDbEntity
  8
0
100
AcDbLine
 62
2
  6
CONTINUOUS
 10
227.0298927614
 20
31.2144772118
 11
214.0298927614
 21
31.2144772118
  0
INSERT
  5
245
100
AcDbEntity
  8
0
100
AcDbBlockReference
 62
2
  6
CONTINUOUS
  2
_ARROW_FILLED
 10
201.0298927614
 20
31.2144772118
 41
3.5
 42
3.5
 43
3.5
 50
180.0
  0
INSERT
  5
246
100
AcDbEntity
  8
0
100
AcDbBlockReference
 62
2
  6
CONTINUOUS
  2
_ARROW_FILLED
 10
227.0298927614
 20
31.2144772118
 41
3.5
 42
3.5
 43
3.5
  0
ENDBLK
  5
247
100
AcDbEntity
  8
0
  6
BYBLOCK
 62
0
100
AcDbBlockEnd
  0
BLOCK
  5
248
100
AcDbEntity
  8
0
100
AcDbBlockBegin
 62
2
  6
CONTINUOUS
  2
*D6
 70
65
 10
0.0
 20
0.0
  3
*D6
  1

  0
MTEXT
  5
249
100
AcDbEntity
  8
0
100
AcDbMText
 62
2
  6
CONTINUOUS
  7
STANDARD
 71
2
 72
1
 10
217.0298927614
 20
24.4420241287
 30
0.0
 11
1.0
 21
0.0
 31
0.0
  1
32
 40
3.5
 41
3.5
  0
LINE
  5
24A
100
AcDbEntity
  8
0
100
AcDbLine
 62
2
  6
CONTINUOUS
 10
201.0298927614
 20
45.3699731903
 11
201.0298927614
 21
18.5670241287
  0
LINE
  5
24B
100
AcDbEntity
  8
0
100
AcDbLine
 62
2
  6
CONTINUOUS
 10
233.0298927614
 20
70.5299731903
 11
233.0298927614
 21
18.5670241287
  0
LINE
  5
24C
100
AcDbEntity
  8
0
100
AcDbLine
 62
2
  6
CONTINUOUS
 10
201.0298927614
 20
20.0670241287
 11
217.0298927614
 21
20.0670241287
  0
LINE
  5
24D
100
AcDbEntity
  8
0
100
AcDbLine
 62
2
  6
CONTINUOUS
 10
233.0298927614
 20
20.0670241287
 11
217.0298927614
 21
20.0670241287
  0
INSERT
  5
24E
100
AcDbEntity
  8
0
100
AcDbBlockReference
 62
2
  6
CONTINUOUS
  2
_ARROW_FILLED
 10
201.0298927614
 20
20.0670241287
 41
3.5
 42
3.5
 43
3.5
 50
180.0
  0
INSERT
  5
24F
100
AcDbEntity
  8
0
100
AcDbBlockReference
 62
2
  6
CONTINUOUS
  2
_ARROW_FILLED
 10
233.0298927614
 20
20.0670241287
 41
3.5
 42
3.5
 43
3.5
  0
ENDBLK
  5
250
100
AcDbEntity
  8
0
  6
BYBLOCK
 62
0
100
AcDbBlockEnd
  0
BLOCK
  5
251
100
AcDbEntity
  8
0
100
AcDbBlockBegin
 62
2
  6
CONTINUOUS
  2
*D7
 70
65
 10
0.0
 20
0.0
  3
*D7
  1

  0
MTEXT
  5
252
100
AcDbEntity
  8
0
100
AcDbMText
 62
2
  6
CONTINUOUS
  7
TEXTSTYLE_2
 71
1
 72
1
 10
174.1061868949
 20
72.9758459461
 30
0.0
 11
0.9308253009
 21
0.3654644432
 31
0.0
  1
{\Fgdt;n}\Ftxt;10.5
 40
3.5
 41
11.6666666667
  0
LINE
  5
253
100
AcDbEntity
  8
0
100
AcDbLine
 62
2
  6
CONTINUOUS
 10
157.5838837686
 20
61.7886615172
 11
152.6970509383
 21
59.8699731903
  0
LINE
  5
254
100
AcDbEntity
  8
0
100
AcDbLine
 62
2
  6
CONTINUOUS
 10
152.6970509383
 20
59.8699731903
 11
186.5647223441
 21
73.1672370918
  0
LINE
  5
255
100
AcDbEntity
  8
0
100
AcDbLine
 62
2
  6
CONTINUOUS
 10
147.8102181081
 20
57.9512848635
 11
152.6970509383
 21
59.8699731903
  0
LINE
  5
256
100
AcDbEntity
  8
0
100
AcDbLine
 62
2
  6
CONTINUOUS
 10
152.6970509383
 20
59.8699731903
 11
140.3636157016
 21
55.0275693183
  0
INSERT
  5
257
100
AcDbEntity
  8
0
100
AcDbBlockReference
 62
2
  6
CONTINUOUS
  2
_ARROW_FILLED
 10
157.583883768
 20
61.788661517
 41
3.5
 42
3.5
 43
3.5
 50
201.4371654108
  0
INSERT
  5
258
100
AcDbEntity
  8
0
100
AcDbBlockReference
 62
2
  6
CONTINUOUS
  2
_ARROW_FILLED
 10
147.8102181087
 20
57.9512848637
 41
3.5
 42
3.5
 43
3.5
 50
21.435889507
  0
ENDBLK
  5
259
100
AcDbEntity
  8
0
  6
BYBLOCK
 62
0
100
AcDbBlockEnd
  0
ENDSEC
  0
SECTION
  2
ENTITIES
  0
LINE
  5
25A
100
AcDbEntity
  8
0
100
AcDbLine
 62
7
  6
CONTINUOUS
 10
201.0298927614
 20
45.8699731903
 11
201.0298927614
 21
69.8699731903
  0
LINE
  5
25B
100
AcDbEntity
  8
0
100
AcDbLine
 62
7
  6
CONTINUOUS
 10
208.2298927614
 20
69.8699731903
 11
201.0298927614
 21
69.8699731903
  0
LINE
  5
25C
100
AcDbEntity
  8
0
100
AcDbLine
 62
7
  6
CONTINUOUS
 10
208.2298927614
 20
69.8699731903
 11
208.2298927614
 21
71.0299731903
  0
LINE
  5
25D
100
AcDbEntity
  8
0
100
AcDbLine
 62
7
  6
CONTINUOUS
 10
211.4648831089
 20
71.0299731903
 11
208.2298927614
 21
71.0299731903
  0
SPLINE
  5
25E
100
AcDbEntity
  8
0
100
AcDbSpline
 62
7
  6
CONTINUOUS
 70
4
 71
3
 72
8
 73
4
 74
5
 42
0.0000001
 43
0.0000001
 44
0.0000000001
 12
-0.5700255453
 22
0.1483147839
 32
0.0
 13
-0.5675227179
 23
0.1576209444
 33
0.0
 40
0.0
 40
0.0
 40
0.0
 40
0.0
 40
1.0
 40
1.0
 40
1.0
 40
1.0
 10
211.4648831089
 20
71.0299731903
 30
0.0
 41
1.0
 10
211.274870355
 20
71.0794125545
 30
0.0
 41
0.9999776921
 10
211.0852684039
 20
71.1304046864
 30
0.0
 41
0.9999776921
 10
210.8960899445
 20
71.1829461733
 30
0.0
 41
1.0
 11
211.4648831089
 21
71.0299731903
 31
0.0
 11
211.3224519592
 21
71.0673434927
 31
0.0
 11
211.180173668
 21
71.1052963923
 31
0.0
 11
211.0380518082
 21
71.1438309439
 31
0.0
 11
210.8960899445
 21
71.1829461733
 31
0.0
  0
SPLINE
  5
25F
100
AcDbEntity
  8
0
100
AcDbSpline
 62
7
  6
CONTINUOUS
 70
4
 71
3
 72
8
 73
4
 74
65
 42
0.0000001
 43
0.0000001
 44
0.0000000001
 12
-0.5830718537
 22
0.1619394843
 32
0.0
 13
0.0
 23
0.6051422834
 33
0.0
 40
0.0
 40
0.0
 40
0.0
 40
0.0
 40
1.0
 40
1.0
 40
1.0
 40
1.0
 10
210.8960899445
 20
71.1829461733
 30
0.0
 41
1.0
 10
210.6711597486
 20
71.2454171701
 30
0.0
 41
0.8640782258
 10
210.5298927614
 20
71.4312661861
 30
0.0
 41
0.8640782258
 10
210.5298927614
 20
71.6647104374
 30
0.0
 41
1.0
 11
210.8960899445
 21
71.1829461733
 31
0.0
 11
210.8869752292
 21
71.1855710224
 31
0.0
 11
210.8778556482
 21
71.188386266
 31
0.0
 11
210.8687366596
 21
71.1913937243
 31
0.0
 11
210.8596238543
 21
71.1945950268
 31
0.0
 11
210.8505229485
 21
71.1979916031
 31
0.0
 11
210.841439776
 21
71.2015846744
 31
0.0
 11
210.832380279
 21
71.2053752446
 31
0.0
 11
210.8233504988
 21
71.2093640925
 31
0.0
 11
210.8143565661
 21
71.2135517641
 31
0.0
 11
210.80540469
 21
71.2179385652
 31
0.0
 11
210.7965011471
 21
71.2225245552
 31
0.0
 11
210.7876522697
 21
71.227309541
 31
0.0
 11
210.7788644334
 21
71.2322930712
 31
0.0
 11
210.7701440449
 21
71.237474432
 31
0.0
 11
210.7614975283
 21
71.2428526428
 31
0.0
 11
210.7529313119
 21
71.2484264532
 31
0.0
 11
210.7444518143
 21
71.2541943406
 31
0.0
 11
210.7360654306
 21
71.2601545084
 31
0.0
 11
210.7277785176
 21
71.2663048856
 31
0.0
 11
210.7195973794
 21
71.2726431269
 31
0.0
 11
210.7115282533
 21
71.2791666137
 31
0.0
 11
210.7035772947
 21
71.2858724559
 31
0.0
 11
210.6957505627
 21
71.2927574954
 31
0.0
 11
210.6880540058
 21
71.2998183093
 31
0.0
 11
210.6804934473
 21
71.3070512151
 31
0.0
 11
210.6730745716
 21
71.3144522763
 31
0.0
 11
210.6658029103
 21
71.3220173089
 31
0.0
 11
210.658683829
 21
71.3297418889
 31
0.0
 11
210.6517225141
 21
71.3376213608
 31
0.0
 11
210.6449239607
 21
71.3456508465
 31
0.0
 11
210.6382929609
 21
71.3538252556
 31
0.0
 11
210.6318340921
 21
71.3621392957
 31
0.0
 11
210.6255517069
 21
71.370587484
 31
0.0
 11
210.6194499235
 21
71.3791641595
 31
0.0
 11
210.6135326161
 21
71.3878634952
 31
0.0
 11
210.6078034072
 21
71.3966795118
 31
0.0
 11
210.6022656603
 21
71.4056060909
 31
0.0
 11
210.5969224731
 21
71.4146369893
 31
0.0
 11
210.5917766724
 21
71.4237658533
 31
0.0
 11
210.5868308094
 21
71.4329862335
 31
0.0
 11
210.5820871557
 21
71.4422915993
 31
0.0
 11
210.5775477014
 21
71.4516753542
 31
0.0
 11
210.5732141524
 21
71.4611308508
 31
0.0
 11
210.5690879304
 21
71.4706514058
 31
0.0
 11
210.5651701727
 21
71.4802303149
 31
0.0
 11
210.5614617334
 21
71.4898608676
 31
0.0
 11
210.5579631853
 21
71.499536362
 31
0.0
 11
210.5546748226
 21
71.509250119
 31
0.0
 11
210.551596665
 21
71.5189954959
 31
0.0
 11
210.548728462
 21
71.5287659009
 31
0.0
 11
210.5460696982
 21
71.5385548053
 31
0.0
 11
210.5436195991
 21
71.548355757
 31
0.0
 11
210.5413771383
 21
71.558162392
 31
0.0
 11
210.5393410443
 21
71.5679684464
 31
0.0
 11
210.5375098087
 21
71.5777677671
 31
0.0
 11
210.5358816948
 21
71.5875543223
 31
0.0
 11
210.5344547461
 21
71.5973222113
 31
0.0
 11
210.533226796
 21
71.6070656731
 31
0.0
 11
210.5321954775
 21
71.616779095
 31
0.0
 11
210.5313582329
 21
71.6264570203
 31
0.0
 11
210.5307123247
 21
71.6360941548
 31
0.0
 11
210.5302548456
 21
71.6456853733
 31
0.0
 11
210.5299827293
 21
71.6552257248
 31
0.0
 11
210.5298927614
 21
71.6647104374
 31
0.0
  0
LINE
  5
260
100
AcDbEntity
  8
0
100
AcDbLine
 62
7
  6
CONTINUOUS
 10
210.5298927614
 20
71.6647104374
 11
210.5298927614
 21
76.8975731903
  0
LINE
  5
261
100
AcDbEntity
  8
0
100
AcDbLine
 62
7
  6
CONTINUOUS
 10
211.4798927614
 20
76.8975731903
 11
210.5298927614
 21
76.8975731903
  0
LINE
  5
262
100
AcDbEntity
  8
0
100
AcDbLine
 62
7
  6
CONTINUOUS
 10
211.4798927614
 20
76.8975731903
 11
211.4798927614
 21
79.1199731903
  0
LINE
  5
263
100
AcDbEntity
  8
0
100
AcDbLine
 62
7
  6
CONTINUOUS
 10
211.4798927614
 20
79.1199731903
 11
210.5298927614
 21
80.9699731903
  0
LINE
  5
264
100
AcDbEntity
  8
0
100
AcDbLine
 62
7
  6
CONTINUOUS
 10
210.5298927614
 20
80.9699731903
 11
210.5298927614
 21
82.8199731903
  0
LINE
  5
265
100
AcDbEntity
  8
0
100
AcDbLine
 62
7
  6
CONTINUOUS
 10
210.5298927614
 20
82.8199731903
 11
203.5298927614
 21
82.8199731903
  0
SPLINE
  5
266
100
AcDbEntity
  8
0
100
AcDbSpline
 62
7
  6
CONTINUOUS
 70
4
 71
3
 72
8
 73
4
 74
129
 42
0.0000001
 43
0.0000001
 44
0.0000000001
 12
-0.7071067812
 22
-0.0
 32
0.0
 13
-0.0
 23
0.7071067812
 33
0.0
 40
0.0
 40
0.0
 40
0.0
 40
0.0
 40
1.0
 40
1.0
 40
1.0
 40
1.0
 10
203.5298927614
 20
82.8199731903
 30
0.0
 41
1.0
 10
203.2369995426
 20
82.8199731903
 30
0.0
 41
0.8047378541
 10
203.0298927614
 20
83.0270799715
 30
0.0
 41
0.8047378541
 10
203.0298927614
 20
83.3199731903
 30
0.0
 41
1.0
 11
203.5298927614
 21
82.8199731903
 31
0.0
 11
203.5243559896
 21
82.8200038471
 31
0.0
 11
203.5187947895
 21
82.8200963705
 31
0.0
 11
203.5132100383
 21
82.8202515811
 31
0.0
 11
203.5076026393
 21
82.820470287
 31
0.0
 11
203.501973522
 21
82.8207532828
 31
0.0
 11
203.4963236417
 21
82.8211013489
 31
0.0
 11
203.4906539796
 21
82.8215152503
 31
0.0
 11
203.4849655424
 21
82.821995736
 31
0.0
 11
203.4792593626
 21
82.8225435381
 31
0.0
 11
203.4735364974
 21
82.8231593706
 31
0.0
 11
203.4677980294
 21
82.8238439287
 31
0.0
 11
203.4620450655
 21
82.824597888
 31
0.0
 11
203.4562787372
 21
82.8254219034
 31
0.0
 11
203.4505001996
 21
82.8263166082
 31
0.0
 11
203.4447106317
 21
82.8272826132
 31
0.0
 11
203.4389112352
 21
82.8283205061
 31
0.0
 11
203.4331032346
 21
82.8294308502
 31
0.0
 11
203.4272878764
 21
82.8306141835
 31
0.0
 11
203.4214664286
 21
82.8318710183
 31
0.0
 11
203.4156401802
 21
82.8332018398
 31
0.0
 11
203.4098104403
 21
82.8346071057
 31
0.0
 11
203.4039785378
 21
82.8360872448
 31
0.0
 11
203.3981458204
 21
82.8376426569
 31
0.0
 11
203.392313654
 21
82.8392737113
 31
0.0
 11
203.3864834218
 21
82.8409807465
 31
0.0
 11
203.3806565236
 21
82.8427640692
 31
0.0
 11
203.3748343751
 21
82.8446239536
 31
0.0
 11
203.3690184065
 21
82.8465606409
 31
0.0
 11
203.3632100623
 21
82.8485743382
 31
0.0
 11
203.3574107995
 21
82.8506652181
 31
0.0
 11
203.3516220876
 21
82.8528334181
 31
0.0
 11
203.3458454066
 21
82.8550790398
 31
0.0
 11
203.3400822467
 21
82.8574021487
 31
0.0
 11
203.334334107
 21
82.8598027734
 31
0.0
 11
203.328602494
 21
82.8622809048
 31
0.0
 11
203.3228889211
 21
82.8648364965
 31
0.0
 11
203.3171949073
 21
82.8674694635
 31
0.0
 11
203.3115219755
 21
82.8701796823
 31
0.0
 11
203.305871652
 21
82.8729669907
 31
0.0
 11
203.3002454649
 21
82.8758311869
 31
0.0
 11
203.2946449429
 21
82.87877203
 31
0.0
 11
203.2890716143
 21
82.8817892391
 31
0.0
 11
203.2835270054
 21
82.8848824938
 31
0.0
 11
203.2780126392
 21
82.8880514335
 31
0.0
 11
203.2725300347
 21
82.8912956578
 31
0.0
 11
203.2670807048
 21
82.8946147264
 31
0.0
 11
203.2616661555
 21
82.8980081587
 31
0.0
 11
203.2562878847
 21
82.9014754347
 31
0.0
 11
203.2509473804
 21
82.9050159944
 31
0.0
 11
203.2456461199
 21
82.9086292384
 31
0.0
 11
203.2403855682
 21
82.9123145279
 31
0.0
 11
203.2351671766
 21
82.9160711853
 31
0.0
 11
203.229992382
 21
82.9198984942
 31
0.0
 11
203.224862605
 21
82.9237957002
 31
0.0
 11
203.2197792488
 21
82.9277620109
 31
0.0
 11
203.2147436982
 21
82.9317965966
 31
0.0
 11
203.209757318
 21
82.935898591
 31
0.0
 11
203.2048214522
 21
82.9400670915
 31
0.0
 11
203.1999374223
 21
82.9443011602
 31
0.0
 11
203.1951065267
 21
82.9485998242
 31
0.0
 11
203.1903300391
 21
82.9529620766
 31
0.0
 11
203.1856092076
 21
82.957386877
 31
0.0
 11
203.1809452536
 21
82.9618731529
 31
0.0
 11
203.1763393708
 21
82.9664197998
 31
0.0
 11
203.1717927239
 21
82.9710256826
 31
0.0
 11
203.1673064481
 21
82.9756896366
 31
0.0
 11
203.1628816476
 21
82.980410468
 31
0.0
 11
203.1585193953
 21
82.9851869557
 31
0.0
 11
203.1542207313
 21
82.9900178513
 31
0.0
 11
203.1499866626
 21
82.9949018811
 31
0.0
 11
203.145818162
 21
82.999837747
 31
0.0
 11
203.1417161676
 21
83.0048241271
 31
0.0
 11
203.1376815819
 21
83.0098596778
 31
0.0
 11
203.1337152713
 21
83.014943034
 31
0.0
 11
203.1298180653
 21
83.020072811
 31
0.0
 11
203.1259907563
 21
83.0252476056
 31
0.0
 11
203.122234099
 21
83.0304659971
 31
0.0
 11
203.1185488094
 21
83.0357265489
 31
0.0
 11
203.1149355655
 21
83.0410278094
 31
0.0
 11
203.1113950058
 21
83.0463683137
 31
0.0
 11
203.1079277298
 21
83.0517465845
 31
0.0
 11
203.1045342974
 21
83.0571611337
 31
0.0
 11
203.1012152289
 21
83.0626104636
 31
0.0
 11
203.0979710045
 21
83.0680930682
 31
0.0
 11
203.0948020648
 21
83.0736074343
 31
0.0
 11
203.0917088101
 21
83.0791520433
 31
0.0
 11
203.088691601
 21
83.0847253719
 31
0.0
 11
203.085750758
 21
83.0903258938
 31
0.0
 11
203.0828865617
 21
83.0959520809
 31
0.0
 11
203.0800992534
 21
83.1016024044
 31
0.0
 11
203.0773890345
 21
83.1072753362
 31
0.0
 11
203.0747560675
 21
83.1129693501
 31
0.0
 11
203.0722004759
 21
83.1186829229
 31
0.0
 11
203.0697223444
 21
83.1244145359
 31
0.0
 11
203.0673217198
 21
83.1301626757
 31
0.0
 11
203.0649986109
 21
83.1359258356
 31
0.0
 11
203.0627529891
 21
83.1417025165
 31
0.0
 11
203.0605847891
 21
83.1474912285
 31
0.0
 11
203.0584939092
 21
83.1532904912
 31
0.0
 11
203.056480212
 21
83.1590988355
 31
0.0
 11
203.0545435247
 21
83.164914804
 31
0.0
 11
203.0526836402
 21
83.1707369526
 31
0.0
 11
203.0509003175
 21
83.1765638507
 31
0.0
 11
203.0491932823
 21
83.1823940829
 31
0.0
 11
203.0475622279
 21
83.1882262494
 31
0.0
 11
203.0460068158
 21
83.1940589668
 31
0.0
 11
203.0445266767
 21
83.1998908693
 31
0.0
 11
203.0431214109
 21
83.2057206091
 31
0.0
 11
203.0417905893
 21
83.2115468576
 31
0.0
 11
203.0405337546
 21
83.2173683053
 31
0.0
 11
203.0393504212
 21
83.2231836635
 31
0.0
 11
203.0382400772
 21
83.2289916641
 31
0.0
 11
203.0372021843
 21
83.2347910606
 31
0.0
 11
203.0362361792
 21
83.2405806286
 31
0.0
 11
203.0353414744
 21
83.2463591661
 31
0.0
 11
203.0345174591
 21
83.2521254945
 31
0.0
 11
203.0337634998
 21
83.2578784583
 31
0.0
 11
203.0330789416
 21
83.2636169264
 31
0.0
 11
203.0324631092
 21
83.2693397915
 31
0.0
 11
203.0319153071
 21
83.2750459714
 31
0.0
 11
203.0314348213
 21
83.2807344085
 31
0.0
 11
203.0310209199
 21
83.2864040707
 31
0.0
 11
203.0306728539
 21
83.292053951
 31
0.0
 11
203.030389858
 21
83.2976830683
 31
0.0
 11
203.0301711521
 21
83.3032904672
 31
0.0
 11
203.0300159415
 21
83.3088752185
 31
0.0
 11
203.0299234182
 21
83.3144364186
 31
0.0
 11
203.0298927614
 21
83.3199731903
 31
0.0
  0
LINE
  5
267
100
AcDbEntity
  8
0
100
AcDbLine
 62
7
  6
CONTINUOUS
 10
203.0298927614
 20
83.3199731903
 11
203.0298927614
 21
87.3699731904
  0
SPLINE
  5
268
100
AcDbEntity
  8
0
100
AcDbSpline
 62
7
  6
CONTINUOUS
 70
4
 71
3
 72
8
 73
4
 74
129
 42
0.0000001
 43
0.0000001
 44
0.0000000001
 12
0.0
 22
1.4142135624
 32
0.0
 13
1.4142135624
 23
0.0
 33
0.0
 40
0.0
 40
0.0
 40
0.0
 40
0.0
 40
1.0
 40
1.0
 40
1.0
 40
1.0
 10
203.0298927614
 20
87.3699731904
 30
0.0
 41
1.0
 10
203.0298927614
 20
87.955759628
 30
0.0
 41
0.8047378541
 10
203.4441063238
 20
88.3699731904
 30
0.0
 41
0.8047378541
 10
204.0298927614
 20
88.3699731904
 30
0.0
 41
1.0
 11
203.0298927614
 21
87.3699731904
 31
0.0
 11
203.029954075
 21
87.3810467339
 31
0.0
 11
203.0301391217
 21
87.3921691341
 31
0.0
 11
203.0304495429
 21
87.4033386366
 31
0.0
 11
203.0308869547
 21
87.4145534345
 31
0.0
 11
203.0314529463
 21
87.4258116691
 31
0.0
 11
203.0321490785
 21
87.4371114297
 31
0.0
 11
203.0329768813
 21
87.448450754
 31
0.0
 11
203.0339378528
 21
87.4598276282
 31
0.0
 11
203.0350334569
 21
87.471239988
 31
0.0
 11
203.0362651219
 21
87.4826857183
 31
0.0
 11
203.0376342381
 21
87.4941626544
 31
0.0
 11
203.0391421567
 21
87.5056685821
 31
0.0
 11
203.0407901875
 21
87.5172012388
 31
0.0
 11
203.042579597
 21
87.5287583139
 31
0.0
 11
203.0445116072
 21
87.5403374498
 31
0.0
 11
203.046587393
 21
87.5519362428
 31
0.0
 11
203.0488080811
 21
87.563552244
 31
0.0
 11
203.0511747477
 21
87.5751829604
 31
0.0
 11
203.0536884173
 21
87.5868258559
 31
0.0
 11
203.0563500604
 21
87.5984783528
 31
0.0
 11
203.059160592
 21
87.6101378325
 31
0.0
 11
203.0621208703
 21
87.6218016375
 31
0.0
 11
203.0652316944
 21
87.6334670723
 31
0.0
 11
203.0684938032
 21
87.6451314052
 31
0.0
 11
203.0719078736
 21
87.6567918696
 31
0.0
 11
203.075474519
 21
87.6684456659
 31
0.0
 11
203.079194288
 21
87.680089963
 31
0.0
 11
203.0830676626
 21
87.6917219001
 31
0.0
 11
203.0870950571
 21
87.7033385886
 31
0.0
 11
203.0912768169
 21
87.7149371141
 31
0.0
 11
203.0956132168
 21
87.726514538
 31
0.0
 11
203.1001044603
 21
87.7380678999
 31
0.0
 11
203.1047506782
 21
87.7495942196
 31
0.0
 11
203.1095519274
 21
87.7610904992
 31
0.0
 11
203.1145081903
 21
87.7725537252
 31
0.0
 11
203.1196193736
 21
87.7839808709
 31
0.0
 11
203.1248853076
 21
87.7953688986
 31
0.0
 11
203.1303057454
 21
87.8067147622
 31
0.0
 11
203.1358803621
 21
87.8180154092
 31
0.0
 11
203.1416087546
 21
87.8292677834
 31
0.0
 11
203.1474904407
 21
87.8404688273
 31
0.0
 11
203.1535248589
 21
87.8516154845
 31
0.0
 11
203.1597113682
 21
87.8627047024
 31
0.0
 11
203.1660492476
 21
87.8737334347
 31
0.0
 11
203.1725376963
 21
87.8846986438
 31
0.0
 11
203.1791758334
 21
87.8955973036
 31
0.0
 11
203.1859626982
 21
87.9064264021
 31
0.0
 11
203.1928972502
 21
87.9171829437
 31
0.0
 11
203.1999783696
 21
87.9278639523
 31
0.0
 11
203.2072048575
 21
87.9384664733
 31
0.0
 11
203.2145754365
 21
87.9489875768
 31
0.0
 11
203.2220887513
 21
87.9594243599
 31
0.0
 11
203.2297433692
 21
87.9697739491
 31
0.0
 11
203.2375377811
 21
87.9800335031
 31
0.0
 11
203.2454704024
 21
87.9902002155
 31
0.0
 11
203.2535395738
 21
88.0002713167
 31
0.0
 11
203.2617435626
 21
88.0102440771
 31
0.0
 11
203.2700805638
 21
88.0201158088
 31
0.0
 11
203.2785487012
 21
88.0298838685
 31
0.0
 11
203.2871460292
 21
88.0395456597
 31
0.0
 11
203.2958705339
 21
88.0490986349
 31
0.0
 11
203.3047201348
 21
88.0585402979
 31
0.0
 11
203.3136926865
 21
88.0678682059
 31
0.0
 11
203.3227859802
 21
88.0770799715
 31
0.0
 11
203.3319977459
 21
88.0861732653
 31
0.0
 11
203.3413256538
 21
88.095145817
 31
0.0
 11
203.3507673168
 21
88.1039954179
 31
0.0
 11
203.360320292
 21
88.1127199226
 31
0.0
 11
203.3699820832
 21
88.1213172506
 31
0.0
 11
203.379750143
 21
88.129785388
 31
0.0
 11
203.3896218746
 21
88.1381223891
 31
0.0
 11
203.399594635
 21
88.1463263779
 31
0.0
 11
203.4096657363
 21
88.1543955493
 31
0.0
 11
203.4198324486
 21
88.1623281706
 31
0.0
 11
203.4300920027
 21
88.1701225826
 31
0.0
 11
203.4404415919
 21
88.1777772005
 31
0.0
 11
203.4508783749
 21
88.1852905152
 31
0.0
 11
203.4613994784
 21
88.1926610943
 31
0.0
 11
203.4720019995
 21
88.1998875822
 31
0.0
 11
203.482683008
 21
88.2069687016
 31
0.0
 11
203.4934395496
 21
88.2139032536
 31
0.0
 11
203.5042686481
 21
88.2206901183
 31
0.0
 11
203.515167308
 21
88.2273282554
 31
0.0
 11
203.5261325171
 21
88.2338167041
 31
0.0
 11
203.5371612494
 21
88.2401545835
 31
0.0
 11
203.5482504673
 21
88.2463410928
 31
0.0
 11
203.5593971245
 21
88.2523755111
 31
0.0
 11
203.5705981683
 21
88.2582571972
 31
0.0
 11
203.5818505425
 21
88.2639855897
 31
0.0
 11
203.5931511895
 21
88.2695602064
 31
0.0
 11
203.6044970531
 21
88.2749806441
 31
0.0
 11
203.6158850809
 21
88.2802465781
 31
0.0
 11
203.6273122265
 21
88.2853577614
 31
0.0
 11
203.6387754525
 21
88.2903140243
 31
0.0
 11
203.6502717321
 21
88.2951152736
 31
0.0
 11
203.6617980518
 21
88.2997614914
 31
0.0
 11
203.6733514138
 21
88.3042527349
 31
0.0
 11
203.6849288377
 21
88.3085891349
 31
0.0
 11
203.6965273631
 21
88.3127708947
 31
0.0
 11
203.7081440517
 21
88.3167982892
 31
0.0
 11
203.7197759888
 21
88.3206716638
 31
0.0
 11
203.7314202858
 21
88.3243914327
 31
0.0
 11
203.7430740821
 21
88.3279580781
 31
0.0
 11
203.7547345465
 21
88.3313721485
 31
0.0
 11
203.7663988794
 21
88.3346342573
 31
0.0
 11
203.7780643142
 21
88.3377450815
 31
0.0
 11
203.7897281192
 21
88.3407053597
 31
0.0
 11
203.801387599
 21
88.3435158914
 31
0.0
 11
203.8130400958
 21
88.3461775345
 31
0.0
 11
203.8246829914
 21
88.348691204
 31
0.0
 11
203.8363137078
 21
88.3510578707
 31
0.0
 11
203.847929709
 21
88.3532785588
 31
0.0
 11
203.859528502
 21
88.3553543446
 31
0.0
 11
203.8711076379
 21
88.3572863547
 31
0.0
 11
203.8826647129
 21
88.3590757643
 31
0.0
 11
203.8941973696
 21
88.360723795
 31
0.0
 11
203.9057032973
 21
88.3622317136
 31
0.0
 11
203.9171802334
 21
88.3636008299
 31
0.0
 11
203.9286259637
 21
88.3648324948
 31
0.0
 11
203.9400383235
 21
88.365928099
 31
0.0
 11
203.9514151978
 21
88.3668890705
 31
0.0
 11
203.962754522
 21
88.3677168733
 31
0.0
 11
203.9740542826
 21
88.3684130054
 31
0.0
 11
203.9853125172
 21
88.3689789971
 31
0.0
 11
203.9965273152
 21
88.3694164088
 31
0.0
 11
204.0076968176
 21
88.36972683
 31
0.0
 11
204.0188192179
 21
88.3699118768
 31
0.0
 11
204.0298927614
 21
88.3699731904
 31
0.0
  0
LINE
  5
269
100
AcDbEntity
  8
0
100
AcDbLine
 62
7
  6
CONTINUOUS
 10
244.9298927614
 20
88.3699731904
 11
204.0298927614
 21
88.3699731904
  0
SPLINE
  5
26A
100
AcDbEntity
  8
0
100
AcDbSpline
 62
7
  6
CONTINUOUS
 70
4
 71
3
 72
8
 73
4
 74
129
 42
0.0000001
 43
0.0000001
 44
0.0000000001
 12
1.4142135624
 22
-0.0
 32
0.0
 13
-0.0
 23
-1.4142135624
 33
0.0
 40
0.0
 40
0.0
 40
0.0
 40
0.0
 40
1.0
 40
1.0
 40
1.0
 40
1.0
 10
244.9298927614
 20
88.3699731904
 30
0.0
 41
1.0
 10
245.515679199
 20
88.3699731904
 30
0.0
 41
0.8047378541
 10
245.9298927614
 20
87.955759628
 30
0.0
 41
0.8047378541
 10
245.9298927614
 20
87.3699731904
 30
0.0
 41
1.0
 11
244.9298927614
 21
88.3699731904
 31
0.0
 11
244.9409663049
 21
88.3699118768
 31
0.0
 11
244.9520887052
 21
88.36972683
 31
0.0
 11
244.9632582076
 21
88.3694164088
 31
0.0
 11
244.9744730055
 21
88.3689789971
 31
0.0
 11
244.9857312402
 21
88.3684130054
 31
0.0
 11
244.9970310008
 21
88.3677168733
 31
0.0
 11
245.008370325
 21
88.3668890705
 31
0.0
 11
245.0197471993
 21
88.365928099
 31
0.0
 11
245.0311595591
 21
88.3648324948
 31
0.0
 11
245.0426052894
 21
88.3636008299
 31
0.0
 11
245.0540822254
 21
88.3622317136
 31
0.0
 11
245.0655881532
 21
88.360723795
 31
0.0
 11
245.0771208098
 21
88.3590757643
 31
0.0
 11
245.0886778849
 21
88.3572863547
 31
0.0
 11
245.1002570208
 21
88.3553543446
 31
0.0
 11
245.1118558138
 21
88.3532785588
 31
0.0
 11
245.123471815
 21
88.3510578707
 31
0.0
 11
245.1351025314
 21
88.348691204
 31
0.0
 11
245.1467454269
 21
88.3461775345
 31
0.0
 11
245.1583979238
 21
88.3435158914
 31
0.0
 11
245.1700574035
 21
88.3407053597
 31
0.0
 11
245.1817212085
 21
88.3377450815
 31
0.0
 11
245.1933866434
 21
88.3346342573
 31
0.0
 11
245.2050509762
 21
88.3313721485
 31
0.0
 11
245.2167114407
 21
88.3279580781
 31
0.0
 11
245.2283652369
 21
88.3243914327
 31
0.0
 11
245.240009534
 21
88.3206716638
 31
0.0
 11
245.2516414711
 21
88.3167982892
 31
0.0
 11
245.2632581596
 21
88.3127708947
 31
0.0
 11
245.2748566851
 21
88.3085891349
 31
0.0
 11
245.286434109
 21
88.3042527349
 31
0.0
 11
245.297987471
 21
88.2997614914
 31
0.0
 11
245.3095137907
 21
88.2951152736
 31
0.0
 11
245.3210100703
 21
88.2903140243
 31
0.0
 11
245.3324732962
 21
88.2853577614
 31
0.0
 11
245.3439004419
 21
88.2802465781
 31
0.0
 11
245.3552884697
 21
88.2749806441
 31
0.0
 11
245.3666343333
 21
88.2695602064
 31
0.0
 11
245.3779349803
 21
88.2639855897
 31
0.0
 11
245.3891873544
 21
88.2582571972
 31
0.0
 11
245.4003883983
 21
88.2523755111
 31
0.0
 11
245.4115350555
 21
88.2463410928
 31
0.0
 11
245.4226242734
 21
88.2401545835
 31
0.0
 11
245.4336530057
 21
88.2338167041
 31
0.0
 11
245.4446182148
 21
88.2273282554
 31
0.0
 11
245.4555168747
 21
88.2206901183
 31
0.0
 11
245.4663459731
 21
88.2139032536
 31
0.0
 11
245.4771025148
 21
88.2069687016
 31
0.0
 11
245.4877835233
 21
88.1998875822
 31
0.0
 11
245.4983860443
 21
88.1926610943
 31
0.0
 11
245.5089071479
 21
88.1852905152
 31
0.0
 11
245.5193439309
 21
88.1777772005
 31
0.0
 11
245.5296935201
 21
88.1701225826
 31
0.0
 11
245.5399530742
 21
88.1623281706
 31
0.0
 11
245.5501197865
 21
88.1543955493
 31
0.0
 11
245.5601908878
 21
88.1463263779
 31
0.0
 11
245.5701636481
 21
88.1381223891
 31
0.0
 11
245.5800353798
 21
88.129785388
 31
0.0
 11
245.5898034396
 21
88.1213172506
 31
0.0
 11
245.5994652308
 21
88.1127199226
 31
0.0
 11
245.609018206
 21
88.1039954179
 31
0.0
 11
245.618459869
 21
88.095145817
 31
0.0
 11
245.6277877769
 21
88.0861732653
 31
0.0
 11
245.6369995426
 21
88.0770799715
 31
0.0
 11
245.6460928363
 21
88.0678682059
 31
0.0
 11
245.655065388
 21
88.0585402979
 31
0.0
 11
245.6639149889
 21
88.0490986349
 31
0.0
 11
245.6726394936
 21
88.0395456597
 31
0.0
 11
245.6812368216
 21
88.0298838685
 31
0.0
 11
245.689704959
 21
88.0201158088
 31
0.0
 11
245.6980419602
 21
88.0102440771
 31
0.0
 11
245.706245949
 21
88.0002713167
 31
0.0
 11
245.7143151204
 21
87.9902002155
 31
0.0
 11
245.7222477417
 21
87.9800335031
 31
0.0
 11
245.7300421536
 21
87.9697739491
 31
0.0
 11
245.7376967715
 21
87.9594243599
 31
0.0
 11
245.7452100863
 21
87.9489875768
 31
0.0
 11
245.7525806653
 21
87.9384664733
 31
0.0
 11
245.7598071532
 21
87.9278639523
 31
0.0
 11
245.7668882726
 21
87.9171829437
 31
0.0
 11
245.7738228246
 21
87.9064264021
 31
0.0
 11
245.7806096894
 21
87.8955973036
 31
0.0
 11
245.7872478265
 21
87.8846986438
 31
0.0
 11
245.7937362751
 21
87.8737334347
 31
0.0
 11
245.8000741546
 21
87.8627047024
 31
0.0
 11
245.8062606639
 21
87.8516154845
 31
0.0
 11
245.8122950821
 21
87.8404688273
 31
0.0
 11
245.8181767682
 21
87.8292677834
 31
0.0
 11
245.8239051607
 21
87.8180154092
 31
0.0
 11
245.8294797774
 21
87.8067147622
 31
0.0
 11
245.8349002152
 21
87.7953688986
 31
0.0
 11
245.8401661492
 21
87.7839808709
 31
0.0
 11
245.8452773325
 21
87.7725537252
 31
0.0
 11
245.8502335954
 21
87.7610904992
 31
0.0
 11
245.8550348446
 21
87.7495942196
 31
0.0
 11
245.8596810625
 21
87.7380678999
 31
0.0
 11
245.864172306
 21
87.726514538
 31
0.0
 11
245.8685087059
 21
87.7149371141
 31
0.0
 11
245.8726904657
 21
87.7033385886
 31
0.0
 11
245.8767178602
 21
87.6917219001
 31
0.0
 11
245.8805912348
 21
87.680089963
 31
0.0
 11
245.8843110037
 21
87.6684456659
 31
0.0
 11
245.8878776492
 21
87.6567918696
 31
0.0
 11
245.8912917196
 21
87.6451314052
 31
0.0
 11
245.8945538284
 21
87.6334670723
 31
0.0
 11
245.8976646525
 21
87.6218016375
 31
0.0
 11
245.9006249308
 21
87.6101378325
 31
0.0
 11
245.9034354624
 21
87.5984783528
 31
0.0
 11
245.9060971055
 21
87.5868258559
 31
0.0
 11
245.9086107751
 21
87.5751829604
 31
0.0
 11
245.9109774417
 21
87.563552244
 31
0.0
 11
245.9131981298
 21
87.5519362428
 31
0.0
 11
245.9152739156
 21
87.5403374498
 31
0.0
 11
245.9172059258
 21
87.5287583139
 31
0.0
 11
245.9189953353
 21
87.5172012388
 31
0.0
 11
245.9206433661
 21
87.5056685821
 31
0.0
 11
245.9221512847
 21
87.4941626544
 31
0.0
 11
245.9235204009
 21
87.4826857183
 31
0.0
 11
245.9247520659
 21
87.471239988
 31
0.0
 11
245.92584767
 21
87.4598276282
 31
0.0
 11
245.9268086415
 21
87.448450754
 31
0.0
 11
245.9276364443
 21
87.4371114297
 31
0.0
 11
245.9283325764
 21
87.4258116691
 31
0.0
 11
245.9288985681
 21
87.4145534345
 31
0.0
 11
245.9293359799
 21
87.4033386366
 31
0.0
 11
245.9296464011
 21
87.3921691341
 31
0.0
 11
245.9298314478
 21
87.3810467339
 31
0.0
 11
245.9298927614
 21
87.3699731904
 31
0.0
  0
LINE
  5
26B
100
AcDbEntity
  8
0
100
AcDbLine
 62
7
  6
CONTINUOUS
 10
245.9298927614
 20
83.3199731903
 11
245.9298927614
 21
87.3699731904
  0
SPLINE
  5
26C
100
AcDbEntity
  8
0
100
AcDbSpline
 62
7
  6
CONTINUOUS
 70
4
 71
3
 72
8
 73
4
 74
129
 42
0.0000001
 43
0.0000001
 44
0.0000000001
 12
0.0
 22
-0.7071067812
 32
0.0
 13
-0.7071067812
 23
0.0
 33
0.0
 40
0.0
 40
0.0
 40
0.0
 40
0.0
 40
1.0
 40
1.0
 40
1.0
 40
1.0
 10
245.9298927614
 20
83.3199731903
 30
0.0
 41
1.0
 10
245.9298927614
 20
83.0270799715
 30
0.0
 41
0.8047378541
 10
245.7227859802
 20
82.8199731903
 30
0.0
 41
0.8047378541
 10
245.4298927614
 20
82.8199731903
 30
0.0
 41
1.0
 11
245.9298927614
 21
83.3199731903
 31
0.0
 11
245.9298621046
 21
83.3144364186
 31
0.0
 11
245.9297695812
 21
83.3088752185
 31
0.0
 11
245.9296143706
 21
83.3032904672
 31
0.0
 11
245.9293956647
 21
83.2976830683
 31
0.0
 11
245.9291126689
 21
83.292053951
 31
0.0
 11
245.9287646029
 21
83.2864040707
 31
0.0
 11
245.9283507014
 21
83.2807344085
 31
0.0
 11
245.9278702157
 21
83.2750459714
 31
0.0
 11
245.9273224136
 21
83.2693397915
 31
0.0
 11
245.9267065812
 21
83.2636169264
 31
0.0
 11
245.926022023
 21
83.2578784583
 31
0.0
 11
245.9252680637
 21
83.2521254945
 31
0.0
 11
245.9244440484
 21
83.2463591661
 31
0.0
 11
245.9235493436
 21
83.2405806286
 31
0.0
 11
245.9225833385
 21
83.2347910606
 31
0.0
 11
245.9215454456
 21
83.2289916641
 31
0.0
 11
245.9204351016
 21
83.2231836635
 31
0.0
 11
245.9192517682
 21
83.2173683053
 31
0.0
 11
245.9179949334
 21
83.2115468576
 31
0.0
 11
245.9166641119
 21
83.2057206091
 31
0.0
 11
245.9152588461
 21
83.1998908693
 31
0.0
 11
245.9137787069
 21
83.1940589668
 31
0.0
 11
245.9122232949
 21
83.1882262494
 31
0.0
 11
245.9105922405
 21
83.1823940829
 31
0.0
 11
245.9088852053
 21
83.1765638507
 31
0.0
 11
245.9071018826
 21
83.1707369526
 31
0.0
 11
245.9052419981
 21
83.164914804
 31
0.0
 11
245.9033053108
 21
83.1590988355
 31
0.0
 11
245.9012916135
 21
83.1532904912
 31
0.0
 11
245.8992007337
 21
83.1474912285
 31
0.0
 11
245.8970325337
 21
83.1417025165
 31
0.0
 11
245.8947869119
 21
83.1359258356
 31
0.0
 11
245.892463803
 21
83.1301626757
 31
0.0
 11
245.8900631784
 21
83.1244145359
 31
0.0
 11
245.8875850469
 21
83.1186829229
 31
0.0
 11
245.8850294553
 21
83.1129693501
 31
0.0
 11
245.8823964883
 21
83.1072753362
 31
0.0
 11
245.8796862694
 21
83.1016024044
 31
0.0
 11
245.876898961
 21
83.0959520809
 31
0.0
 11
245.8740347648
 21
83.0903258938
 31
0.0
 11
245.8710939218
 21
83.0847253719
 31
0.0
 11
245.8680767126
 21
83.0791520433
 31
0.0
 11
245.864983458
 21
83.0736074343
 31
0.0
 11
245.8618145183
 21
83.0680930682
 31
0.0
 11
245.8585702939
 21
83.0626104636
 31
0.0
 11
245.8552512254
 21
83.0571611337
 31
0.0
 11
245.851857793
 21
83.0517465845
 31
0.0
 11
245.848390517
 21
83.0463683137
 31
0.0
 11
245.8448499573
 21
83.0410278094
 31
0.0
 11
245.8412367133
 21
83.0357265489
 31
0.0
 11
245.8375514238
 21
83.0304659971
 31
0.0
 11
245.8337947664
 21
83.0252476056
 31
0.0
 11
245.8299674575
 21
83.020072811
 31
0.0
 11
245.8260702515
 21
83.014943034
 31
0.0
 11
245.8221039409
 21
83.0098596778
 31
0.0
 11
245.8180693552
 21
83.0048241271
 31
0.0
 11
245.8139673608
 21
82.999837747
 31
0.0
 11
245.8097988602
 21
82.9949018811
 31
0.0
 11
245.8055647915
 21
82.9900178513
 31
0.0
 11
245.8012661275
 21
82.9851869557
 31
0.0
 11
245.7969038752
 21
82.980410468
 31
0.0
 11
245.7924790747
 21
82.9756896366
 31
0.0
 11
245.7879927989
 21
82.9710256826
 31
0.0
 11
245.783446152
 21
82.9664197998
 31
0.0
 11
245.7788402691
 21
82.9618731529
 31
0.0
 11
245.7741763152
 21
82.957386877
 31
0.0
 11
245.7694554837
 21
82.9529620766
 31
0.0
 11
245.7646789961
 21
82.9485998242
 31
0.0
 11
245.7598481005
 21
82.9443011602
 31
0.0
 11
245.7549640706
 21
82.9400670915
 31
0.0
 11
245.7500282048
 21
82.935898591
 31
0.0
 11
245.7450418246
 21
82.9317965966
 31
0.0
 11
245.740006274
 21
82.9277620109
 31
0.0
 11
245.7349229178
 21
82.9237957002
 31
0.0
 11
245.7297931407
 21
82.9198984942
 31
0.0
 11
245.7246183462
 21
82.9160711853
 31
0.0
 11
245.7193999546
 21
82.9123145279
 31
0.0
 11
245.7141394029
 21
82.9086292384
 31
0.0
 11
245.7088381424
 21
82.9050159944
 31
0.0
 11
245.7034976381
 21
82.9014754347
 31
0.0
 11
245.6981193673
 21
82.8980081587
 31
0.0
 11
245.692704818
 21
82.8946147264
 31
0.0
 11
245.6872554881
 21
82.8912956578
 31
0.0
 11
245.6817728836
 21
82.8880514335
 31
0.0
 11
245.6762585174
 21
82.8848824938
 31
0.0
 11
245.6707139085
 21
82.8817892391
 31
0.0
 11
245.6651405799
 21
82.87877203
 31
0.0
 11
245.6595400579
 21
82.8758311869
 31
0.0
 11
245.6539138708
 21
82.8729669907
 31
0.0
 11
245.6482635473
 21
82.8701796823
 31
0.0
 11
245.6425906155
 21
82.8674694635
 31
0.0
 11
245.6368966017
 21
82.8648364965
 31
0.0
 11
245.6311830288
 21
82.8622809048
 31
0.0
 11
245.6254514158
 21
82.8598027734
 31
0.0
 11
245.619703276
 21
82.8574021487
 31
0.0
 11
245.6139401162
 21
82.8550790398
 31
0.0
 11
245.6081634352
 21
82.8528334181
 31
0.0
 11
245.6023747232
 21
82.8506652181
 31
0.0
 11
245.5965754605
 21
82.8485743382
 31
0.0
 11
245.5907671163
 21
82.8465606409
 31
0.0
 11
245.5849511477
 21
82.8446239536
 31
0.0
 11
245.5791289992
 21
82.8427640692
 31
0.0
 11
245.573302101
 21
82.8409807465
 31
0.0
 11
245.5674718688
 21
82.8392737113
 31
0.0
 11
245.5616397024
 21
82.8376426569
 31
0.0
 11
245.555806985
 21
82.8360872448
 31
0.0
 11
245.5499750825
 21
82.8346071057
 31
0.0
 11
245.5441453426
 21
82.8332018398
 31
0.0
 11
245.5383190942
 21
82.8318710183
 31
0.0
 11
245.5324976464
 21
82.8306141835
 31
0.0
 11
245.5266822882
 21
82.8294308502
 31
0.0
 11
245.5208742876
 21
82.8283205061
 31
0.0
 11
245.5150748911
 21
82.8272826132
 31
0.0
 11
245.5092853232
 21
82.8263166082
 31
0.0
 11
245.5035067856
 21
82.8254219034
 31
0.0
 11
245.4977404573
 21
82.824597888
 31
0.0
 11
245.4919874934
 21
82.8238439287
 31
0.0
 11
245.4862490254
 21
82.8231593706
 31
0.0
 11
245.4805261602
 21
82.8225435381
 31
0.0
 11
245.4748199803
 21
82.821995736
 31
0.0
 11
245.4691315432
 21
82.8215152503
 31
0.0
 11
245.4634618811
 21
82.8211013489
 31
0.0
 11
245.4578120008
 21
82.8207532828
 31
0.0
 11
245.4521828835
 21
82.820470287
 31
0.0
 11
245.4465754845
 21
82.8202515811
 31
0.0
 11
245.4409907333
 21
82.8200963705
 31
0.0
 11
245.4354295332
 21
82.8200038471
 31
0.0
 11
245.4298927614
 21
82.8199731903
 31
0.0
  0
LINE
  5
26D
100
AcDbEntity
  8
0
100
AcDbLine
 62
7
  6
CONTINUOUS
 10
245.4298927614
 20
82.8199731903
 11
230.5298927614
 21
82.8199731903
  0
LINE
  5
26E
100
AcDbEntity
  8
0
100
AcDbLine
 62
7
  6
CONTINUOUS
 10
230.5298927614
 20
80.9699731903
 11
230.5298927614
 21
82.8199731903
  0
LINE
  5
26F
100
AcDbEntity
  8
0
100
AcDbLine
 62
7
  6
CONTINUOUS
 10
230.5298927614
 20
80.9699731903
 11
229.5798927614
 21
79.1199731903
  0
LINE
  5
270
100
AcDbEntity
  8
0
100
AcDbLine
 62
7
  6
CONTINUOUS
 10
229.5798927614
 20
76.8975731903
 11
229.5798927614
 21
79.1199731903
  0
LINE
  5
271
100
AcDbEntity
  8
0
100
AcDbLine
 62
7
  6
CONTINUOUS
 10
230.5298927614
 20
76.8975731903
 11
229.5798927614
 21
76.8975731903
  0
LINE
  5
272
100
AcDbEntity
  8
0
100
AcDbLine
 62
7
  6
CONTINUOUS
 10
230.5298927614
 20
71.6647104374
 11
230.5298927614
 21
76.8975731903
  0
SPLINE
  5
273
100
AcDbEntity
  8
0
100
AcDbSpline
 62
7
  6
CONTINUOUS
 70
4
 71
3
 72
8
 73
4
 74
65
 42
0.0000001
 43
0.0000001
 44
0.0000000001
 12
-0.0
 22
-0.6051422834
 32
0.0
 13
-0.5830718537
 23
-0.1619394843
 33
0.0
 40
0.0
 40
0.0
 40
0.0
 40
0.0
 40
1.0
 40
1.0
 40
1.0
 40
1.0
 10
230.5298927614
 20
71.6647104374
 30
0.0
 41
1.0
 10
230.5298927614
 20
71.4312661861
 30
0.0
 41
0.8640782258
 10
230.3886257741
 20
71.2454171701
 30
0.0
 41
0.8640782258
 10
230.1636955783
 20
71.1829461733
 30
0.0
 41
1.0
 11
230.5298927614
 21
71.6647104374
 31
0.0
 11
230.5298027935
 21
71.6552257248
 31
0.0
 11
230.5295306772
 21
71.6456853733
 31
0.0
 11
230.5290731981
 21
71.6360941548
 31
0.0
 11
230.5284272899
 21
71.6264570203
 31
0.0
 11
230.5275900453
 21
71.616779095
 31
0.0
 11
230.5265587268
 21
71.6070656731
 31
0.0
 11
230.5253307767
 21
71.5973222113
 31
0.0
 11
230.523903828
 21
71.5875543223
 31
0.0
 11
230.5222757141
 21
71.5777677671
 31
0.0
 11
230.5204444785
 21
71.5679684464
 31
0.0
 11
230.5184083845
 21
71.558162392
 31
0.0
 11
230.5161659237
 21
71.548355757
 31
0.0
 11
230.5137158246
 21
71.5385548053
 31
0.0
 11
230.5110570608
 21
71.5287659009
 31
0.0
 11
230.5081888578
 21
71.5189954959
 31
0.0
 11
230.5051107002
 21
71.509250119
 31
0.0
 11
230.5018223375
 21
71.499536362
 31
0.0
 11
230.4983237894
 21
71.4898608676
 31
0.0
 11
230.49461535
 21
71.4802303149
 31
0.0
 11
230.4906975924
 21
71.4706514058
 31
0.0
 11
230.4865713704
 21
71.4611308508
 31
0.0
 11
230.4822378214
 21
71.4516753542
 31
0.0
 11
230.477698367
 21
71.4422915993
 31
0.0
 11
230.4729547134
 21
71.4329862335
 31
0.0
 11
230.4680088504
 21
71.4237658533
 31
0.0
 11
230.4628630497
 21
71.4146369893
 31
0.0
 11
230.4575198625
 21
71.4056060909
 31
0.0
 11
230.4519821156
 21
71.3966795118
 31
0.0
 11
230.4462529067
 21
71.3878634952
 31
0.0
 11
230.4403355993
 21
71.3791641595
 31
0.0
 11
230.4342338158
 21
71.370587484
 31
0.0
 11
230.4279514307
 21
71.3621392957
 31
0.0
 11
230.4214925619
 21
71.3538252556
 31
0.0
 11
230.4148615621
 21
71.3456508465
 31
0.0
 11
230.4080630087
 21
71.3376213608
 31
0.0
 11
230.4011016938
 21
71.3297418889
 31
0.0
 11
230.3939826125
 21
71.3220173089
 31
0.0
 11
230.3867109512
 21
71.3144522763
 31
0.0
 11
230.3792920755
 21
71.3070512151
 31
0.0
 11
230.371731517
 21
71.2998183093
 31
0.0
 11
230.3640349601
 21
71.2927574954
 31
0.0
 11
230.3562082281
 21
71.2858724559
 31
0.0
 11
230.3482572695
 21
71.2791666137
 31
0.0
 11
230.3401881434
 21
71.2726431269
 31
0.0
 11
230.3320070052
 21
71.2663048856
 31
0.0
 11
230.3237200921
 21
71.2601545084
 31
0.0
 11
230.3153337084
 21
71.2541943406
 31
0.0
 11
230.3068542109
 21
71.2484264532
 31
0.0
 11
230.2982879945
 21
71.2428526428
 31
0.0
 11
230.2896414779
 21
71.237474432
 31
0.0
 11
230.2809210894
 21
71.2322930712
 31
0.0
 11
230.2721332531
 21
71.227309541
 31
0.0
 11
230.2632843757
 21
71.2225245552
 31
0.0
 11
230.2543808328
 21
71.2179385652
 31
0.0
 11
230.2454289567
 21
71.2135517641
 31
0.0
 11
230.236435024
 21
71.2093640925
 31
0.0
 11
230.2274052438
 21
71.2053752446
 31
0.0
 11
230.2183457468
 21
71.2015846744
 31
0.0
 11
230.2092625743
 21
71.1979916031
 31
0.0
 11
230.2001616685
 21
71.1945950268
 31
0.0
 11
230.1910488632
 21
71.1913937243
 31
0.0
 11
230.1819298746
 21
71.188386266
 31
0.0
 11
230.1728102936
 21
71.1855710224
 31
0.0
 11
230.1636955783
 21
71.1829461733
 31
0.0
  0
SPLINE
  5
274
100
AcDbEntity
  8
0
100
AcDbSpline
 62
7
  6
CONTINUOUS
 70
4
 71
3
 72
8
 73
4
 74
5
 42
0.0000001
 43
0.0000001
 44
0.0000000001
 12
-0.5675227179
 22
-0.1576209444
 32
0.0
 13
-0.5700255453
 23
-0.1483147839
 33
0.0
 40
0.0
 40
0.0
 40
0.0
 40
0.0
 40
1.0
 40
1.0
 40
1.0
 40
1.0
 10
230.1636955783
 20
71.1829461733
 30
0.0
 41
1.0
 10
229.9745171188
 20
71.1304046864
 30
0.0
 41
0.9999776921
 10
229.7849151677
 20
71.0794125545
 30
0.0
 41
0.9999776921
 10
229.5949024139
 20
71.0299731903
 30
0.0
 41
1.0
 11
230.1636955783
 21
71.1829461733
 31
0.0
 11
230.0217337146
 21
71.1438309439
 31
0.0
 11
229.8796118547
 21
71.1052963923
 31
0.0
 11
229.7373335636
 21
71.0673434927
 31
0.0
 11
229.5949024139
 21
71.0299731903
 31
0.0
  0
LINE
  5
275
100
AcDbEntity
  8
0
100
AcDbLine
 62
7
  6
CONTINUOUS
 10
233.0298927614
 20
71.0299731903
 11
229.5949024139
 21
71.0299731903
  0
LINE
  5
276
100
AcDbEntity
  8
0
100
AcDbLine
 62
7
  6
CONTINUOUS
 10
233.0298927614
 20
68.3699731903
 11
233.0298927614
 21
71.0299731903
  0
LINE
  5
277
100
AcDbEntity
  8
0
100
AcDbLine
 62
7
  6
CONTINUOUS
 10
231.0596098879
 20
64.7499731903
 11
233.0298927614
 21
68.3699731903
  0
LINE
  5
278
100
AcDbEntity
  8
0
100
AcDbLine
 62
7
  6
CONTINUOUS
 10
228.7898927614
 20
64.5978817221
 11
231.0596098879
 21
64.7499731903
  0
LINE
  5
279
100
AcDbEntity
  8
0
100
AcDbLine
 62
7
  6
CONTINUOUS
 10
228.7898927614
 20
64.4999731903
 11
228.7898927614
 21
64.5978817221
  0
SPLINE
  5
27A
100
AcDbEntity
  8
0
100
AcDbSpline
 62
7
  6
CONTINUOUS
 70
4
 71
3
 72
8
 73
4
 74
129
 42
0.0000001
 43
0.0000001
 44
0.0000000001
 12
-2.4890158698
 22
0.0
 32
0.0
 13
0.0
 23
-2.4890158698
 33
0.0
 40
0.0
 40
0.0
 40
0.0
 40
0.0
 40
1.0
 40
1.0
 40
1.0
 40
1.0
 10
228.7898927614
 20
64.4999731903
 30
0.0
 41
1.0
 10
227.7589086312
 20
64.4999731903
 30
0.0
 41
0.8047378541
 10
227.0298927614
 20
63.7709573206
 30
0.0
 41
0.8047378541
 10
227.0298927614
 20
62.7399731903
 30
0.0
 41
1.0
 11
228.7898927614
 21
64.4999731903
 31
0.0
 11
228.7704033248
 21
64.4998652785
 31
0.0
 11
228.7508279004
 21
64.4995395962
 31
0.0
 11
228.7311695761
 21
64.4989932549
 31
0.0
 11
228.7114315317
 21
64.4982234102
 31
0.0
 11
228.6916170387
 21
64.4972272648
 31
0.0
 11
228.6717294601
 21
64.4960020723
 31
0.0
 11
228.6517722494
 21
64.4945451393
 31
0.0
 11
228.6317489507
 21
64.4928538295
 31
0.0
 11
228.6116631975
 21
64.4909255662
 31
0.0
 11
228.5915187121
 21
64.4887578359
 31
0.0
 11
228.5713193047
 21
64.4863481913
 31
0.0
 11
228.5510688719
 21
64.4836942546
 31
0.0
 11
228.5307713961
 21
64.4807937205
 31
0.0
 11
228.510430944
 21
64.4776443596
 31
0.0
 11
228.4900516648
 21
64.4742440218
 31
0.0
 11
228.4696377891
 21
64.4705906388
 31
0.0
 11
228.449193627
 21
64.4666822278
 31
0.0
 11
228.4287235662
 21
64.4625168944
 31
0.0
 11
228.40823207
 21
64.458092836
 31
0.0
 11
228.3877236756
 21
64.4534083442
 31
0.0
 11
228.3672029912
 21
64.4484618085
 31
0.0
 11
228.3466746944
 21
64.4432517187
 31
0.0
 11
228.3261435291
 21
64.4377766683
 31
0.0
 11
228.3056143033
 21
64.4320353568
 31
0.0
 11
228.2850918859
 21
64.4260265929
 31
0.0
 11
228.2645812044
 21
64.4197492969
 31
0.0
 11
228.2440872416
 21
64.4132025035
 31
0.0
 11
228.2236150323
 21
64.4063853643
 31
0.0
 11
228.2031696605
 21
64.3992971499
 31
0.0
 11
228.1827562557
 21
64.3919372527
 31
0.0
 11
228.1623799896
 21
64.3843051888
 31
0.0
 11
228.1420460726
 21
64.3764006002
 31
0.0
 11
228.1217597498
 21
64.3682232568
 31
0.0
 11
228.1015262978
 21
64.3597730582
 31
0.0
 11
228.08135102
 21
64.3510500354
 31
0.0
 11
228.0612392437
 21
64.3420543528
 31
0.0
 11
228.0411963148
 21
64.332786309
 31
0.0
 11
228.0212275949
 21
64.3232463385
 31
0.0
 11
228.0013384562
 21
64.3134350131
 31
0.0
 11
227.9815342776
 21
64.3033530424
 31
0.0
 11
227.9618204404
 21
64.2930012748
 31
0.0
 11
227.9422023237
 21
64.2823806987
 31
0.0
 11
227.9226853002
 21
64.2714924424
 31
0.0
 11
227.9032747314
 21
64.2603377745
 31
0.0
 11
227.8839759633
 21
64.2489181049
 31
0.0
 11
227.864794322
 21
64.2372349836
 31
0.0
 11
227.8457351087
 21
64.2252901016
 31
0.0
 11
227.8268035954
 21
64.2130852901
 31
0.0
 11
227.8080050204
 21
64.20062252
 31
0.0
 11
227.7893445834
 21
64.1879039012
 31
0.0
 11
227.7708274412
 21
64.1749316821
 31
0.0
 11
227.752458703
 21
64.1617082481
 31
0.0
 11
227.7342434261
 21
64.1482361206
 31
0.0
 11
227.7161866109
 21
64.1345179556
 31
0.0
 11
227.6982931971
 21
64.1205565422
 31
0.0
 11
227.6805680589
 21
64.1063548005
 31
0.0
 11
227.6630160007
 21
64.0919157802
 31
0.0
 11
227.6456417529
 21
64.0772426582
 31
0.0
 11
227.6284499678
 21
64.0623387363
 31
0.0
 11
227.6114452153
 21
64.0472074391
 31
0.0
 11
227.5946319789
 21
64.0318523108
 31
0.0
 11
227.5780146521
 21
64.0162770132
 31
0.0
 11
227.5615975341
 21
64.0004853222
 31
0.0
 11
227.5453848265
 21
63.9844811252
 31
0.0
 11
227.5293806295
 21
63.9682684176
 31
0.0
 11
227.5135889386
 21
63.9518512997
 31
0.0
 11
227.498013641
 21
63.9352339728
 31
0.0
 11
227.4826585127
 21
63.9184207365
 31
0.0
 11
227.4675272154
 21
63.9014159839
 31
0.0
 11
227.4526232935
 21
63.8842241988
 31
0.0
 11
227.4379501715
 21
63.866849951
 31
0.0
 11
227.4235111513
 21
63.8492978928
 31
0.0
 11
227.4093094096
 21
63.8315727546
 31
0.0
 11
227.3953479961
 21
63.8136793408
 31
0.0
 11
227.3816298311
 21
63.7956225257
 31
0.0
 11
227.3681577036
 21
63.7774072487
 31
0.0
 11
227.3549342696
 21
63.7590385105
 31
0.0
 11
227.3419620505
 21
63.7405213683
 31
0.0
 11
227.3292434318
 21
63.7218609313
 31
0.0
 11
227.3167806616
 21
63.7030623563
 31
0.0
 11
227.3045758501
 21
63.684130843
 31
0.0
 11
227.2926309682
 21
63.6650716297
 31
0.0
 11
227.2809478469
 21
63.6458899884
 31
0.0
 11
227.2695281772
 21
63.6265912204
 31
0.0
 11
227.2583735094
 21
63.6071806515
 31
0.0
 11
227.247485253
 21
63.587663628
 31
0.0
 11
227.2368646769
 21
63.5680455113
 31
0.0
 11
227.2265129094
 21
63.5483316741
 31
0.0
 11
227.2164309386
 21
63.5285274956
 31
0.0
 11
227.2066196132
 21
63.5086383568
 31
0.0
 11
227.1970796428
 21
63.4886696369
 31
0.0
 11
227.1878115989
 21
63.4686267081
 31
0.0
 11
227.1788159163
 21
63.4485149317
 31
0.0
 11
227.1700928936
 21
63.428339654
 31
0.0
 11
227.161642695
 21
63.4081062019
 31
0.0
 11
227.1534653515
 21
63.3878198792
 31
0.0
 11
227.1455607629
 21
63.3674859621
 31
0.0
 11
227.137928699
 21
63.3471096961
 31
0.0
 11
227.1305688018
 21
63.3266962913
 31
0.0
 11
227.1234805874
 21
63.3062509194
 31
0.0
 11
227.1166634482
 21
63.2857787102
 31
0.0
 11
227.1101166548
 21
63.2652847473
 31
0.0
 11
227.1038393589
 21
63.2447740658
 31
0.0
 11
227.097830595
 21
63.2242516485
 31
0.0
 11
227.0920892835
 21
63.2037224226
 31
0.0
 11
227.0866142331
 21
63.1831912573
 31
0.0
 11
227.0814041433
 21
63.1626629605
 31
0.0
 11
227.0764576076
 21
63.1421422762
 31
0.0
 11
227.0717731158
 21
63.1216338817
 31
0.0
 11
227.0673490573
 21
63.1011423856
 31
0.0
 11
227.063183724
 21
63.0806723247
 31
0.0
 11
227.059275313
 21
63.0602281626
 31
0.0
 11
227.0556219299
 21
63.0398142869
 31
0.0
 11
227.0522215921
 21
63.0194350078
 31
0.0
 11
227.0490722313
 21
62.9990945556
 31
0.0
 11
227.0461716972
 21
62.9787970799
 31
0.0
 11
227.0435177604
 21
62.9585466471
 31
0.0
 11
227.0411081158
 21
62.9383472396
 31
0.0
 11
227.0389403855
 21
62.9182027542
 31
0.0
 11
227.0370121222
 21
62.898117001
 31
0.0
 11
227.0353208124
 21
62.8780937023
 31
0.0
 11
227.0338638795
 21
62.8581364917
 31
0.0
 11
227.0326386869
 21
62.838248913
 31
0.0
 11
227.0316425416
 21
62.8184344201
 31
0.0
 11
227.0308726968
 21
62.7986963757
 31
0.0
 11
227.0303263555
 21
62.7790380514
 31
0.0
 11
227.0300006733
 21
62.759462627
 31
0.0
 11
227.0298927614
 21
62.7399731903
 31
0.0
  0
LINE
  5
27B
100
AcDbEntity
  8
0
100
AcDbLine
 62
7
  6
CONTINUOUS
 10
227.0298927614
 20
47.8699731903
 11
227.0298927614
 21
62.7399731903
  0
SPLINE
  5
27C
100
AcDbEntity
  8
0
100
AcDbSpline
 62
7
  6
CONTINUOUS
 70
4
 71
3
 72
8
 73
4
 74
129
 42
0.0000001
 43
0.0000001
 44
0.0000000001
 12
2.8284271247
 22
0.0
 32
0.0
 13
0.0
 23
2.8284271247
 33
0.0
 40
0.0
 40
0.0
 40
0.0
 40
0.0
 40
1.0
 40
1.0
 40
1.0
 40
1.0
 10
225.0298927614
 20
45.8699731903
 30
0.0
 41
1.0
 10
226.2014656366
 20
45.8699731903
 30
0.0
 41
0.8047378541
 10
227.0298927614
 20
46.6984003151
 30
0.0
 41
0.8047378541
 10
227.0298927614
 20
47.8699731903
 30
0.0
 41
1.0
 11
225.0298927614
 21
45.8699731903
 31
0.0
 11
225.0520398485
 21
45.8700958175
 31
0.0
 11
225.0742846489
 21
45.870465911
 31
0.0
 11
225.0966236538
 21
45.8710867534
 31
0.0
 11
225.1190532497
 21
45.8719615769
 31
0.0
 11
225.141569719
 21
45.8730935602
 31
0.0
 11
225.1641692402
 21
45.8744858245
 31
0.0
 11
225.1868478887
 21
45.8761414301
 31
0.0
 11
225.2096016372
 21
45.8780633731
 31
0.0
 11
225.2324263567
 21
45.8802545814
 31
0.0
 11
225.2553178174
 21
45.8827179113
 31
0.0
 11
225.2782716895
 21
45.8854561438
 31
0.0
 11
225.3012835449
 21
45.888471981
 31
0.0
 11
225.3243488583
 21
45.8917680425
 31
0.0
 11
225.3474630084
 21
45.8953468616
 31
0.0
 11
225.3706212802
 21
45.8992108819
 31
0.0
 11
225.3938188662
 21
45.9033624535
 31
0.0
 11
225.4170508686
 21
45.9078038297
 31
0.0
 11
225.4403123014
 21
45.912537163
 31
0.0
 11
225.4635980925
 21
45.9175645021
 31
0.0
 11
225.4869030862
 21
45.9228877883
 31
0.0
 11
225.5102220457
 21
45.9285088516
 31
0.0
 11
225.5335496557
 21
45.9344294081
 31
0.0
 11
225.5568805253
 21
45.9406510564
 31
0.0
 11
225.5802091911
 21
45.947175274
 31
0.0
 11
225.6035301199
 21
45.9540034148
 31
0.0
 11
225.6268377125
 21
45.9611367056
 31
0.0
 11
225.6501263066
 21
45.9685762435
 31
0.0
 11
225.6733901808
 21
45.9763229927
 31
0.0
 11
225.6966235579
 21
45.9843777817
 31
0.0
 11
225.7198206088
 21
45.9927413013
 31
0.0
 11
225.7429754566
 21
46.0014141012
 31
0.0
 11
225.7660821805
 21
46.0103965882
 31
0.0
 11
225.78913482
 21
46.0196890239
 31
0.0
 11
225.8121273792
 21
46.0292915224
 31
0.0
 11
225.8350538311
 21
46.0392040482
 31
0.0
 11
225.8579081225
 21
46.0494264148
 31
0.0
 11
225.880684178
 21
46.0599582828
 31
0.0
 11
225.9033759051
 21
46.0707991583
 31
0.0
 11
225.9259771991
 21
46.0819483917
 31
0.0
 11
225.9484819475
 21
46.0934051767
 31
0.0
 11
225.9708840352
 21
46.1051685489
 31
0.0
 11
225.9931773496
 21
46.1172373854
 31
0.0
 11
226.0153557855
 21
46.129610404
 31
0.0
 11
226.03741325
 21
46.1422861629
 31
0.0
 11
226.0593436683
 21
46.1552630602
 31
0.0
 11
226.0811409879
 21
46.1685393344
 31
0.0
 11
226.1027991849
 21
46.1821130639
 31
0.0
 11
226.1243122682
 21
46.1959821679
 31
0.0
 11
226.1456742852
 21
46.2101444067
 31
0.0
 11
226.1668793273
 21
46.2245973825
 31
0.0
 11
226.1879215343
 21
46.2393385406
 31
0.0
 11
226.2087951004
 21
46.2543651701
 31
0.0
 11
226.2294942788
 21
46.2696744059
 31
0.0
 11
226.2500133869
 21
46.2852632298
 31
0.0
 11
226.2703468117
 21
46.3011284724
 31
0.0
 11
226.2904890142
 21
46.3172668152
 31
0.0
 11
226.3104345349
 21
46.3336747928
 31
0.0
 11
226.3301779983
 21
46.3503487951
 31
0.0
 11
226.3497141177
 21
46.3672850699
 31
0.0
 11
226.3690377002
 21
46.3844797259
 31
0.0
 11
226.3881436506
 21
46.4019287353
 31
0.0
 11
226.4070269765
 21
46.4196279371
 31
0.0
 11
226.4256827924
 21
46.4375730405
 31
0.0
 11
226.4441063238
 21
46.455759628
 31
0.0
 11
226.4622929112
 21
46.4741831593
 31
0.0
 11
226.4802380146
 21
46.4928389752
 31
0.0
 11
226.4979372164
 21
46.5117223012
 31
0.0
 11
226.5153862258
 21
46.5308282516
 31
0.0
 11
226.5325808818
 21
46.550151834
 31
0.0
 11
226.5495171567
 21
46.5696879535
 31
0.0
 11
226.566191159
 21
46.5894314169
 31
0.0
 11
226.5825991365
 21
46.6093769376
 31
0.0
 11
226.5987374794
 21
46.6295191401
 31
0.0
 11
226.614602722
 21
46.6498525648
 31
0.0
 11
226.6301915458
 21
46.6703716729
 31
0.0
 11
226.6455007816
 21
46.6910708513
 31
0.0
 11
226.6605274112
 21
46.7119444174
 31
0.0
 11
226.6752685692
 21
46.7329866244
 31
0.0
 11
226.689721545
 21
46.7541916665
 31
0.0
 11
226.7038837838
 21
46.7755536836
 31
0.0
 11
226.7177528878
 21
46.7970667668
 31
0.0
 11
226.7313266173
 21
46.8187249638
 31
0.0
 11
226.7446028915
 21
46.8405222835
 31
0.0
 11
226.7575797889
 21
46.8624527017
 31
0.0
 11
226.7702555478
 21
46.8845101663
 31
0.0
 11
226.7826285664
 21
46.9066886021
 31
0.0
 11
226.7946974029
 21
46.9289819165
 31
0.0
 11
226.8064607751
 21
46.9513840042
 31
0.0
 11
226.81791756
 21
46.9738887526
 31
0.0
 11
226.8290667934
 21
46.9964900466
 31
0.0
 11
226.8399076689
 21
47.0191817738
 31
0.0
 11
226.8504395369
 21
47.0419578293
 31
0.0
 11
226.8606619035
 21
47.0648121206
 31
0.0
 11
226.8705744294
 21
47.0877385726
 31
0.0
 11
226.8801769278
 21
47.1107311317
 31
0.0
 11
226.8894693635
 21
47.1337837712
 31
0.0
 11
226.8984518506
 21
47.1568904951
 31
0.0
 11
226.9071246505
 21
47.1800453429
 31
0.0
 11
226.91548817
 21
47.2032423938
 31
0.0
 11
226.9235429591
 21
47.2264757709
 31
0.0
 11
226.9312897082
 21
47.2497396451
 31
0.0
 11
226.9387292461
 21
47.2730282393
 31
0.0
 11
226.945862537
 21
47.2963358318
 31
0.0
 11
226.9526906778
 21
47.3196567607
 31
0.0
 11
226.9592148954
 21
47.3429854264
 31
0.0
 11
226.9654365436
 21
47.3663162961
 31
0.0
 11
226.9713571001
 21
47.3896439061
 31
0.0
 11
226.9769781635
 21
47.4129628655
 31
0.0
 11
226.9823014496
 21
47.4362678592
 31
0.0
 11
226.9873287887
 21
47.4595536503
 31
0.0
 11
226.9920621221
 21
47.4828150831
 31
0.0
 11
226.9965034982
 21
47.5060470855
 31
0.0
 11
227.0006550699
 21
47.5292446715
 31
0.0
 11
227.0045190901
 21
47.5524029433
 31
0.0
 11
227.0080979092
 21
47.5755170934
 31
0.0
 11
227.0113939707
 21
47.5985824068
 31
0.0
 11
227.014409808
 21
47.6215942622
 31
0.0
 11
227.0171480405
 21
47.6445481344
 31
0.0
 11
227.0196113703
 21
47.667439595
 31
0.0
 11
227.0218025786
 21
47.6902643146
 31
0.0
 11
227.0237245216
 21
47.7130180631
 31
0.0
 11
227.0253801272
 21
47.7356967116
 31
0.0
 11
227.0267723915
 21
47.7582962328
 31
0.0
 11
227.0279043748
 21
47.7808127021
 31
0.0
 11
227.0287791984
 21
47.8032422979
 31
0.0
 11
227.0294000408
 21
47.8255813028
 31
0.0
 11
227.0297701343
 21
47.8478261033
 31
0.0
 11
227.0298927614
 21
47.8699731903
 31
0.0
  0
LINE
  5
27D
100
AcDbEntity
  8
0
100
AcDbLine
 62
7
  6
CONTINUOUS
 10
201.0298927614
 20
45.8699731903
 11
225.0298927614
 21
45.8699731903
  0
LINE
  5
27E
100
AcDbEntity
  8
0
100
AcDbLine
 62
7
  6
CONTINUOUS
 10
201.0298927614
 20
141.8699731903
 11
201.0298927614
 21
165.8699731903
  0
LINE
  5
27F
100
AcDbEntity
  8
0
100
AcDbLine
 62
7
  6
CONTINUOUS
 10
201.0298927614
 20
165.8699731903
 11
205.7938927614
 21
165.8699731903
  0
SPLINE
  5
280
100
AcDbEntity
  8
0
100
AcDbSpline
 62
7
  6
CONTINUOUS
 70
4
 71
3
 72
8
 73
4
 74
17
 42
0.0000001
 43
0.0000001
 44
0.0000000001
 12
0.2548516974
 22
-0.0938558002
 32
0.0
 13
0.2687906105
 23
-0.0388575163
 33
0.0
 40
0.0
 40
0.0
 40
0.0
 40
0.0
 40
1.0
 40
1.0
 40
1.0
 40
1.0
 10
205.5306314474
 20
165.9366948466
 30
0.0
 41
1.0
 10
205.6158929595
 20
165.9052950658
 30
0.0
 41
0.9963530277
 10
205.7039679379
 20
165.8829731061
 30
0.0
 41
0.9963530277
 10
205.7938927614
 20
165.8699731903
 30
0.0
 41
1.0
 11
205.5306314474
 21
165.9366948466
 31
0.0
 11
205.5466027672
 21
165.9309311569
 31
0.0
 11
205.5626576343
 21
165.9253732945
 31
0.0
 11
205.5787920644
 21
165.9200230306
 31
0.0
 11
205.595002024
 21
165.9148820333
 31
0.0
 11
205.611283434
 21
165.9099518661
 31
0.0
 11
205.627632173
 21
165.9052339862
 31
0.0
 11
205.6440440807
 21
165.9007297431
 31
0.0
 11
205.6605149614
 21
165.8964403773
 31
0.0
 11
205.6770405877
 21
165.8923670195
 31
0.0
 11
205.6936167041
 21
165.8885106889
 31
0.0
 11
205.7102390305
 21
165.8848722933
 31
0.0
 11
205.7269032661
 21
165.8814526273
 31
0.0
 11
205.7436050928
 21
165.8782523729
 31
0.0
 11
205.7603401792
 21
165.8752720981
 31
0.0
 11
205.7771041844
 21
165.8725122571
 31
0.0
 11
205.7938927614
 21
165.8699731903
 31
0.0
  0
LINE
  5
281
100
AcDbEntity
  8
0
100
AcDbLine
 62
7
  6
CONTINUOUS
 10
205.5306314474
 20
169.5816152675
 11
205.5306314474
 21
165.9366948466
  0
SPLINE
  5
282
100
AcDbEntity
  8
0
100
AcDbSpline
 62
7
  6
CONTINUOUS
 70
4
 71
3
 72
8
 73
4
 74
129
 42
0.0000001
 43
0.0000001
 44
0.0000000001
 12
3.7318722135
 22
1.1227748501
 32
0.0
 13
1.7923895659
 23
3.4604671976
 33
0.0
 40
0.0
 40
0.0
 40
0.0
 40
0.0
 40
1.0
 40
1.0
 40
1.0
 40
1.0
 10
205.5306314474
 20
169.5816152675
 30
0.0
 41
1.0
 10
206.8438043966
 20
169.9766978097
 30
0.0
 41
0.9472913718
 10
207.8991858781
 20
170.8523023657
 30
0.0
 41
0.9472913718
 10
208.5298927614
 20
172.0699731903
 30
0.0
 41
1.0
 11
205.5306314474
 21
169.5816152675
 31
0.0
 11
205.5597777088
 21
169.5904811616
 31
0.0
 11
205.588904818
 21
169.5995356031
 31
0.0
 11
205.6180110126
 21
169.6087787507
 31
0.0
 11
205.6470945241
 21
169.6182107419
 31
0.0
 11
205.6761535785
 21
169.6278316926
 31
0.0
 11
205.7051863961
 21
169.6376416976
 31
0.0
 11
205.7341911922
 21
169.6476408299
 31
0.0
 11
205.7631661775
 21
169.6578291404
 31
0.0
 11
205.7921095579
 21
169.6682066587
 31
0.0
 11
205.8210195354
 21
169.6787733918
 31
0.0
 11
205.849894308
 21
169.6895293249
 31
0.0
 11
205.8787320704
 21
169.7004744208
 31
0.0
 11
205.907531014
 21
169.7116086198
 31
0.0
 11
205.9362893275
 21
169.72293184
 31
0.0
 11
205.9650051971
 21
169.7344439766
 31
0.0
 11
205.9936768069
 21
169.7461449024
 31
0.0
 11
206.0223023391
 21
169.7580344672
 31
0.0
 11
206.0508799746
 21
169.7701124982
 31
0.0
 11
206.0794078933
 21
169.7823787994
 31
0.0
 11
206.1078842741
 21
169.7948331521
 31
0.0
 11
206.1363072958
 21
169.8074753144
 31
0.0
 11
206.164675137
 21
169.8203050214
 31
0.0
 11
206.1929859769
 21
169.8333219849
 31
0.0
 11
206.2212379952
 21
169.8465258938
 31
0.0
 11
206.2494293726
 21
169.8599164134
 31
0.0
 11
206.2775582916
 21
169.8734931861
 31
0.0
 11
206.3056229361
 21
169.887255831
 31
0.0
 11
206.3336214925
 21
169.9012039437
 31
0.0
 11
206.3615521495
 21
169.9153370967
 31
0.0
 11
206.3894130989
 21
169.9296548391
 31
0.0
 11
206.4172025357
 21
169.944156697
 31
0.0
 11
206.4449186584
 21
169.958842173
 31
0.0
 11
206.4725596699
 21
169.9737107464
 31
0.0
 11
206.500123777
 21
169.9887618736
 31
0.0
 11
206.5276091918
 21
170.0039949874
 31
0.0
 11
206.5550141311
 21
170.0194094979
 31
0.0
 11
206.5823368175
 21
170.0350047919
 31
0.0
 11
206.6095754792
 21
170.0507802331
 31
0.0
 11
206.6367283509
 21
170.0667351625
 31
0.0
 11
206.6637936738
 21
170.0828688979
 31
0.0
 11
206.6907696961
 21
170.0991807346
 31
0.0
 11
206.7176546733
 21
170.1156699449
 31
0.0
 11
206.7444468688
 21
170.1323357787
 31
0.0
 11
206.7711445538
 21
170.1491774632
 31
0.0
 11
206.7977460082
 21
170.1661942033
 31
0.0
 11
206.8242495206
 21
170.1833851813
 31
0.0
 11
206.8506533888
 21
170.2007495578
 31
0.0
 11
206.8769559201
 21
170.2182864709
 31
0.0
 11
206.9031554316
 21
170.2359950369
 31
0.0
 11
206.9292502509
 21
170.2538743505
 31
0.0
 11
206.9552387159
 21
170.2719234844
 31
0.0
 11
206.9811191755
 21
170.29014149
 31
0.0
 11
207.0068899901
 21
170.3085273975
 31
0.0
 11
207.0325495316
 21
170.3270802158
 31
0.0
 11
207.0580961836
 21
170.3457989327
 31
0.0
 11
207.0835283425
 21
170.3646825154
 31
0.0
 11
207.1088444169
 21
170.3837299104
 31
0.0
 11
207.1340428286
 21
170.4029400437
 31
0.0
 11
207.1591220127
 21
170.4223118213
 31
0.0
 11
207.1840804179
 21
170.4418441289
 31
0.0
 11
207.2089165067
 21
170.4615358327
 31
0.0
 11
207.233628756
 21
170.4813857789
 31
0.0
 11
207.2582156573
 21
170.5013927949
 31
0.0
 11
207.2826757168
 21
170.5215556884
 31
0.0
 11
207.307007456
 21
170.5418732486
 31
0.0
 11
207.3312094119
 21
170.5623442459
 31
0.0
 11
207.3552801371
 21
170.5829674324
 31
0.0
 11
207.3792182005
 21
170.6037415419
 31
0.0
 11
207.4030221871
 21
170.6246652903
 31
0.0
 11
207.4266906987
 21
170.6457373761
 31
0.0
 11
207.4502223539
 21
170.6669564803
 31
0.0
 11
207.4736157884
 21
170.6883212668
 31
0.0
 11
207.4968696555
 21
170.7098303827
 31
0.0
 11
207.5199826259
 21
170.7314824586
 31
0.0
 11
207.5429533885
 21
170.7532761089
 31
0.0
 11
207.5657806503
 21
170.7752099321
 31
0.0
 11
207.5884631367
 21
170.797282511
 31
0.0
 11
207.6109995916
 21
170.819492413
 31
0.0
 11
207.633388778
 21
170.8418381906
 31
0.0
 11
207.6556294779
 21
170.8643183815
 31
0.0
 11
207.6777204927
 21
170.886931509
 31
0.0
 11
207.6996606432
 21
170.9096760825
 31
0.0
 11
207.7214487699
 21
170.9325505973
 31
0.0
 11
207.7430837335
 21
170.9555535356
 31
0.0
 11
207.7645644146
 21
170.9786833662
 31
0.0
 11
207.785889714
 21
171.0019385453
 31
0.0
 11
207.8070585533
 21
171.0253175167
 31
0.0
 11
207.8280698745
 21
171.0488187119
 31
0.0
 11
207.8489226405
 21
171.0724405508
 31
0.0
 11
207.8696158352
 21
171.0961814418
 31
0.0
 11
207.8901484636
 21
171.1200397823
 31
0.0
 11
207.9105195519
 21
171.1440139589
 31
0.0
 11
207.930728148
 21
171.1681023478
 31
0.0
 11
207.9507733209
 21
171.1923033152
 31
0.0
 11
207.9706541616
 21
171.2166152177
 31
0.0
 11
207.9903697829
 21
171.2410364026
 31
0.0
 11
208.0099193191
 21
171.265565208
 31
0.0
 11
208.029301927
 21
171.2901999637
 31
0.0
 11
208.0485167853
 21
171.314938991
 31
0.0
 11
208.0675630946
 21
171.3397806036
 31
0.0
 11
208.0864400783
 21
171.3647231074
 31
0.0
 11
208.1051469817
 21
171.3897648012
 31
0.0
 11
208.1236830727
 21
171.4149039772
 31
0.0
 11
208.1420476417
 21
171.440138921
 31
0.0
 11
208.1602400014
 21
171.4654679121
 31
0.0
 11
208.1782594875
 21
171.4908892243
 31
0.0
 11
208.1961054578
 21
171.5164011263
 31
0.0
 11
208.2137772932
 21
171.5420018814
 31
0.0
 11
208.2312743971
 21
171.5676897487
 31
0.0
 11
208.2485961954
 21
171.5934629827
 31
0.0
 11
208.265742137
 21
171.6193198342
 31
0.0
 11
208.2827116934
 21
171.6452585505
 31
0.0
 11
208.2995043589
 21
171.6712773755
 31
0.0
 11
208.3161196503
 21
171.6973745506
 31
0.0
 11
208.3325571073
 21
171.7235483145
 31
0.0
 11
208.3488162923
 21
171.7497969039
 31
0.0
 11
208.3648967902
 21
171.7761185538
 31
0.0
 11
208.3807982085
 21
171.8025114976
 31
0.0
 11
208.3965201775
 21
171.828973968
 31
0.0
 11
208.4120623498
 21
171.8555041967
 31
0.0
 11
208.4274244006
 21
171.8821004152
 31
0.0
 11
208.4426060275
 21
171.908760855
 31
0.0
 11
208.4576069506
 21
171.9354837479
 31
0.0
 11
208.4724269119
 21
171.9622673264
 31
0.0
 11
208.4870656761
 21
171.9891098241
 31
0.0
 11
208.5015230296
 21
172.016009476
 31
0.0
 11
208.5157987812
 21
172.0429645185
 31
0.0
 11
208.5298927614
 21
172.0699731903
 31
0.0
  0
LINE
  5
283
100
AcDbEntity
  8
0
100
AcDbLine
 62
7
  6
CONTINUOUS
 10
207.7298927614
 20
174.1699731903
 11
208.5298927614
 21
172.0699731903
  0
LINE
  5
284
100
AcDbEntity
  8
0
100
AcDbLine
 62
7
  6
CONTINUOUS
 10
208.5298927614
 20
176.3699731903
 11
207.7298927614
 21
174.1699731903
  0
LINE
  5
285
100
AcDbEntity
  8
0
100
AcDbLine
 62
7
  6
CONTINUOUS
 10
210.0775466496
 20
176.3699731903
 11
208.5298927614
 21
176.3699731903
  0
SPLINE
  5
286
100
AcDbEntity
  8
0
100
AcDbSpline
 62
7
  6
CONTINUOUS
 70
4
 71
3
 72
8
 73
4
 74
65
 42
0.0000001
 43
0.0000001
 44
0.0000000001
 12
0.6107749698
 22
0.885390904
 32
0.0
 13
1.0756221997
 23
-0.0
 33
0.0
 40
0.0
 40
0.0
 40
0.0
 40
0.0
 40
1.0
 40
1.0
 40
1.0
 40
1.0
 10
210.0775466496
 20
176.3699731903
 30
0.0
 41
1.0
 10
210.297980813
 20
176.6895187069
 30
0.0
 41
0.923593936
 10
210.6416910644
 20
176.8699731903
 30
0.0
 41
0.923593936
 10
211.0298927614
 20
176.8699731903
 30
0.0
 41
1.0
 11
210.0775466496
 21
176.3699731903
 31
0.0
 11
210.0872074598
 21
176.3837619469
 31
0.0
 11
210.0971026364
 21
176.3974560072
 31
0.0
 11
210.1072312474
 21
176.4110497457
 31
0.0
 11
210.1175921893
 21
176.4245375288
 31
0.0
 11
210.1281841855
 21
176.4379137207
 31
0.0
 11
210.1390057848
 21
176.45117269
 31
0.0
 11
210.1500553602
 21
176.4643088163
 31
0.0
 11
210.1613311083
 21
176.4773164966
 31
0.0
 11
210.1728310489
 21
176.4901901521
 31
0.0
 11
210.1845530244
 21
176.5029242351
 31
0.0
 11
210.1964947002
 21
176.5155132356
 31
0.0
 11
210.208653565
 21
176.5279516885
 31
0.0
 11
210.2210269315
 21
176.5402341803
 31
0.0
 11
210.2336119375
 21
176.5523553559
 31
0.0
 11
210.2464055469
 21
176.5643099257
 31
0.0
 11
210.2594045521
 21
176.5760926727
 31
0.0
 11
210.2726055753
 21
176.5876984588
 31
0.0
 11
210.2860050711
 21
176.5991222322
 31
0.0
 11
210.299599329
 21
176.6103590336
 31
0.0
 11
210.3133844768
 21
176.6214040033
 31
0.0
 11
210.3273564833
 21
176.6322523873
 31
0.0
 11
210.3415111621
 21
176.642899544
 31
0.0
 11
210.3558441757
 21
176.6533409502
 31
0.0
 11
210.3703510394
 21
176.6635722075
 31
0.0
 11
210.385027126
 21
176.6735890479
 31
0.0
 11
210.3998676705
 21
176.6833873395
 31
0.0
 11
210.4148677748
 21
176.6929630925
 31
0.0
 11
210.4300224137
 21
176.7023124639
 31
0.0
 11
210.4453264397
 21
176.7114317626
 31
0.0
 11
210.4607745895
 21
176.7203174546
 31
0.0
 11
210.4763614893
 21
176.7289661673
 31
0.0
 11
210.4920816615
 21
176.7373746934
 31
0.0
 11
210.5079295311
 21
176.7455399955
 31
0.0
 11
210.5238994318
 21
176.7534592092
 31
0.0
 11
210.5399856135
 21
176.7611296469
 31
0.0
 11
210.5561822485
 21
176.7685488002
 31
0.0
 11
210.572483439
 21
176.7757143435
 31
0.0
 11
210.5888832241
 21
176.7826241355
 31
0.0
 11
210.6053755867
 21
176.7892762219
 31
0.0
 11
210.6219544615
 21
176.7956688365
 31
0.0
 11
210.6386137415
 21
176.8018004033
 31
0.0
 11
210.6553472861
 21
176.8076695368
 31
0.0
 11
210.6721489281
 21
176.8132750432
 31
0.0
 11
210.6890124815
 21
176.8186159203
 31
0.0
 11
210.7059317482
 21
176.823691358
 31
0.0
 11
210.7229005262
 21
176.8285007374
 31
0.0
 11
210.7399126162
 21
176.8330436306
 31
0.0
 11
210.7569618292
 21
176.8373197995
 31
0.0
 11
210.7740419936
 21
176.8413291943
 31
0.0
 11
210.7911469621
 21
176.8450719521
 31
0.0
 11
210.8082706187
 21
176.848548395
 31
0.0
 11
210.8254068855
 21
176.8517590275
 31
0.0
 11
210.8425497293
 21
176.8547045344
 31
0.0
 11
210.8596931681
 21
176.8573857776
 31
0.0
 11
210.876831277
 21
176.8598037933
 31
0.0
 11
210.8939581952
 21
176.8619597884
 31
0.0
 11
210.9110681307
 21
176.8638551373
 31
0.0
 11
210.9281553671
 21
176.8654913776
 31
0.0
 11
210.9452142683
 21
176.8668702065
 31
0.0
 11
210.962239284
 21
176.8679934763
 31
0.0
 11
210.9792249546
 21
176.8688631901
 31
0.0
 11
210.9961659164
 21
176.8694814971
 31
0.0
 11
211.0130569052
 21
176.8698506881
 31
0.0
 11
211.0298927614
 21
176.8699731903
 31
0.0
  0
SPLINE
  5
287
100
AcDbEntity
  8
0
100
AcDbSpline
 62
7
  6
CONTINUOUS
 70
4
 71
3
 72
8
 73
4
 74
65
 42
0.0000001
 43
0.0000001
 44
0.0000000001
 12
-0.6107749698
 22
0.885390904
 32
0.0
 13
-1.0756221997
 23
-0.0
 33
0.0
 40
0.0
 40
0.0
 40
0.0
 40
0.0
 40
1.0
 40
1.0
 40
1.0
 40
1.0
 10
211.9822388731
 20
176.3699731903
 30
0.0
 41
1.0
 10
211.7618047097
 20
176.6895187069
 30
0.0
 41
0.923593936
 10
211.4180944584
 20
176.8699731903
 30
0.0
 41
0.923593936
 10
211.0298927614
 20
176.8699731903
 30
0.0
 41
1.0
 11
211.9822388731
 21
176.3699731903
 31
0.0
 11
211.972578063
 21
176.3837619469
 31
0.0
 11
211.9626828864
 21
176.3974560072
 31
0.0
 11
211.9525542754
 21
176.4110497457
 31
0.0
 11
211.9421933335
 21
176.4245375288
 31
0.0
 11
211.9316013373
 21
176.4379137207
 31
0.0
 11
211.920779738
 21
176.45117269
 31
0.0
 11
211.9097301626
 21
176.4643088163
 31
0.0
 11
211.8984544145
 21
176.4773164966
 31
0.0
 11
211.8869544739
 21
176.4901901521
 31
0.0
 11
211.8752324984
 21
176.5029242351
 31
0.0
 11
211.8632908226
 21
176.5155132356
 31
0.0
 11
211.8511319577
 21
176.5279516885
 31
0.0
 11
211.8387585912
 21
176.5402341803
 31
0.0
 11
211.8261735853
 21
176.5523553559
 31
0.0
 11
211.8133799758
 21
176.5643099257
 31
0.0
 11
211.8003809706
 21
176.5760926727
 31
0.0
 11
211.7871799475
 21
176.5876984588
 31
0.0
 11
211.7737804517
 21
176.5991222322
 31
0.0
 11
211.7601861938
 21
176.6103590336
 31
0.0
 11
211.746401046
 21
176.6214040033
 31
0.0
 11
211.7324290395
 21
176.6322523873
 31
0.0
 11
211.7182743607
 21
176.642899544
 31
0.0
 11
211.7039413471
 21
176.6533409502
 31
0.0
 11
211.6894344834
 21
176.6635722075
 31
0.0
 11
211.6747583967
 21
176.6735890479
 31
0.0
 11
211.6599178523
 21
176.6833873395
 31
0.0
 11
211.644917748
 21
176.6929630925
 31
0.0
 11
211.6297631091
 21
176.7023124639
 31
0.0
 11
211.6144590831
 21
176.7114317626
 31
0.0
 11
211.5990109333
 21
176.7203174546
 31
0.0
 11
211.5834240335
 21
176.7289661673
 31
0.0
 11
211.5677038613
 21
176.7373746934
 31
0.0
 11
211.5518559917
 21
176.7455399955
 31
0.0
 11
211.535886091
 21
176.7534592092
 31
0.0
 11
211.5197999093
 21
176.7611296469
 31
0.0
 11
211.5036032743
 21
176.7685488002
 31
0.0
 11
211.4873020837
 21
176.7757143435
 31
0.0
 11
211.4709022987
 21
176.7826241355
 31
0.0
 11
211.454409936
 21
176.7892762219
 31
0.0
 11
211.4378310613
 21
176.7956688365
 31
0.0
 11
211.4211717813
 21
176.8018004033
 31
0.0
 11
211.4044382367
 21
176.8076695368
 31
0.0
 11
211.3876365947
 21
176.8132750432
 31
0.0
 11
211.3707730413
 21
176.8186159203
 31
0.0
 11
211.3538537746
 21
176.823691358
 31
0.0
 11
211.3368849966
 21
176.8285007374
 31
0.0
 11
211.3198729066
 21
176.8330436306
 31
0.0
 11
211.3028236936
 21
176.8373197995
 31
0.0
 11
211.2857435292
 21
176.8413291943
 31
0.0
 11
211.2686385607
 21
176.8450719521
 31
0.0
 11
211.2515149041
 21
176.848548395
 31
0.0
 11
211.2343786373
 21
176.8517590275
 31
0.0
 11
211.2172357935
 21
176.8547045344
 31
0.0
 11
211.2000923547
 21
176.8573857776
 31
0.0
 11
211.1829542457
 21
176.8598037933
 31
0.0
 11
211.1658273276
 21
176.8619597884
 31
0.0
 11
211.1487173921
 21
176.8638551373
 31
0.0
 11
211.1316301557
 21
176.8654913776
 31
0.0
 11
211.1145712545
 21
176.8668702065
 31
0.0
 11
211.0975462388
 21
176.8679934763
 31
0.0
 11
211.0805605681
 21
176.8688631901
 31
0.0
 11
211.0636196064
 21
176.8694814971
 31
0.0
 11
211.0467286176
 21
176.8698506881
 31
0.0
 11
211.0298927614
 21
176.8699731903
 31
0.0
  0
LINE
  5
288
100
AcDbEntity
  8
0
100
AcDbLine
 62
7
  6
CONTINUOUS
 10
213.5298927614
 20
176.3699731903
 11
211.9822388731
 21
176.3699731903
  0
LINE
  5
289
100
AcDbEntity
  8
0
100
AcDbLine
 62
7
  6
CONTINUOUS
 10
213.5298927614
 20
176.3699731903
 11
214.3298927614
 21
174.1699731903
  0
LINE
  5
28A
100
AcDbEntity
  8
0
100
AcDbLine
 62
7
  6
CONTINUOUS
 10
214.3298927614
 20
174.1699731903
 11
213.5298927614
 21
172.0699731903
  0
SPLINE
  5
28B
100
AcDbEntity
  8
0
100
AcDbSpline
 62
7
  6
CONTINUOUS
 70
4
 71
3
 72
8
 73
4
 74
129
 42
0.0000001
 43
0.0000001
 44
0.0000000001
 12
-3.7318722135
 22
1.1227748501
 32
0.0
 13
-1.7923895659
 23
3.4604671976
 33
0.0
 40
0.0
 40
0.0
 40
0.0
 40
0.0
 40
1.0
 40
1.0
 40
1.0
 40
1.0
 10
216.5291540754
 20
169.5816152675
 30
0.0
 41
1.0
 10
215.2159811261
 20
169.9766978097
 30
0.0
 41
0.9472913718
 10
214.1605996447
 20
170.8523023657
 30
0.0
 41
0.9472913718
 10
213.5298927614
 20
172.0699731903
 30
0.0
 41
1.0
 11
216.5291540754
 21
169.5816152675
 31
0.0
 11
216.500007814
 21
169.5904811616
 31
0.0
 11
216.4708807048
 21
169.5995356031
 31
0.0
 11
216.4417745102
 21
169.6087787507
 31
0.0
 11
216.4126909987
 21
169.6182107419
 31
0.0
 11
216.3836319443
 21
169.6278316926
 31
0.0
 11
216.3545991267
 21
169.6376416976
 31
0.0
 11
216.3255943305
 21
169.6476408299
 31
0.0
 11
216.2966193453
 21
169.6578291404
 31
0.0
 11
216.2676759649
 21
169.6682066587
 31
0.0
 11
216.2387659874
 21
169.6787733918
 31
0.0
 11
216.2098912148
 21
169.6895293249
 31
0.0
 11
216.1810534524
 21
169.7004744208
 31
0.0
 11
216.1522545088
 21
169.7116086198
 31
0.0
 11
216.1234961953
 21
169.72293184
 31
0.0
 11
216.0947803257
 21
169.7344439766
 31
0.0
 11
216.0661087159
 21
169.7461449024
 31
0.0
 11
216.0374831837
 21
169.7580344672
 31
0.0
 11
216.0089055482
 21
169.7701124982
 31
0.0
 11
215.9803776295
 21
169.7823787994
 31
0.0
 11
215.9519012487
 21
169.7948331521
 31
0.0
 11
215.923478227
 21
169.8074753144
 31
0.0
 11
215.8951103858
 21
169.8203050214
 31
0.0
 11
215.8667995459
 21
169.8333219849
 31
0.0
 11
215.8385475276
 21
169.8465258938
 31
0.0
 11
215.8103561502
 21
169.8599164134
 31
0.0
 11
215.7822272312
 21
169.8734931861
 31
0.0
 11
215.7541625867
 21
169.887255831
 31
0.0
 11
215.7261640303
 21
169.9012039437
 31
0.0
 11
215.6982333733
 21
169.9153370967
 31
0.0
 11
215.6703724239
 21
169.9296548391
 31
0.0
 11
215.6425829871
 21
169.944156697
 31
0.0
 11
215.6148668644
 21
169.958842173
 31
0.0
 11
215.5872258529
 21
169.9737107464
 31
0.0
 11
215.5596617457
 21
169.9887618736
 31
0.0
 11
215.532176331
 21
170.0039949874
 31
0.0
 11
215.5047713917
 21
170.0194094979
 31
0.0
 11
215.4774487053
 21
170.0350047919
 31
0.0
 11
215.4502100436
 21
170.0507802331
 31
0.0
 11
215.4230571719
 21
170.0667351625
 31
0.0
 11
215.395991849
 21
170.0828688979
 31
0.0
 11
215.3690158267
 21
170.0991807346
 31
0.0
 11
215.3421308495
 21
170.1156699449
 31
0.0
 11
215.315338654
 21
170.1323357787
 31
0.0
 11
215.288640969
 21
170.1491774632
 31
0.0
 11
215.2620395146
 21
170.1661942033
 31
0.0
 11
215.2355360022
 21
170.1833851813
 31
0.0
 11
215.209132134
 21
170.2007495578
 31
0.0
 11
215.1828296027
 21
170.2182864709
 31
0.0
 11
215.1566300912
 21
170.2359950369
 31
0.0
 11
215.1305352719
 21
170.2538743505
 31
0.0
 11
215.1045468069
 21
170.2719234844
 31
0.0
 11
215.0786663473
 21
170.29014149
 31
0.0
 11
215.0528955326
 21
170.3085273975
 31
0.0
 11
215.0272359912
 21
170.3270802158
 31
0.0
 11
215.0016893392
 21
170.3457989327
 31
0.0
 11
214.9762571803
 21
170.3646825154
 31
0.0
 11
214.9509411059
 21
170.3837299104
 31
0.0
 11
214.9257426942
 21
170.4029400437
 31
0.0
 11
214.9006635101
 21
170.4223118213
 31
0.0
 11
214.8757051049
 21
170.4418441289
 31
0.0
 11
214.8508690161
 21
170.4615358327
 31
0.0
 11
214.8261567668
 21
170.4813857789
 31
0.0
 11
214.8015698655
 21
170.5013927949
 31
0.0
 11
214.777109806
 21
170.5215556884
 31
0.0
 11
214.7527780668
 21
170.5418732486
 31
0.0
 11
214.7285761109
 21
170.5623442459
 31
0.0
 11
214.7045053857
 21
170.5829674324
 31
0.0
 11
214.6805673223
 21
170.6037415419
 31
0.0
 11
214.6567633357
 21
170.6246652903
 31
0.0
 11
214.6330948241
 21
170.6457373761
 31
0.0
 11
214.6095631689
 21
170.6669564803
 31
0.0
 11
214.5861697344
 21
170.6883212668
 31
0.0
 11
214.5629158673
 21
170.7098303827
 31
0.0
 11
214.5398028969
 21
170.7314824586
 31
0.0
 11
214.5168321343
 21
170.7532761089
 31
0.0
 11
214.4940048725
 21
170.7752099321
 31
0.0
 11
214.4713223861
 21
170.797282511
 31
0.0
 11
214.4487859312
 21
170.819492413
 31
0.0
 11
214.4263967448
 21
170.8418381906
 31
0.0
 11
214.4041560449
 21
170.8643183815
 31
0.0
 11
214.3820650301
 21
170.886931509
 31
0.0
 11
214.3601248796
 21
170.9096760825
 31
0.0
 11
214.3383367528
 21
170.9325505973
 31
0.0
 11
214.3167017893
 21
170.9555535356
 31
0.0
 11
214.2952211082
 21
170.9786833662
 31
0.0
 11
214.2738958088
 21
171.0019385453
 31
0.0
 11
214.2527269695
 21
171.0253175167
 31
0.0
 11
214.2317156483
 21
171.0488187119
 31
0.0
 11
214.2108628823
 21
171.0724405508
 31
0.0
 11
214.1901696876
 21
171.0961814418
 31
0.0
 11
214.1696370592
 21
171.1200397823
 31
0.0
 11
214.1492659708
 21
171.1440139589
 31
0.0
 11
214.1290573748
 21
171.1681023478
 31
0.0
 11
214.1090122019
 21
171.1923033152
 31
0.0
 11
214.0891313612
 21
171.2166152177
 31
0.0
 11
214.0694157399
 21
171.2410364026
 31
0.0
 11
214.0498662037
 21
171.265565208
 31
0.0
 11
214.0304835957
 21
171.2901999637
 31
0.0
 11
214.0112687375
 21
171.314938991
 31
0.0
 11
213.9922224281
 21
171.3397806036
 31
0.0
 11
213.9733454445
 21
171.3647231074
 31
0.0
 11
213.9546385411
 21
171.3897648012
 31
0.0
 11
213.9361024501
 21
171.4149039772
 31
0.0
 11
213.9177378811
 21
171.440138921
 31
0.0
 11
213.8995455214
 21
171.4654679121
 31
0.0
 11
213.8815260353
 21
171.4908892243
 31
0.0
 11
213.8636800649
 21
171.5164011263
 31
0.0
 11
213.8460082295
 21
171.5420018814
 31
0.0
 11
213.8285111257
 21
171.5676897487
 31
0.0
 11
213.8111893274
 21
171.5934629827
 31
0.0
 11
213.7940433858
 21
171.6193198342
 31
0.0
 11
213.7770738294
 21
171.6452585505
 31
0.0
 11
213.7602811639
 21
171.6712773755
 31
0.0
 11
213.7436658725
 21
171.6973745506
 31
0.0
 11
213.7272284155
 21
171.7235483145
 31
0.0
 11
213.7109692305
 21
171.7497969039
 31
0.0
 11
213.6948887326
 21
171.7761185538
 31
0.0
 11
213.6789873143
 21
171.8025114976
 31
0.0
 11
213.6632653453
 21
171.828973968
 31
0.0
 11
213.647723173
 21
171.8555041967
 31
0.0
 11
213.6323611222
 21
171.8821004152
 31
0.0
 11
213.6171794952
 21
171.908760855
 31
0.0
 11
213.6021785722
 21
171.9354837479
 31
0.0
 11
213.5873586109
 21
171.9622673264
 31
0.0
 11
213.5727198467
 21
171.9891098241
 31
0.0
 11
213.5582624931
 21
172.016009476
 31
0.0
 11
213.5439867416
 21
172.0429645185
 31
0.0
 11
213.5298927614
 21
172.0699731903
 31
0.0
  0
LINE
  5
28C
100
AcDbEntity
  8
0
100
AcDbLine
 62
7
  6
CONTINUOUS
 10
216.5291540754
 20
169.5816152675
 11
216.5291540754
 21
165.9366948466
  0
SPLINE
  5
28D
100
AcDbEntity
  8
0
100
AcDbSpline
 62
7
  6
CONTINUOUS
 70
4
 71
3
 72
8
 73
4
 74
17
 42
0.0000001
 43
0.0000001
 44
0.0000000001
 12
-0.2548516974
 22
-0.0938558002
 32
0.0
 13
-0.2687906105
 23
-0.0388575163
 33
0.0
 40
0.0
 40
0.0
 40
0.0
 40
0.0
 40
1.0
 40
1.0
 40
1.0
 40
1.0
 10
216.5291540754
 20
165.9366948466
 30
0.0
 41
1.0
 10
216.4438925633
 20
165.9052950658
 30
0.0
 41
0.9963530277
 10
216.3558175849
 20
165.8829731061
 30
0.0
 41
0.9963530277
 10
216.2658927614
 20
165.8699731903
 30
0.0
 41
1.0
 11
216.5291540754
 21
165.9366948466
 31
0.0
 11
216.5131827556
 21
165.9309311569
 31
0.0
 11
216.4971278884
 21
165.9253732945
 31
0.0
 11
216.4809934584
 21
165.9200230306
 31
0.0
 11
216.4647834988
 21
165.9148820333
 31
0.0
 11
216.4485020888
 21
165.9099518661
 31
0.0
 11
216.4321533498
 21
165.9052339862
 31
0.0
 11
216.4157414421
 21
165.9007297431
 31
0.0
 11
216.3992705614
 21
165.8964403773
 31
0.0
 11
216.3827449351
 21
165.8923670195
 31
0.0
 11
216.3661688187
 21
165.8885106889
 31
0.0
 11
216.3495464922
 21
165.8848722933
 31
0.0
 11
216.3328822567
 21
165.8814526273
 31
0.0
 11
216.31618043
 21
165.8782523729
 31
0.0
 11
216.2994453436
 21
165.8752720981
 31
0.0
 11
216.2826813384
 21
165.8725122571
 31
0.0
 11
216.2658927614
 21
165.8699731903
 31
0.0
  0
LINE
  5
28E
100
AcDbEntity
  8
0
100
AcDbLine
 62
7
  6
CONTINUOUS
 10
216.2658927614
 20
165.8699731903
 11
225.0298927614
 21
165.8699731903
  0
SPLINE
  5
28F
100
AcDbEntity
  8
0
100
AcDbSpline
 62
7
  6
CONTINUOUS
 70
4
 71
3
 72
8
 73
4
 74
129
 42
0.0000001
 43
0.0000001
 44
0.0000000001
 12
2.8284271247
 22
0.0
 32
0.0
 13
0.0
 23
-2.8284271247
 33
0.0
 40
0.0
 40
0.0
 40
0.0
 40
0.0
 40
1.0
 40
1.0
 40
1.0
 40
1.0
 10
225.0298927614
 20
165.8699731903
 30
0.0
 41
1.0
 10
226.2014656366
 20
165.8699731903
 30
0.0
 41
0.8047378541
 10
227.0298927614
 20
165.0415460656
 30
0.0
 41
0.8047378541
 10
227.0298927614
 20
163.8699731903
 30
0.0
 41
1.0
 11
225.0298927614
 21
165.8699731903
 31
0.0
 11
225.0520398485
 21
165.8698505632
 31
0.0
 11
225.0742846489
 21
165.8694804697
 31
0.0
 11
225.0966236538
 21
165.8688596273
 31
0.0
 11
225.1190532497
 21
165.8679848038
 31
0.0
 11
225.141569719
 21
165.8668528205
 31
0.0
 11
225.1641692402
 21
165.8654605562
 31
0.0
 11
225.1868478887
 21
165.8638049506
 31
0.0
 11
225.2096016372
 21
165.8618830076
 31
0.0
 11
225.2324263567
 21
165.8596917993
 31
0.0
 11
225.2553178174
 21
165.8572284694
 31
0.0
 11
225.2782716895
 21
165.8544902369
 31
0.0
 11
225.3012835449
 21
165.8514743997
 31
0.0
 11
225.3243488583
 21
165.8481783382
 31
0.0
 11
225.3474630084
 21
165.8445995191
 31
0.0
 11
225.3706212802
 21
165.8407354988
 31
0.0
 11
225.3938188662
 21
165.8365839272
 31
0.0
 11
225.4170508686
 21
165.832142551
 31
0.0
 11
225.4403123014
 21
165.8274092177
 31
0.0
 11
225.4635980925
 21
165.8223818786
 31
0.0
 11
225.4869030862
 21
165.8170585924
 31
0.0
 11
225.5102220457
 21
165.8114375291
 31
0.0
 11
225.5335496557
 21
165.8055169726
 31
0.0
 11
225.5568805253
 21
165.7992953243
 31
0.0
 11
225.5802091911
 21
165.7927711067
 31
0.0
 11
225.6035301199
 21
165.7859429659
 31
0.0
 11
225.6268377125
 21
165.7788096751
 31
0.0
 11
225.6501263066
 21
165.7713701372
 31
0.0
 11
225.6733901808
 21
165.763623388
 31
0.0
 11
225.6966235579
 21
165.755568599
 31
0.0
 11
225.7198206088
 21
165.7472050794
 31
0.0
 11
225.7429754566
 21
165.7385322795
 31
0.0
 11
225.7660821805
 21
165.7295497925
 31
0.0
 11
225.78913482
 21
165.7202573568
 31
0.0
 11
225.8121273792
 21
165.7106548583
 31
0.0
 11
225.8350538311
 21
165.7007423325
 31
0.0
 11
225.8579081225
 21
165.6905199659
 31
0.0
 11
225.880684178
 21
165.6799880979
 31
0.0
 11
225.9033759051
 21
165.6691472224
 31
0.0
 11
225.9259771991
 21
165.657997989
 31
0.0
 11
225.9484819475
 21
165.646541204
 31
0.0
 11
225.9708840352
 21
165.6347778318
 31
0.0
 11
225.9931773496
 21
165.6227089953
 31
0.0
 11
226.0153557855
 21
165.6103359767
 31
0.0
 11
226.03741325
 21
165.5976602178
 31
0.0
 11
226.0593436683
 21
165.5846833205
 31
0.0
 11
226.0811409879
 21
165.5714070463
 31
0.0
 11
226.1027991849
 21
165.5578333168
 31
0.0
 11
226.1243122682
 21
165.5439642128
 31
0.0
 11
226.1456742852
 21
165.529801974
 31
0.0
 11
226.1668793273
 21
165.5153489982
 31
0.0
 11
226.1879215343
 21
165.5006078401
 31
0.0
 11
226.2087951004
 21
165.4855812106
 31
0.0
 11
226.2294942788
 21
165.4702719748
 31
0.0
 11
226.2500133869
 21
165.4546831509
 31
0.0
 11
226.2703468117
 21
165.4388179083
 31
0.0
 11
226.2904890142
 21
165.4226795655
 31
0.0
 11
226.3104345349
 21
165.4062715879
 31
0.0
 11
226.3301779983
 21
165.3895975856
 31
0.0
 11
226.3497141177
 21
165.3726613108
 31
0.0
 11
226.3690377002
 21
165.3554666548
 31
0.0
 11
226.3881436506
 21
165.3380176454
 31
0.0
 11
226.4070269765
 21
165.3203184436
 31
0.0
 11
226.4256827924
 21
165.3023733402
 31
0.0
 11
226.4441063238
 21
165.2841867527
 31
0.0
 11
226.4622929112
 21
165.2657632214
 31
0.0
 11
226.4802380146
 21
165.2471074055
 31
0.0
 11
226.4979372164
 21
165.2282240795
 31
0.0
 11
226.5153862258
 21
165.2091181291
 31
0.0
 11
226.5325808818
 21
165.1897945467
 31
0.0
 11
226.5495171567
 21
165.1702584272
 31
0.0
 11
226.566191159
 21
165.1505149638
 31
0.0
 11
226.5825991365
 21
165.1305694431
 31
0.0
 11
226.5987374794
 21
165.1104272406
 31
0.0
 11
226.614602722
 21
165.0900938159
 31
0.0
 11
226.6301915458
 21
165.0695747078
 31
0.0
 11
226.6455007816
 21
165.0488755294
 31
0.0
 11
226.6605274112
 21
165.0280019633
 31
0.0
 11
226.6752685692
 21
165.0069597563
 31
0.0
 11
226.689721545
 21
164.9857547142
 31
0.0
 11
226.7038837838
 21
164.9643926971
 31
0.0
 11
226.7177528878
 21
164.9428796139
 31
0.0
 11
226.7313266173
 21
164.9212214169
 31
0.0
 11
226.7446028915
 21
164.8994240972
 31
0.0
 11
226.7575797889
 21
164.877493679
 31
0.0
 11
226.7702555478
 21
164.8554362144
 31
0.0
 11
226.7826285664
 21
164.8332577786
 31
0.0
 11
226.7946974029
 21
164.8109644642
 31
0.0
 11
226.8064607751
 21
164.7885623765
 31
0.0
 11
226.81791756
 21
164.7660576281
 31
0.0
 11
226.8290667934
 21
164.7434563341
 31
0.0
 11
226.8399076689
 21
164.7207646069
 31
0.0
 11
226.8504395369
 21
164.6979885514
 31
0.0
 11
226.8606619035
 21
164.6751342601
 31
0.0
 11
226.8705744294
 21
164.6522078081
 31
0.0
 11
226.8801769278
 21
164.6292152489
 31
0.0
 11
226.8894693635
 21
164.6061626095
 31
0.0
 11
226.8984518506
 21
164.5830558856
 31
0.0
 11
226.9071246505
 21
164.5599010378
 31
0.0
 11
226.91548817
 21
164.5367039868
 31
0.0
 11
226.9235429591
 21
164.5134706098
 31
0.0
 11
226.9312897082
 21
164.4902067356
 31
0.0
 11
226.9387292461
 21
164.4669181414
 31
0.0
 11
226.945862537
 21
164.4436105489
 31
0.0
 11
226.9526906778
 21
164.42028962
 31
0.0
 11
226.9592148954
 21
164.3969609543
 31
0.0
 11
226.9654365436
 21
164.3736300846
 31
0.0
 11
226.9713571001
 21
164.3503024746
 31
0.0
 11
226.9769781635
 21
164.3269835152
 31
0.0
 11
226.9823014496
 21
164.3036785215
 31
0.0
 11
226.9873287887
 21
164.2803927304
 31
0.0
 11
226.9920621221
 21
164.2571312976
 31
0.0
 11
226.9965034982
 21
164.2338992952
 31
0.0
 11
227.0006550699
 21
164.2107017092
 31
0.0
 11
227.0045190901
 21
164.1875434374
 31
0.0
 11
227.0080979092
 21
164.1644292872
 31
0.0
 11
227.0113939707
 21
164.1413639739
 31
0.0
 11
227.014409808
 21
164.1183521185
 31
0.0
 11
227.0171480405
 21
164.0953982463
 31
0.0
 11
227.0196113703
 21
164.0725067857
 31
0.0
 11
227.0218025786
 21
164.0496820661
 31
0.0
 11
227.0237245216
 21
164.0269283176
 31
0.0
 11
227.0253801272
 21
164.0042496691
 31
0.0
 11
227.0267723915
 21
163.9816501479
 31
0.0
 11
227.0279043748
 21
163.9591336786
 31
0.0
 11
227.0287791984
 21
163.9367040828
 31
0.0
 11
227.0294000408
 21
163.9143650779
 31
0.0
 11
227.0297701343
 21
163.8921202774
 31
0.0
 11
227.0298927614
 21
163.8699731903
 31
0.0
  0
LINE
  5
290
100
AcDbEntity
  8
0
100
AcDbLine
 62
7
  6
CONTINUOUS
 10
227.0298927614
 20
148.9999731903
 11
227.0298927614
 21
163.8699731903
  0
SPLINE
  5
291
100
AcDbEntity
  8
0
100
AcDbSpline
 62
7
  6
CONTINUOUS
 70
4
 71
3
 72
8
 73
4
 74
129
 42
0.0000001
 43
0.0000001
 44
0.0000000001
 12
-2.4890158698
 22
0.0
 32
0.0
 13
0.0
 23
2.4890158698
 33
0.0
 40
0.0
 40
0.0
 40
0.0
 40
0.0
 40
1.0
 40
1.0
 40
1.0
 40
1.0
 10
228.7898927614
 20
147.2399731903
 30
0.0
 41
1.0
 10
227.7589086312
 20
147.2399731903
 30
0.0
 41
0.8047378541
 10
227.0298927614
 20
147.9689890601
 30
0.0
 41
0.8047378541
 10
227.0298927614
 20
148.9999731903
 30
0.0
 41
1.0
 11
228.7898927614
 21
147.2399731903
 31
0.0
 11
228.7704033248
 21
147.2400811022
 31
0.0
 11
228.7508279004
 21
147.2404067845
 31
0.0
 11
228.7311695761
 21
147.2409531258
 31
0.0
 11
228.7114315317
 21
147.2417229705
 31
0.0
 11
228.6916170387
 21
147.2427191159
 31
0.0
 11
228.6717294601
 21
147.2439443084
 31
0.0
 11
228.6517722494
 21
147.2454012414
 31
0.0
 11
228.6317489507
 21
147.2470925512
 31
0.0
 11
228.6116631975
 21
147.2490208145
 31
0.0
 11
228.5915187121
 21
147.2511885448
 31
0.0
 11
228.5713193047
 21
147.2535981894
 31
0.0
 11
228.5510688719
 21
147.2562521261
 31
0.0
 11
228.5307713961
 21
147.2591526602
 31
0.0
 11
228.510430944
 21
147.262302021
 31
0.0
 11
228.4900516648
 21
147.2657023589
 31
0.0
 11
228.4696377891
 21
147.2693557419
 31
0.0
 11
228.449193627
 21
147.2732641529
 31
0.0
 11
228.4287235662
 21
147.2774294863
 31
0.0
 11
228.40823207
 21
147.2818535447
 31
0.0
 11
228.3877236756
 21
147.2865380365
 31
0.0
 11
228.3672029912
 21
147.2914845722
 31
0.0
 11
228.3466746944
 21
147.296694662
 31
0.0
 11
228.3261435291
 21
147.3021697124
 31
0.0
 11
228.3056143033
 21
147.3079110239
 31
0.0
 11
228.2850918859
 21
147.3139197878
 31
0.0
 11
228.2645812044
 21
147.3201970838
 31
0.0
 11
228.2440872416
 21
147.3267438771
 31
0.0
 11
228.2236150323
 21
147.3335610164
 31
0.0
 11
228.2031696605
 21
147.3406492308
 31
0.0
 11
228.1827562557
 21
147.348009128
 31
0.0
 11
228.1623799896
 21
147.3556411919
 31
0.0
 11
228.1420460726
 21
147.3635457805
 31
0.0
 11
228.1217597498
 21
147.3717231239
 31
0.0
 11
228.1015262978
 21
147.3801733225
 31
0.0
 11
228.08135102
 21
147.3888963453
 31
0.0
 11
228.0612392437
 21
147.3978920279
 31
0.0
 11
228.0411963148
 21
147.4071600717
 31
0.0
 11
228.0212275949
 21
147.4167000421
 31
0.0
 11
228.0013384562
 21
147.4265113676
 31
0.0
 11
227.9815342776
 21
147.4365933383
 31
0.0
 11
227.9618204404
 21
147.4469451059
 31
0.0
 11
227.9422023237
 21
147.457565682
 31
0.0
 11
227.9226853002
 21
147.4684539383
 31
0.0
 11
227.9032747314
 21
147.4796086062
 31
0.0
 11
227.8839759633
 21
147.4910282758
 31
0.0
 11
227.864794322
 21
147.5027113971
 31
0.0
 11
227.8457351087
 21
147.5146562791
 31
0.0
 11
227.8268035954
 21
147.5268610906
 31
0.0
 11
227.8080050204
 21
147.5393238607
 31
0.0
 11
227.7893445834
 21
147.5520424795
 31
0.0
 11
227.7708274412
 21
147.5650146986
 31
0.0
 11
227.752458703
 21
147.5782381326
 31
0.0
 11
227.7342434261
 21
147.5917102601
 31
0.0
 11
227.7161866109
 21
147.605428425
 31
0.0
 11
227.6982931971
 21
147.6193898385
 31
0.0
 11
227.6805680589
 21
147.6335915802
 31
0.0
 11
227.6630160007
 21
147.6480306005
 31
0.0
 11
227.6456417529
 21
147.6627037225
 31
0.0
 11
227.6284499678
 21
147.6776076444
 31
0.0
 11
227.6114452153
 21
147.6927389416
 31
0.0
 11
227.5946319789
 21
147.7080940699
 31
0.0
 11
227.5780146521
 21
147.7236693675
 31
0.0
 11
227.5615975341
 21
147.7394610585
 31
0.0
 11
227.5453848265
 21
147.7554652555
 31
0.0
 11
227.5293806295
 21
147.771677963
 31
0.0
 11
227.5135889386
 21
147.788095081
 31
0.0
 11
227.498013641
 21
147.8047124079
 31
0.0
 11
227.4826585127
 21
147.8215256442
 31
0.0
 11
227.4675272154
 21
147.8385303968
 31
0.0
 11
227.4526232935
 21
147.8557221819
 31
0.0
 11
227.4379501715
 21
147.8730964297
 31
0.0
 11
227.4235111513
 21
147.8906484879
 31
0.0
 11
227.4093094096
 21
147.9083736261
 31
0.0
 11
227.3953479961
 21
147.9262670399
 31
0.0
 11
227.3816298311
 21
147.944323855
 31
0.0
 11
227.3681577036
 21
147.962539132
 31
0.0
 11
227.3549342696
 21
147.9809078701
 31
0.0
 11
227.3419620505
 21
147.9994250124
 31
0.0
 11
227.3292434318
 21
148.0180854494
 31
0.0
 11
227.3167806616
 21
148.0368840244
 31
0.0
 11
227.3045758501
 21
148.0558155377
 31
0.0
 11
227.2926309682
 21
148.074874751
 31
0.0
 11
227.2809478469
 21
148.0940563923
 31
0.0
 11
227.2695281772
 21
148.1133551603
 31
0.0
 11
227.2583735094
 21
148.1327657292
 31
0.0
 11
227.247485253
 21
148.1522827527
 31
0.0
 11
227.2368646769
 21
148.1719008694
 31
0.0
 11
227.2265129094
 21
148.1916147066
 31
0.0
 11
227.2164309386
 21
148.2114188851
 31
0.0
 11
227.2066196132
 21
148.2313080239
 31
0.0
 11
227.1970796428
 21
148.2512767438
 31
0.0
 11
227.1878115989
 21
148.2713196726
 31
0.0
 11
227.1788159163
 21
148.291431449
 31
0.0
 11
227.1700928936
 21
148.3116067267
 31
0.0
 11
227.161642695
 21
148.3318401788
 31
0.0
 11
227.1534653515
 21
148.3521265015
 31
0.0
 11
227.1455607629
 21
148.3724604185
 31
0.0
 11
227.137928699
 21
148.3928366846
 31
0.0
 11
227.1305688018
 21
148.4132500894
 31
0.0
 11
227.1234805874
 21
148.4336954612
 31
0.0
 11
227.1166634482
 21
148.4541676705
 31
0.0
 11
227.1101166548
 21
148.4746616334
 31
0.0
 11
227.1038393589
 21
148.4951723149
 31
0.0
 11
227.097830595
 21
148.5156947322
 31
0.0
 11
227.0920892835
 21
148.5362239581
 31
0.0
 11
227.0866142331
 21
148.5567551234
 31
0.0
 11
227.0814041433
 21
148.5772834202
 31
0.0
 11
227.0764576076
 21
148.5978041045
 31
0.0
 11
227.0717731158
 21
148.618312499
 31
0.0
 11
227.0673490573
 21
148.6388039951
 31
0.0
 11
227.063183724
 21
148.659274056
 31
0.0
 11
227.059275313
 21
148.6797182181
 31
0.0
 11
227.0556219299
 21
148.7001320938
 31
0.0
 11
227.0522215921
 21
148.7205113729
 31
0.0
 11
227.0490722313
 21
148.7408518251
 31
0.0
 11
227.0461716972
 21
148.7611493008
 31
0.0
 11
227.0435177604
 21
148.7813997336
 31
0.0
 11
227.0411081158
 21
148.8015991411
 31
0.0
 11
227.0389403855
 21
148.8217436265
 31
0.0
 11
227.0370121222
 21
148.8418293796
 31
0.0
 11
227.0353208124
 21
148.8618526783
 31
0.0
 11
227.0338638795
 21
148.881809889
 31
0.0
 11
227.0326386869
 21
148.9016974677
 31
0.0
 11
227.0316425416
 21
148.9215119606
 31
0.0
 11
227.0308726968
 21
148.941250005
 31
0.0
 11
227.0303263555
 21
148.9609083293
 31
0.0
 11
227.0300006733
 21
148.9804837537
 31
0.0
 11
227.0298927614
 21
148.9999731903
 31
0.0
  0
LINE
  5
292
100
AcDbEntity
  8
0
100
AcDbLine
 62
7
  6
CONTINUOUS
 10
228.7898927614
 20
147.1420646586
 11
228.7898927614
 21
147.2399731903
  0
LINE
  5
293
100
AcDbEntity
  8
0
100
AcDbLine
 62
7
  6
CONTINUOUS
 10
228.7898927614
 20
147.1420646586
 11
231.0596098879
 21
146.9899731903
  0
LINE
  5
294
100
AcDbEntity
  8
0
100
AcDbLine
 62
7
  6
CONTINUOUS
 10
231.0596098879
 20
146.9899731903
 11
233.0298927614
 21
143.3699731903
  0
LINE
  5
295
100
AcDbEntity
  8
0
100
AcDbLine
 62
7
  6
CONTINUOUS
 10
233.0298927614
 20
140.7099731903
 11
233.0298927614
 21
143.3699731903
  0
LINE
  5
296
100
AcDbEntity
  8
0
100
AcDbLine
 62
7
  6
CONTINUOUS
 10
233.0298927614
 20
140.7099731903
 11
229.5949024139
 21
140.7099731903
  0
SPLINE
  5
297
100
AcDbEntity
  8
0
100
AcDbSpline
 62
7
  6
CONTINUOUS
 70
4
 71
3
 72
8
 73
4
 74
5
 42
0.0000001
 43
0.0000001
 44
0.0000000001
 12
-0.5675227179
 22
0.1576209444
 32
0.0
 13
-0.5700255453
 23
0.1483147839
 33
0.0
 40
0.0
 40
0.0
 40
0.0
 40
0.0
 40
1.0
 40
1.0
 40
1.0
 40
1.0
 10
230.1636955783
 20
140.5570002074
 30
0.0
 41
1.0
 10
229.9745171188
 20
140.6095416943
 30
0.0
 41
0.9999776921
 10
229.7849151677
 20
140.6605338262
 30
0.0
 41
0.9999776921
 10
229.5949024139
 20
140.7099731903
 30
0.0
 41
1.0
 11
230.1636955783
 21
140.5570002074
 31
0.0
 11
230.0217337146
 21
140.5961154368
 31
0.0
 11
229.8796118547
 21
140.6346499884
 31
0.0
 11
229.7373335636
 21
140.672602888
 31
0.0
 11
229.5949024139
 21
140.7099731903
 31
0.0
  0
SPLINE
  5
298
100
AcDbEntity
  8
0
100
AcDbSpline
 62
7
  6
CONTINUOUS
 70
4
 71
3
 72
8
 73
4
 74
65
 42
0.0000001
 43
0.0000001
 44
0.0000000001
 12
-0.0
 22
0.6051422834
 32
0.0
 13
-0.5830718537
 23
0.1619394843
 33
0.0
 40
0.0
 40
0.0
 40
0.0
 40
0.0
 40
1.0
 40
1.0
 40
1.0
 40
1.0
 10
230.5298927614
 20
140.0752359433
 30
0.0
 41
1.0
 10
230.5298927614
 20
140.3086801946
 30
0.0
 41
0.8640782258
 10
230.3886257741
 20
140.4945292106
 30
0.0
 41
0.8640782258
 10
230.1636955783
 20
140.5570002074
 30
0.0
 41
1.0
 11
230.5298927614
 21
140.0752359433
 31
0.0
 11
230.5298027935
 21
140.0847206559
 31
0.0
 11
230.5295306772
 21
140.0942610074
 31
0.0
 11
230.5290731981
 21
140.1038522259
 31
0.0
 11
230.5284272899
 21
140.1134893604
 31
0.0
 11
230.5275900453
 21
140.1231672857
 31
0.0
 11
230.5265587268
 21
140.1328807076
 31
0.0
 11
230.5253307767
 21
140.1426241694
 31
0.0
 11
230.523903828
 21
140.1523920584
 31
0.0
 11
230.5222757141
 21
140.1621786136
 31
0.0
 11
230.5204444785
 21
140.1719779343
 31
0.0
 11
230.5184083845
 21
140.1817839887
 31
0.0
 11
230.5161659237
 21
140.1915906237
 31
0.0
 11
230.5137158246
 21
140.2013915754
 31
0.0
 11
230.5110570608
 21
140.2111804798
 31
0.0
 11
230.5081888578
 21
140.2209508848
 31
0.0
 11
230.5051107002
 21
140.2306962617
 31
0.0
 11
230.5018223375
 21
140.2404100186
 31
0.0
 11
230.4983237894
 21
140.2500855131
 31
0.0
 11
230.49461535
 21
140.2597160658
 31
0.0
 11
230.4906975924
 21
140.2692949749
 31
0.0
 11
230.4865713704
 21
140.2788155299
 31
0.0
 11
230.4822378214
 21
140.2882710265
 31
0.0
 11
230.477698367
 21
140.2976547814
 31
0.0
 11
230.4729547134
 21
140.3069601472
 31
0.0
 11
230.4680088504
 21
140.3161805274
 31
0.0
 11
230.4628630497
 21
140.3253093914
 31
0.0
 11
230.4575198625
 21
140.3343402898
 31
0.0
 11
230.4519821156
 21
140.3432668689
 31
0.0
 11
230.4462529067
 21
140.3520828855
 31
0.0
 11
230.4403355993
 21
140.3607822212
 31
0.0
 11
230.4342338158
 21
140.3693588967
 31
0.0
 11
230.4279514307
 21
140.377807085
 31
0.0
 11
230.4214925619
 21
140.3861211251
 31
0.0
 11
230.4148615621
 21
140.3942955342
 31
0.0
 11
230.4080630087
 21
140.4023250199
 31
0.0
 11
230.4011016938
 21
140.4102044918
 31
0.0
 11
230.3939826125
 21
140.4179290718
 31
0.0
 11
230.3867109512
 21
140.4254941044
 31
0.0
 11
230.3792920755
 21
140.4328951656
 31
0.0
 11
230.371731517
 21
140.4401280714
 31
0.0
 11
230.3640349601
 21
140.4471888853
 31
0.0
 11
230.3562082281
 21
140.4540739248
 31
0.0
 11
230.3482572695
 21
140.460779767
 31
0.0
 11
230.3401881434
 21
140.4673032538
 31
0.0
 11
230.3320070052
 21
140.4736414951
 31
0.0
 11
230.3237200921
 21
140.4797918723
 31
0.0
 11
230.3153337084
 21
140.4857520401
 31
0.0
 11
230.3068542109
 21
140.4915199275
 31
0.0
 11
230.2982879945
 21
140.4970937379
 31
0.0
 11
230.2896414779
 21
140.5024719487
 31
0.0
 11
230.2809210894
 21
140.5076533095
 31
0.0
 11
230.2721332531
 21
140.5126368397
 31
0.0
 11
230.2632843757
 21
140.5174218255
 31
0.0
 11
230.2543808328
 21
140.5220078155
 31
0.0
 11
230.2454289567
 21
140.5263946166
 31
0.0
 11
230.236435024
 21
140.5305822882
 31
0.0
 11
230.2274052438
 21
140.5345711361
 31
0.0
 11
230.2183457468
 21
140.5383617063
 31
0.0
 11
230.2092625743
 21
140.5419547776
 31
0.0
 11
230.2001616685
 21
140.5453513539
 31
0.0
 11
230.1910488632
 21
140.5485526564
 31
0.0
 11
230.1819298746
 21
140.5515601147
 31
0.0
 11
230.1728102936
 21
140.5543753583
 31
0.0
 11
230.1636955783
 21
140.5570002074
 31
0.0
  0
LINE
  5
299
100
AcDbEntity
  8
0
100
AcDbLine
 62
7
  6
CONTINUOUS
 10
230.5298927614
 20
134.8423731903
 11
230.5298927614
 21
140.0752359433
  0
LINE
  5
29A
100
AcDbEntity
  8
0
100
AcDbLine
 62
7
  6
CONTINUOUS
 10
230.5298927614
 20
134.8423731903
 11
229.5798927614
 21
134.8423731903
  0
LINE
  5
29B
100
AcDbEntity
  8
0
100
AcDbLine
 62
7
  6
CONTINUOUS
 10
229.5798927614
 20
132.6199731903
 11
229.5798927614
 21
134.8423731903
  0
LINE
  5
29C
100
AcDbEntity
  8
0
100
AcDbLine
 62
7
  6
CONTINUOUS
 10
230.5298927614
 20
130.7699731903
 11
229.5798927614
 21
132.6199731903
  0
LINE
  5
29D
100
AcDbEntity
  8
0
100
AcDbLine
 62
7
  6
CONTINUOUS
 10
230.5298927614
 20
128.9199731903
 11
230.5298927614
 21
130.7699731903
  0
LINE
  5
29E
100
AcDbEntity
  8
0
100
AcDbLine
 62
7
  6
CONTINUOUS
 10
236.9298927614
 20
128.9199731903
 11
230.5298927614
 21
128.9199731903
  0
LINE
  5
29F
100
AcDbEntity
  8
0
100
AcDbLine
 62
7
  6
CONTINUOUS
 10
236.9298927614
 20
128.9199731903
 11
236.9298927614
 21
129.4749731903
  0
LINE
  5
2A0
100
AcDbEntity
  8
0
100
AcDbLine
 62
7
  6
CONTINUOUS
 10
236.9298927614
 20
129.4749731903
 11
238.4298927614
 21
129.4749731903
  0
LINE
  5
2A1
100
AcDbEntity
  8
0
100
AcDbLine
 62
7
  6
CONTINUOUS
 10
238.4298927614
 20
128.9199731903
 11
238.4298927614
 21
129.4749731903
  0
LINE
  5
2A2
100
AcDbEntity
  8
0
100
AcDbLine
 62
7
  6
CONTINUOUS
 10
241.4298927614
 20
128.9199731903
 11
238.4298927614
 21
128.9199731903
  0
LINE
  5
2A3
100
AcDbEntity
  8
0
100
AcDbLine
 62
7
  6
CONTINUOUS
 10
241.4298927614
 20
128.9199731903
 11
241.4298927614
 21
129.4749731903
  0
LINE
  5
2A4
100
AcDbEntity
  8
0
100
AcDbLine
 62
7
  6
CONTINUOUS
 10
241.4298927614
 20
129.4749731903
 11
242.9298927614
 21
129.4749731903
  0
LINE
  5
2A5
100
AcDbEntity
  8
0
100
AcDbLine
 62
7
  6
CONTINUOUS
 10
242.9298927614
 20
128.9199731903
 11
242.9298927614
 21
129.4749731903
  0
LINE
  5
2A6
100
AcDbEntity
  8
0
100
AcDbLine
 62
7
  6
CONTINUOUS
 10
245.4298927614
 20
128.9199731903
 11
242.9298927614
 21
128.9199731903
  0
SPLINE
  5
2A7
100
AcDbEntity
  8
0
100
AcDbSpline
 62
7
  6
CONTINUOUS
 70
4
 71
3
 72
8
 73
4
 74
129
 42
0.0000001
 43
0.0000001
 44
0.0000000001
 12
0.0
 22
0.7071067812
 32
0.0
 13
-0.7071067812
 23
0.0
 33
0.0
 40
0.0
 40
0.0
 40
0.0
 40
0.0
 40
1.0
 40
1.0
 40
1.0
 40
1.0
 10
245.9298927614
 20
128.4199731903
 30
0.0
 41
1.0
 10
245.9298927614
 20
128.7128664092
 30
0.0
 41
0.8047378541
 10
245.7227859802
 20
128.9199731903
 30
0.0
 41
0.8047378541
 10
245.4298927614
 20
128.9199731903
 30
0.0
 41
1.0
 11
245.9298927614
 21
128.4199731903
 31
0.0
 11
245.9298621046
 21
128.4255099621
 31
0.0
 11
245.9297695812
 21
128.4310711622
 31
0.0
 11
245.9296143706
 21
128.4366559135
 31
0.0
 11
245.9293956647
 21
128.4422633124
 31
0.0
 11
245.9291126689
 21
128.4478924297
 31
0.0
 11
245.9287646029
 21
128.45354231
 31
0.0
 11
245.9283507014
 21
128.4592119722
 31
0.0
 11
245.9278702157
 21
128.4649004093
 31
0.0
 11
245.9273224136
 21
128.4706065892
 31
0.0
 11
245.9267065812
 21
128.4763294543
 31
0.0
 11
245.926022023
 21
128.4820679224
 31
0.0
 11
245.9252680637
 21
128.4878208862
 31
0.0
 11
245.9244440484
 21
128.4935872146
 31
0.0
 11
245.9235493436
 21
128.4993657521
 31
0.0
 11
245.9225833385
 21
128.5051553201
 31
0.0
 11
245.9215454456
 21
128.5109547166
 31
0.0
 11
245.9204351016
 21
128.5167627172
 31
0.0
 11
245.9192517682
 21
128.5225780754
 31
0.0
 11
245.9179949334
 21
128.5283995231
 31
0.0
 11
245.9166641119
 21
128.5342257716
 31
0.0
 11
245.9152588461
 21
128.5400555114
 31
0.0
 11
245.9137787069
 21
128.5458874139
 31
0.0
 11
245.9122232949
 21
128.5517201313
 31
0.0
 11
245.9105922405
 21
128.5575522978
 31
0.0
 11
245.9088852053
 21
128.56338253
 31
0.0
 11
245.9071018826
 21
128.5692094281
 31
0.0
 11
245.9052419981
 21
128.5750315767
 31
0.0
 11
245.9033053108
 21
128.5808475452
 31
0.0
 11
245.9012916135
 21
128.5866558895
 31
0.0
 11
245.8992007337
 21
128.5924551522
 31
0.0
 11
245.8970325337
 21
128.5982438642
 31
0.0
 11
245.8947869119
 21
128.6040205451
 31
0.0
 11
245.892463803
 21
128.609783705
 31
0.0
 11
245.8900631784
 21
128.6155318448
 31
0.0
 11
245.8875850469
 21
128.6212634578
 31
0.0
 11
245.8850294553
 21
128.6269770306
 31
0.0
 11
245.8823964883
 21
128.6326710445
 31
0.0
 11
245.8796862694
 21
128.6383439763
 31
0.0
 11
245.876898961
 21
128.6439942998
 31
0.0
 11
245.8740347648
 21
128.6496204869
 31
0.0
 11
245.8710939218
 21
128.6552210088
 31
0.0
 11
245.8680767126
 21
128.6607943374
 31
0.0
 11
245.864983458
 21
128.6663389464
 31
0.0
 11
245.8618145183
 21
128.6718533125
 31
0.0
 11
245.8585702939
 21
128.6773359171
 31
0.0
 11
245.8552512254
 21
128.682785247
 31
0.0
 11
245.851857793
 21
128.6881997962
 31
0.0
 11
245.848390517
 21
128.693578067
 31
0.0
 11
245.8448499573
 21
128.6989185713
 31
0.0
 11
245.8412367133
 21
128.7042198318
 31
0.0
 11
245.8375514238
 21
128.7094803836
 31
0.0
 11
245.8337947664
 21
128.7146987751
 31
0.0
 11
245.8299674575
 21
128.7198735697
 31
0.0
 11
245.8260702515
 21
128.7250033467
 31
0.0
 11
245.8221039409
 21
128.7300867029
 31
0.0
 11
245.8180693552
 21
128.7351222535
 31
0.0
 11
245.8139673608
 21
128.7401086337
 31
0.0
 11
245.8097988602
 21
128.7450444996
 31
0.0
 11
245.8055647915
 21
128.7499285294
 31
0.0
 11
245.8012661275
 21
128.754759425
 31
0.0
 11
245.7969038752
 21
128.7595359126
 31
0.0
 11
245.7924790747
 21
128.7642567441
 31
0.0
 11
245.7879927989
 21
128.7689206981
 31
0.0
 11
245.783446152
 21
128.7735265809
 31
0.0
 11
245.7788402691
 21
128.7780732278
 31
0.0
 11
245.7741763152
 21
128.7825595037
 31
0.0
 11
245.7694554837
 21
128.7869843041
 31
0.0
 11
245.7646789961
 21
128.7913465565
 31
0.0
 11
245.7598481005
 21
128.7956452205
 31
0.0
 11
245.7549640706
 21
128.7998792892
 31
0.0
 11
245.7500282048
 21
128.8040477897
 31
0.0
 11
245.7450418246
 21
128.8081497841
 31
0.0
 11
245.740006274
 21
128.8121843698
 31
0.0
 11
245.7349229178
 21
128.8161506805
 31
0.0
 11
245.7297931407
 21
128.8200478865
 31
0.0
 11
245.7246183462
 21
128.8238751954
 31
0.0
 11
245.7193999546
 21
128.8276318528
 31
0.0
 11
245.7141394029
 21
128.8313171423
 31
0.0
 11
245.7088381424
 21
128.8349303863
 31
0.0
 11
245.7034976381
 21
128.838470946
 31
0.0
 11
245.6981193673
 21
128.841938222
 31
0.0
 11
245.692704818
 21
128.8453316543
 31
0.0
 11
245.6872554881
 21
128.8486507229
 31
0.0
 11
245.6817728836
 21
128.8518949472
 31
0.0
 11
245.6762585174
 21
128.8550638869
 31
0.0
 11
245.6707139085
 21
128.8581571416
 31
0.0
 11
245.6651405799
 21
128.8611743507
 31
0.0
 11
245.6595400579
 21
128.8641151938
 31
0.0
 11
245.6539138708
 21
128.86697939
 31
0.0
 11
245.6482635473
 21
128.8697666984
 31
0.0
 11
245.6425906155
 21
128.8724769172
 31
0.0
 11
245.6368966017
 21
128.8751098842
 31
0.0
 11
245.6311830288
 21
128.8776654759
 31
0.0
 11
245.6254514158
 21
128.8801436073
 31
0.0
 11
245.619703276
 21
128.882544232
 31
0.0
 11
245.6139401162
 21
128.8848673409
 31
0.0
 11
245.6081634352
 21
128.8871129626
 31
0.0
 11
245.6023747232
 21
128.8892811626
 31
0.0
 11
245.5965754605
 21
128.8913720425
 31
0.0
 11
245.5907671163
 21
128.8933857398
 31
0.0
 11
245.5849511477
 21
128.8953224271
 31
0.0
 11
245.5791289992
 21
128.8971823115
 31
0.0
 11
245.573302101
 21
128.8989656342
 31
0.0
 11
245.5674718688
 21
128.9006726694
 31
0.0
 11
245.5616397024
 21
128.9023037238
 31
0.0
 11
245.555806985
 21
128.9038591359
 31
0.0
 11
245.5499750825
 21
128.905339275
 31
0.0
 11
245.5441453426
 21
128.9067445409
 31
0.0
 11
245.5383190942
 21
128.9080753624
 31
0.0
 11
245.5324976464
 21
128.9093321972
 31
0.0
 11
245.5266822882
 21
128.9105155305
 31
0.0
 11
245.5208742876
 21
128.9116258746
 31
0.0
 11
245.5150748911
 21
128.9126637675
 31
0.0
 11
245.5092853232
 21
128.9136297725
 31
0.0
 11
245.5035067856
 21
128.9145244773
 31
0.0
 11
245.4977404573
 21
128.9153484927
 31
0.0
 11
245.4919874934
 21
128.916102452
 31
0.0
 11
245.4862490254
 21
128.9167870101
 31
0.0
 11
245.4805261602
 21
128.9174028426
 31
0.0
 11
245.4748199803
 21
128.9179506447
 31
0.0
 11
245.4691315432
 21
128.9184311304
 31
0.0
 11
245.4634618811
 21
128.9188450318
 31
0.0
 11
245.4578120008
 21
128.9191930979
 31
0.0
 11
245.4521828835
 21
128.9194760937
 31
0.0
 11
245.4465754845
 21
128.9196947996
 31
0.0
 11
245.4409907333
 21
128.9198500102
 31
0.0
 11
245.4354295332
 21
128.9199425336
 31
0.0
 11
245.4298927614
 21
128.9199731903
 31
0.0
  0
LINE
  5
2A8
100
AcDbEntity
  8
0
100
AcDbLine
 62
7
  6
CONTINUOUS
 10
245.9298927614
 20
124.3699731903
 11
245.9298927614
 21
128.4199731903
  0
SPLINE
  5
2A9
100
AcDbEntity
  8
0
100
AcDbSpline
 62
7
  6
CONTINUOUS
 70
4
 71
3
 72
8
 73
4
 74
129
 42
0.0000001
 43
0.0000001
 44
0.0000000001
 12
1.4142135624
 22
0.0
 32
0.0
 13
-0.0
 23
1.4142135624
 33
0.0
 40
0.0
 40
0.0
 40
0.0
 40
0.0
 40
1.0
 40
1.0
 40
1.0
 40
1.0
 10
244.9298927614
 20
123.3699731903
 30
0.0
 41
1.0
 10
245.515679199
 20
123.3699731903
 30
0.0
 41
0.8047378541
 10
245.9298927614
 20
123.7841867527
 30
0.0
 41
0.8047378541
 10
245.9298927614
 20
124.3699731903
 30
0.0
 41
1.0
 11
244.9298927614
 21
123.3699731903
 31
0.0
 11
244.9409663049
 21
123.3700345039
 31
0.0
 11
244.9520887052
 21
123.3702195507
 31
0.0
 11
244.9632582076
 21
123.3705299718
 31
0.0
 11
244.9744730055
 21
123.3709673836
 31
0.0
 11
244.9857312402
 21
123.3715333753
 31
0.0
 11
244.9970310008
 21
123.3722295074
 31
0.0
 11
245.008370325
 21
123.3730573102
 31
0.0
 11
245.0197471993
 21
123.3740182817
 31
0.0
 11
245.0311595591
 21
123.3751138859
 31
0.0
 11
245.0426052894
 21
123.3763455508
 31
0.0
 11
245.0540822254
 21
123.3777146671
 31
0.0
 11
245.0655881532
 21
123.3792225857
 31
0.0
 11
245.0771208098
 21
123.3808706164
 31
0.0
 11
245.0886778849
 21
123.382660026
 31
0.0
 11
245.1002570208
 21
123.3845920361
 31
0.0
 11
245.1118558138
 21
123.3866678219
 31
0.0
 11
245.123471815
 21
123.38888851
 31
0.0
 11
245.1351025314
 21
123.3912551767
 31
0.0
 11
245.1467454269
 21
123.3937688462
 31
0.0
 11
245.1583979238
 21
123.3964304893
 31
0.0
 11
245.1700574035
 21
123.399241021
 31
0.0
 11
245.1817212085
 21
123.4022012992
 31
0.0
 11
245.1933866434
 21
123.4053121234
 31
0.0
 11
245.2050509762
 21
123.4085742322
 31
0.0
 11
245.2167114407
 21
123.4119883026
 31
0.0
 11
245.2283652369
 21
123.415554948
 31
0.0
 11
245.240009534
 21
123.4192747169
 31
0.0
 11
245.2516414711
 21
123.4231480915
 31
0.0
 11
245.2632581596
 21
123.427175486
 31
0.0
 11
245.2748566851
 21
123.4313572458
 31
0.0
 11
245.286434109
 21
123.4356936458
 31
0.0
 11
245.297987471
 21
123.4401848893
 31
0.0
 11
245.3095137907
 21
123.4448311071
 31
0.0
 11
245.3210100703
 21
123.4496323564
 31
0.0
 11
245.3324732962
 21
123.4545886193
 31
0.0
 11
245.3439004419
 21
123.4596998026
 31
0.0
 11
245.3552884697
 21
123.4649657366
 31
0.0
 11
245.3666343333
 21
123.4703861743
 31
0.0
 11
245.3779349803
 21
123.475960791
 31
0.0
 11
245.3891873544
 21
123.4816891835
 31
0.0
 11
245.4003883983
 21
123.4875708696
 31
0.0
 11
245.4115350555
 21
123.4936052879
 31
0.0
 11
245.4226242734
 21
123.4997917972
 31
0.0
 11
245.4336530057
 21
123.5061296766
 31
0.0
 11
245.4446182148
 21
123.5126181253
 31
0.0
 11
245.4555168747
 21
123.5192562624
 31
0.0
 11
245.4663459731
 21
123.5260431271
 31
0.0
 11
245.4771025148
 21
123.5329776791
 31
0.0
 11
245.4877835233
 21
123.5400587985
 31
0.0
 11
245.4983860443
 21
123.5472852864
 31
0.0
 11
245.5089071479
 21
123.5546558655
 31
0.0
 11
245.5193439309
 21
123.5621691802
 31
0.0
 11
245.5296935201
 21
123.5698237981
 31
0.0
 11
245.5399530742
 21
123.5776182101
 31
0.0
 11
245.5501197865
 21
123.5855508314
 31
0.0
 11
245.5601908878
 21
123.5936200028
 31
0.0
 11
245.5701636481
 21
123.6018239916
 31
0.0
 11
245.5800353798
 21
123.6101609927
 31
0.0
 11
245.5898034396
 21
123.6186291301
 31
0.0
 11
245.5994652308
 21
123.6272264581
 31
0.0
 11
245.609018206
 21
123.6359509628
 31
0.0
 11
245.618459869
 21
123.6448005637
 31
0.0
 11
245.6277877769
 21
123.6537731154
 31
0.0
 11
245.6369995426
 21
123.6628664092
 31
0.0
 11
245.6460928363
 21
123.6720781748
 31
0.0
 11
245.655065388
 21
123.6814060828
 31
0.0
 11
245.6639149889
 21
123.6908477457
 31
0.0
 11
245.6726394936
 21
123.700400721
 31
0.0
 11
245.6812368216
 21
123.7100625122
 31
0.0
 11
245.689704959
 21
123.7198305719
 31
0.0
 11
245.6980419602
 21
123.7297023036
 31
0.0
 11
245.706245949
 21
123.7396750639
 31
0.0
 11
245.7143151204
 21
123.7497461652
 31
0.0
 11
245.7222477417
 21
123.7599128776
 31
0.0
 11
245.7300421536
 21
123.7701724316
 31
0.0
 11
245.7376967715
 21
123.7805220208
 31
0.0
 11
245.7452100863
 21
123.7909588039
 31
0.0
 11
245.7525806653
 21
123.8014799074
 31
0.0
 11
245.7598071532
 21
123.8120824284
 31
0.0
 11
245.7668882726
 21
123.822763437
 31
0.0
 11
245.7738228246
 21
123.8335199786
 31
0.0
 11
245.7806096894
 21
123.8443490771
 31
0.0
 11
245.7872478265
 21
123.8552477369
 31
0.0
 11
245.7937362751
 21
123.866212946
 31
0.0
 11
245.8000741546
 21
123.8772416783
 31
0.0
 11
245.8062606639
 21
123.8883308962
 31
0.0
 11
245.8122950821
 21
123.8994775534
 31
0.0
 11
245.8181767682
 21
123.9106785973
 31
0.0
 11
245.8239051607
 21
123.9219309715
 31
0.0
 11
245.8294797774
 21
123.9332316185
 31
0.0
 11
245.8349002152
 21
123.9445774821
 31
0.0
 11
245.8401661492
 21
123.9559655098
 31
0.0
 11
245.8452773325
 21
123.9673926555
 31
0.0
 11
245.8502335954
 21
123.9788558815
 31
0.0
 11
245.8550348446
 21
123.990352161
 31
0.0
 11
245.8596810625
 21
124.0018784808
 31
0.0
 11
245.864172306
 21
124.0134318427
 31
0.0
 11
245.8685087059
 21
124.0250092666
 31
0.0
 11
245.8726904657
 21
124.0366077921
 31
0.0
 11
245.8767178602
 21
124.0482244806
 31
0.0
 11
245.8805912348
 21
124.0598564177
 31
0.0
 11
245.8843110037
 21
124.0715007148
 31
0.0
 11
245.8878776492
 21
124.0831545111
 31
0.0
 11
245.8912917196
 21
124.0948149755
 31
0.0
 11
245.8945538284
 21
124.1064793084
 31
0.0
 11
245.8976646525
 21
124.1181447432
 31
0.0
 11
245.9006249308
 21
124.1298085482
 31
0.0
 11
245.9034354624
 21
124.1414680279
 31
0.0
 11
245.9060971055
 21
124.1531205248
 31
0.0
 11
245.9086107751
 21
124.1647634203
 31
0.0
 11
245.9109774417
 21
124.1763941367
 31
0.0
 11
245.9131981298
 21
124.1880101379
 31
0.0
 11
245.9152739156
 21
124.1996089309
 31
0.0
 11
245.9172059258
 21
124.2111880668
 31
0.0
 11
245.9189953353
 21
124.2227451419
 31
0.0
 11
245.9206433661
 21
124.2342777986
 31
0.0
 11
245.9221512847
 21
124.2457837263
 31
0.0
 11
245.9235204009
 21
124.2572606624
 31
0.0
 11
245.9247520659
 21
124.2687063927
 31
0.0
 11
245.92584767
 21
124.2801187524
 31
0.0
 11
245.9268086415
 21
124.2914956267
 31
0.0
 11
245.9276364443
 21
124.302834951
 31
0.0
 11
245.9283325764
 21
124.3141347116
 31
0.0
 11
245.9288985681
 21
124.3253929462
 31
0.0
 11
245.9293359799
 21
124.3366077441
 31
0.0
 11
245.9296464011
 21
124.3477772466
 31
0.0
 11
245.9298314478
 21
124.3588996468
 31
0.0
 11
245.9298927614
 21
124.3699731903
 31
0.0
  0
LINE
  5
2AA
100
AcDbEntity
  8
0
100
AcDbLine
 62
7
  6
CONTINUOUS
 10
244.9298927614
 20
123.3699731903
 11
204.0298927614
 21
123.3699731903
  0
SPLINE
  5
2AB
100
AcDbEntity
  8
0
100
AcDbSpline
 62
7
  6
CONTINUOUS
 70
4
 71
3
 72
8
 73
4
 74
129
 42
0.0000001
 43
0.0000001
 44
0.0000000001
 12
0.0
 22
-1.4142135624
 32
0.0
 13
1.4142135624
 23
-0.0
 33
0.0
 40
0.0
 40
0.0
 40
0.0
 40
0.0
 40
1.0
 40
1.0
 40
1.0
 40
1.0
 10
203.0298927614
 20
124.3699731903
 30
0.0
 41
1.0
 10
203.0298927614
 20
123.7841867527
 30
0.0
 41
0.8047378541
 10
203.4441063238
 20
123.3699731903
 30
0.0
 41
0.8047378541
 10
204.0298927614
 20
123.3699731903
 30
0.0
 41
1.0
 11
203.0298927614
 21
124.3699731903
 31
0.0
 11
203.029954075
 21
124.3588996468
 31
0.0
 11
203.0301391217
 21
124.3477772466
 31
0.0
 11
203.0304495429
 21
124.3366077441
 31
0.0
 11
203.0308869547
 21
124.3253929462
 31
0.0
 11
203.0314529463
 21
124.3141347116
 31
0.0
 11
203.0321490785
 21
124.302834951
 31
0.0
 11
203.0329768813
 21
124.2914956267
 31
0.0
 11
203.0339378528
 21
124.2801187524
 31
0.0
 11
203.0350334569
 21
124.2687063927
 31
0.0
 11
203.0362651219
 21
124.2572606624
 31
0.0
 11
203.0376342381
 21
124.2457837263
 31
0.0
 11
203.0391421567
 21
124.2342777986
 31
0.0
 11
203.0407901875
 21
124.2227451419
 31
0.0
 11
203.042579597
 21
124.2111880668
 31
0.0
 11
203.0445116072
 21
124.1996089309
 31
0.0
 11
203.046587393
 21
124.1880101379
 31
0.0
 11
203.0488080811
 21
124.1763941367
 31
0.0
 11
203.0511747477
 21
124.1647634203
 31
0.0
 11
203.0536884173
 21
124.1531205248
 31
0.0
 11
203.0563500604
 21
124.1414680279
 31
0.0
 11
203.059160592
 21
124.1298085482
 31
0.0
 11
203.0621208703
 21
124.1181447432
 31
0.0
 11
203.0652316944
 21
124.1064793084
 31
0.0
 11
203.0684938032
 21
124.0948149755
 31
0.0
 11
203.0719078736
 21
124.0831545111
 31
0.0
 11
203.075474519
 21
124.0715007148
 31
0.0
 11
203.079194288
 21
124.0598564177
 31
0.0
 11
203.0830676626
 21
124.0482244806
 31
0.0
 11
203.0870950571
 21
124.0366077921
 31
0.0
 11
203.0912768169
 21
124.0250092666
 31
0.0
 11
203.0956132168
 21
124.0134318427
 31
0.0
 11
203.1001044603
 21
124.0018784808
 31
0.0
 11
203.1047506782
 21
123.990352161
 31
0.0
 11
203.1095519274
 21
123.9788558815
 31
0.0
 11
203.1145081903
 21
123.9673926555
 31
0.0
 11
203.1196193736
 21
123.9559655098
 31
0.0
 11
203.1248853076
 21
123.9445774821
 31
0.0
 11
203.1303057454
 21
123.9332316185
 31
0.0
 11
203.1358803621
 21
123.9219309715
 31
0.0
 11
203.1416087546
 21
123.9106785973
 31
0.0
 11
203.1474904407
 21
123.8994775534
 31
0.0
 11
203.1535248589
 21
123.8883308962
 31
0.0
 11
203.1597113682
 21
123.8772416783
 31
0.0
 11
203.1660492476
 21
123.866212946
 31
0.0
 11
203.1725376963
 21
123.8552477369
 31
0.0
 11
203.1791758334
 21
123.8443490771
 31
0.0
 11
203.1859626982
 21
123.8335199786
 31
0.0
 11
203.1928972502
 21
123.822763437
 31
0.0
 11
203.1999783696
 21
123.8120824284
 31
0.0
 11
203.2072048575
 21
123.8014799074
 31
0.0
 11
203.2145754365
 21
123.7909588039
 31
0.0
 11
203.2220887513
 21
123.7805220208
 31
0.0
 11
203.2297433692
 21
123.7701724316
 31
0.0
 11
203.2375377811
 21
123.7599128776
 31
0.0
 11
203.2454704024
 21
123.7497461652
 31
0.0
 11
203.2535395738
 21
123.7396750639
 31
0.0
 11
203.2617435626
 21
123.7297023036
 31
0.0
 11
203.2700805638
 21
123.7198305719
 31
0.0
 11
203.2785487012
 21
123.7100625122
 31
0.0
 11
203.2871460292
 21
123.700400721
 31
0.0
 11
203.2958705339
 21
123.6908477457
 31
0.0
 11
203.3047201348
 21
123.6814060828
 31
0.0
 11
203.3136926865
 21
123.6720781748
 31
0.0
 11
203.3227859802
 21
123.6628664092
 31
0.0
 11
203.3319977459
 21
123.6537731154
 31
0.0
 11
203.3413256538
 21
123.6448005637
 31
0.0
 11
203.3507673168
 21
123.6359509628
 31
0.0
 11
203.360320292
 21
123.6272264581
 31
0.0
 11
203.3699820832
 21
123.6186291301
 31
0.0
 11
203.379750143
 21
123.6101609927
 31
0.0
 11
203.3896218746
 21
123.6018239916
 31
0.0
 11
203.399594635
 21
123.5936200028
 31
0.0
 11
203.4096657363
 21
123.5855508314
 31
0.0
 11
203.4198324486
 21
123.5776182101
 31
0.0
 11
203.4300920027
 21
123.5698237981
 31
0.0
 11
203.4404415919
 21
123.5621691802
 31
0.0
 11
203.4508783749
 21
123.5546558655
 31
0.0
 11
203.4613994784
 21
123.5472852864
 31
0.0
 11
203.4720019995
 21
123.5400587985
 31
0.0
 11
203.482683008
 21
123.5329776791
 31
0.0
 11
203.4934395496
 21
123.5260431271
 31
0.0
 11
203.5042686481
 21
123.5192562624
 31
0.0
 11
203.515167308
 21
123.5126181253
 31
0.0
 11
203.5261325171
 21
123.5061296766
 31
0.0
 11
203.5371612494
 21
123.4997917972
 31
0.0
 11
203.5482504673
 21
123.4936052879
 31
0.0
 11
203.5593971245
 21
123.4875708696
 31
0.0
 11
203.5705981683
 21
123.4816891835
 31
0.0
 11
203.5818505425
 21
123.475960791
 31
0.0
 11
203.5931511895
 21
123.4703861743
 31
0.0
 11
203.6044970531
 21
123.4649657366
 31
0.0
 11
203.6158850809
 21
123.4596998026
 31
0.0
 11
203.6273122265
 21
123.4545886193
 31
0.0
 11
203.6387754525
 21
123.4496323564
 31
0.0
 11
203.6502717321
 21
123.4448311071
 31
0.0
 11
203.6617980518
 21
123.4401848893
 31
0.0
 11
203.6733514138
 21
123.4356936458
 31
0.0
 11
203.6849288377
 21
123.4313572458
 31
0.0
 11
203.6965273631
 21
123.427175486
 31
0.0
 11
203.7081440517
 21
123.4231480915
 31
0.0
 11
203.7197759888
 21
123.4192747169
 31
0.0
 11
203.7314202858
 21
123.415554948
 31
0.0
 11
203.7430740821
 21
123.4119883026
 31
0.0
 11
203.7547345465
 21
123.4085742322
 31
0.0
 11
203.7663988794
 21
123.4053121234
 31
0.0
 11
203.7780643142
 21
123.4022012992
 31
0.0
 11
203.7897281192
 21
123.399241021
 31
0.0
 11
203.801387599
 21
123.3964304893
 31
0.0
 11
203.8130400958
 21
123.3937688462
 31
0.0
 11
203.8246829914
 21
123.3912551767
 31
0.0
 11
203.8363137078
 21
123.38888851
 31
0.0
 11
203.847929709
 21
123.3866678219
 31
0.0
 11
203.859528502
 21
123.3845920361
 31
0.0
 11
203.8711076379
 21
123.382660026
 31
0.0
 11
203.8826647129
 21
123.3808706164
 31
0.0
 11
203.8941973696
 21
123.3792225857
 31
0.0
 11
203.9057032973
 21
123.3777146671
 31
0.0
 11
203.9171802334
 21
123.3763455508
 31
0.0
 11
203.9286259637
 21
123.3751138859
 31
0.0
 11
203.9400383235
 21
123.3740182817
 31
0.0
 11
203.9514151978
 21
123.3730573102
 31
0.0
 11
203.962754522
 21
123.3722295074
 31
0.0
 11
203.9740542826
 21
123.3715333753
 31
0.0
 11
203.9853125172
 21
123.3709673836
 31
0.0
 11
203.9965273152
 21
123.3705299718
 31
0.0
 11
204.0076968176
 21
123.3702195507
 31
0.0
 11
204.0188192179
 21
123.3700345039
 31
0.0
 11
204.0298927614
 21
123.3699731903
 31
0.0
  0
LINE
  5
2AC
100
AcDbEntity
  8
0
100
AcDbLine
 62
7
  6
CONTINUOUS
 10
203.0298927614
 20
124.3699731903
 11
203.0298927614
 21
128.4199731903
  0
SPLINE
  5
2AD
100
AcDbEntity
  8
0
100
AcDbSpline
 62
7
  6
CONTINUOUS
 70
4
 71
3
 72
8
 73
4
 74
129
 42
0.0000001
 43
0.0000001
 44
0.0000000001
 12
-0.7071067812
 22
0.0
 32
0.0
 13
-0.0
 23
-0.7071067812
 33
0.0
 40
0.0
 40
0.0
 40
0.0
 40
0.0
 40
1.0
 40
1.0
 40
1.0
 40
1.0
 10
203.5298927614
 20
128.9199731903
 30
0.0
 41
1.0
 10
203.2369995426
 20
128.9199731903
 30
0.0
 41
0.8047378541
 10
203.0298927614
 20
128.7128664092
 30
0.0
 41
0.8047378541
 10
203.0298927614
 20
128.4199731903
 30
0.0
 41
1.0
 11
203.5298927614
 21
128.9199731903
 31
0.0
 11
203.5243559896
 21
128.9199425336
 31
0.0
 11
203.5187947895
 21
128.9198500102
 31
0.0
 11
203.5132100383
 21
128.9196947996
 31
0.0
 11
203.5076026393
 21
128.9194760937
 31
0.0
 11
203.501973522
 21
128.9191930979
 31
0.0
 11
203.4963236417
 21
128.9188450318
 31
0.0
 11
203.4906539796
 21
128.9184311304
 31
0.0
 11
203.4849655424
 21
128.9179506447
 31
0.0
 11
203.4792593626
 21
128.9174028426
 31
0.0
 11
203.4735364974
 21
128.9167870101
 31
0.0
 11
203.4677980294
 21
128.916102452
 31
0.0
 11
203.4620450655
 21
128.9153484927
 31
0.0
 11
203.4562787372
 21
128.9145244773
 31
0.0
 11
203.4505001996
 21
128.9136297725
 31
0.0
 11
203.4447106317
 21
128.9126637675
 31
0.0
 11
203.4389112352
 21
128.9116258746
 31
0.0
 11
203.4331032346
 21
128.9105155305
 31
0.0
 11
203.4272878764
 21
128.9093321972
 31
0.0
 11
203.4214664286
 21
128.9080753624
 31
0.0
 11
203.4156401802
 21
128.9067445409
 31
0.0
 11
203.4098104403
 21
128.905339275
 31
0.0
 11
203.4039785378
 21
128.9038591359
 31
0.0
 11
203.3981458204
 21
128.9023037238
 31
0.0
 11
203.392313654
 21
128.9006726694
 31
0.0
 11
203.3864834218
 21
128.8989656342
 31
0.0
 11
203.3806565236
 21
128.8971823115
 31
0.0
 11
203.3748343751
 21
128.8953224271
 31
0.0
 11
203.3690184065
 21
128.8933857398
 31
0.0
 11
203.3632100623
 21
128.8913720425
 31
0.0
 11
203.3574107995
 21
128.8892811626
 31
0.0
 11
203.3516220876
 21
128.8871129626
 31
0.0
 11
203.3458454066
 21
128.8848673409
 31
0.0
 11
203.3400822467
 21
128.882544232
 31
0.0
 11
203.334334107
 21
128.8801436073
 31
0.0
 11
203.328602494
 21
128.8776654759
 31
0.0
 11
203.3228889211
 21
128.8751098842
 31
0.0
 11
203.3171949073
 21
128.8724769172
 31
0.0
 11
203.3115219755
 21
128.8697666984
 31
0.0
 11
203.305871652
 21
128.86697939
 31
0.0
 11
203.3002454649
 21
128.8641151938
 31
0.0
 11
203.2946449429
 21
128.8611743507
 31
0.0
 11
203.2890716143
 21
128.8581571416
 31
0.0
 11
203.2835270054
 21
128.8550638869
 31
0.0
 11
203.2780126392
 21
128.8518949472
 31
0.0
 11
203.2725300347
 21
128.8486507229
 31
0.0
 11
203.2670807048
 21
128.8453316543
 31
0.0
 11
203.2616661555
 21
128.841938222
 31
0.0
 11
203.2562878847
 21
128.838470946
 31
0.0
 11
203.2509473804
 21
128.8349303863
 31
0.0
 11
203.2456461199
 21
128.8313171423
 31
0.0
 11
203.2403855682
 21
128.8276318528
 31
0.0
 11
203.2351671766
 21
128.8238751954
 31
0.0
 11
203.229992382
 21
128.8200478865
 31
0.0
 11
203.224862605
 21
128.8161506805
 31
0.0
 11
203.2197792488
 21
128.8121843698
 31
0.0
 11
203.2147436982
 21
128.8081497841
 31
0.0
 11
203.209757318
 21
128.8040477897
 31
0.0
 11
203.2048214522
 21
128.7998792892
 31
0.0
 11
203.1999374223
 21
128.7956452205
 31
0.0
 11
203.1951065267
 21
128.7913465565
 31
0.0
 11
203.1903300391
 21
128.7869843041
 31
0.0
 11
203.1856092076
 21
128.7825595037
 31
0.0
 11
203.1809452536
 21
128.7780732278
 31
0.0
 11
203.1763393708
 21
128.7735265809
 31
0.0
 11
203.1717927239
 21
128.7689206981
 31
0.0
 11
203.1673064481
 21
128.7642567441
 31
0.0
 11
203.1628816476
 21
128.7595359126
 31
0.0
 11
203.1585193953
 21
128.754759425
 31
0.0
 11
203.1542207313
 21
128.7499285294
 31
0.0
 11
203.1499866626
 21
128.7450444996
 31
0.0
 11
203.145818162
 21
128.7401086337
 31
0.0
 11
203.1417161676
 21
128.7351222535
 31
0.0
 11
203.1376815819
 21
128.7300867029
 31
0.0
 11
203.1337152713
 21
128.7250033467
 31
0.0
 11
203.1298180653
 21
128.7198735697
 31
0.0
 11
203.1259907563
 21
128.7146987751
 31
0.0
 11
203.122234099
 21
128.7094803836
 31
0.0
 11
203.1185488094
 21
128.7042198318
 31
0.0
 11
203.1149355655
 21
128.6989185713
 31
0.0
 11
203.1113950058
 21
128.693578067
 31
0.0
 11
203.1079277298
 21
128.6881997962
 31
0.0
 11
203.1045342974
 21
128.682785247
 31
0.0
 11
203.1012152289
 21
128.6773359171
 31
0.0
 11
203.0979710045
 21
128.6718533125
 31
0.0
 11
203.0948020648
 21
128.6663389464
 31
0.0
 11
203.0917088101
 21
128.6607943374
 31
0.0
 11
203.088691601
 21
128.6552210088
 31
0.0
 11
203.085750758
 21
128.6496204869
 31
0.0
 11
203.0828865617
 21
128.6439942998
 31
0.0
 11
203.0800992534
 21
128.6383439763
 31
0.0
 11
203.0773890345
 21
128.6326710445
 31
0.0
 11
203.0747560675
 21
128.6269770306
 31
0.0
 11
203.0722004759
 21
128.6212634578
 31
0.0
 11
203.0697223444
 21
128.6155318448
 31
0.0
 11
203.0673217198
 21
128.609783705
 31
0.0
 11
203.0649986109
 21
128.6040205451
 31
0.0
 11
203.0627529891
 21
128.5982438642
 31
0.0
 11
203.0605847891
 21
128.5924551522
 31
0.0
 11
203.0584939092
 21
128.5866558895
 31
0.0
 11
203.056480212
 21
128.5808475452
 31
0.0
 11
203.0545435247
 21
128.5750315767
 31
0.0
 11
203.0526836402
 21
128.5692094281
 31
0.0
 11
203.0509003175
 21
128.56338253
 31
0.0
 11
203.0491932823
 21
128.5575522978
 31
0.0
 11
203.0475622279
 21
128.5517201313
 31
0.0
 11
203.0460068158
 21
128.5458874139
 31
0.0
 11
203.0445266767
 21
128.5400555114
 31
0.0
 11
203.0431214109
 21
128.5342257716
 31
0.0
 11
203.0417905893
 21
128.5283995231
 31
0.0
 11
203.0405337546
 21
128.5225780754
 31
0.0
 11
203.0393504212
 21
128.5167627172
 31
0.0
 11
203.0382400772
 21
128.5109547166
 31
0.0
 11
203.0372021843
 21
128.5051553201
 31
0.0
 11
203.0362361792
 21
128.4993657521
 31
0.0
 11
203.0353414744
 21
128.4935872146
 31
0.0
 11
203.0345174591
 21
128.4878208862
 31
0.0
 11
203.0337634998
 21
128.4820679224
 31
0.0
 11
203.0330789416
 21
128.4763294543
 31
0.0
 11
203.0324631092
 21
128.4706065892
 31
0.0
 11
203.0319153071
 21
128.4649004093
 31
0.0
 11
203.0314348213
 21
128.4592119722
 31
0.0
 11
203.0310209199
 21
128.45354231
 31
0.0
 11
203.0306728539
 21
128.4478924297
 31
0.0
 11
203.030389858
 21
128.4422633124
 31
0.0
 11
203.0301711521
 21
128.4366559135
 31
0.0
 11
203.0300159415
 21
128.4310711622
 31
0.0
 11
203.0299234182
 21
128.4255099621
 31
0.0
 11
203.0298927614
 21
128.4199731903
 31
0.0
  0
LINE
  5
2AE
100
AcDbEntity
  8
0
100
AcDbLine
 62
7
  6
CONTINUOUS
 10
210.5298927614
 20
128.9199731903
 11
203.5298927614
 21
128.9199731903
  0
LINE
  5
2AF
100
AcDbEntity
  8
0
100
AcDbLine
 62
7
  6
CONTINUOUS
 10
210.5298927614
 20
128.9199731903
 11
210.5298927614
 21
130.7699731903
  0
LINE
  5
2B0
100
AcDbEntity
  8
0
100
AcDbLine
 62
7
  6
CONTINUOUS
 10
211.4798927614
 20
132.6199731903
 11
210.5298927614
 21
130.7699731903
  0
LINE
  5
2B1
100
AcDbEntity
  8
0
100
AcDbLine
 62
7
  6
CONTINUOUS
 10
211.4798927614
 20
132.6199731903
 11
211.4798927614
 21
134.8423731903
  0
LINE
  5
2B2
100
AcDbEntity
  8
0
100
AcDbLine
 62
7
  6
CONTINUOUS
 10
211.4798927614
 20
134.8423731903
 11
210.5298927614
 21
134.8423731903
  0
LINE
  5
2B3
100
AcDbEntity
  8
0
100
AcDbLine
 62
7
  6
CONTINUOUS
 10
210.5298927614
 20
134.8423731903
 11
210.5298927614
 21
140.0752359433
  0
SPLINE
  5
2B4
100
AcDbEntity
  8
0
100
AcDbSpline
 62
7
  6
CONTINUOUS
 70
4
 71
3
 72
8
 73
4
 74
65
 42
0.0000001
 43
0.0000001
 44
0.0000000001
 12
-0.5830718537
 22
-0.1619394843
 32
0.0
 13
0.0
 23
-0.6051422834
 33
0.0
 40
0.0
 40
0.0
 40
0.0
 40
0.0
 40
1.0
 40
1.0
 40
1.0
 40
1.0
 10
210.8960899445
 20
140.5570002074
 30
0.0
 41
1.0
 10
210.6711597486
 20
140.4945292106
 30
0.0
 41
0.8640782258
 10
210.5298927614
 20
140.3086801946
 30
0.0
 41
0.8640782258
 10
210.5298927614
 20
140.0752359433
 30
0.0
 41
1.0
 11
210.8960899445
 21
140.5570002074
 31
0.0
 11
210.8869752292
 21
140.5543753583
 31
0.0
 11
210.8778556482
 21
140.5515601147
 31
0.0
 11
210.8687366596
 21
140.5485526564
 31
0.0
 11
210.8596238543
 21
140.5453513539
 31
0.0
 11
210.8505229485
 21
140.5419547776
 31
0.0
 11
210.841439776
 21
140.5383617063
 31
0.0
 11
210.832380279
 21
140.5345711361
 31
0.0
 11
210.8233504988
 21
140.5305822882
 31
0.0
 11
210.8143565661
 21
140.5263946166
 31
0.0
 11
210.80540469
 21
140.5220078155
 31
0.0
 11
210.7965011471
 21
140.5174218255
 31
0.0
 11
210.7876522697
 21
140.5126368397
 31
0.0
 11
210.7788644334
 21
140.5076533095
 31
0.0
 11
210.7701440449
 21
140.5024719487
 31
0.0
 11
210.7614975283
 21
140.4970937379
 31
0.0
 11
210.7529313119
 21
140.4915199275
 31
0.0
 11
210.7444518143
 21
140.4857520401
 31
0.0
 11
210.7360654306
 21
140.4797918723
 31
0.0
 11
210.7277785176
 21
140.4736414951
 31
0.0
 11
210.7195973794
 21
140.4673032538
 31
0.0
 11
210.7115282533
 21
140.460779767
 31
0.0
 11
210.7035772947
 21
140.4540739248
 31
0.0
 11
210.6957505627
 21
140.4471888853
 31
0.0
 11
210.6880540058
 21
140.4401280714
 31
0.0
 11
210.6804934473
 21
140.4328951656
 31
0.0
 11
210.6730745716
 21
140.4254941044
 31
0.0
 11
210.6658029103
 21
140.4179290718
 31
0.0
 11
210.658683829
 21
140.4102044918
 31
0.0
 11
210.6517225141
 21
140.4023250199
 31
0.0
 11
210.6449239607
 21
140.3942955342
 31
0.0
 11
210.6382929609
 21
140.3861211251
 31
0.0
 11
210.6318340921
 21
140.377807085
 31
0.0
 11
210.6255517069
 21
140.3693588967
 31
0.0
 11
210.6194499235
 21
140.3607822212
 31
0.0
 11
210.6135326161
 21
140.3520828855
 31
0.0
 11
210.6078034072
 21
140.3432668689
 31
0.0
 11
210.6022656603
 21
140.3343402898
 31
0.0
 11
210.5969224731
 21
140.3253093914
 31
0.0
 11
210.5917766724
 21
140.3161805274
 31
0.0
 11
210.5868308094
 21
140.3069601472
 31
0.0
 11
210.5820871557
 21
140.2976547814
 31
0.0
 11
210.5775477014
 21
140.2882710265
 31
0.0
 11
210.5732141524
 21
140.2788155299
 31
0.0
 11
210.5690879304
 21
140.2692949749
 31
0.0
 11
210.5651701727
 21
140.2597160658
 31
0.0
 11
210.5614617334
 21
140.2500855131
 31
0.0
 11
210.5579631853
 21
140.2404100186
 31
0.0
 11
210.5546748226
 21
140.2306962617
 31
0.0
 11
210.551596665
 21
140.2209508848
 31
0.0
 11
210.548728462
 21
140.2111804798
 31
0.0
 11
210.5460696982
 21
140.2013915754
 31
0.0
 11
210.5436195991
 21
140.1915906237
 31
0.0
 11
210.5413771383
 21
140.1817839887
 31
0.0
 11
210.5393410443
 21
140.1719779343
 31
0.0
 11
210.5375098087
 21
140.1621786136
 31
0.0
 11
210.5358816948
 21
140.1523920584
 31
0.0
 11
210.5344547461
 21
140.1426241694
 31
0.0
 11
210.533226796
 21
140.1328807076
 31
0.0
 11
210.5321954775
 21
140.1231672857
 31
0.0
 11
210.5313582329
 21
140.1134893604
 31
0.0
 11
210.5307123247
 21
140.1038522259
 31
0.0
 11
210.5302548456
 21
140.0942610074
 31
0.0
 11
210.5299827293
 21
140.0847206559
 31
0.0
 11
210.5298927614
 21
140.0752359433
 31
0.0
  0
SPLINE
  5
2B5
100
AcDbEntity
  8
0
100
AcDbSpline
 62
7
  6
CONTINUOUS
 70
4
 71
3
 72
8
 73
4
 74
5
 42
0.0000001
 43
0.0000001
 44
0.0000000001
 12
-0.5700255453
 22
-0.1483147839
 32
0.0
 13
-0.5675227179
 23
-0.1576209444
 33
0.0
 40
0.0
 40
0.0
 40
0.0
 40
0.0
 40
1.0
 40
1.0
 40
1.0
 40
1.0
 10
211.4648831089
 20
140.7099731903
 30
0.0
 41
1.0
 10
211.274870355
 20
140.6605338262
 30
0.0
 41
0.9999776921
 10
211.0852684039
 20
140.6095416943
 30
0.0
 41
0.9999776921
 10
210.8960899445
 20
140.5570002074
 30
0.0
 41
1.0
 11
211.4648831089
 21
140.7099731903
 31
0.0
 11
211.3224519592
 21
140.672602888
 31
0.0
 11
211.180173668
 21
140.6346499884
 31
0.0
 11
211.0380518082
 21
140.5961154368
 31
0.0
 11
210.8960899445
 21
140.5570002074
 31
0.0
  0
LINE
  5
2B6
100
AcDbEntity
  8
0
100
AcDbLine
 62
7
  6
CONTINUOUS
 10
211.4648831089
 20
140.7099731903
 11
208.2298927614
 21
140.7099731903
  0
LINE
  5
2B7
100
AcDbEntity
  8
0
100
AcDbLine
 62
7
  6
CONTINUOUS
 10
208.2298927614
 20
140.7099731903
 11
208.2298927614
 21
141.8699731903
  0
LINE
  5
2B8
100
AcDbEntity
  8
0
100
AcDbLine
 62
7
  6
CONTINUOUS
 10
208.2298927614
 20
141.8699731903
 11
201.0298927614
 21
141.8699731903
  0
HATCH
  5
2B9
100
AcDbEntity
  8
0
100
AcDbHatch
 62
2
  6
CONTINUOUS
 10
0.0
 20
0.0
 30
0.0
210
0.0
220
0.0
230
1.0
  2
A
 70
0
 71
1
 91
2
 92
1
 93
36
 72
1
 10
201.0298927614
 20
45.8699731903
 11
201.0298927614
 21
69.8699731903
 72
1
 10
208.2298927614
 20
69.8699731903
 11
201.0298927614
 21
69.8699731903
 72
1
 10
208.2298927614
 20
69.8699731903
 11
208.2298927614
 21
71.0299731903
 72
1
 10
211.4648831089
 20
71.0299731903
 11
208.2298927614
 21
71.0299731903
 72
4
 94
3
 73
1
 74
0
 95
8
 96
4
 40
0.0
 40
0.0
 40
0.0
 40
0.0
 40
1.0
 40
1.0
 40
1.0
 40
1.0
 10
211.4648831089
 20
71.0299731903
 42
1.0
 10
211.274870355
 20
71.0794125545
 42
0.9999776921
 10
211.0852684039
 20
71.1304046864
 42
0.9999776921
 10
210.8960899445
 20
71.1829461733
 42
1.0
 72
4
 94
3
 73
1
 74
0
 95
8
 96
4
 40
0.0
 40
0.0
 40
0.0
 40
0.0
 40
1.0
 40
1.0
 40
1.0
 40
1.0
 10
210.8960899445
 20
71.1829461733
 42
1.0
 10
210.6711597486
 20
71.2454171701
 42
0.8640782258
 10
210.5298927614
 20
71.4312661861
 42
0.8640782258
 10
210.5298927614
 20
71.6647104374
 42
1.0
 72
1
 10
210.5298927614
 20
71.6647104374
 11
210.5298927614
 21
76.8975731903
 72
1
 10
211.4798927614
 20
76.8975731903
 11
210.5298927614
 21
76.8975731903
 72
1
 10
211.4798927614
 20
76.8975731903
 11
211.4798927614
 21
79.1199731903
 72
1
 10
211.4798927614
 20
79.1199731903
 11
210.5298927614
 21
80.9699731903
 72
1
 10
210.5298927614
 20
80.9699731903
 11
210.5298927614
 21
82.8199731903
 72
1
 10
210.5298927614
 20
82.8199731903
 11
203.5298927614
 21
82.8199731903
 72
4
 94
3
 73
1
 74
0
 95
8
 96
4
 40
0.0
 40
0.0
 40
0.0
 40
0.0
 40
1.0
 40
1.0
 40
1.0
 40
1.0
 10
203.5298927614
 20
82.8199731903
 42
1.0
 10
203.2369995426
 20
82.8199731903
 42
0.8047378541
 10
203.0298927614
 20
83.0270799715
 42
0.8047378541
 10
203.0298927614
 20
83.3199731903
 42
1.0
 72
1
 10
203.0298927614
 20
83.3199731903
 11
203.0298927614
 21
87.3699731904
 72
4
 94
3
 73
1
 74
0
 95
8
 96
4
 40
0.0
 40
0.0
 40
0.0
 40
0.0
 40
1.0
 40
1.0
 40
1.0
 40
1.0
 10
203.0298927614
 20
87.3699731904
 42
1.0
 10
203.0298927614
 20
87.955759628
 42
0.8047378541
 10
203.4441063238
 20
88.3699731904
 42
0.8047378541
 10
204.0298927614
 20
88.3699731904
 42
1.0
 72
1
 10
244.9298927614
 20
88.3699731904
 11
204.0298927614
 21
88.3699731904
 72
4
 94
3
 73
1
 74
0
 95
8
 96
4
 40
0.0
 40
0.0
 40
0.0
 40
0.0
 40
1.0
 40
1.0
 40
1.0
 40
1.0
 10
244.9298927614
 20
88.3699731904
 42
1.0
 10
245.515679199
 20
88.3699731904
 42
0.8047378541
 10
245.9298927614
 20
87.955759628
 42
0.8047378541
 10
245.9298927614
 20
87.3699731904
 42
1.0
 72
1
 10
245.9298927614
 20
83.3199731903
 11
245.9298927614
 21
87.3699731904
 72
4
 94
3
 73
1
 74
0
 95
8
 96
4
 40
0.0
 40
0.0
 40
0.0
 40
0.0
 40
1.0
 40
1.0
 40
1.0
 40
1.0
 10
245.9298927614
 20
83.3199731903
 42
1.0
 10
245.9298927614
 20
83.0270799715
 42
0.8047378541
 10
245.7227859802
 20
82.8199731903
 42
0.8047378541
 10
245.4298927614
 20
82.8199731903
 42
1.0
 72
1
 10
245.4298927614
 20
82.8199731903
 11
230.5298927614
 21
82.8199731903
 72
1
 10
230.5298927614
 20
80.9699731903
 11
230.5298927614
 21
82.8199731903
 72
1
 10
230.5298927614
 20
80.9699731903
 11
229.5798927614
 21
79.1199731903
 72
1
 10
229.5798927614
 20
76.8975731903
 11
229.5798927614
 21
79.1199731903
 72
1
 10
230.5298927614
 20
76.8975731903
 11
229.5798927614
 21
76.8975731903
 72
1
 10
230.5298927614
 20
71.6647104374
 11
230.5298927614
 21
76.8975731903
 72
4
 94
3
 73
1
 74
0
 95
8
 96
4
 40
0.0
 40
0.0
 40
0.0
 40
0.0
 40
1.0
 40
1.0
 40
1.0
 40
1.0
 10
230.5298927614
 20
71.6647104374
 42
1.0
 10
230.5298927614
 20
71.4312661861
 42
0.8640782258
 10
230.3886257741
 20
71.2454171701
 42
0.8640782258
 10
230.1636955783
 20
71.1829461733
 42
1.0
 72
4
 94
3
 73
1
 74
0
 95
8
 96
4
 40
0.0
 40
0.0
 40
0.0
 40
0.0
 40
1.0
 40
1.0
 40
1.0
 40
1.0
 10
230.1636955783
 20
71.1829461733
 42
1.0
 10
229.9745171188
 20
71.1304046864
 42
0.9999776921
 10
229.7849151677
 20
71.0794125545
 42
0.9999776921
 10
229.5949024139
 20
71.0299731903
 42
1.0
 72
1
 10
233.0298927614
 20
71.0299731903
 11
229.5949024139
 21
71.0299731903
 72
1
 10
233.0298927614
 20
68.3699731903
 11
233.0298927614
 21
71.0299731903
 72
1
 10
231.0596098879
 20
64.7499731903
 11
233.0298927614
 21
68.3699731903
 72
1
 10
228.7898927614
 20
64.5978817221
 11
231.0596098879
 21
64.7499731903
 72
1
 10
228.7898927614
 20
64.4999731903
 11
228.7898927614
 21
64.5978817221
 72
4
 94
3
 73
1
 74
0
 95
8
 96
4
 40
0.0
 40
0.0
 40
0.0
 40
0.0
 40
1.0
 40
1.0
 40
1.0
 40
1.0
 10
228.7898927614
 20
64.4999731903
 42
1.0
 10
227.7589086312
 20
64.4999731903
 42
0.8047378541
 10
227.0298927614
 20
63.7709573206
 42
0.8047378541
 10
227.0298927614
 20
62.7399731903
 42
1.0
 72
1
 10
227.0298927614
 20
47.8699731903
 11
227.0298927614
 21
62.7399731903
 72
4
 94
3
 73
1
 74
0
 95
8
 96
4
 40
0.0
 40
0.0
 40
0.0
 40
0.0
 40
1.0
 40
1.0
 40
1.0
 40
1.0
 10
225.0298927614
 20
45.8699731903
 42
1.0
 10
226.2014656366
 20
45.8699731903
 42
0.8047378541
 10
227.0298927614
 20
46.6984003151
 42
0.8047378541
 10
227.0298927614
 20
47.8699731903
 42
1.0
 72
1
 10
201.0298927614
 20
45.8699731903
 11
225.0298927614
 21
45.8699731903
 97
95
330
25A
330
25B
330
25C
330
25D
330
25E
330
25F
330
260
330
261
330
262
330
263
330
264
330
265
330
266
330
267
330
268
330
269
330
26A
330
26B
330
26C
330
26D
330
26E
330
26F
330
270
330
271
330
272
330
273
330
274
330
275
330
276
330
277
330
278
330
279
330
27A
330
27B
330
27C
330
27D
330
27E
330
27F
330
280
330
281
330
282
330
283
330
284
330
285
330
286
330
287
330
288
330
289
330
28A
330
28B
330
28C
330
28D
330
28E
330
28F
330
290
330
291
330
292
330
293
330
294
330
295
330
296
330
297
330
298
330
299
330
29A
330
29B
330
29C
330
29D
330
29E
330
29F
330
2A0
330
2A1
330
2A2
330
2A3
330
2A4
330
2A5
330
2A6
330
2A7
330
2A8
330
2A9
330
2AA
330
2AB
330
2AC
330
2AD
330
2AE
330
2AF
330
2B0
330
2B1
330
2B2
330
2B3
330
2B4
330
2B5
330
2B6
330
2B7
330
2B8
 92
1
 93
59
 72
1
 10
201.0298927614
 20
141.8699731903
 11
201.0298927614
 21
165.8699731903
 72
1
 10
201.0298927614
 20
165.8699731903
 11
205.7938927614
 21
165.8699731903
 72
4
 94
3
 73
1
 74
0
 95
8
 96
4
 40
0.0
 40
0.0
 40
0.0
 40
0.0
 40
1.0
 40
1.0
 40
1.0
 40
1.0
 10
205.5306314474
 20
165.9366948466
 42
1.0
 10
205.6158929595
 20
165.9052950658
 42
0.9963530277
 10
205.7039679379
 20
165.8829731061
 42
0.9963530277
 10
205.7938927614
 20
165.8699731903
 42
1.0
 72
1
 10
205.5306314474
 20
169.5816152675
 11
205.5306314474
 21
165.9366948466
 72
4
 94
3
 73
1
 74
0
 95
8
 96
4
 40
0.0
 40
0.0
 40
0.0
 40
0.0
 40
1.0
 40
1.0
 40
1.0
 40
1.0
 10
205.5306314474
 20
169.5816152675
 42
1.0
 10
206.8438043966
 20
169.9766978097
 42
0.9472913718
 10
207.8991858781
 20
170.8523023657
 42
0.9472913718
 10
208.5298927614
 20
172.0699731903
 42
1.0
 72
1
 10
207.7298927614
 20
174.1699731903
 11
208.5298927614
 21
172.0699731903
 72
1
 10
208.5298927614
 20
176.3699731903
 11
207.7298927614
 21
174.1699731903
 72
1
 10
210.0775466496
 20
176.3699731903
 11
208.5298927614
 21
176.3699731903
 72
4
 94
3
 73
1
 74
0
 95
8
 96
4
 40
0.0
 40
0.0
 40
0.0
 40
0.0
 40
1.0
 40
1.0
 40
1.0
 40
1.0
 10
210.0775466496
 20
176.3699731903
 42
1.0
 10
210.297980813
 20
176.6895187069
 42
0.923593936
 10
210.6416910644
 20
176.8699731903
 42
0.923593936
 10
211.0298927614
 20
176.8699731903
 42
1.0
 72
4
 94
3
 73
1
 74
0
 95
8
 96
4
 40
0.0
 40
0.0
 40
0.0
 40
0.0
 40
1.0
 40
1.0
 40
1.0
 40
1.0
 10
211.9822388731
 20
176.3699731903
 42
1.0
 10
211.7618047097
 20
176.6895187069
 42
0.923593936
 10
211.4180944584
 20
176.8699731903
 42
0.923593936
 10
211.0298927614
 20
176.8699731903
 42
1.0
 72
1
 10
213.5298927614
 20
176.3699731903
 11
211.9822388731
 21
176.3699731903
 72
1
 10
213.5298927614
 20
176.3699731903
 11
214.3298927614
 21
174.1699731903
 72
1
 10
214.3298927614
 20
174.1699731903
 11
213.5298927614
 21
172.0699731903
 72
4
 94
3
 73
1
 74
0
 95
8
 96
4
 40
0.0
 40
0.0
 40
0.0
 40
0.0
 40
1.0
 40
1.0
 40
1.0
 40
1.0
 10
216.5291540754
 20
169.5816152675
 42
1.0
 10
215.2159811261
 20
169.9766978097
 42
0.9472913718
 10
214.1605996447
 20
170.8523023657
 42
0.9472913718
 10
213.5298927614
 20
172.0699731903
 42
1.0
 72
1
 10
216.5291540754
 20
169.5816152675
 11
216.5291540754
 21
165.9366948466
 72
4
 94
3
 73
1
 74
0
 95
8
 96
4
 40
0.0
 40
0.0
 40
0.0
 40
0.0
 40
1.0
 40
1.0
 40
1.0
 40
1.0
 10
216.5291540754
 20
165.9366948466
 42
1.0
 10
216.4438925633
 20
165.9052950658
 42
0.9963530277
 10
216.3558175849
 20
165.8829731061
 42
0.9963530277
 10
216.2658927614
 20
165.8699731903
 42
1.0
 72
1
 10
216.2658927614
 20
165.8699731903
 11
225.0298927614
 21
165.8699731903
 72
4
 94
3
 73
1
 74
0
 95
8
 96
4
 40
0.0
 40
0.0
 40
0.0
 40
0.0
 40
1.0
 40
1.0
 40
1.0
 40
1.0
 10
225.0298927614
 20
165.8699731903
 42
1.0
 10
226.2014656366
 20
165.8699731903
 42
0.8047378541
 10
227.0298927614
 20
165.0415460656
 42
0.8047378541
 10
227.0298927614
 20
163.8699731903
 42
1.0
 72
1
 10
227.0298927614
 20
148.9999731903
 11
227.0298927614
 21
163.8699731903
 72
4
 94
3
 73
1
 74
0
 95
8
 96
4
 40
0.0
 40
0.0
 40
0.0
 40
0.0
 40
1.0
 40
1.0
 40
1.0
 40
1.0
 10
228.7898927614
 20
147.2399731903
 42
1.0
 10
227.7589086312
 20
147.2399731903
 42
0.8047378541
 10
227.0298927614
 20
147.9689890601
 42
0.8047378541
 10
227.0298927614
 20
148.9999731903
 42
1.0
 72
1
 10
228.7898927614
 20
147.1420646586
 11
228.7898927614
 21
147.2399731903
 72
1
 10
228.7898927614
 20
147.1420646586
 11
231.0596098879
 21
146.9899731903
 72
1
 10
231.0596098879
 20
146.9899731903
 11
233.0298927614
 21
143.3699731903
 72
1
 10
233.0298927614
 20
140.7099731903
 11
233.0298927614
 21
143.3699731903
 72
1
 10
233.0298927614
 20
140.7099731903
 11
229.5949024139
 21
140.7099731903
 72
4
 94
3
 73
1
 74
0
 95
8
 96
4
 40
0.0
 40
0.0
 40
0.0
 40
0.0
 40
1.0
 40
1.0
 40
1.0
 40
1.0
 10
230.1636955783
 20
140.5570002074
 42
1.0
 10
229.9745171188
 20
140.6095416943
 42
0.9999776921
 10
229.7849151677
 20
140.6605338262
 42
0.9999776921
 10
229.5949024139
 20
140.7099731903
 42
1.0
 72
4
 94
3
 73
1
 74
0
 95
8
 96
4
 40
0.0
 40
0.0
 40
0.0
 40
0.0
 40
1.0
 40
1.0
 40
1.0
 40
1.0
 10
230.5298927614
 20
140.0752359433
 42
1.0
 10
230.5298927614
 20
140.3086801946
 42
0.8640782258
 10
230.3886257741
 20
140.4945292106
 42
0.8640782258
 10
230.1636955783
 20
140.5570002074
 42
1.0
 72
1
 10
230.5298927614
 20
134.8423731903
 11
230.5298927614
 21
140.0752359433
 72
1
 10
230.5298927614
 20
134.8423731903
 11
229.5798927614
 21
134.8423731903
 72
1
 10
229.5798927614
 20
132.6199731903
 11
229.5798927614
 21
134.8423731903
 72
1
 10
230.5298927614
 20
130.7699731903
 11
229.5798927614
 21
132.6199731903
 72
1
 10
230.5298927614
 20
128.9199731903
 11
230.5298927614
 21
130.7699731903
 72
1
 10
236.9298927614
 20
128.9199731903
 11
230.5298927614
 21
128.9199731903
 72
1
 10
236.9298927614
 20
128.9199731903
 11
236.9298927614
 21
129.4749731903
 72
1
 10
236.9298927614
 20
129.4749731903
 11
238.4298927614
 21
129.4749731903
 72
1
 10
238.4298927614
 20
128.9199731903
 11
238.4298927614
 21
129.4749731903
 72
1
 10
241.4298927614
 20
128.9199731903
 11
238.4298927614
 21
128.9199731903
 72
1
 10
241.4298927614
 20
128.9199731903
 11
241.4298927614
 21
129.4749731903
 72
1
 10
241.4298927614
 20
129.4749731903
 11
242.9298927614
 21
129.4749731903
 72
1
 10
242.9298927614
 20
128.9199731903
 11
242.9298927614
 21
129.4749731903
 72
1
 10
245.4298927614
 20
128.9199731903
 11
242.9298927614
 21
128.9199731903
 72
4
 94
3
 73
1
 74
0
 95
8
 96
4
 40
0.0
 40
0.0
 40
0.0
 40
0.0
 40
1.0
 40
1.0
 40
1.0
 40
1.0
 10
245.9298927614
 20
128.4199731903
 42
1.0
 10
245.9298927614
 20
128.7128664092
 42
0.8047378541
 10
245.7227859802
 20
128.9199731903
 42
0.8047378541
 10
245.4298927614
 20
128.9199731903
 42
1.0
 72
1
 10
245.9298927614
 20
124.3699731903
 11
245.9298927614
 21
128.4199731903
 72
4
 94
3
 73
1
 74
0
 95
8
 96
4
 40
0.0
 40
0.0
 40
0.0
 40
0.0
 40
1.0
 40
1.0
 40
1.0
 40
1.0
 10
244.9298927614
 20
123.3699731903
 42
1.0
 10
245.515679199
 20
123.3699731903
 42
0.8047378541
 10
245.9298927614
 20
123.7841867527
 42
0.8047378541
 10
245.9298927614
 20
124.3699731903
 42
1.0
 72
1
 10
244.9298927614
 20
123.3699731903
 11
204.0298927614
 21
123.3699731903
 72
4
 94
3
 73
1
 74
0
 95
8
 96
4
 40
0.0
 40
0.0
 40
0.0
 40
0.0
 40
1.0
 40
1.0
 40
1.0
 40
1.0
 10
203.0298927614
 20
124.3699731903
 42
1.0
 10
203.0298927614
 20
123.7841867527
 42
0.8047378541
 10
203.4441063238
 20
123.3699731903
 42
0.8047378541
 10
204.0298927614
 20
123.3699731903
 42
1.0
 72
1
 10
203.0298927614
 20
124.3699731903
 11
203.0298927614
 21
128.4199731903
 72
4
 94
3
 73
1
 74
0
 95
8
 96
4
 40
0.0
 40
0.0
 40
0.0
 40
0.0
 40
1.0
 40
1.0
 40
1.0
 40
1.0
 10
203.5298927614
 20
128.9199731903
 42
1.0
 10
203.2369995426
 20
128.9199731903
 42
0.8047378541
 10
203.0298927614
 20
128.7128664092
 42
0.8047378541
 10
203.0298927614
 20
128.4199731903
 42
1.0
 72
1
 10
210.5298927614
 20
128.9199731903
 11
203.5298927614
 21
128.9199731903
 72
1
 10
210.5298927614
 20
128.9199731903
 11
210.5298927614
 21
130.7699731903
 72
1
 10
211.4798927614
 20
132.6199731903
 11
210.5298927614
 21
130.7699731903
 72
1
 10
211.4798927614
 20
132.6199731903
 11
211.4798927614
 21
134.8423731903
 72
1
 10
211.4798927614
 20
134.8423731903
 11
210.5298927614
 21
134.8423731903
 72
1
 10
210.5298927614
 20
134.8423731903
 11
210.5298927614
 21
140.0752359433
 72
4
 94
3
 73
1
 74
0
 95
8
 96
4
 40
0.0
 40
0.0
 40
0.0
 40
0.0
 40
1.0
 40
1.0
 40
1.0
 40
1.0
 10
210.8960899445
 20
140.5570002074
 42
1.0
 10
210.6711597486
 20
140.4945292106
 42
0.8640782258
 10
210.5298927614
 20
140.3086801946
 42
0.8640782258
 10
210.5298927614
 20
140.0752359433
 42
1.0
 72
4
 94
3
 73
1
 74
0
 95
8
 96
4
 40
0.0
 40
0.0
 40
0.0
 40
0.0
 40
1.0
 40
1.0
 40
1.0
 40
1.0
 10
211.4648831089
 20
140.7099731903
 42
1.0
 10
211.274870355
 20
140.6605338262
 42
0.9999776921
 10
211.0852684039
 20
140.6095416943
 42
0.9999776921
 10
210.8960899445
 20
140.5570002074
 42
1.0
 72
1
 10
211.4648831089
 20
140.7099731903
 11
208.2298927614
 21
140.7099731903
 72
1
 10
208.2298927614
 20
140.7099731903
 11
208.2298927614
 21
141.8699731903
 72
1
 10
208.2298927614
 20
141.8699731903
 11
201.0298927614
 21
141.8699731903
 97
95
330
25A
330
25B
330
25C
330
25D
330
25E
330
25F
330
260
330
261
330
262
330
263
330
264
330
265
330
266
330
267
330
268
330
269
330
26A
330
26B
330
26C
330
26D
330
26E
330
26F
330
270
330
271
330
272
330
273
330
274
330
275
330
276
330
277
330
278
330
279
330
27A
330
27B
330
27C
330
27D
330
27E
330
27F
330
280
330
281
330
282
330
283
330
284
330
285
330
286
330
287
330
288
330
289
330
28A
330
28B
330
28C
330
28D
330
28E
330
28F
330
290
330
291
330
292
330
293
330
294
330
295
330
296
330
297
330
298
330
299
330
29A
330
29B
330
29C
330
29D
330
29E
330
29F
330
2A0
330
2A1
330
2A2
330
2A3
330
2A4
330
2A5
330
2A6
330
2A7
330
2A8
330
2A9
330
2AA
330
2AB
330
2AC
330
2AD
330
2AE
330
2AF
330
2B0
330
2B1
330
2B2
330
2B3
330
2B4
330
2B5
330
2B6
330
2B7
330
2B8
 75
0
 76
0
 52
45.0
 41
8.0408896128
 77
0
 78
1
 53
45.0
 43
0.0
 44
0.0
 45
-5.685767572
 46
5.685767572
 79
0
 98
1
 10
0.0
 20
0.0
  0
DIMENSION
  5
2BA
100
AcDbEntity
  8
0
100
AcDbDimension
 62
2
  6
CONTINUOUS
  2
*D0
 10
166.6970509383
 20
16.0857908847
 11
104.0720509383
 21
18.7107908847
 70
160
  3
DIMSTYLE_1
100
AcDbAlignedDimension
 13
46.6970509383
 23
58.8699731903
 14
166.6970509383
 24
58.8699731903
100
AcDbRotatedDimension
  0
DIMENSION
  5
2BB
100
AcDbEntity
  8
0
100
AcDbDimension
 62
2
  6
CONTINUOUS
  2
*D1
 10
152.6970509383
 20
32.0107238606
 11
104.9470509383
 21
34.6357238606
 70
160
  3
DIMSTYLE_1
100
AcDbAlignedDimension
 13
60.6970509383
 23
59.3699731903
 14
152.6970509383
 24
59.3699731903
100
AcDbRotatedDimension
  0
DIMENSION
  5
2BC
100
AcDbEntity
  8
0
100
AcDbDimension
 62
2
  6
CONTINUOUS
  2
*D2
 10
27.3378016086
 20
59.8699731903
 11
25.4969304368
 21
104.305479029
 70
160
  3
DIMSTYLE_1
100
AcDbAlignedDimension
 13
60.1970509383
 23
151.8699731903
 14
60.1970509383
 24
59.8699731903
 50
270.0
100
AcDbRotatedDimension
  0
DIMENSION
  5
2BD
100
AcDbEntity
  8
0
100
AcDbDimension
 62
2
  6
CONTINUOUS
  2
*D3
 10
9.2895442359
 20
45.8699731903
 11
7.8407374783
 21
103.5232319484
 70
160
  3
DIMSTYLE_1
100
AcDbAlignedDimension
 13
59.6970509383
 23
165.8699731903
 14
59.6970509383
 24
45.8699731903
 50
270.0
100
AcDbRotatedDimension
  0
DIMENSION
  5
2BE
100
AcDbEntity
  8
0
100
AcDbDimension
 62
2
  6
CONTINUOUS
  2
*D4
 10
245.9298927614
 20
187.0134048257
 11
219.9798927614
 21
189.6384048257
 70
160
  3
DIMSTYLE_1
100
AcDbAlignedDimension
 13
201.0298927614
 23
165.7801608579
 14
245.9298927614
 24
124.8699731903
100
AcDbRotatedDimension
  0
DIMENSION
  5
2BF
100
AcDbEntity
  8
0
100
AcDbDimension
 62
2
  6
CONTINUOUS
  2
*D5
 10
227.0298927614
 20
31.2144772118
 11
212.2798927614
 21
33.8394772118
 70
160
  3
DIMSTYLE_2
100
AcDbAlignedDimension
 13
201.0298927614
 23
45.3699731903
 14
227.0298927614
 24
47.3699731903
100
AcDbRotatedDimension
  0
DIMENSION
  5
2C0
100
AcDbEntity
  8
0
100
AcDbDimension
 62
2
  6
CONTINUOUS
  2
*D6
 10
233.0298927614
 20
20.0670241287
 11
215.2798927614
 21
22.6920241287
 70
160
  3
DIMSTYLE_1
100
AcDbAlignedDimension
 13
201.0298927614
 23
45.3699731903
 14
233.0298927614
 24
70.5299731903
100
AcDbRotatedDimension
  0
DIMENSION
  5
2C1
100
AcDbEntity
  8
0
100
AcDbDimension
 62
2
  6
CONTINUOUS
  2
*D7
 10
157.583883768
 20
61.788661517
 11
180.1755639256
 21
73.4787775881
 70
163
  1
<>
  3
DIMSTYLE_3
100
AcDbDiametricDimension
 15
147.8102181087
 25
57.9512848637
  0
MTEXT
  5
2C2
100
AcDbEntity
  8
0
100
AcDbMText
 62
2
  6
CONTINUOUS
  7
STANDARD
 71
3
 72
1
 10
229.8498659517
 20
13.7046782842
 30
0.0
 11
1.0
 21
0.0
 31
0.0
  1
SEZIONE A-A
 40
3.5
 41
19.25
  0
LINE
  5
2C3
100
AcDbEntity
  8
0
100
AcDbLine
 62
7
  6
CONTINUOUS
 10
0.0
 20
0.0
 11
0.0
 21
210.0
  0
LINE
  5
2C4
100
AcDbEntity
  8
0
100
AcDbLine
 62
7
  6
CONTINUOUS
 10
0.0
 20
0.0
 11
297.0
 21
0.0
  0
LINE
  5
2C5
100
AcDbEntity
  8
0
100
AcDbLine
 62
7
  6
CONTINUOUS
 10
0.0
 20
210.0
 11
297.0
 21
210.0
  0
LINE
  5
2C6
100
AcDbEntity
  8
0
100
AcDbLine
 62
7
  6
CONTINUOUS
 10
297.0
 20
0.0
 11
297.0
 21
210.0
  0
LINE
  5
2C7
100
AcDbEntity
  8
0
100
AcDbLine
 62
7
  6
CONTINUOUS
 10
153.1970509383
 20
45.8699731903
 11
60.1970509383
 21
45.8699731903
  0
LINE
  5
2C8
100
AcDbEntity
  8
0
100
AcDbLine
 62
7
  6
CONTINUOUS
 10
46.6970509383
 20
59.3699731903
 11
46.6970509383
 21
152.3699731903
  0
LINE
  5
2C9
100
AcDbEntity
  8
0
100
AcDbLine
 62
7
  6
CONTINUOUS
 10
153.1970509383
 20
47.8699731903
 11
60.1970509383
 21
47.8699731903
  0
LINE
  5
2CA
100
AcDbEntity
  8
0
100
AcDbLine
 62
7
  6
CONTINUOUS
 10
48.6970509383
 20
59.3699731903
 11
48.6970509383
 21
152.3699731903
  0
LINE
  5
2CB
100
AcDbEntity
  8
0
100
AcDbLine
 62
7
  6
CONTINUOUS
 10
166.6970509383
 20
59.3699731903
 11
164.6970509383
 21
59.3699731903
  0
LINE
  5
2CC
100
AcDbEntity
  8
0
100
AcDbLine
 62
7
  6
CONTINUOUS
 10
46.6970509383
 20
59.3699731903
 11
48.6970509383
 21
59.3699731903
  0
LINE
  5
2CD
100
AcDbEntity
  8
0
100
AcDbLine
 62
7
  6
CONTINUOUS
 10
60.1970509383
 20
165.8699731903
 11
60.1970509383
 21
163.8699731903
  0
LINE
  5
2CE
100
AcDbEntity
  8
0
100
AcDbLine
 62
7
  6
CONTINUOUS
 10
60.1970509383
 20
45.8699731903
 11
60.1970509383
 21
47.8699731903
  0
LINE
  5
2CF
100
AcDbEntity
  8
0
100
AcDbLine
 62
7
  6
CONTINUOUS
 10
104.1970509383
 20
176.3699731903
 11
103.3970509383
 21
174.1699731903
  0
LINE
  5
2D0
100
AcDbEntity
  8
0
100
AcDbLine
 62
7
  6
CONTINUOUS
 10
109.9970509383
 20
174.1699731903
 11
109.1970509383
 21
172.0699731903
  0
LINE
  5
2D1
100
AcDbEntity
  8
0
100
AcDbLine
 62
7
  6
CONTINUOUS
 10
100.3470509383
 20
167.1565981896
 11
100.3470509383
 21
169.0242983336
  0
LINE
  5
2D2
100
AcDbEntity
  8
ASSI
100
AcDbLine
 62
2
  6
CENTER
 10
106.6970509383
 20
105.8699731903
 11
40.8739946381
 21
105.8699731903
  0
LINE
  5
2D3
100
AcDbEntity
  8
ASSI
100
AcDbLine
 62
2
  6
CENTER
 10
106.6970509383
 20
105.8699731903
 11
169.0697050938
 21
105.8699731903
  0
LINE
  5
2D4
100
AcDbEntity
  8
0
100
AcDbLine
 62
7
  6
CONTINUOUS
 10
124.9891421705
 20
91.8449277783
 11
125.6395805947
 21
91.469396979
  0
LINE
  5
2D5
100
AcDbEntity
  8
0
100
AcDbLine
 62
7
  6
CONTINUOUS
 10
103.5220509383
 20
167.1565981465
 11
103.5220509383
 21
169.0242983336
  0
LINE
  5
2D6
100
AcDbEntity
  8
0
100
AcDbLine
 62
7
  6
CONTINUOUS
 10
103.6970509383
 20
128.723912725
 11
103.6970509383
 21
129.4749731903
  0
LINE
  5
2D7
100
AcDbEntity
  8
ASSI
100
AcDbLine
 62
2
  6
CENTER
 10
106.6970509383
 20
105.8699731903
 11
106.6970509383
 21
38.3806970509
  0
LINE
  5
2D8
100
AcDbEntity
  8
ASSI
100
AcDbLine
 62
2
  6
CENTER
 10
106.6970509383
 20
105.8699731903
 11
106.6970509383
 21
184.3592493298
  0
LINE
  5
2D9
100
AcDbEntity
  8
0
100
AcDbLine
 62
7
  6
CONTINUOUS
 10
127.9891421705
 20
97.041080201
 11
128.6395805947
 21
96.6655494017
  0
LINE
  5
2DA
100
AcDbEntity
  8
0
100
AcDbLine
 62
7
  6
CONTINUOUS
 10
109.6970509383
 20
128.7239124999
 11
109.6970509383
 21
129.4749731903
  0
LINE
  5
2DB
100
AcDbEntity
  8
0
100
AcDbLine
 62
7
  6
CONTINUOUS
 10
109.8720509383
 20
167.1565981348
 11
109.8720509383
 21
169.0242983336
  0
LINE
  5
2DC
100
AcDbEntity
  8
0
100
AcDbLine
 62
7
  6
CONTINUOUS
 10
113.0470509383
 20
167.1565981354
 11
113.0470509383
 21
169.0242983336
  0
LINE
  5
2DD
100
AcDbEntity
  8
0
100
AcDbLine
 62
7
  6
CONTINUOUS
 10
103.6970509383
 20
129.4749731903
 11
109.6970509383
 21
129.4749731903
  0
LINE
  5
2DE
100
AcDbEntity
  8
0
100
AcDbLine
 62
7
  6
CONTINUOUS
 10
103.3970509383
 20
174.1699731903
 11
104.1970509383
 21
172.0699731903
  0
LINE
  5
2DF
100
AcDbEntity
  8
0
100
AcDbLine
 62
7
  6
CONTINUOUS
 10
128.6395805947
 20
96.6655494017
 11
125.6395805947
 21
91.469396979
  0
LINE
  5
2E0
100
AcDbEntity
  8
0
100
AcDbLine
 62
7
  6
CONTINUOUS
 10
109.1970509383
 20
176.3699731903
 11
109.9970509383
 21
174.1699731903
  0
LINE
  5
2E1
100
AcDbEntity
  8
0
100
AcDbLine
 62
7
  6
CONTINUOUS
 10
166.6970509383
 20
152.3699731903
 11
164.6970509383
 21
152.3699731903
  0
LINE
  5
2E2
100
AcDbEntity
  8
0
100
AcDbLine
 62
7
  6
CONTINUOUS
 10
46.6970509383
 20
152.3699731903
 11
48.6970509383
 21
152.3699731903
  0
LINE
  5
2E3
100
AcDbEntity
  8
0
100
AcDbLine
 62
7
  6
CONTINUOUS
 10
153.1970509383
 20
165.8699731903
 11
153.1970509383
 21
163.8699731903
  0
LINE
  5
2E4
100
AcDbEntity
  8
0
100
AcDbLine
 62
7
  6
CONTINUOUS
 10
153.1970509383
 20
45.8699731903
 11
153.1970509383
 21
47.8699731903
  0
LINE
  5
2E5
100
AcDbEntity
  8
0
100
AcDbLine
 62
7
  6
CONTINUOUS
 10
60.1970509383
 20
163.8699731903
 11
153.1970509383
 21
163.8699731903
  0
LINE
  5
2E6
100
AcDbEntity
  8
0
100
AcDbLine
 62
7
  6
CONTINUOUS
 10
164.6970509383
 20
152.3699731903
 11
164.6970509383
 21
59.3699731903
  0
LINE
  5
2E7
100
AcDbEntity
  8
0
100
AcDbLine
 62
7
  6
CONTINUOUS
 10
166.6970509383
 20
152.3699731903
 11
166.6970509383
 21
59.3699731903
  0
LINE
  5
2E8
100
AcDbEntity
  8
0
100
AcDbLine
 62
7
  6
CONTINUOUS
 10
60.1970509383
 20
165.8699731903
 11
153.1970509383
 21
165.8699731903
  0
LINE
  5
2E9
100
AcDbEntity
  8
0
100
AcDbLine
 62
7
  6
CONTINUOUS
 10
112.6633078001
 20
169.4653014377
 11
112.6165239221
 21
169.4653014377
  0
LINE
  5
2EA
100
AcDbEntity
  8
0
100
AcDbLine
 62
7
  6
CONTINUOUS
 10
110.3025779546
 20
169.4653014377
 11
109.0109969058
 21
169.4653014377
  0
LINE
  5
2EB
100
AcDbEntity
  8
0
100
AcDbLine
 62
7
  6
CONTINUOUS
 10
104.3831049709
 20
169.4653014377
 11
103.0915239221
 21
169.4653014377
  0
LINE
  5
2EC
100
AcDbEntity
  8
0
100
AcDbLine
 62
7
  6
CONTINUOUS
 10
100.7775779546
 20
169.4653014377
 11
100.7307940766
 21
169.4653014377
  0
LINE
  5
2ED
100
AcDbEntity
  8
0
100
AcDbLine
 62
7
  6
CONTINUOUS
 10
109.1970509383
 20
172.0699731903
 11
104.1970509383
 21
172.0699731903
  0
LINE
  5
2EE
100
AcDbEntity
  8
0
100
AcDbLine
 62
7
  6
CONTINUOUS
 10
109.9970509383
 20
174.1699731903
 11
103.3970509383
 21
174.1699731903
  0
LINE
  5
2EF
100
AcDbEntity
  8
0
100
AcDbLine
 62
7
  6
CONTINUOUS
 10
109.1970509383
 20
176.3699731903
 11
104.1970509383
 21
176.3699731903
  0
LINE
  5
2F0
100
AcDbEntity
  8
0
100
AcDbLine
 62
7
  6
CONTINUOUS
 10
201.0298927614
 20
45.8699731903
 11
225.0298927614
 21
45.8699731903
  0
LINE
  5
2F1
100
AcDbEntity
  8
0
100
AcDbLine
 62
7
  6
CONTINUOUS
 10
227.0298927614
 20
49.3699731903
 11
227.5298927614
 21
49.3699731903
  0
LINE
  5
2F2
100
AcDbEntity
  8
0
100
AcDbLine
 62
7
  6
CONTINUOUS
 10
228.7898927614
 20
64.5978817221
 11
231.0596098879
 21
64.7499731903
  0
LINE
  5
2F3
100
AcDbEntity
  8
0
100
AcDbLine
 62
7
  6
CONTINUOUS
 10
208.2298927614
 20
69.8699731903
 11
201.0298927614
 21
69.8699731903
  0
LINE
  5
2F4
100
AcDbEntity
  8
0
100
AcDbLine
 62
7
  6
CONTINUOUS
 10
233.0298927614
 20
71.0299731903
 11
229.5949024139
 21
71.0299731903
  0
LINE
  5
2F5
100
AcDbEntity
  8
0
100
AcDbLine
 62
7
  6
CONTINUOUS
 10
211.4648831089
 20
71.0299731903
 11
208.2298927614
 21
71.0299731903
  0
LINE
  5
2F6
100
AcDbEntity
  8
0
100
AcDbLine
 62
7
  6
CONTINUOUS
 10
208.5298927614
 20
176.3699731903
 11
207.7298927614
 21
174.1699731903
  0
LINE
  5
2F7
100
AcDbEntity
  8
0
100
AcDbLine
 62
7
  6
CONTINUOUS
 10
230.5298927614
 20
76.8975731903
 11
229.5798927614
 21
76.8975731903
  0
LINE
  5
2F8
100
AcDbEntity
  8
0
100
AcDbLine
 62
7
  6
CONTINUOUS
 10
211.4798927614
 20
76.8975731903
 11
210.5298927614
 21
76.8975731903
  0
LINE
  5
2F9
100
AcDbEntity
  8
0
100
AcDbLine
 62
7
  6
CONTINUOUS
 10
214.3298927614
 20
174.1699731903
 11
213.5298927614
 21
172.0699731903
  0
LINE
  5
2FA
100
AcDbEntity
  8
0
100
AcDbLine
 62
7
  6
CONTINUOUS
 10
245.4298927614
 20
82.8199731903
 11
230.5298927614
 21
82.8199731903
  0
LINE
  5
2FB
100
AcDbEntity
  8
0
100
AcDbLine
 62
7
  6
CONTINUOUS
 10
210.5298927614
 20
82.8199731903
 11
203.5298927614
 21
82.8199731903
  0
LINE
  5
2FC
100
AcDbEntity
  8
0
100
AcDbLine
 62
7
  6
CONTINUOUS
 10
244.9298927614
 20
88.3699731904
 11
204.0298927614
 21
88.3699731904
  0
LINE
  5
2FD
100
AcDbEntity
  8
0
100
AcDbLine
 62
7
  6
CONTINUOUS
 10
211.4798927614
 20
79.1199731903
 11
210.5298927614
 21
80.9699731903
  0
LINE
  5
2FE
100
AcDbEntity
  8
0
100
AcDbLine
 62
7
  6
CONTINUOUS
 10
201.0298927614
 20
45.8699731903
 11
201.0298927614
 21
165.8699731903
  0
LINE
  5
2FF
100
AcDbEntity
  8
0
100
AcDbLine
 62
7
  6
CONTINUOUS
 10
203.0298927614
 20
83.3199731903
 11
203.0298927614
 21
128.4199731903
  0
LINE
  5
300
100
AcDbEntity
  8
0
100
AcDbLine
 62
7
  6
CONTINUOUS
 10
204.0298927614
 20
123.3699731903
 11
204.0298927614
 21
88.3699731904
  0
LINE
  5
301
100
AcDbEntity
  8
0
100
AcDbLine
 62
7
  6
CONTINUOUS
 10
205.5306314474
 20
169.5816152675
 11
205.5306314474
 21
165.9366948466
  0
LINE
  5
302
100
AcDbEntity
  8
0
100
AcDbLine
 62
7
  6
CONTINUOUS
 10
211.4798927614
 20
132.6199731903
 11
210.5298927614
 21
130.7699731903
  0
LINE
  5
303
100
AcDbEntity
  8
0
100
AcDbLine
 62
7
  6
CONTINUOUS
 10
208.2298927614
 20
69.8699731903
 11
208.2298927614
 21
82.8199731903
  0
LINE
  5
304
100
AcDbEntity
  8
0
100
AcDbLine
 62
7
  6
CONTINUOUS
 10
208.2298927614
 20
128.9199731903
 11
208.2298927614
 21
141.8699731903
  0
LINE
  5
305
100
AcDbEntity
  8
0
100
AcDbLine
 62
7
  6
CONTINUOUS
 10
210.5298927614
 20
71.6647104374
 11
210.5298927614
 21
82.8199731903
  0
LINE
  5
306
100
AcDbEntity
  8
0
100
AcDbLine
 62
7
  6
CONTINUOUS
 10
210.5298927614
 20
128.9199731903
 11
210.5298927614
 21
140.0752359433
  0
LINE
  5
307
100
AcDbEntity
  8
0
100
AcDbLine
 62
7
  6
CONTINUOUS
 10
211.4798927614
 20
76.8975731903
 11
211.4798927614
 21
79.1199731903
  0
LINE
  5
308
100
AcDbEntity
  8
0
100
AcDbLine
 62
7
  6
CONTINUOUS
 10
211.4798927614
 20
132.6199731903
 11
211.4798927614
 21
134.8423731903
  0
LINE
  5
309
100
AcDbEntity
  8
0
100
AcDbLine
 62
7
  6
CONTINUOUS
 10
216.5291540754
 20
169.5816152675
 11
216.5291540754
 21
165.9366948466
  0
LINE
  5
30A
100
AcDbEntity
  8
ASSI
100
AcDbLine
 62
2
  6
CENTER
 10
248.9298927614
 20
105.8699731903
 11
198.0298927614
 21
105.8699731903
  0
LINE
  5
30B
100
AcDbEntity
  8
0
100
AcDbLine
 62
7
  6
CONTINUOUS
 10
227.0298927614
 20
47.8699731903
 11
227.0298927614
 21
62.7399731903
  0
LINE
  5
30C
100
AcDbEntity
  8
0
100
AcDbLine
 62
7
  6
CONTINUOUS
 10
227.0298927614
 20
148.9999731903
 11
227.0298927614
 21
163.8699731903
  0
LINE
  5
30D
100
AcDbEntity
  8
0
100
AcDbLine
 62
7
  6
CONTINUOUS
 10
227.5298927614
 20
162.3699731903
 11
227.5298927614
 21
147.7714729243
  0
LINE
  5
30E
100
AcDbEntity
  8
0
100
AcDbLine
 62
7
  6
CONTINUOUS
 10
227.5298927614
 20
63.9684734564
 11
227.5298927614
 21
49.3699731903
  0
LINE
  5
30F
100
AcDbEntity
  8
0
100
AcDbLine
 62
7
  6
CONTINUOUS
 10
228.7898927614
 20
64.4999731903
 11
228.7898927614
 21
64.5978817221
  0
LINE
  5
310
100
AcDbEntity
  8
0
100
AcDbLine
 62
7
  6
CONTINUOUS
 10
228.7898927614
 20
147.1420646586
 11
228.7898927614
 21
147.2399731903
  0
LINE
  5
311
100
AcDbEntity
  8
0
100
AcDbLine
 62
7
  6
CONTINUOUS
 10
229.5798927614
 20
76.8975731903
 11
229.5798927614
 21
79.1199731903
  0
LINE
  5
312
100
AcDbEntity
  8
0
100
AcDbLine
 62
7
  6
CONTINUOUS
 10
229.5798927614
 20
132.6199731903
 11
229.5798927614
 21
134.8423731903
  0
LINE
  5
313
100
AcDbEntity
  8
0
100
AcDbLine
 62
7
  6
CONTINUOUS
 10
230.5298927614
 20
71.6647104374
 11
230.5298927614
 21
82.8199731903
  0
LINE
  5
314
100
AcDbEntity
  8
0
100
AcDbLine
 62
7
  6
CONTINUOUS
 10
230.5298927614
 20
128.9199731903
 11
230.5298927614
 21
140.0752359433
  0
LINE
  5
315
100
AcDbEntity
  8
0
100
AcDbLine
 62
7
  6
CONTINUOUS
 10
233.0298927614
 20
68.3699731903
 11
233.0298927614
 21
82.8199731903
  0
LINE
  5
316
100
AcDbEntity
  8
0
100
AcDbLine
 62
7
  6
CONTINUOUS
 10
233.0298927614
 20
128.9199731903
 11
233.0298927614
 21
143.3699731903
  0
LINE
  5
317
100
AcDbEntity
  8
0
100
AcDbLine
 62
7
  6
CONTINUOUS
 10
207.7298927614
 20
174.1699731903
 11
208.5298927614
 21
172.0699731903
  0
LINE
  5
318
100
AcDbEntity
  8
0
100
AcDbLine
 62
7
  6
CONTINUOUS
 10
236.9298927614
 20
128.9199731903
 11
236.9298927614
 21
129.4749731903
  0
LINE
  5
319
100
AcDbEntity
  8
0
100
AcDbLine
 62
7
  6
CONTINUOUS
 10
244.9298927614
 20
123.3699731903
 11
204.0298927614
 21
123.3699731903
  0
LINE
  5
31A
100
AcDbEntity
  8
0
100
AcDbLine
 62
7
  6
CONTINUOUS
 10
213.5298927614
 20
176.3699731903
 11
214.3298927614
 21
174.1699731903
  0
LINE
  5
31B
100
AcDbEntity
  8
0
100
AcDbLine
 62
7
  6
CONTINUOUS
 10
238.4298927614
 20
128.9199731903
 11
238.4298927614
 21
129.4749731903
  0
LINE
  5
31C
100
AcDbEntity
  8
0
100
AcDbLine
 62
7
  6
CONTINUOUS
 10
239.9298927614
 20
128.9199731903
 11
239.9298927614
 21
129.4749731903
  0
LINE
  5
31D
100
AcDbEntity
  8
0
100
AcDbLine
 62
7
  6
CONTINUOUS
 10
241.4298927614
 20
128.9199731903
 11
241.4298927614
 21
129.4749731903
  0
LINE
  5
31E
100
AcDbEntity
  8
0
100
AcDbLine
 62
7
  6
CONTINUOUS
 10
245.4298927614
 20
128.9199731903
 11
242.9298927614
 21
128.9199731903
  0
LINE
  5
31F
100
AcDbEntity
  8
0
100
AcDbLine
 62
7
  6
CONTINUOUS
 10
241.4298927614
 20
128.9199731903
 11
238.4298927614
 21
128.9199731903
  0
LINE
  5
320
100
AcDbEntity
  8
0
100
AcDbLine
 62
7
  6
CONTINUOUS
 10
236.9298927614
 20
128.9199731903
 11
230.5298927614
 21
128.9199731903
  0
LINE
  5
321
100
AcDbEntity
  8
0
100
AcDbLine
 62
7
  6
CONTINUOUS
 10
210.5298927614
 20
128.9199731903
 11
203.5298927614
 21
128.9199731903
  0
LINE
  5
322
100
AcDbEntity
  8
0
100
AcDbLine
 62
7
  6
CONTINUOUS
 10
236.9298927614
 20
129.4749731903
 11
242.9298927614
 21
129.4749731903
  0
LINE
  5
323
100
AcDbEntity
  8
0
100
AcDbLine
 62
7
  6
CONTINUOUS
 10
230.5298927614
 20
130.7699731903
 11
229.5798927614
 21
132.6199731903
  0
LINE
  5
324
100
AcDbEntity
  8
0
100
AcDbLine
 62
7
  6
CONTINUOUS
 10
242.9298927614
 20
128.9199731903
 11
242.9298927614
 21
129.4749731903
  0
LINE
  5
325
100
AcDbEntity
  8
0
100
AcDbLine
 62
7
  6
CONTINUOUS
 10
244.9298927614
 20
123.3699731903
 11
244.9298927614
 21
88.3699731904
  0
LINE
  5
326
100
AcDbEntity
  8
0
100
AcDbLine
 62
7
  6
CONTINUOUS
 10
245.9298927614
 20
83.3199731903
 11
245.9298927614
 21
128.4199731903
  0
LINE
  5
327
100
AcDbEntity
  8
0
100
AcDbLine
 62
7
  6
CONTINUOUS
 10
230.5298927614
 20
80.9699731903
 11
229.5798927614
 21
79.1199731903
  0
LINE
  5
328
100
AcDbEntity
  8
0
100
AcDbLine
 62
7
  6
CONTINUOUS
 10
230.5298927614
 20
134.8423731903
 11
229.5798927614
 21
134.8423731903
  0
LINE
  5
329
100
AcDbEntity
  8
0
100
AcDbLine
 62
7
  6
CONTINUOUS
 10
211.4798927614
 20
134.8423731903
 11
210.5298927614
 21
134.8423731903
  0
LINE
  5
32A
100
AcDbEntity
  8
0
100
AcDbLine
 62
7
  6
CONTINUOUS
 10
231.0596098879
 20
146.9899731903
 11
233.0298927614
 21
143.3699731903
  0
LINE
  5
32B
100
AcDbEntity
  8
0
100
AcDbLine
 62
7
  6
CONTINUOUS
 10
231.0596098879
 20
64.7499731903
 11
233.0298927614
 21
68.3699731903
  0
LINE
  5
32C
100
AcDbEntity
  8
0
100
AcDbLine
 62
7
  6
CONTINUOUS
 10
233.0298927614
 20
140.7099731903
 11
229.5949024139
 21
140.7099731903
  0
LINE
  5
32D
100
AcDbEntity
  8
0
100
AcDbLine
 62
7
  6
CONTINUOUS
 10
211.4648831089
 20
140.7099731903
 11
208.2298927614
 21
140.7099731903
  0
LINE
  5
32E
100
AcDbEntity
  8
0
100
AcDbLine
 62
7
  6
CONTINUOUS
 10
208.2298927614
 20
141.8699731903
 11
201.0298927614
 21
141.8699731903
  0
LINE
  5
32F
100
AcDbEntity
  8
0
100
AcDbLine
 62
7
  6
CONTINUOUS
 10
230.1636955783
 20
140.5570002074
 11
229.5949024139
 21
140.7099731903
  0
LINE
  5
330
100
AcDbEntity
  8
0
100
AcDbLine
 62
7
  6
CONTINUOUS
 10
228.7898927614
 20
147.1420646586
 11
231.0596098879
 21
146.9899731903
  0
LINE
  5
331
100
AcDbEntity
  8
0
100
AcDbLine
 62
7
  6
CONTINUOUS
 10
227.0298927614
 20
162.3699731903
 11
227.5298927614
 21
162.3699731903
  0
LINE
  5
332
100
AcDbEntity
  8
0
100
AcDbLine
 62
7
  6
CONTINUOUS
 10
201.0298927614
 20
165.8699731903
 11
205.7938927614
 21
165.8699731903
  0
LINE
  5
333
100
AcDbEntity
  8
0
100
AcDbLine
 62
7
  6
CONTINUOUS
 10
216.2658927614
 20
165.8699731903
 11
225.0298927614
 21
165.8699731903
  0
LINE
  5
334
100
AcDbEntity
  8
0
100
AcDbLine
 62
7
  6
CONTINUOUS
 10
213.5298927614
 20
176.3699731903
 11
211.9822388731
 21
176.3699731903
  0
LINE
  5
335
100
AcDbEntity
  8
0
100
AcDbLine
 62
7
  6
CONTINUOUS
 10
210.0775466496
 20
176.3699731903
 11
208.5298927614
 21
176.3699731903
  0
ARC
  5
336
100
AcDbEntity
  8
0
100
AcDbCircle
 62
7
  6
CONTINUOUS
 10
60.1970509383
 20
59.3699731903
 40
13.5
100
AcDbArc
 50
180.0
 51
270.0
  0
ARC
  5
337
100
AcDbEntity
  8
0
100
AcDbCircle
 62
7
  6
CONTINUOUS
 10
60.1970509383
 20
59.3699731903
 40
11.5
100
AcDbArc
 50
180.0
 51
270.0
  0
CIRCLE
  5
338
100
AcDbEntity
  8
0
100
AcDbCircle
 62
7
  6
CONTINUOUS
 10
60.6970509383
 20
59.8699731903
 40
10.5
  0
CIRCLE
  5
339
100
AcDbEntity
  8
0
100
AcDbCircle
 62
7
  6
CONTINUOUS
 10
60.6970509383
 20
59.8699731903
 40
5.25
  0
ARC
  5
33A
100
AcDbEntity
  8
0
100
AcDbCircle
 62
7
  6
CONTINUOUS
 10
60.1970509383
 20
152.3699731903
 40
13.5
100
AcDbArc
 50
90.0
 51
180.0
  0
ARC
  5
33B
100
AcDbEntity
  8
0
100
AcDbCircle
 62
7
  6
CONTINUOUS
 10
60.1970509383
 20
152.3699731903
 40
11.5
100
AcDbArc
 50
90.0
 51
180.0
  0
CIRCLE
  5
33C
100
AcDbEntity
  8
0
100
AcDbCircle
 62
7
  6
CONTINUOUS
 10
60.6970509383
 20
151.8699731903
 40
10.5
  0
CIRCLE
  5
33D
100
AcDbEntity
  8
0
100
AcDbCircle
 62
7
  6
CONTINUOUS
 10
60.6970509383
 20
151.8699731903
 40
5.25
  0
ARC
  5
33E
100
AcDbEntity
  8
0
100
AcDbCircle
 62
7
  6
CONTINUOUS
 10
99.7572685156
 20
174.3696105615
 40
5.0
100
AcDbArc
 50
281.2274975868
 51
332.6175723528
  0
ARC
  5
33F
100
AcDbEntity
  8
0
100
AcDbCircle
 62
7
  6
CONTINUOUS
 10
101.6507200363
 20
167.1567947441
 40
1.3036709521
100
AcDbArc
 50
182.2553967651
 51
182.6818140597
  0
ARC
  5
340
100
AcDbEntity
  8
0
100
AcDbCircle
 62
7
  6
CONTINUOUS
 10
101.6470509383
 20
167.1565982329
 40
1.3
100
AcDbArc
 50
180.0001557718
 51
261.7740661197
  0
ARC
  5
341
100
AcDbEntity
  8
0
100
AcDbCircle
 62
7
  6
CONTINUOUS
 10
101.6458454065
 20
167.1566516782
 40
1.2987944692
100
AcDbArc
 50
180.0023596296
 51
182.2575531215
  0
ARC
  5
342
100
AcDbEntity
  8
0
100
AcDbCircle
 62
7
  6
CONTINUOUS
 10
101.6423401549
 20
167.156336195
 40
1.295278795
100
AcDbArc
 50
182.6788964831
 51
184.901733607
  0
ARC
  5
343
100
AcDbEntity
  8
0
100
AcDbCircle
 62
7
  6
CONTINUOUS
 10
101.6328915457
 20
167.1556061646
 40
1.2858023892
100
AcDbArc
 50
185.1742910174
 51
187.1529164867
  0
ARC
  5
344
100
AcDbEntity
  8
0
100
AcDbCircle
 62
7
  6
CONTINUOUS
 10
101.6311884108
 20
167.1554509339
 40
1.2840921951
100
AcDbArc
 50
184.9048953778
 51
185.1742464123
  0
ARC
  5
345
100
AcDbEntity
  8
0
100
AcDbCircle
 62
7
  6
CONTINUOUS
 10
101.630382538
 20
167.1552911078
 40
1.283273678
100
AcDbArc
 50
187.1529080729
 51
187.709582163
  0
ARC
  5
346
100
AcDbEntity
  8
0
100
AcDbCircle
 62
7
  6
CONTINUOUS
 10
101.6203394003
 20
167.153872877
 40
1.2731310655
100
AcDbArc
 50
187.7069672195
 51
189.7952218816
  0
ARC
  5
347
100
AcDbEntity
  8
0
100
AcDbCircle
 62
7
  6
CONTINUOUS
 10
101.6083096489
 20
167.1518578466
 40
1.2609338724
100
AcDbArc
 50
189.7979906675
 51
190.7880938168
  0
ARC
  5
348
100
AcDbEntity
  8
0
100
AcDbCircle
 62
7
  6
CONTINUOUS
 10
101.605300276
 20
167.1512812753
 40
1.2578697657
100
AcDbArc
 50
190.7879528328
 51
191.8006571056
  0
ARC
  5
349
100
AcDbEntity
  8
0
100
AcDbCircle
 62
7
  6
CONTINUOUS
 10
101.5984620403
 20
167.149838201
 40
1.2508809367
100
AcDbArc
 50
191.8000109892
 51
193.2240307031
  0
ARC
  5
34A
100
AcDbEntity
  8
0
100
AcDbCircle
 62
7
  6
CONTINUOUS
 10
100.9161032435
 20
168.7852950451
 40
0.6939725857
100
AcDbArc
 50
101.5142735622
 51
106.1466548141
  0
ARC
  5
34B
100
AcDbEntity
  8
0
100
AcDbCircle
 62
7
  6
CONTINUOUS
 10
100.90367283
 20
168.8287947915
 40
0.6487319322
100
AcDbArc
 50
106.1605275001
 51
108.5411119914
  0
ARC
  5
34C
100
AcDbEntity
  8
0
100
AcDbCircle
 62
7
  6
CONTINUOUS
 10
100.8637663211
 20
168.9621338833
 40
0.5204413566
100
AcDbArc
 50
104.8031550558
 51
173.1398900863
  0
ARC
  5
34D
100
AcDbEntity
  8
0
100
AcDbCircle
 62
7
  6
CONTINUOUS
 10
100.8618736613
 20
168.9622833232
 40
0.5185451471
100
AcDbArc
 50
169.7913028513
 51
169.9669363167
  0
ARC
  5
34E
100
AcDbEntity
  8
0
100
AcDbCircle
 62
7
  6
CONTINUOUS
 10
100.8605849922
 20
168.9624883818
 40
0.5172404611
100
AcDbArc
 50
169.9644345728
 51
173.1367845577
  0
ARC
  5
34F
100
AcDbEntity
  8
0
100
AcDbCircle
 62
7
  6
CONTINUOUS
 10
100.8580449982
 20
168.963014022
 40
0.5146475936
100
AcDbArc
 50
166.8620262906
 51
169.7958185285
  0
ARC
  5
350
100
AcDbEntity
  8
0
100
AcDbCircle
 62
7
  6
CONTINUOUS
 10
100.8522858051
 20
168.9643271285
 40
0.5087405572
100
AcDbArc
 50
164.0002296351
 51
166.8570730206
  0
ARC
  5
351
100
AcDbEntity
  8
0
100
AcDbCircle
 62
7
  6
CONTINUOUS
 10
100.8511435342
 20
168.9646517724
 40
0.507553052
100
AcDbArc
 50
162.9259576207
 51
163.9999158043
  0
ARC
  5
352
100
AcDbEntity
  8
0
100
AcDbCircle
 62
7
  6
CONTINUOUS
 10
100.8493085664
 20
168.965223265
 40
0.505631164
100
AcDbArc
 50
160.6984001614
 51
162.9268125701
  0
CIRCLE
  5
353
100
AcDbEntity
  8
0
100
AcDbCircle
 62
7
  6
CONTINUOUS
 10
106.6970509383
 20
105.8699731903
 40
43.13
  0
CIRCLE
  5
354
100
AcDbEntity
  8
0
100
AcDbCircle
 62
7
  6
CONTINUOUS
 10
106.6970509383
 20
105.8699731903
 40
41.37
  0
CIRCLE
  5
355
100
AcDbEntity
  8
0
100
AcDbCircle
 62
7
  6
CONTINUOUS
 10
106.6970509383
 20
105.8699731903
 40
41.2720914682
  0
CIRCLE
  5
356
100
AcDbEntity
  8
0
100
AcDbCircle
 62
7
  6
CONTINUOUS
 10
106.6970509383
 20
105.8699731903
 40
41.12
  0
CIRCLE
  5
357
100
AcDbEntity
  8
0
100
AcDbCircle
 62
7
  6
CONTINUOUS
 10
106.6970509383
 20
105.8699731903
 40
37.5
  0
CIRCLE
  5
358
100
AcDbEntity
  8
0
100
AcDbCircle
 62
7
  6
CONTINUOUS
 10
106.6970509383
 20
105.8699731903
 40
34.84
  0
CIRCLE
  5
359
100
AcDbEntity
  8
0
100
AcDbCircle
 62
7
  6
CONTINUOUS
 10
106.6970509383
 20
105.8699731903
 40
34.6870270171
  0
CIRCLE
  5
35A
100
AcDbEntity
  8
0
100
AcDbCircle
 62
7
  6
CONTINUOUS
 10
106.6970509383
 20
105.8699731903
 40
34.205262753
  0
CIRCLE
  5
35B
100
AcDbEntity
  8
0
100
AcDbCircle
 62
7
  6
CONTINUOUS
 10
106.6970509383
 20
105.8699731903
 40
28.9724
  0
CIRCLE
  5
35C
100
AcDbEntity
  8
0
100
AcDbCircle
 62
7
  6
CONTINUOUS
 10
106.6970509383
 20
105.8699731903
 40
26.75
  0
CIRCLE
  5
35D
100
AcDbEntity
  8
0
100
AcDbCircle
 62
7
  6
CONTINUOUS
 10
106.6970509383
 20
105.8699731903
 40
24.9
  0
CIRCLE
  5
35E
100
AcDbEntity
  8
0
100
AcDbCircle
 62
7
  6
CONTINUOUS
 10
106.6970509383
 20
105.8699731903
 40
23.05
  0
CIRCLE
  5
35F
100
AcDbEntity
  8
0
100
AcDbCircle
 62
7
  6
CONTINUOUS
 10
106.6970509383
 20
105.8699731903
 40
22.55
  0
CIRCLE
  5
360
100
AcDbEntity
  8
0
100
AcDbCircle
 62
7
  6
CONTINUOUS
 10
106.6970509383
 20
105.8699731903
 40
18.5
  0
CIRCLE
  5
361
100
AcDbEntity
  8
0
100
AcDbCircle
 62
7
  6
CONTINUOUS
 10
106.6970509383
 20
105.8699731903
 40
17.5
  0
ARC
  5
362
100
AcDbEntity
  8
0
100
AcDbCircle
 62
7
  6
CONTINUOUS
 10
153.1970509383
 20
59.3699731903
 40
13.5
100
AcDbArc
 50
270.0
 51
360.0
  0
ARC
  5
363
100
AcDbEntity
  8
0
100
AcDbCircle
 62
7
  6
CONTINUOUS
 10
153.1970509383
 20
59.3699731903
 40
11.5
100
AcDbArc
 50
270.0
 51
360.0
  0
CIRCLE
  5
364
100
AcDbEntity
  8
0
100
AcDbCircle
 62
7
  6
CONTINUOUS
 10
152.6970509383
 20
59.8699731903
 40
10.5
  0
CIRCLE
  5
365
100
AcDbEntity
  8
0
100
AcDbCircle
 62
7
  6
CONTINUOUS
 10
152.6970509383
 20
59.8699731903
 40
5.25
  0
ARC
  5
366
100
AcDbEntity
  8
0
100
AcDbCircle
 62
7
  6
CONTINUOUS
 10
113.6368333611
 20
174.3696105615
 40
5.0
100
AcDbArc
 50
207.3824276472
 51
258.7725024132
  0
ARC
  5
367
100
AcDbEntity
  8
0
100
AcDbCircle
 62
7
  6
CONTINUOUS
 10
111.7433380752
 20
167.1567959151
 40
1.3037146883
100
AcDbArc
 50
357.3210185469
 51
357.7416438689
  0
ARC
  5
368
100
AcDbEntity
  8
0
100
AcDbCircle
 62
7
  6
CONTINUOUS
 10
111.7470509383
 20
167.1565982329
 40
1.3
100
AcDbArc
 50
278.2259338803
 51
360.0
  0
ARC
  5
369
100
AcDbEntity
  8
0
100
AcDbCircle
 62
7
  6
CONTINUOUS
 10
111.7481537961
 20
167.156654685
 40
1.2988971435
100
AcDbArc
 50
357.7394980541
 51
359.9974943381
  0
ARC
  5
36A
100
AcDbEntity
  8
0
100
AcDbCircle
 62
7
  6
CONTINUOUS
 10
111.7517570002
 20
167.1563356155
 40
1.2952834518
100
AcDbArc
 50
355.0986650194
 51
357.3239510867
  0
ARC
  5
36B
100
AcDbEntity
  8
0
100
AcDbCircle
 62
7
  6
CONTINUOUS
 10
111.761225542
 20
167.1556044322
 40
1.2857870878
100
AcDbArc
 50
352.8478989322
 51
354.8243710018
  0
ARC
  5
36C
100
AcDbEntity
  8
0
100
AcDbCircle
 62
7
  6
CONTINUOUS
 10
111.7629382007
 20
167.1554482634
 40
1.284067324
100
AcDbArc
 50
354.8244171802
 51
355.0954873248
  0
ARC
  5
36D
100
AcDbEntity
  8
0
100
AcDbCircle
 62
7
  6
CONTINUOUS
 10
111.7637239268
 20
167.1552906866
 40
1.2832690801
100
AcDbArc
 50
352.2899335542
 51
352.847909917
  0
ARC
  5
36E
100
AcDbEntity
  8
0
100
AcDbCircle
 62
7
  6
CONTINUOUS
 10
111.7737652924
 20
167.1538726077
 40
1.2731282434
100
AcDbArc
 50
350.2037283038
 51
352.2925485709
  0
ARC
  5
36F
100
AcDbEntity
  8
0
100
AcDbCircle
 62
7
  6
CONTINUOUS
 10
111.7858170623
 20
167.1518535241
 40
1.2609086644
100
AcDbArc
 50
349.2041439144
 51
350.2009605662
  0
ARC
  5
370
100
AcDbEntity
  8
0
100
AcDbCircle
 62
7
  6
CONTINUOUS
 10
111.7888174342
 20
167.1512784119
 40
1.2578536724
100
AcDbArc
 50
348.2012953415
 51
349.2042775005
  0
ARC
  5
371
100
AcDbEntity
  8
0
100
AcDbCircle
 62
7
  6
CONTINUOUS
 10
106.6970509383
 20
175.7130100738
 40
1.1569631166
100
AcDbArc
 50
34.5993290359
 51
145.4006709641
  0
ARC
  5
372
100
AcDbEntity
  8
0
100
AcDbCircle
 62
7
  6
CONTINUOUS
 10
112.4714843804
 20
168.7569814714
 40
0.7230170422
100
AcDbArc
 50
76.1931405197
 51
78.4277645082
  0
ARC
  5
373
100
AcDbEntity
  8
0
100
AcDbCircle
 62
7
  6
CONTINUOUS
 10
112.4871579671
 20
168.8186291069
 40
0.65941037
100
AcDbArc
 50
71.5279254294
 51
76.237325411
  0
ARC
  5
374
100
AcDbEntity
  8
0
100
AcDbCircle
 62
7
  6
CONTINUOUS
 10
112.5303355556
 20
168.9621338833
 40
0.5204413566
100
AcDbArc
 50
6.8601099137
 51
75.1968449442
  0
ARC
  5
375
100
AcDbEntity
  8
0
100
AcDbCircle
 62
7
  6
CONTINUOUS
 10
112.5321728709
 20
168.9622711632
 40
0.5186016556
100
AcDbArc
 50
10.0359392545
 51
10.2103577983
  0
ARC
  5
376
100
AcDbEntity
  8
0
100
AcDbCircle
 62
7
  6
CONTINUOUS
 10
112.5335572501
 20
168.9624924224
 40
0.5171999019
100
AcDbArc
 50
6.8633053938
 51
10.0385289045
  0
ARC
  5
377
100
AcDbEntity
  8
0
100
AcDbCircle
 62
7
  6
CONTINUOUS
 10
112.535953529
 20
168.9629937524
 40
0.5147527832
100
AcDbArc
 50
10.2057968106
 51
13.1601997215
  0
ARC
  5
378
100
AcDbEntity
  8
0
100
AcDbCircle
 62
7
  6
CONTINUOUS
 10
112.5419255335
 20
168.9643581741
 40
0.5086268567
100
AcDbArc
 50
13.1652044853
 51
15.9563017528
  0
ARC
  5
379
100
AcDbEntity
  8
0
100
AcDbCircle
 62
7
  6
CONTINUOUS
 10
112.5430428399
 20
168.9646753808
 40
0.5074653969
100
AcDbArc
 50
15.95654641
 51
17.1347652879
  0
ARC
  5
37A
100
AcDbEntity
  8
0
100
AcDbCircle
 62
7
  6
CONTINUOUS
 10
112.5446905244
 20
168.9651884261
 40
0.5057396924
100
AcDbArc
 50
17.1342178251
 51
19.1127727817
  0
ARC
  5
37B
100
AcDbEntity
  8
0
100
AcDbCircle
 62
7
  6
CONTINUOUS
 10
153.1970509383
 20
152.3699731903
 40
13.5
100
AcDbArc
 50
0.0
 51
90.0
  0
ARC
  5
37C
100
AcDbEntity
  8
0
100
AcDbCircle
 62
7
  6
CONTINUOUS
 10
153.1970509383
 20
152.3699731903
 40
11.5
100
AcDbArc
 50
0.0
 51
90.0
  0
CIRCLE
  5
37D
100
AcDbEntity
  8
0
100
AcDbCircle
 62
7
  6
CONTINUOUS
 10
152.6970509383
 20
151.8699731903
 40
10.5
  0
CIRCLE
  5
37E
100
AcDbEntity
  8
0
100
AcDbCircle
 62
7
  6
CONTINUOUS
 10
152.6970509383
 20
151.8699731903
 40
5.25
  0
ARC
  5
37F
100
AcDbEntity
  8
0
100
AcDbCircle
 62
7
  6
CONTINUOUS
 10
220.5298927614
 20
105.8699731903
 40
36.0
100
AcDbArc
 50
254.4781623441
 51
255.4156027073
  0
ARC
  5
380
100
AcDbEntity
  8
0
100
AcDbCircle
 62
7
  6
CONTINUOUS
 10
220.5298927614
 20
105.8699731903
 40
36.0
100
AcDbArc
 50
104.5843972927
 51
105.5218376559
  0
ARC
  5
381
100
AcDbEntity
  8
0
100
AcDbCircle
 62
7
  6
CONTINUOUS
 10
220.5298927614
 20
105.8699731903
 40
36.0
100
AcDbArc
 50
74.4781623441
 51
75.4156027073
  0
ARC
  5
382
100
AcDbEntity
  8
0
100
AcDbCircle
 62
7
  6
CONTINUOUS
 10
220.5298927614
 20
105.8699731903
 40
36.0
100
AcDbArc
 50
284.5843972927
 51
285.5218376559
  0
CIRCLE
  5
383
100
AcDbEntity
  8
0
100
AcDbCircle
 62
7
  6
CONTINUOUS
 10
220.5298927614
 20
79.1199731903
 40
5.556
  0
ARC
  5
384
100
AcDbEntity
  8
0
100
AcDbCircle
 62
7
  6
CONTINUOUS
 10
204.0298927614
 20
87.3699731904
 40
1.0
100
AcDbArc
 50
90.0
 51
180.0
  0
ARC
  5
385
100
AcDbEntity
  8
0
100
AcDbCircle
 62
7
  6
CONTINUOUS
 10
211.0298927614
 20
71.6647104374
 40
0.5
100
AcDbArc
 50
180.0
 51
254.4781623441
  0
ARC
  5
386
100
AcDbEntity
  8
0
100
AcDbCircle
 62
7
  6
CONTINUOUS
 10
203.5298927614
 20
83.3199731903
 40
0.5
100
AcDbArc
 50
180.0
 51
270.0
  0
CIRCLE
  5
387
100
AcDbEntity
  8
0
100
AcDbCircle
 62
7
  6
CONTINUOUS
 10
220.5298927614
 20
132.6199731903
 40
5.556
  0
ARC
  5
388
100
AcDbEntity
  8
0
100
AcDbCircle
 62
7
  6
CONTINUOUS
 10
204.0901103387
 20
174.3696105615
 40
5.0
100
AcDbArc
 50
286.7444925318
 51
332.6175723528
  0
ARC
  5
389
100
AcDbEntity
  8
0
100
AcDbCircle
 62
7
  6
CONTINUOUS
 10
217.9696751841
 20
174.3696105615
 40
5.0
100
AcDbArc
 50
207.3824276472
 51
253.2555074682
  0
ARC
  5
38A
100
AcDbEntity
  8
0
100
AcDbCircle
 62
7
  6
CONTINUOUS
 10
205.9798927614
 20
167.1565982329
 40
1.3
100
AcDbArc
 50
249.7824513426
 51
261.7740661197
  0
ARC
  5
38B
100
AcDbEntity
  8
0
100
AcDbCircle
 62
7
  6
CONTINUOUS
 10
216.0798927614
 20
167.1565982329
 40
1.3
100
AcDbArc
 50
278.2259338803
 51
290.2175486574
  0
ARC
  5
38C
100
AcDbEntity
  8
0
100
AcDbCircle
 62
7
  6
CONTINUOUS
 10
211.0298927614
 20
175.7130100738
 40
1.1569631166
100
AcDbArc
 50
34.5993290359
 51
145.4006709641
  0
ARC
  5
38D
100
AcDbEntity
  8
0
100
AcDbCircle
 62
7
  6
CONTINUOUS
 10
204.0298927614
 20
124.3699731903
 40
1.0
100
AcDbArc
 50
180.0
 51
270.0
  0
ARC
  5
38E
100
AcDbEntity
  8
0
100
AcDbCircle
 62
7
  6
CONTINUOUS
 10
211.0298927614
 20
140.0752359433
 40
0.5
100
AcDbArc
 50
105.5218376559
 51
180.0
  0
ARC
  5
38F
100
AcDbEntity
  8
0
100
AcDbCircle
 62
7
  6
CONTINUOUS
 10
203.5298927614
 20
128.4199731903
 40
0.5
100
AcDbArc
 50
90.0
 51
180.0
  0
ARC
  5
390
100
AcDbEntity
  8
0
100
AcDbCircle
 62
7
  6
CONTINUOUS
 10
225.0298927614
 20
47.8699731903
 40
2.0
100
AcDbArc
 50
270.0
 51
360.0
  0
ARC
  5
391
100
AcDbEntity
  8
0
100
AcDbCircle
 62
7
  6
CONTINUOUS
 10
228.7898927614
 20
62.7399731903
 40
1.76
100
AcDbArc
 50
90.0
 51
180.0
  0
ARC
  5
392
100
AcDbEntity
  8
0
100
AcDbCircle
 62
7
  6
CONTINUOUS
 10
244.9298927614
 20
87.3699731904
 40
1.0
100
AcDbArc
 50
0.0
 51
90.0
  0
ARC
  5
393
100
AcDbEntity
  8
0
100
AcDbCircle
 62
7
  6
CONTINUOUS
 10
230.0298927614
 20
71.6647104374
 40
0.5
100
AcDbArc
 50
285.5218376559
 51
360.0
  0
ARC
  5
394
100
AcDbEntity
  8
0
100
AcDbCircle
 62
7
  6
CONTINUOUS
 10
245.4298927614
 20
83.3199731903
 40
0.5
100
AcDbArc
 50
270.0
 51
360.0
  0
ARC
  5
395
100
AcDbEntity
  8
0
100
AcDbCircle
 62
7
  6
CONTINUOUS
 10
225.0298927614
 20
163.8699731903
 40
2.0
100
AcDbArc
 50
0.0
 51
90.0
  0
ARC
  5
396
100
AcDbEntity
  8
0
100
AcDbCircle
 62
7
  6
CONTINUOUS
 10
228.7898927614
 20
148.9999731903
 40
1.76
100
AcDbArc
 50
180.0
 51
270.0
  0
ARC
  5
397
100
AcDbEntity
  8
0
100
AcDbCircle
 62
7
  6
CONTINUOUS
 10
244.9298927614
 20
124.3699731903
 40
1.0
100
AcDbArc
 50
270.0
 51
360.0
  0
ARC
  5
398
100
AcDbEntity
  8
0
100
AcDbCircle
 62
7
  6
CONTINUOUS
 10
230.0298927614
 20
140.0752359433
 40
0.5
100
AcDbArc
 50
0.0
 51
74.4781623441
  0
ARC
  5
399
100
AcDbEntity
  8
0
100
AcDbCircle
 62
7
  6
CONTINUOUS
 10
245.4298927614
 20
128.4199731903
 40
0.5
100
AcDbArc
 50
0.0
 51
90.0
  0
SPLINE
  5
39A
100
AcDbEntity
  8
0
100
AcDbSpline
 62
7
  6
CONTINUOUS
 70
0
 71
3
 72
33
 73
29
 74
27
 42
0.0000001
 43
0.0000001
 44
0.0000000001
 12
0.0
 22
-7.3654280176
 32
0.0
 13
-0.0
 23
7.3654280176
 33
0.0
 40
0.0
 40
0.0
 40
0.0
 40
0.0
 40
0.0156271405
 40
0.0312551647
 40
0.0624396526
 40
0.0936639934
 40
0.1249100707
 40
0.1561657272
 40
0.1874251767
 40
0.2186862218
 40
0.2499479092
 40
0.3124547449
 40
0.3749685404
 40
0.4374843766
 40
0.5000005723
 40
0.5625167081
 40
0.6250324231
 40
0.6875460942
 40
0.7500527655
 40
0.7813143139
 40
0.8125752195
 40
0.8438345498
 40
0.8750900981
 40
0.906336066
 40
0.9375603067
 40
0.9687448247
 40
0.9843728774
 40
1.0
 40
1.0
 40
1.0
 40
1.0
 10
103.5220509383
 20
167.1565981465
 30
0.0
 10
103.5220509383
 20
167.118231287
 30
0.0
 10
103.528923034
 20
167.041321737
 30
0.0
 10
103.5687955155
 20
166.8926430334
 30
0.0
 10
103.6624311425
 20
166.7221212515
 30
0.0
 10
103.8204078986
 20
166.5528362988
 30
0.0
 10
104.0061456943
 20
166.415369289
 30
0.0
 10
104.2087173042
 20
166.3048930442
 30
0.0
 10
104.4216534411
 20
166.2164744058
 30
0.0
 10
104.6410774483
 20
166.1460226989
 30
0.0
 10
104.9390736512
 20
166.0716578656
 30
0.0
 10
105.3180686547
 20
166.008342378
 30
0.0
 10
105.7765631299
 20
165.964038885
 30
0.0
 10
106.2365787192
 20
165.9413083111
 30
0.0
 10
106.6970548002
 20
165.9343651426
 30
0.0
 10
107.157530516
 20
165.9413107599
 30
0.0
 10
107.6175453774
 20
165.964040531
 30
0.0
 10
108.0760388878
 20
166.0083434357
 30
0.0
 10
108.4550329951
 20
166.071658183
 30
0.0
 10
108.7530278916
 20
166.1460237923
 30
0.0
 10
108.9724508478
 20
166.2164755359
 30
0.0
 10
109.1853860861
 20
166.3048939785
 30
0.0
 10
109.3879569308
 20
166.4153698909
 30
0.0
 10
109.573694072
 20
166.5528364653
 30
0.0
 10
109.731670558
 20
166.7221210448
 30
0.0
 10
109.825306241
 20
166.8926426867
 30
0.0
 10
109.8651787873
 20
167.0413214759
 30
0.0
 10
109.8720509383
 20
167.1182310479
 30
0.0
 10
109.8720509383
 20
167.1565978634
 30
0.0
 11
103.5220509383
 21
167.1565981465
 31
0.0
 11
103.5321943326
 21
167.0419453892
 31
0.0
 11
103.5617900706
 21
166.9307081031
 31
0.0
 11
103.6699704407
 21
166.7280922802
 31
0.0
 11
103.8249738562
 21
166.5581951533
 31
0.0
 11
104.0089196388
 21
166.419888588
 31
0.0
 11
104.2104308681
 21
166.3085761369
 31
0.0
 11
104.4227287753
 21
166.2194711478
 31
0.0
 11
104.641758778
 21
166.1484685362
 31
0.0
 11
104.8650379853
 21
166.0922183233
 31
0.0
 11
105.3186693707
 21
166.0136234802
 31
0.0
 11
105.7768078358
 21
165.9676350783
 31
0.0
 11
106.2366536288
 21
165.9439396194
 31
0.0
 11
106.6970549361
 21
165.936679945
 31
0.0
 11
107.1574557717
 21
165.9439415327
 31
0.0
 11
107.6173006825
 21
165.9676367635
 31
0.0
 11
108.0754382928
 21
166.0136245071
 31
0.0
 11
108.5290685094
 21
166.0922189985
 31
0.0
 11
108.7523465778
 21
166.1484695451
 31
0.0
 11
108.9713754801
 21
166.2194722173
 31
0.0
 11
109.183672509
 21
166.308577032
 31
0.0
 11
109.3851830004
 21
166.4198891701
 31
0.0
 11
109.5691281227
 21
166.5581952738
 31
0.0
 11
109.7241310959
 21
166.7280918048
 31
0.0
 11
109.8323116858
 21
166.9307077623
 31
0.0
 11
109.861907516
 21
167.0419452412
 31
0.0
 11
109.8720509383
 21
167.1565978634
 31
0.0
  0
SPLINE
  5
39B
100
AcDbEntity
  8
0
100
AcDbSpline
 62
7
  6
CONTINUOUS
 70
0
 71
3
 72
17
 73
13
 74
11
 42
0.0000001
 43
0.0000001
 44
0.0000000001
 12
-0.2384494955
 22
0.9910046792
 32
0.0
 13
-1.0139761658
 23
0.103926759
 33
0.0
 40
0.0
 40
0.0
 40
0.0
 40
0.0
 40
0.0624968532
 40
0.1250155324
 40
0.2498236878
 40
0.3747867345
 40
0.4997994642
 40
0.5623349645
 40
0.6248672465
 40
0.7499081928
 40
0.8749555733
 40
1.0
 40
1.0
 40
1.0
 40
1.0
 10
109.8720509383
 20
169.0242983336
 30
0.0
 10
109.8670834906
 20
169.0449432249
 30
0.0
 10
109.8522943067
 20
169.0851892954
 30
0.0
 10
109.8076387727
 20
169.1578516564
 30
0.0
 10
109.7312805607
 20
169.2335178064
 30
0.0
 10
109.6239063661
 20
169.3028890373
 30
0.0
 10
109.5271764411
 20
169.3473798959
 30
0.0
 10
109.4473860272
 20
169.3766457179
 30
0.0
 10
109.3663051831
 20
169.402177609
 30
0.0
 10
109.2631196749
 20
169.4278169481
 30
0.0
 10
109.13761501
 20
169.4504154385
 30
0.0
 10
109.0532609286
 20
169.460969617
 30
0.0
 10
109.0109969058
 20
169.4653014377
 30
0.0
 11
109.8720509383
 21
169.0242983336
 31
0.0
 11
109.850408269
 21
169.0842114251
 31
0.0
 11
109.8174007663
 21
169.1387212709
 31
0.0
 11
109.7286999868
 21
169.2299131024
 31
0.0
 11
109.6224820409
 21
169.3002104745
 31
0.0
 11
109.5070437187
 21
169.3541629503
 31
0.0
 11
109.4472247965
 21
169.3761788662
 31
0.0
 11
109.3864467319
 21
169.3953781551
 31
0.0
 11
109.2628408119
 21
169.4264552024
 31
0.0
 11
109.137443218
 21
169.4492876696
 31
0.0
 11
109.0109969058
 21
169.4653014377
 31
0.0
  0
SPLINE
  5
39C
100
AcDbEntity
  8
0
100
AcDbSpline
 62
7
  6
CONTINUOUS
 70
0
 71
3
 72
13
 73
9
 74
7
 42
0.0000001
 43
0.0000001
 44
0.0000000001
 12
2.3008558954
 22
0.3542747532
 32
0.0
 13
2.3008558954
 23
-0.3542747532
 33
0.0
 40
0.0
 40
0.0
 40
0.0
 40
0.0
 40
0.2507183402
 40
0.3755185083
 40
0.5000000001
 40
0.6244814919
 40
0.7492816599
 40
1.0
 40
1.0
 40
1.0
 40
1.0
 10
110.3025779546
 20
169.4653014377
 30
0.0
 10
110.4948668783
 20
169.4949091637
 30
0.0
 10
110.7828897461
 20
169.5401912987
 30
0.0
 10
111.1694732924
 20
169.5753722072
 30
0.0
 10
111.4595509384
 20
169.5847249961
 30
0.0
 10
111.7496285844
 20
169.5753722056
 30
0.0
 10
112.1362121305
 20
169.5401912968
 30
0.0
 10
112.4242349985
 20
169.4949091637
 30
0.0
 10
112.6165239221
 20
169.4653014377
 30
0.0
 11
110.3025779546
 21
169.4653014377
 31
0.0
 11
110.8805013017
 21
169.5469680371
 31
0.0
 11
111.1699029408
 21
169.5725618861
 31
0.0
 11
111.4595509384
 21
169.5816100576
 31
0.0
 11
111.749198936
 21
169.5725618848
 31
0.0
 11
112.038600575
 21
169.5469680355
 31
0.0
 11
112.6165239221
 21
169.4653014377
 31
0.0
  0
SPLINE
  5
39D
100
AcDbEntity
  8
0
100
AcDbSpline
 62
7
  6
CONTINUOUS
 70
0
 71
3
 72
13
 73
9
 74
7
 42
0.0000001
 43
0.0000001
 44
0.0000000001
 12
2.3008558958
 22
0.3542747533
 32
0.0
 13
2.3008558958
 23
-0.3542747533
 33
0.0
 40
0.0
 40
0.0
 40
0.0
 40
0.0
 40
0.2507183404
 40
0.3755185084
 40
0.4999999999
 40
0.6244814915
 40
0.7492816595
 40
1.0
 40
1.0
 40
1.0
 40
1.0
 10
100.7775779546
 20
169.4653014377
 30
0.0
 10
100.9698668785
 20
169.4949091638
 30
0.0
 10
101.2578897465
 20
169.5401912982
 30
0.0
 10
101.6444732927
 20
169.5753722073
 30
0.0
 10
101.9345509383
 20
169.5847249974
 30
0.0
 10
102.2246285839
 20
169.5753722088
 30
0.0
 10
102.6112121303
 20
169.5401913001
 30
0.0
 10
102.8992349981
 20
169.4949091638
 30
0.0
 10
103.0915239221
 20
169.4653014377
 30
0.0
 11
100.7775779546
 21
169.4653014377
 31
0.0
 11
101.3555013023
 21
169.5469680369
 31
0.0
 11
101.6449029412
 21
169.5725618863
 31
0.0
 11
101.9345509383
 21
169.581610059
 31
0.0
 11
102.2241989354
 21
169.5725618876
 31
0.0
 11
102.5136005744
 21
169.5469680384
 31
0.0
 11
103.0915239221
 21
169.4653014377
 31
0.0
  0
SPLINE
  5
39E
100
AcDbEntity
  8
0
100
AcDbSpline
 62
7
  6
CONTINUOUS
 70
0
 71
3
 72
13
 73
9
 74
7
 42
0.0000001
 43
0.0000001
 44
0.0000000001
 12
4.6212523528
 22
0.3557791342
 32
0.0
 13
4.6212523528
 23
-0.3557791342
 33
0.0
 40
0.0
 40
0.0
 40
0.0
 40
0.0
 40
0.2499992096
 40
0.3749998432
 40
0.4999999999
 40
0.6250001567
 40
0.7500007904
 40
1.0
 40
1.0
 40
1.0
 40
1.0
 10
104.3831049709
 20
169.4653014377
 30
0.0
 10
104.768208116
 20
169.4949496051
 30
0.0
 10
105.3458776042
 20
169.5403179339
 30
0.0
 10
106.1176629564
 20
169.5753913944
 30
0.0
 10
106.6970509381
 20
169.5847193852
 30
0.0
 10
107.2764389199
 20
169.5753913944
 30
0.0
 10
108.0482242724
 20
169.540317934
 30
0.0
 10
108.6258937606
 20
169.4949496051
 30
0.0
 10
109.0109969058
 20
169.4653014377
 30
0.0
 11
104.3831049709
 21
169.4653014377
 31
0.0
 11
105.538951666
 21
169.5469680376
 31
0.0
 11
106.1177549439
 21
169.5725618868
 31
0.0
 11
106.6970509381
 21
169.5816100589
 31
0.0
 11
107.2763469325
 21
169.5725618868
 31
0.0
 11
107.8551502106
 21
169.5469680377
 31
0.0
 11
109.0109969058
 21
169.4653014377
 31
0.0
  0
SPLINE
  5
39F
100
AcDbEntity
  8
0
100
AcDbSpline
 62
7
  6
CONTINUOUS
 70
0
 71
3
 72
11
 73
7
 74
5
 42
0.0000001
 43
0.0000001
 44
0.0000000001
 12
-0.441617745
 22
-0.1481880491
 32
0.0
 13
-0.1539812845
 23
-0.4396313167
 33
0.0
 40
0.0
 40
0.0
 40
0.0
 40
0.0
 40
0.2107566581
 40
0.4370123834
 40
0.6924273937
 40
1.0
 40
1.0
 40
1.0
 40
1.0
 10
100.6973857842
 20
169.4438547679
 30
0.0
 10
100.6663611575
 20
169.4334442286
 30
0.0
 10
100.6035651452
 20
169.4067817008
 30
0.0
 10
100.5135831459
 20
169.3465690863
 30
0.0
 10
100.4289415597
 20
169.2563343234
 30
0.0
 10
100.3878848676
 20
169.1774278171
 30
0.0
 10
100.3720980592
 20
169.1323549671
 30
0.0
 11
100.6973857842
 21
169.4438547679
 31
0.0
 11
100.6071890543
 21
169.4050899511
 31
0.0
 11
100.5197857848
 21
169.3461956644
 31
0.0
 11
100.4385117274
 21
169.2593049209
 31
0.0
 11
100.3720980592
 21
169.1323549671
 31
0.0
  0
SPLINE
  5
3A0
100
AcDbEntity
  8
0
100
AcDbSpline
 62
7
  6
CONTINUOUS
 70
0
 71
3
 72
23
 73
19
 74
17
 42
0.0000001
 43
0.0000001
 44
0.0000000001
 12
0.9692338656
 22
-4.1242455953
 32
0.0
 13
0.0
 23
4.2366043026
 33
0.0
 40
0.0
 40
0.0
 40
0.0
 40
0.0
 40
0.0866929993
 40
0.1567261286
 40
0.2171236685
 40
0.2727707667
 40
0.3262555734
 40
0.3788237763
 40
0.4310375884
 40
0.4831494385
 40
0.5353120881
 40
0.5877285907
 40
0.6408331485
 40
0.6956015609
 40
0.754107214
 40
0.8204095135
 40
0.9011725184
 40
1.0
 40
1.0
 40
1.0
 40
1.0
 10
100.380750659
 20
166.8636876993
 30
0.0
 10
100.408759256
 20
166.7445066257
 30
0.0
 10
100.4921125218
 20
166.5345654324
 30
0.0
 10
100.6886027129
 20
166.294036206
 30
0.0
 10
100.9044997673
 20
166.1398891931
 30
0.0
 10
101.1252033226
 20
166.0439028832
 30
0.0
 10
101.3466814832
 20
165.9857952921
 30
0.0
 10
101.5680458415
 20
165.9528301907
 30
0.0
 10
101.7892307724
 20
165.9372965285
 30
0.0
 10
102.0103365728
 20
165.9352913056
 30
0.0
 10
102.231484798
 20
165.9463088142
 30
0.0
 10
102.4527867132
 20
165.9731604477
 30
0.0
 10
102.6742616078
 20
166.022263642
 30
0.0
 10
102.8954141935
 20
166.1045905765
 30
0.0
 10
103.1136529848
 20
166.2376545321
 30
0.0
 10
103.3190691295
 20
166.4479427271
 30
0.0
 10
103.481132953
 20
166.7610067481
 30
0.0
 10
103.5220509383
 20
167.0170335714
 30
0.0
 10
103.5220509383
 20
167.1565978826
 30
0.0
 11
100.380750659
 21
166.8636876993
 31
0.0
 11
100.5188660019
 21
166.5233619139
 31
0.0
 11
100.7069221266
 21
166.2938682089
 31
0.0
 11
100.9144629218
 21
166.1441964446
 31
0.0
 11
101.1299428447
 21
166.0485476175
 31
0.0
 11
101.348719
 21
165.9895406889
 31
0.0
 11
101.5688341555
 21
165.9556384346
 31
0.0
 11
101.7894567777
 21
165.9395388803
 31
0.0
 11
102.0102242488
 21
165.9374568648
 31
0.0
 11
102.2309206991
 21
165.9488920987
 31
0.0
 11
102.4512551048
 21
165.9765857357
 31
0.0
 11
102.6705899912
 21
166.0266812142
 31
0.0
 11
102.8874300601
 21
166.1092601222
 31
0.0
 11
103.0982524438
 21
166.2396101522
 31
0.0
 11
103.2944513305
 21
166.4406298049
 31
0.0
 11
103.4535643731
 21
166.7435441777
 31
0.0
 11
103.5220509383
 21
167.1565978826
 31
0.0
  0
SPLINE
  5
3A1
100
AcDbEntity
  8
0
100
AcDbSpline
 62
7
  6
CONTINUOUS
 70
0
 71
3
 72
13
 73
9
 74
7
 42
0.0000001
 43
0.0000001
 44
0.0000000001
 12
-0.0788141666
 22
0.6551090222
 32
0.0
 13
-0.6463918884
 23
0.1325029449
 33
0.0
 40
0.0
 40
0.0
 40
0.0
 40
0.0
 40
0.1782881934
 40
0.3319705346
 40
0.4654949734
 40
0.5852354011
 40
0.8002862306
 40
1.0
 40
1.0
 40
1.0
 40
1.0
 10
103.5220509383
 20
169.0242983336
 30
0.0
 10
103.5173670599
 20
169.0632310683
 30
0.0
 10
103.5003276891
 20
169.1350361242
 30
0.0
 10
103.4553414165
 20
169.2277637689
 30
0.0
 10
103.4010790487
 20
169.2995936056
 30
0.0
 10
103.3254975689
 20
169.3701735061
 30
0.0
 10
103.2226044508
 20
169.4301813697
 30
0.0
 10
103.1345550423
 20
169.4564805502
 30
0.0
 10
103.0915239221
 20
169.4653014377
 30
0.0
 11
103.5220509383
 21
169.0242983336
 31
0.0
 11
103.4947258523
 21
169.1387212709
 31
0.0
 11
103.4503754626
 21
169.2299131024
 31
0.0
 11
103.3972664896
 21
169.3002104745
 31
0.0
 11
103.3395473285
 21
169.3541629503
 31
0.0
 11
103.2174458751
 21
169.4264552024
 31
0.0
 11
103.0915239221
 21
169.4653014377
 31
0.0
  0
SPLINE
  5
3A2
100
AcDbEntity
  8
0
100
AcDbSpline
 62
7
  6
CONTINUOUS
 70
0
 71
3
 72
13
 73
9
 74
7
 42
0.0000001
 43
0.0000001
 44
0.0000000001
 12
-0.6463919616
 22
-0.1325029599
 32
0.0
 13
-0.0788141755
 23
-0.6551090964
 33
0.0
 40
0.0
 40
0.0
 40
0.0
 40
0.0
 40
0.1997151125
 40
0.4147678278
 40
0.5345095426
 40
0.6680350393
 40
0.8217175573
 40
1.0
 40
1.0
 40
1.0
 40
1.0
 10
110.3025779546
 20
169.4653014377
 30
0.0
 10
110.2595465402
 20
169.4564804898
 30
0.0
 10
110.1714963697
 20
169.4301812281
 30
0.0
 10
110.0686026053
 20
169.3701724602
 30
0.0
 10
109.9930205199
 20
169.2995917408
 30
0.0
 10
109.9387590529
 20
169.2277605211
 30
0.0
 10
109.8937732754
 20
169.1350337872
 30
0.0
 10
109.8767346662
 20
169.0632298169
 30
0.0
 10
109.8720509383
 20
169.0242983336
 30
0.0
 11
110.3025779546
 21
169.4653014377
 31
0.0
 11
110.1766551321
 21
169.4264549639
 31
0.0
 11
110.05455277
 21
169.3541617727
 31
0.0
 11
109.996833222
 21
169.3002084541
 31
0.0
 11
109.9437246735
 21
169.2299098738
 31
0.0
 11
109.8993746908
 21
169.1387177019
 31
0.0
 11
109.8720509383
 21
169.0242983336
 31
0.0
  0
SPLINE
  5
3A3
100
AcDbEntity
  8
0
100
AcDbSpline
 62
7
  6
CONTINUOUS
 70
0
 71
3
 72
23
 73
19
 74
17
 42
0.0000001
 43
0.0000001
 44
0.0000000001
 12
0.0
 22
-4.2675126907
 32
0.0
 13
0.8726161463
 23
4.177344327
 33
0.0
 40
0.0
 40
0.0
 40
0.0
 40
0.0
 40
0.0985289826
 40
0.1789564337
 40
0.2449635689
 40
0.3032318872
 40
0.3578081594
 40
0.4107493235
 40
0.4630184777
 40
0.5150423246
 40
0.5670209884
 40
0.6191094102
 40
0.6715705351
 40
0.7249940286
 40
0.7806876483
 40
0.8413660898
 40
0.9121233789
 40
1.0
 40
1.0
 40
1.0
 40
1.0
 10
109.8720509383
 20
167.1565981348
 30
0.0
 10
109.8720509383
 20
167.0164402402
 30
0.0
 10
109.9132977084
 20
166.7594301901
 30
0.0
 10
110.0766002116
 20
166.4455740746
 30
0.0
 10
110.2833288577
 20
166.2352905117
 30
0.0
 10
110.5027600984
 20
166.102596411
 30
0.0
 10
110.7250138955
 20
166.020738858
 30
0.0
 10
110.947548133
 20
165.9721053867
 30
0.0
 10
111.1698935361
 20
165.9456942563
 30
0.0
 10
111.392082318
 20
165.9351165848
 30
0.0
 10
111.6142319407
 20
165.9376423423
 30
0.0
 10
111.8364686686
 20
165.9539190495
 30
0.0
 10
112.0588959727
 20
165.9880633917
 30
0.0
 10
112.2814368818
 20
166.0481144561
 30
0.0
 10
112.5031087727
 20
166.1473485937
 30
0.0
 10
112.719480118
 20
166.3068819257
 30
0.0
 10
112.9145484548
 20
166.5556457856
 30
0.0
 10
112.9945343361
 20
166.7717165039
 30
0.0
 10
113.0200951889
 20
166.8940801387
 30
0.0
 11
109.8720509383
 21
167.1565981348
 31
0.0
 11
109.9411302086
 21
166.7418377544
 31
0.0
 11
110.1013763009
 21
166.4383172347
 31
0.0
 11
110.2987517659
 21
166.237344375
 31
0.0
 11
110.5107113469
 21
166.1073239021
 31
0.0
 11
110.7286489372
 21
166.0251782077
 31
0.0
 11
110.9490543154
 21
165.9755342847
 31
0.0
 11
111.1704423303
 21
165.9482801355
 31
0.0
 11
111.3921828725
 21
165.9372960691
 31
0.0
 11
111.6139869584
 21
165.9399201386
 31
0.0
 11
111.8356338267
 21
165.9567908573
 31
0.0
 11
112.0567426546
 21
165.9918974997
 31
0.0
 11
112.2764329594
 21
166.0528362323
 31
0.0
 11
112.4926227057
 21
166.1515811432
 31
0.0
 11
112.7003521606
 21
166.3061822893
 31
0.0
 11
112.887163229
 21
166.5434164238
 31
0.0
 11
113.0200951889
 21
166.8940801387
 31
0.0
  0
SPLINE
  5
3A4
100
AcDbEntity
  8
0
100
AcDbSpline
 62
7
  6
CONTINUOUS
 70
0
 71
3
 72
11
 73
7
 74
5
 42
0.0000001
 43
0.0000001
 44
0.0000000001
 12
-0.1532858868
 22
0.4423214601
 32
0.0
 13
-0.4439651595
 23
0.1484579881
 33
0.0
 40
0.0
 40
0.0
 40
0.0
 40
0.0
 40
0.3079215235
 40
0.5633268896
 40
0.7894297507
 40
1.0
 40
1.0
 40
1.0
 40
1.0
 10
113.0225517931
 20
169.130782038
 30
0.0
 10
113.0068184518
 20
169.1761821373
 30
0.0
 10
112.965725199
 20
169.2556481459
 30
0.0
 10
112.8807257748
 20
169.3464455963
 30
0.0
 10
112.7903321227
 20
169.406922407
 30
0.0
 10
112.7272490924
 20
169.4336451852
 30
0.0
 10
112.696087141
 20
169.4440654637
 30
0.0
 11
113.0225517931
 21
169.130782038
 31
0.0
 11
112.9560496702
 21
169.2586719557
 31
0.0
 11
112.8744629517
 21
169.346072423
 31
0.0
 11
112.7866818089
 21
169.4052138106
 31
0.0
 11
112.696087141
 21
169.4440654637
 31
0.0
  0
SPLINE
  5
3A5
100
AcDbEntity
  8
0
100
AcDbSpline
 62
7
  6
CONTINUOUS
 70
0
 71
3
 72
17
 73
13
 74
11
 42
0.0000001
 43
0.0000001
 44
0.0000000001
 12
-1.013976185
 22
-0.103926761
 32
0.0
 13
-0.2384495
 23
-0.9910046979
 33
0.0
 40
0.0
 40
0.0
 40
0.0
 40
0.0
 40
0.1250451274
 40
0.2500935258
 40
0.3751353744
 40
0.4376679232
 40
0.5002042121
 40
0.6252179774
 40
0.7501809812
 40
0.8749888169
 40
0.9375051604
 40
1.0
 40
1.0
 40
1.0
 40
1.0
 10
104.3831049709
 20
169.4653014377
 30
0.0
 10
104.3408407104
 20
169.4609695927
 30
0.0
 10
104.2564860351
 20
169.4504154085
 30
0.0
 10
104.1309805215
 20
169.4278166676
 30
0.0
 10
104.0277942027
 20
169.4021773758
 30
0.0
 10
103.9467130072
 20
169.3766443971
 30
0.0
 10
103.8669217267
 20
169.3473789218
 30
0.0
 10
103.7701913138
 20
169.302887402
 30
0.0
 10
103.6628180949
 20
169.2335143711
 30
0.0
 10
103.5864606007
 20
169.1578487845
 30
0.0
 10
103.5418067525
 20
169.0851872462
 30
0.0
 10
103.5270182261
 20
169.0449425601
 30
0.0
 10
103.5220509383
 20
169.0242983336
 30
0.0
 11
104.3831049709
 21
169.4653014377
 31
0.0
 11
104.2566579431
 21
169.4492876159
 31
0.0
 11
104.1312593258
 21
169.4264549639
 31
0.0
 11
104.0076525484
 21
169.3953775451
 31
0.0
 11
103.9468743467
 21
169.3761777836
 31
0.0
 11
103.8870546017
 21
169.3541617727
 31
0.0
 11
103.7716155056
 21
169.3002084541
 31
0.0
 11
103.6653984087
 21
169.2299098738
 31
0.0
 11
103.5766984432
 21
169.1387177019
 31
0.0
 11
103.5436927016
 21
169.0842095714
 31
0.0
 11
103.5220509383
 21
169.0242983336
 31
0.0
  0
ENDSEC
  0
SECTION
  2
OBJECTS
  0
DICTIONARY
  5
3A6
100
AcDbDictionary
  3
ACAD_GROUP
350
3A7
  3
ACAD_MLINESTYLE
350
3A8
  0
DICTIONARY
  5
3A7
102
{ACAD_REACTORS
330
3A6
102
}
100
AcDbDictionary
  0
DICTIONARY
  5
3A8
102
{ACAD_REACTORS
330
3A6
102
}
100
AcDbDictionary
  3
STANDARD
350
3A9
  0
MLINESTYLE
  5
3A9
102
{ACAD_REACTORS
330
3A8
102
}
100
AcDbMlineStyle
  2
STANDARD
 70
0
  3

 62
256
 51
90.0
 52
90.0
 71
2
 49
0.5
 62
256
  6
BYLAYER
 49
-0.5
 62
256
  6
BYLAYER
  0
ENDSEC
  0
EOF
