  0
SECTION
  2
HEADER
  9
$ACADVER
  1
AC1014
  9
$DWGCODEPAGE
  3
ANSI_1252
  9
$EXTMAX
 10
420.0
 20
297.0
 30
0.0
  9
$EXTMIN
 10
0.0
 20
-0.0
 30
0.0
  9
$LIMMIN
 10
0.0
 20
-0.0
  9
$LIMMAX
 10
420.0
 20
297.0
  9
$VIEWCTR
 10
210.0
 20
148.5
  9
$VIEWSIZE
 40
297.0
  9
$CLAYER
  8
0
  9
$LTSCALE
 40
23.1
  9
$CELTYPE
  6
BYLAYER
  9
$DIMSCALE
 40
1.0
  9
$DIMASZ
 40
3.5
  9
$DIMEXO
 40
2.625
  9
$DIMDLI
 40
15.96
  9
$DIMEXE
 40
7.56
  9
$DIMCEN
 40
3.78
  9
$DIMLFAC
 40
1.0
  9
$DIMBLK
  1
_ARROW_FILLED
  9
$DIMTXT
 40
3.5
  9
$DIMTOL
 70
1
  9
$DIMLIM
 70
0
  9
$DIMTFAC
 40
1.0
  9
$DIMTP
 40
0.01
  9
$DIMTM
 40
0.01
  9
$PDMODE
 70
3
  9
$PDSIZE
 40
0.3125
  9
$HANDSEED
  5
331
  9
$TILEMODE
 70
1
  9
$MEASUREMENT
 70
1
  0
ENDSEC
  0
SECTION
  2
CLASSES
  0
ENDSEC
  0
SECTION
  2
TABLES
  0
TABLE
  2
VPORT
  5
8
100
AcDbSymbolTable
 70
2
  0
VPORT
  5
1F4
100
AcDbSymbolTableRecord
100
AcDbViewportTableRecord
  2
*ACTIVE
 70
0
 10
0.0
 20
0.0
 11
1.0
 21
1.0
 12
210.0
 22
148.5
 13
0.0
 23
0.0
 14
1.0
 24
1.0
 15
0.0
 25
0.0
 16
0.0
 26
0.0
 36
1.0
 17
0.0
 27
0.0
 37
0.0
 40
297.0
 41
1.4141414141
 42
50.0
 43
0.0
 44
0.0
 50
0.0
 51
0.0
 71
0
 72
100
 73
1
 74
1
 75
0
 76
0
 77
0
 78
0
  0
ENDTAB
  0
TABLE
  2
LTYPE
  5
5
100
AcDbSymbolTable
 70
6
  0
LTYPE
  5
14
100
AcDbSymbolTableRecord
100
AcDbLinetypeTableRecord
  2
BYBLOCK
 70
0
  3

 72
65
 73
0
 40
0.0
  0
LTYPE
  5
15
100
AcDbSymbolTableRecord
100
AcDbLinetypeTableRecord
  2
BYLAYER
 70
0
  3

 72
65
 73
0
 40
0.0
  0
LTYPE
  5
16
100
AcDbSymbolTableRecord
100
AcDbLinetypeTableRecord
  2
CONTINUOUS
 70
64
  3
Solid line
 72
65
 73
0
 40
0.0
  0
LTYPE
  5
1F5
100
AcDbSymbolTableRecord
100
AcDbLinetypeTableRecord
  2
CENTER
 70
64
  3
____ _ ____ _ ____ _ ____ _ ____ _ ____ _ ____
 72
65
 73
4
 40
0.6
 49
0.375
 74
0
 49
-0.075
 74
0
 49
0.075
 74
0
 49
-0.075
 74
0
  0
LTYPE
  5
1F6
100
AcDbSymbolTableRecord
100
AcDbLinetypeTableRecord
  2
HIDDEN
 70
64
  3
- - - - - - - - - - - - - - - - - - - -
 72
65
 73
2
 40
0.2
 49
0.1
 74
0
 49
-0.1
 74
0
  0
LTYPE
  5
1F7
100
AcDbSymbolTableRecord
100
AcDbLinetypeTableRecord
  2
PHANTOM
 70
64
  3
_____ _ _ _____ _ _ _____ _ _ _____
 72
65
 73
6
 40
0.8
 49
0.45
 74
0
 49
-0.05
 74
0
 49
0.1
 74
0
 49
-0.05
 74
0
 49
0.1
 74
0
 49
-0.05
 74
0
  0
LTYPE
  5
1F8
100
AcDbSymbolTableRecord
100
AcDbLinetypeTableRecord
  2
DOT
 70
64
  3
. . . . . . . . . . . . . . . . . . . .
 72
65
 73
2
 40
0.2
 49
0.1
 74
0
 49
-0.1
 74
0
  0
LTYPE
  5
1F9
100
AcDbSymbolTableRecord
100
AcDbLinetypeTableRecord
  2
DASHED
 70
64
  3
- - - - - - - - - - - - - - - - - - - -
 72
65
 73
2
 40
0.2
 49
0.1
 74
0
 49
-0.1
 74
0
  0
ENDTAB
  0
TABLE
  2
LAYER
  5
2
100
AcDbSymbolTable
 70
36
  0
LAYER
  5
10
100
AcDbSymbolTableRecord
100
AcDbLayerTableRecord
  2
0
 70
0
 62
7
  6
CONTINUOUS
  0
LAYER
  5
1FA
100
AcDbSymbolTableRecord
100
AcDbLayerTableRecord
  2
DEFAULT_1
 70
0
 62
7
  6
CENTER
  0
LAYER
  5
1FB
100
AcDbSymbolTableRecord
100
AcDbLayerTableRecord
  2
DEFAULT_2
 70
0
 62
8
  6
HIDDEN
  0
LAYER
  5
1FC
100
AcDbSymbolTableRecord
100
AcDbLayerTableRecord
  2
DEFAULT_3
 70
0
 62
7
  6
PHANTOM
  0
LAYER
  5
1FD
100
AcDbSymbolTableRecord
100
AcDbLayerTableRecord
  2
ASSI
 70
0
 62
7
  6
CONTINUOUS
  0
LAYER
  5
1FE
100
AcDbSymbolTableRecord
100
AcDbLayerTableRecord
  2
PIANI
 70
0
 62
7
  6
CONTINUOUS
  0
ENDTAB
  0
TABLE
  2
STYLE
  5
3
100
AcDbSymbolTable
 70
1
  0
STYLE
  5
11
100
AcDbSymbolTableRecord
100
AcDbTextStyleTableRecord
  2
STANDARD
 70
0
 40
0.0
 41
1.0
 50
0.0
 71
0
 42
0.2
  3
arial.ttf
  4

  0
STYLE
  5
1FF
100
AcDbSymbolTableRecord
100
AcDbTextStyleTableRecord
  2
TEXTSTYLE_1
 70
0
 40
0.0
 41
0.8
 50
0.0
 71
0
 42
0.2
  3
gdt
  4

  0
ENDTAB
  0
TABLE
  2
VIEW
  5
6
100
AcDbSymbolTable
 70
0
  0
ENDTAB
  0
TABLE
  2
UCS
  5
7
100
AcDbSymbolTable
 70
0
  0
ENDTAB
  0
TABLE
  2
APPID
  5
9
100
AcDbSymbolTable
 70
1
  0
APPID
  5
200
100
AcDbSymbolTableRecord
100
AcDbRegAppTableRecord
  2
ACAD
 70
0
  0
ENDTAB
  0
TABLE
  2
BLOCK_RECORD
  5
1
100
AcDbSymbolTable
 70
0
  0
BLOCK_RECORD
  5
1F
100
AcDbSymbolTableRecord
100
AcDbBlockTableRecord
  2
*MODEL_SPACE
  0
BLOCK_RECORD
  5
1B
100
AcDbSymbolTableRecord
100
AcDbBlockTableRecord
  2
*PAPER_SPACE
  0
BLOCK_RECORD
  5
201
100
AcDbSymbolTableRecord
100
AcDbBlockTableRecord
  2
_ARROW_FILLED
  0
BLOCK_RECORD
  5
202
100
AcDbSymbolTableRecord
100
AcDbBlockTableRecord
  2
*D0
  0
BLOCK_RECORD
  5
203
100
AcDbSymbolTableRecord
100
AcDbBlockTableRecord
  2
*D1
  0
BLOCK_RECORD
  5
204
100
AcDbSymbolTableRecord
100
AcDbBlockTableRecord
  2
*D2
  0
BLOCK_RECORD
  5
205
100
AcDbSymbolTableRecord
100
AcDbBlockTableRecord
  2
*D3
  0
BLOCK_RECORD
  5
206
100
AcDbSymbolTableRecord
100
AcDbBlockTableRecord
  2
*D4
  0
BLOCK_RECORD
  5
207
100
AcDbSymbolTableRecord
100
AcDbBlockTableRecord
  2
*D5
  0
BLOCK_RECORD
  5
208
100
AcDbSymbolTableRecord
100
AcDbBlockTableRecord
  2
*D6
  0
BLOCK_RECORD
  5
209
100
AcDbSymbolTableRecord
100
AcDbBlockTableRecord
  2
*D7
  0
BLOCK_RECORD
  5
20A
100
AcDbSymbolTableRecord
100
AcDbBlockTableRecord
  2
*D8
  0
ENDTAB
  0
TABLE
  2
DIMSTYLE
  5
A
100
AcDbSymbolTable
 70
1
  0
DIMSTYLE
105
20B
100
AcDbSymbolTableRecord
100
AcDbDimStyleTableRecord
  2
STANDARD
 70
0
  3

  4

  5
_ARROW_FILLED
  6
_ARROW_FILLED
  7
_ARROW_FILLED
 40
1.0
 41
3.5
 42
0.0625
 43
0.38
 44
0.18
 45
0.0
 46
0.0
 47
0.01
 48
0.01
140
3.5
141
0.09
142
0.0
143
25.4
144
1.0
145
0.0
146
1.0
147
0.09
 71
1.0
 72
0.0
 73
0
 74
0
 75
0
 76
0
 77
1
 78
8
170
0
171
2
172
0
173
0
174
0
175
0
176
0
177
0
178
0
270
2
271
2
272
2
273
2
274
2
275
0
280
0
281
0
282
0
283
1
284
8
285
0
286
0
287
3
288
0
340
11
  0
DIMSTYLE
105
20C
100
AcDbSymbolTableRecord
100
AcDbDimStyleTableRecord
  2
DIMSTYLE_1
 70
0
  3

  4

  5
_ARROW_FILLED
  6
_ARROW_FILLED
  7
_ARROW_FILLED
 40
1.0
 41
3.5
 42
0.0625
 43
0.38
 44
0.18
 45
0.0
 46
0.0
 47
0.15
 48
0.15
140
3.5
141
0.09
142
0.0
143
25.4
144
1.0
145
0.0
146
1.0
147
0.09
 71
0.0
 72
0.0
 73
0
 74
0
 75
0
 76
0
 77
1
 78
8
170
0
171
2
172
0
173
0
174
0
175
0
176
0
177
0
178
0
270
2
271
2
272
2
273
2
274
2
275
0
280
0
281
0
282
0
283
1
284
8
285
0
286
0
287
3
288
0
340
11
  0
DIMSTYLE
105
20D
100
AcDbSymbolTableRecord
100
AcDbDimStyleTableRecord
  2
DIMSTYLE_2
 70
0
  3

  4

  5
_ARROW_FILLED
  6
_ARROW_FILLED
  7
_ARROW_FILLED
 40
1.0
 41
3.5
 42
0.0625
 43
0.38
 44
0.18
 45
0.0
 46
0.0
 47
0.1
 48
0.1
140
3.5
141
0.09
142
0.0
143
25.4
144
1.0
145
0.0
146
1.0
147
0.09
 71
0.0
 72
0.0
 73
0
 74
0
 75
0
 76
0
 77
1
 78
8
170
0
171
2
172
0
173
0
174
0
175
0
176
0
177
0
178
0
270
2
271
2
272
2
273
2
274
2
275
0
280
0
281
0
282
0
283
1
284
8
285
0
286
0
287
3
288
0
340
11
  0
DIMSTYLE
105
20E
100
AcDbSymbolTableRecord
100
AcDbDimStyleTableRecord
  2
DIMSTYLE_3
 70
0
  3

  4

  5
_ARROW_FILLED
  6
_ARROW_FILLED
  7
_ARROW_FILLED
 40
1.0
 41
3.5
 42
0.0625
 43
0.38
 44
0.18
 45
0.0
 46
0.0
 47
0.2
 48
0.2
140
3.5
141
0.09
142
0.0
143
25.4
144
1.0
145
0.0
146
1.0
147
0.09
 71
0.0
 72
0.0
 73
0
 74
0
 75
0
 76
0
 77
1
 78
8
170
0
171
2
172
0
173
0
174
0
175
0
176
0
177
0
178
0
270
2
271
2
272
2
273
2
274
2
275
0
280
0
281
0
282
0
283
1
284
8
285
0
286
0
287
3
288
0
340
11
  0
DIMSTYLE
105
20F
100
AcDbSymbolTableRecord
100
AcDbDimStyleTableRecord
  2
DIMSTYLE_4
 70
0
  3

  4

  5
_ARROW_FILLED
  6
_ARROW_FILLED
  7
_ARROW_FILLED
 40
1.0
 41
3.5
 42
0.0625
 43
0.38
 44
0.18
 45
0.0
 46
0.0
 47
0.15
 48
0.15
140
3.5
141
0.09
142
0.0
143
25.4
144
1.0
145
0.0
146
1.0
147
0.09
 71
0.0
 72
0.0
 73
0
 74
0
 75
0
 76
0
 77
1
 78
8
170
0
171
2
172
0
173
0
174
0
175
0
176
0
177
0
178
0
270
2
271
1
272
1
273
2
274
2
275
0
280
0
281
0
282
0
283
1
284
8
285
0
286
0
287
3
288
0
340
11
  0
ENDTAB
  0
ENDSEC
  0
SECTION
  2
BLOCKS
  0
BLOCK
  5
20
100
AcDbEntity
  8
0
100
AcDbBlockBegin
  2
*MODEL_SPACE
 70
0
 10
0.0
 20
0.0
 30
0.0
  3
*MODEL_SPACE
  1

  0
ENDBLK
  5
21
100
AcDbEntity
  8
0
100
AcDbBlockEnd
  0
BLOCK
  5
1C
100
AcDbEntity
  8
0
100
AcDbBlockBegin
  2
*PAPER_SPACE
 70
0
 10
0.0
 20
0.0
 30
0.0
  3
*PAPER_SPACE
  1

  0
ENDBLK
  5
1D
100
AcDbEntity
  8
0
100
AcDbBlockEnd
  0
BLOCK
  5
210
100
AcDbEntity
  8
0
100
AcDbBlockBegin
  2
_ARROW_FILLED
 70
64
 10
0.0
 20
0.0
  3
_ARROW_FILLED
  1

  0
SOLID
  5
211
100
AcDbEntity
  8
0
  6
BYBLOCK
 62
0
100
AcDbTrace
 10
0.0
 20
0.0
 11
-1.0
 21
0.1857142857
 12
-1.0
 22
-0.1857142857
 13
-1.0
 23
-0.1857142857
  0
ENDBLK
  5
212
100
AcDbEntity
  8
0
  6
BYBLOCK
 62
0
100
AcDbBlockEnd
  0
BLOCK
  5
213
100
AcDbEntity
  8
0
100
AcDbBlockBegin
 62
2
  6
CONTINUOUS
  2
*D0
 70
65
 10
0.0
 20
0.0
  3
*D0
  1

  0
MTEXT
  5
214
100
AcDbEntity
  8
0
100
AcDbMText
 62
2
  6
CONTINUOUS
  7
STANDARD
 71
2
 72
1
 10
148.6954311811
 20
112.1932127312
 30
0.0
 11
1.0
 21
0.0
 31
0.0
  1
68.8
 40
3.5
 41
9.5111524164
  0
LINE
  5
215
100
AcDbEntity
  8
0
100
AcDbLine
 62
2
  6
CONTINUOUS
 10
183.0954311811
 20
183.8772694522
 11
183.0954311811
 21
106.3182127312
  0
LINE
  5
216
100
AcDbEntity
  8
0
100
AcDbLine
 62
2
  6
CONTINUOUS
 10
114.2954311811
 20
183.8772694522
 11
114.2954311811
 21
106.3182127312
  0
LINE
  5
217
100
AcDbEntity
  8
0
100
AcDbLine
 62
2
  6
CONTINUOUS
 10
183.0954311811
 20
107.8182127312
 11
148.6954311811
 21
107.8182127312
  0
LINE
  5
218
100
AcDbEntity
  8
0
100
AcDbLine
 62
2
  6
CONTINUOUS
 10
114.2954311811
 20
107.8182127312
 11
148.6954311811
 21
107.8182127312
  0
INSERT
  5
219
100
AcDbEntity
  8
0
100
AcDbBlockReference
 62
2
  6
CONTINUOUS
  2
_ARROW_FILLED
 10
183.0954311811
 20
107.8182127312
 41
3.5
 42
3.5
 43
3.5
  0
INSERT
  5
21A
100
AcDbEntity
  8
0
100
AcDbBlockReference
 62
2
  6
CONTINUOUS
  2
_ARROW_FILLED
 10
114.2954311811
 20
107.8182127312
 41
3.5
 42
3.5
 43
3.5
 50
180.0
  0
ENDBLK
  5
21B
100
AcDbEntity
  8
0
  6
BYBLOCK
 62
0
100
AcDbBlockEnd
  0
BLOCK
  5
21C
100
AcDbEntity
  8
0
100
AcDbBlockBegin
 62
2
  6
CONTINUOUS
  2
*D1
 70
65
 10
0.0
 20
0.0
  3
*D1
  1

  0
MTEXT
  5
21D
100
AcDbEntity
  8
0
100
AcDbMText
 62
2
  6
CONTINUOUS
  7
STANDARD
 71
2
 72
1
 10
100.1608405876
 20
169.7096529284
 30
0.0
 11
0.0
 21
1.0
 31
0.0
  1
28.6
 40
3.5
 41
9.5111524164
  0
LINE
  5
21E
100
AcDbEntity
  8
0
100
AcDbLine
 62
2
  6
CONTINUOUS
 10
174.8454311811
 20
184.0096529284
 11
103.0358405876
 21
184.0096529284
  0
LINE
  5
21F
100
AcDbEntity
  8
0
100
AcDbLine
 62
2
  6
CONTINUOUS
 10
154.1954311811
 20
155.4096529284
 11
103.0358405876
 21
155.4096529284
  0
LINE
  5
220
100
AcDbEntity
  8
0
100
AcDbLine
 62
2
  6
CONTINUOUS
 10
104.5358405876
 20
184.0096529284
 11
104.5358405876
 21
169.7096529284
  0
LINE
  5
221
100
AcDbEntity
  8
0
100
AcDbLine
 62
2
  6
CONTINUOUS
 10
104.5358405876
 20
155.4096529284
 11
104.5358405876
 21
169.7096529284
  0
INSERT
  5
222
100
AcDbEntity
  8
0
100
AcDbBlockReference
 62
2
  6
CONTINUOUS
  2
_ARROW_FILLED
 10
104.5358405876
 20
184.0096529284
 41
3.5
 42
3.5
 43
3.5
 50
90.0
  0
INSERT
  5
223
100
AcDbEntity
  8
0
100
AcDbBlockReference
 62
2
  6
CONTINUOUS
  2
_ARROW_FILLED
 10
104.5358405876
 20
155.4096529284
 41
3.5
 42
3.5
 43
3.5
 50
270.0
  0
ENDBLK
  5
224
100
AcDbEntity
  8
0
  6
BYBLOCK
 62
0
100
AcDbBlockEnd
  0
BLOCK
  5
225
100
AcDbEntity
  8
0
100
AcDbBlockBegin
 62
2
  6
CONTINUOUS
  2
*D2
 70
65
 10
0.0
 20
0.0
  3
*D2
  1

  0
MTEXT
  5
226
100
AcDbEntity
  8
0
100
AcDbMText
 62
2
  6
CONTINUOUS
  7
STANDARD
 71
2
 72
1
 10
99.3896218716
 20
207.0096529284
 30
0.0
 11
0.0
 21
1.0
 31
0.0
  1
46
 40
3.5
 41
5.43866171
  0
LINE
  5
227
100
AcDbEntity
  8
0
100
AcDbLine
 62
2
  6
CONTINUOUS
 10
148.1954311811
 20
230.0096529284
 11
102.2646218716
 21
230.0096529284
  0
LINE
  5
228
100
AcDbEntity
  8
0
100
AcDbLine
 62
2
  6
CONTINUOUS
 10
174.8454311811
 20
184.0096529284
 11
102.2646218716
 21
184.0096529284
  0
LINE
  5
229
100
AcDbEntity
  8
0
100
AcDbLine
 62
2
  6
CONTINUOUS
 10
103.7646218716
 20
230.0096529284
 11
103.7646218716
 21
207.0096529284
  0
LINE
  5
22A
100
AcDbEntity
  8
0
100
AcDbLine
 62
2
  6
CONTINUOUS
 10
103.7646218716
 20
184.0096529284
 11
103.7646218716
 21
207.0096529284
  0
INSERT
  5
22B
100
AcDbEntity
  8
0
100
AcDbBlockReference
 62
2
  6
CONTINUOUS
  2
_ARROW_FILLED
 10
103.7646218716
 20
230.0096529284
 41
3.5
 42
3.5
 43
3.5
 50
90.0
  0
INSERT
  5
22C
100
AcDbEntity
  8
0
100
AcDbBlockReference
 62
2
  6
CONTINUOUS
  2
_ARROW_FILLED
 10
103.7646218716
 20
184.0096529284
 41
3.5
 42
3.5
 43
3.5
 50
270.0
  0
ENDBLK
  5
22D
100
AcDbEntity
  8
0
  6
BYBLOCK
 62
0
100
AcDbBlockEnd
  0
BLOCK
  5
22E
100
AcDbEntity
  8
0
100
AcDbBlockBegin
 62
2
  6
CONTINUOUS
  2
*D3
 70
65
 10
0.0
 20
0.0
  3
*D3
  1

  0
MTEXT
  5
22F
100
AcDbEntity
  8
0
100
AcDbMText
 62
2
  6
CONTINUOUS
  7
STANDARD
 71
2
 72
1
 10
72.0113574538
 20
185.1096529284
 30
0.0
 11
0.0
 21
1.0
 31
0.0
  1
89.8
 40
3.5
 41
9.5111524164
  0
LINE
  5
230
100
AcDbEntity
  8
0
100
AcDbLine
 62
2
  6
CONTINUOUS
 10
142.3384658388
 20
140.2096529284
 11
74.8863574538
 21
140.2096529284
  0
LINE
  5
231
100
AcDbEntity
  8
0
100
AcDbLine
 62
2
  6
CONTINUOUS
 10
148.1954311811
 20
230.0096529284
 11
74.8863574538
 21
230.0096529284
  0
LINE
  5
232
100
AcDbEntity
  8
0
100
AcDbLine
 62
2
  6
CONTINUOUS
 10
76.3863574538
 20
140.2096529284
 11
76.3863574538
 21
185.1096529284
  0
LINE
  5
233
100
AcDbEntity
  8
0
100
AcDbLine
 62
2
  6
CONTINUOUS
 10
76.3863574538
 20
230.0096529284
 11
76.3863574538
 21
185.1096529284
  0
INSERT
  5
234
100
AcDbEntity
  8
0
100
AcDbBlockReference
 62
2
  6
CONTINUOUS
  2
_ARROW_FILLED
 10
76.3863574538
 20
140.2096529284
 41
3.5
 42
3.5
 43
3.5
 50
270.0
  0
INSERT
  5
235
100
AcDbEntity
  8
0
100
AcDbBlockReference
 62
2
  6
CONTINUOUS
  2
_ARROW_FILLED
 10
76.3863574538
 20
230.0096529284
 41
3.5
 42
3.5
 43
3.5
 50
90.0
  0
ENDBLK
  5
236
100
AcDbEntity
  8
0
  6
BYBLOCK
 62
0
100
AcDbBlockEnd
  0
BLOCK
  5
237
100
AcDbEntity
  8
0
100
AcDbBlockBegin
 62
2
  6
CONTINUOUS
  2
*D4
 70
65
 10
0.0
 20
0.0
  3
*D4
  1

  0
MTEXT
  5
238
100
AcDbEntity
  8
0
100
AcDbMText
 62
2
  6
CONTINUOUS
  7
STANDARD
 71
2
 72
1
 10
45.7899211099
 20
202.3096529284
 30
0.0
 11
0.0
 21
1.0
 31
0.0
  1
124.2
 40
3.5
 41
12.2304832714
  0
LINE
  5
239
100
AcDbEntity
  8
0
100
AcDbLine
 62
2
  6
CONTINUOUS
 10
142.3384658388
 20
140.2096529284
 11
48.6649211099
 21
140.2096529284
  0
LINE
  5
23A
100
AcDbEntity
  8
0
100
AcDbLine
 62
2
  6
CONTINUOUS
 10
148.1954311811
 20
264.4096529284
 11
48.6649211099
 21
264.4096529284
  0
LINE
  5
23B
100
AcDbEntity
  8
0
100
AcDbLine
 62
2
  6
CONTINUOUS
 10
50.1649211099
 20
140.2096529284
 11
50.1649211099
 21
202.3096529284
  0
LINE
  5
23C
100
AcDbEntity
  8
0
100
AcDbLine
 62
2
  6
CONTINUOUS
 10
50.1649211099
 20
264.4096529284
 11
50.1649211099
 21
202.3096529284
  0
INSERT
  5
23D
100
AcDbEntity
  8
0
100
AcDbBlockReference
 62
2
  6
CONTINUOUS
  2
_ARROW_FILLED
 10
50.1649211099
 20
140.2096529284
 41
3.5
 42
3.5
 43
3.5
 50
270.0
  0
INSERT
  5
23E
100
AcDbEntity
  8
0
100
AcDbBlockReference
 62
2
  6
CONTINUOUS
  2
_ARROW_FILLED
 10
50.1649211099
 20
264.4096529284
 41
3.5
 42
3.5
 43
3.5
 50
90.0
  0
ENDBLK
  5
23F
100
AcDbEntity
  8
0
  6
BYBLOCK
 62
0
100
AcDbBlockEnd
  0
BLOCK
  5
240
100
AcDbEntity
  8
0
100
AcDbBlockBegin
 62
2
  6
CONTINUOUS
  2
*D5
 70
65
 10
0.0
 20
0.0
  3
*D5
  1

  0
MTEXT
  5
241
100
AcDbEntity
  8
0
100
AcDbMText
 62
2
  6
CONTINUOUS
  7
STANDARD
 71
2
 72
1
 10
236.8216855336
 20
121.4478373232
 30
0.0
 11
1.0
 21
0.0
 31
0.0
  1
17.2
 40
3.5
 41
9.5111524164
  0
LINE
  5
242
100
AcDbEntity
  8
0
100
AcDbLine
 62
2
  6
CONTINUOUS
 10
228.2216855336
 20
141.8936435895
 11
228.2216855336
 21
115.5728373232
  0
LINE
  5
243
100
AcDbEntity
  8
0
100
AcDbLine
 62
2
  6
CONTINUOUS
 10
245.4216855336
 20
142.7384463912
 11
245.4216855336
 21
115.5728373232
  0
LINE
  5
244
100
AcDbEntity
  8
0
100
AcDbLine
 62
2
  6
CONTINUOUS
 10
228.2216855336
 20
117.0728373232
 11
220.2216855336
 21
117.0728373232
  0
LINE
  5
245
100
AcDbEntity
  8
0
100
AcDbLine
 62
2
  6
CONTINUOUS
 10
220.2216855336
 20
117.0728373232
 11
236.8216855336
 21
117.0728373232
  0
LINE
  5
246
100
AcDbEntity
  8
0
100
AcDbLine
 62
2
  6
CONTINUOUS
 10
245.4216855336
 20
117.0728373232
 11
253.4216855336
 21
117.0728373232
  0
LINE
  5
247
100
AcDbEntity
  8
0
100
AcDbLine
 62
2
  6
CONTINUOUS
 10
253.4216855336
 20
117.0728373232
 11
236.8216855336
 21
117.0728373232
  0
INSERT
  5
248
100
AcDbEntity
  8
0
100
AcDbBlockReference
 62
2
  6
CONTINUOUS
  2
_ARROW_FILLED
 10
228.2216855336
 20
117.0728373232
 41
3.5
 42
3.5
 43
3.5
  0
INSERT
  5
249
100
AcDbEntity
  8
0
100
AcDbBlockReference
 62
2
  6
CONTINUOUS
  2
_ARROW_FILLED
 10
245.4216855336
 20
117.0728373232
 41
3.5
 42
3.5
 43
3.5
 50
180.0
  0
ENDBLK
  5
24A
100
AcDbEntity
  8
0
  6
BYBLOCK
 62
0
100
AcDbBlockEnd
  0
BLOCK
  5
24B
100
AcDbEntity
  8
0
100
AcDbBlockBegin
 62
2
  6
CONTINUOUS
  2
*D6
 70
65
 10
0.0
 20
0.0
  3
*D6
  1

  0
MTEXT
  5
24C
100
AcDbEntity
  8
0
100
AcDbMText
 62
2
  6
CONTINUOUS
  7
STANDARD
 71
1
 72
1
 10
185.9124619597
 20
204.3602612546
 30
0.0
 11
1.0
 21
0.0
 31
0.0
  1
12
 40
3.5
 41
5.43866171
  0
LINE
  5
24D
100
AcDbEntity
  8
0
100
AcDbLine
 62
2
  6
CONTINUOUS
 10
163.3454311811
 20
189.5096529284
 11
163.3454311811
 21
201.4852612546
  0
LINE
  5
24E
100
AcDbEntity
  8
0
100
AcDbLine
 62
2
  6
CONTINUOUS
 10
175.3454311811
 20
189.5096529284
 11
175.3454311811
 21
201.4852612546
  0
LINE
  5
24F
100
AcDbEntity
  8
0
100
AcDbLine
 62
2
  6
CONTINUOUS
 10
163.3454311811
 20
199.9852612546
 11
169.3454311811
 21
199.9852612546
  0
LINE
  5
250
100
AcDbEntity
  8
0
100
AcDbLine
 62
2
  6
CONTINUOUS
 10
175.3454311811
 20
199.9852612546
 11
169.3454311811
 21
199.9852612546
  0
LINE
  5
251
100
AcDbEntity
  8
0
100
AcDbLine
 62
2
  6
CONTINUOUS
 10
169.3454311811
 20
199.9852612546
 11
191.3511236697
 21
199.9852612546
  0
INSERT
  5
252
100
AcDbEntity
  8
0
100
AcDbBlockReference
 62
2
  6
CONTINUOUS
  2
_ARROW_FILLED
 10
163.3454311811
 20
199.9852612546
 41
3.5
 42
3.5
 43
3.5
 50
180.0
  0
INSERT
  5
253
100
AcDbEntity
  8
0
100
AcDbBlockReference
 62
2
  6
CONTINUOUS
  2
_ARROW_FILLED
 10
175.3454311811
 20
199.9852612546
 41
3.5
 42
3.5
 43
3.5
  0
ENDBLK
  5
254
100
AcDbEntity
  8
0
  6
BYBLOCK
 62
0
100
AcDbBlockEnd
  0
BLOCK
  5
255
100
AcDbEntity
  8
0
100
AcDbBlockBegin
 62
2
  6
CONTINUOUS
  2
*D7
 70
65
 10
0.0
 20
0.0
  3
*D7
  1

  0
MTEXT
  5
256
100
AcDbEntity
  8
0
100
AcDbMText
 62
2
  6
CONTINUOUS
  7
STANDARD
 71
2
 72
1
 10
148.6954311811
 20
130.9395340449
 30
0.0
 11
1.0
 21
0.0
 31
0.0
  1
41.3
 40
3.5
 41
9.5111524164
  0
LINE
  5
257
100
AcDbEntity
  8
0
100
AcDbLine
 62
2
  6
CONTINUOUS
 10
128.0454311811
 20
178.5096529284
 11
128.0454311811
 21
125.0645340449
  0
LINE
  5
258
100
AcDbEntity
  8
0
100
AcDbLine
 62
2
  6
CONTINUOUS
 10
169.3454311811
 20
178.5096529284
 11
169.3454311811
 21
125.0645340449
  0
LINE
  5
259
100
AcDbEntity
  8
0
100
AcDbLine
 62
2
  6
CONTINUOUS
 10
128.0454311811
 20
126.5645340449
 11
148.6954311811
 21
126.5645340449
  0
LINE
  5
25A
100
AcDbEntity
  8
0
100
AcDbLine
 62
2
  6
CONTINUOUS
 10
169.3454311811
 20
126.5645340449
 11
148.6954311811
 21
126.5645340449
  0
INSERT
  5
25B
100
AcDbEntity
  8
0
100
AcDbBlockReference
 62
2
  6
CONTINUOUS
  2
_ARROW_FILLED
 10
128.0454311811
 20
126.5645340449
 41
3.5
 42
3.5
 43
3.5
 50
180.0
  0
INSERT
  5
25C
100
AcDbEntity
  8
0
100
AcDbBlockReference
 62
2
  6
CONTINUOUS
  2
_ARROW_FILLED
 10
169.3454311811
 20
126.5645340449
 41
3.5
 42
3.5
 43
3.5
  0
ENDBLK
  5
25D
100
AcDbEntity
  8
0
  6
BYBLOCK
 62
0
100
AcDbBlockEnd
  0
BLOCK
  5
25E
100
AcDbEntity
  8
0
100
AcDbBlockBegin
 62
2
  6
CONTINUOUS
  2
*D8
 70
65
 10
0.0
 20
0.0
  3
*D8
  1

  0
MTEXT
  5
25F
100
AcDbEntity
  8
0
100
AcDbMText
 62
2
  6
CONTINUOUS
  7
STANDARD
 71
2
 72
1
 10
245.5528063991
 20
277.6196273123
 30
0.0
 11
1.0
 21
0.0
 31
0.0
  1
34.7
 40
3.5
 41
9.5111524164
  0
LINE
  5
260
100
AcDbEntity
  8
0
100
AcDbLine
 62
2
  6
CONTINUOUS
 10
228.2216855336
 20
264.9096529284
 11
228.2216855336
 21
274.7446273123
  0
LINE
  5
261
100
AcDbEntity
  8
0
100
AcDbLine
 62
2
  6
CONTINUOUS
 10
262.8839272647
 20
244.3096529284
 11
262.8839272647
 21
274.7446273123
  0
LINE
  5
262
100
AcDbEntity
  8
0
100
AcDbLine
 62
2
  6
CONTINUOUS
 10
228.2216855336
 20
273.2446273123
 11
245.5528063991
 21
273.2446273123
  0
LINE
  5
263
100
AcDbEntity
  8
0
100
AcDbLine
 62
2
  6
CONTINUOUS
 10
262.8839272647
 20
273.2446273123
 11
245.5528063991
 21
273.2446273123
  0
INSERT
  5
264
100
AcDbEntity
  8
0
100
AcDbBlockReference
 62
2
  6
CONTINUOUS
  2
_ARROW_FILLED
 10
228.2216855336
 20
273.2446273123
 41
3.5
 42
3.5
 43
3.5
 50
180.0
  0
INSERT
  5
265
100
AcDbEntity
  8
0
100
AcDbBlockReference
 62
2
  6
CONTINUOUS
  2
_ARROW_FILLED
 10
262.8839272647
 20
273.2446273123
 41
3.5
 42
3.5
 43
3.5
  0
ENDBLK
  5
266
100
AcDbEntity
  8
0
  6
BYBLOCK
 62
0
100
AcDbBlockEnd
  0
ENDSEC
  0
SECTION
  2
ENTITIES
  0
DIMENSION
  5
267
100
AcDbEntity
  8
0
100
AcDbDimension
 62
2
  6
CONTINUOUS
  2
*D0
 10
114.2954311811
 20
107.8182127312
 11
143.9398549729
 21
110.4432127312
 70
160
  3
DIMSTYLE_1
100
AcDbAlignedDimension
 13
183.0954311811
 23
183.8772694522
 14
114.2954311811
 24
183.8772694522
 50
180.0
100
AcDbRotatedDimension
  0
DIMENSION
  5
268
100
AcDbEntity
  8
0
100
AcDbDimension
 62
2
  6
CONTINUOUS
  2
*D1
 10
104.5358405876
 20
155.4096529284
 11
104.041688816
 21
165.4581836648
 70
160
  3
DIMSTYLE_2
100
AcDbAlignedDimension
 13
174.8454311811
 23
184.0096529284
 14
154.1954311811
 24
155.4096529284
 50
270.0
100
AcDbRotatedDimension
  0
DIMENSION
  5
269
100
AcDbEntity
  8
0
100
AcDbDimension
 62
2
  6
CONTINUOUS
  2
*D2
 10
103.7646218716
 20
184.0096529284
 11
102.3580822813
 21
204.5785802168
 70
160
  3
DIMSTYLE_1
100
AcDbAlignedDimension
 13
148.1954311811
 23
230.0096529284
 14
174.8454311811
 24
184.0096529284
 50
270.0
100
AcDbRotatedDimension
  0
DIMENSION
  5
26A
100
AcDbEntity
  8
0
100
AcDbDimension
 62
2
  6
CONTINUOUS
  2
*D3
 10
76.3863574538
 20
230.0096529284
 11
75.8922056821
 21
180.8581836648
 70
160
  3
DIMSTYLE_1
100
AcDbAlignedDimension
 13
142.3384658388
 23
140.2096529284
 14
148.1954311811
 24
230.0096529284
 50
90.0
100
AcDbRotatedDimension
  0
DIMENSION
  5
26B
100
AcDbEntity
  8
0
100
AcDbDimension
 62
2
  6
CONTINUOUS
  2
*D4
 10
50.1649211099
 20
264.4096529284
 11
50.2799995431
 21
196.842647309
 70
160
  3
DIMSTYLE_3
100
AcDbAlignedDimension
 13
142.3384658388
 23
140.2096529284
 14
148.1954311811
 24
264.4096529284
 50
90.0
100
AcDbRotatedDimension
  0
DIMENSION
  5
26C
100
AcDbEntity
  8
0
100
AcDbDimension
 62
2
  6
CONTINUOUS
  2
*D5
 10
245.4216855336
 20
117.0728373232
 11
232.0661093254
 21
119.6978373232
 70
160
  3
DIMSTYLE_2
100
AcDbAlignedDimension
 13
228.2216855336
 23
141.8936435895
 14
245.4216855336
 24
142.7384463912
100
AcDbRotatedDimension
  0
DIMENSION
  5
26D
100
AcDbEntity
  8
0
100
AcDbDimension
 62
2
  6
CONTINUOUS
  2
*D6
 10
175.3454311811
 20
199.9852612546
 11
188.6317928147
 21
202.6102612546
 70
160
  3
DIMSTYLE_2
100
AcDbAlignedDimension
 13
163.3454311811
 23
189.5096529284
 14
175.3454311811
 24
189.5096529284
100
AcDbRotatedDimension
  0
DIMENSION
  5
26E
100
AcDbEntity
  8
0
100
AcDbDimension
 62
2
  6
CONTINUOUS
  2
*D7
 10
169.3454311811
 20
126.5645340449
 11
143.9398549729
 21
129.1895340449
 70
160
  3
DIMSTYLE_1
100
AcDbAlignedDimension
 13
128.0454311811
 23
178.5096529284
 14
169.3454311811
 24
178.5096529284
100
AcDbRotatedDimension
  0
DIMENSION
  5
26F
100
AcDbEntity
  8
0
100
AcDbDimension
 62
2
  6
CONTINUOUS
  2
*D8
 10
262.8839272647
 20
273.2446273123
 11
240.797230191
 21
275.8696273123
 70
160
  3
DIMSTYLE_4
100
AcDbAlignedDimension
 13
228.2216855336
 23
264.9096529284
 14
262.8839272647
 24
244.3096529284
100
AcDbRotatedDimension
  0
LINE
  5
270
100
AcDbEntity
  8
0
100
AcDbLine
 62
7
  6
CONTINUOUS
 10
0.0
 20
-0.0
 11
0.0
 21
297.0
  0
LINE
  5
271
100
AcDbEntity
  8
0
100
AcDbLine
 62
7
  6
CONTINUOUS
 10
0.0
 20
-0.0
 11
420.0
 21
-0.0
  0
LINE
  5
272
100
AcDbEntity
  8
0
100
AcDbLine
 62
7
  6
CONTINUOUS
 10
0.0
 20
297.0
 11
420.0
 21
297.0
  0
LINE
  5
273
100
AcDbEntity
  8
0
100
AcDbLine
 62
7
  6
CONTINUOUS
 10
420.0
 20
-0.0
 11
420.0
 21
297.0
  0
LINE
  5
274
100
AcDbEntity
  8
0
100
AcDbLine
 62
7
  6
CONTINUOUS
 10
142.8384658388
 20
140.2096529284
 11
154.5523965235
 21
140.2096529284
  0
LINE
  5
275
100
AcDbEntity
  8
0
100
AcDbLine
 62
7
  6
CONTINUOUS
 10
142.8384658388
 20
141.7096529284
 11
154.5523965235
 21
141.7096529284
  0
LINE
  5
276
100
AcDbEntity
  8
0
100
AcDbLine
 62
7
  6
CONTINUOUS
 10
141.6954311811
 20
155.2596529284
 11
142.6954311811
 21
155.2596529284
  0
LINE
  5
277
100
AcDbEntity
  8
0
100
AcDbLine
 62
7
  6
CONTINUOUS
 10
142.6954311811
 20
155.5596529284
 11
141.6954311811
 21
155.5596529284
  0
LINE
  5
278
100
AcDbEntity
  8
0
100
AcDbLine
 62
7
  6
CONTINUOUS
 10
177.7301335272
 20
262.3518191894
 11
175.5301335272
 21
261.4405493522
  0
LINE
  5
279
100
AcDbEntity
  8
0
100
AcDbLine
 62
7
  6
CONTINUOUS
 10
157.4445142229
 20
143.2384463912
 11
158.683993237
 21
142.3936435895
  0
LINE
  5
27A
100
AcDbEntity
  8
0
100
AcDbLine
 62
7
  6
CONTINUOUS
 10
117.7690443271
 20
173.1132320965
 11
138.7068691253
 21
142.3936435895
  0
LINE
  5
27B
100
AcDbEntity
  8
0
100
AcDbLine
 62
7
  6
CONTINUOUS
 10
119.0085233412
 20
173.9580348981
 11
139.9463481393
 21
143.2384463912
  0
LINE
  5
27C
100
AcDbEntity
  8
0
100
AcDbLine
 62
7
  6
CONTINUOUS
 10
114.2954311811
 20
230.0096529284
 11
114.2954311811
 21
184.3772694522
  0
LINE
  5
27D
100
AcDbEntity
  8
0
100
AcDbLine
 62
7
  6
CONTINUOUS
 10
115.7954311811
 20
214.4356361055
 11
115.7954311811
 21
184.3772694522
  0
LINE
  5
27E
100
AcDbEntity
  8
0
100
AcDbLine
 62
7
  6
CONTINUOUS
 10
120.7954311811
 20
189.0096529284
 11
120.7954311811
 21
179.0096529284
  0
LINE
  5
27F
100
AcDbEntity
  8
0
100
AcDbLine
 62
7
  6
CONTINUOUS
 10
140.6954311811
 20
170.0096514045
 11
156.6954311811
 21
170.0096514045
  0
LINE
  5
280
100
AcDbEntity
  8
0
100
AcDbLine
 62
7
  6
CONTINUOUS
 10
121.0454311811
 20
179.0096529284
 11
121.0454311811
 21
189.0096529284
  0
LINE
  5
281
100
AcDbEntity
  8
0
100
AcDbLine
 62
7
  6
CONTINUOUS
 10
122.0454311811
 20
189.0096529284
 11
122.0454311811
 21
184.1596529284
  0
LINE
  5
282
100
AcDbEntity
  8
0
100
AcDbLine
 62
7
  6
CONTINUOUS
 10
122.0454311811
 20
183.8596529284
 11
122.0454311811
 21
179.0096529284
  0
LINE
  5
283
100
AcDbEntity
  8
0
100
AcDbLine
 62
7
  6
CONTINUOUS
 10
170.8833574897
 20
257.8848867279
 11
171.9738058276
 21
258.9753350658
  0
LINE
  5
284
100
AcDbEntity
  8
0
100
AcDbLine
 62
7
  6
CONTINUOUS
 10
170.5450307198
 20
257.5161067166
 11
170.0264742503
 21
256.9975502471
  0
LINE
  5
285
100
AcDbEntity
  8
0
100
AcDbLine
 62
7
  6
CONTINUOUS
 10
172.3122265063
 20
256.4560177112
 11
173.4012883792
 21
257.5450795841
  0
LINE
  5
286
100
AcDbEntity
  8
0
100
AcDbLine
 62
7
  6
CONTINUOUS
 10
156.6954311811
 20
180.0096514045
 11
140.6954311811
 21
180.0096514045
  0
LINE
  5
287
100
AcDbEntity
  8
0
100
AcDbLine
 62
7
  6
CONTINUOUS
 10
121.0454311811
 20
183.8596529284
 11
122.0454311811
 21
183.8596529284
  0
LINE
  5
288
100
AcDbEntity
  8
0
100
AcDbLine
 62
7
  6
CONTINUOUS
 10
162.3454311811
 20
183.8596529284
 11
163.3454311811
 21
183.8596529284
  0
LINE
  5
289
100
AcDbEntity
  8
0
100
AcDbLine
 62
7
  6
CONTINUOUS
 10
134.0454311811
 20
179.0096529284
 11
134.0454311811
 21
189.0096529284
  0
LINE
  5
28A
100
AcDbEntity
  8
0
100
AcDbLine
 62
7
  6
CONTINUOUS
 10
135.0454311811
 20
189.0096529284
 11
135.0454311811
 21
179.0096529284
  0
LINE
  5
28B
100
AcDbEntity
  8
0
100
AcDbLine
 62
7
  6
CONTINUOUS
 10
139.2083668584
 20
219.5775755068
 11
138.8423549698
 21
218.9436243195
  0
LINE
  5
28C
100
AcDbEntity
  8
0
100
AcDbLine
 62
7
  6
CONTINUOUS
 10
175.1699645396
 20
253.598279678
 11
176.2563648517
 21
254.6846799901
  0
LINE
  5
28D
100
AcDbEntity
  8
0
100
AcDbLine
 62
7
  6
CONTINUOUS
 10
176.2018849693
 20
251.8592524671
 11
175.6833284998
 21
251.3406959976
  0
LINE
  5
28E
100
AcDbEntity
  8
0
100
AcDbLine
 62
7
  6
CONTINUOUS
 10
176.5988335562
 20
252.1694106614
 11
177.6839580517
 21
253.2545351568
  0
LINE
  5
28F
100
AcDbEntity
  8
0
100
AcDbLine
 62
7
  6
CONTINUOUS
 10
163.3454311811
 20
184.1596529284
 11
162.3454311811
 21
184.1596529284
  0
LINE
  5
290
100
AcDbEntity
  8
0
100
AcDbLine
 62
7
  6
CONTINUOUS
 10
122.0454311811
 20
184.1596529284
 11
121.0454311811
 21
184.1596529284
  0
LINE
  5
291
100
AcDbEntity
  8
0
100
AcDbLine
 62
7
  6
CONTINUOUS
 10
115.7954311811
 20
184.3772694522
 11
114.2954311811
 21
184.3772694531
  0
LINE
  5
292
100
AcDbEntity
  8
0
100
AcDbLine
 62
7
  6
CONTINUOUS
 10
181.5954311811
 20
184.3772694522
 11
183.0954311811
 21
184.3772694522
  0
LINE
  5
293
100
AcDbEntity
  8
0
100
AcDbLine
 62
7
  6
CONTINUOUS
 10
135.2954311811
 20
179.0096529284
 11
135.2954311811
 21
189.0096529284
  0
LINE
  5
294
100
AcDbEntity
  8
0
100
AcDbLine
 62
7
  6
CONTINUOUS
 10
144.4045176082
 20
216.5775726093
 11
144.0385073925
 21
215.9436243195
  0
LINE
  5
295
100
AcDbEntity
  8
0
100
AcDbLine
 62
7
  6
CONTINUOUS
 10
140.6954311811
 20
180.0096514045
 11
140.6954311811
 21
170.0096514045
  0
LINE
  5
296
100
AcDbEntity
  8
0
100
AcDbLine
 62
7
  6
CONTINUOUS
 10
141.4454311811
 20
160.4096529284
 11
141.4454311811
 21
150.4096529284
  0
LINE
  5
297
100
AcDbEntity
  8
0
100
AcDbLine
 62
7
  6
CONTINUOUS
 10
141.6954311811
 20
150.4096529284
 11
141.6954311811
 21
160.4096529284
  0
LINE
  5
298
100
AcDbEntity
  8
0
100
AcDbLine
 62
7
  6
CONTINUOUS
 10
142.6954311811
 20
160.4096529284
 11
142.6954311811
 21
155.5596529284
  0
LINE
  5
299
100
AcDbEntity
  8
0
100
AcDbLine
 62
7
  6
CONTINUOUS
 10
142.6954311811
 20
155.2596529284
 11
142.6954311811
 21
150.4096529284
  0
LINE
  5
29A
100
AcDbEntity
  8
0
100
AcDbLine
 62
7
  6
CONTINUOUS
 10
142.8384658388
 20
141.7096529284
 11
142.8384658388
 21
140.2096529284
  0
LINE
  5
29B
100
AcDbEntity
  8
0
100
AcDbLine
 62
7
  6
CONTINUOUS
 10
178.3823390211
 20
173.9580348981
 11
179.6218180346
 21
173.1132320957
  0
LINE
  5
29C
100
AcDbEntity
  8
0
100
AcDbLine
 62
7
  6
CONTINUOUS
 10
154.5523965235
 20
141.7096529284
 11
154.5523965174
 21
140.2096529284
  0
LINE
  5
29D
100
AcDbEntity
  8
0
100
AcDbLine
 62
7
  6
CONTINUOUS
 10
154.6954311811
 20
150.4096529284
 11
154.6954311811
 21
160.4096529284
  0
LINE
  5
29E
100
AcDbEntity
  8
0
100
AcDbLine
 62
7
  6
CONTINUOUS
 10
155.6954311811
 20
160.4096529284
 11
155.6954311811
 21
150.4096529284
  0
LINE
  5
29F
100
AcDbEntity
  8
0
100
AcDbLine
 62
7
  6
CONTINUOUS
 10
155.9454311811
 20
150.4096529284
 11
155.9454311811
 21
160.4096529284
  0
LINE
  5
2A0
100
AcDbEntity
  8
0
100
AcDbLine
 62
7
  6
CONTINUOUS
 10
156.6954311811
 20
170.0096514045
 11
156.6954311811
 21
180.0096514045
  0
LINE
  5
2A1
100
AcDbEntity
  8
0
100
AcDbLine
 62
7
  6
CONTINUOUS
 10
181.0375974421
 20
259.0443552744
 11
180.1263276049
 21
256.8443552744
  0
LINE
  5
2A2
100
AcDbEntity
  8
0
100
AcDbLine
 62
7
  6
CONTINUOUS
 10
119.0085233412
 20
173.9580348981
 11
117.7690443271
 21
173.1132320965
  0
LINE
  5
2A3
100
AcDbEntity
  8
0
100
AcDbLine
 62
7
  6
CONTINUOUS
 10
144.0384909988
 20
215.9436337844
 11
138.8423713635
 21
218.9436148546
  0
LINE
  5
2A4
100
AcDbEntity
  8
0
100
AcDbLine
 62
7
  6
CONTINUOUS
 10
162.0954311811
 20
189.0096529284
 11
162.0954311811
 21
179.0096529284
  0
LINE
  5
2A5
100
AcDbEntity
  8
0
100
AcDbLine
 62
7
  6
CONTINUOUS
 10
162.3454311811
 20
179.0096529284
 11
162.3454311811
 21
189.0096529284
  0
LINE
  5
2A6
100
AcDbEntity
  8
0
100
AcDbLine
 62
7
  6
CONTINUOUS
 10
163.2054311811
 20
233.0096498478
 11
163.2054311811
 21
227.009656009
  0
LINE
  5
2A7
100
AcDbEntity
  8
0
100
AcDbLine
 62
7
  6
CONTINUOUS
 10
163.3454311811
 20
189.0096529284
 11
163.3454311811
 21
184.1596529284
  0
LINE
  5
2A8
100
AcDbEntity
  8
0
100
AcDbLine
 62
7
  6
CONTINUOUS
 10
163.3454311811
 20
183.8596529284
 11
163.3454311811
 21
179.0096529284
  0
LINE
  5
2A9
100
AcDbEntity
  8
0
100
AcDbLine
 62
7
  6
CONTINUOUS
 10
115.7954311811
 20
214.4356361055
 11
114.2954311811
 21
214.4356361055
  0
LINE
  5
2AA
100
AcDbEntity
  8
0
100
AcDbLine
 62
7
  6
CONTINUOUS
 10
181.5954311811
 20
214.4356361055
 11
183.0954311811
 21
214.4356361055
  0
LINE
  5
2AB
100
AcDbEntity
  8
0
100
AcDbLine
 62
7
  6
CONTINUOUS
 10
175.5301335272
 20
261.4405493522
 11
175.3677860858
 21
260.448761417
  0
LINE
  5
2AC
100
AcDbEntity
  8
0
100
AcDbLine
 62
7
  6
CONTINUOUS
 10
175.3454311811
 20
179.0096529284
 11
175.3454311811
 21
189.0096529284
  0
LINE
  5
2AD
100
AcDbEntity
  8
0
100
AcDbLine
 62
7
  6
CONTINUOUS
 10
176.3454311811
 20
189.0096529284
 11
176.3454311811
 21
179.0096529284
  0
LINE
  5
2AE
100
AcDbEntity
  8
0
100
AcDbLine
 62
7
  6
CONTINUOUS
 10
176.5954311811
 20
179.0096529284
 11
176.5954311811
 21
189.0096529284
  0
LINE
  5
2AF
100
AcDbEntity
  8
0
100
AcDbLine
 62
7
  6
CONTINUOUS
 10
162.4734075087
 20
227.0096529284
 11
163.2054311811
 21
227.0096529284
  0
LINE
  5
2B0
100
AcDbEntity
  8
0
100
AcDbLine
 62
7
  6
CONTINUOUS
 10
181.5954311811
 20
184.3772694522
 11
181.5954311811
 21
214.4356361055
  0
LINE
  5
2B1
100
AcDbEntity
  8
0
100
AcDbLine
 62
7
  6
CONTINUOUS
 10
162.4734075083
 20
233.0096529284
 11
163.2054311811
 21
233.0096529284
  0
LINE
  5
2B2
100
AcDbEntity
  8
0
100
AcDbLine
 62
7
  6
CONTINUOUS
 10
183.0954311811
 20
184.3772694522
 11
183.0954311811
 21
230.0096533187
  0
LINE
  5
2B3
100
AcDbEntity
  8
0
100
AcDbLine
 62
7
  6
CONTINUOUS
 10
157.4445142229
 20
143.2384463912
 11
178.3823390211
 21
173.9580348981
  0
LINE
  5
2B4
100
AcDbEntity
  8
0
100
AcDbLine
 62
7
  6
CONTINUOUS
 10
158.683993237
 20
142.3936435895
 11
179.6218180351
 21
173.1132320965
  0
LINE
  5
2B5
100
AcDbEntity
  8
0
100
AcDbLine
 62
7
  6
CONTINUOUS
 10
139.9463481393
 20
143.2384463912
 11
138.7068691219
 21
142.3936435945
  0
LINE
  5
2B6
100
AcDbEntity
  8
0
100
AcDbLine
 62
7
  6
CONTINUOUS
 10
180.1263276049
 20
256.8443552744
 11
179.1345396697
 21
256.6820078331
  0
LINE
  5
2B7
100
AcDbEntity
  8
0
100
AcDbLine
 62
7
  6
CONTINUOUS
 10
170.5450307198
 20
257.5161067166
 11
176.2018849693
 21
251.8592524671
  0
LINE
  5
2B8
100
AcDbEntity
  8
0
100
AcDbLine
 62
7
  6
CONTINUOUS
 10
170.8833574897
 20
257.8848867279
 11
173.7263500392
 21
255.0418941784
  0
LINE
  5
2B9
100
AcDbEntity
  8
0
100
AcDbLine
 62
7
  6
CONTINUOUS
 10
173.7277201189
 20
255.0405240986
 11
176.5988335562
 21
252.1694106614
  0
LINE
  5
2BA
100
AcDbEntity
  8
0
100
AcDbLine
 62
7
  6
CONTINUOUS
 10
179.1345396697
 20
256.6820078331
 11
175.3677860858
 21
260.448761417
  0
LINE
  5
2BB
100
AcDbEntity
  8
0
100
AcDbLine
 62
7
  6
CONTINUOUS
 10
180.1263276049
 20
256.8443552744
 11
175.5301335272
 21
261.4405493522
  0
LINE
  5
2BC
100
AcDbEntity
  8
0
100
AcDbLine
 62
7
  6
CONTINUOUS
 10
181.0375974421
 20
259.0443552744
 11
177.7301335272
 21
262.3518191894
  0
LINE
  5
2BD
100
AcDbEntity
  8
0
100
AcDbLine
 62
7
  6
CONTINUOUS
 10
243.9216855336
 20
140.2096529284
 11
228.2216855336
 21
140.2096529284
  0
LINE
  5
2BE
100
AcDbEntity
  8
0
100
AcDbLine
 62
7
  6
CONTINUOUS
 10
243.9216855336
 20
142.3936435895
 11
228.2216855336
 21
142.3936435895
  0
LINE
  5
2BF
100
AcDbEntity
  8
0
100
AcDbLine
 62
7
  6
CONTINUOUS
 10
243.9216855336
 20
173.1132320965
 11
228.2216855336
 21
173.1132320965
  0
LINE
  5
2C0
100
AcDbEntity
  8
0
100
AcDbLine
 62
7
  6
CONTINUOUS
 10
228.2216855336
 20
140.2096529284
 11
228.2216855336
 21
264.4096529284
  0
LINE
  5
2C1
100
AcDbEntity
  8
0
100
AcDbLine
 62
7
  6
CONTINUOUS
 10
254.2416856557
 20
256.6096529284
 11
253.9016856557
 21
255.9796529284
  0
LINE
  5
2C2
100
AcDbEntity
  8
0
100
AcDbLine
 62
7
  6
CONTINUOUS
 10
245.4216855336
 20
184.3772694522
 11
228.2216855336
 21
184.3772694522
  0
LINE
  5
2C3
100
AcDbEntity
  8
0
100
AcDbLine
 62
7
  6
CONTINUOUS
 10
256.8839272647
 20
217.8766370214
 11
258.3839272647
 21
218.3096497233
  0
LINE
  5
2C4
100
AcDbEntity
  8
0
100
AcDbLine
 62
7
  6
CONTINUOUS
 10
259.8839272647
 20
217.0106116176
 11
258.3839272647
 21
216.5775989157
  0
LINE
  5
2C5
100
AcDbEntity
  8
0
100
AcDbLine
 62
7
  6
CONTINUOUS
 10
247.4216855336
 20
195.6096529284
 11
248.148186134
 21
195.6096529284
  0
LINE
  5
2C6
100
AcDbEntity
  8
0
100
AcDbLine
 62
7
  6
CONTINUOUS
 10
243.9216855336
 20
214.4356361055
 11
243.9216855336
 21
140.2096529284
  0
LINE
  5
2C7
100
AcDbEntity
  8
0
100
AcDbLine
 62
7
  6
CONTINUOUS
 10
245.4216855336
 20
214.4356361055
 11
245.4216855336
 21
141.7096529284
  0
LINE
  5
2C8
100
AcDbEntity
  8
0
100
AcDbLine
 62
7
  6
CONTINUOUS
 10
256.0316856557
 20
203.7596529284
 11
254.2416856557
 21
203.4096529284
  0
LINE
  5
2C9
100
AcDbEntity
  8
0
100
AcDbLine
 62
7
  6
CONTINUOUS
 10
247.4216855336
 20
230.0096529284
 11
247.4216855336
 21
195.6096529284
  0
LINE
  5
2CA
100
AcDbEntity
  8
0
100
AcDbLine
 62
7
  6
CONTINUOUS
 10
248.1481862562
 20
264.4096529284
 11
248.148186134
 21
195.6096529284
  0
LINE
  5
2CB
100
AcDbEntity
  8
0
100
AcDbLine
 62
7
  6
CONTINUOUS
 10
250.0216856557
 20
263.1096529284
 11
250.0216856557
 21
196.9096532554
  0
LINE
  5
2CC
100
AcDbEntity
  8
0
100
AcDbLine
 62
7
  6
CONTINUOUS
 10
253.4016856557
 20
204.0396529284
 11
252.4616856557
 21
203.4646529284
  0
LINE
  5
2CD
100
AcDbEntity
  8
0
100
AcDbLine
 62
7
  6
CONTINUOUS
 10
253.9016856557
 20
204.0396529284
 11
253.4016856557
 21
204.0396529284
  0
LINE
  5
2CE
100
AcDbEntity
  8
0
100
AcDbLine
 62
7
  6
CONTINUOUS
 10
252.4616856557
 20
256.8896529284
 11
252.4616856557
 21
203.1296529284
  0
LINE
  5
2CF
100
AcDbEntity
  8
0
100
AcDbLine
 62
7
  6
CONTINUOUS
 10
253.4016856557
 20
255.9796529284
 11
253.4016856557
 21
204.0396529284
  0
LINE
  5
2D0
100
AcDbEntity
  8
0
100
AcDbLine
 62
7
  6
CONTINUOUS
 10
253.9016856557
 20
255.9796529284
 11
253.9016856557
 21
204.0396529284
  0
LINE
  5
2D1
100
AcDbEntity
  8
0
100
AcDbLine
 62
7
  6
CONTINUOUS
 10
254.2416856557
 20
256.6096529284
 11
254.2416856557
 21
203.4096529284
  0
LINE
  5
2D2
100
AcDbEntity
  8
0
100
AcDbLine
 62
7
  6
CONTINUOUS
 10
253.9016856557
 20
204.0396529284
 11
254.2416856557
 21
203.4096529284
  0
LINE
  5
2D3
100
AcDbEntity
  8
0
100
AcDbLine
 62
7
  6
CONTINUOUS
 10
256.0316856557
 20
256.2596529284
 11
256.0316856557
 21
203.7596529284
  0
LINE
  5
2D4
100
AcDbEntity
  8
0
100
AcDbLine
 62
7
  6
CONTINUOUS
 10
256.5216856557
 20
252.7296529284
 11
256.5216856557
 21
207.2896529284
  0
LINE
  5
2D5
100
AcDbEntity
  8
0
100
AcDbLine
 62
7
  6
CONTINUOUS
 10
256.8839272647
 20
217.0106116176
 11
256.8839272647
 21
217.8766370214
  0
LINE
  5
2D6
100
AcDbEntity
  8
0
100
AcDbLine
 62
7
  6
CONTINUOUS
 10
258.3839272647
 20
217.0251498975
 11
258.3839272647
 21
216.5775989157
  0
LINE
  5
2D7
100
AcDbEntity
  8
0
100
AcDbLine
 62
7
  6
CONTINUOUS
 10
256.5216856557
 20
207.2896529284
 11
256.0316856557
 21
203.7596529284
  0
LINE
  5
2D8
100
AcDbEntity
  8
0
100
AcDbLine
 62
7
  6
CONTINUOUS
 10
245.4216855336
 20
214.4356361055
 11
243.9216855336
 21
214.4356361055
  0
LINE
  5
2D9
100
AcDbEntity
  8
0
100
AcDbLine
 62
7
  6
CONTINUOUS
 10
259.8839272647
 20
217.8766370214
 11
259.8839272647
 21
217.0106116176
  0
LINE
  5
2DA
100
AcDbEntity
  8
0
100
AcDbLine
 62
7
  6
CONTINUOUS
 10
261.3839272647
 20
217.7986947351
 11
261.3839272647
 21
217.4436243195
  0
LINE
  5
2DB
100
AcDbEntity
  8
0
100
AcDbLine
 62
7
  6
CONTINUOUS
 10
262.5839272647
 20
215.9096529284
 11
262.5839272647
 21
244.1096529284
  0
LINE
  5
2DC
100
AcDbEntity
  8
0
100
AcDbLine
 62
7
  6
CONTINUOUS
 10
262.8839272647
 20
216.20966061
 11
262.8839272647
 21
243.8096452469
  0
LINE
  5
2DD
100
AcDbEntity
  8
0
100
AcDbLine
 62
7
  6
CONTINUOUS
 10
262.5839272647
 20
215.9096529284
 11
256.5216856557
 21
215.9096529284
  0
LINE
  5
2DE
100
AcDbEntity
  8
0
100
AcDbLine
 62
7
  6
CONTINUOUS
 10
258.3839272647
 20
216.5775989157
 11
256.8839272647
 21
217.0106116176
  0
LINE
  5
2DF
100
AcDbEntity
  8
0
100
AcDbLine
 62
7
  6
CONTINUOUS
 10
258.3839272647
 20
218.3096497233
 11
259.8839272647
 21
217.8766370214
  0
LINE
  5
2E0
100
AcDbEntity
  8
0
100
AcDbLine
 62
7
  6
CONTINUOUS
 10
256.0316856557
 20
256.2596529284
 11
256.5216856557
 21
252.7296529284
  0
LINE
  5
2E1
100
AcDbEntity
  8
0
100
AcDbLine
 62
7
  6
CONTINUOUS
 10
228.2216855336
 20
230.0096529284
 11
247.4216853988
 21
230.0096529284
  0
LINE
  5
2E2
100
AcDbEntity
  8
0
100
AcDbLine
 62
7
  6
CONTINUOUS
 10
262.5839272647
 20
244.1096529284
 11
256.5216856557
 21
244.1096529284
  0
LINE
  5
2E3
100
AcDbEntity
  8
0
100
AcDbLine
 62
7
  6
CONTINUOUS
 10
253.4016856557
 20
255.9796529284
 11
252.4616856557
 21
256.5546529284
  0
LINE
  5
2E4
100
AcDbEntity
  8
0
100
AcDbLine
 62
7
  6
CONTINUOUS
 10
253.9016856557
 20
255.9796529284
 11
253.4016856557
 21
255.9796529284
  0
LINE
  5
2E5
100
AcDbEntity
  8
0
100
AcDbLine
 62
7
  6
CONTINUOUS
 10
256.0316856557
 20
256.2596529284
 11
254.2416856557
 21
256.6096529284
  0
LINE
  5
2E6
100
AcDbEntity
  8
0
100
AcDbLine
 62
7
  6
CONTINUOUS
 10
228.2216855336
 20
264.4096529284
 11
248.1481862562
 21
264.4096529284
  0
ARC
  5
2E7
100
AcDbEntity
  8
0
100
AcDbCircle
 62
7
  6
CONTINUOUS
 10
134.2954311811
 20
184.3772694522
 40
20.0
100
AcDbArc
 50
180.0
 51
214.2775187446
  0
ARC
  5
2E8
100
AcDbEntity
  8
0
100
AcDbCircle
 62
7
  6
CONTINUOUS
 10
134.2954311811
 20
184.3772694522
 40
18.5
100
AcDbArc
 50
180.0
 51
214.2775187446
  0
ARC
  5
2E9
100
AcDbEntity
  8
0
100
AcDbCircle
 62
7
  6
CONTINUOUS
 10
128.0454311811
 20
179.0096529284
 40
7.25
100
AcDbArc
 50
180.0
 51
360.0
  0
ARC
  5
2EA
100
AcDbEntity
  8
0
100
AcDbCircle
 62
7
  6
CONTINUOUS
 10
128.0454311811
 20
189.0096529284
 40
7.25
100
AcDbArc
 50
0.0
 51
180.0
  0
ARC
  5
2EB
100
AcDbEntity
  8
0
100
AcDbCircle
 62
7
  6
CONTINUOUS
 10
148.6954311811
 20
150.4096529284
 40
7.25
100
AcDbArc
 50
180.0
 51
360.0
  0
ARC
  5
2EC
100
AcDbEntity
  8
0
100
AcDbCircle
 62
7
  6
CONTINUOUS
 10
148.6954311811
 20
160.4096529284
 40
7.25
100
AcDbArc
 50
0.0
 51
180.0
  0
ARC
  5
2ED
100
AcDbEntity
  8
0
100
AcDbCircle
 62
7
  6
CONTINUOUS
 10
128.0454311811
 20
179.0096529284
 40
7.0
100
AcDbArc
 50
180.0
 51
360.0
  0
ARC
  5
2EE
100
AcDbEntity
  8
0
100
AcDbCircle
 62
7
  6
CONTINUOUS
 10
128.0454311811
 20
189.0096529284
 40
7.0
100
AcDbArc
 50
0.0
 51
180.0
  0
ARC
  5
2EF
100
AcDbEntity
  8
0
100
AcDbCircle
 62
7
  6
CONTINUOUS
 10
148.6954311811
 20
160.4096529284
 40
7.0
100
AcDbArc
 50
0.0
 51
180.0
  0
ARC
  5
2F0
100
AcDbEntity
  8
0
100
AcDbCircle
 62
7
  6
CONTINUOUS
 10
148.6954311811
 20
150.4096529284
 40
7.0
100
AcDbArc
 50
180.0
 51
360.0
  0
ARC
  5
2F1
100
AcDbEntity
  8
0
100
AcDbCircle
 62
7
  6
CONTINUOUS
 10
128.0454311811
 20
189.0096529284
 40
6.0
100
AcDbArc
 50
0.0
 51
180.0
  0
ARC
  5
2F2
100
AcDbEntity
  8
0
100
AcDbCircle
 62
7
  6
CONTINUOUS
 10
128.0454311811
 20
179.0096529284
 40
6.0
100
AcDbArc
 50
180.0
 51
360.0
  0
ARC
  5
2F3
100
AcDbEntity
  8
0
100
AcDbCircle
 62
7
  6
CONTINUOUS
 10
148.6954311811
 20
160.4096529284
 40
6.0
100
AcDbArc
 50
0.0
 51
180.0
  0
ARC
  5
2F4
100
AcDbEntity
  8
0
100
AcDbCircle
 62
7
  6
CONTINUOUS
 10
148.6954311811
 20
150.4096529284
 40
6.0
100
AcDbArc
 50
180.0
 51
360.0
  0
ARC
  5
2F5
100
AcDbEntity
  8
0
100
AcDbCircle
 62
7
  6
CONTINUOUS
 10
142.8384658388
 20
145.2096529284
 40
5.0
100
AcDbArc
 50
214.2775187446
 51
270.0
  0
ARC
  5
2F6
100
AcDbEntity
  8
0
100
AcDbCircle
 62
7
  6
CONTINUOUS
 10
142.8384658388
 20
145.2096529284
 40
3.5
100
AcDbArc
 50
214.2775187446
 51
270.0
  0
ARC
  5
2F7
100
AcDbEntity
  8
0
100
AcDbCircle
 62
7
  6
CONTINUOUS
 10
148.6954311811
 20
230.0096529284
 40
36.4
100
AcDbArc
 50
205.3316750167
 51
334.6683249833
  0
CIRCLE
  5
2F8
100
AcDbEntity
  8
0
100
AcDbCircle
 62
7
  6
CONTINUOUS
 10
148.6954311811
 20
230.0096529284
 40
34.4
  0
CIRCLE
  5
2F9
100
AcDbEntity
  8
0
100
AcDbCircle
 62
7
  6
CONTINUOUS
 10
148.6954311811
 20
230.0096529284
 40
33.0999996731
  0
CIRCLE
  5
2FA
100
AcDbEntity
  8
0
100
AcDbCircle
 62
7
  6
CONTINUOUS
 10
148.6954311811
 20
230.0096529284
 40
30.0309227748
  0
CIRCLE
  5
2FB
100
AcDbEntity
  8
0
100
AcDbCircle
 62
7
  6
CONTINUOUS
 10
148.6954311811
 20
230.0096529284
 40
26.88
  0
CIRCLE
  5
2FC
100
AcDbEntity
  8
0
100
AcDbCircle
 62
7
  6
CONTINUOUS
 10
148.6954311811
 20
230.0096529284
 40
26.6
  0
CIRCLE
  5
2FD
100
AcDbEntity
  8
0
100
AcDbCircle
 62
7
  6
CONTINUOUS
 10
148.6954311811
 20
230.0096529284
 40
26.25
  0
CIRCLE
  5
2FE
100
AcDbEntity
  8
0
100
AcDbCircle
 62
7
  6
CONTINUOUS
 10
148.6954311811
 20
230.0096529284
 40
22.72
  0
CIRCLE
  5
2FF
100
AcDbEntity
  8
0
100
AcDbCircle
 62
7
  6
CONTINUOUS
 10
148.6954311811
 20
230.0096529284
 40
22.25
  0
CIRCLE
  5
300
100
AcDbEntity
  8
0
100
AcDbCircle
 62
7
  6
CONTINUOUS
 10
148.6954311811
 20
230.0096529284
 40
22.2114835164
  0
CIRCLE
  5
301
100
AcDbEntity
  8
0
100
AcDbCircle
 62
7
  6
CONTINUOUS
 10
148.6954311811
 20
230.0096529284
 40
18.3376
  0
CIRCLE
  5
302
100
AcDbEntity
  8
0
100
AcDbCircle
 62
7
  6
CONTINUOUS
 10
148.6954311811
 20
230.0096529284
 40
16.75
  0
CIRCLE
  5
303
100
AcDbEntity
  8
0
100
AcDbCircle
 62
7
  6
CONTINUOUS
 10
148.6954311811
 20
230.0096529284
 40
15.425
  0
CIRCLE
  5
304
100
AcDbEntity
  8
0
100
AcDbCircle
 62
7
  6
CONTINUOUS
 10
148.6954311811
 20
230.0096529284
 40
14.1
  0
CIRCLE
  5
305
100
AcDbEntity
  8
0
100
AcDbCircle
 62
7
  6
CONTINUOUS
 10
148.6954311811
 20
230.0096529284
 40
13.8
  0
CIRCLE
  5
306
100
AcDbEntity
  8
0
100
AcDbCircle
 62
7
  6
CONTINUOUS
 10
148.6954311811
 20
230.0096529284
 40
10.6
  0
CIRCLE
  5
307
100
AcDbEntity
  8
0
100
AcDbCircle
 62
7
  6
CONTINUOUS
 10
148.6954311811
 20
230.0096529284
 40
10.0
  0
ARC
  5
308
100
AcDbEntity
  8
0
100
AcDbCircle
 62
7
  6
CONTINUOUS
 10
163.0954311811
 20
184.3772694522
 40
20.0
100
AcDbArc
 50
325.7224812554
 51
360.0
  0
ARC
  5
309
100
AcDbEntity
  8
0
100
AcDbCircle
 62
7
  6
CONTINUOUS
 10
163.0954311811
 20
184.3772694522
 40
18.5
100
AcDbArc
 50
325.7224812554
 51
360.0
  0
ARC
  5
30A
100
AcDbEntity
  8
0
100
AcDbCircle
 62
7
  6
CONTINUOUS
 10
169.3454311811
 20
189.0096529284
 40
7.25
100
AcDbArc
 50
0.0
 51
180.0
  0
ARC
  5
30B
100
AcDbEntity
  8
0
100
AcDbCircle
 62
7
  6
CONTINUOUS
 10
169.3454311811
 20
179.0096529284
 40
7.25
100
AcDbArc
 50
180.0
 51
360.0
  0
ARC
  5
30C
100
AcDbEntity
  8
0
100
AcDbCircle
 62
7
  6
CONTINUOUS
 10
169.3454311811
 20
189.0096529284
 40
7.0
100
AcDbArc
 50
0.0
 51
180.0
  0
ARC
  5
30D
100
AcDbEntity
  8
0
100
AcDbCircle
 62
7
  6
CONTINUOUS
 10
169.3454311811
 20
179.0096529284
 40
7.0
100
AcDbArc
 50
180.0
 51
360.0
  0
ARC
  5
30E
100
AcDbEntity
  8
0
100
AcDbCircle
 62
7
  6
CONTINUOUS
 10
169.3454311811
 20
179.0096529284
 40
6.0
100
AcDbArc
 50
180.0
 51
360.0
  0
ARC
  5
30F
100
AcDbEntity
  8
0
100
AcDbCircle
 62
7
  6
CONTINUOUS
 10
169.3454311811
 20
189.0096529284
 40
6.0
100
AcDbArc
 50
0.0
 51
180.0
  0
ARC
  5
310
100
AcDbEntity
  8
0
100
AcDbCircle
 62
7
  6
CONTINUOUS
 10
154.5523965235
 20
145.2096529284
 40
5.0
100
AcDbArc
 50
270.0
 51
325.7224812554
  0
ARC
  5
311
100
AcDbEntity
  8
0
100
AcDbCircle
 62
7
  6
CONTINUOUS
 10
154.5523965235
 20
145.2096529284
 40
3.5
100
AcDbArc
 50
270.0
 51
325.7224812554
  0
ARC
  5
312
100
AcDbEntity
  8
0
100
AcDbCircle
 62
7
  6
CONTINUOUS
 10
173.1966811492
 20
260.8041532491
 40
2.2
100
AcDbArc
 50
237.80483894
 51
350.7036042359
  0
ARC
  5
313
100
AcDbEntity
  8
0
100
AcDbCircle
 62
7
  6
CONTINUOUS
 10
179.4899315018
 20
254.5109028965
 40
2.2
100
AcDbArc
 50
99.2963957641
 51
214.8253097593
  0
ARC
  5
314
100
AcDbEntity
  8
0
100
AcDbCircle
 62
7
  6
CONTINUOUS
 10
178.3232053128
 20
259.6374270601
 40
2.0
100
AcDbArc
 50
3.5903778907
 51
86.4096221093
  0
ARC
  5
315
100
AcDbEntity
  8
0
100
AcDbCircle
 62
7
  6
CONTINUOUS
 10
175.8483315787
 20
252.2128058577
 40
0.5
100
AcDbArc
 50
315.0
 51
45.0
  0
ARC
  5
316
100
AcDbEntity
  8
0
100
AcDbCircle
 62
7
  6
CONTINUOUS
 10
170.8985841104
 20
257.162553326
 40
0.5
100
AcDbArc
 50
45.0
 51
135.0
  0
ARC
  5
317
100
AcDbEntity
  8
0
100
AcDbCircle
 62
7
  6
CONTINUOUS
 10
253.2761762977
 20
199.9787301536
 40
3.254490642
100
AcDbArc
 50
104.4932948345
 51
178.1302992646
  0
ARC
  5
318
100
AcDbEntity
  8
0
100
AcDbCircle
 62
7
  6
CONTINUOUS
 10
253.2761762977
 20
260.0405757033
 40
3.254490642
100
AcDbArc
 50
180.0
 51
255.5067051655
  0
ARC
  5
319
100
AcDbEntity
  8
0
100
AcDbCircle
 62
7
  6
CONTINUOUS
 10
248.148186134
 20
197.6096529284
 40
2.0
100
AcDbArc
 50
270.0
 51
339.5126948841
  0
ARC
  5
31A
100
AcDbEntity
  8
0
100
AcDbCircle
 62
7
  6
CONTINUOUS
 10
248.1481862562
 20
262.4096529284
 40
2.0
100
AcDbArc
 50
20.4873151147
 51
90.0
  0
ARC
  5
31B
100
AcDbEntity
  8
0
100
AcDbCircle
 62
7
  6
CONTINUOUS
 10
247.4216855336
 20
193.6096529284
 40
2.0
100
AcDbArc
 50
90.0
 51
180.0
  0
ARC
  5
31C
100
AcDbEntity
  8
0
100
AcDbCircle
 62
7
  6
CONTINUOUS
 10
243.9216855336
 20
141.7096529284
 40
1.5
100
AcDbArc
 50
270.0
 51
360.0
  0
ARC
  5
31D
100
AcDbEntity
  8
0
100
AcDbCircle
 62
7
  6
CONTINUOUS
 10
262.5839272647
 20
243.8096529284
 40
0.3
100
AcDbArc
 50
0.0
 51
90.0
  0
ARC
  5
31E
100
AcDbEntity
  8
0
100
AcDbCircle
 62
7
  6
CONTINUOUS
 10
262.5839272647
 20
216.2096529284
 40
0.3
100
AcDbArc
 50
270.0
 51
360.0
  0
SPLINE
  5
31F
100
AcDbEntity
  8
0
100
AcDbSpline
 62
7
  6
CONTINUOUS
 70
0
 71
3
 72
11
 73
7
 74
5
 42
0.0000001
 43
0.0000001
 44
0.0000000001
 12
2.7729334193
 22
15.4187660599
 32
0.0
 13
-0.0000008312
 23
15.6661260865
 33
0.0
 40
0.0
 40
0.0
 40
0.0
 40
0.0
 40
0.2518936862
 40
0.5023125708
 40
0.751479929
 40
1.0
 40
1.0
 40
1.0
 40
1.0
 10
181.5954311811
 20
214.4356361055
 30
0.0
 10
181.8282593213
 20
215.7302660454
 30
0.0
 10
182.2523111384
 20
218.3195020567
 30
0.0
 10
182.7315418621
 20
222.2156265619
 30
0.0
 10
183.0284022429
 20
226.1124486345
 30
0.0
 10
183.09543125
 20
228.7118712331
 30
0.0
 10
183.0954311811
 20
230.0096534888
 30
0.0
 11
181.5954311811
 21
214.4356361055
 31
0.0
 11
182.2274739083
 21
218.3308899621
 31
0.0
 11
182.702101443
 21
222.2251670236
 31
0.0
 11
182.9959589003
 21
226.1175776526
 31
0.0
 11
183.0954311811
 21
230.0096534888
 31
0.0
  0
SPLINE
  5
320
100
AcDbEntity
  8
0
100
AcDbSpline
 62
7
  6
CONTINUOUS
 70
0
 71
3
 72
15
 73
11
 74
9
 42
0.0000001
 43
0.0000001
 44
0.0000000001
 12
3.1318134222
 22
-2.58235732
 32
0.0
 13
2.5928170844
 23
-3.1231593309
 33
0.0
 40
0.0
 40
0.0
 40
0.0
 40
0.0
 40
0.1250041135
 40
0.2500089663
 40
0.3750083391
 40
0.4999995414
 40
0.6249911746
 40
0.7499912117
 40
0.8749962292
 40
1.0
 40
1.0
 40
1.0
 40
1.0
 10
173.4012883792
 20
257.5450795841
 30
0.0
 10
173.5317848994
 20
257.4374778216
 30
0.0
 10
173.7972023496
 20
257.2276859777
 30
0.0
 10
174.1972276418
 20
256.9155531635
 30
0.0
 10
174.587884002
 20
256.5914999642
 30
0.0
 10
174.9586086479
 20
256.2445080833
 30
0.0
 10
175.3035619278
 20
255.8719018286
 30
0.0
 10
175.6261964411
 20
255.4800964615
 30
0.0
 10
175.9379938879
 20
255.0798167554
 30
0.0
 10
176.1483275475
 20
254.8148155545
 30
0.0
 10
176.2563648517
 20
254.6846799901
 30
0.0
 11
173.4012883792
 21
257.5450795841
 31
0.0
 11
173.7975189909
 21
257.2281117119
 31
0.0
 11
174.1956741804
 21
256.9135599354
 31
0.0
 11
174.5845726074
 21
256.5876675987
 31
0.0
 11
174.9543129983
 21
256.2402396351
 31
0.0
 11
175.2998326258
 21
255.8687129083
 31
0.0
 11
175.624384316
 21
255.4786914498
 31
0.0
 11
175.9386115006
 21
255.0802791885
 31
0.0
 11
176.2563648517
 21
254.6846799901
 31
0.0
  0
SPLINE
  5
321
100
AcDbEntity
  8
0
100
AcDbSpline
 62
7
  6
CONTINUOUS
 70
0
 71
3
 72
15
 73
11
 74
9
 42
0.0000001
 43
0.0000001
 44
0.0000000001
 12
1.6897446758
 22
-1.1673336045
 32
0.0
 13
1.1728500288
 23
-1.6859204085
 33
0.0
 40
0.0
 40
0.0
 40
0.0
 40
0.0
 40
0.1255721292
 40
0.2514309668
 40
0.3762973133
 40
0.4999693403
 40
0.6236719144
 40
0.7485917626
 40
0.8744663787
 40
1.0
 40
1.0
 40
1.0
 40
1.0
 10
176.2563648517
 20
254.6846799901
 30
0.0
 10
176.3270931306
 20
254.635818468
 30
0.0
 10
176.472667783
 20
254.5438111088
 30
0.0
 10
176.6923007362
 20
254.4092560018
 30
0.0
 10
176.9035441541
 20
254.2635588184
 30
0.0
 10
177.0960374844
 20
254.0953995357
 30
0.0
 10
177.2631849512
 20
253.9019954612
 30
0.0
 10
177.4081936107
 20
253.6902187898
 30
0.0
 10
177.5425942445
 20
253.4704728772
 30
0.0
 10
177.6348806812
 20
253.3250817215
 30
0.0
 10
177.6839580517
 20
253.2545351568
 30
0.0
 11
176.2563648517
 21
254.6846799901
 31
0.0
 11
176.4727955437
 21
254.5444402113
 31
0.0
 11
176.6916514565
 21
254.4069062625
 31
0.0
 11
176.9012631271
 21
254.2591671303
 31
0.0
 11
177.0918078077
 21
254.0912248491
 31
0.0
 11
177.2588374082
 21
253.8997963492
 31
0.0
 11
177.4059527575
 21
253.6896122735
 31
0.0
 11
177.5433425439
 21
253.4706275762
 31
0.0
 11
177.6839580517
 21
253.2545351568
 31
0.0
  0
SPLINE
  5
322
100
AcDbEntity
  8
0
100
AcDbSpline
 62
7
  6
CONTINUOUS
 70
0
 71
3
 72
15
 73
11
 74
9
 42
0.0000001
 43
0.0000001
 44
0.0000000001
 12
1.7108275415
 22
-1.1439785536
 32
0.0
 13
1.1495299379
 23
-1.7071024368
 33
0.0
 40
0.0
 40
0.0
 40
0.0
 40
0.0
 40
0.1256812934
 40
0.2516325378
 40
0.3764638539
 40
0.4999639234
 40
0.623498042
 40
0.7483890996
 40
0.8743591719
 40
1.0
 40
1.0
 40
1.0
 40
1.0
 10
171.9738058276
 20
258.9753350658
 30
0.0
 10
172.0454788336
 20
258.9274094977
 30
0.0
 10
172.1928326328
 20
258.8373241634
 30
0.0
 10
172.4148206058
 20
258.7054015072
 30
0.0
 10
172.6279421941
 20
258.5615805011
 30
0.0
 10
172.821360693
 20
258.393925092
 30
0.0
 10
172.9879422015
 20
258.1995458918
 30
0.0
 10
173.1310325369
 20
257.9858652148
 30
0.0
 10
173.2627824807
 20
257.7637512186
 30
0.0
 10
173.3531457481
 20
257.6165735054
 30
0.0
 10
173.4012883792
 20
257.5450795841
 30
0.0
 11
171.9738058276
 21
258.9753350658
 31
0.0
 11
172.1929303467
 21
258.8378964833
 31
0.0
 11
172.4141998747
 21
258.7028689533
 31
0.0
 11
172.6256076867
 21
258.5568903053
 31
0.0
 11
172.8168827448
 21
258.3895086261
 31
0.0
 11
172.9832985628
 21
258.1972999452
 31
0.0
 11
173.1286143853
 21
257.9852869015
 31
0.0
 11
173.2634783741
 21
257.7638722849
 31
0.0
 11
173.4012883792
 21
257.5450795841
 31
0.0
  0
SPLINE
  5
323
100
AcDbEntity
  8
0
100
AcDbSpline
 62
7
  6
CONTINUOUS
 70
0
 71
3
 72
11
 73
7
 74
5
 42
0.0000001
 43
0.0000001
 44
0.0000000001
 12
0.0000037064
 22
-15.6661261172
 32
0.0
 13
2.7729518411
 23
-15.4187627781
 33
0.0
 40
0.0
 40
0.0
 40
0.0
 40
0.0
 40
0.2485200732
 40
0.497687403
 40
0.7481063002
 40
1.0
 40
1.0
 40
1.0
 40
1.0
 10
114.2954311811
 20
230.0096534867
 30
0.0
 10
114.2954314882
 20
228.7118712169
 30
0.0
 10
114.3624610203
 20
226.1124488312
 30
0.0
 10
114.6593179351
 20
222.2156264851
 30
0.0
 10
115.1385531671
 20
218.3195025658
 30
0.0
 10
115.5626014816
 20
215.7302658397
 30
0.0
 10
115.7954311811
 20
214.4356361055
 30
0.0
 11
114.2954311811
 21
230.0096534867
 31
0.0
 11
114.3949036628
 21
226.1175776134
 31
0.0
 11
114.6887596584
 21
222.2251673124
 31
0.0
 11
115.1633887637
 21
218.3308902359
 31
0.0
 11
115.7954311811
 21
214.4356361055
 31
0.0
  0
SPLINE
  5
324
100
AcDbEntity
  8
0
100
AcDbSpline
 62
7
  6
CONTINUOUS
 70
0
 71
3
 72
21
 73
17
 74
15
 42
0.0000001
 43
0.0000001
 44
0.0000000001
 12
5.1414842787
 22
-2.0358587802
 32
0.0
 13
0.0
 23
5.5298807909
 33
0.0
 40
0.0
 40
0.0
 40
0.0
 40
0.0
 40
0.0662211788
 40
0.1363020338
 40
0.2842398339
 40
0.4356334421
 40
0.5099107279
 40
0.5817868035
 40
0.6502943145
 40
0.7146006167
 40
0.7740624702
 40
0.8282955831
 40
0.8772670933
 40
0.9214139097
 40
0.961767292
 40
1.0
 40
1.0
 40
1.0
 40
1.0
 10
256.5214477322
 20
216.2677024268
 30
0.0
 10
256.6349394488
 20
216.2227634373
 30
0.0
 10
256.873317508
 20
216.1420321649
 30
0.0
 10
257.3826364196
 20
216.017087011
 30
0.0
 10
258.0610509703
 20
215.9332799106
 30
0.0
 10
258.7519570304
 20
215.9434053377
 30
0.0
 10
259.2968318205
 20
216.0096526986
 30
0.0
 10
259.6853523583
 20
216.0867257482
 30
0.0
 10
260.0487324105
 20
216.189947074
 30
0.0
 10
260.3800484508
 20
216.3173576687
 30
0.0
 10
260.6730363621
 20
216.4665790115
 30
0.0
 10
260.9222284974
 20
216.6349719528
 30
0.0
 10
261.1229697302
 20
216.8197641562
 30
0.0
 10
261.2711953447
 20
217.0183309811
 30
0.0
 10
261.3629217386
 20
217.2275812491
 30
0.0
 10
261.3839272647
 20
217.3731502137
 30
0.0
 10
261.3839272647
 20
217.4436243195
 30
0.0
 11
256.5214477322
 21
216.2677024268
 31
0.0
 11
256.8679497265
 21
216.1492317115
 31
0.0
 11
257.2441322824
 21
216.0561028431
 31
0.0
 11
258.0556408813
 21
215.9526327476
 31
0.0
 11
258.8927328084
 21
215.9653554743
 31
0.0
 11
259.3004250859
 21
216.0153362756
 31
0.0
 11
259.6901738607
 21
216.0932799528
 31
0.0
 11
260.0543481822
 21
216.1976618169
 31
0.0
 11
260.3858186045
 21
216.3264372726
 31
0.0
 11
260.67809552
 21
216.477085203
 31
0.0
 11
260.9254556778
 21
216.6466568737
 31
0.0
 11
261.1230578455
 21
216.8318313994
 31
0.0
 11
261.2670317428
 21
217.0289844604
 31
0.0
 11
261.3545589909
 21
217.2342516834
 31
0.0
 11
261.3839272647
 21
217.4436243195
 31
0.0
  0
SPLINE
  5
325
100
AcDbEntity
  8
0
100
AcDbSpline
 62
7
  6
CONTINUOUS
 70
0
 71
3
 72
16
 73
12
 74
10
 42
0.0000001
 43
0.0000001
 44
0.0000000001
 12
0.0
 22
-1.8753248252
 32
0.0
 13
-1.8753248252
 23
0.0
 33
0.0
 40
0.0
 40
0.0
 40
0.0
 40
0.0
 40
0.0443207448
 40
0.0895450059
 40
0.1855299599
 40
0.2929037055
 40
0.4135477336
 40
0.5470767882
 40
0.6914922408
 40
0.8437129434
 40
1.0
 40
1.0
 40
1.0
 40
1.0
 10
245.4216855336
 20
173.9580348981
 30
0.0
 10
245.4216855336
 20
173.9303296338
 30
0.0
 10
245.4167371402
 20
173.8742336662
 30
0.0
 10
245.3868228633
 20
173.7616770076
 30
0.0
 10
245.3099339682
 20
173.6236999663
 30
0.0
 10
245.1671490573
 20
173.477626808
 30
0.0
 10
244.978449253
 20
173.3509382135
 30
0.0
 10
244.7507241517
 20
173.2475776691
 30
0.0
 10
244.4921970201
 20
173.1709413612
 30
0.0
 10
244.2124093049
 20
173.1237954754
 30
0.0
 10
244.0193818659
 20
173.1132320965
 30
0.0
 10
243.9216855336
 20
173.1132320965
 30
0.0
 11
245.4216855336
 21
173.9580348981
 31
0.0
 11
245.414462312
 21
173.8752335689
 31
0.0
 11
245.3928627297
 21
173.7932200054
 31
0.0
 11
245.3075044103
 21
173.6347427974
 31
0.0
 11
245.1688898058
 21
173.4886876604
 31
0.0
 11
244.982345108
 21
173.3606694447
 31
0.0
 11
244.7550407915
 21
173.2556071225
 31
0.0
 11
244.4957107974
 21
173.1775391183
 31
0.0
 11
244.2143246425
 21
173.1294651534
 31
0.0
 11
243.9216855336
 21
173.1132320965
 31
0.0
  0
SPLINE
  5
326
100
AcDbEntity
  8
0
100
AcDbSpline
 62
7
  6
CONTINUOUS
 70
0
 71
3
 72
19
 73
15
 74
13
 42
0.0000001
 43
0.0000001
 44
0.0000000001
 12
0.0
 22
5.6959509742
 32
0.0
 13
-5.0700591622
 23
-2.5958346621
 33
0.0
 40
0.0
 40
0.0
 40
0.0
 40
0.0
 40
0.038157848
 40
0.0799822523
 40
0.1264886921
 40
0.1780257133
 40
0.2344836883
 40
0.2954698772
 40
0.3604247749
 40
0.4286900008
 40
0.5720419361
 40
0.7194136813
 40
0.8641990842
 40
1.0
 40
1.0
 40
1.0
 40
1.0
 10
261.3839272647
 20
217.7986947351
 30
0.0
 10
261.3839272647
 20
217.8711431456
 30
0.0
 10
261.3614969497
 20
218.0234711942
 30
0.0
 10
261.269605645
 20
218.2472617667
 30
0.0
 10
261.1221790321
 20
218.4698193717
 30
0.0
 10
260.922599815
 20
218.6862046999
 30
0.0
 10
260.6747150202
 20
218.8912228168
 30
0.0
 10
260.3830204298
 20
219.0792391958
 30
0.0
 10
260.0526983597
 20
219.2446636637
 30
0.0
 10
259.5609209785
 20
219.4309215399
 30
0.0
 10
258.8899955569
 20
219.5754713854
 30
0.0
 10
258.0582717542
 20
219.5927674601
 30
0.0
 10
257.2527860831
 20
219.4543345959
 30
0.0
 10
256.7509380392
 20
219.2631751367
 30
0.0
 10
256.5214318135
 20
219.1456695619
 30
0.0
 11
261.3839272647
 21
217.7986947351
 31
0.0
 11
261.3544054043
 21
218.0140256651
 31
0.0
 11
261.2665200584
 21
218.2354519122
 31
0.0
 11
261.122237331
 21
218.4576087425
 31
0.0
 11
260.9246482237
 21
218.6747067033
 31
0.0
 11
260.6777676385
 21
218.8807767593
 31
0.0
 11
260.3863646594
 21
219.069862024
 31
0.0
 11
260.0558827916
 21
219.2361956377
 31
0.0
 11
259.6924340365
 21
219.3743909888
 31
0.0
 11
258.8946213248
 21
219.5481981371
 31
0.0
 11
258.0553851585
 21
219.5658714713
 31
0.0
 11
257.2428680987
 21
219.4246958979
 31
0.0
 11
256.5214318135
 21
219.1456695619
 31
0.0
  0
SPLINE
  5
327
100
AcDbEntity
  8
0
100
AcDbSpline
 62
7
  6
CONTINUOUS
 70
0
 71
3
 72
21
 73
17
 74
15
 42
0.0000001
 43
0.0000001
 44
0.0000000001
 12
0.0
 22
5.5298807909
 32
0.0
 13
-5.1414842787
 23
-2.0358587802
 33
0.0
 40
0.0
 40
0.0
 40
0.0
 40
0.0
 40
0.038232708
 40
0.0785860903
 40
0.1227329067
 40
0.1717044169
 40
0.2259375298
 40
0.2853993833
 40
0.3497056855
 40
0.4182131965
 40
0.4900892721
 40
0.5643665579
 40
0.7157601661
 40
0.8636979662
 40
0.9337788212
 40
1.0
 40
1.0
 40
1.0
 40
1.0
 10
261.3839272647
 20
217.4436243195
 30
0.0
 10
261.3839272647
 20
217.5140984253
 30
0.0
 10
261.3629217386
 20
217.6596673899
 30
0.0
 10
261.2711953447
 20
217.8689176579
 30
0.0
 10
261.1229697302
 20
218.0674844828
 30
0.0
 10
260.9222284974
 20
218.2522766862
 30
0.0
 10
260.6730363621
 20
218.4206696275
 30
0.0
 10
260.3800484508
 20
218.5698909703
 30
0.0
 10
260.0487324105
 20
218.697301565
 30
0.0
 10
259.6853523583
 20
218.8005228908
 30
0.0
 10
259.2968318205
 20
218.8775959404
 30
0.0
 10
258.7519570304
 20
218.9438433013
 30
0.0
 10
258.0610509703
 20
218.9539687284
 30
0.0
 10
257.3826364196
 20
218.870161628
 30
0.0
 10
256.873317508
 20
218.7452164741
 30
0.0
 10
256.6349394488
 20
218.6644852017
 30
0.0
 10
256.5214477322
 20
218.6195462123
 30
0.0
 11
261.3839272647
 21
217.4436243195
 31
0.0
 11
261.3545589909
 21
217.6529969557
 31
0.0
 11
261.2670317428
 21
217.8582641786
 31
0.0
 11
261.1230578455
 21
218.0554172396
 31
0.0
 11
260.9254556778
 21
218.2405917653
 31
0.0
 11
260.67809552
 21
218.410163436
 31
0.0
 11
260.3858186045
 21
218.5608113664
 31
0.0
 11
260.0543481822
 21
218.6895868221
 31
0.0
 11
259.6901738607
 21
218.7939686862
 31
0.0
 11
259.3004250859
 21
218.8719123634
 31
0.0
 11
258.8927328084
 21
218.9218931647
 31
0.0
 11
258.0556408813
 21
218.9346158914
 31
0.0
 11
257.2441322824
 21
218.8311457959
 31
0.0
 11
256.8679497265
 21
218.7380169275
 31
0.0
 11
256.5214477322
 21
218.6195462123
 31
0.0
  0
SPLINE
  5
328
100
AcDbEntity
  8
0
100
AcDbSpline
 62
7
  6
CONTINUOUS
 70
0
 71
3
 72
14
 73
10
 74
8
 42
0.0000001
 43
0.0000001
 44
0.0000000001
 12
-2.7586953432
 22
-15.4762046258
 32
0.0
 13
0.0000302637
 23
-15.7201561575
 33
0.0
 40
0.0
 40
0.0
 40
0.0
 40
0.0
 40
0.251380739
 40
0.3768743772
 40
0.5021432489
 40
0.6271279409
 40
0.7517827419
 40
0.8760762827
 40
1.0
 40
1.0
 40
1.0
 40
1.0
 10
247.4216855336
 20
230.0096534867
 30
0.0
 10
247.1905245755
 20
228.7128469012
 30
0.0
 10
246.8437835385
 20
226.7686513198
 30
0.0
 10
246.4105291934
 20
224.173269344
 30
0.0
 10
246.1092155487
 20
222.2274595057
 30
0.0
 10
245.8417486672
 20
220.2810875332
 30
0.0
 10
245.6212749028
 20
218.3338275756
 30
0.0
 10
245.4655321246
 20
216.3857838784
 30
0.0
 10
245.4216842834
 20
215.0850028344
 30
0.0
 10
245.4216855336
 20
214.4356361055
 30
0.0
 11
247.4216855336
 21
230.0096534867
 31
0.0
 11
246.7375585172
 21
226.1175776134
 31
0.0
 11
246.414160285
 21
224.1714859183
 31
0.0
 11
246.11453622
 21
222.2251673124
 31
0.0
 11
245.8492608269
 21
220.2783789328
 31
0.0
 11
245.6317929886
 21
218.3308902359
 31
0.0
 11
245.4803794064
 21
216.3828519043
 31
0.0
 11
245.4216855336
 21
214.4356361055
 31
0.0
  0
SPLINE
  5
329
100
AcDbEntity
  8
0
100
AcDbSpline
 62
7
  6
CONTINUOUS
 70
0
 71
3
 72
14
 73
10
 74
8
 42
0.0000001
 43
0.0000001
 44
0.0000000001
 12
-4.9694265891
 22
-15.2356605448
 32
0.0
 13
0.0000977852
 23
-16.0256217617
 33
0.0
 40
0.0
 40
0.0
 40
0.0
 40
0.0
 40
0.2500080429
 40
0.3750135091
 40
0.5000191815
 40
0.625024058
 40
0.7500260884
 40
0.8750204299
 40
1.0
 40
1.0
 40
1.0
 40
1.0
 10
247.4216853988
 20
230.0096529284
 30
0.0
 10
247.0075531935
 20
228.7399737034
 30
0.0
 10
246.3861490785
 20
226.8353572833
 30
0.0
 10
245.6176297756
 20
224.2770813373
 30
0.0
 10
245.0880824704
 20
222.344763505
 30
0.0
 10
244.6243977827
 20
220.3953876767
 30
0.0
 10
244.2492519937
 20
218.4266714871
 30
0.0
 10
243.9909861629
 20
216.4390080984
 30
0.0
 10
243.9216814599
 20
215.1032612114
 30
0.0
 10
243.9216855336
 20
214.4356361055
 30
0.0
 11
247.4216853988
 21
230.0096529284
 31
0.0
 11
246.1990245162
 21
226.1942345076
 31
0.0
 11
245.6254375399
 21
224.2748153018
 31
0.0
 11
245.0990578057
 21
222.3419134114
 31
0.0
 11
244.6391491061
 21
220.3921395199
 31
0.0
 11
244.2687222405
 21
218.423450759
 31
0.0
 11
244.0166954273
 21
216.4362566739
 31
0.0
 11
243.9216855336
 21
214.4356361055
 31
0.0
  0
SPLINE
  5
32A
100
AcDbEntity
  8
0
100
AcDbSpline
 62
7
  6
CONTINUOUS
 70
0
 71
3
 72
16
 73
12
 74
10
 42
0.0000001
 43
0.0000001
 44
0.0000000001
 12
0.0
 22
-1.8753248431
 32
0.0
 13
-1.8753248431
 23
0.00000009
 33
0.0
 40
0.0
 40
0.0
 40
0.0
 40
0.0
 40
0.0443207477
 40
0.0895450112
 40
0.1855299682
 40
0.2929037146
 40
0.413547742
 40
0.5470767947
 40
0.6914922449
 40
0.8437129452
 40
1.0
 40
1.0
 40
1.0
 40
1.0
 10
245.4216855336
 20
143.2384463912
 30
0.0
 10
245.4216855336
 20
143.2107411248
 30
0.0
 10
245.4167371402
 20
143.1546451534
 30
0.0
 10
245.3868228638
 20
143.0420884882
 30
0.0
 10
245.3099339696
 20
142.9041114401
 30
0.0
 10
245.1671490585
 20
142.7580382762
 30
0.0
 10
244.9784492537
 20
142.6313496802
 30
0.0
 10
244.750724152
 20
142.5279891382
 30
0.0
 10
244.4921970199
 20
142.4513528365
 30
0.0
 10
244.2124093045
 20
142.4042069604
 30
0.0
 10
244.0193818657
 20
142.3936435898
 30
0.0
 10
243.9216855336
 20
142.3936435945
 30
0.0
 11
245.4216855336
 21
143.2384463912
 31
0.0
 11
245.414462312
 21
143.1556450558
 31
0.0
 11
245.3928627297
 21
143.0736314868
 31
0.0
 11
245.3075044103
 21
142.9151542704
 31
0.0
 11
245.1688898058
 21
142.7690991284
 31
0.0
 11
244.982345108
 21
142.6410809117
 31
0.0
 11
244.7550407915
 21
142.536018592
 31
0.0
 11
244.4957107974
 21
142.4579505941
 31
0.0
 11
244.2143246425
 21
142.4098766388
 31
0.0
 11
243.9216855336
 21
142.3936435945
 31
0.0
  0
ELLIPSE
  5
32B
100
AcDbEntity
  8
0
100
AcDbEllipse
 62
7
  6
CONTINUOUS
 10
255.3839272647
 20
230.0096529284
 30
0.0
 11
24.0832242089
 21
-8.9788206787
 31
0.0
 40
0.4514162296
 41
-1.3426008161
 42
-1.2809082016
  0
ELLIPSE
  5
32C
100
AcDbEntity
  8
0
100
AcDbEllipse
 62
7
  6
CONTINUOUS
 10
261.3839272647
 20
230.0096529284
 30
0.0
 11
24.0832242089
 21
8.9788206787
 31
0.0
 40
0.4514162296
 41
-1.860684452
 42
-1.7989918375
  0
ENDSEC
  0
SECTION
  2
OBJECTS
  0
DICTIONARY
  5
32D
100
AcDbDictionary
  3
ACAD_GROUP
350
32E
  3
ACAD_MLINESTYLE
350
32F
  0
DICTIONARY
  5
32E
102
{ACAD_REACTORS
330
32D
102
}
100
AcDbDictionary
  0
DICTIONARY
  5
32F
102
{ACAD_REACTORS
330
32D
102
}
100
AcDbDictionary
  3
STANDARD
350
330
  0
MLINESTYLE
  5
330
102
{ACAD_REACTORS
330
32F
102
}
100
AcDbMlineStyle
  2
STANDARD
 70
0
  3

 62
256
 51
90.0
 52
90.0
 71
2
 49
0.5
 62
256
  6
BYLAYER
 49
-0.5
 62
256
  6
BYLAYER
  0
ENDSEC
  0
EOF
