0
SECTION
2
HEADER
9
$EXTMAX
10
210.0000000000
20
297.0000000000
30
0.0000000000
9
$EXTMIN
10
0.0000000000
20
0.0000000000
30
0.0000000000
9
$LIMMIN
10
0.0000000000
20
0.0000000000
9
$LIMMAX
10
210.0000000000
20
297.0000000000
9
$VIEWCTR
10
105.0000000000
20
148.5000000000
9
$VIEWSIZE
40
297.0000000000
9
$CLAYER
8
0
9
$LTSCALE
40
19.3600000000
9
$CELTYPE
6
BYLAYER
9
$DIMSCALE
40
1
9
$DIMASZ
40
3.5000000000
9
$DIMEXO
40
2.2000000000
9
$DIMDLI
40
13.3760000000
9
$DIMEXE
40
6.3360000000
9
$DIMCEN
40
3.1680000000
9
$DIMLFAC
40
1.0000000000
9
$DIMBLK
1
_FILLED
9
$DIMTXT
40
3.5000000000
9
$PDMODE
70
3
9
$PDSIZE
40
0.3125000000
0
ENDSEC
0
SECTION
2
TABLES
0
TABLE
2
LTYPE
70
6
0
LTYPE
2
BYBLOCK
70
0
3

72
65
73
0
40
0.0
0
LTYPE
2
BYLAYER
70
0
3

72
65
73
0
40
0.0
0
LTYPE
2
CONTINUOUS
70
64
3
Solid line
72
65
73
0
40
0
0
LTYPE
2
CENTER
70
64
3
____ _ ____ _ ____ _ ____ _ ____ _ ____ _ ____
72
65
73
4
40
0.6
49
0.375
49
-0.075
49
0.075
49
-0.075
0
LTYPE
2
HIDDEN
70
64
3
- - - - - - - - - - - - - - - - - - - -
72
65
73
2
40
0.2
49
0.1
49
-0.1
0
LTYPE
2
PHANTOM
70
64
3
_____ _ _ _____ _ _ _____ _ _ _____
72
65
73
6
40
0.8
49
0.45
49
-0.05
49
0.1
49
-0.05
49
0.1
49
-0.05
0
LTYPE
2
DOT
70
64
3
. . . . . . . . . . . . . . . . . . . .
72
65
73
2
40
0.2
49
0.1
49
-0.1
0
LTYPE
2
DASHED
70
64
3
- - - - - - - - - - - - - - - - - - - -
72
65
73
2
40
0.2
49
0.1
49
-0.1
0
ENDTAB
0
TABLE
2
LAYER
70
36
0
LAYER
2
0
70
0
62
7
6
CONTINUOUS
0
LAYER
2
DEFAULT_1
70
0
62
7
6
CENTER
0
LAYER
2
DEFAULT_2
70
0
62
8
6
HIDDEN
0
LAYER
2
DEFAULT_3
70
0
62
7
6
PHANTOM
0
LAYER
2
_2D_DELETED_OBJS
70
0
62
7
6
CONTINUOUS
0
LAYER
2
ASSI
70
0
62
7
6
CONTINUOUS
0
LAYER
2
PIANI
70
0
62
7
6
CONTINUOUS
0
LAYER
2
PUNTI
70
0
62
7
6
CONTINUOUS
0
ENDTAB
0
TABLE
2
STYLE
70
1
0
STYLE
2
STANDARD
70
0
40
0.0
41
0.7143000000
50
0.0
71
0
42
0.2
3
txt
4

0
ENDTAB
0
ENDSEC
0
SECTION
2
BLOCKS
0
BLOCK
8
0
62
2
6
CONTINUOUS
2
*D0
70
65
10
0.0000000000
20
0.0000000000
0
TEXT
8
0
62
2
6
CONTINUOUS
10
130.8027055587
20
176.3289762333
7
STANDARD
40
3.5000000000
1
%%c
50
90.0000000000
41
1.3333333333
72
0
0
TEXT
8
0
62
2
6
CONTINUOUS
10
130.8027055587
20
180.9956429000
7
STANDARD
40
3.5000000000
1
35
50
90.0000000000
41
0.7143000000
72
0
0
LINE
8
0
62
2
6
CONTINUOUS
10
120.6297075531
20
165.2008200004
11
133.1777055587
21
165.2008200004
0
LINE
8
0
62
2
6
CONTINUOUS
10
119.9699137387
20
200.2008200004
11
133.1777055587
21
200.2008200004
0
LINE
8
0
62
2
6
CONTINUOUS
10
131.6777055587
20
165.2008200004
11
131.6777055587
21
182.7008200004
0
LINE
8
0
62
2
6
CONTINUOUS
10
131.6777055587
20
200.2008200004
11
131.6777055587
21
182.7008200004
0
INSERT
8
0
62
2
6
CONTINUOUS
2
_FILLED
10
131.6777055587
20
165.2008200004
41
  3.500000
42
  3.500000
43
  3.500000
50
270.000000
0
INSERT
8
0
62
2
6
CONTINUOUS
2
_FILLED
10
131.6777055587
20
200.2008200004
41
  3.500000
42
  3.500000
43
  3.500000
50
 90.000000
0
ENDBLK
8
0
6
BYBLOCK
62
0
0
BLOCK
8
0
62
2
6
CONTINUOUS
2
*D1
70
65
10
0.0000000000
20
0.0000000000
0
TEXT
8
0
62
2
6
CONTINUOUS
10
85.1562303938
20
90.3734816860
7
STANDARD
40
3.5000000000
1
61.5
41
0.7143000000
72
0
0
LINE
8
0
62
2
6
CONTINUOUS
10
59.1077105408
20
156.8192720387
11
59.1077105408
21
87.9984816860
0
LINE
8
0
62
2
6
CONTINUOUS
10
120.6077105408
20
158.1388596676
11
120.6077105408
21
87.9984816860
0
LINE
8
0
62
2
6
CONTINUOUS
10
59.1077105408
20
89.4984816860
11
89.8577105408
21
89.4984816860
0
LINE
8
0
62
2
6
CONTINUOUS
10
120.6077105408
20
89.4984816860
11
89.8577105408
21
89.4984816860
0
INSERT
8
0
62
2
6
CONTINUOUS
2
_FILLED
10
59.1077105408
20
89.4984816860
41
  3.500000
42
  3.500000
43
  3.500000
50
180.000000
0
INSERT
8
0
62
2
6
CONTINUOUS
2
_FILLED
10
120.6077105408
20
89.4984816860
41
  3.500000
42
  3.500000
43
  3.500000
0
ENDBLK
8
0
6
BYBLOCK
62
0
0
BLOCK
8
0
62
2
6
CONTINUOUS
2
*D2
70
65
10
0.0000000000
20
0.0000000000
0
TEXT
8
0
62
2
6
CONTINUOUS
10
158.2462638958
20
173.2213121635
7
STANDARD
40
3.5000000000
1
%%c
50
90.0000000000
41
1.3333333333
72
0
0
TEXT
8
0
62
2
6
CONTINUOUS
10
158.2462638958
20
177.8879788301
7
STANDARD
40
3.5000000000
1
154.5
50
90.0000000000
41
0.7143000000
72
0
0
LINE
8
0
62
2
6
CONTINUOUS
10
64.6409036007
20
105.4508200004
11
160.6212638958
21
105.4508200004
0
LINE
8
0
62
2
6
CONTINUOUS
10
61.1221031946
20
259.9508200004
11
160.6212638958
21
259.9508200004
0
LINE
8
0
62
2
6
CONTINUOUS
10
159.1212638958
20
105.4508200004
11
159.1212638958
21
182.7008200004
0
LINE
8
0
62
2
6
CONTINUOUS
10
159.1212638958
20
259.9508200004
11
159.1212638958
21
182.7008200004
0
INSERT
8
0
62
2
6
CONTINUOUS
2
_FILLED
10
159.1212638958
20
105.4508200004
41
  3.500000
42
  3.500000
43
  3.500000
50
270.000000
0
INSERT
8
0
62
2
6
CONTINUOUS
2
_FILLED
10
159.1212638958
20
259.9508200004
41
  3.500000
42
  3.500000
43
  3.500000
50
 90.000000
0
ENDBLK
8
0
6
BYBLOCK
62
0
0
BLOCK
8
0
62
2
6
CONTINUOUS
2
*D3
70
65
10
0.0000000000
20
0.0000000000
0
TEXT
8
0
62
2
6
CONTINUOUS
10
145.0529330664
20
177.5334269856
7
STANDARD
40
3.5000000000
1
%%c
50
90.0000000000
41
1.3333333333
72
0
0
TEXT
8
0
62
2
6
CONTINUOUS
10
145.0529330664
20
182.2000936522
7
STANDARD
40
3.5000000000
1
45
50
90.0000000000
41
0.7143000000
72
0
0
LINE
8
0
62
2
6
CONTINUOUS
10
72.6694847581
20
160.2008200004
11
147.4279330664
21
160.2008200004
0
LINE
8
0
62
2
6
CONTINUOUS
10
72.8454247784
20
205.2008200004
11
147.4279330664
21
205.2008200004
0
LINE
8
0
62
2
6
CONTINUOUS
10
145.9279330664
20
160.2008200004
11
145.9279330664
21
182.7008200004
0
LINE
8
0
62
2
6
CONTINUOUS
10
145.9279330664
20
205.2008200004
11
145.9279330664
21
182.7008200004
0
INSERT
8
0
62
2
6
CONTINUOUS
2
_FILLED
10
145.9279330664
20
160.2008200004
41
  3.500000
42
  3.500000
43
  3.500000
50
270.000000
0
INSERT
8
0
62
2
6
CONTINUOUS
2
_FILLED
10
145.9279330664
20
205.2008200004
41
  3.500000
42
  3.500000
43
  3.500000
50
 90.000000
0
ENDBLK
8
0
6
BYBLOCK
62
0
0
BLOCK
8
0
62
2
6
CONTINUOUS
2
*D4
70
65
10
0.0000000000
20
0.0000000000
0
TEXT
8
0
62
2
6
CONTINUOUS
10
88.5088280080
20
268.3030741140
7
STANDARD
40
3.5000000000
1
44
41
0.7143000000
72
0
0
LINE
8
0
62
2
6
CONTINUOUS
10
111.8587062767
20
232.4764162343
11
111.8587062767
21
268.9280741140
0
LINE
8
0
62
2
6
CONTINUOUS
10
67.8587062767
20
232.4764119078
11
67.8587062767
21
268.9280741140
0
LINE
8
0
62
2
6
CONTINUOUS
10
111.8587062767
20
267.4280741140
11
89.8587062767
21
267.4280741140
0
LINE
8
0
62
2
6
CONTINUOUS
10
67.8587062767
20
267.4280741140
11
89.8587062767
21
267.4280741140
0
INSERT
8
0
62
2
6
CONTINUOUS
2
_FILLED
10
111.8587062767
20
267.4280741140
41
  3.500000
42
  3.500000
43
  3.500000
0
INSERT
8
0
62
2
6
CONTINUOUS
2
_FILLED
10
67.8587062767
20
267.4280741140
41
  3.500000
42
  3.500000
43
  3.500000
50
180.000000
0
ENDBLK
8
0
6
BYBLOCK
62
0
0
BLOCK
8
0
62
2
6
CONTINUOUS
2
*D5
70
65
10
0.0000000000
20
0.0000000000
0
TEXT
8
0
62
2
6
CONTINUOUS
10
86.6782531235
20
278.6492228004
7
STANDARD
40
3.5000000000
1
59
41
0.7143000000
72
0
0
LINE
8
0
62
2
6
CONTINUOUS
10
60.3577105408
20
260.4508200004
11
60.3577105408
21
279.2742228004
0
LINE
8
0
62
2
6
CONTINUOUS
10
119.3577105408
20
260.4508200004
11
119.3577105408
21
279.2742228004
0
LINE
8
0
62
2
6
CONTINUOUS
10
60.3577105408
20
277.7742228004
11
89.8577105408
21
277.7742228004
0
LINE
8
0
62
2
6
CONTINUOUS
10
119.3577105408
20
277.7742228004
11
89.8577105408
21
277.7742228004
0
INSERT
8
0
62
2
6
CONTINUOUS
2
_FILLED
10
60.3577105408
20
277.7742228004
41
  3.500000
42
  3.500000
43
  3.500000
50
180.000000
0
INSERT
8
0
62
2
6
CONTINUOUS
2
_FILLED
10
119.3577105408
20
277.7742228004
41
  3.500000
42
  3.500000
43
  3.500000
0
ENDBLK
8
0
6
BYBLOCK
62
0
0
BLOCK
8
0
2
_FILLED
70
64
10
0.0000000000
20
0.0000000000
0
SOLID
8
0
6
BYBLOCK
62
0
10
0.0000000000
20
0.0000000000
11
-1.0000000000
21
0.1857142857
12
-1.0000000000
22
-0.1857142857
13
-1.0000000000
23
-0.1857142857
0
ENDBLK
8
0
6
BYBLOCK
62
0
0
ENDSEC
0
SECTION
2
ENTITIES
0
DIMENSION
8
0
62
2
6
CONTINUOUS
2
*D0
10
131.6777055587
20
200.2008200004
11
129.0527055587
21
181.1623595667
70
128
13
120.6297075531
23
165.2008200004
14
119.9699137387
24
200.2008200004
50
90.000000
0
DIMENSION
8
0
62
2
6
CONTINUOUS
2
*D1
10
120.6077105408
20
89.4984816860
11
90.1563303938
21
92.1234816860
70
128
13
59.1077105408
23
156.8192720387
14
120.6077105408
24
158.1388596676
0
DIMENSION
8
0
62
2
6
CONTINUOUS
2
*D2
10
159.1212638958
20
259.9508200004
11
156.4962638958
21
181.8047704968
70
128
13
64.6409036007
23
105.4508200004
14
61.1221031946
24
259.9508200004
50
90.000000
0
DIMENSION
8
0
62
2
6
CONTINUOUS
2
*D3
10
145.9279330664
20
205.2008200004
11
143.3029330664
21
182.3668103189
70
128
13
72.6694847581
23
160.2008200004
14
72.8454247784
24
205.2008200004
50
90.000000
0
DIMENSION
8
0
62
2
6
CONTINUOUS
2
*D4
10
67.8587062767
20
267.4280741140
11
91.0088780080
21
270.0530741140
70
128
13
111.8587062767
23
232.4764162343
14
67.8587062767
24
232.4764119078
50
180.000000
0
DIMENSION
8
0
62
2
6
CONTINUOUS
2
*D5
10
119.3577105408
20
277.7742228004
11
89.1783031235
21
280.3992228004
70
128
13
60.3577105408
23
260.4508200004
14
119.3577105408
24
260.4508200004
0
TEXT
8
0
62
2
6
CONTINUOUS
10
79.6309064171
20
76.4281395880
7
STANDARD
40
3.5000000000
1
SEZIONE 
41
0.7143000000
72
0
0
TEXT
8
0
62
2
6
CONTINUOUS
10
99.6313064171
20
76.4281395880
7
STANDARD
40
3.5000000000
1
A-A
41
0.7143000000
72
0
0
LINE
8
0
62
7
6
CONTINUOUS
10
60.3577105408
20
105.4508200004
11
66.9178039308
21
105.4508200004
0
LINE
8
0
62
7
6
CONTINUOUS
10
112.7976171508
20
105.4508200004
11
119.3577105408
21
105.4508200004
0
LINE
8
0
62
2
6
CONTINUOUS
10
60.3577105408
20
258.3693543564
11
61.9391761848
21
259.9508200004
0
LINE
8
0
62
2
6
CONTINUOUS
10
60.3577105408
20
255.5409272316
11
64.7676033096
21
259.9508200004
0
LINE
8
0
62
2
6
CONTINUOUS
10
60.3577105408
20
252.7125001069
11
66.9407358547
21
259.2955254208
0
LINE
8
0
62
2
6
CONTINUOUS
10
60.3577105408
20
249.8840729821
11
67.0363695043
21
256.5627319456
0
LINE
8
0
62
2
6
CONTINUOUS
10
60.3577105408
20
247.0556458574
11
67.1320031538
21
253.8299384705
0
LINE
8
0
62
2
6
CONTINUOUS
10
60.3577105408
20
244.2272187326
11
67.2276368034
21
251.0971449953
0
LINE
8
0
62
2
6
CONTINUOUS
10
60.3577105408
20
241.3987916079
11
67.3232704530
21
248.3643515201
0
LINE
8
0
62
2
6
CONTINUOUS
10
60.3577105408
20
238.5703644831
11
67.4189041025
21
245.6315580449
0
LINE
8
0
62
2
6
CONTINUOUS
10
60.3577105408
20
235.7419373584
11
67.5145377521
21
242.8987645697
0
LINE
8
0
62
2
6
CONTINUOUS
10
60.3694605696
20
232.9252602625
11
67.6101714016
21
240.1659710945
0
LINE
8
0
62
2
6
CONTINUOUS
10
60.9767483542
20
230.7041209223
11
67.7058050512
21
237.4331776193
0
LINE
8
0
62
2
6
CONTINUOUS
10
62.2722773990
20
229.1712228423
11
67.8014387008
21
234.7003841441
0
LINE
8
0
62
2
6
CONTINUOUS
10
64.1779612068
20
228.2484795255
11
68.2452187003
21
232.3157370189
0
LINE
8
0
62
7
6
CONTINUOUS
10
68.8561056319
20
133.3008200004
11
110.7962579419
21
133.3008200004
0
LINE
8
0
62
2
6
CONTINUOUS
10
66.8587288065
20
228.1008200004
11
70.8587288065
21
232.1008200004
0
LINE
8
0
62
2
6
CONTINUOUS
10
69.6871559313
20
228.1008200004
11
73.6871559313
21
232.1008200004
0
LINE
8
0
62
2
6
CONTINUOUS
10
72.5155830560
20
228.1008200004
11
76.5155830560
21
232.1008200004
0
LINE
8
0
62
7
6
CONTINUOUS
10
65.3577105408
20
137.3008200004
11
82.3577105408
21
137.3008200004
0
LINE
8
0
62
7
6
CONTINUOUS
10
97.3577105408
20
137.3008200004
11
114.3577105408
21
137.3008200004
0
LINE
8
0
62
2
6
CONTINUOUS
10
75.3440101807
20
228.1008200004
11
79.3440101807
21
232.1008200004
0
LINE
8
0
62
2
6
CONTINUOUS
10
78.1724373055
20
228.1008200004
11
82.1724373055
21
232.1008200004
0
LINE
8
0
62
2
6
CONTINUOUS
10
81.0008644302
20
228.1008200004
11
85.0008644302
21
232.1008200004
0
LINE
8
0
62
2
6
CONTINUOUS
10
112.7956904323
20
259.8956460025
11
112.8508644302
21
259.9508200004
0
LINE
8
0
62
2
6
CONTINUOUS
10
59.1289773723
20
203.4005058178
11
59.9054064946
21
204.1769349400
0
LINE
8
0
62
2
6
CONTINUOUS
10
83.6571138795
20
227.9286423249
11
87.8292915550
21
232.1008200004
0
LINE
8
0
62
2
6
CONTINUOUS
10
112.6933456211
20
256.9648740665
11
115.6792915550
21
259.9508200004
0
LINE
8
0
62
2
6
CONTINUOUS
10
59.1077105408
20
200.5508118614
11
62.8820413134
21
204.3251426340
0
LINE
8
0
62
2
6
CONTINUOUS
10
85.5200149967
20
226.9631163173
11
90.6577186797
21
232.1008200004
0
LINE
8
0
62
2
6
CONTINUOUS
10
112.5910008099
20
254.0341021306
11
118.5077186797
21
259.9508200004
0
LINE
8
0
62
7
6
CONTINUOUS
10
59.1077105408
20
203.2008200004
11
59.1077105408
21
162.2008200004
0
LINE
8
0
62
7
6
CONTINUOUS
10
60.3577105408
20
259.9508200004
11
60.3577105408
21
204.2129216080
0
LINE
8
0
62
7
6
CONTINUOUS
10
60.3577105408
20
161.1887183928
11
60.3577105408
21
105.4508200004
0
LINE
8
0
62
2
6
CONTINUOUS
10
61.5861458045
20
200.2008200004
11
65.8420582194
21
204.4567324154
0
LINE
8
0
62
2
6
CONTINUOUS
10
86.7862217193
20
225.4008959152
11
93.4861458045
21
232.1008200004
0
LINE
8
0
62
2
6
CONTINUOUS
10
112.4886559987
20
251.1033301946
11
119.3577105408
21
257.9723847367
0
LINE
8
0
62
2
6
CONTINUOUS
10
64.4145729292
20
200.2008200004
11
68.8020751255
21
204.5883221967
0
LINE
8
0
62
2
6
CONTINUOUS
10
87.3550044983
20
223.1412515695
11
96.3145729292
21
232.1008200004
0
LINE
8
0
62
2
6
CONTINUOUS
10
112.3863111875
20
248.1725582587
11
119.3577105408
21
255.1439576120
0
LINE
8
0
62
2
6
CONTINUOUS
10
67.2430000540
20
200.2008200004
11
71.7620920316
21
204.7199119780
0
LINE
8
0
62
2
6
CONTINUOUS
10
87.3577105408
20
220.3155304872
11
99.1430000540
21
232.1008200004
0
LINE
8
0
62
2
6
CONTINUOUS
10
112.2839663763
20
245.2417863227
11
119.3577105408
21
252.3155304872
0
LINE
8
0
62
7
6
CONTINUOUS
10
65.3577105408
20
228.1008200004
11
65.3577105408
21
204.4352003745
0
LINE
8
0
62
7
6
CONTINUOUS
10
65.3577105408
20
160.9664396263
11
65.3577105408
21
137.3008200004
0
LINE
8
0
62
2
6
CONTINUOUS
10
70.0714271787
20
200.2008200004
11
74.7221089377
21
204.8515017594
0
LINE
8
0
62
2
6
CONTINUOUS
10
87.3577105408
20
217.4871033625
11
92.3577105408
21
222.4871033625
0
LINE
8
0
62
2
6
CONTINUOUS
10
97.9714271787
20
228.1008200004
11
101.9714271787
21
232.1008200004
0
LINE
8
0
62
2
6
CONTINUOUS
10
112.1816215651
20
242.3110143868
11
119.3577105408
21
249.4871033625
0
LINE
8
0
62
2
6
CONTINUOUS
10
72.8998543035
20
200.2008200004
11
77.6821258437
21
204.9830915407
0
LINE
8
0
62
2
6
CONTINUOUS
10
87.3577105408
20
214.6586762377
11
92.3577105408
21
219.6586762377
0
LINE
8
0
62
2
6
CONTINUOUS
10
100.7998543035
20
228.1008200004
11
104.7998543035
21
232.1008200004
0
LINE
8
0
62
2
6
CONTINUOUS
10
112.0792767539
20
239.3802424508
11
119.3577105408
21
246.6586762377
0
LINE
8
0
62
2
6
CONTINUOUS
10
75.7282814282
20
200.2008200004
11
80.6421427498
21
205.1146813220
0
LINE
8
0
62
2
6
CONTINUOUS
10
87.3577105408
20
211.8302491130
11
92.3577105408
21
216.8302491130
0
LINE
8
0
62
2
6
CONTINUOUS
10
103.6282814282
20
228.1008200004
11
107.6282814282
21
232.1008200004
0
LINE
8
0
62
2
6
CONTINUOUS
10
111.9769319427
20
236.4494705149
11
119.3577105408
21
243.8302491130
0
LINE
8
0
62
7
6
CONTINUOUS
10
97.1356510956
20
160.2008200004
11
119.6521224298
21
161.2018066951
0
LINE
8
0
62
7
6
CONTINUOUS
10
60.0632986517
20
161.2018066951
11
82.5797699860
21
160.2008200004
0
LINE
8
0
62
7
6
CONTINUOUS
10
66.9178039308
20
259.9508200004
11
67.8587062767
21
233.0639260723
0
LINE
8
0
62
7
6
CONTINUOUS
10
66.9178039308
20
105.4508200004
11
67.8587062767
21
132.3377139285
0
LINE
8
0
62
2
6
CONTINUOUS
10
78.5567085530
20
200.2008200004
11
83.7556270470
21
205.3997384944
0
LINE
8
0
62
2
6
CONTINUOUS
10
87.1491645224
20
208.7932759699
11
92.3577105408
21
214.0018219882
0
LINE
8
0
62
2
6
CONTINUOUS
10
106.4567085530
20
228.1008200004
11
110.4567085530
21
232.1008200004
0
LINE
8
0
62
2
6
CONTINUOUS
10
111.8745871314
20
233.5186985789
11
119.3577105408
21
241.0018219882
0
LINE
8
0
62
2
6
CONTINUOUS
10
81.3851356777
20
200.2008200004
11
92.3577105408
21
211.1733948635
0
LINE
8
0
62
2
6
CONTINUOUS
10
109.2851356777
20
228.1008200004
11
119.3577105408
21
238.1733948635
0
LINE
8
0
62
2
6
CONTINUOUS
10
84.2135628024
20
200.2008200004
11
92.6257483458
21
208.6130055438
0
LINE
8
0
62
2
6
CONTINUOUS
10
112.1135628024
20
228.1008200004
11
119.3577105408
21
235.3449677387
0
LINE
8
0
62
7
6
CONTINUOUS
10
59.1077105408
20
165.2008200004
11
120.6077105408
21
165.2008200004
0
LINE
8
0
62
2
6
CONTINUOUS
10
87.0419899272
20
200.2008200004
11
93.6698215074
21
206.8286515806
0
LINE
8
0
62
2
6
CONTINUOUS
10
114.9839001392
20
228.1427302124
11
119.3158003288
21
232.4746304020
0
LINE
8
0
62
2
6
CONTINUOUS
10
89.8704170519
20
200.2008200004
11
95.3070076836
21
205.6374106321
0
LINE
8
0
62
2
6
CONTINUOUS
10
92.6988441767
20
200.2008200004
11
97.6748726752
21
205.1768484989
0
LINE
8
0
62
7
6
CONTINUOUS
10
82.3577105408
20
228.1008200004
11
82.3577105408
21
205.2008200004
0
LINE
8
0
62
7
6
CONTINUOUS
10
82.3577105408
20
160.2008200004
11
82.3577105408
21
137.3008200004
0
LINE
8
0
62
2
6
CONTINUOUS
10
59.1077105408
20
163.7812592397
11
60.5272713014
21
165.2008200004
0
LINE
8
0
62
2
6
CONTINUOUS
10
95.5272713014
20
200.2008200004
11
100.3829118772
21
205.0564605762
0
LINE
8
0
62
2
6
CONTINUOUS
10
59.5364115686
20
161.3815331429
11
63.3556984262
21
165.2008200004
0
LINE
8
0
62
2
6
CONTINUOUS
10
98.3556984262
20
200.2008200004
11
103.0909510793
21
204.9360726535
0
LINE
8
0
62
7
6
CONTINUOUS
10
87.3577105408
20
223.1008200004
11
87.3577105408
21
210.1958865268
0
LINE
8
0
62
7
6
CONTINUOUS
10
87.3577105408
20
155.2057534740
11
87.3577105408
21
142.3008200004
0
LINE
8
0
62
2
6
CONTINUOUS
10
62.0948003091
20
161.1114947586
11
66.1841255509
21
165.2008200004
0
LINE
8
0
62
2
6
CONTINUOUS
10
101.1841255509
20
200.2008200004
11
105.7989902814
21
204.8156847308
0
LINE
8
0
62
2
6
CONTINUOUS
10
64.8028395112
20
160.9911068359
11
69.0125526757
21
165.2008200004
0
LINE
8
0
62
2
6
CONTINUOUS
10
104.0125526757
20
200.2008200004
11
108.5070294834
21
204.6952968082
0
LINE
8
0
62
2
6
CONTINUOUS
10
67.5108787133
20
160.8707189133
11
71.8409798004
21
165.2008200004
0
LINE
8
0
62
2
6
CONTINUOUS
10
106.8409798004
20
200.2008200004
11
111.2150686855
21
204.5749088855
0
LINE
8
DEFAULT_1
62
2
6
CENTER
10
123.6077105408
20
182.7008200004
11
56.1077105408
21
182.7008200004
0
LINE
8
0
62
7
6
CONTINUOUS
10
92.3577105408
20
223.1008200004
11
92.3577105408
21
210.1958865268
0
LINE
8
0
62
7
6
CONTINUOUS
10
92.3577105408
20
155.2057534740
11
92.3577105408
21
142.3008200004
0
LINE
8
0
62
2
6
CONTINUOUS
10
70.2189179153
20
160.7503309906
11
74.6694069252
21
165.2008200004
0
LINE
8
0
62
2
6
CONTINUOUS
10
109.6694069252
20
200.2008200004
11
113.9231078876
21
204.4545209628
0
LINE
8
0
62
2
6
CONTINUOUS
10
72.9269571174
20
160.6299430679
11
77.4978340499
21
165.2008200004
0
LINE
8
0
62
2
6
CONTINUOUS
10
112.4978340499
20
200.2008200004
11
116.6311470896
21
204.3341330401
0
LINE
8
0
62
2
6
CONTINUOUS
10
75.6349963195
20
160.5095551452
11
80.3262611747
21
165.2008200004
0
LINE
8
0
62
2
6
CONTINUOUS
10
115.3262611747
20
200.2008200004
11
119.3391862917
21
204.2137451174
0
LINE
8
0
62
7
6
CONTINUOUS
10
97.3577105408
20
228.1008200004
11
97.3577105408
21
205.2008200004
0
LINE
8
0
62
7
6
CONTINUOUS
10
97.3577105408
20
160.2008200004
11
97.3577105408
21
137.3008200004
0
LINE
8
0
62
2
6
CONTINUOUS
10
78.3430355215
20
160.3891672225
11
83.1546882994
21
165.2008200004
0
LINE
8
0
62
2
6
CONTINUOUS
10
118.1546882994
20
200.2008200004
11
120.6077105408
21
202.6538422418
0
LINE
8
0
62
2
6
CONTINUOUS
10
81.0510747236
20
160.2687792999
11
85.9831154241
21
165.2008200004
0
LINE
8
0
62
2
6
CONTINUOUS
10
83.6402449306
20
160.0295223821
11
88.8115425489
21
165.2008200004
0
LINE
8
0
62
2
6
CONTINUOUS
10
60.8217981331
20
134.3826484599
11
63.2758820813
21
136.8367324081
0
LINE
8
0
62
2
6
CONTINUOUS
10
85.5176243272
20
159.0784746540
11
91.6399696736
21
165.2008200004
0
LINE
8
0
62
2
6
CONTINUOUS
10
60.3577105408
20
131.0901337428
11
66.5683967984
21
137.3008200004
0
LINE
8
0
62
2
6
CONTINUOUS
10
86.7839165965
20
157.5163397985
11
94.4683967984
21
165.2008200004
0
LINE
8
0
62
7
6
CONTINUOUS
10
111.8587062767
20
132.3377096020
11
112.7976171508
21
105.4508200004
0
LINE
8
0
62
7
6
CONTINUOUS
10
111.8587062767
20
233.0639303988
11
112.7976171508
21
259.9508200004
0
LINE
8
0
62
2
6
CONTINUOUS
10
60.3577105408
20
128.2617066180
11
69.3968239231
21
137.3008200004
0
LINE
8
0
62
2
6
CONTINUOUS
10
87.3542976979
20
155.2582937752
11
97.2968239231
21
165.2008200004
0
LINE
8
0
62
2
6
CONTINUOUS
10
60.3577105408
20
125.4332794933
11
72.2252510479
21
137.3008200004
0
LINE
8
0
62
2
6
CONTINUOUS
10
87.3577105408
20
152.4332794933
11
100.1252510479
21
165.2008200004
0
LINE
8
0
62
2
6
CONTINUOUS
10
60.3577105408
20
122.6048523686
11
67.7777701605
21
130.0249119882
0
LINE
8
0
62
2
6
CONTINUOUS
10
71.0536781726
20
133.3008200004
11
75.0536781726
21
137.3008200004
0
LINE
8
0
62
2
6
CONTINUOUS
10
87.3577105408
20
149.6048523686
11
92.3577105408
21
154.6048523686
0
LINE
8
0
62
2
6
CONTINUOUS
10
97.9917360753
20
160.2388779031
11
102.9536781726
21
165.2008200004
0
LINE
8
0
62
7
6
CONTINUOUS
10
60.0632986517
20
204.1998333057
11
82.5797699860
21
205.2008200004
0
LINE
8
0
62
7
6
CONTINUOUS
10
59.1077105408
20
200.2008200004
11
120.6077105408
21
200.2008200004
0
LINE
8
0
62
7
6
CONTINUOUS
10
97.1356510956
20
205.2008200004
11
119.6521224298
21
204.1998333057
0
LINE
8
0
62
7
6
CONTINUOUS
10
114.3577105408
20
228.1008200004
11
114.3577105408
21
204.4352003745
0
LINE
8
0
62
7
6
CONTINUOUS
10
114.3577105408
20
160.9664396263
11
114.3577105408
21
137.3008200004
0
LINE
8
0
62
2
6
CONTINUOUS
10
60.3577105408
20
119.7764252438
11
67.6752004164
21
127.0939151194
0
LINE
8
0
62
2
6
CONTINUOUS
10
73.8821052974
20
133.3008200004
11
77.8821052974
21
137.3008200004
0
LINE
8
0
62
2
6
CONTINUOUS
10
87.3577105408
20
146.7764252438
11
92.3577105408
21
151.7764252438
0
LINE
8
0
62
2
6
CONTINUOUS
10
100.9517529814
20
160.3704676844
11
105.7821052974
21
165.2008200004
0
LINE
8
0
62
2
6
CONTINUOUS
10
60.3577105408
20
116.9479981191
11
67.5726306723
21
124.1629182506
0
LINE
8
0
62
2
6
CONTINUOUS
10
76.7105324221
20
133.3008200004
11
80.7105324221
21
137.3008200004
0
LINE
8
0
62
2
6
CONTINUOUS
10
87.3577105408
20
143.9479981191
11
92.3577105408
21
148.9479981191
0
LINE
8
0
62
2
6
CONTINUOUS
10
103.9117698874
20
160.5020574657
11
108.6105324221
21
165.2008200004
0
LINE
8
0
62
2
6
CONTINUOUS
10
60.3577105408
20
114.1195709943
11
67.4700609282
21
121.2319213817
0
LINE
8
0
62
2
6
CONTINUOUS
10
79.5389595469
20
133.3008200004
11
83.7390153190
21
137.5008757726
0
LINE
8
0
62
2
6
CONTINUOUS
10
87.1576547686
20
140.9195152221
11
92.3577105408
21
146.1195709943
0
LINE
8
0
62
2
6
CONTINUOUS
10
106.8717867935
20
160.6336472470
11
111.4389595469
21
165.2008200004
0
LINE
8
0
62
7
6
CONTINUOUS
10
119.3577105408
20
259.9508200004
11
119.3577105408
21
204.2129216080
0
LINE
8
0
62
7
6
CONTINUOUS
10
119.3577105408
20
161.1887183928
11
119.3577105408
21
105.4508200004
0
LINE
8
0
62
7
6
CONTINUOUS
10
120.6077105408
20
203.2008200004
11
120.6077105408
21
162.2008200004
0
LINE
8
0
62
2
6
CONTINUOUS
10
60.3577105408
20
111.2911438696
11
67.3674911841
21
118.3009245129
0
LINE
8
0
62
2
6
CONTINUOUS
10
82.3673866716
20
133.3008200004
11
92.3577105408
21
143.2911438696
0
LINE
8
0
62
2
6
CONTINUOUS
10
109.8318036996
20
160.7652370284
11
114.2673866716
21
165.2008200004
0
LINE
8
0
62
2
6
CONTINUOUS
10
60.3577105408
20
108.4627167448
11
67.2649214400
21
115.3699276440
0
LINE
8
0
62
2
6
CONTINUOUS
10
85.1958137964
20
133.3008200004
11
92.6229651487
21
140.7279713527
0
LINE
8
0
62
2
6
CONTINUOUS
10
112.7918206057
20
160.8968268097
11
117.0958137964
21
165.2008200004
0
LINE
8
0
62
2
6
CONTINUOUS
10
60.3577105408
20
105.6342896201
11
67.1623516959
21
112.4389307752
0
LINE
8
0
62
2
6
CONTINUOUS
10
88.0242409211
20
133.3008200004
11
93.6665100579
21
138.9430891372
0
LINE
8
0
62
2
6
CONTINUOUS
10
115.7518375117
20
161.0284165910
11
119.9242409211
21
165.2008200004
0
LINE
8
0
62
2
6
CONTINUOUS
10
63.0026680458
20
105.4508200004
11
67.0597819518
21
109.5079339063
0
LINE
8
0
62
2
6
CONTINUOUS
10
90.8526680458
20
133.3008200004
11
95.3032752513
21
137.7514272059
0
LINE
8
0
62
2
6
CONTINUOUS
10
118.7118544178
20
161.1600063724
11
120.6077105408
21
163.0558624953
0
LINE
8
0
62
2
6
CONTINUOUS
10
65.8310951706
20
105.4508200004
11
66.9572122077
21
106.5769370375
0
LINE
8
0
62
2
6
CONTINUOUS
10
93.6810951706
20
133.3008200004
11
97.6810951706
21
137.3008200004
0
LINE
8
0
62
2
6
CONTINUOUS
10
96.5095222953
20
133.3008200004
11
100.5095222953
21
137.3008200004
0
LINE
8
0
62
2
6
CONTINUOUS
10
99.3379494201
20
133.3008200004
11
103.3379494201
21
137.3008200004
0
LINE
8
0
62
2
6
CONTINUOUS
10
102.1663765448
20
133.3008200004
11
106.1663765448
21
137.3008200004
0
LINE
8
0
62
2
6
CONTINUOUS
10
104.9948036696
20
133.3008200004
11
108.9948036696
21
137.3008200004
0
LINE
8
0
62
2
6
CONTINUOUS
10
107.8232307943
20
133.3008200004
11
111.8232307943
21
137.3008200004
0
LINE
8
0
62
2
6
CONTINUOUS
10
110.6516579191
20
133.3008200004
11
114.6332184632
21
137.2823805446
0
LINE
8
0
62
7
6
CONTINUOUS
10
65.3577105408
20
228.1008200004
11
82.3577105408
21
228.1008200004
0
LINE
8
0
62
7
6
CONTINUOUS
10
97.3577105408
20
228.1008200004
11
114.3577105408
21
228.1008200004
0
LINE
8
0
62
7
6
CONTINUOUS
10
68.8561056319
20
232.1008200004
11
110.7962579419
21
232.1008200004
0
LINE
8
0
62
2
6
CONTINUOUS
10
111.8809178687
20
131.7016528253
11
116.8258773952
21
136.6466123518
0
LINE
8
0
62
2
6
CONTINUOUS
10
111.9763559492
20
128.9686637810
11
118.3352475584
21
135.3275553902
0
LINE
8
0
62
2
6
CONTINUOUS
10
112.0717940296
20
126.2356747367
11
119.2277216146
21
133.3916023217
0
LINE
8
0
62
2
6
CONTINUOUS
10
112.1672321101
20
123.5026856924
11
119.3577105408
21
130.6931641231
0
LINE
8
0
62
2
6
CONTINUOUS
10
112.2626701905
20
120.7696966481
11
119.3577105408
21
127.8647369984
0
LINE
8
0
62
2
6
CONTINUOUS
10
112.3581082709
20
118.0367076038
11
119.3577105408
21
125.0363098736
0
LINE
8
0
62
2
6
CONTINUOUS
10
112.4535463514
20
115.3037185595
11
119.3577105408
21
122.2078827489
0
LINE
8
0
62
2
6
CONTINUOUS
10
112.5489844318
20
112.5707295152
11
119.3577105408
21
119.3794556241
0
LINE
8
0
62
2
6
CONTINUOUS
10
112.6444225123
20
109.8377404709
11
119.3577105408
21
116.5510284994
0
LINE
8
0
62
2
6
CONTINUOUS
10
112.7398605927
20
107.1047514266
11
119.3577105408
21
113.7226013746
0
LINE
8
0
62
2
6
CONTINUOUS
10
113.9143562913
20
105.4508200004
11
119.3577105408
21
110.8941742499
0
LINE
8
0
62
2
6
CONTINUOUS
10
116.7427834160
20
105.4508200004
11
119.3577105408
21
108.0657471252
0
LINE
8
0
62
7
6
CONTINUOUS
10
60.3577105408
20
259.9508200004
11
66.9178039308
21
259.9508200004
0
LINE
8
0
62
7
6
CONTINUOUS
10
112.7976171508
20
259.9508200004
11
119.3577105408
21
259.9508200004
0
ARC
8
0
62
7
6
CONTINUOUS
10
60.1077105408
20
203.2008200004
40
1.0000000000
50
92.5454510516
51
180.0000000000
0
ARC
8
0
62
7
6
CONTINUOUS
10
119.6077105408
20
203.2008200004
40
1.0000000000
50
0.0000000000
51
87.4545489484
0
ARC
8
0
62
7
6
CONTINUOUS
10
60.1077105408
20
162.2008200004
40
1.0000000000
50
180.0000000000
51
267.4545489484
0
ARC
8
0
62
7
6
CONTINUOUS
10
97.3577105408
20
210.1958865268
40
5.0000000000
50
180.0000000000
51
267.4545489484
0
ARC
8
0
62
7
6
CONTINUOUS
10
82.3577105408
20
210.1958865268
40
5.0000000000
50
272.5454510516
51
360.0000000000
0
ARC
8
0
62
7
6
CONTINUOUS
10
82.3577105408
20
155.2057534740
40
5.0000000000
50
0.0000000000
51
87.4545489484
0
ARC
8
0
62
7
6
CONTINUOUS
10
110.8593154496
20
233.0988298955
40
1.0000000000
50
266.3846723272
51
358.0000000000
0
ARC
8
0
62
7
6
CONTINUOUS
10
110.8593154496
20
132.3028101053
40
1.0000000000
50
2.0000000000
51
93.6153276728
0
ARC
8
0
62
7
6
CONTINUOUS
10
68.8561056319
20
233.0988298955
40
0.9980098951
50
182.0042383108
51
270.0000000000
0
ARC
8
0
62
7
6
CONTINUOUS
10
68.8561056319
20
132.3028101053
40
0.9980098951
50
90.0000000000
51
177.9957616892
0
ARC
8
0
62
7
6
CONTINUOUS
10
114.3577105408
20
233.1008200004
40
5.0000000000
50
270.0000000000
51
360.0000000000
0
ARC
8
0
62
7
6
CONTINUOUS
10
65.3577105408
20
233.1008200004
40
5.0000000000
50
180.0000000000
51
270.0000000000
0
ARC
8
0
62
7
6
CONTINUOUS
10
65.3577105408
20
132.3008200004
40
5.0000000000
50
90.0000000000
51
180.0000000000
0
ARC
8
0
62
7
6
CONTINUOUS
10
82.3577105408
20
223.1008200004
40
5.0000000000
50
0.0000000000
51
90.0000000000
0
ARC
8
0
62
7
6
CONTINUOUS
10
82.3577105408
20
142.3008200004
40
5.0000000000
50
270.0000000000
51
360.0000000000
0
ARC
8
0
62
7
6
CONTINUOUS
10
114.3577105408
20
132.3008200004
40
5.0000000000
50
0.0000000000
51
90.0000000000
0
ARC
8
0
62
7
6
CONTINUOUS
10
97.3577105408
20
223.1008200004
40
5.0000000000
50
90.0000000000
51
180.0000000000
0
ARC
8
0
62
7
6
CONTINUOUS
10
97.3577105408
20
142.3008200004
40
5.0000000000
50
180.0000000000
51
270.0000000000
0
ARC
8
0
62
7
6
CONTINUOUS
10
97.3577105408
20
155.2057534740
40
5.0000000000
50
92.5454510516
51
180.0000000000
0
ARC
8
0
62
7
6
CONTINUOUS
10
119.6077105408
20
162.2008200004
40
1.0000000000
50
272.5454510516
51
360.0000000000
0
ENDSEC
0
EOF
