0
SECTION
2
HEADER
9
$EXTMAX
10
210.0000000000
20
297.0000000000
30
0.0000000000
9
$EXTMIN
10
0.0000000000
20
0.0000000000
30
0.0000000000
9
$LIMMIN
10
0.0000000000
20
0.0000000000
9
$LIMMAX
10
210.0000000000
20
297.0000000000
9
$VIEWCTR
10
105.0000000000
20
148.5000000000
9
$VIEWSIZE
40
297.0000000000
9
$CLAYER
8
0
9
$LTSCALE
40
19.3600000000
9
$CELTYPE
6
BYLAYER
9
$DIMSCALE
40
1
9
$DIMASZ
40
3.5000000000
9
$DIMEXO
40
2.2000000000
9
$DIMDLI
40
13.3760000000
9
$DIMEXE
40
6.3360000000
9
$DIMCEN
40
3.1680000000
9
$DIMLFAC
40
1.0000000000
9
$DIMBLK
1
_FILLED
9
$DIMTXT
40
3.5000000000
9
$PDMODE
70
3
9
$PDSIZE
40
0.3125000000
0
ENDSEC
0
SECTION
2
TABLES
0
TABLE
2
LTYPE
70
6
0
LTYPE
2
BYBLOCK
70
0
3

72
65
73
0
40
0.0
0
LTYPE
2
BYLAYER
70
0
3

72
65
73
0
40
0.0
0
LTYPE
2
CONTINUOUS
70
64
3
Solid line
72
65
73
0
40
0
0
LTYPE
2
CENTER
70
64
3
____ _ ____ _ ____ _ ____ _ ____ _ ____ _ ____
72
65
73
4
40
0.6
49
0.375
49
-0.075
49
0.075
49
-0.075
0
LTYPE
2
HIDDEN
70
64
3
- - - - - - - - - - - - - - - - - - - -
72
65
73
2
40
0.2
49
0.1
49
-0.1
0
LTYPE
2
PHANTOM
70
64
3
_____ _ _ _____ _ _ _____ _ _ _____
72
65
73
6
40
0.8
49
0.45
49
-0.05
49
0.1
49
-0.05
49
0.1
49
-0.05
0
LTYPE
2
DOT
70
64
3
. . . . . . . . . . . . . . . . . . . .
72
65
73
2
40
0.2
49
0.1
49
-0.1
0
LTYPE
2
DASHED
70
64
3
- - - - - - - - - - - - - - - - - - - -
72
65
73
2
40
0.2
49
0.1
49
-0.1
0
ENDTAB
0
TABLE
2
LAYER
70
36
0
LAYER
2
0
70
0
62
7
6
CONTINUOUS
0
LAYER
2
DEFAULT_1
70
0
62
7
6
CENTER
0
LAYER
2
DEFAULT_2
70
0
62
8
6
HIDDEN
0
LAYER
2
DEFAULT_3
70
0
62
7
6
PHANTOM
0
LAYER
2
_2D_DELETED_OBJS
70
0
62
7
6
CONTINUOUS
0
LAYER
2
ASSI
70
0
62
7
6
CONTINUOUS
0
LAYER
2
PIANI
70
0
62
7
6
CONTINUOUS
0
LAYER
2
PUNTI
70
0
62
7
6
CONTINUOUS
0
ENDTAB
0
TABLE
2
STYLE
70
1
0
STYLE
2
STANDARD
70
0
40
0.0
41
0.7143000000
50
0.0
71
0
42
0.2
3
txt
4

0
ENDTAB
0
ENDSEC
0
SECTION
2
BLOCKS
0
BLOCK
8
0
62
2
6
CONTINUOUS
2
*D0
70
65
10
0.0000000000
20
0.0000000000
0
TEXT
8
0
62
2
6
CONTINUOUS
10
130.8027055587
20
176.5487562953
7
STANDARD
40
3.5000000000
1
%%c
50
90.0000000000
41
1.3333333333
72
0
0
TEXT
8
0
62
2
6
CONTINUOUS
10
130.8027055587
20
181.2154229620
7
STANDARD
40
3.5000000000
1
30
50
90.0000000000
41
0.7143000000
72
0
0
LINE
8
0
62
2
6
CONTINUOUS
10
120.6297075531
20
167.7008200004
11
133.1777055587
21
167.7008200004
0
LINE
8
0
62
2
6
CONTINUOUS
10
119.9699137387
20
197.7008200004
11
133.1777055587
21
197.7008200004
0
LINE
8
0
62
2
6
CONTINUOUS
10
131.6777055587
20
167.7008200004
11
131.6777055587
21
182.7008200004
0
LINE
8
0
62
2
6
CONTINUOUS
10
131.6777055587
20
197.7008200004
11
131.6777055587
21
182.7008200004
0
INSERT
8
0
62
2
6
CONTINUOUS
2
_FILLED
10
131.6777055587
20
167.7008200004
41
  3.500000
42
  3.500000
43
  3.500000
50
270.000000
0
INSERT
8
0
62
2
6
CONTINUOUS
2
_FILLED
10
131.6777055587
20
197.7008200004
41
  3.500000
42
  3.500000
43
  3.500000
50
 90.000000
0
ENDBLK
8
0
6
BYBLOCK
62
0
0
BLOCK
8
0
62
2
6
CONTINUOUS
2
*D1
70
65
10
0.0000000000
20
0.0000000000
0
TEXT
8
0
62
2
6
CONTINUOUS
10
85.1562303938
20
90.3734816860
7
STANDARD
40
3.5000000000
1
61.5
41
0.7143000000
72
0
0
LINE
8
0
62
2
6
CONTINUOUS
10
59.1077105408
20
164.6632653061
11
59.1077105408
21
87.9984816860
0
LINE
8
0
62
2
6
CONTINUOUS
10
120.6077105408
20
164.0102040816
11
120.6077105408
21
87.9984816860
0
LINE
8
0
62
2
6
CONTINUOUS
10
59.1077105408
20
89.4984816860
11
89.8577105408
21
89.4984816860
0
LINE
8
0
62
2
6
CONTINUOUS
10
120.6077105408
20
89.4984816860
11
89.8577105408
21
89.4984816860
0
INSERT
8
0
62
2
6
CONTINUOUS
2
_FILLED
10
59.1077105408
20
89.4984816860
41
  3.500000
42
  3.500000
43
  3.500000
50
180.000000
0
INSERT
8
0
62
2
6
CONTINUOUS
2
_FILLED
10
120.6077105408
20
89.4984816860
41
  3.500000
42
  3.500000
43
  3.500000
0
ENDBLK
8
0
6
BYBLOCK
62
0
0
BLOCK
8
0
62
2
6
CONTINUOUS
2
*D2
70
65
10
0.0000000000
20
0.0000000000
0
TEXT
8
0
62
2
6
CONTINUOUS
10
43.6340189979
20
173.5478427757
7
STANDARD
40
3.5000000000
1
%%c
50
90.0000000000
41
1.3333333333
72
0
0
TEXT
8
0
62
2
6
CONTINUOUS
10
43.6340189979
20
178.2145094424
7
STANDARD
40
3.5000000000
1
154.5
50
90.0000000000
41
0.7143000000
72
0
0
LINE
8
0
62
2
6
CONTINUOUS
10
64.6409036007
20
105.4508200004
11
43.0090189979
21
105.4508200004
0
LINE
8
0
62
2
6
CONTINUOUS
10
61.1221031946
20
259.9508200004
11
43.0090189979
21
259.9508200004
0
LINE
8
0
62
2
6
CONTINUOUS
10
44.5090189979
20
105.4508200004
11
44.5090189979
21
182.7008200004
0
LINE
8
0
62
2
6
CONTINUOUS
10
44.5090189979
20
259.9508200004
11
44.5090189979
21
182.7008200004
0
INSERT
8
0
62
2
6
CONTINUOUS
2
_FILLED
10
44.5090189979
20
105.4508200004
41
  3.500000
42
  3.500000
43
  3.500000
50
270.000000
0
INSERT
8
0
62
2
6
CONTINUOUS
2
_FILLED
10
44.5090189979
20
259.9508200004
41
  3.500000
42
  3.500000
43
  3.500000
50
 90.000000
0
ENDBLK
8
0
6
BYBLOCK
62
0
0
BLOCK
8
0
62
2
6
CONTINUOUS
2
*D3
70
65
10
0.0000000000
20
0.0000000000
0
TEXT
8
0
62
2
6
CONTINUOUS
10
145.0529330664
20
177.5705391724
7
STANDARD
40
3.5000000000
1
%%c
50
90.0000000000
41
1.3333333333
72
0
0
TEXT
8
0
62
2
6
CONTINUOUS
10
145.0529330664
20
182.2372058391
7
STANDARD
40
3.5000000000
1
40
50
90.0000000000
41
0.7143000000
72
0
0
LINE
8
0
62
2
6
CONTINUOUS
10
72.6694847581
20
162.7008200004
11
147.4279330664
21
162.7008200004
0
LINE
8
0
62
2
6
CONTINUOUS
10
72.8454247784
20
202.7008200004
11
147.4279330664
21
202.7008200004
0
LINE
8
0
62
2
6
CONTINUOUS
10
145.9279330664
20
162.7008200004
11
145.9279330664
21
182.7008200004
0
LINE
8
0
62
2
6
CONTINUOUS
10
145.9279330664
20
202.7008200004
11
145.9279330664
21
182.7008200004
0
INSERT
8
0
62
2
6
CONTINUOUS
2
_FILLED
10
145.9279330664
20
162.7008200004
41
  3.500000
42
  3.500000
43
  3.500000
50
270.000000
0
INSERT
8
0
62
2
6
CONTINUOUS
2
_FILLED
10
145.9279330664
20
202.7008200004
41
  3.500000
42
  3.500000
43
  3.500000
50
 90.000000
0
ENDBLK
8
0
6
BYBLOCK
62
0
0
BLOCK
8
0
62
2
6
CONTINUOUS
2
*D4
70
65
10
0.0000000000
20
0.0000000000
0
TEXT
8
0
62
2
6
CONTINUOUS
10
88.5078780507
20
268.3030741140
7
STANDARD
40
3.5000000000
1
44
41
0.7143000000
72
0
0
LINE
8
0
62
2
6
CONTINUOUS
10
111.8577563194
20
243.3283149252
11
111.8577563194
21
268.9280741140
0
LINE
8
0
62
2
6
CONTINUOUS
10
67.8577563194
20
243.3283124220
11
67.8577563194
21
268.9280741140
0
LINE
8
0
62
2
6
CONTINUOUS
10
111.8577563194
20
267.4280741140
11
89.8577563194
21
267.4280741140
0
LINE
8
0
62
2
6
CONTINUOUS
10
67.8577563194
20
267.4280741140
11
89.8577563194
21
267.4280741140
0
INSERT
8
0
62
2
6
CONTINUOUS
2
_FILLED
10
111.8577563194
20
267.4280741140
41
  3.500000
42
  3.500000
43
  3.500000
0
INSERT
8
0
62
2
6
CONTINUOUS
2
_FILLED
10
67.8577563194
20
267.4280741140
41
  3.500000
42
  3.500000
43
  3.500000
50
180.000000
0
ENDBLK
8
0
6
BYBLOCK
62
0
0
BLOCK
8
0
62
2
6
CONTINUOUS
2
*D5
70
65
10
0.0000000000
20
0.0000000000
0
TEXT
8
0
62
2
6
CONTINUOUS
10
86.6782531235
20
278.6492228004
7
STANDARD
40
3.5000000000
1
59
41
0.7143000000
72
0
0
LINE
8
0
62
2
6
CONTINUOUS
10
60.3577105408
20
260.4508200004
11
60.3577105408
21
279.2742228004
0
LINE
8
0
62
2
6
CONTINUOUS
10
119.3577105408
20
260.4508200004
11
119.3577105408
21
279.2742228004
0
LINE
8
0
62
2
6
CONTINUOUS
10
60.3577105408
20
277.7742228004
11
89.8577105408
21
277.7742228004
0
LINE
8
0
62
2
6
CONTINUOUS
10
119.3577105408
20
277.7742228004
11
89.8577105408
21
277.7742228004
0
INSERT
8
0
62
2
6
CONTINUOUS
2
_FILLED
10
60.3577105408
20
277.7742228004
41
  3.500000
42
  3.500000
43
  3.500000
50
180.000000
0
INSERT
8
0
62
2
6
CONTINUOUS
2
_FILLED
10
119.3577105408
20
277.7742228004
41
  3.500000
42
  3.500000
43
  3.500000
0
ENDBLK
8
0
6
BYBLOCK
62
0
0
BLOCK
8
0
2
_FILLED
70
64
10
0.0000000000
20
0.0000000000
0
SOLID
8
0
6
BYBLOCK
62
0
10
0.0000000000
20
0.0000000000
11
-1.0000000000
21
0.1857142857
12
-1.0000000000
22
-0.1857142857
13
-1.0000000000
23
-0.1857142857
0
ENDBLK
8
0
6
BYBLOCK
62
0
0
ENDSEC
0
SECTION
2
ENTITIES
0
DIMENSION
8
0
62
2
6
CONTINUOUS
2
*D0
10
131.6777055587
20
197.7008200004
11
129.0527055587
21
181.3821396286
70
128
13
120.6297075531
23
167.7008200004
14
119.9699137387
24
197.7008200004
50
90.000000
0
DIMENSION
8
0
62
2
6
CONTINUOUS
2
*D1
10
120.6077105408
20
89.4984816860
11
90.1563303938
21
92.1234816860
70
128
13
59.1077105408
23
164.6632653061
14
120.6077105408
24
164.0102040816
0
DIMENSION
8
0
62
2
6
CONTINUOUS
2
*D2
10
44.5090189979
20
259.9508200004
11
41.8840189979
21
182.1313011090
70
128
13
64.6409036007
23
105.4508200004
14
61.1221031946
24
259.9508200004
50
90.000000
0
DIMENSION
8
0
62
2
6
CONTINUOUS
2
*D3
10
145.9279330664
20
202.7008200004
11
143.3029330664
21
182.4039225057
70
128
13
72.6694847581
23
162.7008200004
14
72.8454247784
24
202.7008200004
50
90.000000
0
DIMENSION
8
0
62
2
6
CONTINUOUS
2
*D4
10
67.8577563194
20
267.4280741140
11
91.0079280507
21
270.0530741140
70
128
13
111.8577563194
23
243.3283149252
14
67.8577563194
24
243.3283124220
50
180.000000
0
DIMENSION
8
0
62
2
6
CONTINUOUS
2
*D5
10
119.3577105408
20
277.7742228004
11
89.1783031235
21
280.3992228004
70
128
13
60.3577105408
23
260.4508200004
14
119.3577105408
24
260.4508200004
0
TEXT
8
0
62
2
6
CONTINUOUS
10
79.6309064171
20
76.4281395880
7
STANDARD
40
3.5000000000
1
SEZIONE 
41
0.7143000000
72
0
0
TEXT
8
0
62
2
6
CONTINUOUS
10
99.6313064171
20
76.4281395880
7
STANDARD
40
3.5000000000
1
A-A
41
0.7143000000
72
0
0
LINE
8
0
62
7
6
CONTINUOUS
10
60.3577105408
20
105.4508200004
11
67.2977105408
21
105.4508200004
0
LINE
8
0
62
7
6
CONTINUOUS
10
112.4177105408
20
105.4508200004
11
119.3577105408
21
105.4508200004
0
LINE
8
0
62
2
6
CONTINUOUS
10
60.3577105408
20
258.3693543564
11
61.9391761848
21
259.9508200004
0
LINE
8
0
62
2
6
CONTINUOUS
10
60.3577105408
20
255.5409272316
11
64.7676033096
21
259.9508200004
0
LINE
8
0
62
2
6
CONTINUOUS
10
60.3577105408
20
252.7125001069
11
67.3077781757
21
259.6625677419
0
LINE
8
0
62
2
6
CONTINUOUS
10
60.3577105408
20
249.8840729821
11
67.4032313201
21
256.9295937614
0
LINE
8
0
62
2
6
CONTINUOUS
10
60.3577105408
20
247.0556458574
11
67.4986844644
21
254.1966197810
0
LINE
8
0
62
2
6
CONTINUOUS
10
60.3577105408
20
244.2272187326
11
67.5941376088
21
251.4636458006
0
LINE
8
0
62
2
6
CONTINUOUS
10
60.8238140261
20
241.8648950932
11
67.6895907531
21
248.7306718202
0
LINE
8
0
62
2
6
CONTINUOUS
10
62.0250321413
20
240.2376860836
11
67.7850438974
21
245.9976978398
0
LINE
8
0
62
7
6
CONTINUOUS
10
68.8570555892
20
122.4508200004
11
110.8448444066
21
122.4508200004
0
LINE
8
0
62
2
6
CONTINUOUS
10
63.8199159003
20
239.2041427179
11
68.0220222114
21
243.4062490290
0
LINE
8
0
62
2
6
CONTINUOUS
10
66.3950203075
20
238.9508200004
11
70.3950203075
21
242.9508200004
0
LINE
8
0
62
7
6
CONTINUOUS
10
65.3577105408
20
126.4508200004
11
82.3577105408
21
126.4508200004
0
LINE
8
0
62
7
6
CONTINUOUS
10
97.3577105408
20
126.4508200004
11
114.3577105408
21
126.4508200004
0
LINE
8
0
62
2
6
CONTINUOUS
10
69.2234474323
20
238.9508200004
11
73.2234474323
21
242.9508200004
0
LINE
8
0
62
2
6
CONTINUOUS
10
72.0518745570
20
238.9508200004
11
76.0518745570
21
242.9508200004
0
LINE
8
0
62
2
6
CONTINUOUS
10
74.8803016818
20
238.9508200004
11
78.8803016818
21
242.9508200004
0
LINE
8
0
62
2
6
CONTINUOUS
10
77.7087288065
20
238.9508200004
11
81.7087288065
21
242.9508200004
0
LINE
8
0
62
2
6
CONTINUOUS
10
80.5371559313
20
238.9508200004
11
84.5371559313
21
242.9508200004
0
LINE
8
0
62
2
6
CONTINUOUS
10
83.2708729404
20
238.8561098848
11
87.3655830560
21
242.9508200004
0
LINE
8
0
62
2
6
CONTINUOUS
10
85.2569148734
20
238.0137246931
11
90.1940101807
21
242.9508200004
0
LINE
8
0
62
2
6
CONTINUOUS
10
86.6215157220
20
236.5498984169
11
93.0224373055
21
242.9508200004
0
LINE
8
0
62
2
6
CONTINUOUS
10
87.3259158484
20
234.4258714186
11
95.8508644302
21
242.9508200004
0
LINE
8
0
62
2
6
CONTINUOUS
10
112.4020371467
20
259.5019927168
11
112.8508644302
21
259.9508200004
0
LINE
8
0
62
2
6
CONTINUOUS
10
87.3577105408
20
231.6292389862
11
98.6792915550
21
242.9508200004
0
LINE
8
0
62
2
6
CONTINUOUS
10
112.2996923354
20
256.5712207809
11
115.6792915550
21
259.9508200004
0
LINE
8
0
62
2
6
CONTINUOUS
10
59.1077105408
20
200.5508118614
11
60.2657312800
21
201.7088326007
0
LINE
8
0
62
2
6
CONTINUOUS
10
87.3577105408
20
228.8008118614
11
92.3577105408
21
233.8008118614
0
LINE
8
0
62
2
6
CONTINUOUS
10
97.5077186797
20
238.9508200004
11
101.5077186797
21
242.9508200004
0
LINE
8
0
62
2
6
CONTINUOUS
10
112.1973475242
20
253.6404488449
11
118.5077186797
21
259.9508200004
0
LINE
8
0
62
7
6
CONTINUOUS
10
59.1077105408
20
200.7008200004
11
59.1077105408
21
164.7008200004
0
LINE
8
0
62
7
6
CONTINUOUS
10
60.3577105408
20
259.9508200004
11
60.3577105408
21
201.7129216080
0
LINE
8
0
62
7
6
CONTINUOUS
10
60.3577105408
20
163.6887183928
11
60.3577105408
21
105.4508200004
0
LINE
8
0
62
2
6
CONTINUOUS
10
59.1077105408
20
197.7223847367
11
63.2257481861
21
201.8404223820
0
LINE
8
0
62
2
6
CONTINUOUS
10
87.3577105408
20
225.9723847367
11
92.3577105408
21
230.9723847367
0
LINE
8
0
62
2
6
CONTINUOUS
10
100.3361458045
20
238.9508200004
11
104.3361458045
21
242.9508200004
0
LINE
8
0
62
2
6
CONTINUOUS
10
112.0950027130
20
250.7096769090
11
119.3577105408
21
257.9723847367
0
LINE
8
0
62
2
6
CONTINUOUS
10
61.9145729292
20
197.7008200004
11
66.1857650921
21
201.9720121633
0
LINE
8
0
62
2
6
CONTINUOUS
10
87.3577105408
20
223.1439576120
11
92.3577105408
21
228.1439576120
0
LINE
8
0
62
2
6
CONTINUOUS
10
103.1645729292
20
238.9508200004
11
107.1645729292
21
242.9508200004
0
LINE
8
0
62
2
6
CONTINUOUS
10
111.9926579018
20
247.7789049730
11
119.3577105408
21
255.1439576120
0
LINE
8
0
62
2
6
CONTINUOUS
10
64.7430000540
20
197.7008200004
11
69.1457819982
21
202.1036019446
0
LINE
8
0
62
2
6
CONTINUOUS
10
87.3577105408
20
220.3155304872
11
92.3577105408
21
225.3155304872
0
LINE
8
0
62
2
6
CONTINUOUS
10
105.9930000540
20
238.9508200004
11
109.9930000540
21
242.9508200004
0
LINE
8
0
62
2
6
CONTINUOUS
10
111.8903130906
20
244.8481330371
11
119.3577105408
21
252.3155304872
0
LINE
8
0
62
7
6
CONTINUOUS
10
65.3577105408
20
238.9508200004
11
65.3577105408
21
201.9352003745
0
LINE
8
0
62
7
6
CONTINUOUS
10
65.3577105408
20
163.4664396263
11
65.3577105408
21
126.4508200004
0
LINE
8
0
62
2
6
CONTINUOUS
10
67.5714271787
20
197.7008200004
11
72.1057989043
21
202.2351917260
0
LINE
8
0
62
2
6
CONTINUOUS
10
87.3577105408
20
217.4871033625
11
92.3577105408
21
222.4871033625
0
LINE
8
0
62
2
6
CONTINUOUS
10
108.8214271787
20
238.9508200004
11
119.3577105408
21
249.4871033625
0
LINE
8
0
62
2
6
CONTINUOUS
10
70.3998543035
20
197.7008200004
11
75.0658158104
21
202.3667815073
0
LINE
8
0
62
2
6
CONTINUOUS
10
87.3577105408
20
214.6586762377
11
92.3577105408
21
219.6586762377
0
LINE
8
0
62
2
6
CONTINUOUS
10
111.6498543035
20
238.9508200004
11
119.3577105408
21
246.6586762377
0
LINE
8
0
62
2
6
CONTINUOUS
10
73.2282814282
20
197.7008200004
11
78.0258327164
21
202.4983712886
0
LINE
8
0
62
2
6
CONTINUOUS
10
87.3577105408
20
211.8302491130
11
92.3577105408
21
216.8302491130
0
LINE
8
0
62
2
6
CONTINUOUS
10
114.4869299473
20
238.9594685195
11
119.3490620216
21
243.8216005938
0
LINE
8
0
62
7
6
CONTINUOUS
10
67.2977105408
20
259.9508200004
11
67.8577563194
21
243.9158265865
0
LINE
8
0
62
7
6
CONTINUOUS
10
67.2977105408
20
105.4508200004
11
67.8577563194
21
121.4858134143
0
LINE
8
0
62
2
6
CONTINUOUS
10
76.0567085530
20
197.7008200004
11
80.9858496225
21
202.6299610700
0
LINE
8
0
62
2
6
CONTINUOUS
10
87.3577105408
20
209.0018219882
11
92.3577105408
21
214.0018219882
0
LINE
8
0
62
2
6
CONTINUOUS
10
78.8851356777
20
197.7008200004
11
84.2685852437
21
203.0842695664
0
LINE
8
0
62
2
6
CONTINUOUS
10
86.9787406094
20
205.7944249321
11
92.3577105408
21
211.1733948635
0
LINE
8
0
62
2
6
CONTINUOUS
10
81.7135628024
20
197.7008200004
11
92.3577105408
21
208.3449677387
0
LINE
8
0
62
7
6
CONTINUOUS
10
97.1356510956
20
162.7008200004
11
119.6521224298
21
163.7018066951
0
LINE
8
0
62
7
6
CONTINUOUS
10
60.0632986517
20
163.7018066951
11
82.5797699860
21
162.7008200004
0
LINE
8
0
62
2
6
CONTINUOUS
10
84.5419899272
20
197.7008200004
11
92.7072404051
21
205.8660704783
0
LINE
8
0
62
2
6
CONTINUOUS
10
87.3704170519
20
197.7008200004
11
93.8304114388
21
204.1608143872
0
LINE
8
0
62
2
6
CONTINUOUS
10
59.1077105408
20
166.6096863645
11
60.1988441767
21
167.7008200004
0
LINE
8
0
62
2
6
CONTINUOUS
10
90.1988441767
20
197.7008200004
11
95.5449905011
21
203.0469663248
0
LINE
8
0
62
7
6
CONTINUOUS
10
59.1077105408
20
167.7008200004
11
120.6077105408
21
167.7008200004
0
LINE
8
0
62
7
6
CONTINUOUS
10
82.3577105408
20
238.9508200004
11
82.3577105408
21
202.7008200004
0
LINE
8
0
62
7
6
CONTINUOUS
10
82.3577105408
20
162.7008200004
11
82.3577105408
21
126.4508200004
0
LINE
8
0
62
2
6
CONTINUOUS
10
59.3635188513
20
164.0370675503
11
63.0272713014
21
167.7008200004
0
LINE
8
0
62
2
6
CONTINUOUS
10
93.0272713014
20
197.7008200004
11
97.9893207729
21
202.6628694718
0
LINE
8
0
62
2
6
CONTINUOUS
10
61.7803522115
20
163.6254737857
11
65.8556984262
21
167.7008200004
0
LINE
8
0
62
2
6
CONTINUOUS
10
95.8556984262
20
197.7008200004
11
100.6973599749
21
202.5424815492
0
LINE
8
0
62
7
6
CONTINUOUS
10
87.3577105408
20
233.9508200004
11
87.3577105408
21
207.6958865268
0
LINE
8
0
62
7
6
CONTINUOUS
10
87.3577105408
20
157.7057534740
11
87.3577105408
21
131.4508200004
0
LINE
8
0
62
2
6
CONTINUOUS
10
64.4883914135
20
163.5050858630
11
68.6841255509
21
167.7008200004
0
LINE
8
0
62
2
6
CONTINUOUS
10
98.6841255509
20
197.7008200004
11
103.4053991770
21
202.4220936265
0
LINE
8
0
62
2
6
CONTINUOUS
10
67.1964306156
20
163.3846979403
11
71.5125526757
21
167.7008200004
0
LINE
8
0
62
2
6
CONTINUOUS
10
101.5125526757
20
197.7008200004
11
106.1134383791
21
202.3017057038
0
LINE
8
0
62
2
6
CONTINUOUS
10
69.9044698176
20
163.2643100176
11
74.3409798004
21
167.7008200004
0
LINE
8
0
62
2
6
CONTINUOUS
10
104.3409798004
20
197.7008200004
11
108.8214775811
21
202.1813177811
0
LINE
8
DEFAULT_1
62
2
6
CENTER
10
123.6077105408
20
182.7008200004
11
56.1077105408
21
182.7008200004
0
LINE
8
0
62
7
6
CONTINUOUS
10
92.3577105408
20
233.9508200004
11
92.3577105408
21
207.6958865268
0
LINE
8
0
62
7
6
CONTINUOUS
10
92.3577105408
20
157.7057534740
11
92.3577105408
21
131.4508200004
0
LINE
8
0
62
2
6
CONTINUOUS
10
72.6125090197
20
163.1439220950
11
77.1694069252
21
167.7008200004
0
LINE
8
0
62
2
6
CONTINUOUS
10
107.1694069252
20
197.7008200004
11
111.5295167832
21
202.0609298584
0
LINE
8
0
62
2
6
CONTINUOUS
10
75.3205482218
20
163.0235341723
11
79.9978340499
21
167.7008200004
0
LINE
8
0
62
2
6
CONTINUOUS
10
109.9978340499
20
197.7008200004
11
114.2375559852
21
201.9405419357
0
LINE
8
0
62
2
6
CONTINUOUS
10
78.0285874238
20
162.9031462496
11
82.8262611747
21
167.7008200004
0
LINE
8
0
62
2
6
CONTINUOUS
10
112.8262611747
20
197.7008200004
11
116.9455951873
21
201.8201540131
0
LINE
8
0
62
7
6
CONTINUOUS
10
97.3577105408
20
238.9508200004
11
97.3577105408
21
202.7008200004
0
LINE
8
0
62
7
6
CONTINUOUS
10
97.3577105408
20
162.7008200004
11
97.3577105408
21
126.4508200004
0
LINE
8
0
62
2
6
CONTINUOUS
10
80.7366266259
20
162.7827583269
11
85.6546882994
21
167.7008200004
0
LINE
8
0
62
2
6
CONTINUOUS
10
115.6546882994
20
197.7008200004
11
119.6535015913
21
201.6996332923
0
LINE
8
0
62
2
6
CONTINUOUS
10
83.3752531555
20
162.5929577318
11
88.4831154241
21
167.7008200004
0
LINE
8
0
62
2
6
CONTINUOUS
10
118.4831154241
20
197.7008200004
11
120.6077105408
21
199.8254151170
0
LINE
8
0
62
2
6
CONTINUOUS
10
85.3273795198
20
161.7166569713
11
91.3115425489
21
167.7008200004
0
LINE
8
0
62
2
6
CONTINUOUS
10
86.6679471974
20
160.2287975242
11
94.1399696736
21
167.7008200004
0
LINE
8
0
62
2
6
CONTINUOUS
10
87.3342653977
20
158.0666885998
11
96.9683967984
21
167.7008200004
0
LINE
8
0
62
7
6
CONTINUOUS
10
59.1077105408
20
197.7008200004
11
120.6077105408
21
197.7008200004
0
LINE
8
0
62
7
6
CONTINUOUS
10
111.8577563194
20
121.4858109112
11
112.4177105408
21
105.4508200004
0
LINE
8
0
62
7
6
CONTINUOUS
10
111.8577563194
20
243.9158290896
11
112.4177105408
21
259.9508200004
0
LINE
8
0
62
2
6
CONTINUOUS
10
87.3577105408
20
155.2617066180
11
99.7968239231
21
167.7008200004
0
LINE
8
0
62
2
6
CONTINUOUS
10
87.3577105408
20
152.4332794933
11
92.3577105408
21
157.4332794933
0
LINE
8
0
62
2
6
CONTINUOUS
10
97.6480292026
20
162.7235981551
11
102.6252510479
21
167.7008200004
0
LINE
8
0
62
2
6
CONTINUOUS
10
60.5437214941
20
122.7908633219
11
64.0176672193
21
126.2648090470
0
LINE
8
0
62
2
6
CONTINUOUS
10
87.3577105408
20
149.6048523686
11
92.3577105408
21
154.6048523686
0
LINE
8
0
62
2
6
CONTINUOUS
10
100.6080461087
20
162.8551879365
11
105.4536781726
21
167.7008200004
0
LINE
8
0
62
7
6
CONTINUOUS
10
60.0632986517
20
201.6998333057
11
82.5797699860
21
202.7008200004
0
LINE
8
0
62
7
6
CONTINUOUS
10
97.1356510956
20
202.7008200004
11
119.6521224298
21
201.6998333057
0
LINE
8
0
62
7
6
CONTINUOUS
10
114.3577105408
20
238.9508200004
11
114.3577105408
21
201.9352003745
0
LINE
8
0
62
7
6
CONTINUOUS
10
114.3577105408
20
163.4664396263
11
114.3577105408
21
126.4508200004
0
LINE
8
0
62
2
6
CONTINUOUS
10
60.3577105408
20
119.7764252438
11
67.0321052974
21
126.4508200004
0
LINE
8
0
62
2
6
CONTINUOUS
10
87.3577105408
20
146.7764252438
11
92.3577105408
21
151.7764252438
0
LINE
8
0
62
2
6
CONTINUOUS
10
103.5680630147
20
162.9867777178
11
108.2821052974
21
167.7008200004
0
LINE
8
0
62
2
6
CONTINUOUS
10
60.3577105408
20
116.9479981191
11
69.8605324221
21
126.4508200004
0
LINE
8
0
62
2
6
CONTINUOUS
10
87.3577105408
20
143.9479981191
11
92.3577105408
21
148.9479981191
0
LINE
8
0
62
2
6
CONTINUOUS
10
106.5280799208
20
163.1183674991
11
111.1105324221
21
167.7008200004
0
LINE
8
0
62
2
6
CONTINUOUS
10
60.3577105408
20
114.1195709943
11
67.8788194507
21
121.6406799043
0
LINE
8
0
62
2
6
CONTINUOUS
10
68.6701567894
20
122.4320172430
11
72.6889595469
21
126.4508200004
0
LINE
8
0
62
2
6
CONTINUOUS
10
87.3577105408
20
141.1195709943
11
92.3577105408
21
146.1195709943
0
LINE
8
0
62
2
6
CONTINUOUS
10
109.4880968269
20
163.2499572804
11
113.9389595469
21
167.7008200004
0
LINE
8
0
62
7
6
CONTINUOUS
10
119.3577105408
20
259.9508200004
11
119.3577105408
21
201.7129216080
0
LINE
8
0
62
7
6
CONTINUOUS
10
119.3577105408
20
163.6887183928
11
119.3577105408
21
105.4508200004
0
LINE
8
0
62
7
6
CONTINUOUS
10
120.6077105408
20
200.7008200004
11
120.6077105408
21
164.7008200004
0
LINE
8
0
62
2
6
CONTINUOUS
10
60.3577105408
20
111.2911438696
11
67.7602365926
21
118.6936699214
0
LINE
8
0
62
2
6
CONTINUOUS
10
71.5173866716
20
122.4508200004
11
75.5173866716
21
126.4508200004
0
LINE
8
0
62
2
6
CONTINUOUS
10
87.3577105408
20
138.2911438696
11
92.3577105408
21
143.2911438696
0
LINE
8
0
62
2
6
CONTINUOUS
10
112.4481137330
20
163.3815470618
11
116.7673866716
21
167.7008200004
0
LINE
8
0
62
2
6
CONTINUOUS
10
60.3577105408
20
108.4627167448
11
67.6578744581
21
115.7628806622
0
LINE
8
0
62
2
6
CONTINUOUS
10
74.3458137964
20
122.4508200004
11
78.3458137964
21
126.4508200004
0
LINE
8
0
62
2
6
CONTINUOUS
10
87.3577105408
20
135.4627167448
11
92.3577105408
21
140.4627167448
0
LINE
8
0
62
2
6
CONTINUOUS
10
115.4081306390
20
163.5131368431
11
119.5958137964
21
167.7008200004
0
LINE
8
0
62
2
6
CONTINUOUS
10
60.3577105408
20
105.6342896201
11
67.5555123236
21
112.8320914029
0
LINE
8
0
62
2
6
CONTINUOUS
10
77.1742409211
20
122.4508200004
11
81.1742409211
21
126.4508200004
0
LINE
8
0
62
2
6
CONTINUOUS
10
87.3577105408
20
132.6342896201
11
92.3577105408
21
137.6342896201
0
LINE
8
0
62
2
6
CONTINUOUS
10
118.3681475451
20
163.6447266244
11
120.6077105408
21
165.8842896201
0
LINE
8
0
62
2
6
CONTINUOUS
10
63.0026680458
20
105.4508200004
11
67.4531501891
21
109.9013021436
0
LINE
8
0
62
2
6
CONTINUOUS
10
80.0026680458
20
122.4508200004
11
84.4931264085
21
126.9412783630
0
LINE
8
0
62
2
6
CONTINUOUS
10
86.8672521781
20
129.3154041327
11
92.3577105408
21
134.8058624953
0
LINE
8
0
62
2
6
CONTINUOUS
10
65.8310951706
20
105.4508200004
11
67.3507880546
21
106.9705128844
0
LINE
8
0
62
2
6
CONTINUOUS
10
82.8310951706
20
122.4508200004
11
92.3577105408
21
131.9774353706
0
LINE
8
0
62
2
6
CONTINUOUS
10
85.6595222953
20
122.4508200004
11
92.7412908171
21
129.5325885221
0
LINE
8
0
62
2
6
CONTINUOUS
10
88.4879494201
20
122.4508200004
11
93.8916188498
21
127.8544894301
0
LINE
8
0
62
2
6
CONTINUOUS
10
91.3163765448
20
122.4508200004
11
95.6332408280
21
126.7676842836
0
LINE
8
0
62
2
6
CONTINUOUS
10
94.1448036696
20
122.4508200004
11
98.1448036696
21
126.4508200004
0
LINE
8
0
62
2
6
CONTINUOUS
10
96.9732307943
20
122.4508200004
11
100.9732307943
21
126.4508200004
0
LINE
8
0
62
2
6
CONTINUOUS
10
99.8016579191
20
122.4508200004
11
103.8016579191
21
126.4508200004
0
LINE
8
0
62
2
6
CONTINUOUS
10
102.6300850438
20
122.4508200004
11
106.6300850438
21
126.4508200004
0
LINE
8
0
62
2
6
CONTINUOUS
10
105.4585121686
20
122.4508200004
11
109.4585121686
21
126.4508200004
0
LINE
8
0
62
2
6
CONTINUOUS
10
108.2869392933
20
122.4508200004
11
112.2869392933
21
126.4508200004
0
LINE
8
0
62
2
6
CONTINUOUS
10
111.0855031607
20
122.4209567431
11
115.0621189513
21
126.3975725336
0
LINE
8
0
62
2
6
CONTINUOUS
10
111.8955825629
20
120.4026090205
11
117.1070295640
21
125.6140560216
0
LINE
8
0
62
2
6
CONTINUOUS
10
111.9910206433
20
117.6696199762
11
118.5211843935
21
124.1997837264
0
LINE
8
0
62
7
6
CONTINUOUS
10
65.3577105408
20
238.9508200004
11
82.3577105408
21
238.9508200004
0
LINE
8
0
62
7
6
CONTINUOUS
10
97.3577105408
20
238.9508200004
11
114.3577105408
21
238.9508200004
0
LINE
8
0
62
7
6
CONTINUOUS
10
68.8570555892
20
242.9508200004
11
110.8448444066
21
242.9508200004
0
LINE
8
0
62
2
6
CONTINUOUS
10
112.0864587238
20
114.9366309319
11
119.3045613596
21
122.1547335677
0
LINE
8
0
62
2
6
CONTINUOUS
10
112.1818968042
20
112.2036418876
11
119.3577105408
21
119.3794556241
0
LINE
8
0
62
2
6
CONTINUOUS
10
112.2773348847
20
109.4706528433
11
119.3577105408
21
116.5510284994
0
LINE
8
0
62
2
6
CONTINUOUS
10
112.3727729651
20
106.7376637990
11
119.3577105408
21
113.7226013746
0
LINE
8
0
62
2
6
CONTINUOUS
10
113.9143562913
20
105.4508200004
11
119.3577105408
21
110.8941742499
0
LINE
8
0
62
2
6
CONTINUOUS
10
116.7427834160
20
105.4508200004
11
119.3577105408
21
108.0657471252
0
LINE
8
0
62
7
6
CONTINUOUS
10
60.3577105408
20
259.9508200004
11
67.2977105408
21
259.9508200004
0
LINE
8
0
62
7
6
CONTINUOUS
10
112.4177105408
20
259.9508200004
11
119.3577105408
21
259.9508200004
0
ARC
8
0
62
7
6
CONTINUOUS
10
60.1077105408
20
200.7008200004
40
1.0000000000
50
92.5454510516
51
180.0000000000
0
ARC
8
0
62
7
6
CONTINUOUS
10
119.6077105408
20
200.7008200004
40
1.0000000000
50
0.0000000000
51
87.4545489484
0
ARC
8
0
62
7
6
CONTINUOUS
10
60.1077105408
20
164.7008200004
40
1.0000000000
50
180.0000000000
51
267.4545489484
0
ARC
8
0
62
7
6
CONTINUOUS
10
97.3577105408
20
207.6958865268
40
5.0000000000
50
180.0000000000
51
267.4545489484
0
ARC
8
0
62
7
6
CONTINUOUS
10
110.8583654924
20
243.9507285863
40
1.0000000000
50
269.2252752454
51
358.0000000000
0
ARC
8
0
62
7
6
CONTINUOUS
10
110.8583654924
20
121.4509114145
40
1.0000000000
50
2.0000000000
51
90.7747247546
0
ARC
8
0
62
7
6
CONTINUOUS
10
68.8570555892
20
243.9507285863
40
0.9999085859
50
182.0003264391
51
270.0000000000
0
ARC
8
0
62
7
6
CONTINUOUS
10
68.8570555892
20
121.4509114145
40
0.9999085859
50
90.0000000000
51
177.9996735609
0
ARC
8
0
62
7
6
CONTINUOUS
10
114.3577105408
20
243.9508200004
40
5.0000000000
50
270.0000000000
51
360.0000000000
0
ARC
8
0
62
7
6
CONTINUOUS
10
114.3577105408
20
121.4508200004
40
5.0000000000
50
0.0000000000
51
90.0000000000
0
ARC
8
0
62
7
6
CONTINUOUS
10
65.3577105408
20
243.9508200004
40
5.0000000000
50
180.0000000000
51
270.0000000000
0
ARC
8
0
62
7
6
CONTINUOUS
10
65.3577105408
20
121.4508200004
40
5.0000000000
50
90.0000000000
51
180.0000000000
0
ARC
8
0
62
7
6
CONTINUOUS
10
82.3577105408
20
233.9508200004
40
5.0000000000
50
0.0000000000
51
90.0000000000
0
ARC
8
0
62
7
6
CONTINUOUS
10
82.3577105408
20
131.4508200004
40
5.0000000000
50
270.0000000000
51
360.0000000000
0
ARC
8
0
62
7
6
CONTINUOUS
10
82.3577105408
20
207.6958865268
40
5.0000000000
50
272.5454510516
51
360.0000000000
0
ARC
8
0
62
7
6
CONTINUOUS
10
82.3577105408
20
157.7057534740
40
5.0000000000
50
0.0000000000
51
87.4545489484
0
ARC
8
0
62
7
6
CONTINUOUS
10
97.3577105408
20
233.9508200004
40
5.0000000000
50
90.0000000000
51
180.0000000000
0
ARC
8
0
62
7
6
CONTINUOUS
10
97.3577105408
20
131.4508200004
40
5.0000000000
50
180.0000000000
51
270.0000000000
0
ARC
8
0
62
7
6
CONTINUOUS
10
97.3577105408
20
157.7057534740
40
5.0000000000
50
92.5454510516
51
180.0000000000
0
ARC
8
0
62
7
6
CONTINUOUS
10
119.6077105408
20
164.7008200004
40
1.0000000000
50
272.5454510516
51
360.0000000000
0
ENDSEC
0
EOF
