999
DXF file: NXT820T25R25.dxf
999
Pro/ENGINEER 2009380 by Parametric Technology Corporation
  0
SECTION
  2
HEADER
  9
$ACADVER
  1
AC1014
  9
$DWGCODEPAGE
  3
ANSI_1252
  9
$EXTMAX
 10
210.0
 20
297.0
 30
0.0
  9
$EXTMIN
 10
0.0
 20
0.0
 30
0.0
  9
$LIMMIN
 10
0.0
 20
0.0
  9
$LIMMAX
 10
210.0
 20
297.0
  9
$VIEWCTR
 10
105.0
 20
148.5
  9
$VIEWSIZE
 40
297.0
  9
$CLAYER
  8
0
  9
$LTSCALE
 40
19.36
  9
$CELTYPE
  6
BYLAYER
  9
$DIMSCALE
 40
1.0
  9
$DIMASZ
 40
3.5
  9
$DIMEXO
 40
2.2
  9
$DIMDLI
 40
13.376
  9
$DIMEXE
 40
6.336
  9
$DIMCEN
 40
3.168
  9
$DIMLFAC
 40
1.0
  9
$DIMBLK
  1
_ARROW_FILLED
  9
$DIMTXT
 40
3.5
  9
$DIMTOL
 70
1
  9
$DIMLIM
 70
0
  9
$DIMTFAC
 40
1.0
  9
$DIMTP
 40
0.01
  9
$DIMTM
 40
0.01
  9
$PDMODE
 70
3
  9
$PDSIZE
 40
0.3125
  9
$HANDSEED
  5
317
  9
$TILEMODE
 70
1
  9
$MEASUREMENT
 70
1
  0
ENDSEC
  0
SECTION
  2
CLASSES
  0
ENDSEC
  0
SECTION
  2
TABLES
  0
TABLE
  2
VPORT
  5
8
100
AcDbSymbolTable
 70
2
  0
VPORT
  5
1F4
100
AcDbSymbolTableRecord
100
AcDbViewportTableRecord
  2
*ACTIVE
 70
0
 10
0.0
 20
0.0
 11
1.0
 21
1.0
 12
105.0
 22
148.5
 13
0.0
 23
0.0
 14
1.0
 24
1.0
 15
0.0
 25
0.0
 16
0.0
 26
0.0
 36
1.0
 17
0.0
 27
0.0
 37
0.0
 40
297.0
 41
0.7070707071
 42
50.0
 43
0.0
 44
0.0
 50
0.0
 51
0.0
 71
0
 72
100
 73
1
 74
1
 75
0
 76
0
 77
0
 78
0
  0
ENDTAB
  0
TABLE
  2
LTYPE
  5
5
100
AcDbSymbolTable
 70
6
  0
LTYPE
  5
14
100
AcDbSymbolTableRecord
100
AcDbLinetypeTableRecord
  2
BYBLOCK
 70
0
  3

 72
65
 73
0
 40
0.0
  0
LTYPE
  5
15
100
AcDbSymbolTableRecord
100
AcDbLinetypeTableRecord
  2
BYLAYER
 70
0
  3

 72
65
 73
0
 40
0.0
  0
LTYPE
  5
16
100
AcDbSymbolTableRecord
100
AcDbLinetypeTableRecord
  2
CONTINUOUS
 70
64
  3
Solid line
 72
65
 73
0
 40
0.0
  0
LTYPE
  5
1F5
100
AcDbSymbolTableRecord
100
AcDbLinetypeTableRecord
  2
CENTER
 70
64
  3
____ _ ____ _ ____ _ ____ _ ____ _ ____ _ ____
 72
65
 73
4
 40
0.6
 49
0.375
 74
0
 49
-0.075
 74
0
 49
0.075
 74
0
 49
-0.075
 74
0
  0
LTYPE
  5
1F6
100
AcDbSymbolTableRecord
100
AcDbLinetypeTableRecord
  2
HIDDEN
 70
64
  3
- - - - - - - - - - - - - - - - - - - -
 72
65
 73
2
 40
0.2
 49
0.1
 74
0
 49
-0.1
 74
0
  0
LTYPE
  5
1F7
100
AcDbSymbolTableRecord
100
AcDbLinetypeTableRecord
  2
PHANTOM
 70
64
  3
_____ _ _ _____ _ _ _____ _ _ _____
 72
65
 73
6
 40
0.8
 49
0.45
 74
0
 49
-0.05
 74
0
 49
0.1
 74
0
 49
-0.05
 74
0
 49
0.1
 74
0
 49
-0.05
 74
0
  0
LTYPE
  5
1F8
100
AcDbSymbolTableRecord
100
AcDbLinetypeTableRecord
  2
DOT
 70
64
  3
. . . . . . . . . . . . . . . . . . . .
 72
65
 73
2
 40
0.2
 49
0.1
 74
0
 49
-0.1
 74
0
  0
LTYPE
  5
1F9
100
AcDbSymbolTableRecord
100
AcDbLinetypeTableRecord
  2
DASHED
 70
64
  3
- - - - - - - - - - - - - - - - - - - -
 72
65
 73
2
 40
0.2
 49
0.1
 74
0
 49
-0.1
 74
0
  0
ENDTAB
  0
TABLE
  2
LAYER
  5
2
100
AcDbSymbolTable
 70
36
  0
LAYER
  5
10
100
AcDbSymbolTableRecord
100
AcDbLayerTableRecord
  2
0
 70
0
 62
7
  6
CONTINUOUS
  0
LAYER
  5
1FA
100
AcDbSymbolTableRecord
100
AcDbLayerTableRecord
  2
DEFAULT_1
 70
0
 62
7
  6
CENTER
  0
LAYER
  5
1FB
100
AcDbSymbolTableRecord
100
AcDbLayerTableRecord
  2
DEFAULT_2
 70
0
 62
8
  6
HIDDEN
  0
LAYER
  5
1FC
100
AcDbSymbolTableRecord
100
AcDbLayerTableRecord
  2
DEFAULT_3
 70
0
 62
7
  6
PHANTOM
  0
LAYER
  5
1FD
100
AcDbSymbolTableRecord
100
AcDbLayerTableRecord
  2
ASSI
 70
0
 62
7
  6
CONTINUOUS
  0
LAYER
  5
1FE
100
AcDbSymbolTableRecord
100
AcDbLayerTableRecord
  2
PIANI
 70
0
 62
7
  6
CONTINUOUS
  0
LAYER
  5
1FF
100
AcDbSymbolTableRecord
100
AcDbLayerTableRecord
  2
PUNTI
 70
0
 62
7
  6
CONTINUOUS
  0
ENDTAB
  0
TABLE
  2
STYLE
  5
3
100
AcDbSymbolTable
 70
1
  0
STYLE
  5
11
100
AcDbSymbolTableRecord
100
AcDbTextStyleTableRecord
  2
STANDARD
 70
0
 40
0.0
 41
0.7143
 50
0.0
 71
0
 42
0.2
  3
txt
  4

  0
STYLE
  5
200
100
AcDbSymbolTableRecord
100
AcDbTextStyleTableRecord
  2
TEXTSTYLE_1
 70
0
 40
0.0
 41
0.8
 50
0.0
 71
0
 42
0.2
  3
gdt
  4

  0
STYLE
  5
201
100
AcDbSymbolTableRecord
100
AcDbTextStyleTableRecord
  2
TEXTSTYLE_2
 70
0
 40
0.0
 41
0.5
 50
0.0
 71
0
 42
0.2
  3
txt
  4

  0
STYLE
  5
202
100
AcDbSymbolTableRecord
100
AcDbTextStyleTableRecord
  2
TEXTSTYLE_3
 70
0
 40
0.0
 41
0.7143
 50
0.0
 71
0
 42
0.2
  3
gdt
  4

  0
STYLE
  5
203
100
AcDbSymbolTableRecord
100
AcDbTextStyleTableRecord
  2
TEXTSTYLE_4
 70
0
 40
0.0
 41
0.55
 50
0.0
 71
0
 42
0.2
  3
txt
  4

  0
STYLE
  5
204
100
AcDbSymbolTableRecord
100
AcDbTextStyleTableRecord
  2
TEXTSTYLE_5
 70
0
 40
0.0
 41
0.7
 50
0.0
 71
0
 42
0.2
  3
txt
  4

  0
STYLE
  5
205
100
AcDbSymbolTableRecord
100
AcDbTextStyleTableRecord
  2
TEXTSTYLE_6
 70
0
 40
0.0
 41
0.6
 50
0.0
 71
0
 42
0.2
  3
txt
  4

  0
STYLE
  5
206
100
AcDbSymbolTableRecord
100
AcDbTextStyleTableRecord
  2
TEXTSTYLE_7
 70
0
 40
0.0
 41
0.55
 50
0.0
 71
0
 42
0.2
  3
txt
  4

  0
STYLE
  5
207
100
AcDbSymbolTableRecord
100
AcDbTextStyleTableRecord
  2
TEXTSTYLE_8
 70
0
 40
0.0
 41
0.7
 50
0.0
 71
0
 42
0.2
  3
txt
  4

  0
STYLE
  5
208
100
AcDbSymbolTableRecord
100
AcDbTextStyleTableRecord
  2
TEXTSTYLE_9
 70
0
 40
0.0
 41
0.6
 50
0.0
 71
0
 42
0.2
  3
gdt
  4

  0
ENDTAB
  0
TABLE
  2
VIEW
  5
6
100
AcDbSymbolTable
 70
0
  0
ENDTAB
  0
TABLE
  2
UCS
  5
7
100
AcDbSymbolTable
 70
0
  0
ENDTAB
  0
TABLE
  2
APPID
  5
9
100
AcDbSymbolTable
 70
1
  0
APPID
  5
209
100
AcDbSymbolTableRecord
100
AcDbRegAppTableRecord
  2
ACAD
 70
0
  0
ENDTAB
  0
TABLE
  2
BLOCK_RECORD
  5
1
100
AcDbSymbolTable
 70
0
  0
BLOCK_RECORD
  5
1F
100
AcDbSymbolTableRecord
100
AcDbBlockTableRecord
  2
*MODEL_SPACE
  0
BLOCK_RECORD
  5
1B
100
AcDbSymbolTableRecord
100
AcDbBlockTableRecord
  2
*PAPER_SPACE
  0
BLOCK_RECORD
  5
20A
100
AcDbSymbolTableRecord
100
AcDbBlockTableRecord
  2
_ARROW_FILLED
  0
BLOCK_RECORD
  5
20B
100
AcDbSymbolTableRecord
100
AcDbBlockTableRecord
  2
*D0
  0
BLOCK_RECORD
  5
20C
100
AcDbSymbolTableRecord
100
AcDbBlockTableRecord
  2
*D1
  0
BLOCK_RECORD
  5
20D
100
AcDbSymbolTableRecord
100
AcDbBlockTableRecord
  2
*D2
  0
BLOCK_RECORD
  5
20E
100
AcDbSymbolTableRecord
100
AcDbBlockTableRecord
  2
*D3
  0
BLOCK_RECORD
  5
20F
100
AcDbSymbolTableRecord
100
AcDbBlockTableRecord
  2
*D4
  0
BLOCK_RECORD
  5
210
100
AcDbSymbolTableRecord
100
AcDbBlockTableRecord
  2
*D5
  0
ENDTAB
  0
TABLE
  2
DIMSTYLE
  5
A
100
AcDbSymbolTable
 70
1
  0
DIMSTYLE
105
211
100
AcDbSymbolTableRecord
100
AcDbDimStyleTableRecord
  2
STANDARD
 70
0
  3

  4

  5
_ARROW_FILLED
  6
_ARROW_FILLED
  7
_ARROW_FILLED
 40
1.0
 41
3.5
 42
0.0625
 43
0.38
 44
0.18
 45
0.0
 46
0.0
 47
0.01
 48
0.01
140
3.5
141
0.09
142
0.0
143
25.4
144
1.0
145
0.0
146
1.0
147
0.09
 71
1.0
 72
0.0
 73
0
 74
0
 75
0
 76
0
 77
1
 78
8
170
0
171
2
172
0
173
0
174
0
175
0
176
0
177
0
178
0
270
2
271
2
272
2
273
2
274
2
275
0
280
0
281
0
282
0
283
1
284
8
285
0
286
0
287
3
288
0
340
11
  0
DIMSTYLE
105
212
100
AcDbSymbolTableRecord
100
AcDbDimStyleTableRecord
  2
DIMSTYLE_1
 70
0
  3

  4

  5
_ARROW_FILLED
  6
_ARROW_FILLED
  7
_ARROW_FILLED
 40
1.0
 41
3.5
 42
0.0625
 43
0.38
 44
0.18
 45
0.0
 46
0.0
 47
0.1
 48
0.1
140
3.5
141
0.09
142
0.0
143
25.4
144
1.0
145
0.0
146
1.0
147
0.09
 71
0.0
 72
0.0
 73
0
 74
0
 75
0
 76
0
 77
1
 78
8
170
0
171
2
172
0
173
0
174
0
175
0
176
0
177
0
178
0
270
2
271
2
272
2
273
2
274
2
275
0
280
0
281
0
282
0
283
1
284
8
285
0
286
0
287
3
288
0
340
11
  0
DIMSTYLE
105
213
100
AcDbSymbolTableRecord
100
AcDbDimStyleTableRecord
  2
DIMSTYLE_2
 70
0
  3

  4

  5
_ARROW_FILLED
  6
_ARROW_FILLED
  7
_ARROW_FILLED
 40
1.0
 41
3.5
 42
0.0625
 43
0.38
 44
0.18
 45
0.0
 46
0.0
 47
0.15
 48
0.15
140
3.5
141
0.09
142
0.0
143
25.4
144
1.0
145
0.0
146
1.0
147
0.09
 71
0.0
 72
0.0
 73
0
 74
0
 75
0
 76
0
 77
1
 78
8
170
0
171
2
172
0
173
0
174
0
175
0
176
0
177
0
178
0
270
2
271
2
272
2
273
2
274
2
275
0
280
0
281
0
282
0
283
1
284
8
285
0
286
0
287
3
288
0
340
11
  0
DIMSTYLE
105
214
100
AcDbSymbolTableRecord
100
AcDbDimStyleTableRecord
  2
DIMSTYLE_3
 70
0
  3

  4

  5
_ARROW_FILLED
  6
_ARROW_FILLED
  7
_ARROW_FILLED
 40
1.0
 41
3.5
 42
0.0625
 43
0.38
 44
0.18
 45
0.0
 46
0.0
 47
0.2
 48
0.2
140
3.5
141
0.09
142
0.0
143
25.4
144
1.0
145
0.0
146
1.0
147
0.09
 71
0.0
 72
0.0
 73
0
 74
0
 75
0
 76
0
 77
1
 78
8
170
0
171
2
172
0
173
0
174
0
175
0
176
0
177
0
178
0
270
2
271
2
272
2
273
2
274
2
275
0
280
0
281
0
282
0
283
1
284
8
285
0
286
0
287
3
288
0
340
11
  0
ENDTAB
  0
ENDSEC
  0
SECTION
  2
BLOCKS
  0
BLOCK
  5
20
100
AcDbEntity
  8
0
100
AcDbBlockBegin
  2
*MODEL_SPACE
 70
0
 10
0.0
 20
0.0
 30
0.0
  3
*MODEL_SPACE
  1

  0
ENDBLK
  5
21
100
AcDbEntity
  8
0
100
AcDbBlockEnd
  0
BLOCK
  5
1C
100
AcDbEntity
  8
0
100
AcDbBlockBegin
  2
*PAPER_SPACE
 70
0
 10
0.0
 20
0.0
 30
0.0
  3
*PAPER_SPACE
  1

  0
ENDBLK
  5
1D
100
AcDbEntity
  8
0
100
AcDbBlockEnd
  0
BLOCK
  5
215
100
AcDbEntity
  8
0
100
AcDbBlockBegin
  2
_ARROW_FILLED
 70
64
 10
0.0
 20
0.0
  3
_ARROW_FILLED
  1

  0
SOLID
  5
216
100
AcDbEntity
  8
0
  6
BYBLOCK
 62
0
100
AcDbTrace
 10
0.0
 20
0.0
 11
-1.0
 21
0.1857142857
 12
-1.0
 22
-0.1857142857
 13
-1.0
 23
-0.1857142857
  0
ENDBLK
  5
217
100
AcDbEntity
  8
0
  6
BYBLOCK
 62
0
100
AcDbBlockEnd
  0
BLOCK
  5
218
100
AcDbEntity
  8
0
100
AcDbBlockBegin
 62
2
  6
CONTINUOUS
  2
*D0
 70
65
 10
0.0
 20
0.0
  3
*D0
  1

  0
MTEXT
  5
219
100
AcDbEntity
  8
0
100
AcDbMText
 62
2
  6
CONTINUOUS
  7
TEXTSTYLE_3
 71
2
 72
1
 10
127.3027055587
 20
181.6019196906
 30
0.0
 11
0.0
 21
1.0
 31
0.0
  1
{\Fgdt;n}\Ftxt;25
 40
3.5
 41
9.6667666667
  0
LINE
  5
21A
100
AcDbEntity
  8
0
100
AcDbLine
 62
2
  6
CONTINUOUS
 10
120.6297075531
 20
170.2008200004
 11
133.1777055587
 21
170.2008200004
  0
LINE
  5
21B
100
AcDbEntity
  8
0
100
AcDbLine
 62
2
  6
CONTINUOUS
 10
119.9699137387
 20
195.2008200004
 11
133.1777055587
 21
195.2008200004
  0
LINE
  5
21C
100
AcDbEntity
  8
0
100
AcDbLine
 62
2
  6
CONTINUOUS
 10
131.6777055587
 20
170.2008200004
 11
131.6777055587
 21
182.7008200004
  0
LINE
  5
21D
100
AcDbEntity
  8
0
100
AcDbLine
 62
2
  6
CONTINUOUS
 10
131.6777055587
 20
195.2008200004
 11
131.6777055587
 21
182.7008200004
  0
INSERT
  5
21E
100
AcDbEntity
  8
0
100
AcDbBlockReference
 62
2
  6
CONTINUOUS
  2
_ARROW_FILLED
 10
131.6777055587
 20
170.2008200004
 41
3.5
 42
3.5
 43
3.5
 50
270.0
  0
INSERT
  5
21F
100
AcDbEntity
  8
0
100
AcDbBlockReference
 62
2
  6
CONTINUOUS
  2
_ARROW_FILLED
 10
131.6777055587
 20
195.2008200004
 41
3.5
 42
3.5
 43
3.5
 50
90.0
  0
ENDBLK
  5
220
100
AcDbEntity
  8
0
  6
BYBLOCK
 62
0
100
AcDbBlockEnd
  0
BLOCK
  5
221
100
AcDbEntity
  8
0
100
AcDbBlockBegin
 62
2
  6
CONTINUOUS
  2
*D1
 70
65
 10
0.0
 20
0.0
  3
*D1
  1

  0
MTEXT
  5
222
100
AcDbEntity
  8
0
100
AcDbMText
 62
2
  6
CONTINUOUS
  7
STANDARD
 71
2
 72
1
 10
90.1563303938
 20
93.873481686
 30
0.0
 11
1.0
 21
0.0
 31
0.0
  1
61.5
 40
3.5
 41
10.0002
  0
LINE
  5
223
100
AcDbEntity
  8
0
100
AcDbLine
 62
2
  6
CONTINUOUS
 10
59.1077105408
 20
162.1632653061
 11
59.1077105408
 21
87.998481686
  0
LINE
  5
224
100
AcDbEntity
  8
0
100
AcDbLine
 62
2
  6
CONTINUOUS
 10
120.6077105408
 20
161.5102040816
 11
120.6077105408
 21
87.998481686
  0
LINE
  5
225
100
AcDbEntity
  8
0
100
AcDbLine
 62
2
  6
CONTINUOUS
 10
59.1077105408
 20
89.498481686
 11
89.8577105408
 21
89.498481686
  0
LINE
  5
226
100
AcDbEntity
  8
0
100
AcDbLine
 62
2
  6
CONTINUOUS
 10
120.6077105408
 20
89.498481686
 11
89.8577105408
 21
89.498481686
  0
INSERT
  5
227
100
AcDbEntity
  8
0
100
AcDbBlockReference
 62
2
  6
CONTINUOUS
  2
_ARROW_FILLED
 10
59.1077105408
 20
89.498481686
 41
3.5
 42
3.5
 43
3.5
 50
180.0
  0
INSERT
  5
228
100
AcDbEntity
  8
0
100
AcDbBlockReference
 62
2
  6
CONTINUOUS
  2
_ARROW_FILLED
 10
120.6077105408
 20
89.498481686
 41
3.5
 42
3.5
 43
3.5
  0
ENDBLK
  5
229
100
AcDbEntity
  8
0
  6
BYBLOCK
 62
0
100
AcDbBlockEnd
  0
BLOCK
  5
22A
100
AcDbEntity
  8
0
100
AcDbBlockBegin
 62
2
  6
CONTINUOUS
  2
*D2
 70
65
 10
0.0
 20
0.0
  3
*D2
  1

  0
MTEXT
  5
22B
100
AcDbEntity
  8
0
100
AcDbMText
 62
2
  6
CONTINUOUS
  7
TEXTSTYLE_3
 71
2
 72
1
 10
21.8684077402
 20
182.7008200004
 30
0.0
 11
0.0
 21
1.0
 31
0.0
  1
{\Fgdt;n}\Ftxt;154.5
 40
3.5
 41
17.1669166667
  0
LINE
  5
22C
100
AcDbEntity
  8
0
100
AcDbLine
 62
2
  6
CONTINUOUS
 10
64.6409036007
 20
105.4508200004
 11
24.7434077402
 21
105.4508200004
  0
LINE
  5
22D
100
AcDbEntity
  8
0
100
AcDbLine
 62
2
  6
CONTINUOUS
 10
61.1221031946
 20
259.9508200004
 11
24.7434077402
 21
259.9508200004
  0
LINE
  5
22E
100
AcDbEntity
  8
0
100
AcDbLine
 62
2
  6
CONTINUOUS
 10
26.2434077402
 20
105.4508200004
 11
26.2434077402
 21
182.7008200004
  0
LINE
  5
22F
100
AcDbEntity
  8
0
100
AcDbLine
 62
2
  6
CONTINUOUS
 10
26.2434077402
 20
259.9508200004
 11
26.2434077402
 21
182.7008200004
  0
INSERT
  5
230
100
AcDbEntity
  8
0
100
AcDbBlockReference
 62
2
  6
CONTINUOUS
  2
_ARROW_FILLED
 10
26.2434077402
 20
105.4508200004
 41
3.5
 42
3.5
 43
3.5
 50
270.0
  0
INSERT
  5
231
100
AcDbEntity
  8
0
100
AcDbBlockReference
 62
2
  6
CONTINUOUS
  2
_ARROW_FILLED
 10
26.2434077402
 20
259.9508200004
 41
3.5
 42
3.5
 43
3.5
 50
90.0
  0
ENDBLK
  5
232
100
AcDbEntity
  8
0
  6
BYBLOCK
 62
0
100
AcDbBlockEnd
  0
BLOCK
  5
233
100
AcDbEntity
  8
0
100
AcDbBlockBegin
 62
2
  6
CONTINUOUS
  2
*D3
 70
65
 10
0.0
 20
0.0
  3
*D3
  1

  0
MTEXT
  5
234
100
AcDbEntity
  8
0
100
AcDbMText
 62
2
  6
CONTINUOUS
  7
TEXTSTYLE_3
 71
2
 72
1
 10
41.5564510963
 20
182.7008200004
 30
0.0
 11
0.0
 21
1.0
 31
0.0
  1
{\Fgdt;n}\Ftxt;40
 40
3.5
 41
9.6667666667
  0
LINE
  5
235
100
AcDbEntity
  8
0
100
AcDbLine
 62
2
  6
CONTINUOUS
 10
72.6694847581
 20
162.7008200004
 11
44.4314510963
 21
162.7008200004
  0
LINE
  5
236
100
AcDbEntity
  8
0
100
AcDbLine
 62
2
  6
CONTINUOUS
 10
72.8454247784
 20
202.7008200004
 11
44.4314510963
 21
202.7008200004
  0
LINE
  5
237
100
AcDbEntity
  8
0
100
AcDbLine
 62
2
  6
CONTINUOUS
 10
45.9314510963
 20
162.7008200004
 11
45.9314510963
 21
182.7008200004
  0
LINE
  5
238
100
AcDbEntity
  8
0
100
AcDbLine
 62
2
  6
CONTINUOUS
 10
45.9314510963
 20
202.7008200004
 11
45.9314510963
 21
182.7008200004
  0
INSERT
  5
239
100
AcDbEntity
  8
0
100
AcDbBlockReference
 62
2
  6
CONTINUOUS
  2
_ARROW_FILLED
 10
45.9314510963
 20
162.7008200004
 41
3.5
 42
3.5
 43
3.5
 50
270.0
  0
INSERT
  5
23A
100
AcDbEntity
  8
0
100
AcDbBlockReference
 62
2
  6
CONTINUOUS
  2
_ARROW_FILLED
 10
45.9314510963
 20
202.7008200004
 41
3.5
 42
3.5
 43
3.5
 50
90.0
  0
ENDBLK
  5
23B
100
AcDbEntity
  8
0
  6
BYBLOCK
 62
0
100
AcDbBlockEnd
  0
BLOCK
  5
23C
100
AcDbEntity
  8
0
100
AcDbBlockBegin
 62
2
  6
CONTINUOUS
  2
*D4
 70
65
 10
0.0
 20
0.0
  3
*D4
  1

  0
MTEXT
  5
23D
100
AcDbEntity
  8
0
100
AcDbMText
 62
2
  6
CONTINUOUS
  7
STANDARD
 71
2
 72
1
 10
91.0079681375
 20
271.803074114
 30
0.0
 11
1.0
 21
0.0
 31
0.0
  1
44
 40
3.5
 41
5.0001
  0
LINE
  5
23E
100
AcDbEntity
  8
0
100
AcDbLine
 62
2
  6
CONTINUOUS
 10
111.8577964061
 20
243.3294628602
 11
111.8577964061
 21
268.928074114
  0
LINE
  5
23F
100
AcDbEntity
  8
0
100
AcDbLine
 62
2
  6
CONTINUOUS
 10
67.8577964061
 20
243.3294581652
 11
67.8577964061
 21
268.928074114
  0
LINE
  5
240
100
AcDbEntity
  8
0
100
AcDbLine
 62
2
  6
CONTINUOUS
 10
111.8577964061
 20
267.428074114
 11
89.8577964061
 21
267.428074114
  0
LINE
  5
241
100
AcDbEntity
  8
0
100
AcDbLine
 62
2
  6
CONTINUOUS
 10
67.8577964061
 20
267.428074114
 11
89.8577964061
 21
267.428074114
  0
INSERT
  5
242
100
AcDbEntity
  8
0
100
AcDbBlockReference
 62
2
  6
CONTINUOUS
  2
_ARROW_FILLED
 10
111.8577964061
 20
267.428074114
 41
3.5
 42
3.5
 43
3.5
  0
INSERT
  5
243
100
AcDbEntity
  8
0
100
AcDbBlockReference
 62
2
  6
CONTINUOUS
  2
_ARROW_FILLED
 10
67.8577964061
 20
267.428074114
 41
3.5
 42
3.5
 43
3.5
 50
180.0
  0
ENDBLK
  5
244
100
AcDbEntity
  8
0
  6
BYBLOCK
 62
0
100
AcDbBlockEnd
  0
BLOCK
  5
245
100
AcDbEntity
  8
0
100
AcDbBlockBegin
 62
2
  6
CONTINUOUS
  2
*D5
 70
65
 10
0.0
 20
0.0
  3
*D5
  1

  0
MTEXT
  5
246
100
AcDbEntity
  8
0
100
AcDbMText
 62
2
  6
CONTINUOUS
  7
STANDARD
 71
2
 72
1
 10
89.1783031235
 20
282.1492228004
 30
0.0
 11
1.0
 21
0.0
 31
0.0
  1
59
 40
3.5
 41
5.0001
  0
LINE
  5
247
100
AcDbEntity
  8
0
100
AcDbLine
 62
2
  6
CONTINUOUS
 10
60.3577105408
 20
260.4508200004
 11
60.3577105408
 21
279.2742228004
  0
LINE
  5
248
100
AcDbEntity
  8
0
100
AcDbLine
 62
2
  6
CONTINUOUS
 10
119.3577105408
 20
260.4508200004
 11
119.3577105408
 21
279.2742228004
  0
LINE
  5
249
100
AcDbEntity
  8
0
100
AcDbLine
 62
2
  6
CONTINUOUS
 10
60.3577105408
 20
277.7742228004
 11
89.8577105408
 21
277.7742228004
  0
LINE
  5
24A
100
AcDbEntity
  8
0
100
AcDbLine
 62
2
  6
CONTINUOUS
 10
119.3577105408
 20
277.7742228004
 11
89.8577105408
 21
277.7742228004
  0
INSERT
  5
24B
100
AcDbEntity
  8
0
100
AcDbBlockReference
 62
2
  6
CONTINUOUS
  2
_ARROW_FILLED
 10
60.3577105408
 20
277.7742228004
 41
3.5
 42
3.5
 43
3.5
 50
180.0
  0
INSERT
  5
24C
100
AcDbEntity
  8
0
100
AcDbBlockReference
 62
2
  6
CONTINUOUS
  2
_ARROW_FILLED
 10
119.3577105408
 20
277.7742228004
 41
3.5
 42
3.5
 43
3.5
  0
ENDBLK
  5
24D
100
AcDbEntity
  8
0
  6
BYBLOCK
 62
0
100
AcDbBlockEnd
  0
ENDSEC
  0
SECTION
  2
ENTITIES
  0
MTEXT
  5
24E
100
AcDbEntity
  8
0
100
AcDbMText
 62
2
  6
CONTINUOUS
  7
TEXTSTYLE_2
 71
2
 72
1
 10
200.0485969212
 20
4.4774188379
 30
0.0
 11
1.0
 21
0.0
 31
0.0
  1
\Q10.0;UNI A4
 40
3.0
 41
9.0
  0
LINE
  5
24F
100
AcDbEntity
  8
0
100
AcDbLine
 62
7
  6
CONTINUOUS
 10
59.1077105408
 20
195.2008200004
 11
120.6077105408
 21
195.2008200004
  0
LINE
  5
250
100
AcDbEntity
  8
0
100
AcDbLine
 62
7
  6
CONTINUOUS
 10
59.1077105408
 20
200.7008200004
 11
59.1077105408
 21
195.2008200004
  0
SPLINE
  5
251
100
AcDbEntity
  8
0
100
AcDbSpline
 62
7
  6
CONTINUOUS
 70
4
 71
3
 72
8
 73
4
 74
129
 42
0.0000001
 43
0.0000001
 44
0.0000000001
 12
0.0
 22
1.3824529728
 32
0.0
 13
1.3810889137
 23
0.061397348
 33
0.0
 40
0.0
 40
0.0
 40
0.0
 40
0.0
 40
1.0
 40
1.0
 40
1.0
 40
1.0
 10
59.1077105408
 20
200.7008200004
 30
0.0
 41
1.0
 10
59.1077105408
 20
201.2661765348
 30
0.0
 41
0.8150921225
 10
59.4984999516
 20
201.674724754
 30
0.0
 41
0.8150921225
 10
60.0632986517
 20
201.6998333057
 30
0.0
 41
1.0
 11
59.1077105408
 21
200.7008200004
 31
0.0
 11
59.1077691171
 21
200.7116435514
 31
0.0
 11
59.1079458463
 21
200.7225122963
 31
0.0
 11
59.1082422114
 21
200.7334245801
 31
0.0
 11
59.1086596714
 21
200.7443787013
 31
0.0
 11
59.1091996596
 21
200.7553729125
 31
0.0
 11
59.1098635822
 21
200.7664054203
 31
0.0
 11
59.1106528167
 21
200.777474386
 31
0.0
 11
59.1115687102
 21
200.7885779255
 31
0.0
 11
59.1126125782
 21
200.7997141101
 31
0.0
 11
59.1137857027
 21
200.8108809668
 31
0.0
 11
59.1150893308
 21
200.8220764787
 31
0.0
 11
59.116524673
 21
200.8332985859
 31
0.0
 11
59.118092902
 21
200.8445451859
 31
0.0
 11
59.1197951504
 21
200.8558141344
 31
0.0
 11
59.1216325103
 21
200.8671032459
 31
0.0
 11
59.1236060304
 21
200.8784102949
 31
0.0
 11
59.1257167157
 21
200.8897330164
 31
0.0
 11
59.1279655253
 21
200.901069107
 31
0.0
 11
59.130353371
 21
200.9124162261
 31
0.0
 11
59.132881116
 21
200.9237719965
 31
0.0
 11
59.1355495733
 21
200.9351340062
 31
0.0
 11
59.1383595044
 21
200.946499809
 31
0.0
 11
59.1413116179
 21
200.9578669259
 31
0.0
 11
59.1444065681
 21
200.9692328469
 31
0.0
 11
59.1476449535
 21
200.9805950316
 31
0.0
 11
59.1510273159
 21
200.9919509112
 31
0.0
 11
59.1545541389
 21
201.0032978899
 31
0.0
 11
59.1582258468
 21
201.0146333461
 31
0.0
 11
59.1620428034
 21
201.0259546347
 31
0.0
 11
59.1660053107
 21
201.037259088
 31
0.0
 11
59.1701136083
 21
201.0485440178
 31
0.0
 11
59.1743678721
 21
201.0598067173
 31
0.0
 11
59.1787682134
 21
201.0710444627
 31
0.0
 11
59.183314678
 21
201.0822545149
 31
0.0
 11
59.1880072453
 21
201.0934341218
 31
0.0
 11
59.1928458279
 21
201.10458052
 31
0.0
 11
59.1978302705
 21
201.1156909367
 31
0.0
 11
59.2029603495
 21
201.1267625921
 31
0.0
 11
59.2082357724
 21
201.1377927009
 31
0.0
 11
59.2136561772
 21
201.1487784751
 31
0.0
 11
59.2192211324
 21
201.1597171252
 31
0.0
 11
59.224930136
 21
201.1706058633
 31
0.0
 11
59.230782616
 21
201.1814419046
 31
0.0
 11
59.2367779297
 21
201.1922224698
 31
0.0
 11
59.2429153637
 21
201.2029447875
 31
0.0
 11
59.2491941343
 21
201.2136060959
 31
0.0
 11
59.2556133868
 21
201.2242036457
 31
0.0
 11
59.2621721964
 21
201.2347347016
 31
0.0
 11
59.2688695681
 21
201.2451965452
 31
0.0
 11
59.275704437
 21
201.2555864768
 31
0.0
 11
59.282675669
 21
201.2659018178
 31
0.0
 11
59.2897820606
 21
201.2761399126
 31
0.0
 11
59.2970223405
 21
201.2862981315
 31
0.0
 11
59.3043951694
 21
201.2963738722
 31
0.0
 11
59.3118991411
 21
201.3063645621
 31
0.0
 11
59.3195327833
 21
201.3162676607
 31
0.0
 11
59.3272945584
 21
201.3260806616
 31
0.0
 11
59.3351828648
 21
201.3358010945
 31
0.0
 11
59.3431960376
 21
201.3454265273
 31
0.0
 11
59.3513323499
 21
201.3549545679
 31
0.0
 11
59.3595900141
 21
201.3643828667
 31
0.0
 11
59.3679671829
 21
201.373709118
 31
0.0
 11
59.3764619512
 21
201.382931062
 31
0.0
 11
59.3850723571
 21
201.3920464868
 31
0.0
 11
59.3937963834
 21
201.40105323
 31
0.0
 11
59.4026319594
 21
201.4099491805
 31
0.0
 11
59.4115769626
 21
201.4187322801
 31
0.0
 11
59.4206292201
 21
201.427400525
 31
0.0
 11
59.4297865105
 21
201.4359519676
 31
0.0
 11
59.4390465657
 21
201.4443847175
 31
0.0
 11
59.4484070729
 21
201.4526969433
 31
0.0
 11
59.4578656763
 21
201.4608868739
 31
0.0
 11
59.4674199792
 21
201.4689527993
 31
0.0
 11
59.4770675457
 21
201.4768930722
 31
0.0
 11
59.4868059034
 21
201.4847061091
 31
0.0
 11
59.4966325448
 21
201.4923903907
 31
0.0
 11
59.5065449295
 21
201.4999444637
 31
0.0
 11
59.5165404867
 21
201.5073669409
 31
0.0
 11
59.5266166172
 21
201.5146565024
 31
0.0
 11
59.5367706952
 21
201.5218118961
 31
0.0
 11
59.5470000711
 21
201.5288319383
 31
0.0
 11
59.5573020732
 21
201.5357155141
 31
0.0
 11
59.5676740101
 21
201.5424615783
 31
0.0
 11
59.5781131731
 21
201.5490691549
 31
0.0
 11
59.588616838
 21
201.5555373383
 31
0.0
 11
59.5991822677
 21
201.5618652928
 31
0.0
 11
59.6098067143
 21
201.5680522528
 31
0.0
 11
59.6204874212
 21
201.5740975232
 31
0.0
 11
59.6312216253
 21
201.5800004787
 31
0.0
 11
59.6420065593
 21
201.5857605643
 31
0.0
 11
59.6528394538
 21
201.5913772946
 31
0.0
 11
59.6637175395
 21
201.5968502537
 31
0.0
 11
59.674638049
 21
201.6021790947
 31
0.0
 11
59.6855982192
 21
201.6073635393
 31
0.0
 11
59.6965952935
 21
201.6124033775
 31
0.0
 11
59.7076265231
 21
201.6172984665
 31
0.0
 11
59.7186891699
 21
201.6220487304
 31
0.0
 11
59.7297805077
 21
201.6266541595
 31
0.0
 11
59.7408978245
 21
201.6311148091
 31
0.0
 11
59.7520384241
 21
201.6354307993
 31
0.0
 11
59.7631996283
 21
201.6396023134
 31
0.0
 11
59.774378778
 21
201.6436295973
 31
0.0
 11
59.7855732358
 21
201.6475129584
 31
0.0
 11
59.7967803867
 21
201.6512527646
 31
0.0
 11
59.8079976403
 21
201.654849443
 31
0.0
 11
59.8192224325
 21
201.6583034788
 31
0.0
 11
59.8304522264
 21
201.6616154142
 31
0.0
 11
59.841684514
 21
201.6647858468
 31
0.0
 11
59.8529168178
 21
201.6678154289
 31
0.0
 11
59.864146692
 21
201.6707048655
 31
0.0
 11
59.8753717235
 21
201.6734549134
 31
0.0
 11
59.8865895334
 21
201.6760663796
 31
0.0
 11
59.897797778
 21
201.6785401199
 31
0.0
 11
59.90899415
 21
201.6808770375
 31
0.0
 11
59.9201763794
 21
201.6830780817
 31
0.0
 11
59.9313422344
 21
201.685144246
 31
0.0
 11
59.9424895226
 21
201.687076567
 31
0.0
 11
59.9536160914
 21
201.6888761226
 31
0.0
 11
59.9647198291
 21
201.6905440308
 31
0.0
 11
59.9757986655
 21
201.6920814478
 31
0.0
 11
59.9868505727
 21
201.6934895668
 31
0.0
 11
59.9978735652
 21
201.6947696162
 31
0.0
 11
60.0088657013
 21
201.6959228583
 31
0.0
 11
60.0198250827
 21
201.6969505874
 31
0.0
 11
60.0307498553
 21
201.6978541287
 31
0.0
 11
60.0416382099
 21
201.6986348365
 31
0.0
 11
60.0524883818
 21
201.6992940928
 31
0.0
 11
60.0632986517
 21
201.6998333057
 31
0.0
  0
LINE
  5
252
100
AcDbEntity
  8
0
100
AcDbLine
 62
7
  6
CONTINUOUS
 10
60.0632986517
 20
201.6998333057
 11
82.579769986
 21
202.7008200004
  0
SPLINE
  5
253
100
AcDbEntity
  8
0
100
AcDbSpline
 62
7
  6
CONTINUOUS
 70
4
 71
3
 72
8
 73
4
 74
129
 42
0.0000001
 43
0.0000001
 44
0.0000000001
 12
0.0
 22
-6.9122648639
 32
0.0
 13
-6.9054445686
 23
-0.3069867401
 33
0.0
 40
0.0
 40
0.0
 40
0.0
 40
0.0
 40
1.0
 40
1.0
 40
1.0
 40
1.0
 10
87.3577105408
 20
207.6958865268
 30
0.0
 41
1.0
 10
87.3577105408
 20
204.8691038546
 30
0.0
 41
0.8150921225
 10
85.4037634865
 20
202.8263627588
 30
0.0
 41
0.8150921225
 10
82.579769986
 20
202.7008200004
 30
0.0
 41
1.0
 11
87.3577105408
 21
207.6958865268
 31
0.0
 11
87.3574176591
 21
207.641768772
 31
0.0
 11
87.3565340131
 21
207.5874250472
 31
0.0
 11
87.3550521875
 21
207.5328636283
 31
0.0
 11
87.3529648876
 21
207.4780930222
 31
0.0
 11
87.3502649465
 21
207.4231219664
 31
0.0
 11
87.3469453335
 21
207.3679594272
 31
0.0
 11
87.3429991612
 21
207.3126145989
 31
0.0
 11
87.3384196936
 21
207.2570969013
 31
0.0
 11
87.3332003535
 21
207.2014159783
 31
0.0
 11
87.327334731
 21
207.145581695
 31
0.0
 11
87.3208165906
 21
207.0896041353
 31
0.0
 11
87.3136398794
 21
207.0334935992
 31
0.0
 11
87.3057987348
 21
206.9772605992
 31
0.0
 11
87.2972874924
 21
206.9209158568
 31
0.0
 11
87.2881006933
 21
206.8644702992
 31
0.0
 11
87.2782330925
 21
206.8079350543
 31
0.0
 11
87.2676796659
 21
206.7513214469
 31
0.0
 11
87.256435618
 21
206.6946409938
 31
0.0
 11
87.2444963896
 21
206.6379053985
 31
0.0
 11
87.2318576647
 21
206.5811265462
 31
0.0
 11
87.2185153782
 21
206.5243164978
 31
0.0
 11
87.2044657225
 21
206.467487484
 31
0.0
 11
87.189705155
 21
206.4106518991
 31
0.0
 11
87.1742304043
 21
206.3538222942
 31
0.0
 11
87.1580384772
 21
206.2970113707
 31
0.0
 11
87.1411266651
 21
206.2402319726
 31
0.0
 11
87.12349255
 21
206.1834970794
 31
0.0
 11
87.1051340105
 21
206.1268197981
 31
0.0
 11
87.0860492278
 21
206.0702133553
 31
0.0
 11
87.0662366912
 21
206.013691089
 31
0.0
 11
87.045695203
 21
205.9572664398
 31
0.0
 11
87.0244238839
 21
205.9009529422
 31
0.0
 11
87.0024221775
 21
205.8447642154
 31
0.0
 11
86.9796898548
 21
205.7887139544
 31
0.0
 11
86.9562270181
 21
205.7328159198
 31
0.0
 11
86.9320341051
 21
205.677083929
 31
0.0
 11
86.9071118921
 21
205.6215318452
 31
0.0
 11
86.8814614971
 21
205.5661735684
 31
0.0
 11
86.8550843827
 21
205.5110230241
 31
0.0
 11
86.8279823585
 21
205.4560941535
 31
0.0
 11
86.8001575828
 21
205.4014009028
 31
0.0
 11
86.7716125646
 21
205.3469572123
 31
0.0
 11
86.7423501646
 21
205.2927770059
 31
0.0
 11
86.7123735962
 21
205.2388741797
 31
0.0
 11
86.6816864259
 21
205.1852625914
 31
0.0
 11
86.6502925733
 21
205.1319560492
 31
0.0
 11
86.6181963108
 21
205.0789683004
 31
0.0
 11
86.5854022627
 21
205.0263130207
 31
0.0
 11
86.5519154042
 21
204.9740038026
 31
0.0
 11
86.5177410594
 21
204.9220541446
 31
0.0
 11
86.4828848998
 21
204.87047744
 31
0.0
 11
86.4473529414
 21
204.8192869656
 31
0.0
 11
86.4111515419
 21
204.7684958712
 31
0.0
 11
86.3742873975
 21
204.718117168
 31
0.0
 11
86.3367675391
 21
204.6681637185
 31
0.0
 11
86.2985993283
 21
204.6186482253
 31
0.0
 11
86.2597904525
 21
204.5695832206
 31
0.0
 11
86.2203489205
 21
204.5209810561
 31
0.0
 11
86.1802830565
 21
204.4728538924
 31
0.0
 11
86.139601495
 21
204.4252136892
 31
0.0
 11
86.0983131742
 21
204.3780721952
 31
0.0
 11
86.0564273299
 21
204.3314409389
 31
0.0
 11
86.0139534884
 21
204.2853312189
 31
0.0
 11
85.9709014592
 21
204.2397540948
 31
0.0
 11
85.9272813278
 21
204.1947203787
 31
0.0
 11
85.8831034475
 21
204.1502406261
 31
0.0
 11
85.8383784315
 21
204.1063251282
 31
0.0
 11
85.7931171441
 21
204.0629839036
 31
0.0
 11
85.7473306922
 21
204.0202266909
 31
0.0
 11
85.7010304161
 21
203.9780629415
 31
0.0
 11
85.65422788
 21
203.9365018122
 31
0.0
 11
85.606934863
 21
203.8955521594
 31
0.0
 11
85.5591633488
 21
203.8552225324
 31
0.0
 11
85.5109255159
 21
203.8155211676
 31
0.0
 11
85.4622337274
 21
203.7764559835
 31
0.0
 11
85.4131005208
 21
203.7380345753
 31
0.0
 11
85.3635385972
 21
203.7002642104
 31
0.0
 11
85.3135608109
 21
203.6631518243
 31
0.0
 11
85.2631801586
 21
203.6267040167
 31
0.0
 11
85.2124097684
 21
203.5909270483
 31
0.0
 11
85.161262889
 21
203.5558268375
 31
0.0
 11
85.1097528786
 21
203.5214089582
 31
0.0
 11
85.0578931939
 21
203.4876786375
 31
0.0
 11
85.0056973791
 21
203.4546407541
 31
0.0
 11
84.9531790546
 21
203.4222998371
 31
0.0
 11
84.9003519059
 21
203.3906600649
 31
0.0
 11
84.847229673
 21
203.3597252647
 31
0.0
 11
84.7938261387
 21
203.329498913
 31
0.0
 11
84.7401551182
 21
203.2999841353
 31
0.0
 11
84.6862304481
 21
203.2711837073
 31
0.0
 11
84.6320659755
 21
203.2431000557
 31
0.0
 11
84.5776755473
 21
203.2157352604
 31
0.0
 11
84.5230729998
 21
203.1890910554
 31
0.0
 11
84.4682721485
 21
203.163168832
 31
0.0
 11
84.4132867773
 21
203.1379696412
 31
0.0
 11
84.358130629
 21
203.1134941963
 31
0.0
 11
84.3028173951
 21
203.0897428767
 31
0.0
 11
84.2473607061
 21
203.0667157314
 31
0.0
 11
84.1917741222
 21
203.0444124831
 31
0.0
 11
84.136071124
 21
203.0228325322
 31
0.0
 11
84.0802651032
 21
203.0019749619
 31
0.0
 11
84.0243693544
 21
202.9818385424
 31
0.0
 11
83.9683970658
 21
202.9624217368
 31
0.0
 11
83.9123613114
 21
202.9437227058
 31
0.0
 11
83.8562750429
 21
202.9257393138
 31
0.0
 11
83.800151082
 21
202.9084691348
 31
0.0
 11
83.7440021129
 21
202.891909458
 31
0.0
 11
83.6878406747
 21
202.8760572947
 31
0.0
 11
83.6316791555
 21
202.8609093842
 31
0.0
 11
83.5755297846
 21
202.8464622012
 31
0.0
 11
83.5194046272
 21
202.8327119618
 31
0.0
 11
83.4633155778
 21
202.8196546309
 31
0.0
 11
83.4072743547
 21
202.8072859294
 31
0.0
 11
83.3512924947
 21
202.7956013411
 31
0.0
 11
83.2953813478
 21
202.7845961202
 31
0.0
 11
83.2395520726
 21
202.7742652987
 31
0.0
 11
83.1838156318
 21
202.7646036938
 31
0.0
 11
83.1281827878
 21
202.7556059157
 31
0.0
 11
83.0726640992
 21
202.7472663747
 31
0.0
 11
83.017269917
 21
202.7395792896
 31
0.0
 11
82.9620103813
 21
202.7325386946
 31
0.0
 11
82.9068954184
 21
202.7261384476
 31
0.0
 11
82.8519347381
 21
202.7203722375
 31
0.0
 11
82.7971378314
 21
202.715233592
 31
0.0
 11
82.7425139681
 21
202.7107158855
 31
0.0
 11
82.6880721953
 21
202.7068123464
 31
0.0
 11
82.6338213356
 21
202.7035160649
 31
0.0
 11
82.579769986
 21
202.7008200004
 31
0.0
  0
LINE
  5
254
100
AcDbEntity
  8
0
100
AcDbLine
 62
7
  6
CONTINUOUS
 10
87.3577105408
 20
233.9508200004
 11
87.3577105408
 21
207.6958865268
  0
SPLINE
  5
255
100
AcDbEntity
  8
0
100
AcDbSpline
 62
7
  6
CONTINUOUS
 70
4
 71
3
 72
8
 73
4
 74
255
 42
0.0000001
 43
0.0000001
 44
0.0000000001
 12
7.0710678119
 22
0.0
 32
0.0
 13
0.0
 23
-7.0710678119
 33
0.0
 40
0.0
 40
0.0
 40
0.0
 40
0.0
 40
1.0
 40
1.0
 40
1.0
 40
1.0
 10
82.3577105408
 20
238.9508200004
 30
0.0
 41
1.0
 10
85.2866427289
 20
238.9508200004
 30
0.0
 41
0.8047378541
 10
87.3577105408
 20
236.8797521885
 30
0.0
 41
0.8047378541
 10
87.3577105408
 20
233.9508200004
 30
0.0
 41
1.0
 11
82.3577105408
 21
238.9508200004
 31
0.0
 11
82.4130782585
 21
238.9505134326
 31
0.0
 11
82.4408542657
 21
238.9501286647
 31
0.0
 11
82.4686902596
 21
238.9495881989
 31
0.0
 11
82.4965851353
 21
238.948891013
 31
0.0
 11
82.5245377718
 21
238.9480360929
 31
0.0
 11
82.5525470317
 21
238.9470224324
 31
0.0
 11
82.5806117615
 21
238.9458490339
 31
0.0
 11
82.6087307912
 21
238.9445149084
 31
0.0
 11
82.6369029347
 21
238.9430190757
 31
0.0
 11
82.6651269897
 21
238.941360565
 31
0.0
 11
82.6934017377
 21
238.939538415
 31
0.0
 11
82.7217259443
 21
238.9375516742
 31
0.0
 11
82.750098359
 21
238.9353994009
 31
0.0
 11
82.7785177151
 21
238.9330806642
 31
0.0
 11
82.8069827303
 21
238.9305945435
 31
0.0
 11
82.8354921063
 21
238.9279401291
 31
0.0
 11
82.8640445291
 21
238.9251165228
 31
0.0
 11
82.892638669
 21
238.9221228375
 31
0.0
 11
82.9212731807
 21
238.918958198
 31
0.0
 11
82.9499467034
 21
238.9156217414
 31
0.0
 11
82.978657861
 21
238.9121126168
 31
0.0
 11
83.007405262
 21
238.908429986
 31
0.0
 11
83.0361874997
 21
238.9045730237
 31
0.0
 11
83.0650031522
 21
238.900540918
 31
0.0
 11
83.093850783
 21
238.89633287
 31
0.0
 11
83.1227289405
 21
238.8919480951
 31
0.0
 11
83.1516361584
 21
238.8873858223
 31
0.0
 11
83.1805709559
 21
238.8826452951
 31
0.0
 11
83.2095318379
 21
238.8777257716
 31
0.0
 11
83.2385172947
 21
238.8726265247
 31
0.0
 11
83.2675258028
 21
238.8673468425
 31
0.0
 11
83.2965558247
 21
238.8618860286
 31
0.0
 11
83.3256058088
 21
238.8562434021
 31
0.0
 11
83.3546741904
 21
238.8504182984
 31
0.0
 11
83.3837593908
 21
238.8444100688
 31
0.0
 11
83.4128598184
 21
238.8382180814
 31
0.0
 11
83.4419738685
 21
238.8318417209
 31
0.0
 11
83.4710999234
 21
238.8252803893
 31
0.0
 11
83.5002363528
 21
238.8185335056
 31
0.0
 11
83.5293815138
 21
238.8116005067
 31
0.0
 11
83.5585337515
 21
238.8044808473
 31
0.0
 11
83.5876913987
 21
238.797174
 31
0.0
 11
83.6168527765
 21
238.7896794559
 31
0.0
 11
83.6460161944
 21
238.7819967248
 31
0.0
 11
83.6751799506
 21
238.7741253354
 31
0.0
 11
83.7043423321
 21
238.7660648352
 31
0.0
 11
83.733501615
 21
238.7578147913
 31
0.0
 11
83.7626560649
 21
238.7493747906
 31
0.0
 11
83.7918039371
 21
238.7407444393
 31
0.0
 11
83.8209434765
 21
238.7319233643
 31
0.0
 11
83.8500729185
 21
238.7229112122
 31
0.0
 11
83.8791904888
 21
238.7137076505
 31
0.0
 11
83.9082944039
 21
238.7043123674
 31
0.0
 11
83.9373828711
 21
238.694725072
 31
0.0
 11
83.9664540893
 21
238.6849454946
 31
0.0
 11
83.9955062489
 21
238.6749733868
 31
0.0
 11
84.024537532
 21
238.6648085219
 31
0.0
 11
84.0535461132
 21
238.654450695
 31
0.0
 11
84.0825301593
 21
238.6438997231
 31
0.0
 11
84.1114878302
 21
238.6331554454
 31
0.0
 11
84.1404172788
 21
238.6222177234
 31
0.0
 11
84.1693166516
 21
238.6110864412
 31
0.0
 11
84.1981840886
 21
238.5997615057
 31
0.0
 11
84.2270177242
 21
238.5882428465
 31
0.0
 11
84.2558156873
 21
238.5765304164
 31
0.0
 11
84.2845761013
 21
238.5646241913
 31
0.0
 11
84.3132970852
 21
238.5525241703
 31
0.0
 11
84.341976753
 21
238.5402303764
 31
0.0
 11
84.370613215
 21
238.5277428558
 31
0.0
 11
84.3992045775
 21
238.5150616787
 31
0.0
 11
84.4277489434
 21
238.5021869392
 31
0.0
 11
84.4562444126
 21
238.4891187553
 31
0.0
 11
84.4846890822
 21
238.4758572692
 31
0.0
 11
84.5130810471
 21
238.4624026474
 31
0.0
 11
84.5414184001
 21
238.4487550805
 31
0.0
 11
84.5696992328
 21
238.4349147838
 31
0.0
 11
84.5979216351
 21
238.4208819969
 31
0.0
 11
84.6260836966
 21
238.4066569842
 31
0.0
 11
84.654183506
 21
238.3922400346
 31
0.0
 11
84.6822191525
 21
238.3776314617
 31
0.0
 11
84.7101887254
 21
238.3628316041
 31
0.0
 11
84.7380903145
 21
238.3478408251
 31
0.0
 11
84.7659220114
 21
238.3326595129
 31
0.0
 11
84.7936819086
 21
238.3172880806
 31
0.0
 11
84.821368101
 21
238.3017269663
 31
0.0
 11
84.8489786856
 21
238.2859766332
 31
0.0
 11
84.8765117624
 21
238.2700375691
 31
0.0
 11
84.9039654343
 21
238.2539102873
 31
0.0
 11
84.9313378079
 21
238.2375953257
 31
0.0
 11
84.9586269939
 21
238.2210932474
 31
0.0
 11
84.9858311072
 21
238.2044046403
 31
0.0
 11
85.0129482674
 21
238.1875301174
 31
0.0
 11
85.0399765995
 21
238.1704703165
 31
0.0
 11
85.0669142341
 21
238.1532259004
 31
0.0
 11
85.0937593077
 21
238.1357975565
 31
0.0
 11
85.1205099632
 21
238.1181859972
 31
0.0
 11
85.1471643504
 21
238.1003919595
 31
0.0
 11
85.1737206263
 21
238.082416205
 31
0.0
 11
85.2001769555
 21
238.0642595199
 31
0.0
 11
85.2265315108
 21
238.0459227149
 31
0.0
 11
85.2527824732
 21
238.0274066248
 31
0.0
 11
85.2789280326
 21
238.008712109
 31
0.0
 11
85.3049663884
 21
237.989840051
 31
0.0
 11
85.3308957493
 21
237.970791358
 31
0.0
 11
85.3567143343
 21
237.9515669615
 31
0.0
 11
85.3824203727
 21
237.9321678165
 31
0.0
 11
85.4080121046
 21
237.9125949018
 31
0.0
 11
85.4334877816
 21
237.8928492196
 31
0.0
 11
85.4588456665
 21
237.8729317954
 31
0.0
 11
85.4840840344
 21
237.8528436777
 31
0.0
 11
85.5092011728
 21
237.8325859383
 31
0.0
 11
85.5341953817
 21
237.8121596715
 31
0.0
 11
85.5590649745
 21
237.7915659943
 31
0.0
 11
85.583808278
 21
237.7708060461
 31
0.0
 11
85.608423633
 21
237.7498809886
 31
0.0
 11
85.6329093943
 21
237.7287920053
 31
0.0
 11
85.6572639316
 21
237.7075403015
 31
0.0
 11
85.6814856295
 21
237.6861271042
 31
0.0
 11
85.7055728877
 21
237.6645536615
 31
0.0
 11
85.729524122
 21
237.6428212428
 31
0.0
 11
85.7533377638
 21
237.620931138
 31
0.0
 11
85.7770122611
 21
237.5988846579
 31
0.0
 11
85.8005460786
 21
237.5766831334
 31
0.0
 11
85.823937698
 21
237.5543279155
 31
0.0
 11
85.8471856183
 21
237.531820375
 31
0.0
 11
85.8702883563
 21
237.5091619022
 31
0.0
 11
85.8932444467
 21
237.4863539063
 31
0.0
 11
85.9160524425
 21
237.463397816
 31
0.0
 11
85.9387109154
 21
237.440295078
 31
0.0
 11
85.9612184559
 21
237.4170471576
 31
0.0
 11
85.9835736738
 21
237.3936555382
 31
0.0
 11
86.0057751983
 21
237.3701217207
 31
0.0
 11
86.0278216784
 21
237.3464472234
 31
0.0
 11
86.0497117831
 21
237.3226335816
 31
0.0
 11
86.0714442019
 21
237.2986823474
 31
0.0
 11
86.0930176446
 21
237.2745950891
 31
0.0
 11
86.1144308419
 21
237.2503733913
 31
0.0
 11
86.1356825457
 21
237.226018854
 31
0.0
 11
86.156771529
 21
237.2015330926
 31
0.0
 11
86.1776965865
 21
237.1769177377
 31
0.0
 11
86.1984565347
 21
237.1521744341
 31
0.0
 11
86.2190502118
 21
237.1273048413
 31
0.0
 11
86.2394764786
 21
237.1023106324
 31
0.0
 11
86.2597342181
 21
237.0771934941
 31
0.0
 11
86.2798223357
 21
237.0519551261
 31
0.0
 11
86.29973976
 21
237.0265972412
 31
0.0
 11
86.3194854422
 21
237.0011215643
 31
0.0
 11
86.3390583569
 21
236.9755298323
 31
0.0
 11
86.3584575018
 21
236.9498237939
 31
0.0
 11
86.3776818983
 21
236.9240052089
 31
0.0
 11
86.3967305913
 21
236.898075848
 31
0.0
 11
86.4156026494
 21
236.8720374923
 31
0.0
 11
86.4342971652
 21
236.8458919328
 31
0.0
 11
86.4528132552
 21
236.8196409704
 31
0.0
 11
86.4711500603
 21
236.7932864152
 31
0.0
 11
86.4893067454
 21
236.7668300859
 31
0.0
 11
86.5072824999
 21
236.74027381
 31
0.0
 11
86.5250765376
 21
236.7136194228
 31
0.0
 11
86.5426880969
 21
236.6868687673
 31
0.0
 11
86.5601164407
 21
236.6600236938
 31
0.0
 11
86.5773608569
 21
236.6330860592
 31
0.0
 11
86.5944206577
 21
236.606057727
 31
0.0
 11
86.6112951806
 21
236.5789405668
 31
0.0
 11
86.6279837877
 21
236.5517364536
 31
0.0
 11
86.6444858661
 21
236.5244472676
 31
0.0
 11
86.6608008277
 21
236.4970748939
 31
0.0
 11
86.6769281095
 21
236.469621222
 31
0.0
 11
86.6928671735
 21
236.4420881452
 31
0.0
 11
86.7086175067
 21
236.4144775606
 31
0.0
 11
86.7241786209
 21
236.3867913682
 31
0.0
 11
86.7395500532
 21
236.359031471
 31
0.0
 11
86.7547313654
 21
236.3311997742
 31
0.0
 11
86.7697221445
 21
236.303298185
 31
0.0
 11
86.7845220021
 21
236.2753286122
 31
0.0
 11
86.7991305749
 21
236.2472929657
 31
0.0
 11
86.8135475246
 21
236.2191931562
 31
0.0
 11
86.8277725373
 21
236.1910310947
 31
0.0
 11
86.8418053242
 21
236.1628086924
 31
0.0
 11
86.8556456209
 21
236.1345278598
 31
0.0
 11
86.8692931878
 21
236.1061905067
 31
0.0
 11
86.8827478096
 21
236.0777985418
 31
0.0
 11
86.8960092957
 21
236.0493538722
 31
0.0
 11
86.9090774796
 21
236.0208584031
 31
0.0
 11
86.9219522191
 21
235.9923140372
 31
0.0
 11
86.9346333961
 21
235.9637226747
 31
0.0
 11
86.9471209167
 21
235.9350862127
 31
0.0
 11
86.9594147107
 21
235.9064065448
 31
0.0
 11
86.9715147316
 21
235.877685561
 31
0.0
 11
86.9834209568
 21
235.8489251469
 31
0.0
 11
86.9951333869
 21
235.8201271839
 31
0.0
 11
87.0066520461
 21
235.7912935482
 31
0.0
 11
87.0179769816
 21
235.7624261112
 31
0.0
 11
87.0291082637
 21
235.7335267385
 31
0.0
 11
87.0400459857
 21
235.7045972899
 31
0.0
 11
87.0507902635
 21
235.6756396189
 31
0.0
 11
87.0613412354
 21
235.6466555728
 31
0.0
 11
87.0716990623
 21
235.6176469917
 31
0.0
 11
87.0818639272
 21
235.5886157085
 31
0.0
 11
87.091836035
 21
235.559563549
 31
0.0
 11
87.1016156124
 21
235.5304923308
 31
0.0
 11
87.1112029078
 21
235.5014038635
 31
0.0
 11
87.1205981909
 21
235.4722999484
 31
0.0
 11
87.1298017525
 21
235.4431823781
 31
0.0
 11
87.1388139046
 21
235.4140529361
 31
0.0
 11
87.1476349797
 21
235.3849133967
 31
0.0
 11
87.1562653309
 21
235.3557655246
 31
0.0
 11
87.1647053317
 21
235.3266110746
 31
0.0
 11
87.1729553755
 21
235.2974517917
 31
0.0
 11
87.1810158757
 21
235.2682894102
 31
0.0
 11
87.1888872652
 21
235.2391256541
 31
0.0
 11
87.1965699963
 21
235.2099622361
 31
0.0
 11
87.2040645403
 21
235.1808008583
 31
0.0
 11
87.2113713877
 21
235.1516432111
 31
0.0
 11
87.2184910471
 21
235.1224909735
 31
0.0
 11
87.225424046
 21
235.0933458124
 31
0.0
 11
87.2321709296
 21
235.0642093831
 31
0.0
 11
87.2387322613
 21
235.0350833282
 31
0.0
 11
87.2451086217
 21
235.0059692781
 31
0.0
 11
87.2513006092
 21
234.9768688504
 31
0.0
 11
87.2573088387
 21
234.94778365
 31
0.0
 11
87.2631339425
 21
234.9187152685
 31
0.0
 11
87.2687765689
 21
234.8896652843
 31
0.0
 11
87.2742373829
 21
234.8606352625
 31
0.0
 11
87.279517065
 21
234.8316267543
 31
0.0
 11
87.2846163119
 21
234.8026412975
 31
0.0
 11
87.2895358354
 21
234.7736804156
 31
0.0
 11
87.2942763626
 21
234.744745618
 31
0.0
 11
87.2988386355
 21
234.7158384001
 31
0.0
 11
87.3032234104
 21
234.6869602427
 31
0.0
 11
87.3074314583
 21
234.6581126119
 31
0.0
 11
87.3114635641
 21
234.6292969593
 31
0.0
 11
87.3153205264
 21
234.6005147216
 31
0.0
 11
87.3190031572
 21
234.5717673207
 31
0.0
 11
87.3225122818
 21
234.5430561631
 31
0.0
 11
87.3258487384
 21
234.5143826403
 31
0.0
 11
87.3290133778
 21
234.4857481286
 31
0.0
 11
87.3320070631
 21
234.4571539887
 31
0.0
 11
87.3348306695
 21
234.4286015659
 31
0.0
 11
87.3374850838
 21
234.4000921899
 31
0.0
 11
87.3399712046
 21
234.3716271747
 31
0.0
 11
87.3422899413
 21
234.3432078186
 31
0.0
 11
87.3444422145
 21
234.314835404
 31
0.0
 11
87.3464289554
 21
234.2865111974
 31
0.0
 11
87.3482511054
 21
234.2582364493
 31
0.0
 11
87.349909616
 21
234.2300123943
 31
0.0
 11
87.3514054487
 21
234.2018402508
 31
0.0
 11
87.3527395743
 21
234.1737212211
 31
0.0
 11
87.3539129728
 21
234.1456564914
 31
0.0
 11
87.3549266333
 21
234.1176472314
 31
0.0
 11
87.3557815534
 21
234.0896945949
 31
0.0
 11
87.3564787392
 21
234.0617997192
 31
0.0
 11
87.3570192051
 21
234.0339637254
 31
0.0
 11
87.357403973
 21
234.0061877181
 31
0.0
 11
87.3577105408
 21
233.9508200004
 31
0.0
  0
LINE
  5
256
100
AcDbEntity
  8
0
100
AcDbLine
 62
7
  6
CONTINUOUS
 10
65.3577105408
 20
238.9508200004
 11
82.3577105408
 21
238.9508200004
  0
SPLINE
  5
257
100
AcDbEntity
  8
0
100
AcDbSpline
 62
7
  6
CONTINUOUS
 70
4
 71
3
 72
8
 73
4
 74
255
 42
0.0000001
 43
0.0000001
 44
0.0000000001
 12
-7.0710678119
 22
0.0
 32
0.0
 13
-0.0
 23
7.0710678119
 33
0.0
 40
0.0
 40
0.0
 40
0.0
 40
0.0
 40
1.0
 40
1.0
 40
1.0
 40
1.0
 10
65.3577105408
 20
238.9508200004
 30
0.0
 41
1.0
 10
62.4287783526
 20
238.9508200004
 30
0.0
 41
0.8047378541
 10
60.3577105408
 20
241.0218878123
 30
0.0
 41
0.8047378541
 10
60.3577105408
 20
243.9508200004
 30
0.0
 41
1.0
 11
65.3577105408
 21
238.9508200004
 31
0.0
 11
65.3023428231
 21
238.9511265682
 31
0.0
 11
65.2745668158
 21
238.9515113361
 31
0.0
 11
65.246730822
 21
238.9520518019
 31
0.0
 11
65.2188359463
 21
238.9527489878
 31
0.0
 11
65.1908833098
 21
238.9536039079
 31
0.0
 11
65.1628740498
 21
238.9546175684
 31
0.0
 11
65.13480932
 21
238.9557909669
 31
0.0
 11
65.1066902903
 21
238.9571250924
 31
0.0
 11
65.0785181469
 21
238.9586209251
 31
0.0
 11
65.0502940919
 21
238.9602794358
 31
0.0
 11
65.0220193438
 21
238.9621015858
 31
0.0
 11
64.9936951372
 21
238.9640883267
 31
0.0
 11
64.9653227226
 21
238.9662405999
 31
0.0
 11
64.9369033665
 21
238.9685593366
 31
0.0
 11
64.9084383513
 21
238.9710454573
 31
0.0
 11
64.8799289753
 21
238.9736998717
 31
0.0
 11
64.8513765525
 21
238.9765234781
 31
0.0
 11
64.8227824126
 21
238.9795171634
 31
0.0
 11
64.7941479009
 21
238.9826818028
 31
0.0
 11
64.7654743781
 21
238.9860182594
 31
0.0
 11
64.7367632205
 21
238.989527384
 31
0.0
 11
64.7080158195
 21
238.9932100148
 31
0.0
 11
64.6792335819
 21
238.9970669771
 31
0.0
 11
64.6504179293
 21
239.0010990828
 31
0.0
 11
64.6215702985
 21
239.0053071308
 31
0.0
 11
64.592692141
 21
239.0096919057
 31
0.0
 11
64.5637849231
 21
239.0142541785
 31
0.0
 11
64.5348501256
 21
239.0189947057
 31
0.0
 11
64.5058892437
 21
239.0239142293
 31
0.0
 11
64.4769037868
 21
239.0290134761
 31
0.0
 11
64.4478952787
 21
239.0342931583
 31
0.0
 11
64.4188652569
 21
239.0397539722
 31
0.0
 11
64.3898152727
 21
239.0453965987
 31
0.0
 11
64.3607468912
 21
239.0512217024
 31
0.0
 11
64.3316616907
 21
239.057229932
 31
0.0
 11
64.3025612631
 21
239.0634219194
 31
0.0
 11
64.273447213
 21
239.0697982799
 31
0.0
 11
64.2443211581
 21
239.0763596115
 31
0.0
 11
64.2151847287
 21
239.0831064952
 31
0.0
 11
64.1860395677
 21
239.0900394941
 31
0.0
 11
64.15688733
 21
239.0971591535
 31
0.0
 11
64.1277296828
 21
239.1044660008
 31
0.0
 11
64.098568305
 21
239.1119605449
 31
0.0
 11
64.0694048871
 21
239.119643276
 31
0.0
 11
64.0402411309
 21
239.1275146655
 31
0.0
 11
64.0110787495
 21
239.1355751656
 31
0.0
 11
63.9819194665
 21
239.1438252095
 31
0.0
 11
63.9527650166
 21
239.1522652102
 31
0.0
 11
63.9236171445
 21
239.1608955615
 31
0.0
 11
63.894477605
 21
239.1697166366
 31
0.0
 11
63.865348163
 21
239.1787287886
 31
0.0
 11
63.8362305927
 21
239.1879323503
 31
0.0
 11
63.8071266777
 21
239.1973276334
 31
0.0
 11
63.7780382104
 21
239.2069149288
 31
0.0
 11
63.7489669922
 21
239.2166945062
 31
0.0
 11
63.7199148326
 21
239.226666614
 31
0.0
 11
63.6908835495
 21
239.2368314789
 31
0.0
 11
63.6618749684
 21
239.2471893058
 31
0.0
 11
63.6328909222
 21
239.2577402777
 31
0.0
 11
63.6039332513
 21
239.2684845555
 31
0.0
 11
63.5750038027
 21
239.2794222775
 31
0.0
 11
63.54610443
 21
239.2905535596
 31
0.0
 11
63.517236993
 21
239.3018784951
 31
0.0
 11
63.4884033573
 21
239.3133971543
 31
0.0
 11
63.4596053943
 21
239.3251095844
 31
0.0
 11
63.4308449802
 21
239.3370158096
 31
0.0
 11
63.4021239964
 21
239.3491158305
 31
0.0
 11
63.3734443285
 21
239.3614096245
 31
0.0
 11
63.3448078665
 21
239.373897145
 31
0.0
 11
63.316216504
 21
239.3865783221
 31
0.0
 11
63.2876721381
 21
239.3994530616
 31
0.0
 11
63.2591766689
 21
239.4125212455
 31
0.0
 11
63.2307319993
 21
239.4257827316
 31
0.0
 11
63.2023400345
 21
239.4392373534
 31
0.0
 11
63.1740026814
 21
239.4528849203
 31
0.0
 11
63.1457218488
 21
239.466725217
 31
0.0
 11
63.1174994464
 21
239.4807580039
 31
0.0
 11
63.089337385
 21
239.4949830166
 31
0.0
 11
63.0612375755
 21
239.5093999663
 31
0.0
 11
63.033201929
 21
239.5240085391
 31
0.0
 11
63.0052323562
 21
239.5388083967
 31
0.0
 11
62.977330767
 21
239.5537991757
 31
0.0
 11
62.9494990702
 21
239.568980488
 31
0.0
 11
62.921739173
 21
239.5843519202
 31
0.0
 11
62.8940529806
 21
239.5999130345
 31
0.0
 11
62.8664423959
 21
239.6156633676
 31
0.0
 11
62.8389093192
 21
239.6316024317
 31
0.0
 11
62.8114556473
 21
239.6477297135
 31
0.0
 11
62.7840832736
 21
239.6640446751
 31
0.0
 11
62.7567940876
 21
239.6805467534
 31
0.0
 11
62.7295899744
 21
239.6972353605
 31
0.0
 11
62.7024728142
 21
239.7141098834
 31
0.0
 11
62.675444482
 21
239.7311696843
 31
0.0
 11
62.6485068474
 21
239.7484141005
 31
0.0
 11
62.6216617738
 21
239.7658424443
 31
0.0
 11
62.5949111183
 21
239.7834540036
 31
0.0
 11
62.5682567311
 21
239.8012480413
 31
0.0
 11
62.5417004552
 21
239.8192237958
 31
0.0
 11
62.515244126
 21
239.8373804809
 31
0.0
 11
62.4888895708
 21
239.8557172859
 31
0.0
 11
62.4626386084
 21
239.874233376
 31
0.0
 11
62.4364930489
 21
239.8929278918
 31
0.0
 11
62.4104546932
 21
239.9117999499
 31
0.0
 11
62.3845253322
 21
239.9308486428
 31
0.0
 11
62.3587067473
 21
239.9500730393
 31
0.0
 11
62.3330007089
 21
239.9694721843
 31
0.0
 11
62.3074089769
 21
239.989045099
 31
0.0
 11
62.2819333
 21
240.0087907812
 31
0.0
 11
62.2565754151
 21
240.0287082055
 31
0.0
 11
62.2313370471
 21
240.0487963231
 31
0.0
 11
62.2062199088
 21
240.0690540625
 31
0.0
 11
62.1812256998
 21
240.0894803293
 31
0.0
 11
62.156356107
 21
240.1100740065
 31
0.0
 11
62.1316128035
 21
240.1308339547
 31
0.0
 11
62.1069974486
 21
240.1517590122
 31
0.0
 11
62.0825116872
 21
240.1728479955
 31
0.0
 11
62.0581571499
 21
240.1940996993
 31
0.0
 11
62.0339354521
 21
240.2155128966
 31
0.0
 11
62.0098481938
 21
240.2370863393
 31
0.0
 11
61.9858969596
 21
240.258818758
 31
0.0
 11
61.9620833178
 21
240.2807088628
 31
0.0
 11
61.9384088204
 21
240.3027553429
 31
0.0
 11
61.9148750029
 21
240.3249568674
 31
0.0
 11
61.8914833835
 21
240.3473120853
 31
0.0
 11
61.8682354632
 21
240.3698196258
 31
0.0
 11
61.8451327252
 21
240.3924780987
 31
0.0
 11
61.8221766348
 21
240.4152860945
 31
0.0
 11
61.799368639
 21
240.4382421849
 31
0.0
 11
61.7767101661
 21
240.4613449228
 31
0.0
 11
61.7542026256
 21
240.4845928432
 31
0.0
 11
61.7318474077
 21
240.5079844626
 31
0.0
 11
61.7096458833
 21
240.5315182801
 31
0.0
 11
61.6875994032
 21
240.5551927774
 31
0.0
 11
61.6657092984
 21
240.5790064192
 31
0.0
 11
61.6439768796
 21
240.6029576534
 31
0.0
 11
61.622403437
 21
240.6270449117
 31
0.0
 11
61.6009902397
 21
240.6512666095
 31
0.0
 11
61.5797385359
 21
240.6756211469
 31
0.0
 11
61.5586495526
 21
240.7001069082
 31
0.0
 11
61.537724495
 21
240.7247222631
 31
0.0
 11
61.5169645469
 21
240.7494655667
 31
0.0
 11
61.4963708697
 21
240.7743351595
 31
0.0
 11
61.4759446029
 21
240.7993293684
 31
0.0
 11
61.4556868635
 21
240.8244465068
 31
0.0
 11
61.4355987458
 21
240.8496848747
 31
0.0
 11
61.4156813216
 21
240.8750427596
 31
0.0
 11
61.3959356393
 21
240.9005184366
 31
0.0
 11
61.3763627247
 21
240.9261101685
 31
0.0
 11
61.3569635797
 21
240.9518162069
 31
0.0
 11
61.3377391832
 21
240.9776347919
 31
0.0
 11
61.3186904902
 21
241.0035641528
 31
0.0
 11
61.2998184321
 21
241.0296025086
 31
0.0
 11
61.2811239164
 21
241.055748068
 31
0.0
 11
61.2626078263
 21
241.0819990304
 31
0.0
 11
61.2442710212
 21
241.1083535856
 31
0.0
 11
61.2261143361
 21
241.1348099149
 31
0.0
 11
61.2081385816
 21
241.1613661908
 31
0.0
 11
61.1903445439
 21
241.188020578
 31
0.0
 11
61.1727329847
 21
241.2147712335
 31
0.0
 11
61.1553046408
 21
241.2416163071
 31
0.0
 11
61.1380602247
 21
241.2685539416
 31
0.0
 11
61.1210004238
 21
241.2955822738
 31
0.0
 11
61.1041259009
 21
241.322699434
 31
0.0
 11
61.0874372938
 21
241.3499035473
 31
0.0
 11
61.0709352155
 21
241.3771927332
 31
0.0
 11
61.0546202539
 21
241.4045651069
 31
0.0
 11
61.038492972
 21
241.4320187788
 31
0.0
 11
61.022553908
 21
241.4595518556
 31
0.0
 11
61.0068035748
 21
241.4871624402
 31
0.0
 11
60.9912424606
 21
241.5148486326
 31
0.0
 11
60.9758710283
 21
241.5426085298
 31
0.0
 11
60.9606897161
 21
241.5704402266
 31
0.0
 11
60.9456989371
 21
241.5983418158
 31
0.0
 11
60.9308990795
 21
241.6263113886
 31
0.0
 11
60.9162905066
 21
241.6543470351
 31
0.0
 11
60.901873557
 21
241.6824468446
 31
0.0
 11
60.8876485442
 21
241.7106089061
 31
0.0
 11
60.8736157574
 21
241.7388313084
 31
0.0
 11
60.8597754607
 21
241.767112141
 31
0.0
 11
60.8461278938
 21
241.7954494941
 31
0.0
 11
60.8326732719
 21
241.823841459
 31
0.0
 11
60.8194117859
 21
241.8522861286
 31
0.0
 11
60.806343602
 21
241.8807815977
 31
0.0
 11
60.7934688625
 21
241.9093259636
 31
0.0
 11
60.7807876854
 21
241.9379173261
 31
0.0
 11
60.7683001648
 21
241.9665537881
 31
0.0
 11
60.7560063709
 21
241.995233456
 31
0.0
 11
60.7439063499
 21
242.0239544398
 31
0.0
 11
60.7320001248
 21
242.0527148539
 31
0.0
 11
60.7202876946
 21
242.081512817
 31
0.0
 11
60.7087690355
 21
242.1103464526
 31
0.0
 11
60.6974441
 21
242.1392138896
 31
0.0
 11
60.6863128178
 21
242.1681132623
 31
0.0
 11
60.6753750958
 21
242.197042711
 31
0.0
 11
60.6646308181
 21
242.2260003819
 31
0.0
 11
60.6540798461
 21
242.254984428
 31
0.0
 11
60.6437220192
 21
242.2839930092
 31
0.0
 11
60.6335571543
 21
242.3130242923
 31
0.0
 11
60.6235850466
 21
242.3420764518
 31
0.0
 11
60.6138054691
 21
242.3711476701
 31
0.0
 11
60.6042181737
 21
242.4002361373
 31
0.0
 11
60.5948228906
 21
242.4293400524
 31
0.0
 11
60.585619329
 21
242.4584576227
 31
0.0
 11
60.5766071769
 21
242.4875870647
 31
0.0
 11
60.5677861018
 21
242.5167266041
 31
0.0
 11
60.5591557506
 21
242.5458744762
 31
0.0
 11
60.5507157498
 21
242.5750289262
 31
0.0
 11
60.542465706
 21
242.6041882091
 31
0.0
 11
60.5344052058
 21
242.6333505906
 31
0.0
 11
60.5265338163
 21
242.6625143467
 31
0.0
 11
60.5188510853
 21
242.6916777647
 31
0.0
 11
60.5113565412
 21
242.7208391425
 31
0.0
 11
60.5040496939
 21
242.7499967897
 31
0.0
 11
60.4969300344
 21
242.7791490273
 31
0.0
 11
60.4899970356
 21
242.8082941884
 31
0.0
 11
60.4832501519
 21
242.8374306177
 31
0.0
 11
60.4766888203
 21
242.8665566726
 31
0.0
 11
60.4703124598
 21
242.8956707227
 31
0.0
 11
60.4641204724
 21
242.9247711504
 31
0.0
 11
60.4581122428
 21
242.9538563508
 31
0.0
 11
60.4522871391
 21
242.9829247323
 31
0.0
 11
60.4466445126
 21
243.0119747165
 31
0.0
 11
60.4411836987
 21
243.0410047383
 31
0.0
 11
60.4359040165
 21
243.0700132465
 31
0.0
 11
60.4308047696
 21
243.0989987033
 31
0.0
 11
60.4258852461
 21
243.1279595852
 31
0.0
 11
60.4211447189
 21
243.1568943828
 31
0.0
 11
60.4165824461
 21
243.1858016007
 31
0.0
 11
60.4121976711
 21
243.2146797582
 31
0.0
 11
60.4079896232
 21
243.2435273889
 31
0.0
 11
60.4039575174
 21
243.2723430415
 31
0.0
 11
60.4001005552
 21
243.3011252792
 31
0.0
 11
60.3964179244
 21
243.3298726801
 31
0.0
 11
60.3929087998
 21
243.3585838377
 31
0.0
 11
60.3895723431
 21
243.3872573605
 31
0.0
 11
60.3864077037
 21
243.4158918722
 31
0.0
 11
60.3834140184
 21
243.4444860121
 31
0.0
 11
60.3805904121
 21
243.4730384349
 31
0.0
 11
60.3779359977
 21
243.5015478109
 31
0.0
 11
60.375449877
 21
243.5300128261
 31
0.0
 11
60.3731311402
 21
243.5584321822
 31
0.0
 11
60.370978867
 21
243.5868045968
 31
0.0
 11
60.3689921262
 21
243.6151288035
 31
0.0
 11
60.3671699762
 21
243.6434035515
 31
0.0
 11
60.3655114655
 21
243.6716276065
 31
0.0
 11
60.3640156328
 21
243.69979975
 31
0.0
 11
60.3626815072
 21
243.7279187797
 31
0.0
 11
60.3615081087
 21
243.7559835094
 31
0.0
 11
60.3604944483
 21
243.7839927694
 31
0.0
 11
60.3596395282
 21
243.8119454059
 31
0.0
 11
60.3589423423
 21
243.8398402816
 31
0.0
 11
60.3584018765
 21
243.8676762754
 31
0.0
 11
60.3580171086
 21
243.8954522827
 31
0.0
 11
60.3577105408
 21
243.9508200004
 31
0.0
  0
LINE
  5
258
100
AcDbEntity
  8
0
100
AcDbLine
 62
7
  6
CONTINUOUS
 10
60.3577105408
 20
259.9508200004
 11
60.3577105408
 21
243.9508200004
  0
LINE
  5
259
100
AcDbEntity
  8
0
100
AcDbLine
 62
7
  6
CONTINUOUS
 10
60.3577105408
 20
259.9508200004
 11
67.2977105408
 21
259.9508200004
  0
LINE
  5
25A
100
AcDbEntity
  8
0
100
AcDbLine
 62
7
  6
CONTINUOUS
 10
67.2977105408
 20
259.9508200004
 11
67.8577964061
 21
243.9169723297
  0
SPLINE
  5
25B
100
AcDbEntity
  8
0
100
AcDbSpline
 62
7
  6
CONTINUOUS
 70
4
 71
3
 72
8
 73
4
 74
129
 42
0.0000001
 43
0.0000001
 44
0.0000000001
 12
-1.3199593324
 22
0.1154868646
 32
0.0
 13
-0.0462560491
 23
1.3241941826
 33
0.0
 40
0.0
 40
0.0
 40
0.0
 40
0.0
 40
1.0
 40
1.0
 40
1.0
 40
1.0
 10
68.7698706697
 20
242.955852986
 30
0.0
 41
1.0
 10
68.2414475438
 20
243.0020861755
 30
0.0
 41
0.8326404022
 10
67.8763142237
 20
243.386853854
 30
0.0
 41
0.8326404022
 10
67.8577964061
 20
243.9169723297
 30
0.0
 41
1.0
 11
68.7698706697
 21
242.955852986
 31
0.0
 11
68.7595431898
 21
242.9568105672
 31
0.0
 11
68.7491861523
 21
242.9578795716
 31
0.0
 11
68.73880114
 21
242.9590610957
 31
0.0
 11
68.7283897707
 21
242.9603562109
 31
0.0
 11
68.7179536965
 21
242.9617659624
 31
0.0
 11
68.707494604
 21
242.9632913678
 31
0.0
 11
68.6970142132
 21
242.9649334164
 31
0.0
 11
68.6865142775
 21
242.9666930678
 31
0.0
 11
68.6759965832
 21
242.9685712505
 31
0.0
 11
68.6654629485
 21
242.9705688611
 31
0.0
 11
68.6549152236
 21
242.9726867633
 31
0.0
 11
68.6443552894
 21
242.9749257863
 31
0.0
 11
68.6337850573
 21
242.9772867239
 31
0.0
 11
68.6232064681
 21
242.9797703335
 31
0.0
 11
68.6126214917
 21
242.982377335
 31
0.0
 11
68.6020321259
 21
242.9851084093
 31
0.0
 11
68.5914403956
 21
242.9879641978
 31
0.0
 11
68.5808483521
 21
242.9909453011
 31
0.0
 11
68.5702580721
 21
242.9940522781
 31
0.0
 11
68.5596716565
 21
242.9972856445
 31
0.0
 11
68.5490912299
 21
243.0006458725
 31
0.0
 11
68.5385189388
 21
243.0041333896
 31
0.0
 11
68.5279569512
 21
243.0077485773
 31
0.0
 11
68.517407455
 21
243.0114917708
 31
0.0
 11
68.5068726572
 21
243.0153632578
 31
0.0
 11
68.4963547822
 21
243.0193632776
 31
0.0
 11
68.4858560711
 21
243.0234920205
 31
0.0
 11
68.4753787798
 21
243.027749627
 31
0.0
 11
68.4649251782
 21
243.032136187
 31
0.0
 11
68.4544975488
 21
243.0366517392
 31
0.0
 11
68.4440981848
 21
243.0412962702
 31
0.0
 11
68.4337293893
 21
243.0460697145
 31
0.0
 11
68.4233934735
 21
243.0509719532
 31
0.0
 11
68.4130927552
 21
243.0560028141
 31
0.0
 11
68.4028295574
 21
243.0611620709
 31
0.0
 11
68.392606207
 21
243.0664494429
 31
0.0
 11
68.3824250328
 21
243.0718645947
 31
0.0
 11
68.372288364
 21
243.0774071359
 31
0.0
 11
68.3621985291
 21
243.0830766205
 31
0.0
 11
68.3521578535
 21
243.0888725473
 31
0.0
 11
68.3421686588
 21
243.0947943593
 31
0.0
 11
68.3322332603
 21
243.1008414438
 31
0.0
 11
68.3223539658
 21
243.1070131323
 31
0.0
 11
68.3125330739
 21
243.1133087006
 31
0.0
 11
68.3027728724
 21
243.1197273689
 31
0.0
 11
68.2930756364
 21
243.1262683017
 31
0.0
 11
68.2834436269
 21
243.1329306083
 31
0.0
 11
68.2738790889
 21
243.1397133431
 31
0.0
 11
68.2643842499
 21
243.1466155056
 31
0.0
 11
68.2549613184
 21
243.153636041
 31
0.0
 11
68.2456124818
 21
243.1607738407
 31
0.0
 11
68.2363399053
 21
243.1680277426
 31
0.0
 11
68.2271457297
 21
243.1753965317
 31
0.0
 11
68.2180320704
 21
243.1828789411
 31
0.0
 11
68.2090010155
 21
243.1904736519
 31
0.0
 11
68.2000546241
 21
243.1981792948
 31
0.0
 11
68.1911949253
 21
243.2059944503
 31
0.0
 11
68.1824239159
 21
243.2139176497
 31
0.0
 11
68.1737435596
 21
243.2219473761
 31
0.0
 11
68.1651557854
 21
243.2300820652
 31
0.0
 11
68.1566624859
 21
243.2383201065
 31
0.0
 11
68.1482655161
 21
243.2466598442
 31
0.0
 11
68.1399666921
 21
243.2550995782
 31
0.0
 11
68.1317677897
 21
243.2636375657
 31
0.0
 11
68.1236705434
 21
243.2722720217
 31
0.0
 11
68.1156766447
 21
243.2810011209
 31
0.0
 11
68.1077877412
 21
243.2898229988
 31
0.0
 11
68.1000054357
 21
243.2987357527
 31
0.0
 11
68.0923312845
 21
243.3077374434
 31
0.0
 11
68.0847667969
 21
243.3168260967
 31
0.0
 11
68.0773134343
 21
243.3259997045
 31
0.0
 11
68.0699726086
 21
243.3352562264
 31
0.0
 11
68.062745682
 21
243.3445935912
 31
0.0
 11
68.0556339658
 21
243.3540096987
 31
0.0
 11
68.0486387199
 21
243.3635024206
 31
0.0
 11
68.0417611519
 21
243.3730696029
 31
0.0
 11
68.0350024165
 21
243.3827090667
 31
0.0
 11
68.0283636147
 21
243.3924186106
 31
0.0
 11
68.021845794
 21
243.4021960114
 31
0.0
 11
68.0154499468
 21
243.4120390269
 31
0.0
 11
68.009177011
 21
243.4219453963
 31
0.0
 11
68.003027869
 21
243.4319128429
 31
0.0
 11
67.9970033479
 21
243.4419390751
 31
0.0
 11
67.9911042188
 21
243.4520217886
 31
0.0
 11
67.9853311968
 21
243.4621586676
 31
0.0
 11
67.9796849411
 21
243.4723473866
 31
0.0
 11
67.9741660546
 21
243.4825856123
 31
0.0
 11
67.968775084
 21
243.4928710051
 31
0.0
 11
67.9635125201
 21
243.5032012206
 31
0.0
 11
67.9583787976
 21
243.5135739116
 31
0.0
 11
67.9533742955
 21
243.5239867294
 31
0.0
 11
67.9484993371
 21
243.5344373255
 31
0.0
 11
67.9437541904
 21
243.5449233534
 31
0.0
 11
67.9391390687
 21
243.5554424698
 31
0.0
 11
67.9346541303
 21
243.5659923365
 31
0.0
 11
67.9302994798
 21
243.5765706217
 31
0.0
 11
67.9260751678
 21
243.5871750019
 31
0.0
 11
67.921981192
 21
243.5978031627
 31
0.0
 11
67.9180174976
 21
243.6084528009
 31
0.0
 11
67.9141839776
 21
243.6191216254
 31
0.0
 11
67.9104804741
 21
243.6298073593
 31
0.0
 11
67.9069067786
 21
243.6405077404
 31
0.0
 11
67.9034626326
 21
243.651220523
 31
0.0
 11
67.9001477289
 21
243.6619434792
 31
0.0
 11
67.896961712
 21
243.6726744001
 31
0.0
 11
67.8939041793
 21
243.6834110969
 31
0.0
 11
67.8909746814
 21
243.6941514021
 31
0.0
 11
67.8881727239
 21
243.7048931708
 31
0.0
 11
67.8854977676
 21
243.7156342816
 31
0.0
 11
67.8829492298
 21
243.7263726377
 31
0.0
 11
67.8805264855
 21
243.737106168
 31
0.0
 11
67.8782288678
 21
243.7478328278
 31
0.0
 11
67.8760556698
 21
243.7585506003
 31
0.0
 11
67.874006145
 21
243.7692574966
 31
0.0
 11
67.8720795087
 21
243.7799515575
 31
0.0
 11
67.870274939
 21
243.7906308535
 31
0.0
 11
67.868591578
 21
243.8012934859
 31
0.0
 11
67.8670285329
 21
243.8119375876
 31
0.0
 11
67.8655848772
 21
243.8225613235
 31
0.0
 11
67.8642596518
 21
243.8331628914
 31
0.0
 11
67.8630518659
 21
243.8437405223
 31
0.0
 11
67.8619604989
 21
243.854292481
 31
0.0
 11
67.8609845007
 21
243.8648170668
 31
0.0
 11
67.8601227936
 21
243.8753126136
 31
0.0
 11
67.8593742728
 21
243.8857774907
 31
0.0
 11
67.8587378082
 21
243.8962101026
 31
0.0
 11
67.8582122453
 21
243.9066088901
 31
0.0
 11
67.8577964061
 21
243.9169723297
 31
0.0
  0
LINE
  5
25C
100
AcDbEntity
  8
0
100
AcDbLine
 62
7
  6
CONTINUOUS
 10
68.7698706697
 20
242.955852986
 11
89.8577105408
 21
241.1108200004
  0
LINE
  5
25D
100
AcDbEntity
  8
0
100
AcDbLine
 62
7
  6
CONTINUOUS
 10
89.8577105408
 20
241.1108200004
 11
110.9455572873
 21
242.9556814703
  0
SPLINE
  5
25E
100
AcDbEntity
  8
0
100
AcDbSpline
 62
7
  6
CONTINUOUS
 70
4
 71
3
 72
8
 73
4
 74
129
 42
0.0000001
 43
0.0000001
 44
0.0000000001
 12
-0.0462503182
 22
-1.3244358274
 32
0.0
 13
-1.3202006472
 23
-0.1154972025
 33
0.0
 40
0.0
 40
0.0
 40
0.0
 40
0.0
 40
1.0
 40
1.0
 40
1.0
 40
1.0
 10
111.8577964061
 20
243.9169770247
 30
0.0
 41
1.0
 10
111.8392807906
 20
243.3867591682
 30
0.0
 41
0.8326362527
 10
111.4740796535
 20
243.0019190289
 30
0.0
 41
0.8326362527
 10
110.9455572873
 20
242.9556814703
 30
0.0
 41
1.0
 11
111.8577964061
 21
243.9169770247
 31
0.0
 11
111.8573806015
 21
243.9066116928
 31
0.0
 11
111.8568550522
 21
243.8962110046
 31
0.0
 11
111.8562185802
 21
243.8857764836
 31
0.0
 11
111.8554700305
 21
243.8753096896
 31
0.0
 11
111.8546082729
 21
243.8648122181
 31
0.0
 11
111.8536322024
 21
243.8542857004
 31
0.0
 11
111.8525407409
 21
243.8437318027
 31
0.0
 11
111.8513328382
 21
243.8331522262
 31
0.0
 11
111.8500074732
 21
243.8225487063
 31
0.0
 11
111.8485636551
 21
243.8119230124
 31
0.0
 11
111.8470004245
 21
243.8012769471
 31
0.0
 11
111.8453168546
 21
243.7906123459
 31
0.0
 11
111.8435120525
 21
243.7799310763
 31
0.0
 11
111.84158516
 21
243.7692350373
 31
0.0
 11
111.8395353551
 21
243.7585261586
 31
0.0
 11
111.8373618527
 21
243.7478064002
 31
0.0
 11
111.8350639064
 21
243.737077751
 31
0.0
 11
111.8326408088
 21
243.7263422286
 31
0.0
 11
111.8300918931
 21
243.7156018778
 31
0.0
 11
111.827416534
 21
243.7048587703
 31
0.0
 11
111.8246141486
 21
243.6941150033
 31
0.0
 11
111.8216841978
 21
243.6833726986
 31
0.0
 11
111.8186261867
 21
243.6726340017
 31
0.0
 11
111.8154396661
 21
243.6619010803
 31
0.0
 11
111.8121242331
 21
243.6511761237
 31
0.0
 11
111.8086795321
 21
243.6404613415
 31
0.0
 11
111.8051052558
 21
243.6297589619
 31
0.0
 11
111.8014011458
 21
243.619071231
 31
0.0
 11
111.7975669933
 21
243.6084004115
 31
0.0
 11
111.7936026404
 21
243.597748781
 31
0.0
 11
111.7895079802
 21
243.5871186308
 31
0.0
 11
111.7852829577
 21
243.5765122647
 31
0.0
 11
111.7809275705
 21
243.5659319976
 31
0.0
 11
111.7764418694
 21
243.5553801535
 31
0.0
 11
111.7718259588
 21
243.5448590647
 31
0.0
 11
111.7670799972
 21
243.5343710699
 31
0.0
 11
111.7622041977
 21
243.5239185129
 31
0.0
 11
111.7571988285
 21
243.5135037406
 31
0.0
 11
111.7520642129
 21
243.5031291021
 31
0.0
 11
111.74680073
 21
243.4927969466
 31
0.0
 11
111.7414088145
 21
243.4825096218
 31
0.0
 11
111.7358889572
 21
243.4722694726
 31
0.0
 11
111.730241705
 21
243.4620788391
 31
0.0
 11
111.724467661
 21
243.4519400552
 31
0.0
 11
111.7185674844
 21
243.4418554467
 31
0.0
 11
111.7125418905
 21
243.4318273299
 31
0.0
 11
111.7063916506
 21
243.4218580099
 31
0.0
 11
111.7001175918
 21
243.4119497784
 31
0.0
 11
111.6937205967
 21
243.402104913
 31
0.0
 11
111.6872016034
 21
243.3923256746
 31
0.0
 11
111.6805616047
 21
243.3826143062
 31
0.0
 11
111.673801648
 21
243.3729730312
 31
0.0
 11
111.6669228347
 21
243.3634040517
 31
0.0
 11
111.6599263197
 21
243.353909547
 31
0.0
 11
111.6528133109
 21
243.3444916716
 31
0.0
 11
111.6455850683
 21
243.3351525541
 31
0.0
 11
111.6382429037
 21
243.3258942954
 31
0.0
 11
111.6307881793
 21
243.316718967
 31
0.0
 11
111.6232223077
 21
243.3076286097
 31
0.0
 11
111.6155467502
 21
243.298625232
 31
0.0
 11
111.6077630165
 21
243.2897108087
 31
0.0
 11
111.5998726635
 21
243.2808872795
 31
0.0
 11
111.5918772941
 21
243.2721565471
 31
0.0
 11
111.5837785562
 21
243.2635204768
 31
0.0
 11
111.5755781419
 21
243.2549808942
 31
0.0
 11
111.5672777859
 21
243.2465395846
 31
0.0
 11
111.5588792644
 21
243.2381982912
 31
0.0
 11
111.5503843938
 21
243.2299587144
 31
0.0
 11
111.5417950296
 21
243.2218225104
 31
0.0
 11
111.533113065
 21
243.2137912901
 31
0.0
 11
111.524340429
 21
243.2058666182
 31
0.0
 11
111.515479086
 21
243.1980500118
 31
0.0
 11
111.5065310332
 21
243.1903429399
 31
0.0
 11
111.4974983
 21
243.1827468223
 31
0.0
 11
111.4883829462
 21
243.1752630287
 31
0.0
 11
111.4791870601
 21
243.1678928781
 31
0.0
 11
111.4699127575
 21
243.1606376379
 31
0.0
 11
111.46056218
 21
243.1534985232
 31
0.0
 11
111.451137493
 21
243.1464766963
 31
0.0
 11
111.4416408845
 21
243.1395732661
 31
0.0
 11
111.4320745634
 21
243.1327892876
 31
0.0
 11
111.4224407576
 21
243.1261257615
 31
0.0
 11
111.4127417128
 21
243.1195836337
 31
0.0
 11
111.4029796903
 21
243.113163795
 31
0.0
 11
111.3931569658
 21
243.1068670809
 31
0.0
 11
111.3832758275
 21
243.1006942716
 31
0.0
 11
111.3733385746
 21
243.0946460914
 31
0.0
 11
111.3633475153
 21
243.0887232088
 31
0.0
 11
111.3533049656
 21
243.0829262367
 31
0.0
 11
111.3432132472
 21
243.0772557322
 31
0.0
 11
111.3330746864
 21
243.0717121966
 31
0.0
 11
111.3228916119
 21
243.0662960759
 31
0.0
 11
111.3126663536
 21
243.0610077607
 31
0.0
 11
111.3024012408
 21
243.0558475863
 31
0.0
 11
111.2920986007
 21
243.0508158336
 31
0.0
 11
111.2817607569
 21
243.0459127288
 31
0.0
 11
111.2713900278
 21
243.0411384442
 31
0.0
 11
111.260988725
 21
243.0364930986
 31
0.0
 11
111.2505591521
 21
243.0319767577
 31
0.0
 11
111.2401036028
 21
243.0275894346
 31
0.0
 11
111.22962436
 21
243.0233310908
 31
0.0
 11
111.2191236941
 21
243.0192016362
 31
0.0
 11
111.2086038616
 21
243.0152009303
 31
0.0
 11
111.1980671039
 21
243.0113287828
 31
0.0
 11
111.1875156461
 21
243.0075849542
 31
0.0
 11
111.1769516954
 21
243.0039691568
 31
0.0
 11
111.1663774403
 21
243.0004810554
 31
0.0
 11
111.1557950491
 21
242.9971202681
 31
0.0
 11
111.1452066691
 21
242.9938863676
 31
0.0
 11
111.134614425
 21
242.9907788815
 31
0.0
 11
111.1240204183
 21
242.9877972937
 31
0.0
 11
111.113426726
 21
242.9849410454
 31
0.0
 11
111.1028353999
 21
242.9822095359
 31
0.0
 11
111.0922484653
 21
242.9796021236
 31
0.0
 11
111.0816679205
 21
242.9771181273
 31
0.0
 11
111.0710957357
 21
242.9747568269
 31
0.0
 11
111.0605338521
 21
242.972517465
 31
0.0
 11
111.0499841815
 21
242.9703992475
 31
0.0
 11
111.0394486053
 21
242.9684013449
 31
0.0
 11
111.0289289738
 21
242.9665228936
 31
0.0
 11
111.0184271058
 21
242.9647629965
 31
0.0
 11
111.0079447879
 21
242.9631207249
 31
0.0
 11
110.9974837738
 21
242.9615951191
 31
0.0
 11
110.9870457839
 21
242.9601851895
 31
0.0
 11
110.9766325051
 21
242.9588899183
 31
0.0
 11
110.9662455898
 21
242.9577082599
 31
0.0
 11
110.9558866562
 21
242.9566391429
 31
0.0
 11
110.9455572873
 21
242.9556814703
 31
0.0
  0
LINE
  5
25F
100
AcDbEntity
  8
0
100
AcDbLine
 62
7
  6
CONTINUOUS
 10
111.8577964061
 20
243.9169770247
 11
112.4177105408
 21
259.9508200004
  0
LINE
  5
260
100
AcDbEntity
  8
0
100
AcDbLine
 62
7
  6
CONTINUOUS
 10
112.4177105408
 20
259.9508200004
 11
119.3577105408
 21
259.9508200004
  0
LINE
  5
261
100
AcDbEntity
  8
0
100
AcDbLine
 62
7
  6
CONTINUOUS
 10
119.3577105408
 20
259.9508200004
 11
119.3577105408
 21
243.9508200004
  0
SPLINE
  5
262
100
AcDbEntity
  8
0
100
AcDbSpline
 62
7
  6
CONTINUOUS
 70
4
 71
3
 72
8
 73
4
 74
255
 42
0.0000001
 43
0.0000001
 44
0.0000000001
 12
0.0
 22
-7.0710678119
 32
0.0
 13
-7.0710678119
 23
0.0
 33
0.0
 40
0.0
 40
0.0
 40
0.0
 40
0.0
 40
1.0
 40
1.0
 40
1.0
 40
1.0
 10
119.3577105408
 20
243.9508200004
 30
0.0
 41
1.0
 10
119.3577105408
 20
241.0218878123
 30
0.0
 41
0.8047378541
 10
117.2866427289
 20
238.9508200004
 30
0.0
 41
0.8047378541
 10
114.3577105408
 20
238.9508200004
 30
0.0
 41
1.0
 11
119.3577105408
 21
243.9508200004
 31
0.0
 11
119.357403973
 21
243.8954522827
 31
0.0
 11
119.3570192051
 21
243.8676762754
 31
0.0
 11
119.3564787392
 21
243.8398402816
 31
0.0
 11
119.3557815534
 21
243.8119454059
 31
0.0
 11
119.3549266333
 21
243.7839927694
 31
0.0
 11
119.3539129728
 21
243.7559835094
 31
0.0
 11
119.3527395743
 21
243.7279187797
 31
0.0
 11
119.3514054487
 21
243.69979975
 31
0.0
 11
119.349909616
 21
243.6716276065
 31
0.0
 11
119.3482511054
 21
243.6434035515
 31
0.0
 11
119.3464289554
 21
243.6151288035
 31
0.0
 11
119.3444422145
 21
243.5868045968
 31
0.0
 11
119.3422899413
 21
243.5584321822
 31
0.0
 11
119.3399712046
 21
243.5300128261
 31
0.0
 11
119.3374850838
 21
243.5015478109
 31
0.0
 11
119.3348306695
 21
243.4730384349
 31
0.0
 11
119.3320070631
 21
243.4444860121
 31
0.0
 11
119.3290133778
 21
243.4158918722
 31
0.0
 11
119.3258487384
 21
243.3872573605
 31
0.0
 11
119.3225122818
 21
243.3585838377
 31
0.0
 11
119.3190031572
 21
243.3298726801
 31
0.0
 11
119.3153205264
 21
243.3011252792
 31
0.0
 11
119.3114635641
 21
243.2723430415
 31
0.0
 11
119.3074314583
 21
243.2435273889
 31
0.0
 11
119.3032234104
 21
243.2146797582
 31
0.0
 11
119.2988386355
 21
243.1858016007
 31
0.0
 11
119.2942763626
 21
243.1568943828
 31
0.0
 11
119.2895358354
 21
243.1279595852
 31
0.0
 11
119.2846163119
 21
243.0989987033
 31
0.0
 11
119.279517065
 21
243.0700132465
 31
0.0
 11
119.2742373829
 21
243.0410047383
 31
0.0
 11
119.2687765689
 21
243.0119747165
 31
0.0
 11
119.2631339425
 21
242.9829247323
 31
0.0
 11
119.2573088387
 21
242.9538563508
 31
0.0
 11
119.2513006092
 21
242.9247711504
 31
0.0
 11
119.2451086217
 21
242.8956707227
 31
0.0
 11
119.2387322613
 21
242.8665566726
 31
0.0
 11
119.2321709296
 21
242.8374306177
 31
0.0
 11
119.225424046
 21
242.8082941884
 31
0.0
 11
119.2184910471
 21
242.7791490273
 31
0.0
 11
119.2113713877
 21
242.7499967897
 31
0.0
 11
119.2040645403
 21
242.7208391425
 31
0.0
 11
119.1965699963
 21
242.6916777647
 31
0.0
 11
119.1888872652
 21
242.6625143467
 31
0.0
 11
119.1810158757
 21
242.6333505906
 31
0.0
 11
119.1729553755
 21
242.6041882091
 31
0.0
 11
119.1647053317
 21
242.5750289262
 31
0.0
 11
119.1562653309
 21
242.5458744762
 31
0.0
 11
119.1476349797
 21
242.5167266041
 31
0.0
 11
119.1388139046
 21
242.4875870647
 31
0.0
 11
119.1298017525
 21
242.4584576227
 31
0.0
 11
119.1205981909
 21
242.4293400524
 31
0.0
 11
119.1112029078
 21
242.4002361373
 31
0.0
 11
119.1016156124
 21
242.3711476701
 31
0.0
 11
119.091836035
 21
242.3420764518
 31
0.0
 11
119.0818639272
 21
242.3130242923
 31
0.0
 11
119.0716990623
 21
242.2839930092
 31
0.0
 11
119.0613412354
 21
242.254984428
 31
0.0
 11
119.0507902635
 21
242.2260003819
 31
0.0
 11
119.0400459857
 21
242.197042711
 31
0.0
 11
119.0291082637
 21
242.1681132623
 31
0.0
 11
119.0179769816
 21
242.1392138896
 31
0.0
 11
119.0066520461
 21
242.1103464526
 31
0.0
 11
118.9951333869
 21
242.081512817
 31
0.0
 11
118.9834209568
 21
242.0527148539
 31
0.0
 11
118.9715147316
 21
242.0239544398
 31
0.0
 11
118.9594147107
 21
241.995233456
 31
0.0
 11
118.9471209167
 21
241.9665537881
 31
0.0
 11
118.9346333961
 21
241.9379173261
 31
0.0
 11
118.9219522191
 21
241.9093259636
 31
0.0
 11
118.9090774796
 21
241.8807815977
 31
0.0
 11
118.8960092957
 21
241.8522861286
 31
0.0
 11
118.8827478096
 21
241.823841459
 31
0.0
 11
118.8692931878
 21
241.7954494941
 31
0.0
 11
118.8556456209
 21
241.767112141
 31
0.0
 11
118.8418053242
 21
241.7388313084
 31
0.0
 11
118.8277725373
 21
241.7106089061
 31
0.0
 11
118.8135475246
 21
241.6824468446
 31
0.0
 11
118.7991305749
 21
241.6543470351
 31
0.0
 11
118.7845220021
 21
241.6263113886
 31
0.0
 11
118.7697221445
 21
241.5983418158
 31
0.0
 11
118.7547313654
 21
241.5704402266
 31
0.0
 11
118.7395500532
 21
241.5426085298
 31
0.0
 11
118.7241786209
 21
241.5148486326
 31
0.0
 11
118.7086175067
 21
241.4871624402
 31
0.0
 11
118.6928671735
 21
241.4595518556
 31
0.0
 11
118.6769281095
 21
241.4320187788
 31
0.0
 11
118.6608008277
 21
241.4045651069
 31
0.0
 11
118.6444858661
 21
241.3771927332
 31
0.0
 11
118.6279837877
 21
241.3499035473
 31
0.0
 11
118.6112951806
 21
241.322699434
 31
0.0
 11
118.5944206577
 21
241.2955822738
 31
0.0
 11
118.5773608569
 21
241.2685539416
 31
0.0
 11
118.5601164407
 21
241.2416163071
 31
0.0
 11
118.5426880969
 21
241.2147712335
 31
0.0
 11
118.5250765376
 21
241.188020578
 31
0.0
 11
118.5072824999
 21
241.1613661908
 31
0.0
 11
118.4893067454
 21
241.1348099149
 31
0.0
 11
118.4711500603
 21
241.1083535856
 31
0.0
 11
118.4528132552
 21
241.0819990304
 31
0.0
 11
118.4342971652
 21
241.055748068
 31
0.0
 11
118.4156026494
 21
241.0296025086
 31
0.0
 11
118.3967305913
 21
241.0035641528
 31
0.0
 11
118.3776818983
 21
240.9776347919
 31
0.0
 11
118.3584575018
 21
240.9518162069
 31
0.0
 11
118.3390583569
 21
240.9261101685
 31
0.0
 11
118.3194854422
 21
240.9005184366
 31
0.0
 11
118.29973976
 21
240.8750427596
 31
0.0
 11
118.2798223357
 21
240.8496848747
 31
0.0
 11
118.2597342181
 21
240.8244465068
 31
0.0
 11
118.2394764786
 21
240.7993293684
 31
0.0
 11
118.2190502118
 21
240.7743351595
 31
0.0
 11
118.1984565347
 21
240.7494655667
 31
0.0
 11
118.1776965865
 21
240.7247222631
 31
0.0
 11
118.156771529
 21
240.7001069082
 31
0.0
 11
118.1356825457
 21
240.6756211469
 31
0.0
 11
118.1144308419
 21
240.6512666095
 31
0.0
 11
118.0930176446
 21
240.6270449117
 31
0.0
 11
118.0714442019
 21
240.6029576534
 31
0.0
 11
118.0497117831
 21
240.5790064192
 31
0.0
 11
118.0278216784
 21
240.5551927774
 31
0.0
 11
118.0057751983
 21
240.5315182801
 31
0.0
 11
117.9835736738
 21
240.5079844626
 31
0.0
 11
117.9612184559
 21
240.4845928432
 31
0.0
 11
117.9387109154
 21
240.4613449228
 31
0.0
 11
117.9160524425
 21
240.4382421849
 31
0.0
 11
117.8932444467
 21
240.4152860945
 31
0.0
 11
117.8702883563
 21
240.3924780987
 31
0.0
 11
117.8471856183
 21
240.3698196258
 31
0.0
 11
117.823937698
 21
240.3473120853
 31
0.0
 11
117.8005460786
 21
240.3249568674
 31
0.0
 11
117.7770122611
 21
240.3027553429
 31
0.0
 11
117.7533377638
 21
240.2807088628
 31
0.0
 11
117.729524122
 21
240.258818758
 31
0.0
 11
117.7055728877
 21
240.2370863393
 31
0.0
 11
117.6814856295
 21
240.2155128966
 31
0.0
 11
117.6572639316
 21
240.1940996993
 31
0.0
 11
117.6329093943
 21
240.1728479955
 31
0.0
 11
117.608423633
 21
240.1517590122
 31
0.0
 11
117.583808278
 21
240.1308339547
 31
0.0
 11
117.5590649745
 21
240.1100740065
 31
0.0
 11
117.5341953817
 21
240.0894803293
 31
0.0
 11
117.5092011728
 21
240.0690540625
 31
0.0
 11
117.4840840344
 21
240.0487963231
 31
0.0
 11
117.4588456665
 21
240.0287082055
 31
0.0
 11
117.4334877816
 21
240.0087907812
 31
0.0
 11
117.4080121046
 21
239.989045099
 31
0.0
 11
117.3824203727
 21
239.9694721843
 31
0.0
 11
117.3567143343
 21
239.9500730393
 31
0.0
 11
117.3308957493
 21
239.9308486428
 31
0.0
 11
117.3049663884
 21
239.9117999499
 31
0.0
 11
117.2789280326
 21
239.8929278918
 31
0.0
 11
117.2527824732
 21
239.874233376
 31
0.0
 11
117.2265315108
 21
239.8557172859
 31
0.0
 11
117.2001769555
 21
239.8373804809
 31
0.0
 11
117.1737206263
 21
239.8192237958
 31
0.0
 11
117.1471643504
 21
239.8012480413
 31
0.0
 11
117.1205099632
 21
239.7834540036
 31
0.0
 11
117.0937593077
 21
239.7658424443
 31
0.0
 11
117.0669142341
 21
239.7484141005
 31
0.0
 11
117.0399765995
 21
239.7311696843
 31
0.0
 11
117.0129482674
 21
239.7141098834
 31
0.0
 11
116.9858311072
 21
239.6972353605
 31
0.0
 11
116.9586269939
 21
239.6805467534
 31
0.0
 11
116.9313378079
 21
239.6640446751
 31
0.0
 11
116.9039654343
 21
239.6477297135
 31
0.0
 11
116.8765117624
 21
239.6316024317
 31
0.0
 11
116.8489786856
 21
239.6156633676
 31
0.0
 11
116.821368101
 21
239.5999130345
 31
0.0
 11
116.7936819086
 21
239.5843519202
 31
0.0
 11
116.7659220114
 21
239.568980488
 31
0.0
 11
116.7380903145
 21
239.5537991757
 31
0.0
 11
116.7101887254
 21
239.5388083967
 31
0.0
 11
116.6822191525
 21
239.5240085391
 31
0.0
 11
116.654183506
 21
239.5093999663
 31
0.0
 11
116.6260836966
 21
239.4949830166
 31
0.0
 11
116.5979216351
 21
239.4807580039
 31
0.0
 11
116.5696992328
 21
239.466725217
 31
0.0
 11
116.5414184001
 21
239.4528849203
 31
0.0
 11
116.5130810471
 21
239.4392373534
 31
0.0
 11
116.4846890822
 21
239.4257827316
 31
0.0
 11
116.4562444126
 21
239.4125212455
 31
0.0
 11
116.4277489434
 21
239.3994530616
 31
0.0
 11
116.3992045775
 21
239.3865783221
 31
0.0
 11
116.370613215
 21
239.373897145
 31
0.0
 11
116.341976753
 21
239.3614096245
 31
0.0
 11
116.3132970852
 21
239.3491158305
 31
0.0
 11
116.2845761013
 21
239.3370158096
 31
0.0
 11
116.2558156873
 21
239.3251095844
 31
0.0
 11
116.2270177242
 21
239.3133971543
 31
0.0
 11
116.1981840886
 21
239.3018784951
 31
0.0
 11
116.1693166516
 21
239.2905535596
 31
0.0
 11
116.1404172788
 21
239.2794222775
 31
0.0
 11
116.1114878302
 21
239.2684845555
 31
0.0
 11
116.0825301593
 21
239.2577402777
 31
0.0
 11
116.0535461132
 21
239.2471893058
 31
0.0
 11
116.024537532
 21
239.2368314789
 31
0.0
 11
115.9955062489
 21
239.226666614
 31
0.0
 11
115.9664540893
 21
239.2166945062
 31
0.0
 11
115.9373828711
 21
239.2069149288
 31
0.0
 11
115.9082944039
 21
239.1973276334
 31
0.0
 11
115.8791904888
 21
239.1879323503
 31
0.0
 11
115.8500729185
 21
239.1787287886
 31
0.0
 11
115.8209434765
 21
239.1697166366
 31
0.0
 11
115.7918039371
 21
239.1608955615
 31
0.0
 11
115.7626560649
 21
239.1522652102
 31
0.0
 11
115.733501615
 21
239.1438252095
 31
0.0
 11
115.7043423321
 21
239.1355751656
 31
0.0
 11
115.6751799506
 21
239.1275146655
 31
0.0
 11
115.6460161944
 21
239.119643276
 31
0.0
 11
115.6168527765
 21
239.1119605449
 31
0.0
 11
115.5876913987
 21
239.1044660008
 31
0.0
 11
115.5585337515
 21
239.0971591535
 31
0.0
 11
115.5293815138
 21
239.0900394941
 31
0.0
 11
115.5002363528
 21
239.0831064952
 31
0.0
 11
115.4710999234
 21
239.0763596115
 31
0.0
 11
115.4419738685
 21
239.0697982799
 31
0.0
 11
115.4128598184
 21
239.0634219194
 31
0.0
 11
115.3837593908
 21
239.057229932
 31
0.0
 11
115.3546741904
 21
239.0512217024
 31
0.0
 11
115.3256058088
 21
239.0453965987
 31
0.0
 11
115.2965558247
 21
239.0397539722
 31
0.0
 11
115.2675258028
 21
239.0342931583
 31
0.0
 11
115.2385172947
 21
239.0290134761
 31
0.0
 11
115.2095318379
 21
239.0239142293
 31
0.0
 11
115.1805709559
 21
239.0189947057
 31
0.0
 11
115.1516361584
 21
239.0142541785
 31
0.0
 11
115.1227289405
 21
239.0096919057
 31
0.0
 11
115.093850783
 21
239.0053071308
 31
0.0
 11
115.0650031522
 21
239.0010990828
 31
0.0
 11
115.0361874997
 21
238.9970669771
 31
0.0
 11
115.007405262
 21
238.9932100148
 31
0.0
 11
114.978657861
 21
238.989527384
 31
0.0
 11
114.9499467034
 21
238.9860182594
 31
0.0
 11
114.9212731807
 21
238.9826818028
 31
0.0
 11
114.892638669
 21
238.9795171634
 31
0.0
 11
114.8640445291
 21
238.9765234781
 31
0.0
 11
114.8354921063
 21
238.9736998717
 31
0.0
 11
114.8069827303
 21
238.9710454573
 31
0.0
 11
114.7785177151
 21
238.9685593366
 31
0.0
 11
114.750098359
 21
238.9662405999
 31
0.0
 11
114.7217259443
 21
238.9640883267
 31
0.0
 11
114.6934017377
 21
238.9621015858
 31
0.0
 11
114.6651269897
 21
238.9602794358
 31
0.0
 11
114.6369029347
 21
238.9586209251
 31
0.0
 11
114.6087307912
 21
238.9571250924
 31
0.0
 11
114.5806117615
 21
238.9557909669
 31
0.0
 11
114.5525470317
 21
238.9546175684
 31
0.0
 11
114.5245377718
 21
238.9536039079
 31
0.0
 11
114.4965851353
 21
238.9527489878
 31
0.0
 11
114.4686902596
 21
238.9520518019
 31
0.0
 11
114.4408542657
 21
238.9515113361
 31
0.0
 11
114.4130782585
 21
238.9511265682
 31
0.0
 11
114.3577105408
 21
238.9508200004
 31
0.0
  0
LINE
  5
263
100
AcDbEntity
  8
0
100
AcDbLine
 62
7
  6
CONTINUOUS
 10
97.3577105408
 20
238.9508200004
 11
114.3577105408
 21
238.9508200004
  0
SPLINE
  5
264
100
AcDbEntity
  8
0
100
AcDbSpline
 62
7
  6
CONTINUOUS
 70
4
 71
3
 72
8
 73
4
 74
255
 42
0.0000001
 43
0.0000001
 44
0.0000000001
 12
0.0
 22
7.0710678119
 32
0.0
 13
7.0710678119
 23
0.0
 33
0.0
 40
0.0
 40
0.0
 40
0.0
 40
0.0
 40
1.0
 40
1.0
 40
1.0
 40
1.0
 10
92.3577105408
 20
233.9508200004
 30
0.0
 41
1.0
 10
92.3577105408
 20
236.8797521885
 30
0.0
 41
0.8047378541
 10
94.4287783526
 20
238.9508200004
 30
0.0
 41
0.8047378541
 10
97.3577105408
 20
238.9508200004
 30
0.0
 41
1.0
 11
92.3577105408
 21
233.9508200004
 31
0.0
 11
92.3580171086
 21
234.0061877181
 31
0.0
 11
92.3584018765
 21
234.0339637254
 31
0.0
 11
92.3589423423
 21
234.0617997192
 31
0.0
 11
92.3596395282
 21
234.0896945949
 31
0.0
 11
92.3604944483
 21
234.1176472314
 31
0.0
 11
92.3615081087
 21
234.1456564914
 31
0.0
 11
92.3626815072
 21
234.1737212211
 31
0.0
 11
92.3640156328
 21
234.2018402508
 31
0.0
 11
92.3655114655
 21
234.2300123943
 31
0.0
 11
92.3671699762
 21
234.2582364493
 31
0.0
 11
92.3689921262
 21
234.2865111974
 31
0.0
 11
92.370978867
 21
234.314835404
 31
0.0
 11
92.3731311402
 21
234.3432078186
 31
0.0
 11
92.375449877
 21
234.3716271747
 31
0.0
 11
92.3779359977
 21
234.4000921899
 31
0.0
 11
92.3805904121
 21
234.4286015659
 31
0.0
 11
92.3834140184
 21
234.4571539887
 31
0.0
 11
92.3864077037
 21
234.4857481286
 31
0.0
 11
92.3895723431
 21
234.5143826403
 31
0.0
 11
92.3929087998
 21
234.5430561631
 31
0.0
 11
92.3964179244
 21
234.5717673207
 31
0.0
 11
92.4001005552
 21
234.6005147216
 31
0.0
 11
92.4039575174
 21
234.6292969593
 31
0.0
 11
92.4079896232
 21
234.6581126119
 31
0.0
 11
92.4121976711
 21
234.6869602427
 31
0.0
 11
92.4165824461
 21
234.7158384001
 31
0.0
 11
92.4211447189
 21
234.744745618
 31
0.0
 11
92.4258852461
 21
234.7736804156
 31
0.0
 11
92.4308047696
 21
234.8026412975
 31
0.0
 11
92.4359040165
 21
234.8316267543
 31
0.0
 11
92.4411836987
 21
234.8606352625
 31
0.0
 11
92.4466445126
 21
234.8896652843
 31
0.0
 11
92.4522871391
 21
234.9187152685
 31
0.0
 11
92.4581122428
 21
234.94778365
 31
0.0
 11
92.4641204724
 21
234.9768688504
 31
0.0
 11
92.4703124598
 21
235.0059692781
 31
0.0
 11
92.4766888203
 21
235.0350833282
 31
0.0
 11
92.4832501519
 21
235.0642093831
 31
0.0
 11
92.4899970356
 21
235.0933458124
 31
0.0
 11
92.4969300344
 21
235.1224909735
 31
0.0
 11
92.5040496939
 21
235.1516432111
 31
0.0
 11
92.5113565412
 21
235.1808008583
 31
0.0
 11
92.5188510853
 21
235.2099622361
 31
0.0
 11
92.5265338163
 21
235.2391256541
 31
0.0
 11
92.5344052058
 21
235.2682894102
 31
0.0
 11
92.542465706
 21
235.2974517917
 31
0.0
 11
92.5507157498
 21
235.3266110746
 31
0.0
 11
92.5591557506
 21
235.3557655246
 31
0.0
 11
92.5677861018
 21
235.3849133967
 31
0.0
 11
92.5766071769
 21
235.4140529361
 31
0.0
 11
92.585619329
 21
235.4431823781
 31
0.0
 11
92.5948228906
 21
235.4722999484
 31
0.0
 11
92.6042181737
 21
235.5014038635
 31
0.0
 11
92.6138054691
 21
235.5304923308
 31
0.0
 11
92.6235850466
 21
235.559563549
 31
0.0
 11
92.6335571543
 21
235.5886157085
 31
0.0
 11
92.6437220192
 21
235.6176469917
 31
0.0
 11
92.6540798461
 21
235.6466555728
 31
0.0
 11
92.6646308181
 21
235.6756396189
 31
0.0
 11
92.6753750958
 21
235.7045972899
 31
0.0
 11
92.6863128178
 21
235.7335267385
 31
0.0
 11
92.6974441
 21
235.7624261112
 31
0.0
 11
92.7087690355
 21
235.7912935482
 31
0.0
 11
92.7202876946
 21
235.8201271839
 31
0.0
 11
92.7320001248
 21
235.8489251469
 31
0.0
 11
92.7439063499
 21
235.877685561
 31
0.0
 11
92.7560063709
 21
235.9064065448
 31
0.0
 11
92.7683001648
 21
235.9350862127
 31
0.0
 11
92.7807876854
 21
235.9637226747
 31
0.0
 11
92.7934688625
 21
235.9923140372
 31
0.0
 11
92.806343602
 21
236.0208584031
 31
0.0
 11
92.8194117859
 21
236.0493538722
 31
0.0
 11
92.8326732719
 21
236.0777985418
 31
0.0
 11
92.8461278938
 21
236.1061905067
 31
0.0
 11
92.8597754607
 21
236.1345278598
 31
0.0
 11
92.8736157574
 21
236.1628086924
 31
0.0
 11
92.8876485442
 21
236.1910310947
 31
0.0
 11
92.901873557
 21
236.2191931562
 31
0.0
 11
92.9162905066
 21
236.2472929657
 31
0.0
 11
92.9308990795
 21
236.2753286122
 31
0.0
 11
92.9456989371
 21
236.303298185
 31
0.0
 11
92.9606897161
 21
236.3311997742
 31
0.0
 11
92.9758710283
 21
236.359031471
 31
0.0
 11
92.9912424606
 21
236.3867913682
 31
0.0
 11
93.0068035748
 21
236.4144775606
 31
0.0
 11
93.022553908
 21
236.4420881452
 31
0.0
 11
93.038492972
 21
236.469621222
 31
0.0
 11
93.0546202539
 21
236.4970748939
 31
0.0
 11
93.0709352155
 21
236.5244472676
 31
0.0
 11
93.0874372938
 21
236.5517364536
 31
0.0
 11
93.1041259009
 21
236.5789405668
 31
0.0
 11
93.1210004238
 21
236.606057727
 31
0.0
 11
93.1380602247
 21
236.6330860592
 31
0.0
 11
93.1553046408
 21
236.6600236938
 31
0.0
 11
93.1727329847
 21
236.6868687673
 31
0.0
 11
93.1903445439
 21
236.7136194228
 31
0.0
 11
93.2081385816
 21
236.74027381
 31
0.0
 11
93.2261143361
 21
236.7668300859
 31
0.0
 11
93.2442710212
 21
236.7932864152
 31
0.0
 11
93.2626078263
 21
236.8196409704
 31
0.0
 11
93.2811239164
 21
236.8458919328
 31
0.0
 11
93.2998184321
 21
236.8720374923
 31
0.0
 11
93.3186904902
 21
236.898075848
 31
0.0
 11
93.3377391832
 21
236.9240052089
 31
0.0
 11
93.3569635797
 21
236.9498237939
 31
0.0
 11
93.3763627247
 21
236.9755298323
 31
0.0
 11
93.3959356393
 21
237.0011215643
 31
0.0
 11
93.4156813216
 21
237.0265972412
 31
0.0
 11
93.4355987458
 21
237.0519551261
 31
0.0
 11
93.4556868635
 21
237.0771934941
 31
0.0
 11
93.4759446029
 21
237.1023106324
 31
0.0
 11
93.4963708697
 21
237.1273048413
 31
0.0
 11
93.5169645469
 21
237.1521744341
 31
0.0
 11
93.537724495
 21
237.1769177377
 31
0.0
 11
93.5586495526
 21
237.2015330926
 31
0.0
 11
93.5797385359
 21
237.226018854
 31
0.0
 11
93.6009902397
 21
237.2503733913
 31
0.0
 11
93.622403437
 21
237.2745950891
 31
0.0
 11
93.6439768796
 21
237.2986823474
 31
0.0
 11
93.6657092984
 21
237.3226335816
 31
0.0
 11
93.6875994032
 21
237.3464472234
 31
0.0
 11
93.7096458833
 21
237.3701217207
 31
0.0
 11
93.7318474077
 21
237.3936555382
 31
0.0
 11
93.7542026256
 21
237.4170471576
 31
0.0
 11
93.7767101661
 21
237.440295078
 31
0.0
 11
93.799368639
 21
237.463397816
 31
0.0
 11
93.8221766348
 21
237.4863539063
 31
0.0
 11
93.8451327252
 21
237.5091619022
 31
0.0
 11
93.8682354632
 21
237.531820375
 31
0.0
 11
93.8914833835
 21
237.5543279155
 31
0.0
 11
93.9148750029
 21
237.5766831334
 31
0.0
 11
93.9384088204
 21
237.5988846579
 31
0.0
 11
93.9620833178
 21
237.620931138
 31
0.0
 11
93.9858969596
 21
237.6428212428
 31
0.0
 11
94.0098481938
 21
237.6645536615
 31
0.0
 11
94.0339354521
 21
237.6861271042
 31
0.0
 11
94.0581571499
 21
237.7075403015
 31
0.0
 11
94.0825116872
 21
237.7287920053
 31
0.0
 11
94.1069974486
 21
237.7498809886
 31
0.0
 11
94.1316128035
 21
237.7708060461
 31
0.0
 11
94.156356107
 21
237.7915659943
 31
0.0
 11
94.1812256998
 21
237.8121596715
 31
0.0
 11
94.2062199088
 21
237.8325859383
 31
0.0
 11
94.2313370471
 21
237.8528436777
 31
0.0
 11
94.2565754151
 21
237.8729317954
 31
0.0
 11
94.2819333
 21
237.8928492196
 31
0.0
 11
94.3074089769
 21
237.9125949018
 31
0.0
 11
94.3330007089
 21
237.9321678165
 31
0.0
 11
94.3587067473
 21
237.9515669615
 31
0.0
 11
94.3845253322
 21
237.970791358
 31
0.0
 11
94.4104546932
 21
237.989840051
 31
0.0
 11
94.4364930489
 21
238.008712109
 31
0.0
 11
94.4626386084
 21
238.0274066248
 31
0.0
 11
94.4888895708
 21
238.0459227149
 31
0.0
 11
94.515244126
 21
238.0642595199
 31
0.0
 11
94.5417004552
 21
238.082416205
 31
0.0
 11
94.5682567311
 21
238.1003919595
 31
0.0
 11
94.5949111183
 21
238.1181859972
 31
0.0
 11
94.6216617738
 21
238.1357975565
 31
0.0
 11
94.6485068474
 21
238.1532259004
 31
0.0
 11
94.675444482
 21
238.1704703165
 31
0.0
 11
94.7024728142
 21
238.1875301174
 31
0.0
 11
94.7295899744
 21
238.2044046403
 31
0.0
 11
94.7567940876
 21
238.2210932474
 31
0.0
 11
94.7840832736
 21
238.2375953257
 31
0.0
 11
94.8114556473
 21
238.2539102873
 31
0.0
 11
94.8389093192
 21
238.2700375691
 31
0.0
 11
94.8664423959
 21
238.2859766332
 31
0.0
 11
94.8940529806
 21
238.3017269663
 31
0.0
 11
94.921739173
 21
238.3172880806
 31
0.0
 11
94.9494990702
 21
238.3326595129
 31
0.0
 11
94.977330767
 21
238.3478408251
 31
0.0
 11
95.0052323562
 21
238.3628316041
 31
0.0
 11
95.033201929
 21
238.3776314617
 31
0.0
 11
95.0612375755
 21
238.3922400346
 31
0.0
 11
95.089337385
 21
238.4066569842
 31
0.0
 11
95.1174994464
 21
238.4208819969
 31
0.0
 11
95.1457218488
 21
238.4349147838
 31
0.0
 11
95.1740026814
 21
238.4487550805
 31
0.0
 11
95.2023400345
 21
238.4624026474
 31
0.0
 11
95.2307319993
 21
238.4758572692
 31
0.0
 11
95.2591766689
 21
238.4891187553
 31
0.0
 11
95.2876721381
 21
238.5021869392
 31
0.0
 11
95.316216504
 21
238.5150616787
 31
0.0
 11
95.3448078665
 21
238.5277428558
 31
0.0
 11
95.3734443285
 21
238.5402303764
 31
0.0
 11
95.4021239964
 21
238.5525241703
 31
0.0
 11
95.4308449802
 21
238.5646241913
 31
0.0
 11
95.4596053943
 21
238.5765304164
 31
0.0
 11
95.4884033573
 21
238.5882428465
 31
0.0
 11
95.517236993
 21
238.5997615057
 31
0.0
 11
95.54610443
 21
238.6110864412
 31
0.0
 11
95.5750038027
 21
238.6222177234
 31
0.0
 11
95.6039332513
 21
238.6331554454
 31
0.0
 11
95.6328909222
 21
238.6438997231
 31
0.0
 11
95.6618749684
 21
238.654450695
 31
0.0
 11
95.6908835495
 21
238.6648085219
 31
0.0
 11
95.7199148326
 21
238.6749733868
 31
0.0
 11
95.7489669922
 21
238.6849454946
 31
0.0
 11
95.7780382104
 21
238.694725072
 31
0.0
 11
95.8071266777
 21
238.7043123674
 31
0.0
 11
95.8362305927
 21
238.7137076505
 31
0.0
 11
95.865348163
 21
238.7229112122
 31
0.0
 11
95.894477605
 21
238.7319233643
 31
0.0
 11
95.9236171445
 21
238.7407444393
 31
0.0
 11
95.9527650166
 21
238.7493747906
 31
0.0
 11
95.9819194665
 21
238.7578147913
 31
0.0
 11
96.0110787495
 21
238.7660648352
 31
0.0
 11
96.0402411309
 21
238.7741253354
 31
0.0
 11
96.0694048871
 21
238.7819967248
 31
0.0
 11
96.098568305
 21
238.7896794559
 31
0.0
 11
96.1277296828
 21
238.797174
 31
0.0
 11
96.15688733
 21
238.8044808473
 31
0.0
 11
96.1860395677
 21
238.8116005067
 31
0.0
 11
96.2151847287
 21
238.8185335056
 31
0.0
 11
96.2443211581
 21
238.8252803893
 31
0.0
 11
96.273447213
 21
238.8318417209
 31
0.0
 11
96.3025612631
 21
238.8382180814
 31
0.0
 11
96.3316616907
 21
238.8444100688
 31
0.0
 11
96.3607468912
 21
238.8504182984
 31
0.0
 11
96.3898152727
 21
238.8562434021
 31
0.0
 11
96.4188652569
 21
238.8618860286
 31
0.0
 11
96.4478952787
 21
238.8673468425
 31
0.0
 11
96.4769037868
 21
238.8726265247
 31
0.0
 11
96.5058892437
 21
238.8777257716
 31
0.0
 11
96.5348501256
 21
238.8826452951
 31
0.0
 11
96.5637849231
 21
238.8873858223
 31
0.0
 11
96.592692141
 21
238.8919480951
 31
0.0
 11
96.6215702985
 21
238.89633287
 31
0.0
 11
96.6504179293
 21
238.900540918
 31
0.0
 11
96.6792335819
 21
238.9045730237
 31
0.0
 11
96.7080158195
 21
238.908429986
 31
0.0
 11
96.7367632205
 21
238.9121126168
 31
0.0
 11
96.7654743781
 21
238.9156217414
 31
0.0
 11
96.7941479009
 21
238.918958198
 31
0.0
 11
96.8227824126
 21
238.9221228375
 31
0.0
 11
96.8513765525
 21
238.9251165228
 31
0.0
 11
96.8799289753
 21
238.9279401291
 31
0.0
 11
96.9084383513
 21
238.9305945435
 31
0.0
 11
96.9369033665
 21
238.9330806642
 31
0.0
 11
96.9653227226
 21
238.9353994009
 31
0.0
 11
96.9936951372
 21
238.9375516742
 31
0.0
 11
97.0220193438
 21
238.939538415
 31
0.0
 11
97.0502940919
 21
238.941360565
 31
0.0
 11
97.0785181469
 21
238.9430190757
 31
0.0
 11
97.1066902903
 21
238.9445149084
 31
0.0
 11
97.13480932
 21
238.9458490339
 31
0.0
 11
97.1628740498
 21
238.9470224324
 31
0.0
 11
97.1908833098
 21
238.9480360929
 31
0.0
 11
97.2188359463
 21
238.948891013
 31
0.0
 11
97.246730822
 21
238.9495881989
 31
0.0
 11
97.2745668158
 21
238.9501286647
 31
0.0
 11
97.3023428231
 21
238.9505134326
 31
0.0
 11
97.3577105408
 21
238.9508200004
 31
0.0
  0
LINE
  5
265
100
AcDbEntity
  8
0
100
AcDbLine
 62
7
  6
CONTINUOUS
 10
92.3577105408
 20
233.9508200004
 11
92.3577105408
 21
207.6958865268
  0
SPLINE
  5
266
100
AcDbEntity
  8
0
100
AcDbSpline
 62
7
  6
CONTINUOUS
 70
4
 71
3
 72
8
 73
4
 74
129
 42
0.0000001
 43
0.0000001
 44
0.0000000001
 12
-6.9054445686
 22
0.3069867401
 32
0.0
 13
0.0
 23
6.9122648639
 33
0.0
 40
0.0
 40
0.0
 40
0.0
 40
0.0
 40
1.0
 40
1.0
 40
1.0
 40
1.0
 10
97.1356510956
 20
202.7008200004
 30
0.0
 41
1.0
 10
94.311657595
 20
202.8263627588
 30
0.0
 41
0.8150921225
 10
92.3577105408
 20
204.8691038546
 30
0.0
 41
0.8150921225
 10
92.3577105408
 20
207.6958865268
 30
0.0
 41
1.0
 11
97.1356510956
 21
202.7008200004
 31
0.0
 11
97.0815997459
 21
202.7035160649
 31
0.0
 11
97.0273488862
 21
202.7068123464
 31
0.0
 11
96.9729071135
 21
202.7107158855
 31
0.0
 11
96.9182832502
 21
202.715233592
 31
0.0
 11
96.8634863435
 21
202.7203722375
 31
0.0
 11
96.8085256632
 21
202.7261384476
 31
0.0
 11
96.7534107003
 21
202.7325386946
 31
0.0
 11
96.6981511645
 21
202.7395792896
 31
0.0
 11
96.6427569823
 21
202.7472663747
 31
0.0
 11
96.5872382937
 21
202.7556059157
 31
0.0
 11
96.5316054498
 21
202.7646036938
 31
0.0
 11
96.4758690089
 21
202.7742652987
 31
0.0
 11
96.4200397337
 21
202.7845961202
 31
0.0
 11
96.3641285868
 21
202.7956013411
 31
0.0
 11
96.3081467268
 21
202.8072859294
 31
0.0
 11
96.2521055038
 21
202.8196546309
 31
0.0
 11
96.1960164543
 21
202.8327119618
 31
0.0
 11
96.1398912969
 21
202.8464622012
 31
0.0
 11
96.0837419261
 21
202.8609093842
 31
0.0
 11
96.0275804068
 21
202.8760572947
 31
0.0
 11
95.9714189687
 21
202.891909458
 31
0.0
 11
95.9152699995
 21
202.9084691348
 31
0.0
 11
95.8591460386
 21
202.9257393138
 31
0.0
 11
95.8030597702
 21
202.9437227058
 31
0.0
 11
95.7470240158
 21
202.9624217368
 31
0.0
 11
95.6910517271
 21
202.9818385424
 31
0.0
 11
95.6351559783
 21
203.0019749619
 31
0.0
 11
95.5793499576
 21
203.0228325322
 31
0.0
 11
95.5236469594
 21
203.0444124831
 31
0.0
 11
95.4680603755
 21
203.0667157314
 31
0.0
 11
95.4126036865
 21
203.0897428767
 31
0.0
 11
95.3572904525
 21
203.1134941963
 31
0.0
 11
95.3021343042
 21
203.1379696412
 31
0.0
 11
95.2471489331
 21
203.163168832
 31
0.0
 11
95.1923480817
 21
203.1890910554
 31
0.0
 11
95.1377455343
 21
203.2157352604
 31
0.0
 11
95.0833551061
 21
203.2431000557
 31
0.0
 11
95.0291906334
 21
203.2711837073
 31
0.0
 11
94.9752659633
 21
203.2999841353
 31
0.0
 11
94.9215949429
 21
203.329498913
 31
0.0
 11
94.8681914086
 21
203.3597252647
 31
0.0
 11
94.8150691756
 21
203.3906600649
 31
0.0
 11
94.7622420269
 21
203.4222998371
 31
0.0
 11
94.7097237024
 21
203.4546407541
 31
0.0
 11
94.6575278876
 21
203.4876786375
 31
0.0
 11
94.605668203
 21
203.5214089582
 31
0.0
 11
94.5541581926
 21
203.5558268375
 31
0.0
 11
94.5030113132
 21
203.5909270483
 31
0.0
 11
94.452240923
 21
203.6267040167
 31
0.0
 11
94.4018602706
 21
203.6631518243
 31
0.0
 11
94.3518824844
 21
203.7002642104
 31
0.0
 11
94.3023205608
 21
203.7380345753
 31
0.0
 11
94.2531873541
 21
203.7764559835
 31
0.0
 11
94.2044955657
 21
203.8155211676
 31
0.0
 11
94.1562577327
 21
203.8552225324
 31
0.0
 11
94.1084862185
 21
203.8955521594
 31
0.0
 11
94.0611932015
 21
203.9365018122
 31
0.0
 11
94.0143906655
 21
203.9780629415
 31
0.0
 11
93.9680903893
 21
204.0202266909
 31
0.0
 11
93.9223039374
 21
204.0629839036
 31
0.0
 11
93.87704265
 21
204.1063251282
 31
0.0
 11
93.832317634
 21
204.1502406261
 31
0.0
 11
93.7881397538
 21
204.1947203787
 31
0.0
 11
93.7445196223
 21
204.2397540948
 31
0.0
 11
93.7014675932
 21
204.2853312189
 31
0.0
 11
93.6589937516
 21
204.3314409389
 31
0.0
 11
93.6171079073
 21
204.3780721952
 31
0.0
 11
93.5758195866
 21
204.4252136892
 31
0.0
 11
93.5351380251
 21
204.4728538924
 31
0.0
 11
93.4950721611
 21
204.5209810561
 31
0.0
 11
93.455630629
 21
204.5695832206
 31
0.0
 11
93.4168217532
 21
204.6186482253
 31
0.0
 11
93.3786535424
 21
204.6681637185
 31
0.0
 11
93.341133684
 21
204.718117168
 31
0.0
 11
93.3042695397
 21
204.7684958712
 31
0.0
 11
93.2680681402
 21
204.8192869656
 31
0.0
 11
93.2325361817
 21
204.87047744
 31
0.0
 11
93.1976800221
 21
204.9220541446
 31
0.0
 11
93.1635056774
 21
204.9740038026
 31
0.0
 11
93.1300188188
 21
205.0263130207
 31
0.0
 11
93.0972247707
 21
205.0789683004
 31
0.0
 11
93.0651285082
 21
205.1319560492
 31
0.0
 11
93.0337346556
 21
205.1852625914
 31
0.0
 11
93.0030474853
 21
205.2388741797
 31
0.0
 11
92.973070917
 21
205.2927770059
 31
0.0
 11
92.943808517
 21
205.3469572123
 31
0.0
 11
92.9152634987
 21
205.4014009028
 31
0.0
 11
92.887438723
 21
205.4560941535
 31
0.0
 11
92.8603366988
 21
205.5110230241
 31
0.0
 11
92.8339595844
 21
205.5661735684
 31
0.0
 11
92.8083091895
 21
205.6215318452
 31
0.0
 11
92.7833869764
 21
205.677083929
 31
0.0
 11
92.7591940634
 21
205.7328159198
 31
0.0
 11
92.7357312268
 21
205.7887139544
 31
0.0
 11
92.712998904
 21
205.8447642154
 31
0.0
 11
92.6909971976
 21
205.9009529422
 31
0.0
 11
92.6697258785
 21
205.9572664398
 31
0.0
 11
92.6491843903
 21
206.013691089
 31
0.0
 11
92.6293718537
 21
206.0702133553
 31
0.0
 11
92.610287071
 21
206.1268197981
 31
0.0
 11
92.5919285315
 21
206.1834970794
 31
0.0
 11
92.5742944164
 21
206.2402319726
 31
0.0
 11
92.5573826043
 21
206.2970113707
 31
0.0
 11
92.5411906772
 21
206.3538222942
 31
0.0
 11
92.5257159266
 21
206.4106518991
 31
0.0
 11
92.510955359
 21
206.467487484
 31
0.0
 11
92.4969057034
 21
206.5243164978
 31
0.0
 11
92.4835634168
 21
206.5811265462
 31
0.0
 11
92.4709246919
 21
206.6379053985
 31
0.0
 11
92.4589854635
 21
206.6946409938
 31
0.0
 11
92.4477414156
 21
206.7513214469
 31
0.0
 11
92.437187989
 21
206.8079350543
 31
0.0
 11
92.4273203882
 21
206.8644702992
 31
0.0
 11
92.4181335892
 21
206.9209158568
 31
0.0
 11
92.4096223467
 21
206.9772605992
 31
0.0
 11
92.4017812021
 21
207.0334935992
 31
0.0
 11
92.3946044909
 21
207.0896041353
 31
0.0
 11
92.3880863505
 21
207.145581695
 31
0.0
 11
92.382220728
 21
207.2014159783
 31
0.0
 11
92.377001388
 21
207.2570969013
 31
0.0
 11
92.3724219203
 21
207.3126145989
 31
0.0
 11
92.368475748
 21
207.3679594272
 31
0.0
 11
92.365156135
 21
207.4231219664
 31
0.0
 11
92.362456194
 21
207.4780930222
 31
0.0
 11
92.360368894
 21
207.5328636283
 31
0.0
 11
92.3588870684
 21
207.5874250472
 31
0.0
 11
92.3580034225
 21
207.641768772
 31
0.0
 11
92.3577105408
 21
207.6958865268
 31
0.0
  0
LINE
  5
267
100
AcDbEntity
  8
0
100
AcDbLine
 62
7
  6
CONTINUOUS
 10
97.1356510956
 20
202.7008200004
 11
119.6521224298
 21
201.6998333057
  0
SPLINE
  5
268
100
AcDbEntity
  8
0
100
AcDbSpline
 62
7
  6
CONTINUOUS
 70
4
 71
3
 72
8
 73
4
 74
129
 42
0.0000001
 43
0.0000001
 44
0.0000000001
 12
1.3810889137
 22
-0.061397348
 32
0.0
 13
-0.0
 23
-1.3824529728
 33
0.0
 40
0.0
 40
0.0
 40
0.0
 40
0.0
 40
1.0
 40
1.0
 40
1.0
 40
1.0
 10
119.6521224298
 20
201.6998333057
 30
0.0
 41
1.0
 10
120.2169211299
 20
201.674724754
 30
0.0
 41
0.8150921225
 10
120.6077105408
 20
201.2661765348
 30
0.0
 41
0.8150921225
 10
120.6077105408
 20
200.7008200004
 30
0.0
 41
1.0
 11
119.6521224298
 21
201.6998333057
 31
0.0
 11
119.6629326997
 21
201.6992940928
 31
0.0
 11
119.6737828717
 21
201.6986348365
 31
0.0
 11
119.6846712262
 21
201.6978541287
 31
0.0
 11
119.6955959989
 21
201.6969505874
 31
0.0
 11
119.7065553802
 21
201.6959228583
 31
0.0
 11
119.7175475163
 21
201.6947696162
 31
0.0
 11
119.7285705089
 21
201.6934895668
 31
0.0
 11
119.739622416
 21
201.6920814478
 31
0.0
 11
119.7507012525
 21
201.6905440308
 31
0.0
 11
119.7618049902
 21
201.6888761226
 31
0.0
 11
119.772931559
 21
201.687076567
 31
0.0
 11
119.7840788471
 21
201.685144246
 31
0.0
 11
119.7952447022
 21
201.6830780817
 31
0.0
 11
119.8064269316
 21
201.6808770375
 31
0.0
 11
119.8176233036
 21
201.6785401199
 31
0.0
 11
119.8288315482
 21
201.6760663796
 31
0.0
 11
119.8400493581
 21
201.6734549134
 31
0.0
 11
119.8512743895
 21
201.6707048655
 31
0.0
 11
119.8625042637
 21
201.6678154289
 31
0.0
 11
119.8737365676
 21
201.6647858468
 31
0.0
 11
119.8849688552
 21
201.6616154142
 31
0.0
 11
119.896198649
 21
201.6583034788
 31
0.0
 11
119.9074234412
 21
201.654849443
 31
0.0
 11
119.9186406949
 21
201.6512527646
 31
0.0
 11
119.9298478458
 21
201.6475129584
 31
0.0
 11
119.9410423035
 21
201.6436295973
 31
0.0
 11
119.9522214533
 21
201.6396023134
 31
0.0
 11
119.9633826574
 21
201.6354307993
 31
0.0
 11
119.9745232571
 21
201.6311148091
 31
0.0
 11
119.9856405738
 21
201.6266541595
 31
0.0
 11
119.9967319116
 21
201.6220487304
 31
0.0
 11
120.0077945584
 21
201.6172984665
 31
0.0
 11
120.0188257881
 21
201.6124033775
 31
0.0
 11
120.0298228623
 21
201.6073635393
 31
0.0
 11
120.0407830326
 21
201.6021790947
 31
0.0
 11
120.0517035421
 21
201.5968502537
 31
0.0
 11
120.0625816277
 21
201.5913772946
 31
0.0
 11
120.0734145222
 21
201.5857605643
 31
0.0
 11
120.0841994563
 21
201.5800004787
 31
0.0
 11
120.0949336604
 21
201.5740975232
 31
0.0
 11
120.1056143672
 21
201.5680522528
 31
0.0
 11
120.1162388138
 21
201.5618652928
 31
0.0
 11
120.1268042435
 21
201.5555373383
 31
0.0
 11
120.1373079084
 21
201.5490691549
 31
0.0
 11
120.1477470714
 21
201.5424615783
 31
0.0
 11
120.1581190083
 21
201.5357155141
 31
0.0
 11
120.1684210104
 21
201.5288319383
 31
0.0
 11
120.1786503863
 21
201.5218118961
 31
0.0
 11
120.1888044643
 21
201.5146565024
 31
0.0
 11
120.1988805948
 21
201.5073669409
 31
0.0
 11
120.2088761521
 21
201.4999444637
 31
0.0
 11
120.2187885368
 21
201.4923903907
 31
0.0
 11
120.2286151781
 21
201.4847061091
 31
0.0
 11
120.2383535358
 21
201.4768930722
 31
0.0
 11
120.2480011024
 21
201.4689527993
 31
0.0
 11
120.2575554052
 21
201.4608868739
 31
0.0
 11
120.2670140086
 21
201.4526969433
 31
0.0
 11
120.2763745158
 21
201.4443847175
 31
0.0
 11
120.2856345711
 21
201.4359519676
 31
0.0
 11
120.2947918614
 21
201.427400525
 31
0.0
 11
120.3038441189
 21
201.4187322801
 31
0.0
 11
120.3127891221
 21
201.4099491805
 31
0.0
 11
120.3216246982
 21
201.40105323
 31
0.0
 11
120.3303487245
 21
201.3920464868
 31
0.0
 11
120.3389591303
 21
201.382931062
 31
0.0
 11
120.3474538986
 21
201.373709118
 31
0.0
 11
120.3558310675
 21
201.3643828667
 31
0.0
 11
120.3640887316
 21
201.3549545679
 31
0.0
 11
120.3722250439
 21
201.3454265273
 31
0.0
 11
120.3802382167
 21
201.3358010945
 31
0.0
 11
120.3881265231
 21
201.3260806616
 31
0.0
 11
120.3958882983
 21
201.3162676607
 31
0.0
 11
120.4035219404
 21
201.3063645621
 31
0.0
 11
120.4110259121
 21
201.2963738722
 31
0.0
 11
120.418398741
 21
201.2862981315
 31
0.0
 11
120.4256390209
 21
201.2761399126
 31
0.0
 11
120.4327454126
 21
201.2659018178
 31
0.0
 11
120.4397166445
 21
201.2555864768
 31
0.0
 11
120.4465515134
 21
201.2451965452
 31
0.0
 11
120.4532488852
 21
201.2347347016
 31
0.0
 11
120.4598076948
 21
201.2242036457
 31
0.0
 11
120.4662269473
 21
201.2136060959
 31
0.0
 11
120.4725057178
 21
201.2029447875
 31
0.0
 11
120.4786431519
 21
201.1922224698
 31
0.0
 11
120.4846384655
 21
201.1814419046
 31
0.0
 11
120.4904909455
 21
201.1706058633
 31
0.0
 11
120.4961999492
 21
201.1597171252
 31
0.0
 11
120.5017649043
 21
201.1487784751
 31
0.0
 11
120.5071853092
 21
201.1377927009
 31
0.0
 11
120.512460732
 21
201.1267625921
 31
0.0
 11
120.517590811
 21
201.1156909367
 31
0.0
 11
120.5225752536
 21
201.10458052
 31
0.0
 11
120.5274138362
 21
201.0934341218
 31
0.0
 11
120.5321064036
 21
201.0822545149
 31
0.0
 11
120.5366528681
 21
201.0710444627
 31
0.0
 11
120.5410532094
 21
201.0598067173
 31
0.0
 11
120.5453074732
 21
201.0485440178
 31
0.0
 11
120.5494157709
 21
201.037259088
 31
0.0
 11
120.5533782782
 21
201.0259546347
 31
0.0
 11
120.5571952347
 21
201.0146333461
 31
0.0
 11
120.5608669426
 21
201.0032978899
 31
0.0
 11
120.5643937656
 21
200.9919509112
 31
0.0
 11
120.5677761281
 21
200.9805950316
 31
0.0
 11
120.5710145135
 21
200.9692328469
 31
0.0
 11
120.5741094636
 21
200.9578669259
 31
0.0
 11
120.5770615771
 21
200.946499809
 31
0.0
 11
120.5798715082
 21
200.9351340062
 31
0.0
 11
120.5825399656
 21
200.9237719965
 31
0.0
 11
120.5850677105
 21
200.9124162261
 31
0.0
 11
120.5874555562
 21
200.901069107
 31
0.0
 11
120.5897043658
 21
200.8897330164
 31
0.0
 11
120.5918150511
 21
200.8784102949
 31
0.0
 11
120.5937885713
 21
200.8671032459
 31
0.0
 11
120.5956259311
 21
200.8558141344
 31
0.0
 11
120.5973281796
 21
200.8445451859
 31
0.0
 11
120.5988964085
 21
200.8332985859
 31
0.0
 11
120.6003317507
 21
200.8220764787
 31
0.0
 11
120.6016353788
 21
200.8108809668
 31
0.0
 11
120.6028085033
 21
200.7997141101
 31
0.0
 11
120.6038523713
 21
200.7885779255
 31
0.0
 11
120.6047682649
 21
200.777474386
 31
0.0
 11
120.6055574993
 21
200.7664054203
 31
0.0
 11
120.6062214219
 21
200.7553729125
 31
0.0
 11
120.6067614101
 21
200.7443787013
 31
0.0
 11
120.6071788701
 21
200.7334245801
 31
0.0
 11
120.6074752352
 21
200.7225122963
 31
0.0
 11
120.6076519644
 21
200.7116435514
 31
0.0
 11
120.6077105408
 21
200.7008200004
 31
0.0
  0
LINE
  5
269
100
AcDbEntity
  8
0
100
AcDbLine
 62
7
  6
CONTINUOUS
 10
120.6077105408
 20
200.7008200004
 11
120.6077105408
 21
195.2008200004
  0
LINE
  5
26A
100
AcDbEntity
  8
0
100
AcDbLine
 62
7
  6
CONTINUOUS
 10
59.1077105408
 20
170.2008200004
 11
120.6077105408
 21
170.2008200004
  0
LINE
  5
26B
100
AcDbEntity
  8
0
100
AcDbLine
 62
7
  6
CONTINUOUS
 10
120.6077105408
 20
170.2008200004
 11
120.6077105408
 21
164.7008200004
  0
SPLINE
  5
26C
100
AcDbEntity
  8
0
100
AcDbSpline
 62
7
  6
CONTINUOUS
 70
4
 71
3
 72
8
 73
4
 74
129
 42
0.0000001
 43
0.0000001
 44
0.0000000001
 12
1.3810889137
 22
0.061397348
 32
0.0
 13
-0.0
 23
1.3824529728
 33
0.0
 40
0.0
 40
0.0
 40
0.0
 40
0.0
 40
1.0
 40
1.0
 40
1.0
 40
1.0
 10
119.6521224298
 20
163.7018066951
 30
0.0
 41
1.0
 10
120.2169211299
 20
163.7269152468
 30
0.0
 41
0.8150921225
 10
120.6077105408
 20
164.135463466
 30
0.0
 41
0.8150921225
 10
120.6077105408
 20
164.7008200004
 30
0.0
 41
1.0
 11
119.6521224298
 21
163.7018066951
 31
0.0
 11
119.6629326997
 21
163.702345908
 31
0.0
 11
119.6737828717
 21
163.7030051643
 31
0.0
 11
119.6846712262
 21
163.7037858722
 31
0.0
 11
119.6955959989
 21
163.7046894135
 31
0.0
 11
119.7065553802
 21
163.7057171426
 31
0.0
 11
119.7175475163
 21
163.7068703846
 31
0.0
 11
119.7285705089
 21
163.708150434
 31
0.0
 11
119.739622416
 21
163.709558553
 31
0.0
 11
119.7507012525
 21
163.71109597
 31
0.0
 11
119.7618049902
 21
163.7127638782
 31
0.0
 11
119.772931559
 21
163.7145634338
 31
0.0
 11
119.7840788471
 21
163.7164957548
 31
0.0
 11
119.7952447022
 21
163.7185619191
 31
0.0
 11
119.8064269316
 21
163.7207629633
 31
0.0
 11
119.8176233036
 21
163.7230998809
 31
0.0
 11
119.8288315482
 21
163.7255736212
 31
0.0
 11
119.8400493581
 21
163.7281850874
 31
0.0
 11
119.8512743895
 21
163.7309351353
 31
0.0
 11
119.8625042637
 21
163.7338245719
 31
0.0
 11
119.8737365676
 21
163.736854154
 31
0.0
 11
119.8849688552
 21
163.7400245867
 31
0.0
 11
119.896198649
 21
163.743336522
 31
0.0
 11
119.9074234412
 21
163.7467905578
 31
0.0
 11
119.9186406949
 21
163.7503872362
 31
0.0
 11
119.9298478458
 21
163.7541270424
 31
0.0
 11
119.9410423035
 21
163.7580104035
 31
0.0
 11
119.9522214533
 21
163.7620376874
 31
0.0
 11
119.9633826574
 21
163.7662092015
 31
0.0
 11
119.9745232571
 21
163.7705251917
 31
0.0
 11
119.9856405738
 21
163.7749858413
 31
0.0
 11
119.9967319116
 21
163.7795912704
 31
0.0
 11
120.0077945584
 21
163.7843415343
 31
0.0
 11
120.0188257881
 21
163.7892366233
 31
0.0
 11
120.0298228623
 21
163.7942764615
 31
0.0
 11
120.0407830326
 21
163.7994609061
 31
0.0
 11
120.0517035421
 21
163.8047897471
 31
0.0
 11
120.0625816277
 21
163.8102627062
 31
0.0
 11
120.0734145222
 21
163.8158794365
 31
0.0
 11
120.0841994563
 21
163.8216395221
 31
0.0
 11
120.0949336604
 21
163.8275424777
 31
0.0
 11
120.1056143672
 21
163.833587748
 31
0.0
 11
120.1162388138
 21
163.839774708
 31
0.0
 11
120.1268042435
 21
163.8461026625
 31
0.0
 11
120.1373079084
 21
163.8525708459
 31
0.0
 11
120.1477470714
 21
163.8591784225
 31
0.0
 11
120.1581190083
 21
163.8659244867
 31
0.0
 11
120.1684210104
 21
163.8728080625
 31
0.0
 11
120.1786503863
 21
163.8798281047
 31
0.0
 11
120.1888044643
 21
163.8869834984
 31
0.0
 11
120.1988805948
 21
163.8942730599
 31
0.0
 11
120.2088761521
 21
163.9016955371
 31
0.0
 11
120.2187885368
 21
163.9092496101
 31
0.0
 11
120.2286151781
 21
163.9169338917
 31
0.0
 11
120.2383535358
 21
163.9247469286
 31
0.0
 11
120.2480011024
 21
163.9326872015
 31
0.0
 11
120.2575554052
 21
163.9407531269
 31
0.0
 11
120.2670140086
 21
163.9489430575
 31
0.0
 11
120.2763745158
 21
163.9572552833
 31
0.0
 11
120.2856345711
 21
163.9656880332
 31
0.0
 11
120.2947918614
 21
163.9742394758
 31
0.0
 11
120.3038441189
 21
163.9829077207
 31
0.0
 11
120.3127891221
 21
163.9916908203
 31
0.0
 11
120.3216246982
 21
164.0005867708
 31
0.0
 11
120.3303487245
 21
164.009593514
 31
0.0
 11
120.3389591303
 21
164.0187089388
 31
0.0
 11
120.3474538986
 21
164.0279308828
 31
0.0
 11
120.3558310675
 21
164.0372571341
 31
0.0
 11
120.3640887316
 21
164.0466854329
 31
0.0
 11
120.3722250439
 21
164.0562134735
 31
0.0
 11
120.3802382167
 21
164.0658389063
 31
0.0
 11
120.3881265231
 21
164.0755593392
 31
0.0
 11
120.3958882983
 21
164.0853723401
 31
0.0
 11
120.4035219404
 21
164.0952754388
 31
0.0
 11
120.4110259121
 21
164.1052661287
 31
0.0
 11
120.418398741
 21
164.1153418693
 31
0.0
 11
120.4256390209
 21
164.1255000882
 31
0.0
 11
120.4327454126
 21
164.1357381831
 31
0.0
 11
120.4397166445
 21
164.146053524
 31
0.0
 11
120.4465515134
 21
164.1564434556
 31
0.0
 11
120.4532488852
 21
164.1669052992
 31
0.0
 11
120.4598076948
 21
164.1774363551
 31
0.0
 11
120.4662269473
 21
164.1880339049
 31
0.0
 11
120.4725057178
 21
164.1986952133
 31
0.0
 11
120.4786431519
 21
164.209417531
 31
0.0
 11
120.4846384655
 21
164.2201980962
 31
0.0
 11
120.4904909455
 21
164.2310341375
 31
0.0
 11
120.4961999492
 21
164.2419228756
 31
0.0
 11
120.5017649043
 21
164.2528615257
 31
0.0
 11
120.5071853092
 21
164.2638472999
 31
0.0
 11
120.512460732
 21
164.2748774087
 31
0.0
 11
120.517590811
 21
164.2859490641
 31
0.0
 11
120.5225752536
 21
164.2970594808
 31
0.0
 11
120.5274138362
 21
164.308205879
 31
0.0
 11
120.5321064036
 21
164.3193854859
 31
0.0
 11
120.5366528681
 21
164.3305955381
 31
0.0
 11
120.5410532094
 21
164.3418332835
 31
0.0
 11
120.5453074732
 21
164.353095983
 31
0.0
 11
120.5494157709
 21
164.3643809129
 31
0.0
 11
120.5533782782
 21
164.3756853661
 31
0.0
 11
120.5571952347
 21
164.3870066547
 31
0.0
 11
120.5608669426
 21
164.3983421109
 31
0.0
 11
120.5643937656
 21
164.4096890896
 31
0.0
 11
120.5677761281
 21
164.4210449692
 31
0.0
 11
120.5710145135
 21
164.4324071539
 31
0.0
 11
120.5741094636
 21
164.4437730749
 31
0.0
 11
120.5770615771
 21
164.4551401918
 31
0.0
 11
120.5798715082
 21
164.4665059946
 31
0.0
 11
120.5825399656
 21
164.4778680043
 31
0.0
 11
120.5850677105
 21
164.4892237748
 31
0.0
 11
120.5874555562
 21
164.5005708938
 31
0.0
 11
120.5897043658
 21
164.5119069844
 31
0.0
 11
120.5918150511
 21
164.5232297059
 31
0.0
 11
120.5937885713
 21
164.5345367549
 31
0.0
 11
120.5956259311
 21
164.5458258664
 31
0.0
 11
120.5973281796
 21
164.5570948149
 31
0.0
 11
120.5988964085
 21
164.5683414149
 31
0.0
 11
120.6003317507
 21
164.5795635221
 31
0.0
 11
120.6016353788
 21
164.590759034
 31
0.0
 11
120.6028085033
 21
164.6019258907
 31
0.0
 11
120.6038523713
 21
164.6130620753
 31
0.0
 11
120.6047682649
 21
164.6241656148
 31
0.0
 11
120.6055574993
 21
164.6352345805
 31
0.0
 11
120.6062214219
 21
164.6462670883
 31
0.0
 11
120.6067614101
 21
164.6572612995
 31
0.0
 11
120.6071788701
 21
164.6682154207
 31
0.0
 11
120.6074752352
 21
164.6791277045
 31
0.0
 11
120.6076519644
 21
164.6899964494
 31
0.0
 11
120.6077105408
 21
164.7008200004
 31
0.0
  0
LINE
  5
26D
100
AcDbEntity
  8
0
100
AcDbLine
 62
7
  6
CONTINUOUS
 10
97.1356510956
 20
162.7008200004
 11
119.6521224298
 21
163.7018066951
  0
SPLINE
  5
26E
100
AcDbEntity
  8
0
100
AcDbSpline
 62
7
  6
CONTINUOUS
 70
4
 71
3
 72
8
 73
4
 74
129
 42
0.0000001
 43
0.0000001
 44
0.0000000001
 12
-6.9054445686
 22
-0.3069867401
 32
0.0
 13
0.0
 23
-6.9122648639
 33
0.0
 40
0.0
 40
0.0
 40
0.0
 40
0.0
 40
1.0
 40
1.0
 40
1.0
 40
1.0
 10
97.1356510956
 20
162.7008200004
 30
0.0
 41
1.0
 10
94.311657595
 20
162.575277242
 30
0.0
 41
0.8150921225
 10
92.3577105408
 20
160.5325361462
 30
0.0
 41
0.8150921225
 10
92.3577105408
 20
157.705753474
 30
0.0
 41
1.0
 11
97.1356510956
 21
162.7008200004
 31
0.0
 11
97.0815997459
 21
162.698123936
 31
0.0
 11
97.0273488862
 21
162.6948276544
 31
0.0
 11
96.9729071135
 21
162.6909241153
 31
0.0
 11
96.9182832502
 21
162.6864064088
 31
0.0
 11
96.8634863435
 21
162.6812677633
 31
0.0
 11
96.8085256632
 21
162.6755015532
 31
0.0
 11
96.7534107003
 21
162.6691013062
 31
0.0
 11
96.6981511645
 21
162.6620607112
 31
0.0
 11
96.6427569823
 21
162.6543736261
 31
0.0
 11
96.5872382937
 21
162.6460340852
 31
0.0
 11
96.5316054498
 21
162.637036307
 31
0.0
 11
96.4758690089
 21
162.6273747021
 31
0.0
 11
96.4200397337
 21
162.6170438806
 31
0.0
 11
96.3641285868
 21
162.6060386597
 31
0.0
 11
96.3081467268
 21
162.5943540714
 31
0.0
 11
96.2521055038
 21
162.5819853699
 31
0.0
 11
96.1960164543
 21
162.568928039
 31
0.0
 11
96.1398912969
 21
162.5551777996
 31
0.0
 11
96.0837419261
 21
162.5407306166
 31
0.0
 11
96.0275804068
 21
162.5255827062
 31
0.0
 11
95.9714189687
 21
162.5097305428
 31
0.0
 11
95.9152699995
 21
162.493170866
 31
0.0
 11
95.8591460386
 21
162.475900687
 31
0.0
 11
95.8030597702
 21
162.457917295
 31
0.0
 11
95.7470240158
 21
162.439218264
 31
0.0
 11
95.6910517271
 21
162.4198014584
 31
0.0
 11
95.6351559783
 21
162.399665039
 31
0.0
 11
95.5793499576
 21
162.3788074686
 31
0.0
 11
95.5236469594
 21
162.3572275178
 31
0.0
 11
95.4680603755
 21
162.3349242694
 31
0.0
 11
95.4126036865
 21
162.3118971241
 31
0.0
 11
95.3572904525
 21
162.2881458045
 31
0.0
 11
95.3021343042
 21
162.2636703596
 31
0.0
 11
95.2471489331
 21
162.2384711688
 31
0.0
 11
95.1923480817
 21
162.2125489454
 31
0.0
 11
95.1377455343
 21
162.1859047405
 31
0.0
 11
95.0833551061
 21
162.1585399451
 31
0.0
 11
95.0291906334
 21
162.1304562936
 31
0.0
 11
94.9752659633
 21
162.1016558655
 31
0.0
 11
94.9215949429
 21
162.0721410878
 31
0.0
 11
94.8681914086
 21
162.0419147361
 31
0.0
 11
94.8150691756
 21
162.0109799359
 31
0.0
 11
94.7622420269
 21
161.9793401637
 31
0.0
 11
94.7097237024
 21
161.9469992467
 31
0.0
 11
94.6575278876
 21
161.9139613633
 31
0.0
 11
94.605668203
 21
161.8802310427
 31
0.0
 11
94.5541581926
 21
161.8458131633
 31
0.0
 11
94.5030113132
 21
161.8107129525
 31
0.0
 11
94.452240923
 21
161.7749359841
 31
0.0
 11
94.4018602706
 21
161.7384881765
 31
0.0
 11
94.3518824844
 21
161.7013757904
 31
0.0
 11
94.3023205608
 21
161.6636054255
 31
0.0
 11
94.2531873541
 21
161.6251840173
 31
0.0
 11
94.2044955657
 21
161.5861188332
 31
0.0
 11
94.1562577327
 21
161.5464174684
 31
0.0
 11
94.1084862185
 21
161.5060878414
 31
0.0
 11
94.0611932015
 21
161.4651381886
 31
0.0
 11
94.0143906655
 21
161.4235770593
 31
0.0
 11
93.9680903893
 21
161.3814133099
 31
0.0
 11
93.9223039374
 21
161.3386560972
 31
0.0
 11
93.87704265
 21
161.2953148726
 31
0.0
 11
93.832317634
 21
161.2513993747
 31
0.0
 11
93.7881397538
 21
161.2069196221
 31
0.0
 11
93.7445196223
 21
161.161885906
 31
0.0
 11
93.7014675932
 21
161.1163087819
 31
0.0
 11
93.6589937516
 21
161.0701990619
 31
0.0
 11
93.6171079073
 21
161.0235678056
 31
0.0
 11
93.5758195866
 21
160.9764263116
 31
0.0
 11
93.5351380251
 21
160.9287861084
 31
0.0
 11
93.4950721611
 21
160.8806589447
 31
0.0
 11
93.455630629
 21
160.8320567802
 31
0.0
 11
93.4168217532
 21
160.7829917756
 31
0.0
 11
93.3786535424
 21
160.7334762823
 31
0.0
 11
93.341133684
 21
160.6835228328
 31
0.0
 11
93.3042695397
 21
160.6331441296
 31
0.0
 11
93.2680681402
 21
160.5823530352
 31
0.0
 11
93.2325361817
 21
160.5311625608
 31
0.0
 11
93.1976800221
 21
160.4795858562
 31
0.0
 11
93.1635056774
 21
160.4276361982
 31
0.0
 11
93.1300188188
 21
160.3753269801
 31
0.0
 11
93.0972247707
 21
160.3226717004
 31
0.0
 11
93.0651285082
 21
160.2696839516
 31
0.0
 11
93.0337346556
 21
160.2163774094
 31
0.0
 11
93.0030474853
 21
160.1627658211
 31
0.0
 11
92.973070917
 21
160.1088629949
 31
0.0
 11
92.943808517
 21
160.0546827885
 31
0.0
 11
92.9152634987
 21
160.000239098
 31
0.0
 11
92.887438723
 21
159.9455458473
 31
0.0
 11
92.8603366988
 21
159.8906169768
 31
0.0
 11
92.8339595844
 21
159.8354664324
 31
0.0
 11
92.8083091895
 21
159.7801081556
 31
0.0
 11
92.7833869764
 21
159.7245560718
 31
0.0
 11
92.7591940634
 21
159.668824081
 31
0.0
 11
92.7357312268
 21
159.6129260464
 31
0.0
 11
92.712998904
 21
159.5568757854
 31
0.0
 11
92.6909971976
 21
159.5006870586
 31
0.0
 11
92.6697258785
 21
159.444373561
 31
0.0
 11
92.6491843903
 21
159.3879489118
 31
0.0
 11
92.6293718537
 21
159.3314266455
 31
0.0
 11
92.610287071
 21
159.2748202027
 31
0.0
 11
92.5919285316
 21
159.2181429214
 31
0.0
 11
92.5742944164
 21
159.1614080282
 31
0.0
 11
92.5573826043
 21
159.1046286301
 31
0.0
 11
92.5411906772
 21
159.0478177066
 31
0.0
 11
92.5257159266
 21
158.9909881018
 31
0.0
 11
92.510955359
 21
158.9341525168
 31
0.0
 11
92.4969057034
 21
158.877323503
 31
0.0
 11
92.4835634168
 21
158.8205134546
 31
0.0
 11
92.4709246919
 21
158.7637346023
 31
0.0
 11
92.4589854635
 21
158.706999007
 31
0.0
 11
92.4477414156
 21
158.6503185539
 31
0.0
 11
92.437187989
 21
158.5937049465
 31
0.0
 11
92.4273203882
 21
158.5371697016
 31
0.0
 11
92.4181335892
 21
158.480724144
 31
0.0
 11
92.4096223467
 21
158.4243794017
 31
0.0
 11
92.4017812021
 21
158.3681464016
 31
0.0
 11
92.3946044909
 21
158.3120358655
 31
0.0
 11
92.3880863505
 21
158.2560583059
 31
0.0
 11
92.382220728
 21
158.2002240225
 31
0.0
 11
92.377001388
 21
158.1445430995
 31
0.0
 11
92.3724219203
 21
158.0890254019
 31
0.0
 11
92.368475748
 21
158.0336805736
 31
0.0
 11
92.365156135
 21
157.9785180344
 31
0.0
 11
92.362456194
 21
157.9235469786
 31
0.0
 11
92.360368894
 21
157.8687763725
 31
0.0
 11
92.3588870684
 21
157.8142149536
 31
0.0
 11
92.3580034225
 21
157.7598712288
 31
0.0
 11
92.3577105408
 21
157.705753474
 31
0.0
  0
LINE
  5
26F
100
AcDbEntity
  8
0
100
AcDbLine
 62
7
  6
CONTINUOUS
 10
92.3577105408
 20
157.705753474
 11
92.3577105408
 21
131.4508200004
  0
SPLINE
  5
270
100
AcDbEntity
  8
0
100
AcDbSpline
 62
7
  6
CONTINUOUS
 70
4
 71
3
 72
8
 73
4
 74
255
 42
0.0000001
 43
0.0000001
 44
0.0000000001
 12
0.0
 22
-7.0710678119
 32
0.0
 13
7.0710678119
 23
-0.0
 33
0.0
 40
0.0
 40
0.0
 40
0.0
 40
0.0
 40
1.0
 40
1.0
 40
1.0
 40
1.0
 10
92.3577105408
 20
131.4508200004
 30
0.0
 41
1.0
 10
92.3577105408
 20
128.5218878123
 30
0.0
 41
0.8047378541
 10
94.4287783526
 20
126.4508200004
 30
0.0
 41
0.8047378541
 10
97.3577105408
 20
126.4508200004
 30
0.0
 41
1.0
 11
92.3577105408
 21
131.4508200004
 31
0.0
 11
92.3580171086
 21
131.3954522827
 31
0.0
 11
92.3584018765
 21
131.3676762754
 31
0.0
 11
92.3589423423
 21
131.3398402816
 31
0.0
 11
92.3596395282
 21
131.3119454059
 31
0.0
 11
92.3604944483
 21
131.2839927694
 31
0.0
 11
92.3615081087
 21
131.2559835094
 31
0.0
 11
92.3626815072
 21
131.2279187797
 31
0.0
 11
92.3640156328
 21
131.19979975
 31
0.0
 11
92.3655114655
 21
131.1716276065
 31
0.0
 11
92.3671699762
 21
131.1434035515
 31
0.0
 11
92.3689921262
 21
131.1151288035
 31
0.0
 11
92.370978867
 21
131.0868045968
 31
0.0
 11
92.3731311402
 21
131.0584321822
 31
0.0
 11
92.375449877
 21
131.0300128261
 31
0.0
 11
92.3779359977
 21
131.0015478109
 31
0.0
 11
92.3805904121
 21
130.9730384349
 31
0.0
 11
92.3834140184
 21
130.9444860121
 31
0.0
 11
92.3864077037
 21
130.9158918722
 31
0.0
 11
92.3895723431
 21
130.8872573605
 31
0.0
 11
92.3929087998
 21
130.8585838377
 31
0.0
 11
92.3964179244
 21
130.8298726801
 31
0.0
 11
92.4001005552
 21
130.8011252792
 31
0.0
 11
92.4039575174
 21
130.7723430415
 31
0.0
 11
92.4079896232
 21
130.7435273889
 31
0.0
 11
92.4121976711
 21
130.7146797582
 31
0.0
 11
92.4165824461
 21
130.6858016007
 31
0.0
 11
92.4211447189
 21
130.6568943828
 31
0.0
 11
92.4258852461
 21
130.6279595852
 31
0.0
 11
92.4308047696
 21
130.5989987033
 31
0.0
 11
92.4359040165
 21
130.5700132465
 31
0.0
 11
92.4411836987
 21
130.5410047383
 31
0.0
 11
92.4466445126
 21
130.5119747165
 31
0.0
 11
92.4522871391
 21
130.4829247323
 31
0.0
 11
92.4581122428
 21
130.4538563508
 31
0.0
 11
92.4641204724
 21
130.4247711504
 31
0.0
 11
92.4703124598
 21
130.3956707227
 31
0.0
 11
92.4766888203
 21
130.3665566726
 31
0.0
 11
92.4832501519
 21
130.3374306177
 31
0.0
 11
92.4899970356
 21
130.3082941884
 31
0.0
 11
92.4969300344
 21
130.2791490273
 31
0.0
 11
92.5040496939
 21
130.2499967897
 31
0.0
 11
92.5113565412
 21
130.2208391425
 31
0.0
 11
92.5188510853
 21
130.1916777647
 31
0.0
 11
92.5265338163
 21
130.1625143467
 31
0.0
 11
92.5344052058
 21
130.1333505906
 31
0.0
 11
92.542465706
 21
130.1041882091
 31
0.0
 11
92.5507157498
 21
130.0750289262
 31
0.0
 11
92.5591557506
 21
130.0458744762
 31
0.0
 11
92.5677861018
 21
130.0167266041
 31
0.0
 11
92.5766071769
 21
129.9875870647
 31
0.0
 11
92.585619329
 21
129.9584576227
 31
0.0
 11
92.5948228906
 21
129.9293400524
 31
0.0
 11
92.6042181737
 21
129.9002361373
 31
0.0
 11
92.6138054691
 21
129.8711476701
 31
0.0
 11
92.6235850466
 21
129.8420764518
 31
0.0
 11
92.6335571543
 21
129.8130242923
 31
0.0
 11
92.6437220192
 21
129.7839930092
 31
0.0
 11
92.6540798461
 21
129.754984428
 31
0.0
 11
92.6646308181
 21
129.7260003819
 31
0.0
 11
92.6753750958
 21
129.697042711
 31
0.0
 11
92.6863128178
 21
129.6681132623
 31
0.0
 11
92.6974441
 21
129.6392138896
 31
0.0
 11
92.7087690355
 21
129.6103464526
 31
0.0
 11
92.7202876946
 21
129.581512817
 31
0.0
 11
92.7320001248
 21
129.5527148539
 31
0.0
 11
92.7439063499
 21
129.5239544398
 31
0.0
 11
92.7560063709
 21
129.495233456
 31
0.0
 11
92.7683001648
 21
129.4665537881
 31
0.0
 11
92.7807876854
 21
129.4379173261
 31
0.0
 11
92.7934688625
 21
129.4093259636
 31
0.0
 11
92.806343602
 21
129.3807815977
 31
0.0
 11
92.8194117859
 21
129.3522861286
 31
0.0
 11
92.8326732719
 21
129.323841459
 31
0.0
 11
92.8461278938
 21
129.2954494941
 31
0.0
 11
92.8597754607
 21
129.267112141
 31
0.0
 11
92.8736157574
 21
129.2388313084
 31
0.0
 11
92.8876485442
 21
129.2106089061
 31
0.0
 11
92.901873557
 21
129.1824468446
 31
0.0
 11
92.9162905066
 21
129.1543470351
 31
0.0
 11
92.9308990795
 21
129.1263113886
 31
0.0
 11
92.9456989371
 21
129.0983418158
 31
0.0
 11
92.9606897161
 21
129.0704402266
 31
0.0
 11
92.9758710283
 21
129.0426085298
 31
0.0
 11
92.9912424606
 21
129.0148486326
 31
0.0
 11
93.0068035748
 21
128.9871624402
 31
0.0
 11
93.022553908
 21
128.9595518556
 31
0.0
 11
93.038492972
 21
128.9320187788
 31
0.0
 11
93.0546202539
 21
128.9045651069
 31
0.0
 11
93.0709352155
 21
128.8771927332
 31
0.0
 11
93.0874372938
 21
128.8499035473
 31
0.0
 11
93.1041259009
 21
128.822699434
 31
0.0
 11
93.1210004238
 21
128.7955822738
 31
0.0
 11
93.1380602247
 21
128.7685539416
 31
0.0
 11
93.1553046408
 21
128.7416163071
 31
0.0
 11
93.1727329847
 21
128.7147712335
 31
0.0
 11
93.1903445439
 21
128.688020578
 31
0.0
 11
93.2081385816
 21
128.6613661908
 31
0.0
 11
93.2261143361
 21
128.6348099149
 31
0.0
 11
93.2442710212
 21
128.6083535856
 31
0.0
 11
93.2626078263
 21
128.5819990304
 31
0.0
 11
93.2811239164
 21
128.555748068
 31
0.0
 11
93.2998184321
 21
128.5296025086
 31
0.0
 11
93.3186904902
 21
128.5035641528
 31
0.0
 11
93.3377391832
 21
128.4776347919
 31
0.0
 11
93.3569635797
 21
128.4518162069
 31
0.0
 11
93.3763627247
 21
128.4261101685
 31
0.0
 11
93.3959356393
 21
128.4005184366
 31
0.0
 11
93.4156813216
 21
128.3750427596
 31
0.0
 11
93.4355987458
 21
128.3496848747
 31
0.0
 11
93.4556868635
 21
128.3244465068
 31
0.0
 11
93.4759446029
 21
128.2993293684
 31
0.0
 11
93.4963708697
 21
128.2743351595
 31
0.0
 11
93.5169645469
 21
128.2494655667
 31
0.0
 11
93.537724495
 21
128.2247222631
 31
0.0
 11
93.5586495526
 21
128.2001069082
 31
0.0
 11
93.5797385359
 21
128.1756211469
 31
0.0
 11
93.6009902397
 21
128.1512666095
 31
0.0
 11
93.622403437
 21
128.1270449117
 31
0.0
 11
93.6439768796
 21
128.1029576534
 31
0.0
 11
93.6657092984
 21
128.0790064192
 31
0.0
 11
93.6875994032
 21
128.0551927774
 31
0.0
 11
93.7096458833
 21
128.0315182801
 31
0.0
 11
93.7318474077
 21
128.0079844626
 31
0.0
 11
93.7542026256
 21
127.9845928432
 31
0.0
 11
93.7767101661
 21
127.9613449228
 31
0.0
 11
93.799368639
 21
127.9382421849
 31
0.0
 11
93.8221766348
 21
127.9152860945
 31
0.0
 11
93.8451327252
 21
127.8924780987
 31
0.0
 11
93.8682354632
 21
127.8698196258
 31
0.0
 11
93.8914833835
 21
127.8473120853
 31
0.0
 11
93.9148750029
 21
127.8249568674
 31
0.0
 11
93.9384088204
 21
127.8027553429
 31
0.0
 11
93.9620833178
 21
127.7807088628
 31
0.0
 11
93.9858969596
 21
127.758818758
 31
0.0
 11
94.0098481938
 21
127.7370863393
 31
0.0
 11
94.0339354521
 21
127.7155128966
 31
0.0
 11
94.0581571499
 21
127.6940996993
 31
0.0
 11
94.0825116872
 21
127.6728479955
 31
0.0
 11
94.1069974486
 21
127.6517590122
 31
0.0
 11
94.1316128035
 21
127.6308339547
 31
0.0
 11
94.156356107
 21
127.6100740065
 31
0.0
 11
94.1812256998
 21
127.5894803293
 31
0.0
 11
94.2062199088
 21
127.5690540625
 31
0.0
 11
94.2313370471
 21
127.5487963231
 31
0.0
 11
94.2565754151
 21
127.5287082055
 31
0.0
 11
94.2819333
 21
127.5087907812
 31
0.0
 11
94.3074089769
 21
127.489045099
 31
0.0
 11
94.3330007089
 21
127.4694721843
 31
0.0
 11
94.3587067473
 21
127.4500730393
 31
0.0
 11
94.3845253322
 21
127.4308486428
 31
0.0
 11
94.4104546932
 21
127.4117999499
 31
0.0
 11
94.4364930489
 21
127.3929278918
 31
0.0
 11
94.4626386084
 21
127.374233376
 31
0.0
 11
94.4888895708
 21
127.3557172859
 31
0.0
 11
94.515244126
 21
127.3373804809
 31
0.0
 11
94.5417004552
 21
127.3192237958
 31
0.0
 11
94.5682567311
 21
127.3012480413
 31
0.0
 11
94.5949111183
 21
127.2834540036
 31
0.0
 11
94.6216617738
 21
127.2658424443
 31
0.0
 11
94.6485068474
 21
127.2484141005
 31
0.0
 11
94.675444482
 21
127.2311696843
 31
0.0
 11
94.7024728142
 21
127.2141098834
 31
0.0
 11
94.7295899744
 21
127.1972353605
 31
0.0
 11
94.7567940876
 21
127.1805467534
 31
0.0
 11
94.7840832736
 21
127.1640446751
 31
0.0
 11
94.8114556473
 21
127.1477297135
 31
0.0
 11
94.8389093192
 21
127.1316024317
 31
0.0
 11
94.8664423959
 21
127.1156633676
 31
0.0
 11
94.8940529806
 21
127.0999130345
 31
0.0
 11
94.921739173
 21
127.0843519202
 31
0.0
 11
94.9494990702
 21
127.068980488
 31
0.0
 11
94.977330767
 21
127.0537991757
 31
0.0
 11
95.0052323562
 21
127.0388083967
 31
0.0
 11
95.033201929
 21
127.0240085391
 31
0.0
 11
95.0612375755
 21
127.0093999663
 31
0.0
 11
95.089337385
 21
126.9949830166
 31
0.0
 11
95.1174994464
 21
126.9807580039
 31
0.0
 11
95.1457218488
 21
126.966725217
 31
0.0
 11
95.1740026814
 21
126.9528849203
 31
0.0
 11
95.2023400345
 21
126.9392373534
 31
0.0
 11
95.2307319993
 21
126.9257827316
 31
0.0
 11
95.2591766689
 21
126.9125212455
 31
0.0
 11
95.2876721381
 21
126.8994530616
 31
0.0
 11
95.316216504
 21
126.8865783221
 31
0.0
 11
95.3448078665
 21
126.873897145
 31
0.0
 11
95.3734443285
 21
126.8614096245
 31
0.0
 11
95.4021239964
 21
126.8491158305
 31
0.0
 11
95.4308449802
 21
126.8370158096
 31
0.0
 11
95.4596053943
 21
126.8251095844
 31
0.0
 11
95.4884033573
 21
126.8133971543
 31
0.0
 11
95.517236993
 21
126.8018784951
 31
0.0
 11
95.54610443
 21
126.7905535596
 31
0.0
 11
95.5750038027
 21
126.7794222775
 31
0.0
 11
95.6039332513
 21
126.7684845555
 31
0.0
 11
95.6328909222
 21
126.7577402777
 31
0.0
 11
95.6618749684
 21
126.7471893058
 31
0.0
 11
95.6908835495
 21
126.7368314789
 31
0.0
 11
95.7199148326
 21
126.726666614
 31
0.0
 11
95.7489669922
 21
126.7166945062
 31
0.0
 11
95.7780382104
 21
126.7069149288
 31
0.0
 11
95.8071266777
 21
126.6973276334
 31
0.0
 11
95.8362305927
 21
126.6879323503
 31
0.0
 11
95.865348163
 21
126.6787287886
 31
0.0
 11
95.894477605
 21
126.6697166366
 31
0.0
 11
95.9236171445
 21
126.6608955615
 31
0.0
 11
95.9527650166
 21
126.6522652102
 31
0.0
 11
95.9819194665
 21
126.6438252095
 31
0.0
 11
96.0110787495
 21
126.6355751656
 31
0.0
 11
96.0402411309
 21
126.6275146655
 31
0.0
 11
96.0694048871
 21
126.619643276
 31
0.0
 11
96.098568305
 21
126.6119605449
 31
0.0
 11
96.1277296828
 21
126.6044660008
 31
0.0
 11
96.15688733
 21
126.5971591535
 31
0.0
 11
96.1860395677
 21
126.5900394941
 31
0.0
 11
96.2151847287
 21
126.5831064952
 31
0.0
 11
96.2443211581
 21
126.5763596115
 31
0.0
 11
96.273447213
 21
126.5697982799
 31
0.0
 11
96.3025612631
 21
126.5634219194
 31
0.0
 11
96.3316616907
 21
126.557229932
 31
0.0
 11
96.3607468912
 21
126.5512217024
 31
0.0
 11
96.3898152727
 21
126.5453965987
 31
0.0
 11
96.4188652569
 21
126.5397539722
 31
0.0
 11
96.4478952787
 21
126.5342931583
 31
0.0
 11
96.4769037868
 21
126.5290134761
 31
0.0
 11
96.5058892437
 21
126.5239142293
 31
0.0
 11
96.5348501256
 21
126.5189947057
 31
0.0
 11
96.5637849231
 21
126.5142541785
 31
0.0
 11
96.592692141
 21
126.5096919057
 31
0.0
 11
96.6215702985
 21
126.5053071308
 31
0.0
 11
96.6504179293
 21
126.5010990828
 31
0.0
 11
96.6792335819
 21
126.4970669771
 31
0.0
 11
96.7080158195
 21
126.4932100148
 31
0.0
 11
96.7367632205
 21
126.489527384
 31
0.0
 11
96.7654743781
 21
126.4860182594
 31
0.0
 11
96.7941479009
 21
126.4826818028
 31
0.0
 11
96.8227824126
 21
126.4795171634
 31
0.0
 11
96.8513765525
 21
126.4765234781
 31
0.0
 11
96.8799289753
 21
126.4736998717
 31
0.0
 11
96.9084383513
 21
126.4710454573
 31
0.0
 11
96.9369033665
 21
126.4685593366
 31
0.0
 11
96.9653227226
 21
126.4662405999
 31
0.0
 11
96.9936951372
 21
126.4640883267
 31
0.0
 11
97.0220193438
 21
126.4621015858
 31
0.0
 11
97.0502940919
 21
126.4602794358
 31
0.0
 11
97.0785181469
 21
126.4586209251
 31
0.0
 11
97.1066902903
 21
126.4571250924
 31
0.0
 11
97.13480932
 21
126.4557909669
 31
0.0
 11
97.1628740498
 21
126.4546175684
 31
0.0
 11
97.1908833098
 21
126.4536039079
 31
0.0
 11
97.2188359463
 21
126.4527489878
 31
0.0
 11
97.246730822
 21
126.4520518019
 31
0.0
 11
97.2745668158
 21
126.4515113361
 31
0.0
 11
97.3023428231
 21
126.4511265682
 31
0.0
 11
97.3577105408
 21
126.4508200004
 31
0.0
  0
LINE
  5
271
100
AcDbEntity
  8
0
100
AcDbLine
 62
7
  6
CONTINUOUS
 10
97.3577105408
 20
126.4508200004
 11
114.3577105408
 21
126.4508200004
  0
SPLINE
  5
272
100
AcDbEntity
  8
0
100
AcDbSpline
 62
7
  6
CONTINUOUS
 70
4
 71
3
 72
8
 73
4
 74
255
 42
0.0000001
 43
0.0000001
 44
0.0000000001
 12
0.0
 22
7.0710678119
 32
0.0
 13
-7.0710678119
 23
-0.0
 33
0.0
 40
0.0
 40
0.0
 40
0.0
 40
0.0
 40
1.0
 40
1.0
 40
1.0
 40
1.0
 10
119.3577105408
 20
121.4508200004
 30
0.0
 41
1.0
 10
119.3577105408
 20
124.3797521885
 30
0.0
 41
0.8047378541
 10
117.2866427289
 20
126.4508200004
 30
0.0
 41
0.8047378541
 10
114.3577105408
 20
126.4508200004
 30
0.0
 41
1.0
 11
119.3577105408
 21
121.4508200004
 31
0.0
 11
119.357403973
 21
121.5061877181
 31
0.0
 11
119.3570192051
 21
121.5339637254
 31
0.0
 11
119.3564787392
 21
121.5617997192
 31
0.0
 11
119.3557815534
 21
121.5896945949
 31
0.0
 11
119.3549266333
 21
121.6176472314
 31
0.0
 11
119.3539129728
 21
121.6456564914
 31
0.0
 11
119.3527395743
 21
121.6737212211
 31
0.0
 11
119.3514054487
 21
121.7018402508
 31
0.0
 11
119.349909616
 21
121.7300123943
 31
0.0
 11
119.3482511054
 21
121.7582364493
 31
0.0
 11
119.3464289554
 21
121.7865111974
 31
0.0
 11
119.3444422145
 21
121.814835404
 31
0.0
 11
119.3422899413
 21
121.8432078186
 31
0.0
 11
119.3399712046
 21
121.8716271747
 31
0.0
 11
119.3374850838
 21
121.9000921899
 31
0.0
 11
119.3348306695
 21
121.9286015659
 31
0.0
 11
119.3320070631
 21
121.9571539887
 31
0.0
 11
119.3290133778
 21
121.9857481286
 31
0.0
 11
119.3258487384
 21
122.0143826403
 31
0.0
 11
119.3225122818
 21
122.0430561631
 31
0.0
 11
119.3190031572
 21
122.0717673207
 31
0.0
 11
119.3153205264
 21
122.1005147216
 31
0.0
 11
119.3114635641
 21
122.1292969593
 31
0.0
 11
119.3074314583
 21
122.1581126119
 31
0.0
 11
119.3032234104
 21
122.1869602427
 31
0.0
 11
119.2988386355
 21
122.2158384001
 31
0.0
 11
119.2942763626
 21
122.244745618
 31
0.0
 11
119.2895358354
 21
122.2736804156
 31
0.0
 11
119.2846163119
 21
122.3026412975
 31
0.0
 11
119.279517065
 21
122.3316267543
 31
0.0
 11
119.2742373829
 21
122.3606352625
 31
0.0
 11
119.2687765689
 21
122.3896652843
 31
0.0
 11
119.2631339425
 21
122.4187152685
 31
0.0
 11
119.2573088387
 21
122.44778365
 31
0.0
 11
119.2513006092
 21
122.4768688504
 31
0.0
 11
119.2451086217
 21
122.5059692781
 31
0.0
 11
119.2387322613
 21
122.5350833282
 31
0.0
 11
119.2321709296
 21
122.5642093831
 31
0.0
 11
119.225424046
 21
122.5933458124
 31
0.0
 11
119.2184910471
 21
122.6224909735
 31
0.0
 11
119.2113713877
 21
122.6516432111
 31
0.0
 11
119.2040645403
 21
122.6808008583
 31
0.0
 11
119.1965699963
 21
122.7099622361
 31
0.0
 11
119.1888872652
 21
122.7391256541
 31
0.0
 11
119.1810158757
 21
122.7682894102
 31
0.0
 11
119.1729553755
 21
122.7974517917
 31
0.0
 11
119.1647053317
 21
122.8266110746
 31
0.0
 11
119.1562653309
 21
122.8557655246
 31
0.0
 11
119.1476349797
 21
122.8849133967
 31
0.0
 11
119.1388139046
 21
122.9140529361
 31
0.0
 11
119.1298017525
 21
122.9431823781
 31
0.0
 11
119.1205981909
 21
122.9722999484
 31
0.0
 11
119.1112029078
 21
123.0014038635
 31
0.0
 11
119.1016156124
 21
123.0304923308
 31
0.0
 11
119.091836035
 21
123.059563549
 31
0.0
 11
119.0818639272
 21
123.0886157085
 31
0.0
 11
119.0716990623
 21
123.1176469917
 31
0.0
 11
119.0613412354
 21
123.1466555728
 31
0.0
 11
119.0507902635
 21
123.1756396189
 31
0.0
 11
119.0400459857
 21
123.2045972899
 31
0.0
 11
119.0291082637
 21
123.2335267385
 31
0.0
 11
119.0179769816
 21
123.2624261112
 31
0.0
 11
119.0066520461
 21
123.2912935482
 31
0.0
 11
118.9951333869
 21
123.3201271839
 31
0.0
 11
118.9834209568
 21
123.3489251469
 31
0.0
 11
118.9715147316
 21
123.377685561
 31
0.0
 11
118.9594147107
 21
123.4064065448
 31
0.0
 11
118.9471209167
 21
123.4350862127
 31
0.0
 11
118.9346333961
 21
123.4637226747
 31
0.0
 11
118.9219522191
 21
123.4923140372
 31
0.0
 11
118.9090774796
 21
123.5208584031
 31
0.0
 11
118.8960092957
 21
123.5493538722
 31
0.0
 11
118.8827478096
 21
123.5777985418
 31
0.0
 11
118.8692931878
 21
123.6061905067
 31
0.0
 11
118.8556456209
 21
123.6345278598
 31
0.0
 11
118.8418053242
 21
123.6628086924
 31
0.0
 11
118.8277725373
 21
123.6910310947
 31
0.0
 11
118.8135475246
 21
123.7191931562
 31
0.0
 11
118.7991305749
 21
123.7472929657
 31
0.0
 11
118.7845220021
 21
123.7753286122
 31
0.0
 11
118.7697221445
 21
123.803298185
 31
0.0
 11
118.7547313654
 21
123.8311997742
 31
0.0
 11
118.7395500532
 21
123.859031471
 31
0.0
 11
118.7241786209
 21
123.8867913682
 31
0.0
 11
118.7086175067
 21
123.9144775606
 31
0.0
 11
118.6928671735
 21
123.9420881452
 31
0.0
 11
118.6769281095
 21
123.969621222
 31
0.0
 11
118.6608008277
 21
123.9970748939
 31
0.0
 11
118.6444858661
 21
124.0244472676
 31
0.0
 11
118.6279837877
 21
124.0517364536
 31
0.0
 11
118.6112951806
 21
124.0789405668
 31
0.0
 11
118.5944206577
 21
124.106057727
 31
0.0
 11
118.5773608569
 21
124.1330860592
 31
0.0
 11
118.5601164407
 21
124.1600236938
 31
0.0
 11
118.5426880969
 21
124.1868687673
 31
0.0
 11
118.5250765376
 21
124.2136194228
 31
0.0
 11
118.5072824999
 21
124.24027381
 31
0.0
 11
118.4893067454
 21
124.2668300859
 31
0.0
 11
118.4711500603
 21
124.2932864152
 31
0.0
 11
118.4528132552
 21
124.3196409704
 31
0.0
 11
118.4342971652
 21
124.3458919328
 31
0.0
 11
118.4156026494
 21
124.3720374923
 31
0.0
 11
118.3967305913
 21
124.398075848
 31
0.0
 11
118.3776818983
 21
124.4240052089
 31
0.0
 11
118.3584575018
 21
124.4498237939
 31
0.0
 11
118.3390583569
 21
124.4755298323
 31
0.0
 11
118.3194854422
 21
124.5011215643
 31
0.0
 11
118.29973976
 21
124.5265972412
 31
0.0
 11
118.2798223357
 21
124.5519551261
 31
0.0
 11
118.2597342181
 21
124.5771934941
 31
0.0
 11
118.2394764786
 21
124.6023106324
 31
0.0
 11
118.2190502118
 21
124.6273048413
 31
0.0
 11
118.1984565347
 21
124.6521744341
 31
0.0
 11
118.1776965865
 21
124.6769177377
 31
0.0
 11
118.156771529
 21
124.7015330926
 31
0.0
 11
118.1356825457
 21
124.726018854
 31
0.0
 11
118.1144308419
 21
124.7503733913
 31
0.0
 11
118.0930176446
 21
124.7745950891
 31
0.0
 11
118.0714442019
 21
124.7986823474
 31
0.0
 11
118.0497117831
 21
124.8226335816
 31
0.0
 11
118.0278216784
 21
124.8464472234
 31
0.0
 11
118.0057751983
 21
124.8701217207
 31
0.0
 11
117.9835736738
 21
124.8936555382
 31
0.0
 11
117.9612184559
 21
124.9170471576
 31
0.0
 11
117.9387109154
 21
124.940295078
 31
0.0
 11
117.9160524425
 21
124.963397816
 31
0.0
 11
117.8932444467
 21
124.9863539063
 31
0.0
 11
117.8702883563
 21
125.0091619022
 31
0.0
 11
117.8471856183
 21
125.031820375
 31
0.0
 11
117.823937698
 21
125.0543279155
 31
0.0
 11
117.8005460786
 21
125.0766831334
 31
0.0
 11
117.7770122611
 21
125.0988846579
 31
0.0
 11
117.7533377638
 21
125.120931138
 31
0.0
 11
117.729524122
 21
125.1428212428
 31
0.0
 11
117.7055728877
 21
125.1645536615
 31
0.0
 11
117.6814856295
 21
125.1861271042
 31
0.0
 11
117.6572639316
 21
125.2075403015
 31
0.0
 11
117.6329093943
 21
125.2287920053
 31
0.0
 11
117.608423633
 21
125.2498809886
 31
0.0
 11
117.583808278
 21
125.2708060461
 31
0.0
 11
117.5590649745
 21
125.2915659943
 31
0.0
 11
117.5341953817
 21
125.3121596715
 31
0.0
 11
117.5092011728
 21
125.3325859383
 31
0.0
 11
117.4840840344
 21
125.3528436777
 31
0.0
 11
117.4588456665
 21
125.3729317954
 31
0.0
 11
117.4334877816
 21
125.3928492196
 31
0.0
 11
117.4080121046
 21
125.4125949018
 31
0.0
 11
117.3824203727
 21
125.4321678165
 31
0.0
 11
117.3567143343
 21
125.4515669615
 31
0.0
 11
117.3308957493
 21
125.470791358
 31
0.0
 11
117.3049663884
 21
125.489840051
 31
0.0
 11
117.2789280326
 21
125.508712109
 31
0.0
 11
117.2527824732
 21
125.5274066248
 31
0.0
 11
117.2265315108
 21
125.5459227149
 31
0.0
 11
117.2001769555
 21
125.5642595199
 31
0.0
 11
117.1737206263
 21
125.582416205
 31
0.0
 11
117.1471643504
 21
125.6003919595
 31
0.0
 11
117.1205099632
 21
125.6181859972
 31
0.0
 11
117.0937593077
 21
125.6357975565
 31
0.0
 11
117.0669142341
 21
125.6532259004
 31
0.0
 11
117.0399765995
 21
125.6704703165
 31
0.0
 11
117.0129482674
 21
125.6875301174
 31
0.0
 11
116.9858311072
 21
125.7044046403
 31
0.0
 11
116.9586269939
 21
125.7210932474
 31
0.0
 11
116.9313378079
 21
125.7375953257
 31
0.0
 11
116.9039654343
 21
125.7539102873
 31
0.0
 11
116.8765117624
 21
125.7700375691
 31
0.0
 11
116.8489786856
 21
125.7859766332
 31
0.0
 11
116.821368101
 21
125.8017269663
 31
0.0
 11
116.7936819086
 21
125.8172880806
 31
0.0
 11
116.7659220114
 21
125.8326595129
 31
0.0
 11
116.7380903145
 21
125.8478408251
 31
0.0
 11
116.7101887254
 21
125.8628316041
 31
0.0
 11
116.6822191525
 21
125.8776314617
 31
0.0
 11
116.654183506
 21
125.8922400346
 31
0.0
 11
116.6260836966
 21
125.9066569842
 31
0.0
 11
116.5979216351
 21
125.9208819969
 31
0.0
 11
116.5696992328
 21
125.9349147838
 31
0.0
 11
116.5414184001
 21
125.9487550805
 31
0.0
 11
116.5130810471
 21
125.9624026474
 31
0.0
 11
116.4846890822
 21
125.9758572692
 31
0.0
 11
116.4562444126
 21
125.9891187553
 31
0.0
 11
116.4277489434
 21
126.0021869392
 31
0.0
 11
116.3992045775
 21
126.0150616787
 31
0.0
 11
116.370613215
 21
126.0277428558
 31
0.0
 11
116.341976753
 21
126.0402303764
 31
0.0
 11
116.3132970852
 21
126.0525241703
 31
0.0
 11
116.2845761013
 21
126.0646241913
 31
0.0
 11
116.2558156873
 21
126.0765304164
 31
0.0
 11
116.2270177242
 21
126.0882428465
 31
0.0
 11
116.1981840886
 21
126.0997615057
 31
0.0
 11
116.1693166516
 21
126.1110864412
 31
0.0
 11
116.1404172788
 21
126.1222177234
 31
0.0
 11
116.1114878302
 21
126.1331554454
 31
0.0
 11
116.0825301593
 21
126.1438997231
 31
0.0
 11
116.0535461132
 21
126.154450695
 31
0.0
 11
116.024537532
 21
126.1648085219
 31
0.0
 11
115.9955062489
 21
126.1749733868
 31
0.0
 11
115.9664540893
 21
126.1849454946
 31
0.0
 11
115.9373828711
 21
126.194725072
 31
0.0
 11
115.9082944039
 21
126.2043123674
 31
0.0
 11
115.8791904888
 21
126.2137076505
 31
0.0
 11
115.8500729185
 21
126.2229112122
 31
0.0
 11
115.8209434765
 21
126.2319233643
 31
0.0
 11
115.7918039371
 21
126.2407444393
 31
0.0
 11
115.7626560649
 21
126.2493747906
 31
0.0
 11
115.733501615
 21
126.2578147913
 31
0.0
 11
115.7043423321
 21
126.2660648352
 31
0.0
 11
115.6751799506
 21
126.2741253354
 31
0.0
 11
115.6460161944
 21
126.2819967248
 31
0.0
 11
115.6168527765
 21
126.2896794559
 31
0.0
 11
115.5876913987
 21
126.297174
 31
0.0
 11
115.5585337515
 21
126.3044808473
 31
0.0
 11
115.5293815138
 21
126.3116005067
 31
0.0
 11
115.5002363528
 21
126.3185335056
 31
0.0
 11
115.4710999234
 21
126.3252803893
 31
0.0
 11
115.4419738685
 21
126.3318417209
 31
0.0
 11
115.4128598184
 21
126.3382180814
 31
0.0
 11
115.3837593908
 21
126.3444100688
 31
0.0
 11
115.3546741904
 21
126.3504182984
 31
0.0
 11
115.3256058088
 21
126.3562434021
 31
0.0
 11
115.2965558247
 21
126.3618860286
 31
0.0
 11
115.2675258028
 21
126.3673468425
 31
0.0
 11
115.2385172947
 21
126.3726265247
 31
0.0
 11
115.2095318379
 21
126.3777257716
 31
0.0
 11
115.1805709559
 21
126.3826452951
 31
0.0
 11
115.1516361584
 21
126.3873858223
 31
0.0
 11
115.1227289405
 21
126.3919480951
 31
0.0
 11
115.093850783
 21
126.39633287
 31
0.0
 11
115.0650031522
 21
126.400540918
 31
0.0
 11
115.0361874997
 21
126.4045730237
 31
0.0
 11
115.007405262
 21
126.408429986
 31
0.0
 11
114.978657861
 21
126.4121126168
 31
0.0
 11
114.9499467034
 21
126.4156217414
 31
0.0
 11
114.9212731807
 21
126.418958198
 31
0.0
 11
114.892638669
 21
126.4221228375
 31
0.0
 11
114.8640445291
 21
126.4251165228
 31
0.0
 11
114.8354921063
 21
126.4279401291
 31
0.0
 11
114.8069827303
 21
126.4305945435
 31
0.0
 11
114.7785177151
 21
126.4330806642
 31
0.0
 11
114.750098359
 21
126.4353994009
 31
0.0
 11
114.7217259443
 21
126.4375516742
 31
0.0
 11
114.6934017377
 21
126.439538415
 31
0.0
 11
114.6651269897
 21
126.441360565
 31
0.0
 11
114.6369029347
 21
126.4430190757
 31
0.0
 11
114.6087307912
 21
126.4445149084
 31
0.0
 11
114.5806117615
 21
126.4458490339
 31
0.0
 11
114.5525470317
 21
126.4470224324
 31
0.0
 11
114.5245377718
 21
126.4480360929
 31
0.0
 11
114.4965851353
 21
126.448891013
 31
0.0
 11
114.4686902596
 21
126.4495881989
 31
0.0
 11
114.4408542657
 21
126.4501286647
 31
0.0
 11
114.4130782585
 21
126.4505134326
 31
0.0
 11
114.3577105408
 21
126.4508200004
 31
0.0
  0
LINE
  5
273
100
AcDbEntity
  8
0
100
AcDbLine
 62
7
  6
CONTINUOUS
 10
119.3577105408
 20
121.4508200004
 11
119.3577105408
 21
105.4508200004
  0
LINE
  5
274
100
AcDbEntity
  8
0
100
AcDbLine
 62
7
  6
CONTINUOUS
 10
112.4177105408
 20
105.4508200004
 11
119.3577105408
 21
105.4508200004
  0
LINE
  5
275
100
AcDbEntity
  8
0
100
AcDbLine
 62
7
  6
CONTINUOUS
 10
111.8577964061
 20
121.4846629761
 11
112.4177105408
 21
105.4508200004
  0
SPLINE
  5
276
100
AcDbEntity
  8
0
100
AcDbSpline
 62
7
  6
CONTINUOUS
 70
4
 71
3
 72
8
 73
4
 74
129
 42
0.0000001
 43
0.0000001
 44
0.0000000001
 12
-0.0462503182
 22
1.3244358274
 32
0.0
 13
-1.3202006472
 23
0.1154972025
 33
0.0
 40
0.0
 40
0.0
 40
0.0
 40
0.0
 40
1.0
 40
1.0
 40
1.0
 40
1.0
 10
111.8577964061
 20
121.4846629761
 30
0.0
 41
1.0
 10
111.8392807906
 20
122.0148808326
 30
0.0
 41
0.8326362527
 10
111.4740796535
 20
122.3997209719
 30
0.0
 41
0.8326362527
 10
110.9455572873
 20
122.4459585305
 30
0.0
 41
1.0
 11
111.8577964061
 21
121.4846629761
 31
0.0
 11
111.8573806015
 21
121.495028308
 31
0.0
 11
111.8568550522
 21
121.5054289962
 31
0.0
 11
111.8562185802
 21
121.5158635172
 31
0.0
 11
111.8554700305
 21
121.5263303112
 31
0.0
 11
111.8546082729
 21
121.5368277827
 31
0.0
 11
111.8536322024
 21
121.5473543004
 31
0.0
 11
111.8525407409
 21
121.5579081981
 31
0.0
 11
111.8513328382
 21
121.5684877747
 31
0.0
 11
111.8500074732
 21
121.5790912945
 31
0.0
 11
111.8485636551
 21
121.5897169884
 31
0.0
 11
111.8470004245
 21
121.6003630537
 31
0.0
 11
111.8453168546
 21
121.6110276549
 31
0.0
 11
111.8435120525
 21
121.6217089245
 31
0.0
 11
111.84158516
 21
121.6324049636
 31
0.0
 11
111.8395353551
 21
121.6431138422
 31
0.0
 11
111.8373618527
 21
121.6538336006
 31
0.0
 11
111.8350639064
 21
121.6645622498
 31
0.0
 11
111.8326408088
 21
121.6752977723
 31
0.0
 11
111.8300918931
 21
121.686038123
 31
0.0
 11
111.827416534
 21
121.6967812305
 31
0.0
 11
111.8246141486
 21
121.7075249975
 31
0.0
 11
111.8216841978
 21
121.7182673022
 31
0.0
 11
111.8186261867
 21
121.7290059992
 31
0.0
 11
111.8154396661
 21
121.7397389205
 31
0.0
 11
111.8121242331
 21
121.7504638771
 31
0.0
 11
111.8086795321
 21
121.7611786593
 31
0.0
 11
111.8051052558
 21
121.7718810389
 31
0.0
 11
111.8014011458
 21
121.7825687698
 31
0.0
 11
111.7975669933
 21
121.7932395893
 31
0.0
 11
111.7936026404
 21
121.8038912199
 31
0.0
 11
111.7895079802
 21
121.81452137
 31
0.0
 11
111.7852829577
 21
121.8251277361
 31
0.0
 11
111.7809275705
 21
121.8357080032
 31
0.0
 11
111.7764418694
 21
121.8462598473
 31
0.0
 11
111.7718259588
 21
121.8567809361
 31
0.0
 11
111.7670799972
 21
121.8672689309
 31
0.0
 11
111.7622041977
 21
121.8777214879
 31
0.0
 11
111.7571988285
 21
121.8881362602
 31
0.0
 11
111.7520642129
 21
121.8985108987
 31
0.0
 11
111.74680073
 21
121.9088430542
 31
0.0
 11
111.7414088145
 21
121.919130379
 31
0.0
 11
111.7358889572
 21
121.9293705282
 31
0.0
 11
111.730241705
 21
121.9395611617
 31
0.0
 11
111.724467661
 21
121.9496999457
 31
0.0
 11
111.7185674844
 21
121.9597845541
 31
0.0
 11
111.7125418905
 21
121.9698126709
 31
0.0
 11
111.7063916506
 21
121.979781991
 31
0.0
 11
111.7001175918
 21
121.9896902224
 31
0.0
 11
111.6937205967
 21
121.9995350878
 31
0.0
 11
111.6872016034
 21
122.0093143262
 31
0.0
 11
111.6805616047
 21
122.0190256946
 31
0.0
 11
111.673801648
 21
122.0286669696
 31
0.0
 11
111.6669228347
 21
122.0382359491
 31
0.0
 11
111.6599263197
 21
122.0477304538
 31
0.0
 11
111.6528133109
 21
122.0571483292
 31
0.0
 11
111.6455850683
 21
122.0664874467
 31
0.0
 11
111.6382429037
 21
122.0757457054
 31
0.0
 11
111.6307881793
 21
122.0849210339
 31
0.0
 11
111.6232223077
 21
122.0940113911
 31
0.0
 11
111.6155467502
 21
122.1030147688
 31
0.0
 11
111.6077630165
 21
122.1119291921
 31
0.0
 11
111.5998726635
 21
122.1207527213
 31
0.0
 11
111.5918772941
 21
122.1294834537
 31
0.0
 11
111.5837785562
 21
122.138119524
 31
0.0
 11
111.5755781419
 21
122.1466591066
 31
0.0
 11
111.5672777859
 21
122.1551004162
 31
0.0
 11
111.5588792644
 21
122.1634417096
 31
0.0
 11
111.5503843938
 21
122.1716812864
 31
0.0
 11
111.5417950296
 21
122.1798174904
 31
0.0
 11
111.533113065
 21
122.1878487107
 31
0.0
 11
111.524340429
 21
122.1957733826
 31
0.0
 11
111.515479086
 21
122.203589989
 31
0.0
 11
111.5065310332
 21
122.211297061
 31
0.0
 11
111.4974983
 21
122.2188931786
 31
0.0
 11
111.4883829462
 21
122.2263769721
 31
0.0
 11
111.4791870601
 21
122.2337471227
 31
0.0
 11
111.4699127575
 21
122.2410023629
 31
0.0
 11
111.46056218
 21
122.2481414776
 31
0.0
 11
111.451137493
 21
122.2551633045
 31
0.0
 11
111.4416408845
 21
122.2620667347
 31
0.0
 11
111.4320745634
 21
122.2688507132
 31
0.0
 11
111.4224407576
 21
122.2755142393
 31
0.0
 11
111.4127417128
 21
122.2820563671
 31
0.0
 11
111.4029796903
 21
122.2884762058
 31
0.0
 11
111.3931569658
 21
122.2947729199
 31
0.0
 11
111.3832758275
 21
122.3009457292
 31
0.0
 11
111.3733385746
 21
122.3069939095
 31
0.0
 11
111.3633475153
 21
122.312916792
 31
0.0
 11
111.3533049656
 21
122.3187137641
 31
0.0
 11
111.3432132472
 21
122.3243842687
 31
0.0
 11
111.3330746864
 21
122.3299278042
 31
0.0
 11
111.3228916119
 21
122.3353439249
 31
0.0
 11
111.3126663536
 21
122.3406322401
 31
0.0
 11
111.3024012408
 21
122.3457924145
 31
0.0
 11
111.2920986007
 21
122.3508241672
 31
0.0
 11
111.2817607569
 21
122.355727272
 31
0.0
 11
111.2713900278
 21
122.3605015566
 31
0.0
 11
111.260988725
 21
122.3651469022
 31
0.0
 11
111.2505591521
 21
122.3696632431
 31
0.0
 11
111.2401036028
 21
122.3740505662
 31
0.0
 11
111.22962436
 21
122.37830891
 31
0.0
 11
111.2191236941
 21
122.3824383647
 31
0.0
 11
111.2086038616
 21
122.3864390705
 31
0.0
 11
111.1980671039
 21
122.390311218
 31
0.0
 11
111.1875156461
 21
122.3940550466
 31
0.0
 11
111.1769516954
 21
122.397670844
 31
0.0
 11
111.1663774403
 21
122.4011589454
 31
0.0
 11
111.1557950491
 21
122.4045197327
 31
0.0
 11
111.1452066691
 21
122.4077536332
 31
0.0
 11
111.134614425
 21
122.4108611194
 31
0.0
 11
111.1240204183
 21
122.4138427071
 31
0.0
 11
111.113426726
 21
122.4166989554
 31
0.0
 11
111.1028353999
 21
122.4194304649
 31
0.0
 11
111.0922484653
 21
122.4220378772
 31
0.0
 11
111.0816679205
 21
122.4245218736
 31
0.0
 11
111.0710957357
 21
122.4268831739
 31
0.0
 11
111.0605338521
 21
122.4291225358
 31
0.0
 11
111.0499841815
 21
122.4312407533
 31
0.0
 11
111.0394486053
 21
122.4332386559
 31
0.0
 11
111.0289289738
 21
122.4351171073
 31
0.0
 11
111.0184271058
 21
122.4368770043
 31
0.0
 11
111.0079447879
 21
122.4385192759
 31
0.0
 11
110.9974837738
 21
122.4400448817
 31
0.0
 11
110.9870457839
 21
122.4414548113
 31
0.0
 11
110.9766325051
 21
122.4427500825
 31
0.0
 11
110.9662455898
 21
122.4439317409
 31
0.0
 11
110.9558866562
 21
122.445000858
 31
0.0
 11
110.9455572873
 21
122.4459585305
 31
0.0
  0
LINE
  5
277
100
AcDbEntity
  8
0
100
AcDbLine
 62
7
  6
CONTINUOUS
 10
89.8577105408
 20
124.2908200004
 11
110.9455572873
 21
122.4459585305
  0
LINE
  5
278
100
AcDbEntity
  8
0
100
AcDbLine
 62
7
  6
CONTINUOUS
 10
68.7698706697
 20
122.4457870148
 11
89.8577105408
 21
124.2908200004
  0
SPLINE
  5
279
100
AcDbEntity
  8
0
100
AcDbSpline
 62
7
  6
CONTINUOUS
 70
4
 71
3
 72
8
 73
4
 74
129
 42
0.0000001
 43
0.0000001
 44
0.0000000001
 12
-1.3199593324
 22
-0.1154868646
 32
0.0
 13
-0.0462560491
 23
-1.3241941826
 33
0.0
 40
0.0
 40
0.0
 40
0.0
 40
0.0
 40
1.0
 40
1.0
 40
1.0
 40
1.0
 10
68.7698706697
 20
122.4457870148
 30
0.0
 41
1.0
 10
68.2414475438
 20
122.3995538253
 30
0.0
 41
0.8326404022
 10
67.8763142237
 20
122.0147861468
 30
0.0
 41
0.8326404022
 10
67.8577964061
 20
121.4846676711
 30
0.0
 41
1.0
 11
68.7698706697
 21
122.4457870148
 31
0.0
 11
68.7595431898
 21
122.4448294336
 31
0.0
 11
68.7491861523
 21
122.4437604292
 31
0.0
 11
68.73880114
 21
122.4425789051
 31
0.0
 11
68.7283897707
 21
122.4412837899
 31
0.0
 11
68.7179536965
 21
122.4398740384
 31
0.0
 11
68.707494604
 21
122.438348633
 31
0.0
 11
68.6970142132
 21
122.4367065844
 31
0.0
 11
68.6865142775
 21
122.434946933
 31
0.0
 11
68.6759965832
 21
122.4330687503
 31
0.0
 11
68.6654629485
 21
122.4310711397
 31
0.0
 11
68.6549152236
 21
122.4289532375
 31
0.0
 11
68.6443552894
 21
122.4267142145
 31
0.0
 11
68.6337850573
 21
122.4243532769
 31
0.0
 11
68.6232064681
 21
122.4218696673
 31
0.0
 11
68.6126214917
 21
122.4192626659
 31
0.0
 11
68.6020321259
 21
122.4165315916
 31
0.0
 11
68.5914403956
 21
122.413675803
 31
0.0
 11
68.5808483521
 21
122.4106946997
 31
0.0
 11
68.5702580721
 21
122.4075877227
 31
0.0
 11
68.5596716565
 21
122.4043543563
 31
0.0
 11
68.5490912299
 21
122.4009941283
 31
0.0
 11
68.5385189388
 21
122.3975066112
 31
0.0
 11
68.5279569512
 21
122.3938914235
 31
0.0
 11
68.517407455
 21
122.39014823
 31
0.0
 11
68.5068726572
 21
122.386276743
 31
0.0
 11
68.4963547822
 21
122.3822767232
 31
0.0
 11
68.4858560711
 21
122.3781479803
 31
0.0
 11
68.4753787798
 21
122.3738903738
 31
0.0
 11
68.4649251782
 21
122.3695038138
 31
0.0
 11
68.4544975488
 21
122.3649882616
 31
0.0
 11
68.4440981848
 21
122.3603437306
 31
0.0
 11
68.4337293893
 21
122.3555702863
 31
0.0
 11
68.4233934735
 21
122.3506680476
 31
0.0
 11
68.4130927552
 21
122.3456371867
 31
0.0
 11
68.4028295574
 21
122.3404779299
 31
0.0
 11
68.392606207
 21
122.3351905579
 31
0.0
 11
68.3824250328
 21
122.3297754061
 31
0.0
 11
68.372288364
 21
122.324232865
 31
0.0
 11
68.3621985291
 21
122.3185633803
 31
0.0
 11
68.3521578535
 21
122.3127674535
 31
0.0
 11
68.3421686588
 21
122.3068456415
 31
0.0
 11
68.3322332603
 21
122.300798557
 31
0.0
 11
68.3223539658
 21
122.2946268685
 31
0.0
 11
68.3125330739
 21
122.2883313002
 31
0.0
 11
68.3027728724
 21
122.2819126319
 31
0.0
 11
68.2930756364
 21
122.2753716992
 31
0.0
 11
68.2834436269
 21
122.2687093925
 31
0.0
 11
68.2738790889
 21
122.2619266577
 31
0.0
 11
68.2643842499
 21
122.2550244952
 31
0.0
 11
68.2549613184
 21
122.2480039598
 31
0.0
 11
68.2456124818
 21
122.2408661601
 31
0.0
 11
68.2363399053
 21
122.2336122582
 31
0.0
 11
68.2271457297
 21
122.2262434691
 31
0.0
 11
68.2180320704
 21
122.2187610598
 31
0.0
 11
68.2090010155
 21
122.2111663489
 31
0.0
 11
68.2000546241
 21
122.203460706
 31
0.0
 11
68.1911949253
 21
122.1956455505
 31
0.0
 11
68.1824239159
 21
122.1877223511
 31
0.0
 11
68.1737435596
 21
122.1796926247
 31
0.0
 11
68.1651557854
 21
122.1715579356
 31
0.0
 11
68.1566624859
 21
122.1633198943
 31
0.0
 11
68.1482655161
 21
122.1549801566
 31
0.0
 11
68.1399666921
 21
122.1465404226
 31
0.0
 11
68.1317677897
 21
122.1380024352
 31
0.0
 11
68.1236705434
 21
122.1293679791
 31
0.0
 11
68.1156766447
 21
122.1206388799
 31
0.0
 11
68.1077877412
 21
122.111817002
 31
0.0
 11
68.1000054357
 21
122.1029042482
 31
0.0
 11
68.0923312845
 21
122.0939025574
 31
0.0
 11
68.0847667969
 21
122.0848139041
 31
0.0
 11
68.0773134343
 21
122.0756402963
 31
0.0
 11
68.0699726086
 21
122.0663837744
 31
0.0
 11
68.062745682
 21
122.0570464096
 31
0.0
 11
68.0556339658
 21
122.0476303022
 31
0.0
 11
68.0486387199
 21
122.0381375802
 31
0.0
 11
68.0417611519
 21
122.0285703979
 31
0.0
 11
68.0350024165
 21
122.0189309341
 31
0.0
 11
68.0283636147
 21
122.0092213903
 31
0.0
 11
68.021845794
 21
121.9994439894
 31
0.0
 11
68.0154499468
 21
121.9896009739
 31
0.0
 11
68.009177011
 21
121.9796946045
 31
0.0
 11
68.003027869
 21
121.9697271579
 31
0.0
 11
67.9970033479
 21
121.9597009257
 31
0.0
 11
67.9911042188
 21
121.9496182122
 31
0.0
 11
67.9853311968
 21
121.9394813333
 31
0.0
 11
67.9796849411
 21
121.9292926142
 31
0.0
 11
67.9741660546
 21
121.9190543885
 31
0.0
 11
67.968775084
 21
121.9087689957
 31
0.0
 11
67.9635125201
 21
121.8984387802
 31
0.0
 11
67.9583787976
 21
121.8880660892
 31
0.0
 11
67.9533742955
 21
121.8776532714
 31
0.0
 11
67.9484993371
 21
121.8672026753
 31
0.0
 11
67.9437541904
 21
121.8567166474
 31
0.0
 11
67.9391390687
 21
121.8461975311
 31
0.0
 11
67.9346541303
 21
121.8356476644
 31
0.0
 11
67.9302994798
 21
121.8250693791
 31
0.0
 11
67.9260751678
 21
121.8144649989
 31
0.0
 11
67.921981192
 21
121.8038368381
 31
0.0
 11
67.9180174976
 21
121.7931872
 31
0.0
 11
67.9141839776
 21
121.7825183754
 31
0.0
 11
67.9104804741
 21
121.7718326415
 31
0.0
 11
67.9069067786
 21
121.7611322605
 31
0.0
 11
67.9034626326
 21
121.7504194779
 31
0.0
 11
67.9001477289
 21
121.7396965216
 31
0.0
 11
67.896961712
 21
121.7289656007
 31
0.0
 11
67.8939041793
 21
121.7182289039
 31
0.0
 11
67.8909746814
 21
121.7074885987
 31
0.0
 11
67.8881727239
 21
121.69674683
 31
0.0
 11
67.8854977676
 21
121.6860057192
 31
0.0
 11
67.8829492298
 21
121.6752673631
 31
0.0
 11
67.8805264855
 21
121.6645338329
 31
0.0
 11
67.8782288678
 21
121.653807173
 31
0.0
 11
67.8760556698
 21
121.6430894005
 31
0.0
 11
67.874006145
 21
121.6323825042
 31
0.0
 11
67.8720795087
 21
121.6216884433
 31
0.0
 11
67.870274939
 21
121.6110091473
 31
0.0
 11
67.868591578
 21
121.6003465149
 31
0.0
 11
67.8670285329
 21
121.5897024132
 31
0.0
 11
67.8655848772
 21
121.5790786773
 31
0.0
 11
67.8642596518
 21
121.5684771094
 31
0.0
 11
67.8630518659
 21
121.5578994785
 31
0.0
 11
67.8619604989
 21
121.5473475198
 31
0.0
 11
67.8609845007
 21
121.536822934
 31
0.0
 11
67.8601227936
 21
121.5263273872
 31
0.0
 11
67.8593742728
 21
121.5158625101
 31
0.0
 11
67.8587378082
 21
121.5054298982
 31
0.0
 11
67.8582122453
 21
121.4950311107
 31
0.0
 11
67.8577964061
 21
121.4846676711
 31
0.0
  0
LINE
  5
27A
100
AcDbEntity
  8
0
100
AcDbLine
 62
7
  6
CONTINUOUS
 10
67.2977105408
 20
105.4508200004
 11
67.8577964061
 21
121.4846676711
  0
LINE
  5
27B
100
AcDbEntity
  8
0
100
AcDbLine
 62
7
  6
CONTINUOUS
 10
60.3577105408
 20
105.4508200004
 11
67.2977105408
 21
105.4508200004
  0
LINE
  5
27C
100
AcDbEntity
  8
0
100
AcDbLine
 62
7
  6
CONTINUOUS
 10
60.3577105408
 20
121.4508200004
 11
60.3577105408
 21
105.4508200004
  0
SPLINE
  5
27D
100
AcDbEntity
  8
0
100
AcDbSpline
 62
7
  6
CONTINUOUS
 70
4
 71
3
 72
8
 73
4
 74
255
 42
0.0000001
 43
0.0000001
 44
0.0000000001
 12
-7.0710678119
 22
0.0
 32
0.0
 13
-0.0
 23
-7.0710678119
 33
0.0
 40
0.0
 40
0.0
 40
0.0
 40
0.0
 40
1.0
 40
1.0
 40
1.0
 40
1.0
 10
65.3577105408
 20
126.4508200004
 30
0.0
 41
1.0
 10
62.4287783526
 20
126.4508200004
 30
0.0
 41
0.8047378541
 10
60.3577105408
 20
124.3797521885
 30
0.0
 41
0.8047378541
 10
60.3577105408
 20
121.4508200004
 30
0.0
 41
1.0
 11
65.3577105408
 21
126.4508200004
 31
0.0
 11
65.3023428231
 21
126.4505134326
 31
0.0
 11
65.2745668158
 21
126.4501286647
 31
0.0
 11
65.246730822
 21
126.4495881989
 31
0.0
 11
65.2188359463
 21
126.448891013
 31
0.0
 11
65.1908833098
 21
126.4480360929
 31
0.0
 11
65.1628740498
 21
126.4470224324
 31
0.0
 11
65.13480932
 21
126.4458490339
 31
0.0
 11
65.1066902903
 21
126.4445149084
 31
0.0
 11
65.0785181469
 21
126.4430190757
 31
0.0
 11
65.0502940919
 21
126.441360565
 31
0.0
 11
65.0220193438
 21
126.439538415
 31
0.0
 11
64.9936951372
 21
126.4375516742
 31
0.0
 11
64.9653227226
 21
126.4353994009
 31
0.0
 11
64.9369033665
 21
126.4330806642
 31
0.0
 11
64.9084383513
 21
126.4305945435
 31
0.0
 11
64.8799289753
 21
126.4279401291
 31
0.0
 11
64.8513765525
 21
126.4251165228
 31
0.0
 11
64.8227824126
 21
126.4221228375
 31
0.0
 11
64.7941479009
 21
126.418958198
 31
0.0
 11
64.7654743781
 21
126.4156217414
 31
0.0
 11
64.7367632205
 21
126.4121126168
 31
0.0
 11
64.7080158195
 21
126.408429986
 31
0.0
 11
64.6792335819
 21
126.4045730237
 31
0.0
 11
64.6504179293
 21
126.400540918
 31
0.0
 11
64.6215702985
 21
126.39633287
 31
0.0
 11
64.592692141
 21
126.3919480951
 31
0.0
 11
64.5637849231
 21
126.3873858223
 31
0.0
 11
64.5348501256
 21
126.3826452951
 31
0.0
 11
64.5058892437
 21
126.3777257716
 31
0.0
 11
64.4769037868
 21
126.3726265247
 31
0.0
 11
64.4478952787
 21
126.3673468425
 31
0.0
 11
64.4188652569
 21
126.3618860286
 31
0.0
 11
64.3898152727
 21
126.3562434021
 31
0.0
 11
64.3607468912
 21
126.3504182984
 31
0.0
 11
64.3316616907
 21
126.3444100688
 31
0.0
 11
64.3025612631
 21
126.3382180814
 31
0.0
 11
64.273447213
 21
126.3318417209
 31
0.0
 11
64.2443211581
 21
126.3252803893
 31
0.0
 11
64.2151847287
 21
126.3185335056
 31
0.0
 11
64.1860395677
 21
126.3116005067
 31
0.0
 11
64.15688733
 21
126.3044808473
 31
0.0
 11
64.1277296828
 21
126.297174
 31
0.0
 11
64.098568305
 21
126.2896794559
 31
0.0
 11
64.0694048871
 21
126.2819967248
 31
0.0
 11
64.0402411309
 21
126.2741253354
 31
0.0
 11
64.0110787495
 21
126.2660648352
 31
0.0
 11
63.9819194665
 21
126.2578147913
 31
0.0
 11
63.9527650166
 21
126.2493747906
 31
0.0
 11
63.9236171445
 21
126.2407444393
 31
0.0
 11
63.894477605
 21
126.2319233643
 31
0.0
 11
63.865348163
 21
126.2229112122
 31
0.0
 11
63.8362305927
 21
126.2137076505
 31
0.0
 11
63.8071266777
 21
126.2043123674
 31
0.0
 11
63.7780382104
 21
126.194725072
 31
0.0
 11
63.7489669922
 21
126.1849454946
 31
0.0
 11
63.7199148326
 21
126.1749733868
 31
0.0
 11
63.6908835495
 21
126.1648085219
 31
0.0
 11
63.6618749684
 21
126.154450695
 31
0.0
 11
63.6328909222
 21
126.1438997231
 31
0.0
 11
63.6039332513
 21
126.1331554454
 31
0.0
 11
63.5750038027
 21
126.1222177234
 31
0.0
 11
63.54610443
 21
126.1110864412
 31
0.0
 11
63.517236993
 21
126.0997615057
 31
0.0
 11
63.4884033573
 21
126.0882428465
 31
0.0
 11
63.4596053943
 21
126.0765304164
 31
0.0
 11
63.4308449802
 21
126.0646241913
 31
0.0
 11
63.4021239964
 21
126.0525241703
 31
0.0
 11
63.3734443285
 21
126.0402303764
 31
0.0
 11
63.3448078665
 21
126.0277428558
 31
0.0
 11
63.316216504
 21
126.0150616787
 31
0.0
 11
63.2876721381
 21
126.0021869392
 31
0.0
 11
63.2591766689
 21
125.9891187553
 31
0.0
 11
63.2307319993
 21
125.9758572692
 31
0.0
 11
63.2023400345
 21
125.9624026474
 31
0.0
 11
63.1740026814
 21
125.9487550805
 31
0.0
 11
63.1457218488
 21
125.9349147838
 31
0.0
 11
63.1174994464
 21
125.9208819969
 31
0.0
 11
63.089337385
 21
125.9066569842
 31
0.0
 11
63.0612375755
 21
125.8922400346
 31
0.0
 11
63.033201929
 21
125.8776314617
 31
0.0
 11
63.0052323562
 21
125.8628316041
 31
0.0
 11
62.977330767
 21
125.8478408251
 31
0.0
 11
62.9494990702
 21
125.8326595129
 31
0.0
 11
62.921739173
 21
125.8172880806
 31
0.0
 11
62.8940529806
 21
125.8017269663
 31
0.0
 11
62.8664423959
 21
125.7859766332
 31
0.0
 11
62.8389093192
 21
125.7700375691
 31
0.0
 11
62.8114556473
 21
125.7539102873
 31
0.0
 11
62.7840832736
 21
125.7375953257
 31
0.0
 11
62.7567940876
 21
125.7210932474
 31
0.0
 11
62.7295899744
 21
125.7044046403
 31
0.0
 11
62.7024728142
 21
125.6875301174
 31
0.0
 11
62.675444482
 21
125.6704703165
 31
0.0
 11
62.6485068474
 21
125.6532259004
 31
0.0
 11
62.6216617738
 21
125.6357975565
 31
0.0
 11
62.5949111183
 21
125.6181859972
 31
0.0
 11
62.5682567311
 21
125.6003919595
 31
0.0
 11
62.5417004552
 21
125.582416205
 31
0.0
 11
62.515244126
 21
125.5642595199
 31
0.0
 11
62.4888895708
 21
125.5459227149
 31
0.0
 11
62.4626386084
 21
125.5274066248
 31
0.0
 11
62.4364930489
 21
125.508712109
 31
0.0
 11
62.4104546932
 21
125.489840051
 31
0.0
 11
62.3845253322
 21
125.470791358
 31
0.0
 11
62.3587067473
 21
125.4515669615
 31
0.0
 11
62.3330007089
 21
125.4321678165
 31
0.0
 11
62.3074089769
 21
125.4125949018
 31
0.0
 11
62.2819333
 21
125.3928492196
 31
0.0
 11
62.2565754151
 21
125.3729317954
 31
0.0
 11
62.2313370471
 21
125.3528436777
 31
0.0
 11
62.2062199088
 21
125.3325859383
 31
0.0
 11
62.1812256998
 21
125.3121596715
 31
0.0
 11
62.156356107
 21
125.2915659943
 31
0.0
 11
62.1316128035
 21
125.2708060461
 31
0.0
 11
62.1069974486
 21
125.2498809886
 31
0.0
 11
62.0825116872
 21
125.2287920053
 31
0.0
 11
62.0581571499
 21
125.2075403015
 31
0.0
 11
62.0339354521
 21
125.1861271042
 31
0.0
 11
62.0098481938
 21
125.1645536615
 31
0.0
 11
61.9858969596
 21
125.1428212428
 31
0.0
 11
61.9620833178
 21
125.120931138
 31
0.0
 11
61.9384088204
 21
125.0988846579
 31
0.0
 11
61.9148750029
 21
125.0766831334
 31
0.0
 11
61.8914833835
 21
125.0543279155
 31
0.0
 11
61.8682354632
 21
125.031820375
 31
0.0
 11
61.8451327252
 21
125.0091619022
 31
0.0
 11
61.8221766348
 21
124.9863539063
 31
0.0
 11
61.799368639
 21
124.963397816
 31
0.0
 11
61.7767101661
 21
124.940295078
 31
0.0
 11
61.7542026256
 21
124.9170471576
 31
0.0
 11
61.7318474077
 21
124.8936555382
 31
0.0
 11
61.7096458833
 21
124.8701217207
 31
0.0
 11
61.6875994032
 21
124.8464472234
 31
0.0
 11
61.6657092984
 21
124.8226335816
 31
0.0
 11
61.6439768796
 21
124.7986823474
 31
0.0
 11
61.622403437
 21
124.7745950891
 31
0.0
 11
61.6009902397
 21
124.7503733913
 31
0.0
 11
61.5797385359
 21
124.726018854
 31
0.0
 11
61.5586495526
 21
124.7015330926
 31
0.0
 11
61.537724495
 21
124.6769177377
 31
0.0
 11
61.5169645469
 21
124.6521744341
 31
0.0
 11
61.4963708697
 21
124.6273048413
 31
0.0
 11
61.4759446029
 21
124.6023106324
 31
0.0
 11
61.4556868635
 21
124.5771934941
 31
0.0
 11
61.4355987458
 21
124.5519551261
 31
0.0
 11
61.4156813216
 21
124.5265972412
 31
0.0
 11
61.3959356393
 21
124.5011215643
 31
0.0
 11
61.3763627247
 21
124.4755298323
 31
0.0
 11
61.3569635797
 21
124.4498237939
 31
0.0
 11
61.3377391832
 21
124.4240052089
 31
0.0
 11
61.3186904902
 21
124.398075848
 31
0.0
 11
61.2998184321
 21
124.3720374923
 31
0.0
 11
61.2811239164
 21
124.3458919328
 31
0.0
 11
61.2626078263
 21
124.3196409704
 31
0.0
 11
61.2442710212
 21
124.2932864152
 31
0.0
 11
61.2261143361
 21
124.2668300859
 31
0.0
 11
61.2081385816
 21
124.24027381
 31
0.0
 11
61.1903445439
 21
124.2136194228
 31
0.0
 11
61.1727329847
 21
124.1868687673
 31
0.0
 11
61.1553046408
 21
124.1600236938
 31
0.0
 11
61.1380602247
 21
124.1330860592
 31
0.0
 11
61.1210004238
 21
124.106057727
 31
0.0
 11
61.1041259009
 21
124.0789405668
 31
0.0
 11
61.0874372938
 21
124.0517364536
 31
0.0
 11
61.0709352155
 21
124.0244472676
 31
0.0
 11
61.0546202539
 21
123.9970748939
 31
0.0
 11
61.038492972
 21
123.969621222
 31
0.0
 11
61.022553908
 21
123.9420881452
 31
0.0
 11
61.0068035748
 21
123.9144775606
 31
0.0
 11
60.9912424606
 21
123.8867913682
 31
0.0
 11
60.9758710283
 21
123.859031471
 31
0.0
 11
60.9606897161
 21
123.8311997742
 31
0.0
 11
60.9456989371
 21
123.803298185
 31
0.0
 11
60.9308990795
 21
123.7753286122
 31
0.0
 11
60.9162905066
 21
123.7472929657
 31
0.0
 11
60.901873557
 21
123.7191931562
 31
0.0
 11
60.8876485442
 21
123.6910310947
 31
0.0
 11
60.8736157574
 21
123.6628086924
 31
0.0
 11
60.8597754607
 21
123.6345278598
 31
0.0
 11
60.8461278938
 21
123.6061905067
 31
0.0
 11
60.8326732719
 21
123.5777985418
 31
0.0
 11
60.8194117859
 21
123.5493538722
 31
0.0
 11
60.806343602
 21
123.5208584031
 31
0.0
 11
60.7934688625
 21
123.4923140372
 31
0.0
 11
60.7807876854
 21
123.4637226747
 31
0.0
 11
60.7683001648
 21
123.4350862127
 31
0.0
 11
60.7560063709
 21
123.4064065448
 31
0.0
 11
60.7439063499
 21
123.377685561
 31
0.0
 11
60.7320001248
 21
123.3489251469
 31
0.0
 11
60.7202876946
 21
123.3201271839
 31
0.0
 11
60.7087690355
 21
123.2912935482
 31
0.0
 11
60.6974441
 21
123.2624261112
 31
0.0
 11
60.6863128178
 21
123.2335267385
 31
0.0
 11
60.6753750958
 21
123.2045972899
 31
0.0
 11
60.6646308181
 21
123.1756396189
 31
0.0
 11
60.6540798461
 21
123.1466555728
 31
0.0
 11
60.6437220192
 21
123.1176469917
 31
0.0
 11
60.6335571543
 21
123.0886157085
 31
0.0
 11
60.6235850466
 21
123.059563549
 31
0.0
 11
60.6138054691
 21
123.0304923308
 31
0.0
 11
60.6042181737
 21
123.0014038635
 31
0.0
 11
60.5948228906
 21
122.9722999484
 31
0.0
 11
60.585619329
 21
122.9431823781
 31
0.0
 11
60.5766071769
 21
122.9140529361
 31
0.0
 11
60.5677861018
 21
122.8849133967
 31
0.0
 11
60.5591557506
 21
122.8557655246
 31
0.0
 11
60.5507157498
 21
122.8266110746
 31
0.0
 11
60.542465706
 21
122.7974517917
 31
0.0
 11
60.5344052058
 21
122.7682894102
 31
0.0
 11
60.5265338163
 21
122.7391256541
 31
0.0
 11
60.5188510853
 21
122.7099622361
 31
0.0
 11
60.5113565412
 21
122.6808008583
 31
0.0
 11
60.5040496939
 21
122.6516432111
 31
0.0
 11
60.4969300344
 21
122.6224909735
 31
0.0
 11
60.4899970356
 21
122.5933458124
 31
0.0
 11
60.4832501519
 21
122.5642093831
 31
0.0
 11
60.4766888203
 21
122.5350833282
 31
0.0
 11
60.4703124598
 21
122.5059692781
 31
0.0
 11
60.4641204724
 21
122.4768688504
 31
0.0
 11
60.4581122428
 21
122.44778365
 31
0.0
 11
60.4522871391
 21
122.4187152685
 31
0.0
 11
60.4466445126
 21
122.3896652843
 31
0.0
 11
60.4411836987
 21
122.3606352625
 31
0.0
 11
60.4359040165
 21
122.3316267543
 31
0.0
 11
60.4308047696
 21
122.3026412975
 31
0.0
 11
60.4258852461
 21
122.2736804156
 31
0.0
 11
60.4211447189
 21
122.244745618
 31
0.0
 11
60.4165824461
 21
122.2158384001
 31
0.0
 11
60.4121976711
 21
122.1869602427
 31
0.0
 11
60.4079896232
 21
122.1581126119
 31
0.0
 11
60.4039575174
 21
122.1292969593
 31
0.0
 11
60.4001005552
 21
122.1005147216
 31
0.0
 11
60.3964179244
 21
122.0717673207
 31
0.0
 11
60.3929087998
 21
122.0430561631
 31
0.0
 11
60.3895723431
 21
122.0143826403
 31
0.0
 11
60.3864077037
 21
121.9857481286
 31
0.0
 11
60.3834140184
 21
121.9571539887
 31
0.0
 11
60.3805904121
 21
121.9286015659
 31
0.0
 11
60.3779359977
 21
121.9000921899
 31
0.0
 11
60.375449877
 21
121.8716271747
 31
0.0
 11
60.3731311402
 21
121.8432078186
 31
0.0
 11
60.370978867
 21
121.814835404
 31
0.0
 11
60.3689921262
 21
121.7865111974
 31
0.0
 11
60.3671699762
 21
121.7582364493
 31
0.0
 11
60.3655114655
 21
121.7300123943
 31
0.0
 11
60.3640156328
 21
121.7018402508
 31
0.0
 11
60.3626815072
 21
121.6737212211
 31
0.0
 11
60.3615081087
 21
121.6456564914
 31
0.0
 11
60.3604944483
 21
121.6176472314
 31
0.0
 11
60.3596395282
 21
121.5896945949
 31
0.0
 11
60.3589423423
 21
121.5617997192
 31
0.0
 11
60.3584018765
 21
121.5339637254
 31
0.0
 11
60.3580171086
 21
121.5061877181
 31
0.0
 11
60.3577105408
 21
121.4508200004
 31
0.0
  0
LINE
  5
27E
100
AcDbEntity
  8
0
100
AcDbLine
 62
7
  6
CONTINUOUS
 10
65.3577105408
 20
126.4508200004
 11
82.3577105408
 21
126.4508200004
  0
SPLINE
  5
27F
100
AcDbEntity
  8
0
100
AcDbSpline
 62
7
  6
CONTINUOUS
 70
4
 71
3
 72
8
 73
4
 74
255
 42
0.0000001
 43
0.0000001
 44
0.0000000001
 12
7.0710678119
 22
0.0
 32
0.0
 13
0.0
 23
7.0710678119
 33
0.0
 40
0.0
 40
0.0
 40
0.0
 40
0.0
 40
1.0
 40
1.0
 40
1.0
 40
1.0
 10
82.3577105408
 20
126.4508200004
 30
0.0
 41
1.0
 10
85.2866427289
 20
126.4508200004
 30
0.0
 41
0.8047378541
 10
87.3577105408
 20
128.5218878123
 30
0.0
 41
0.8047378541
 10
87.3577105408
 20
131.4508200004
 30
0.0
 41
1.0
 11
82.3577105408
 21
126.4508200004
 31
0.0
 11
82.4130782585
 21
126.4511265682
 31
0.0
 11
82.4408542657
 21
126.4515113361
 31
0.0
 11
82.4686902596
 21
126.4520518019
 31
0.0
 11
82.4965851353
 21
126.4527489878
 31
0.0
 11
82.5245377718
 21
126.4536039079
 31
0.0
 11
82.5525470317
 21
126.4546175684
 31
0.0
 11
82.5806117615
 21
126.4557909669
 31
0.0
 11
82.6087307912
 21
126.4571250924
 31
0.0
 11
82.6369029347
 21
126.4586209251
 31
0.0
 11
82.6651269897
 21
126.4602794358
 31
0.0
 11
82.6934017377
 21
126.4621015858
 31
0.0
 11
82.7217259443
 21
126.4640883267
 31
0.0
 11
82.750098359
 21
126.4662405999
 31
0.0
 11
82.7785177151
 21
126.4685593366
 31
0.0
 11
82.8069827303
 21
126.4710454573
 31
0.0
 11
82.8354921063
 21
126.4736998717
 31
0.0
 11
82.8640445291
 21
126.4765234781
 31
0.0
 11
82.892638669
 21
126.4795171634
 31
0.0
 11
82.9212731807
 21
126.4826818028
 31
0.0
 11
82.9499467034
 21
126.4860182594
 31
0.0
 11
82.978657861
 21
126.489527384
 31
0.0
 11
83.007405262
 21
126.4932100148
 31
0.0
 11
83.0361874997
 21
126.4970669771
 31
0.0
 11
83.0650031522
 21
126.5010990828
 31
0.0
 11
83.093850783
 21
126.5053071308
 31
0.0
 11
83.1227289405
 21
126.5096919057
 31
0.0
 11
83.1516361584
 21
126.5142541785
 31
0.0
 11
83.1805709559
 21
126.5189947057
 31
0.0
 11
83.2095318379
 21
126.5239142293
 31
0.0
 11
83.2385172947
 21
126.5290134761
 31
0.0
 11
83.2675258028
 21
126.5342931583
 31
0.0
 11
83.2965558247
 21
126.5397539722
 31
0.0
 11
83.3256058088
 21
126.5453965987
 31
0.0
 11
83.3546741904
 21
126.5512217024
 31
0.0
 11
83.3837593908
 21
126.557229932
 31
0.0
 11
83.4128598184
 21
126.5634219194
 31
0.0
 11
83.4419738685
 21
126.5697982799
 31
0.0
 11
83.4710999234
 21
126.5763596115
 31
0.0
 11
83.5002363528
 21
126.5831064952
 31
0.0
 11
83.5293815138
 21
126.5900394941
 31
0.0
 11
83.5585337515
 21
126.5971591535
 31
0.0
 11
83.5876913987
 21
126.6044660008
 31
0.0
 11
83.6168527765
 21
126.6119605449
 31
0.0
 11
83.6460161944
 21
126.619643276
 31
0.0
 11
83.6751799506
 21
126.6275146655
 31
0.0
 11
83.7043423321
 21
126.6355751656
 31
0.0
 11
83.733501615
 21
126.6438252095
 31
0.0
 11
83.7626560649
 21
126.6522652102
 31
0.0
 11
83.7918039371
 21
126.6608955615
 31
0.0
 11
83.8209434765
 21
126.6697166366
 31
0.0
 11
83.8500729185
 21
126.6787287886
 31
0.0
 11
83.8791904888
 21
126.6879323503
 31
0.0
 11
83.9082944039
 21
126.6973276334
 31
0.0
 11
83.9373828711
 21
126.7069149288
 31
0.0
 11
83.9664540893
 21
126.7166945062
 31
0.0
 11
83.9955062489
 21
126.726666614
 31
0.0
 11
84.024537532
 21
126.7368314789
 31
0.0
 11
84.0535461132
 21
126.7471893058
 31
0.0
 11
84.0825301593
 21
126.7577402777
 31
0.0
 11
84.1114878302
 21
126.7684845555
 31
0.0
 11
84.1404172788
 21
126.7794222775
 31
0.0
 11
84.1693166516
 21
126.7905535596
 31
0.0
 11
84.1981840886
 21
126.8018784951
 31
0.0
 11
84.2270177242
 21
126.8133971543
 31
0.0
 11
84.2558156873
 21
126.8251095844
 31
0.0
 11
84.2845761013
 21
126.8370158096
 31
0.0
 11
84.3132970852
 21
126.8491158305
 31
0.0
 11
84.341976753
 21
126.8614096245
 31
0.0
 11
84.370613215
 21
126.873897145
 31
0.0
 11
84.3992045775
 21
126.8865783221
 31
0.0
 11
84.4277489434
 21
126.8994530616
 31
0.0
 11
84.4562444126
 21
126.9125212455
 31
0.0
 11
84.4846890822
 21
126.9257827316
 31
0.0
 11
84.5130810471
 21
126.9392373534
 31
0.0
 11
84.5414184001
 21
126.9528849203
 31
0.0
 11
84.5696992328
 21
126.966725217
 31
0.0
 11
84.5979216351
 21
126.9807580039
 31
0.0
 11
84.6260836966
 21
126.9949830166
 31
0.0
 11
84.654183506
 21
127.0093999663
 31
0.0
 11
84.6822191525
 21
127.0240085391
 31
0.0
 11
84.7101887254
 21
127.0388083967
 31
0.0
 11
84.7380903145
 21
127.0537991757
 31
0.0
 11
84.7659220114
 21
127.068980488
 31
0.0
 11
84.7936819086
 21
127.0843519202
 31
0.0
 11
84.821368101
 21
127.0999130345
 31
0.0
 11
84.8489786856
 21
127.1156633676
 31
0.0
 11
84.8765117624
 21
127.1316024317
 31
0.0
 11
84.9039654343
 21
127.1477297135
 31
0.0
 11
84.9313378079
 21
127.1640446751
 31
0.0
 11
84.9586269939
 21
127.1805467534
 31
0.0
 11
84.9858311072
 21
127.1972353605
 31
0.0
 11
85.0129482674
 21
127.2141098834
 31
0.0
 11
85.0399765995
 21
127.2311696843
 31
0.0
 11
85.0669142341
 21
127.2484141005
 31
0.0
 11
85.0937593077
 21
127.2658424443
 31
0.0
 11
85.1205099632
 21
127.2834540036
 31
0.0
 11
85.1471643504
 21
127.3012480413
 31
0.0
 11
85.1737206263
 21
127.3192237958
 31
0.0
 11
85.2001769555
 21
127.3373804809
 31
0.0
 11
85.2265315108
 21
127.3557172859
 31
0.0
 11
85.2527824732
 21
127.374233376
 31
0.0
 11
85.2789280326
 21
127.3929278918
 31
0.0
 11
85.3049663884
 21
127.4117999499
 31
0.0
 11
85.3308957493
 21
127.4308486428
 31
0.0
 11
85.3567143343
 21
127.4500730393
 31
0.0
 11
85.3824203727
 21
127.4694721843
 31
0.0
 11
85.4080121046
 21
127.489045099
 31
0.0
 11
85.4334877816
 21
127.5087907812
 31
0.0
 11
85.4588456665
 21
127.5287082055
 31
0.0
 11
85.4840840344
 21
127.5487963231
 31
0.0
 11
85.5092011728
 21
127.5690540625
 31
0.0
 11
85.5341953817
 21
127.5894803293
 31
0.0
 11
85.5590649745
 21
127.6100740065
 31
0.0
 11
85.583808278
 21
127.6308339547
 31
0.0
 11
85.608423633
 21
127.6517590122
 31
0.0
 11
85.6329093943
 21
127.6728479955
 31
0.0
 11
85.6572639316
 21
127.6940996993
 31
0.0
 11
85.6814856295
 21
127.7155128966
 31
0.0
 11
85.7055728877
 21
127.7370863393
 31
0.0
 11
85.729524122
 21
127.758818758
 31
0.0
 11
85.7533377638
 21
127.7807088628
 31
0.0
 11
85.7770122611
 21
127.8027553429
 31
0.0
 11
85.8005460786
 21
127.8249568674
 31
0.0
 11
85.823937698
 21
127.8473120853
 31
0.0
 11
85.8471856183
 21
127.8698196258
 31
0.0
 11
85.8702883563
 21
127.8924780987
 31
0.0
 11
85.8932444467
 21
127.9152860945
 31
0.0
 11
85.9160524425
 21
127.9382421849
 31
0.0
 11
85.9387109154
 21
127.9613449228
 31
0.0
 11
85.9612184559
 21
127.9845928432
 31
0.0
 11
85.9835736738
 21
128.0079844626
 31
0.0
 11
86.0057751983
 21
128.0315182801
 31
0.0
 11
86.0278216784
 21
128.0551927774
 31
0.0
 11
86.0497117831
 21
128.0790064192
 31
0.0
 11
86.0714442019
 21
128.1029576534
 31
0.0
 11
86.0930176446
 21
128.1270449117
 31
0.0
 11
86.1144308419
 21
128.1512666095
 31
0.0
 11
86.1356825457
 21
128.1756211469
 31
0.0
 11
86.156771529
 21
128.2001069082
 31
0.0
 11
86.1776965865
 21
128.2247222631
 31
0.0
 11
86.1984565347
 21
128.2494655667
 31
0.0
 11
86.2190502118
 21
128.2743351595
 31
0.0
 11
86.2394764786
 21
128.2993293684
 31
0.0
 11
86.2597342181
 21
128.3244465068
 31
0.0
 11
86.2798223357
 21
128.3496848747
 31
0.0
 11
86.29973976
 21
128.3750427596
 31
0.0
 11
86.3194854422
 21
128.4005184366
 31
0.0
 11
86.3390583569
 21
128.4261101685
 31
0.0
 11
86.3584575018
 21
128.4518162069
 31
0.0
 11
86.3776818983
 21
128.4776347919
 31
0.0
 11
86.3967305913
 21
128.5035641528
 31
0.0
 11
86.4156026494
 21
128.5296025086
 31
0.0
 11
86.4342971652
 21
128.555748068
 31
0.0
 11
86.4528132552
 21
128.5819990304
 31
0.0
 11
86.4711500603
 21
128.6083535856
 31
0.0
 11
86.4893067454
 21
128.6348099149
 31
0.0
 11
86.5072824999
 21
128.6613661908
 31
0.0
 11
86.5250765376
 21
128.688020578
 31
0.0
 11
86.5426880969
 21
128.7147712335
 31
0.0
 11
86.5601164407
 21
128.7416163071
 31
0.0
 11
86.5773608569
 21
128.7685539416
 31
0.0
 11
86.5944206577
 21
128.7955822738
 31
0.0
 11
86.6112951806
 21
128.822699434
 31
0.0
 11
86.6279837877
 21
128.8499035473
 31
0.0
 11
86.6444858661
 21
128.8771927332
 31
0.0
 11
86.6608008277
 21
128.9045651069
 31
0.0
 11
86.6769281095
 21
128.9320187788
 31
0.0
 11
86.6928671735
 21
128.9595518556
 31
0.0
 11
86.7086175067
 21
128.9871624402
 31
0.0
 11
86.7241786209
 21
129.0148486326
 31
0.0
 11
86.7395500532
 21
129.0426085298
 31
0.0
 11
86.7547313654
 21
129.0704402266
 31
0.0
 11
86.7697221445
 21
129.0983418158
 31
0.0
 11
86.7845220021
 21
129.1263113886
 31
0.0
 11
86.7991305749
 21
129.1543470351
 31
0.0
 11
86.8135475246
 21
129.1824468446
 31
0.0
 11
86.8277725373
 21
129.2106089061
 31
0.0
 11
86.8418053242
 21
129.2388313084
 31
0.0
 11
86.8556456209
 21
129.267112141
 31
0.0
 11
86.8692931878
 21
129.2954494941
 31
0.0
 11
86.8827478096
 21
129.323841459
 31
0.0
 11
86.8960092957
 21
129.3522861286
 31
0.0
 11
86.9090774796
 21
129.3807815977
 31
0.0
 11
86.9219522191
 21
129.4093259636
 31
0.0
 11
86.9346333961
 21
129.4379173261
 31
0.0
 11
86.9471209167
 21
129.4665537881
 31
0.0
 11
86.9594147107
 21
129.495233456
 31
0.0
 11
86.9715147316
 21
129.5239544398
 31
0.0
 11
86.9834209568
 21
129.5527148539
 31
0.0
 11
86.9951333869
 21
129.581512817
 31
0.0
 11
87.0066520461
 21
129.6103464526
 31
0.0
 11
87.0179769816
 21
129.6392138896
 31
0.0
 11
87.0291082637
 21
129.6681132623
 31
0.0
 11
87.0400459857
 21
129.697042711
 31
0.0
 11
87.0507902635
 21
129.7260003819
 31
0.0
 11
87.0613412354
 21
129.754984428
 31
0.0
 11
87.0716990623
 21
129.7839930092
 31
0.0
 11
87.0818639272
 21
129.8130242923
 31
0.0
 11
87.091836035
 21
129.8420764518
 31
0.0
 11
87.1016156124
 21
129.8711476701
 31
0.0
 11
87.1112029078
 21
129.9002361373
 31
0.0
 11
87.1205981909
 21
129.9293400524
 31
0.0
 11
87.1298017525
 21
129.9584576227
 31
0.0
 11
87.1388139046
 21
129.9875870647
 31
0.0
 11
87.1476349797
 21
130.0167266041
 31
0.0
 11
87.1562653309
 21
130.0458744762
 31
0.0
 11
87.1647053317
 21
130.0750289262
 31
0.0
 11
87.1729553755
 21
130.1041882091
 31
0.0
 11
87.1810158757
 21
130.1333505906
 31
0.0
 11
87.1888872652
 21
130.1625143467
 31
0.0
 11
87.1965699963
 21
130.1916777647
 31
0.0
 11
87.2040645403
 21
130.2208391425
 31
0.0
 11
87.2113713877
 21
130.2499967897
 31
0.0
 11
87.2184910471
 21
130.2791490273
 31
0.0
 11
87.225424046
 21
130.3082941884
 31
0.0
 11
87.2321709296
 21
130.3374306177
 31
0.0
 11
87.2387322613
 21
130.3665566726
 31
0.0
 11
87.2451086217
 21
130.3956707227
 31
0.0
 11
87.2513006092
 21
130.4247711504
 31
0.0
 11
87.2573088387
 21
130.4538563508
 31
0.0
 11
87.2631339425
 21
130.4829247323
 31
0.0
 11
87.2687765689
 21
130.5119747165
 31
0.0
 11
87.2742373829
 21
130.5410047383
 31
0.0
 11
87.279517065
 21
130.5700132465
 31
0.0
 11
87.2846163119
 21
130.5989987033
 31
0.0
 11
87.2895358354
 21
130.6279595852
 31
0.0
 11
87.2942763626
 21
130.6568943828
 31
0.0
 11
87.2988386355
 21
130.6858016007
 31
0.0
 11
87.3032234104
 21
130.7146797582
 31
0.0
 11
87.3074314583
 21
130.7435273889
 31
0.0
 11
87.3114635641
 21
130.7723430415
 31
0.0
 11
87.3153205264
 21
130.8011252792
 31
0.0
 11
87.3190031572
 21
130.8298726801
 31
0.0
 11
87.3225122818
 21
130.8585838377
 31
0.0
 11
87.3258487384
 21
130.8872573605
 31
0.0
 11
87.3290133778
 21
130.9158918722
 31
0.0
 11
87.3320070631
 21
130.9444860121
 31
0.0
 11
87.3348306695
 21
130.9730384349
 31
0.0
 11
87.3374850838
 21
131.0015478109
 31
0.0
 11
87.3399712046
 21
131.0300128261
 31
0.0
 11
87.3422899413
 21
131.0584321822
 31
0.0
 11
87.3444422145
 21
131.0868045968
 31
0.0
 11
87.3464289554
 21
131.1151288035
 31
0.0
 11
87.3482511054
 21
131.1434035515
 31
0.0
 11
87.349909616
 21
131.1716276065
 31
0.0
 11
87.3514054487
 21
131.19979975
 31
0.0
 11
87.3527395743
 21
131.2279187797
 31
0.0
 11
87.3539129728
 21
131.2559835094
 31
0.0
 11
87.3549266333
 21
131.2839927694
 31
0.0
 11
87.3557815534
 21
131.3119454059
 31
0.0
 11
87.3564787392
 21
131.3398402816
 31
0.0
 11
87.3570192051
 21
131.3676762754
 31
0.0
 11
87.357403973
 21
131.3954522827
 31
0.0
 11
87.3577105408
 21
131.4508200004
 31
0.0
  0
LINE
  5
280
100
AcDbEntity
  8
0
100
AcDbLine
 62
7
  6
CONTINUOUS
 10
87.3577105408
 20
157.705753474
 11
87.3577105408
 21
131.4508200004
  0
SPLINE
  5
281
100
AcDbEntity
  8
0
100
AcDbSpline
 62
7
  6
CONTINUOUS
 70
4
 71
3
 72
8
 73
4
 74
129
 42
0.0000001
 43
0.0000001
 44
0.0000000001
 12
0.0
 22
6.9122648639
 32
0.0
 13
-6.9054445686
 23
0.3069867401
 33
0.0
 40
0.0
 40
0.0
 40
0.0
 40
0.0
 40
1.0
 40
1.0
 40
1.0
 40
1.0
 10
87.3577105408
 20
157.705753474
 30
0.0
 41
1.0
 10
87.3577105408
 20
160.5325361462
 30
0.0
 41
0.8150921225
 10
85.4037634865
 20
162.575277242
 30
0.0
 41
0.8150921225
 10
82.579769986
 20
162.7008200004
 30
0.0
 41
1.0
 11
87.3577105408
 21
157.705753474
 31
0.0
 11
87.3574176591
 21
157.7598712288
 31
0.0
 11
87.3565340131
 21
157.8142149536
 31
0.0
 11
87.3550521875
 21
157.8687763725
 31
0.0
 11
87.3529648876
 21
157.9235469786
 31
0.0
 11
87.3502649465
 21
157.9785180344
 31
0.0
 11
87.3469453335
 21
158.0336805736
 31
0.0
 11
87.3429991612
 21
158.0890254019
 31
0.0
 11
87.3384196936
 21
158.1445430995
 31
0.0
 11
87.3332003535
 21
158.2002240225
 31
0.0
 11
87.327334731
 21
158.2560583059
 31
0.0
 11
87.3208165906
 21
158.3120358655
 31
0.0
 11
87.3136398794
 21
158.3681464016
 31
0.0
 11
87.3057987348
 21
158.4243794017
 31
0.0
 11
87.2972874924
 21
158.480724144
 31
0.0
 11
87.2881006933
 21
158.5371697016
 31
0.0
 11
87.2782330925
 21
158.5937049465
 31
0.0
 11
87.2676796659
 21
158.6503185539
 31
0.0
 11
87.256435618
 21
158.706999007
 31
0.0
 11
87.2444963896
 21
158.7637346023
 31
0.0
 11
87.2318576647
 21
158.8205134546
 31
0.0
 11
87.2185153782
 21
158.877323503
 31
0.0
 11
87.2044657225
 21
158.9341525168
 31
0.0
 11
87.189705155
 21
158.9909881018
 31
0.0
 11
87.1742304043
 21
159.0478177066
 31
0.0
 11
87.1580384772
 21
159.1046286301
 31
0.0
 11
87.1411266651
 21
159.1614080282
 31
0.0
 11
87.12349255
 21
159.2181429214
 31
0.0
 11
87.1051340105
 21
159.2748202027
 31
0.0
 11
87.0860492278
 21
159.3314266455
 31
0.0
 11
87.0662366912
 21
159.3879489118
 31
0.0
 11
87.045695203
 21
159.444373561
 31
0.0
 11
87.0244238839
 21
159.5006870586
 31
0.0
 11
87.0024221775
 21
159.5568757854
 31
0.0
 11
86.9796898548
 21
159.6129260464
 31
0.0
 11
86.9562270181
 21
159.668824081
 31
0.0
 11
86.9320341051
 21
159.7245560718
 31
0.0
 11
86.9071118921
 21
159.7801081556
 31
0.0
 11
86.8814614971
 21
159.8354664324
 31
0.0
 11
86.8550843827
 21
159.8906169768
 31
0.0
 11
86.8279823585
 21
159.9455458473
 31
0.0
 11
86.8001575828
 21
160.000239098
 31
0.0
 11
86.7716125646
 21
160.0546827885
 31
0.0
 11
86.7423501646
 21
160.1088629949
 31
0.0
 11
86.7123735962
 21
160.1627658211
 31
0.0
 11
86.6816864259
 21
160.2163774094
 31
0.0
 11
86.6502925733
 21
160.2696839516
 31
0.0
 11
86.6181963108
 21
160.3226717004
 31
0.0
 11
86.5854022627
 21
160.3753269801
 31
0.0
 11
86.5519154042
 21
160.4276361982
 31
0.0
 11
86.5177410594
 21
160.4795858562
 31
0.0
 11
86.4828848998
 21
160.5311625608
 31
0.0
 11
86.4473529414
 21
160.5823530352
 31
0.0
 11
86.4111515419
 21
160.6331441296
 31
0.0
 11
86.3742873975
 21
160.6835228328
 31
0.0
 11
86.3367675391
 21
160.7334762823
 31
0.0
 11
86.2985993283
 21
160.7829917756
 31
0.0
 11
86.2597904525
 21
160.8320567802
 31
0.0
 11
86.2203489205
 21
160.8806589447
 31
0.0
 11
86.1802830565
 21
160.9287861084
 31
0.0
 11
86.139601495
 21
160.9764263116
 31
0.0
 11
86.0983131742
 21
161.0235678056
 31
0.0
 11
86.0564273299
 21
161.0701990619
 31
0.0
 11
86.0139534884
 21
161.1163087819
 31
0.0
 11
85.9709014592
 21
161.161885906
 31
0.0
 11
85.9272813278
 21
161.2069196221
 31
0.0
 11
85.8831034475
 21
161.2513993747
 31
0.0
 11
85.8383784315
 21
161.2953148726
 31
0.0
 11
85.7931171441
 21
161.3386560972
 31
0.0
 11
85.7473306922
 21
161.3814133099
 31
0.0
 11
85.7010304161
 21
161.4235770593
 31
0.0
 11
85.65422788
 21
161.4651381886
 31
0.0
 11
85.606934863
 21
161.5060878414
 31
0.0
 11
85.5591633488
 21
161.5464174684
 31
0.0
 11
85.5109255159
 21
161.5861188332
 31
0.0
 11
85.4622337274
 21
161.6251840173
 31
0.0
 11
85.4131005208
 21
161.6636054255
 31
0.0
 11
85.3635385972
 21
161.7013757904
 31
0.0
 11
85.3135608109
 21
161.7384881765
 31
0.0
 11
85.2631801586
 21
161.7749359841
 31
0.0
 11
85.2124097684
 21
161.8107129525
 31
0.0
 11
85.161262889
 21
161.8458131633
 31
0.0
 11
85.1097528786
 21
161.8802310427
 31
0.0
 11
85.0578931939
 21
161.9139613633
 31
0.0
 11
85.0056973791
 21
161.9469992467
 31
0.0
 11
84.9531790546
 21
161.9793401637
 31
0.0
 11
84.9003519059
 21
162.0109799359
 31
0.0
 11
84.847229673
 21
162.0419147361
 31
0.0
 11
84.7938261387
 21
162.0721410878
 31
0.0
 11
84.7401551182
 21
162.1016558655
 31
0.0
 11
84.6862304481
 21
162.1304562936
 31
0.0
 11
84.6320659755
 21
162.1585399451
 31
0.0
 11
84.5776755473
 21
162.1859047405
 31
0.0
 11
84.5230729998
 21
162.2125489454
 31
0.0
 11
84.4682721485
 21
162.2384711688
 31
0.0
 11
84.4132867773
 21
162.2636703596
 31
0.0
 11
84.358130629
 21
162.2881458045
 31
0.0
 11
84.3028173951
 21
162.3118971241
 31
0.0
 11
84.2473607061
 21
162.3349242694
 31
0.0
 11
84.1917741222
 21
162.3572275178
 31
0.0
 11
84.136071124
 21
162.3788074686
 31
0.0
 11
84.0802651032
 21
162.399665039
 31
0.0
 11
84.0243693544
 21
162.4198014584
 31
0.0
 11
83.9683970658
 21
162.439218264
 31
0.0
 11
83.9123613114
 21
162.457917295
 31
0.0
 11
83.8562750429
 21
162.475900687
 31
0.0
 11
83.800151082
 21
162.493170866
 31
0.0
 11
83.7440021129
 21
162.5097305428
 31
0.0
 11
83.6878406747
 21
162.5255827062
 31
0.0
 11
83.6316791555
 21
162.5407306166
 31
0.0
 11
83.5755297846
 21
162.5551777996
 31
0.0
 11
83.5194046272
 21
162.568928039
 31
0.0
 11
83.4633155778
 21
162.5819853699
 31
0.0
 11
83.4072743547
 21
162.5943540714
 31
0.0
 11
83.3512924947
 21
162.6060386597
 31
0.0
 11
83.2953813478
 21
162.6170438806
 31
0.0
 11
83.2395520726
 21
162.6273747021
 31
0.0
 11
83.1838156318
 21
162.637036307
 31
0.0
 11
83.1281827878
 21
162.6460340852
 31
0.0
 11
83.0726640992
 21
162.6543736261
 31
0.0
 11
83.017269917
 21
162.6620607112
 31
0.0
 11
82.9620103813
 21
162.6691013062
 31
0.0
 11
82.9068954184
 21
162.6755015532
 31
0.0
 11
82.8519347381
 21
162.6812677633
 31
0.0
 11
82.7971378314
 21
162.6864064088
 31
0.0
 11
82.7425139681
 21
162.6909241153
 31
0.0
 11
82.6880721953
 21
162.6948276544
 31
0.0
 11
82.6338213356
 21
162.698123936
 31
0.0
 11
82.579769986
 21
162.7008200004
 31
0.0
  0
LINE
  5
282
100
AcDbEntity
  8
0
100
AcDbLine
 62
7
  6
CONTINUOUS
 10
60.0632986517
 20
163.7018066951
 11
82.579769986
 21
162.7008200004
  0
SPLINE
  5
283
100
AcDbEntity
  8
0
100
AcDbSpline
 62
7
  6
CONTINUOUS
 70
4
 71
3
 72
8
 73
4
 74
129
 42
0.0000001
 43
0.0000001
 44
0.0000000001
 12
0.0
 22
-1.3824529728
 32
0.0
 13
1.3810889137
 23
-0.061397348
 33
0.0
 40
0.0
 40
0.0
 40
0.0
 40
0.0
 40
1.0
 40
1.0
 40
1.0
 40
1.0
 10
59.1077105408
 20
164.7008200004
 30
0.0
 41
1.0
 10
59.1077105408
 20
164.135463466
 30
0.0
 41
0.8150921225
 10
59.4984999516
 20
163.7269152468
 30
0.0
 41
0.8150921225
 10
60.0632986517
 20
163.7018066951
 30
0.0
 41
1.0
 11
59.1077105408
 21
164.7008200004
 31
0.0
 11
59.1077691171
 21
164.6899964494
 31
0.0
 11
59.1079458463
 21
164.6791277045
 31
0.0
 11
59.1082422114
 21
164.6682154207
 31
0.0
 11
59.1086596714
 21
164.6572612995
 31
0.0
 11
59.1091996596
 21
164.6462670883
 31
0.0
 11
59.1098635822
 21
164.6352345805
 31
0.0
 11
59.1106528167
 21
164.6241656148
 31
0.0
 11
59.1115687102
 21
164.6130620753
 31
0.0
 11
59.1126125782
 21
164.6019258907
 31
0.0
 11
59.1137857027
 21
164.590759034
 31
0.0
 11
59.1150893308
 21
164.5795635221
 31
0.0
 11
59.116524673
 21
164.5683414149
 31
0.0
 11
59.118092902
 21
164.5570948149
 31
0.0
 11
59.1197951504
 21
164.5458258664
 31
0.0
 11
59.1216325103
 21
164.5345367549
 31
0.0
 11
59.1236060304
 21
164.5232297059
 31
0.0
 11
59.1257167157
 21
164.5119069844
 31
0.0
 11
59.1279655253
 21
164.5005708938
 31
0.0
 11
59.130353371
 21
164.4892237748
 31
0.0
 11
59.132881116
 21
164.4778680043
 31
0.0
 11
59.1355495733
 21
164.4665059946
 31
0.0
 11
59.1383595044
 21
164.4551401918
 31
0.0
 11
59.1413116179
 21
164.4437730749
 31
0.0
 11
59.1444065681
 21
164.4324071539
 31
0.0
 11
59.1476449535
 21
164.4210449692
 31
0.0
 11
59.1510273159
 21
164.4096890896
 31
0.0
 11
59.1545541389
 21
164.3983421109
 31
0.0
 11
59.1582258468
 21
164.3870066547
 31
0.0
 11
59.1620428034
 21
164.3756853661
 31
0.0
 11
59.1660053107
 21
164.3643809129
 31
0.0
 11
59.1701136083
 21
164.353095983
 31
0.0
 11
59.1743678721
 21
164.3418332835
 31
0.0
 11
59.1787682134
 21
164.3305955381
 31
0.0
 11
59.183314678
 21
164.3193854859
 31
0.0
 11
59.1880072453
 21
164.308205879
 31
0.0
 11
59.1928458279
 21
164.2970594808
 31
0.0
 11
59.1978302705
 21
164.2859490641
 31
0.0
 11
59.2029603495
 21
164.2748774087
 31
0.0
 11
59.2082357724
 21
164.2638472999
 31
0.0
 11
59.2136561772
 21
164.2528615257
 31
0.0
 11
59.2192211324
 21
164.2419228756
 31
0.0
 11
59.224930136
 21
164.2310341375
 31
0.0
 11
59.230782616
 21
164.2201980962
 31
0.0
 11
59.2367779297
 21
164.209417531
 31
0.0
 11
59.2429153637
 21
164.1986952133
 31
0.0
 11
59.2491941343
 21
164.1880339049
 31
0.0
 11
59.2556133868
 21
164.1774363551
 31
0.0
 11
59.2621721964
 21
164.1669052992
 31
0.0
 11
59.2688695681
 21
164.1564434556
 31
0.0
 11
59.275704437
 21
164.146053524
 31
0.0
 11
59.282675669
 21
164.1357381831
 31
0.0
 11
59.2897820606
 21
164.1255000882
 31
0.0
 11
59.2970223405
 21
164.1153418693
 31
0.0
 11
59.3043951694
 21
164.1052661287
 31
0.0
 11
59.3118991411
 21
164.0952754388
 31
0.0
 11
59.3195327833
 21
164.0853723401
 31
0.0
 11
59.3272945584
 21
164.0755593392
 31
0.0
 11
59.3351828648
 21
164.0658389063
 31
0.0
 11
59.3431960376
 21
164.0562134735
 31
0.0
 11
59.3513323499
 21
164.0466854329
 31
0.0
 11
59.3595900141
 21
164.0372571341
 31
0.0
 11
59.3679671829
 21
164.0279308828
 31
0.0
 11
59.3764619512
 21
164.0187089388
 31
0.0
 11
59.3850723571
 21
164.009593514
 31
0.0
 11
59.3937963834
 21
164.0005867708
 31
0.0
 11
59.4026319594
 21
163.9916908203
 31
0.0
 11
59.4115769626
 21
163.9829077207
 31
0.0
 11
59.4206292201
 21
163.9742394758
 31
0.0
 11
59.4297865105
 21
163.9656880332
 31
0.0
 11
59.4390465657
 21
163.9572552833
 31
0.0
 11
59.4484070729
 21
163.9489430575
 31
0.0
 11
59.4578656763
 21
163.9407531269
 31
0.0
 11
59.4674199792
 21
163.9326872015
 31
0.0
 11
59.4770675457
 21
163.9247469286
 31
0.0
 11
59.4868059034
 21
163.9169338917
 31
0.0
 11
59.4966325448
 21
163.9092496101
 31
0.0
 11
59.5065449295
 21
163.9016955371
 31
0.0
 11
59.5165404867
 21
163.8942730599
 31
0.0
 11
59.5266166172
 21
163.8869834984
 31
0.0
 11
59.5367706952
 21
163.8798281047
 31
0.0
 11
59.5470000711
 21
163.8728080625
 31
0.0
 11
59.5573020732
 21
163.8659244867
 31
0.0
 11
59.5676740101
 21
163.8591784225
 31
0.0
 11
59.5781131731
 21
163.8525708459
 31
0.0
 11
59.588616838
 21
163.8461026625
 31
0.0
 11
59.5991822677
 21
163.839774708
 31
0.0
 11
59.6098067143
 21
163.833587748
 31
0.0
 11
59.6204874212
 21
163.8275424777
 31
0.0
 11
59.6312216253
 21
163.8216395221
 31
0.0
 11
59.6420065593
 21
163.8158794365
 31
0.0
 11
59.6528394538
 21
163.8102627062
 31
0.0
 11
59.6637175395
 21
163.8047897471
 31
0.0
 11
59.674638049
 21
163.7994609061
 31
0.0
 11
59.6855982192
 21
163.7942764615
 31
0.0
 11
59.6965952935
 21
163.7892366233
 31
0.0
 11
59.7076265231
 21
163.7843415343
 31
0.0
 11
59.7186891699
 21
163.7795912704
 31
0.0
 11
59.7297805077
 21
163.7749858413
 31
0.0
 11
59.7408978245
 21
163.7705251917
 31
0.0
 11
59.7520384241
 21
163.7662092015
 31
0.0
 11
59.7631996283
 21
163.7620376874
 31
0.0
 11
59.774378778
 21
163.7580104035
 31
0.0
 11
59.7855732358
 21
163.7541270424
 31
0.0
 11
59.7967803867
 21
163.7503872362
 31
0.0
 11
59.8079976403
 21
163.7467905578
 31
0.0
 11
59.8192224325
 21
163.743336522
 31
0.0
 11
59.8304522264
 21
163.7400245867
 31
0.0
 11
59.841684514
 21
163.736854154
 31
0.0
 11
59.8529168178
 21
163.7338245719
 31
0.0
 11
59.864146692
 21
163.7309351353
 31
0.0
 11
59.8753717235
 21
163.7281850874
 31
0.0
 11
59.8865895334
 21
163.7255736212
 31
0.0
 11
59.897797778
 21
163.7230998809
 31
0.0
 11
59.90899415
 21
163.7207629633
 31
0.0
 11
59.9201763794
 21
163.7185619191
 31
0.0
 11
59.9313422344
 21
163.7164957548
 31
0.0
 11
59.9424895226
 21
163.7145634338
 31
0.0
 11
59.9536160914
 21
163.7127638782
 31
0.0
 11
59.9647198291
 21
163.71109597
 31
0.0
 11
59.9757986655
 21
163.709558553
 31
0.0
 11
59.9868505727
 21
163.708150434
 31
0.0
 11
59.9978735652
 21
163.7068703846
 31
0.0
 11
60.0088657013
 21
163.7057171426
 31
0.0
 11
60.0198250827
 21
163.7046894135
 31
0.0
 11
60.0307498553
 21
163.7037858722
 31
0.0
 11
60.0416382099
 21
163.7030051643
 31
0.0
 11
60.0524883818
 21
163.702345908
 31
0.0
 11
60.0632986517
 21
163.7018066951
 31
0.0
  0
LINE
  5
284
100
AcDbEntity
  8
0
100
AcDbLine
 62
7
  6
CONTINUOUS
 10
59.1077105408
 20
170.2008200004
 11
59.1077105408
 21
164.7008200004
  0
HATCH
  5
285
100
AcDbEntity
  8
0
100
AcDbHatch
 62
2
  6
CONTINUOUS
 10
0.0
 20
0.0
 30
0.0
210
0.0
220
0.0
230
1.0
  2
A
 70
0
 71
1
 91
2
 92
1
 93
27
 72
1
 10
59.1077105408
 20
195.2008200004
 11
120.6077105408
 21
195.2008200004
 72
1
 10
59.1077105408
 20
200.7008200004
 11
59.1077105408
 21
195.2008200004
 72
4
 94
3
 73
1
 74
0
 95
8
 96
4
 40
0.0
 40
0.0
 40
0.0
 40
0.0
 40
1.0
 40
1.0
 40
1.0
 40
1.0
 10
59.1077105408
 20
200.7008200004
 42
1.0
 10
59.1077105408
 20
201.2661765348
 42
0.8150921225
 10
59.4984999516
 20
201.674724754
 42
0.8150921225
 10
60.0632986517
 20
201.6998333057
 42
1.0
 72
1
 10
60.0632986517
 20
201.6998333057
 11
82.579769986
 21
202.7008200004
 72
4
 94
3
 73
1
 74
0
 95
8
 96
4
 40
0.0
 40
0.0
 40
0.0
 40
0.0
 40
1.0
 40
1.0
 40
1.0
 40
1.0
 10
87.3577105408
 20
207.6958865268
 42
1.0
 10
87.3577105408
 20
204.8691038546
 42
0.8150921225
 10
85.4037634865
 20
202.8263627588
 42
0.8150921225
 10
82.579769986
 20
202.7008200004
 42
1.0
 72
1
 10
87.3577105408
 20
233.9508200004
 11
87.3577105408
 21
207.6958865268
 72
4
 94
3
 73
1
 74
0
 95
8
 96
4
 40
0.0
 40
0.0
 40
0.0
 40
0.0
 40
1.0
 40
1.0
 40
1.0
 40
1.0
 10
82.3577105408
 20
238.9508200004
 42
1.0
 10
85.2866427289
 20
238.9508200004
 42
0.8047378541
 10
87.3577105408
 20
236.8797521885
 42
0.8047378541
 10
87.3577105408
 20
233.9508200004
 42
1.0
 72
1
 10
65.3577105408
 20
238.9508200004
 11
82.3577105408
 21
238.9508200004
 72
4
 94
3
 73
1
 74
0
 95
8
 96
4
 40
0.0
 40
0.0
 40
0.0
 40
0.0
 40
1.0
 40
1.0
 40
1.0
 40
1.0
 10
65.3577105408
 20
238.9508200004
 42
1.0
 10
62.4287783526
 20
238.9508200004
 42
0.8047378541
 10
60.3577105408
 20
241.0218878123
 42
0.8047378541
 10
60.3577105408
 20
243.9508200004
 42
1.0
 72
1
 10
60.3577105408
 20
259.9508200004
 11
60.3577105408
 21
243.9508200004
 72
1
 10
60.3577105408
 20
259.9508200004
 11
67.2977105408
 21
259.9508200004
 72
1
 10
67.2977105408
 20
259.9508200004
 11
67.8577964061
 21
243.9169723297
 72
4
 94
3
 73
1
 74
0
 95
8
 96
4
 40
0.0
 40
0.0
 40
0.0
 40
0.0
 40
1.0
 40
1.0
 40
1.0
 40
1.0
 10
68.7698706697
 20
242.955852986
 42
1.0
 10
68.2414475438
 20
243.0020861755
 42
0.8326404022
 10
67.8763142237
 20
243.386853854
 42
0.8326404022
 10
67.8577964061
 20
243.9169723297
 42
1.0
 72
1
 10
68.7698706697
 20
242.955852986
 11
89.8577105408
 21
241.1108200004
 72
1
 10
89.8577105408
 20
241.1108200004
 11
110.9455572873
 21
242.9556814703
 72
4
 94
3
 73
1
 74
0
 95
8
 96
4
 40
0.0
 40
0.0
 40
0.0
 40
0.0
 40
1.0
 40
1.0
 40
1.0
 40
1.0
 10
111.8577964061
 20
243.9169770247
 42
1.0
 10
111.8392807906
 20
243.3867591682
 42
0.8326362527
 10
111.4740796535
 20
243.0019190289
 42
0.8326362527
 10
110.9455572873
 20
242.9556814703
 42
1.0
 72
1
 10
111.8577964061
 20
243.9169770247
 11
112.4177105408
 21
259.9508200004
 72
1
 10
112.4177105408
 20
259.9508200004
 11
119.3577105408
 21
259.9508200004
 72
1
 10
119.3577105408
 20
259.9508200004
 11
119.3577105408
 21
243.9508200004
 72
4
 94
3
 73
1
 74
0
 95
8
 96
4
 40
0.0
 40
0.0
 40
0.0
 40
0.0
 40
1.0
 40
1.0
 40
1.0
 40
1.0
 10
119.3577105408
 20
243.9508200004
 42
1.0
 10
119.3577105408
 20
241.0218878123
 42
0.8047378541
 10
117.2866427289
 20
238.9508200004
 42
0.8047378541
 10
114.3577105408
 20
238.9508200004
 42
1.0
 72
1
 10
97.3577105408
 20
238.9508200004
 11
114.3577105408
 21
238.9508200004
 72
4
 94
3
 73
1
 74
0
 95
8
 96
4
 40
0.0
 40
0.0
 40
0.0
 40
0.0
 40
1.0
 40
1.0
 40
1.0
 40
1.0
 10
92.3577105408
 20
233.9508200004
 42
1.0
 10
92.3577105408
 20
236.8797521885
 42
0.8047378541
 10
94.4287783526
 20
238.9508200004
 42
0.8047378541
 10
97.3577105408
 20
238.9508200004
 42
1.0
 72
1
 10
92.3577105408
 20
233.9508200004
 11
92.3577105408
 21
207.6958865268
 72
4
 94
3
 73
1
 74
0
 95
8
 96
4
 40
0.0
 40
0.0
 40
0.0
 40
0.0
 40
1.0
 40
1.0
 40
1.0
 40
1.0
 10
97.1356510956
 20
202.7008200004
 42
1.0
 10
94.311657595
 20
202.8263627588
 42
0.8150921225
 10
92.3577105408
 20
204.8691038546
 42
0.8150921225
 10
92.3577105408
 20
207.6958865268
 42
1.0
 72
1
 10
97.1356510956
 20
202.7008200004
 11
119.6521224298
 21
201.6998333057
 72
4
 94
3
 73
1
 74
0
 95
8
 96
4
 40
0.0
 40
0.0
 40
0.0
 40
0.0
 40
1.0
 40
1.0
 40
1.0
 40
1.0
 10
119.6521224298
 20
201.6998333057
 42
1.0
 10
120.2169211299
 20
201.674724754
 42
0.8150921225
 10
120.6077105408
 20
201.2661765348
 42
0.8150921225
 10
120.6077105408
 20
200.7008200004
 42
1.0
 72
1
 10
120.6077105408
 20
200.7008200004
 11
120.6077105408
 21
195.2008200004
 97
54
330
24F
330
250
330
251
330
252
330
253
330
254
330
255
330
256
330
257
330
258
330
259
330
25A
330
25B
330
25C
330
25D
330
25E
330
25F
330
260
330
261
330
262
330
263
330
264
330
265
330
266
330
267
330
268
330
269
330
26A
330
26B
330
26C
330
26D
330
26E
330
26F
330
270
330
271
330
272
330
273
330
274
330
275
330
276
330
277
330
278
330
279
330
27A
330
27B
330
27C
330
27D
330
27E
330
27F
330
280
330
281
330
282
330
283
330
284
 92
1
 93
27
 72
1
 10
59.1077105408
 20
170.2008200004
 11
120.6077105408
 21
170.2008200004
 72
1
 10
120.6077105408
 20
170.2008200004
 11
120.6077105408
 21
164.7008200004
 72
4
 94
3
 73
1
 74
0
 95
8
 96
4
 40
0.0
 40
0.0
 40
0.0
 40
0.0
 40
1.0
 40
1.0
 40
1.0
 40
1.0
 10
119.6521224298
 20
163.7018066951
 42
1.0
 10
120.2169211299
 20
163.7269152468
 42
0.8150921225
 10
120.6077105408
 20
164.135463466
 42
0.8150921225
 10
120.6077105408
 20
164.7008200004
 42
1.0
 72
1
 10
97.1356510956
 20
162.7008200004
 11
119.6521224298
 21
163.7018066951
 72
4
 94
3
 73
1
 74
0
 95
8
 96
4
 40
0.0
 40
0.0
 40
0.0
 40
0.0
 40
1.0
 40
1.0
 40
1.0
 40
1.0
 10
97.1356510956
 20
162.7008200004
 42
1.0
 10
94.311657595
 20
162.575277242
 42
0.8150921225
 10
92.3577105408
 20
160.5325361462
 42
0.8150921225
 10
92.3577105408
 20
157.705753474
 42
1.0
 72
1
 10
92.3577105408
 20
157.705753474
 11
92.3577105408
 21
131.4508200004
 72
4
 94
3
 73
1
 74
0
 95
8
 96
4
 40
0.0
 40
0.0
 40
0.0
 40
0.0
 40
1.0
 40
1.0
 40
1.0
 40
1.0
 10
92.3577105408
 20
131.4508200004
 42
1.0
 10
92.3577105408
 20
128.5218878123
 42
0.8047378541
 10
94.4287783526
 20
126.4508200004
 42
0.8047378541
 10
97.3577105408
 20
126.4508200004
 42
1.0
 72
1
 10
97.3577105408
 20
126.4508200004
 11
114.3577105408
 21
126.4508200004
 72
4
 94
3
 73
1
 74
0
 95
8
 96
4
 40
0.0
 40
0.0
 40
0.0
 40
0.0
 40
1.0
 40
1.0
 40
1.0
 40
1.0
 10
119.3577105408
 20
121.4508200004
 42
1.0
 10
119.3577105408
 20
124.3797521885
 42
0.8047378541
 10
117.2866427289
 20
126.4508200004
 42
0.8047378541
 10
114.3577105408
 20
126.4508200004
 42
1.0
 72
1
 10
119.3577105408
 20
121.4508200004
 11
119.3577105408
 21
105.4508200004
 72
1
 10
112.4177105408
 20
105.4508200004
 11
119.3577105408
 21
105.4508200004
 72
1
 10
111.8577964061
 20
121.4846629761
 11
112.4177105408
 21
105.4508200004
 72
4
 94
3
 73
1
 74
0
 95
8
 96
4
 40
0.0
 40
0.0
 40
0.0
 40
0.0
 40
1.0
 40
1.0
 40
1.0
 40
1.0
 10
111.8577964061
 20
121.4846629761
 42
1.0
 10
111.8392807906
 20
122.0148808326
 42
0.8326362527
 10
111.4740796535
 20
122.3997209719
 42
0.8326362527
 10
110.9455572873
 20
122.4459585305
 42
1.0
 72
1
 10
89.8577105408
 20
124.2908200004
 11
110.9455572873
 21
122.4459585305
 72
1
 10
68.7698706697
 20
122.4457870148
 11
89.8577105408
 21
124.2908200004
 72
4
 94
3
 73
1
 74
0
 95
8
 96
4
 40
0.0
 40
0.0
 40
0.0
 40
0.0
 40
1.0
 40
1.0
 40
1.0
 40
1.0
 10
68.7698706697
 20
122.4457870148
 42
1.0
 10
68.2414475438
 20
122.3995538253
 42
0.8326404022
 10
67.8763142237
 20
122.0147861468
 42
0.8326404022
 10
67.8577964061
 20
121.4846676711
 42
1.0
 72
1
 10
67.2977105408
 20
105.4508200004
 11
67.8577964061
 21
121.4846676711
 72
1
 10
60.3577105408
 20
105.4508200004
 11
67.2977105408
 21
105.4508200004
 72
1
 10
60.3577105408
 20
121.4508200004
 11
60.3577105408
 21
105.4508200004
 72
4
 94
3
 73
1
 74
0
 95
8
 96
4
 40
0.0
 40
0.0
 40
0.0
 40
0.0
 40
1.0
 40
1.0
 40
1.0
 40
1.0
 10
65.3577105408
 20
126.4508200004
 42
1.0
 10
62.4287783526
 20
126.4508200004
 42
0.8047378541
 10
60.3577105408
 20
124.3797521885
 42
0.8047378541
 10
60.3577105408
 20
121.4508200004
 42
1.0
 72
1
 10
65.3577105408
 20
126.4508200004
 11
82.3577105408
 21
126.4508200004
 72
4
 94
3
 73
1
 74
0
 95
8
 96
4
 40
0.0
 40
0.0
 40
0.0
 40
0.0
 40
1.0
 40
1.0
 40
1.0
 40
1.0
 10
82.3577105408
 20
126.4508200004
 42
1.0
 10
85.2866427289
 20
126.4508200004
 42
0.8047378541
 10
87.3577105408
 20
128.5218878123
 42
0.8047378541
 10
87.3577105408
 20
131.4508200004
 42
1.0
 72
1
 10
87.3577105408
 20
157.705753474
 11
87.3577105408
 21
131.4508200004
 72
4
 94
3
 73
1
 74
0
 95
8
 96
4
 40
0.0
 40
0.0
 40
0.0
 40
0.0
 40
1.0
 40
1.0
 40
1.0
 40
1.0
 10
87.3577105408
 20
157.705753474
 42
1.0
 10
87.3577105408
 20
160.5325361462
 42
0.8150921225
 10
85.4037634865
 20
162.575277242
 42
0.8150921225
 10
82.579769986
 20
162.7008200004
 42
1.0
 72
1
 10
60.0632986517
 20
163.7018066951
 11
82.579769986
 21
162.7008200004
 72
4
 94
3
 73
1
 74
0
 95
8
 96
4
 40
0.0
 40
0.0
 40
0.0
 40
0.0
 40
1.0
 40
1.0
 40
1.0
 40
1.0
 10
59.1077105408
 20
164.7008200004
 42
1.0
 10
59.1077105408
 20
164.135463466
 42
0.8150921225
 10
59.4984999516
 20
163.7269152468
 42
0.8150921225
 10
60.0632986517
 20
163.7018066951
 42
1.0
 72
1
 10
59.1077105408
 20
170.2008200004
 11
59.1077105408
 21
164.7008200004
 97
54
330
24F
330
250
330
251
330
252
330
253
330
254
330
255
330
256
330
257
330
258
330
259
330
25A
330
25B
330
25C
330
25D
330
25E
330
25F
330
260
330
261
330
262
330
263
330
264
330
265
330
266
330
267
330
268
330
269
330
26A
330
26B
330
26C
330
26D
330
26E
330
26F
330
270
330
271
330
272
330
273
330
274
330
275
330
276
330
277
330
278
330
279
330
27A
330
27B
330
27C
330
27D
330
27E
330
27F
330
280
330
281
330
282
330
283
330
284
 75
0
 76
0
 52
45.0
 41
2.0
 77
0
 78
1
 53
45.0
 43
0.0
 44
0.0
 45
-1.4142135624
 46
1.4142135624
 79
0
 98
1
 10
0.0
 20
0.0
  0
DIMENSION
  5
286
100
AcDbEntity
  8
0
100
AcDbDimension
 62
2
  6
CONTINUOUS
  2
*D0
 10
131.6777055587
 20
195.2008200004
 11
130.1355613329
 21
179.4414054036
 70
160
  1
%%c<>
  3
DIMSTYLE_1
100
AcDbAlignedDimension
 13
120.6297075531
 23
170.2008200004
 14
119.9699137387
 24
195.2008200004
 50
90.0
100
AcDbRotatedDimension
  0
DIMENSION
  5
287
100
AcDbEntity
  8
0
100
AcDbDimension
 62
2
  6
CONTINUOUS
  2
*D1
 10
120.6077105408
 20
89.498481686
 11
85.1562303938
 21
92.123481686
 70
160
  3
DIMSTYLE_2
100
AcDbAlignedDimension
 13
59.1077105408
 23
162.1632653061
 14
120.6077105408
 24
161.5102040816
100
AcDbRotatedDimension
  0
DIMENSION
  5
288
100
AcDbEntity
  8
0
100
AcDbDimension
 62
2
  6
CONTINUOUS
  2
*D2
 10
26.2434077402
 20
259.9508200004
 11
25.5414183473
 21
178.8640284443
 70
160
  1
%%c<>
  3
DIMSTYLE_3
100
AcDbAlignedDimension
 13
64.6409036007
 23
105.4508200004
 14
61.1221031946
 24
259.9508200004
 50
90.0
100
AcDbRotatedDimension
  0
DIMENSION
  5
289
100
AcDbEntity
  8
0
100
AcDbDimension
 62
2
  6
CONTINUOUS
  2
*D3
 10
45.9314510963
 20
202.7008200004
 11
44.3893068704
 21
180.5403057135
 70
160
  1
%%c<>
  3
DIMSTYLE_2
100
AcDbAlignedDimension
 13
72.6694847581
 23
162.7008200004
 14
72.8454247784
 24
202.7008200004
 50
90.0
100
AcDbRotatedDimension
  0
DIMENSION
  5
28A
100
AcDbEntity
  8
0
100
AcDbDimension
 62
2
  6
CONTINUOUS
  2
*D4
 10
67.8577964061
 20
267.428074114
 11
88.5079181375
 21
270.053074114
 70
160
  3
DIMSTYLE_2
100
AcDbAlignedDimension
 13
111.8577964061
 23
243.3294628602
 14
67.8577964061
 24
243.3294581652
 50
180.0
100
AcDbRotatedDimension
  0
DIMENSION
  5
28B
100
AcDbEntity
  8
0
100
AcDbDimension
 62
2
  6
CONTINUOUS
  2
*D5
 10
119.3577105408
 20
277.7742228004
 11
86.6782531235
 21
280.3992228004
 70
160
  3
DIMSTYLE_2
100
AcDbAlignedDimension
 13
60.3577105408
 23
260.4508200004
 14
119.3577105408
 24
260.4508200004
100
AcDbRotatedDimension
  0
LINE
  5
28C
100
AcDbEntity
  8
0
100
AcDbLine
 62
7
  6
CONTINUOUS
 10
5.0
 20
65.0
 11
205.0
 21
65.0
  0
LINE
  5
28D
100
AcDbEntity
  8
0
100
AcDbLine
 62
7
  6
CONTINUOUS
 10
5.0
 20
65.0
 11
5.0
 21
5.0
  0
LINE
  5
28E
100
AcDbEntity
  8
0
100
AcDbLine
 62
7
  6
CONTINUOUS
 10
5.0
 20
55.0
 11
182.0
 21
55.0
  0
LINE
  5
28F
100
AcDbEntity
  8
0
100
AcDbLine
 62
7
  6
CONTINUOUS
 10
55.0
 20
45.0
 11
182.0
 21
45.0
  0
LINE
  5
290
100
AcDbEntity
  8
0
100
AcDbLine
 62
7
  6
CONTINUOUS
 10
5.0
 20
35.0
 11
182.0
 21
35.0
  0
LINE
  5
291
100
AcDbEntity
  8
0
100
AcDbLine
 62
7
  6
CONTINUOUS
 10
5.0
 20
25.0
 11
55.0
 21
25.0
  0
LINE
  5
292
100
AcDbEntity
  8
0
100
AcDbLine
 62
7
  6
CONTINUOUS
 10
157.0
 20
25.0
 11
182.0
 21
25.0
  0
LINE
  5
293
100
AcDbEntity
  8
0
100
AcDbLine
 62
7
  6
CONTINUOUS
 10
5.0
 20
15.0
 11
205.0
 21
15.0
  0
LINE
  5
294
100
AcDbEntity
  8
0
100
AcDbLine
 62
7
  6
CONTINUOUS
 10
5.0
 20
5.0
 11
205.0
 21
5.0
  0
LINE
  5
295
100
AcDbEntity
  8
0
100
AcDbLine
 62
7
  6
CONTINUOUS
 10
55.0
 20
55.0
 11
55.0
 21
15.0
  0
LINE
  5
296
100
AcDbEntity
  8
0
100
AcDbLine
 62
7
  6
CONTINUOUS
 10
89.0
 20
15.0
 11
89.0
 21
5.0
  0
LINE
  5
297
100
AcDbEntity
  8
0
100
AcDbLine
 62
7
  6
CONTINUOUS
 10
93.0
 20
65.0
 11
93.0
 21
55.0
  0
LINE
  5
298
100
AcDbEntity
  8
0
100
AcDbLine
 62
7
  6
CONTINUOUS
 10
115.0
 20
55.0
 11
115.0
 21
35.0
  0
LINE
  5
299
100
AcDbEntity
  8
0
100
AcDbLine
 62
7
  6
CONTINUOUS
 10
135.0
 20
55.0
 11
135.0
 21
35.0
  0
LINE
  5
29A
100
AcDbEntity
  8
0
100
AcDbLine
 62
7
  6
CONTINUOUS
 10
157.0
 20
55.0
 11
157.0
 21
5.0
  0
LINE
  5
29B
100
AcDbEntity
  8
0
100
AcDbLine
 62
7
  6
CONTINUOUS
 10
182.0
 20
65.0
 11
182.0
 21
5.0
  0
LINE
  5
29C
100
AcDbEntity
  8
0
100
AcDbLine
 62
7
  6
CONTINUOUS
 10
205.0
 20
65.0
 11
205.0
 21
5.0
  0
MTEXT
  5
29D
100
AcDbEntity
  8
0
100
AcDbMText
 62
2
  6
CONTINUOUS
  7
TEXTSTYLE_4
 71
1
 72
1
 10
6.250025
 20
64.2345733881
 30
0.0
 11
1.0
 21
0.0
 31
0.0
  1
\Q10.0;Tratt. Termici (Heat treatments)
 40
2.0
 41
35.2
  0
MTEXT
  5
29E
100
AcDbEntity
  8
0
100
AcDbMText
 62
2
  6
CONTINUOUS
  7
TEXTSTYLE_4
 71
1
 72
1
 10
94.250025
 20
64.2345733881
 30
0.0
 11
1.0
 21
0.0
 31
0.0
  1
\Q10.0;Tratt. Superficiali (Surface Treatments)
 40
2.0
 41
44.0
  0
MTEXT
  5
29F
100
AcDbEntity
  8
0
100
AcDbMText
 62
2
  6
CONTINUOUS
  7
TEXTSTYLE_5
 71
1
 72
1
 10
182.7060686764
 20
16.48
 30
0.0
 11
0.0
 21
1.0
 31
0.0
  3
\Q10.0;Proprietà della Marbett S.p.A..\PSenza autorizzazione scritta della\Pstessa il presente disegno non può\Pessere comunque utilizzato per la\Pcostruzione dell'oggetto rappresentato,\Pnè venire comunicato a terzi o\Priprodotto. La società proprie
  1
taria\Ptutela i propri diritti a rigore di legge.
 40
1.6
 41
47.04
  0
MTEXT
  5
2A0
100
AcDbEntity
  8
0
100
AcDbMText
 62
2
  6
CONTINUOUS
  7
TEXTSTYLE_6
 71
2
 72
1
 10
49.0
 20
60.75
 30
0.0
 11
1.0
 21
0.0
 31
0.0
  1
\Q10.0;-
 40
4.0
 41
2.4
  0
MTEXT
  5
2A1
100
AcDbEntity
  8
0
100
AcDbMText
 62
2
  6
CONTINUOUS
  7
TEXTSTYLE_6
 71
2
 72
1
 10
137.5
 20
60.75
 30
0.0
 11
1.0
 21
0.0
 31
0.0
  1
\Q10.0;-
 40
4.0
 41
2.4
  0
MTEXT
  5
2A2
100
AcDbEntity
  8
0
100
AcDbMText
 62
2
  6
CONTINUOUS
  7
TEXTSTYLE_7
 71
2
 72
1
 10
30.0
 20
50.3173208162
 30
0.0
 11
1.0
 21
0.0
 31
0.0
  1
\Q10.0;Rexnord Marbett S.p.A.\P\H3.5;{\W0.7;- Ufficio Tecnico -}
 40
5.0
 41
46.0052083333
  0
MTEXT
  5
2A3
100
AcDbEntity
  8
0
100
AcDbMText
 62
2
  6
CONTINUOUS
  7
TEXTSTYLE_4
 71
1
 72
1
 10
56.250025
 20
54.2345733881
 30
0.0
 11
1.0
 21
0.0
 31
0.0
  1
\Q10.0;Linea (Line)
 40
2.0
 41
13.2
  0
MTEXT
  5
2A4
100
AcDbEntity
  8
0
100
AcDbMText
 62
2
  6
CONTINUOUS
  7
TEXTSTYLE_4
 71
1
 72
1
 10
116.250025
 20
54.2345733881
 30
0.0
 11
1.0
 21
0.0
 31
0.0
  1
\Q10.0;Peso (Weight) Kg
 40
2.0
 41
17.6
  0
MTEXT
  5
2A5
100
AcDbEntity
  8
0
100
AcDbMText
 62
2
  6
CONTINUOUS
  7
TEXTSTYLE_4
 71
1
 72
1
 10
136.250025
 20
54.2345733881
 30
0.0
 11
1.0
 21
0.0
 31
0.0
  1
\Q10.0;Tol.Gen.(Gen.Tol.)
 40
2.0
 41
19.8
  0
MTEXT
  5
2A6
100
AcDbEntity
  8
0
100
AcDbMText
 62
2
  6
CONTINUOUS
  7
TEXTSTYLE_4
 71
1
 72
1
 10
158.250025
 20
54.2345733881
 30
0.0
 11
1.0
 21
0.0
 31
0.0
  1
\Q10.0;Scala (Scale)
 40
2.0
 41
14.3
  0
MTEXT
  5
2A7
100
AcDbEntity
  8
0
100
AcDbMText
 62
2
  6
CONTINUOUS
  7
TEXTSTYLE_6
 71
2
 72
1
 10
85.0
 20
50.75
 30
0.0
 11
1.0
 21
0.0
 31
0.0
  1
\Q10.0;TableTop
 40
4.0
 41
19.2
  0
MTEXT
  5
2A8
100
AcDbEntity
  8
0
100
AcDbMText
 62
2
  6
CONTINUOUS
  7
TEXTSTYLE_6
 71
2
 72
1
 10
125.0
 20
50.75
 30
0.0
 11
1.0
 21
0.0
 31
0.0
  1
\Q10.0;0.399
 40
4.0
 41
12.0
  0
MTEXT
  5
2A9
100
AcDbEntity
  8
0
100
AcDbMText
 62
2
  6
CONTINUOUS
  7
TEXTSTYLE_9
 71
2
 72
1
 10
146.0
 20
50.75
 30
0.0
 11
1.0
 21
0.0
 31
0.0
  1
\Q10.0;{\Fgdt;`}\Ftxt;0.2
 40
4.0
 41
11.8666666667
  0
MTEXT
  5
2AA
100
AcDbEntity
  8
0
100
AcDbMText
 62
2
  6
CONTINUOUS
  7
TEXTSTYLE_6
 71
2
 72
1
 10
169.5
 20
50.75
 30
0.0
 11
1.0
 21
0.0
 31
0.0
  1
\Q10.0;1/1
 40
4.0
 41
7.2
  0
MTEXT
  5
2AB
100
AcDbEntity
  8
0
100
AcDbMText
 62
2
  6
CONTINUOUS
  7
TEXTSTYLE_4
 71
1
 72
1
 10
56.250025
 20
44.2345733881
 30
0.0
 11
1.0
 21
0.0
 31
0.0
  1
\Q10.0;Materiale (Material)
 40
2.0
 41
22.0
  0
MTEXT
  5
2AC
100
AcDbEntity
  8
0
100
AcDbMText
 62
2
  6
CONTINUOUS
  7
TEXTSTYLE_4
 71
1
 72
1
 10
116.250025
 20
44.2345733881
 30
0.0
 11
1.0
 21
0.0
 31
0.0
  1
\Q10.0;Colore (Color)
 40
2.0
 41
15.4
  0
MTEXT
  5
2AD
100
AcDbEntity
  8
0
100
AcDbMText
 62
2
  6
CONTINUOUS
  7
TEXTSTYLE_4
 71
1
 72
1
 10
136.250025
 20
44.2345733881
 30
0.0
 11
1.0
 21
0.0
 31
0.0
  1
\Q10.0;Ritiro (Contr.)%
 40
2.0
 41
17.6
  0
MTEXT
  5
2AE
100
AcDbEntity
  8
0
100
AcDbMText
 62
2
  6
CONTINUOUS
  7
TEXTSTYLE_4
 71
1
 72
1
 10
158.250025
 20
44.2345733881
 30
0.0
 11
1.0
 21
0.0
 31
0.0
  1
\Q10.0;Dis. (Designer)
 40
2.0
 41
16.5
  0
MTEXT
  5
2AF
100
AcDbEntity
  8
0
100
AcDbMText
 62
2
  6
CONTINUOUS
  7
TEXTSTYLE_6
 71
2
 72
1
 10
85.0
 20
40.75
 30
0.0
 11
1.0
 21
0.0
 31
0.0
  1
\Q10.0;PA6+30%FV
 40
4.0
 41
21.6
  0
MTEXT
  5
2B0
100
AcDbEntity
  8
0
100
AcDbMText
 62
2
  6
CONTINUOUS
  7
TEXTSTYLE_6
 71
2
 72
1
 10
169.5
 20
40.75
 30
0.0
 11
1.0
 21
0.0
 31
0.0
  1
\Q10.0;Lanza
 40
4.0
 41
12.0
  0
MTEXT
  5
2B1
100
AcDbEntity
  8
0
100
AcDbMText
 62
2
  6
CONTINUOUS
  7
TEXTSTYLE_4
 71
1
 72
1
 10
6.250025
 20
34.2345733881
 30
0.0
 11
1.0
 21
0.0
 31
0.0
  1
\Q10.0;Dis. Complessivo (Assembly Drawing)
 40
2.0
 41
38.5
  0
MTEXT
  5
2B2
100
AcDbEntity
  8
0
100
AcDbMText
 62
2
  6
CONTINUOUS
  7
TEXTSTYLE_4
 71
1
 72
1
 10
56.250025
 20
34.2345733881
 30
0.0
 11
1.0
 21
0.0
 31
0.0
  1
\Q10.0;Descrizione (Description)
 40
2.0
 41
27.5
  0
MTEXT
  5
2B3
100
AcDbEntity
  8
0
100
AcDbMText
 62
2
  6
CONTINUOUS
  7
TEXTSTYLE_4
 71
1
 72
1
 10
158.250025
 20
34.2345733881
 30
0.0
 11
1.0
 21
0.0
 31
0.0
  1
\Q10.0;Data (Date)
 40
2.0
 41
12.1
  0
MTEXT
  5
2B4
100
AcDbEntity
  8
0
100
AcDbMText
 62
2
  6
CONTINUOUS
  7
TEXTSTYLE_6
 71
2
 72
1
 10
106.0
 20
27.6549009608
 30
0.0
 11
1.0
 21
0.0
 31
0.0
  1
\Q10.0;Ruota di rinvio\PNXT820 T25 R25
 40
4.0
 41
36.0
  0
MTEXT
  5
2B5
100
AcDbEntity
  8
0
100
AcDbMText
 62
2
  6
CONTINUOUS
  7
TEXTSTYLE_6
 71
2
 72
1
 10
169.5
 20
30.75
 30
0.0
 11
1.0
 21
0.0
 31
0.0
  1
\Q10.0;11-02-08
 40
4.0
 41
19.2
  0
MTEXT
  5
2B6
100
AcDbEntity
  8
0
100
AcDbMText
 62
2
  6
CONTINUOUS
  7
TEXTSTYLE_4
 71
1
 72
1
 10
6.250025
 20
24.2345733881
 30
0.0
 11
1.0
 21
0.0
 31
0.0
  1
\Q10.0;Fase di Sviluppo (Development Status)
 40
2.0
 41
40.7
  0
MTEXT
  5
2B7
100
AcDbEntity
  8
0
100
AcDbMText
 62
2
  6
CONTINUOUS
  7
TEXTSTYLE_4
 71
1
 72
1
 10
158.250025
 20
24.2345733881
 30
0.0
 11
1.0
 21
0.0
 31
0.0
  1
\Q10.0;Contr. (Check)
 40
2.0
 41
15.4
  0
MTEXT
  5
2B8
100
AcDbEntity
  8
0
100
AcDbMText
 62
2
  6
CONTINUOUS
  7
TEXTSTYLE_4
 71
1
 72
1
 10
6.250025
 20
14.2345733881
 30
0.0
 11
1.0
 21
0.0
 31
0.0
  1
\Q10.0;Disegno o stp. (Drawing or mold)
 40
2.0
 41
35.2
  0
MTEXT
  5
2B9
100
AcDbEntity
  8
0
100
AcDbMText
 62
2
  6
CONTINUOUS
  7
TEXTSTYLE_4
 71
1
 72
1
 10
90.250025
 20
14.2345733881
 30
0.0
 11
1.0
 21
0.0
 31
0.0
  1
\Q10.0;Progetto (Project)
 40
2.0
 41
19.8
  0
MTEXT
  5
2BA
100
AcDbEntity
  8
0
100
AcDbMText
 62
2
  6
CONTINUOUS
  7
TEXTSTYLE_4
 71
1
 72
1
 10
158.250025
 20
14.2345733881
 30
0.0
 11
1.0
 21
0.0
 31
0.0
  1
\Q10.0;Data (Date)
 40
2.0
 41
12.1
  0
MTEXT
  5
2BB
100
AcDbEntity
  8
0
100
AcDbMText
 62
2
  6
CONTINUOUS
  7
TEXTSTYLE_4
 71
1
 72
1
 10
183.250025
 20
14.2345733881
 30
0.0
 11
1.0
 21
0.0
 31
0.0
  1
\Q10.0;Foglio (Sheet)
 40
2.0
 41
15.4
  0
MTEXT
  5
2BC
100
AcDbEntity
  8
0
100
AcDbMText
 62
2
  6
CONTINUOUS
  7
TEXTSTYLE_6
 71
2
 72
1
 10
47.0
 20
10.75
 30
0.0
 11
1.0
 21
0.0
 31
0.0
  1
\Q10.0;NXT820T25R25
 40
4.0
 41
28.8
  0
MTEXT
  5
2BD
100
AcDbEntity
  8
0
100
AcDbMText
 62
2
  6
CONTINUOUS
  7
TEXTSTYLE_6
 71
3
 72
1
 10
203.749975
 20
10.75
 30
0.0
 11
1.0
 21
0.0
 31
0.0
  1
\Q10.0;1/1
 40
4.0
 41
7.2
  0
LINE
  5
2BE
100
AcDbEntity
  8
0
100
AcDbLine
 62
7
  6
CONTINUOUS
 10
197.0
 20
292.0
 11
205.0
 21
292.0
  0
LINE
  5
2BF
100
AcDbEntity
  8
0
100
AcDbLine
 62
7
  6
CONTINUOUS
 10
197.0
 20
292.0
 11
197.0
 21
65.0
  0
LINE
  5
2C0
100
AcDbEntity
  8
0
100
AcDbLine
 62
7
  6
CONTINUOUS
 10
197.0
 20
115.0
 11
205.0
 21
115.0
  0
LINE
  5
2C1
100
AcDbEntity
  8
0
100
AcDbLine
 62
7
  6
CONTINUOUS
 10
197.0
 20
95.0
 11
205.0
 21
95.0
  0
LINE
  5
2C2
100
AcDbEntity
  8
0
100
AcDbLine
 62
7
  6
CONTINUOUS
 10
197.0
 20
75.0
 11
205.0
 21
75.0
  0
LINE
  5
2C3
100
AcDbEntity
  8
0
100
AcDbLine
 62
7
  6
CONTINUOUS
 10
197.0
 20
65.0
 11
205.0
 21
65.0
  0
LINE
  5
2C4
100
AcDbEntity
  8
0
100
AcDbLine
 62
7
  6
CONTINUOUS
 10
205.0
 20
292.0
 11
205.0
 21
65.0
  0
MTEXT
  5
2C5
100
AcDbEntity
  8
0
100
AcDbMText
 62
2
  6
CONTINUOUS
  7
TEXTSTYLE_4
 71
1
 72
1
 10
197.7731649178
 20
116.75
 30
0.0
 11
0.0
 21
1.0
 31
0.0
  1
\Q10.0;Modifica (Modification)
 40
2.0
 41
25.3
  0
MTEXT
  5
2C6
100
AcDbEntity
  8
0
100
AcDbMText
 62
2
  6
CONTINUOUS
  7
TEXTSTYLE_4
 71
1
 72
1
 10
197.7731649178
 20
96.75
 30
0.0
 11
0.0
 21
1.0
 31
0.0
  1
\Q10.0;Dis. (Designer)
 40
2.0
 41
16.5
  0
MTEXT
  5
2C7
100
AcDbEntity
  8
0
100
AcDbMText
 62
2
  6
CONTINUOUS
  7
TEXTSTYLE_4
 71
1
 72
1
 10
197.7731649178
 20
78.95
 30
0.0
 11
0.0
 21
1.0
 31
0.0
  1
\Q10.0;Data (Date)
 40
2.0
 41
12.1
  0
MTEXT
  5
2C8
100
AcDbEntity
  8
0
100
AcDbMText
 62
2
  6
CONTINUOUS
  7
TEXTSTYLE_4
 71
1
 72
1
 10
197.7731649178
 20
67.8
 30
0.0
 11
0.0
 21
1.0
 31
0.0
  1
\Q10.0;Rev.
 40
2.0
 41
4.4
  0
MTEXT
  5
2C9
100
AcDbEntity
  8
0
100
AcDbMText
 62
2
  6
CONTINUOUS
  7
STANDARD
 71
1
 72
1
 10
79.6309064171
 20
79.928139588
 30
0.0
 11
1.0
 21
0.0
 31
0.0
  1
SEZIONE A-A
 40
3.5
 41
27.50055
  0
LINE
  5
2CA
100
AcDbEntity
  8
0
100
AcDbLine
 62
2
  6
CONTINUOUS
 10
210.0
 20
0.0
 11
205.0
 21
0.0
  0
LINE
  5
2CB
100
AcDbEntity
  8
0
100
AcDbLine
 62
2
  6
CONTINUOUS
 10
-0.0
 20
0.0
 11
5.0
 21
0.0
  0
LINE
  5
2CC
100
AcDbEntity
  8
0
100
AcDbLine
 62
7
  6
CONTINUOUS
 10
5.0
 20
5.0
 11
205.0
 21
5.0
  0
LINE
  5
2CD
100
AcDbEntity
  8
0
100
AcDbLine
 62
2
  6
CONTINUOUS
 10
-0.0
 20
297.0
 11
-0.0
 21
292.0
  0
LINE
  5
2CE
100
AcDbEntity
  8
0
100
AcDbLine
 62
2
  6
CONTINUOUS
 10
-0.0
 20
5.0
 11
-0.0
 21
0.0
  0
LINE
  5
2CF
100
AcDbEntity
  8
0
100
AcDbLine
 62
7
  6
CONTINUOUS
 10
5.0
 20
292.0
 11
5.0
 21
5.0
  0
LINE
  5
2D0
100
AcDbEntity
  8
0
100
AcDbLine
 62
7
  6
CONTINUOUS
 10
205.0
 20
5.0
 11
205.0
 21
292.0
  0
LINE
  5
2D1
100
AcDbEntity
  8
0
100
AcDbLine
 62
2
  6
CONTINUOUS
 10
210.0
 20
297.0
 11
210.0
 21
292.0
  0
LINE
  5
2D2
100
AcDbEntity
  8
0
100
AcDbLine
 62
2
  6
CONTINUOUS
 10
210.0
 20
5.0
 11
210.0
 21
0.0
  0
LINE
  5
2D3
100
AcDbEntity
  8
0
100
AcDbLine
 62
7
  6
CONTINUOUS
 10
205.0
 20
292.0
 11
5.0
 21
292.0
  0
LINE
  5
2D4
100
AcDbEntity
  8
0
100
AcDbLine
 62
2
  6
CONTINUOUS
 10
5.0
 20
297.0
 11
-0.0
 21
297.0
  0
LINE
  5
2D5
100
AcDbEntity
  8
0
100
AcDbLine
 62
2
  6
CONTINUOUS
 10
205.0
 20
297.0
 11
210.0
 21
297.0
  0
LINE
  5
2D6
100
AcDbEntity
  8
0
100
AcDbLine
 62
7
  6
CONTINUOUS
 10
60.3577105408
 20
105.4508200004
 11
67.2977105408
 21
105.4508200004
  0
LINE
  5
2D7
100
AcDbEntity
  8
0
100
AcDbLine
 62
7
  6
CONTINUOUS
 10
112.4177105408
 20
105.4508200004
 11
119.3577105408
 21
105.4508200004
  0
LINE
  5
2D8
100
AcDbEntity
  8
0
100
AcDbLine
 62
7
  6
CONTINUOUS
 10
68.7698706697
 20
122.4457870148
 11
89.8577105408
 21
124.2908200004
  0
LINE
  5
2D9
100
AcDbEntity
  8
0
100
AcDbLine
 62
7
  6
CONTINUOUS
 10
65.3577105408
 20
126.4508200004
 11
82.3577105408
 21
126.4508200004
  0
LINE
  5
2DA
100
AcDbEntity
  8
0
100
AcDbLine
 62
7
  6
CONTINUOUS
 10
97.3577105408
 20
126.4508200004
 11
114.3577105408
 21
126.4508200004
  0
LINE
  5
2DB
100
AcDbEntity
  8
0
100
AcDbLine
 62
7
  6
CONTINUOUS
 10
89.8577105408
 20
124.2908200004
 11
110.9455572873
 21
122.4459585305
  0
LINE
  5
2DC
100
AcDbEntity
  8
0
100
AcDbLine
 62
7
  6
CONTINUOUS
 10
59.1077105408
 20
200.7008200004
 11
59.1077105408
 21
164.7008200004
  0
LINE
  5
2DD
100
AcDbEntity
  8
0
100
AcDbLine
 62
7
  6
CONTINUOUS
 10
60.3577105408
 20
259.9508200004
 11
60.3577105408
 21
201.712921608
  0
LINE
  5
2DE
100
AcDbEntity
  8
0
100
AcDbLine
 62
7
  6
CONTINUOUS
 10
60.3577105408
 20
163.6887183928
 11
60.3577105408
 21
105.4508200004
  0
LINE
  5
2DF
100
AcDbEntity
  8
0
100
AcDbLine
 62
7
  6
CONTINUOUS
 10
65.3577105408
 20
238.9508200004
 11
65.3577105408
 21
201.9352003745
  0
LINE
  5
2E0
100
AcDbEntity
  8
0
100
AcDbLine
 62
7
  6
CONTINUOUS
 10
65.3577105408
 20
163.4664396263
 11
65.3577105408
 21
126.4508200004
  0
LINE
  5
2E1
100
AcDbEntity
  8
0
100
AcDbLine
 62
7
  6
CONTINUOUS
 10
67.2977105408
 20
259.9508200004
 11
67.8577964061
 21
243.9169723297
  0
LINE
  5
2E2
100
AcDbEntity
  8
0
100
AcDbLine
 62
7
  6
CONTINUOUS
 10
67.2977105408
 20
105.4508200004
 11
67.8577964061
 21
121.4846676711
  0
LINE
  5
2E3
100
AcDbEntity
  8
0
100
AcDbLine
 62
7
  6
CONTINUOUS
 10
97.1356510956
 20
162.7008200004
 11
119.6521224298
 21
163.7018066951
  0
LINE
  5
2E4
100
AcDbEntity
  8
0
100
AcDbLine
 62
7
  6
CONTINUOUS
 10
60.0632986517
 20
163.7018066951
 11
82.579769986
 21
162.7008200004
  0
LINE
  5
2E5
100
AcDbEntity
  8
0
100
AcDbLine
 62
7
  6
CONTINUOUS
 10
59.1077105408
 20
170.2008200004
 11
120.6077105408
 21
170.2008200004
  0
LINE
  5
2E6
100
AcDbEntity
  8
0
100
AcDbLine
 62
7
  6
CONTINUOUS
 10
82.3577105408
 20
238.9508200004
 11
82.3577105408
 21
202.7008200004
  0
LINE
  5
2E7
100
AcDbEntity
  8
0
100
AcDbLine
 62
7
  6
CONTINUOUS
 10
82.3577105408
 20
162.7008200004
 11
82.3577105408
 21
126.4508200004
  0
LINE
  5
2E8
100
AcDbEntity
  8
0
100
AcDbLine
 62
7
  6
CONTINUOUS
 10
87.3577105408
 20
233.9508200004
 11
87.3577105408
 21
207.6958865268
  0
LINE
  5
2E9
100
AcDbEntity
  8
0
100
AcDbLine
 62
7
  6
CONTINUOUS
 10
87.3577105408
 20
157.705753474
 11
87.3577105408
 21
131.4508200004
  0
LINE
  5
2EA
100
AcDbEntity
  8
ASSI
100
AcDbLine
 62
2
  6
CENTER
 10
123.6077105408
 20
182.7008200004
 11
56.1077105408
 21
182.7008200004
  0
LINE
  5
2EB
100
AcDbEntity
  8
0
100
AcDbLine
 62
7
  6
CONTINUOUS
 10
92.3577105408
 20
233.9508200004
 11
92.3577105408
 21
207.6958865268
  0
LINE
  5
2EC
100
AcDbEntity
  8
0
100
AcDbLine
 62
7
  6
CONTINUOUS
 10
92.3577105408
 20
157.705753474
 11
92.3577105408
 21
131.4508200004
  0
LINE
  5
2ED
100
AcDbEntity
  8
0
100
AcDbLine
 62
7
  6
CONTINUOUS
 10
97.3577105408
 20
238.9508200004
 11
97.3577105408
 21
202.7008200004
  0
LINE
  5
2EE
100
AcDbEntity
  8
0
100
AcDbLine
 62
7
  6
CONTINUOUS
 10
97.3577105408
 20
162.7008200004
 11
97.3577105408
 21
126.4508200004
  0
LINE
  5
2EF
100
AcDbEntity
  8
0
100
AcDbLine
 62
7
  6
CONTINUOUS
 10
59.1077105408
 20
195.2008200004
 11
120.6077105408
 21
195.2008200004
  0
LINE
  5
2F0
100
AcDbEntity
  8
0
100
AcDbLine
 62
7
  6
CONTINUOUS
 10
111.8577964061
 20
121.4846629761
 11
112.4177105408
 21
105.4508200004
  0
LINE
  5
2F1
100
AcDbEntity
  8
0
100
AcDbLine
 62
7
  6
CONTINUOUS
 10
111.8577964061
 20
243.9169770247
 11
112.4177105408
 21
259.9508200004
  0
LINE
  5
2F2
100
AcDbEntity
  8
0
100
AcDbLine
 62
7
  6
CONTINUOUS
 10
60.0632986517
 20
201.6998333057
 11
82.579769986
 21
202.7008200004
  0
LINE
  5
2F3
100
AcDbEntity
  8
0
100
AcDbLine
 62
7
  6
CONTINUOUS
 10
97.1356510956
 20
202.7008200004
 11
119.6521224298
 21
201.6998333057
  0
LINE
  5
2F4
100
AcDbEntity
  8
0
100
AcDbLine
 62
7
  6
CONTINUOUS
 10
114.3577105408
 20
238.9508200004
 11
114.3577105408
 21
201.9352003745
  0
LINE
  5
2F5
100
AcDbEntity
  8
0
100
AcDbLine
 62
7
  6
CONTINUOUS
 10
114.3577105408
 20
163.4664396263
 11
114.3577105408
 21
126.4508200004
  0
LINE
  5
2F6
100
AcDbEntity
  8
0
100
AcDbLine
 62
7
  6
CONTINUOUS
 10
119.3577105408
 20
259.9508200004
 11
119.3577105408
 21
201.712921608
  0
LINE
  5
2F7
100
AcDbEntity
  8
0
100
AcDbLine
 62
7
  6
CONTINUOUS
 10
119.3577105408
 20
163.6887183928
 11
119.3577105408
 21
105.4508200004
  0
LINE
  5
2F8
100
AcDbEntity
  8
0
100
AcDbLine
 62
7
  6
CONTINUOUS
 10
120.6077105408
 20
200.7008200004
 11
120.6077105408
 21
164.7008200004
  0
LINE
  5
2F9
100
AcDbEntity
  8
0
100
AcDbLine
 62
7
  6
CONTINUOUS
 10
89.8577105408
 20
241.1108200004
 11
110.9455572873
 21
242.9556814703
  0
LINE
  5
2FA
100
AcDbEntity
  8
0
100
AcDbLine
 62
7
  6
CONTINUOUS
 10
65.3577105408
 20
238.9508200004
 11
82.3577105408
 21
238.9508200004
  0
LINE
  5
2FB
100
AcDbEntity
  8
0
100
AcDbLine
 62
7
  6
CONTINUOUS
 10
97.3577105408
 20
238.9508200004
 11
114.3577105408
 21
238.9508200004
  0
LINE
  5
2FC
100
AcDbEntity
  8
0
100
AcDbLine
 62
7
  6
CONTINUOUS
 10
68.7698706697
 20
242.955852986
 11
89.8577105408
 21
241.1108200004
  0
LINE
  5
2FD
100
AcDbEntity
  8
0
100
AcDbLine
 62
7
  6
CONTINUOUS
 10
60.3577105408
 20
259.9508200004
 11
67.2977105408
 21
259.9508200004
  0
LINE
  5
2FE
100
AcDbEntity
  8
0
100
AcDbLine
 62
7
  6
CONTINUOUS
 10
112.4177105408
 20
259.9508200004
 11
119.3577105408
 21
259.9508200004
  0
ARC
  5
2FF
100
AcDbEntity
  8
0
100
AcDbCircle
 62
7
  6
CONTINUOUS
 10
82.3577105408
 20
157.705753474
 40
5.0
100
AcDbArc
 50
0.0
 51
87.4545489484
  0
ARC
  5
300
100
AcDbEntity
  8
0
100
AcDbCircle
 62
7
  6
CONTINUOUS
 10
65.3577105408
 20
121.4508200004
 40
5.0
100
AcDbArc
 50
90.0
 51
180.0
  0
ARC
  5
301
100
AcDbEntity
  8
0
100
AcDbCircle
 62
7
  6
CONTINUOUS
 10
82.3577105408
 20
131.4508200004
 40
5.0
100
AcDbArc
 50
270.0
 51
360.0
  0
ARC
  5
302
100
AcDbEntity
  8
0
100
AcDbCircle
 62
7
  6
CONTINUOUS
 10
60.1077105408
 20
164.7008200004
 40
1.0
100
AcDbArc
 50
180.0
 51
267.4545489484
  0
ARC
  5
303
100
AcDbEntity
  8
0
100
AcDbCircle
 62
7
  6
CONTINUOUS
 10
68.8570155024
 20
121.4497634794
 40
0.9998285378
100
AcDbArc
 50
95.0002320455
 51
177.9993876655
  0
ARC
  5
304
100
AcDbEntity
  8
0
100
AcDbCircle
 62
7
  6
CONTINUOUS
 10
82.3577105408
 20
207.6958865268
 40
5.0
100
AcDbArc
 50
272.5454510516
 51
360.0
  0
ARC
  5
305
100
AcDbEntity
  8
0
100
AcDbCircle
 62
7
  6
CONTINUOUS
 10
65.3577105408
 20
243.9508200004
 40
5.0
100
AcDbArc
 50
180.0
 51
270.0
  0
ARC
  5
306
100
AcDbEntity
  8
0
100
AcDbCircle
 62
7
  6
CONTINUOUS
 10
82.3577105408
 20
233.9508200004
 40
5.0
100
AcDbArc
 50
0.0
 51
90.0
  0
ARC
  5
307
100
AcDbEntity
  8
0
100
AcDbCircle
 62
7
  6
CONTINUOUS
 10
60.1077105408
 20
200.7008200004
 40
1.0
100
AcDbArc
 50
92.5454510516
 51
180.0
  0
ARC
  5
308
100
AcDbEntity
  8
0
100
AcDbCircle
 62
7
  6
CONTINUOUS
 10
68.8570155024
 20
243.9518765214
 40
0.9998285378
100
AcDbArc
 50
182.0006123345
 51
264.9997679545
  0
ARC
  5
309
100
AcDbEntity
  8
0
100
AcDbCircle
 62
7
  6
CONTINUOUS
 10
114.3577105408
 20
121.4508200004
 40
5.0
100
AcDbArc
 50
0.0
 51
90.0
  0
ARC
  5
30A
100
AcDbEntity
  8
0
100
AcDbCircle
 62
7
  6
CONTINUOUS
 10
97.3577105408
 20
131.4508200004
 40
5.0
100
AcDbArc
 50
180.0
 51
270.0
  0
ARC
  5
30B
100
AcDbEntity
  8
0
100
AcDbCircle
 62
7
  6
CONTINUOUS
 10
97.3577105408
 20
157.705753474
 40
5.0
100
AcDbArc
 50
92.5454510516
 51
180.0
  0
ARC
  5
30C
100
AcDbEntity
  8
0
100
AcDbCircle
 62
7
  6
CONTINUOUS
 10
110.8584055791
 20
121.4497634794
 40
1.0
100
AcDbArc
 50
2.0
 51
85.0002320455
  0
ARC
  5
30D
100
AcDbEntity
  8
0
100
AcDbCircle
 62
7
  6
CONTINUOUS
 10
119.6077105408
 20
164.7008200004
 40
1.0
100
AcDbArc
 50
272.5454510516
 51
360.0
  0
ARC
  5
30E
100
AcDbEntity
  8
0
100
AcDbCircle
 62
7
  6
CONTINUOUS
 10
97.3577105408
 20
207.6958865268
 40
5.0
100
AcDbArc
 50
180.0
 51
267.4545489484
  0
ARC
  5
30F
100
AcDbEntity
  8
0
100
AcDbCircle
 62
7
  6
CONTINUOUS
 10
114.3577105408
 20
243.9508200004
 40
5.0
100
AcDbArc
 50
270.0
 51
360.0
  0
ARC
  5
310
100
AcDbEntity
  8
0
100
AcDbCircle
 62
7
  6
CONTINUOUS
 10
97.3577105408
 20
233.9508200004
 40
5.0
100
AcDbArc
 50
90.0
 51
180.0
  0
ARC
  5
311
100
AcDbEntity
  8
0
100
AcDbCircle
 62
7
  6
CONTINUOUS
 10
119.6077105408
 20
200.7008200004
 40
1.0
100
AcDbArc
 50
0.0
 51
87.4545489484
  0
ARC
  5
312
100
AcDbEntity
  8
0
100
AcDbCircle
 62
7
  6
CONTINUOUS
 10
110.8584055791
 20
243.9518765214
 40
1.0
100
AcDbArc
 50
274.9997679545
 51
358.0
  0
ENDSEC
  0
SECTION
  2
OBJECTS
  0
DICTIONARY
  5
313
100
AcDbDictionary
  3
ACAD_GROUP
350
314
  3
ACAD_MLINESTYLE
350
315
  0
DICTIONARY
  5
314
102
{ACAD_REACTORS
330
313
102
}
100
AcDbDictionary
  0
DICTIONARY
  5
315
102
{ACAD_REACTORS
330
313
102
}
100
AcDbDictionary
  3
STANDARD
350
316
  0
MLINESTYLE
  5
316
102
{ACAD_REACTORS
330
315
102
}
100
AcDbMlineStyle
  2
STANDARD
 70
0
  3

 62
256
 51
90.0
 52
90.0
 71
2
 49
0.5
 62
256
  6
BYLAYER
 49
-0.5
 62
256
  6
BYLAYER
  0
ENDSEC
  0
EOF
