999
DXF file: NXT820T23R25.dxf
999
Pro/ENGINEER 2009380 by Parametric Technology Corporation
  0
SECTION
  2
HEADER
  9
$ACADVER
  1
AC1014
  9
$DWGCODEPAGE
  3
ANSI_1252
  9
$EXTMAX
 10
210.0
 20
297.0
 30
0.0
  9
$EXTMIN
 10
0.0
 20
0.0
 30
0.0
  9
$LIMMIN
 10
0.0
 20
0.0
  9
$LIMMAX
 10
210.0
 20
297.0
  9
$VIEWCTR
 10
105.0
 20
148.5
  9
$VIEWSIZE
 40
297.0
  9
$CLAYER
  8
0
  9
$LTSCALE
 40
19.36
  9
$CELTYPE
  6
BYLAYER
  9
$DIMSCALE
 40
1.0
  9
$DIMASZ
 40
3.5
  9
$DIMEXO
 40
2.2
  9
$DIMDLI
 40
13.376
  9
$DIMEXE
 40
6.336
  9
$DIMCEN
 40
3.168
  9
$DIMLFAC
 40
1.0
  9
$DIMBLK
  1
_ARROW_FILLED
  9
$DIMTXT
 40
3.5
  9
$DIMTOL
 70
1
  9
$DIMLIM
 70
0
  9
$DIMTFAC
 40
1.0
  9
$DIMTP
 40
0.01
  9
$DIMTM
 40
0.01
  9
$PDMODE
 70
3
  9
$PDSIZE
 40
0.3125
  9
$HANDSEED
  5
317
  9
$TILEMODE
 70
1
  9
$MEASUREMENT
 70
1
  0
ENDSEC
  0
SECTION
  2
CLASSES
  0
ENDSEC
  0
SECTION
  2
TABLES
  0
TABLE
  2
VPORT
  5
8
100
AcDbSymbolTable
 70
2
  0
VPORT
  5
1F4
100
AcDbSymbolTableRecord
100
AcDbViewportTableRecord
  2
*ACTIVE
 70
0
 10
0.0
 20
0.0
 11
1.0
 21
1.0
 12
105.0
 22
148.5
 13
0.0
 23
0.0
 14
1.0
 24
1.0
 15
0.0
 25
0.0
 16
0.0
 26
0.0
 36
1.0
 17
0.0
 27
0.0
 37
0.0
 40
297.0
 41
0.7070707071
 42
50.0
 43
0.0
 44
0.0
 50
0.0
 51
0.0
 71
0
 72
100
 73
1
 74
1
 75
0
 76
0
 77
0
 78
0
  0
ENDTAB
  0
TABLE
  2
LTYPE
  5
5
100
AcDbSymbolTable
 70
6
  0
LTYPE
  5
14
100
AcDbSymbolTableRecord
100
AcDbLinetypeTableRecord
  2
BYBLOCK
 70
0
  3

 72
65
 73
0
 40
0.0
  0
LTYPE
  5
15
100
AcDbSymbolTableRecord
100
AcDbLinetypeTableRecord
  2
BYLAYER
 70
0
  3

 72
65
 73
0
 40
0.0
  0
LTYPE
  5
16
100
AcDbSymbolTableRecord
100
AcDbLinetypeTableRecord
  2
CONTINUOUS
 70
64
  3
Solid line
 72
65
 73
0
 40
0.0
  0
LTYPE
  5
1F5
100
AcDbSymbolTableRecord
100
AcDbLinetypeTableRecord
  2
CENTER
 70
64
  3
____ _ ____ _ ____ _ ____ _ ____ _ ____ _ ____
 72
65
 73
4
 40
0.6
 49
0.375
 74
0
 49
-0.075
 74
0
 49
0.075
 74
0
 49
-0.075
 74
0
  0
LTYPE
  5
1F6
100
AcDbSymbolTableRecord
100
AcDbLinetypeTableRecord
  2
HIDDEN
 70
64
  3
- - - - - - - - - - - - - - - - - - - -
 72
65
 73
2
 40
0.2
 49
0.1
 74
0
 49
-0.1
 74
0
  0
LTYPE
  5
1F7
100
AcDbSymbolTableRecord
100
AcDbLinetypeTableRecord
  2
PHANTOM
 70
64
  3
_____ _ _ _____ _ _ _____ _ _ _____
 72
65
 73
6
 40
0.8
 49
0.45
 74
0
 49
-0.05
 74
0
 49
0.1
 74
0
 49
-0.05
 74
0
 49
0.1
 74
0
 49
-0.05
 74
0
  0
LTYPE
  5
1F8
100
AcDbSymbolTableRecord
100
AcDbLinetypeTableRecord
  2
DOT
 70
64
  3
. . . . . . . . . . . . . . . . . . . .
 72
65
 73
2
 40
0.2
 49
0.1
 74
0
 49
-0.1
 74
0
  0
LTYPE
  5
1F9
100
AcDbSymbolTableRecord
100
AcDbLinetypeTableRecord
  2
DASHED
 70
64
  3
- - - - - - - - - - - - - - - - - - - -
 72
65
 73
2
 40
0.2
 49
0.1
 74
0
 49
-0.1
 74
0
  0
ENDTAB
  0
TABLE
  2
LAYER
  5
2
100
AcDbSymbolTable
 70
36
  0
LAYER
  5
10
100
AcDbSymbolTableRecord
100
AcDbLayerTableRecord
  2
0
 70
0
 62
7
  6
CONTINUOUS
  0
LAYER
  5
1FA
100
AcDbSymbolTableRecord
100
AcDbLayerTableRecord
  2
DEFAULT_1
 70
0
 62
7
  6
CENTER
  0
LAYER
  5
1FB
100
AcDbSymbolTableRecord
100
AcDbLayerTableRecord
  2
DEFAULT_2
 70
0
 62
8
  6
HIDDEN
  0
LAYER
  5
1FC
100
AcDbSymbolTableRecord
100
AcDbLayerTableRecord
  2
DEFAULT_3
 70
0
 62
7
  6
PHANTOM
  0
LAYER
  5
1FD
100
AcDbSymbolTableRecord
100
AcDbLayerTableRecord
  2
ASSI
 70
0
 62
7
  6
CONTINUOUS
  0
LAYER
  5
1FE
100
AcDbSymbolTableRecord
100
AcDbLayerTableRecord
  2
PIANI
 70
0
 62
7
  6
CONTINUOUS
  0
LAYER
  5
1FF
100
AcDbSymbolTableRecord
100
AcDbLayerTableRecord
  2
PUNTI
 70
0
 62
7
  6
CONTINUOUS
  0
ENDTAB
  0
TABLE
  2
STYLE
  5
3
100
AcDbSymbolTable
 70
1
  0
STYLE
  5
11
100
AcDbSymbolTableRecord
100
AcDbTextStyleTableRecord
  2
STANDARD
 70
0
 40
0.0
 41
0.7143
 50
0.0
 71
0
 42
0.2
  3
txt
  4

  0
STYLE
  5
200
100
AcDbSymbolTableRecord
100
AcDbTextStyleTableRecord
  2
TEXTSTYLE_1
 70
0
 40
0.0
 41
0.8
 50
0.0
 71
0
 42
0.2
  3
gdt
  4

  0
STYLE
  5
201
100
AcDbSymbolTableRecord
100
AcDbTextStyleTableRecord
  2
TEXTSTYLE_2
 70
0
 40
0.0
 41
0.5
 50
0.0
 71
0
 42
0.2
  3
txt
  4

  0
STYLE
  5
202
100
AcDbSymbolTableRecord
100
AcDbTextStyleTableRecord
  2
TEXTSTYLE_3
 70
0
 40
0.0
 41
0.7143
 50
0.0
 71
0
 42
0.2
  3
gdt
  4

  0
STYLE
  5
203
100
AcDbSymbolTableRecord
100
AcDbTextStyleTableRecord
  2
TEXTSTYLE_4
 70
0
 40
0.0
 41
0.55
 50
0.0
 71
0
 42
0.2
  3
txt
  4

  0
STYLE
  5
204
100
AcDbSymbolTableRecord
100
AcDbTextStyleTableRecord
  2
TEXTSTYLE_5
 70
0
 40
0.0
 41
0.7
 50
0.0
 71
0
 42
0.2
  3
txt
  4

  0
STYLE
  5
205
100
AcDbSymbolTableRecord
100
AcDbTextStyleTableRecord
  2
TEXTSTYLE_6
 70
0
 40
0.0
 41
0.6
 50
0.0
 71
0
 42
0.2
  3
txt
  4

  0
STYLE
  5
206
100
AcDbSymbolTableRecord
100
AcDbTextStyleTableRecord
  2
TEXTSTYLE_7
 70
0
 40
0.0
 41
0.55
 50
0.0
 71
0
 42
0.2
  3
txt
  4

  0
STYLE
  5
207
100
AcDbSymbolTableRecord
100
AcDbTextStyleTableRecord
  2
TEXTSTYLE_8
 70
0
 40
0.0
 41
0.7
 50
0.0
 71
0
 42
0.2
  3
txt
  4

  0
STYLE
  5
208
100
AcDbSymbolTableRecord
100
AcDbTextStyleTableRecord
  2
TEXTSTYLE_9
 70
0
 40
0.0
 41
0.6
 50
0.0
 71
0
 42
0.2
  3
gdt
  4

  0
ENDTAB
  0
TABLE
  2
VIEW
  5
6
100
AcDbSymbolTable
 70
0
  0
ENDTAB
  0
TABLE
  2
UCS
  5
7
100
AcDbSymbolTable
 70
0
  0
ENDTAB
  0
TABLE
  2
APPID
  5
9
100
AcDbSymbolTable
 70
1
  0
APPID
  5
209
100
AcDbSymbolTableRecord
100
AcDbRegAppTableRecord
  2
ACAD
 70
0
  0
ENDTAB
  0
TABLE
  2
BLOCK_RECORD
  5
1
100
AcDbSymbolTable
 70
0
  0
BLOCK_RECORD
  5
1F
100
AcDbSymbolTableRecord
100
AcDbBlockTableRecord
  2
*MODEL_SPACE
  0
BLOCK_RECORD
  5
1B
100
AcDbSymbolTableRecord
100
AcDbBlockTableRecord
  2
*PAPER_SPACE
  0
BLOCK_RECORD
  5
20A
100
AcDbSymbolTableRecord
100
AcDbBlockTableRecord
  2
_ARROW_FILLED
  0
BLOCK_RECORD
  5
20B
100
AcDbSymbolTableRecord
100
AcDbBlockTableRecord
  2
*D0
  0
BLOCK_RECORD
  5
20C
100
AcDbSymbolTableRecord
100
AcDbBlockTableRecord
  2
*D1
  0
BLOCK_RECORD
  5
20D
100
AcDbSymbolTableRecord
100
AcDbBlockTableRecord
  2
*D2
  0
BLOCK_RECORD
  5
20E
100
AcDbSymbolTableRecord
100
AcDbBlockTableRecord
  2
*D3
  0
BLOCK_RECORD
  5
20F
100
AcDbSymbolTableRecord
100
AcDbBlockTableRecord
  2
*D4
  0
BLOCK_RECORD
  5
210
100
AcDbSymbolTableRecord
100
AcDbBlockTableRecord
  2
*D5
  0
ENDTAB
  0
TABLE
  2
DIMSTYLE
  5
A
100
AcDbSymbolTable
 70
1
  0
DIMSTYLE
105
211
100
AcDbSymbolTableRecord
100
AcDbDimStyleTableRecord
  2
STANDARD
 70
0
  3

  4

  5
_ARROW_FILLED
  6
_ARROW_FILLED
  7
_ARROW_FILLED
 40
1.0
 41
3.5
 42
0.0625
 43
0.38
 44
0.18
 45
0.0
 46
0.0
 47
0.01
 48
0.01
140
3.5
141
0.09
142
0.0
143
25.4
144
1.0
145
0.0
146
1.0
147
0.09
 71
1.0
 72
0.0
 73
0
 74
0
 75
0
 76
0
 77
1
 78
8
170
0
171
2
172
0
173
0
174
0
175
0
176
0
177
0
178
0
270
2
271
2
272
2
273
2
274
2
275
0
280
0
281
0
282
0
283
1
284
8
285
0
286
0
287
3
288
0
340
11
  0
DIMSTYLE
105
212
100
AcDbSymbolTableRecord
100
AcDbDimStyleTableRecord
  2
DIMSTYLE_1
 70
0
  3

  4

  5
_ARROW_FILLED
  6
_ARROW_FILLED
  7
_ARROW_FILLED
 40
1.0
 41
3.5
 42
0.0625
 43
0.38
 44
0.18
 45
0.0
 46
0.0
 47
0.1
 48
0.1
140
3.5
141
0.09
142
0.0
143
25.4
144
1.0
145
0.0
146
1.0
147
0.09
 71
0.0
 72
0.0
 73
0
 74
0
 75
0
 76
0
 77
1
 78
8
170
0
171
2
172
0
173
0
174
0
175
0
176
0
177
0
178
0
270
2
271
2
272
2
273
2
274
2
275
0
280
0
281
0
282
0
283
1
284
8
285
0
286
0
287
3
288
0
340
11
  0
DIMSTYLE
105
213
100
AcDbSymbolTableRecord
100
AcDbDimStyleTableRecord
  2
DIMSTYLE_2
 70
0
  3

  4

  5
_ARROW_FILLED
  6
_ARROW_FILLED
  7
_ARROW_FILLED
 40
1.0
 41
3.5
 42
0.0625
 43
0.38
 44
0.18
 45
0.0
 46
0.0
 47
0.15
 48
0.15
140
3.5
141
0.09
142
0.0
143
25.4
144
1.0
145
0.0
146
1.0
147
0.09
 71
0.0
 72
0.0
 73
0
 74
0
 75
0
 76
0
 77
1
 78
8
170
0
171
2
172
0
173
0
174
0
175
0
176
0
177
0
178
0
270
2
271
2
272
2
273
2
274
2
275
0
280
0
281
0
282
0
283
1
284
8
285
0
286
0
287
3
288
0
340
11
  0
DIMSTYLE
105
214
100
AcDbSymbolTableRecord
100
AcDbDimStyleTableRecord
  2
DIMSTYLE_3
 70
0
  3

  4

  5
_ARROW_FILLED
  6
_ARROW_FILLED
  7
_ARROW_FILLED
 40
1.0
 41
3.5
 42
0.0625
 43
0.38
 44
0.18
 45
0.0
 46
0.0
 47
0.2
 48
0.2
140
3.5
141
0.09
142
0.0
143
25.4
144
1.0
145
0.0
146
1.0
147
0.09
 71
0.0
 72
0.0
 73
0
 74
0
 75
0
 76
0
 77
1
 78
8
170
0
171
2
172
0
173
0
174
0
175
0
176
0
177
0
178
0
270
2
271
2
272
2
273
2
274
2
275
0
280
0
281
0
282
0
283
1
284
8
285
0
286
0
287
3
288
0
340
11
  0
ENDTAB
  0
ENDSEC
  0
SECTION
  2
BLOCKS
  0
BLOCK
  5
20
100
AcDbEntity
  8
0
100
AcDbBlockBegin
  2
*MODEL_SPACE
 70
0
 10
0.0
 20
0.0
 30
0.0
  3
*MODEL_SPACE
  1

  0
ENDBLK
  5
21
100
AcDbEntity
  8
0
100
AcDbBlockEnd
  0
BLOCK
  5
1C
100
AcDbEntity
  8
0
100
AcDbBlockBegin
  2
*PAPER_SPACE
 70
0
 10
0.0
 20
0.0
 30
0.0
  3
*PAPER_SPACE
  1

  0
ENDBLK
  5
1D
100
AcDbEntity
  8
0
100
AcDbBlockEnd
  0
BLOCK
  5
215
100
AcDbEntity
  8
0
100
AcDbBlockBegin
  2
_ARROW_FILLED
 70
64
 10
0.0
 20
0.0
  3
_ARROW_FILLED
  1

  0
SOLID
  5
216
100
AcDbEntity
  8
0
  6
BYBLOCK
 62
0
100
AcDbTrace
 10
0.0
 20
0.0
 11
-1.0
 21
0.1857142857
 12
-1.0
 22
-0.1857142857
 13
-1.0
 23
-0.1857142857
  0
ENDBLK
  5
217
100
AcDbEntity
  8
0
  6
BYBLOCK
 62
0
100
AcDbBlockEnd
  0
BLOCK
  5
218
100
AcDbEntity
  8
0
100
AcDbBlockBegin
 62
2
  6
CONTINUOUS
  2
*D0
 70
65
 10
0.0
 20
0.0
  3
*D0
  1

  0
MTEXT
  5
219
100
AcDbEntity
  8
0
100
AcDbMText
 62
2
  6
CONTINUOUS
  7
TEXTSTYLE_3
 71
2
 72
1
 10
144.7748654683
 20
189.6536751371
 30
0.0
 11
0.0
 21
1.0
 31
0.0
  1
{\Fgdt;n}\Ftxt;25
 40
3.5
 41
9.6667666667
  0
LINE
  5
21A
100
AcDbEntity
  8
0
100
AcDbLine
 62
2
  6
CONTINUOUS
 10
132.1251024939
 20
177.1536751371
 11
150.6498654683
 21
177.1536751371
  0
LINE
  5
21B
100
AcDbEntity
  8
0
100
AcDbLine
 62
2
  6
CONTINUOUS
 10
131.4653086795
 20
202.1536751371
 11
150.6498654683
 21
202.1536751371
  0
LINE
  5
21C
100
AcDbEntity
  8
0
100
AcDbLine
 62
2
  6
CONTINUOUS
 10
149.1498654683
 20
177.1536751371
 11
149.1498654683
 21
189.6536751371
  0
LINE
  5
21D
100
AcDbEntity
  8
0
100
AcDbLine
 62
2
  6
CONTINUOUS
 10
149.1498654683
 20
202.1536751371
 11
149.1498654683
 21
189.6536751371
  0
INSERT
  5
21E
100
AcDbEntity
  8
0
100
AcDbBlockReference
 62
2
  6
CONTINUOUS
  2
_ARROW_FILLED
 10
149.1498654683
 20
177.1536751371
 41
3.5
 42
3.5
 43
3.5
 50
270.0
  0
INSERT
  5
21F
100
AcDbEntity
  8
0
100
AcDbBlockReference
 62
2
  6
CONTINUOUS
  2
_ARROW_FILLED
 10
149.1498654683
 20
202.1536751371
 41
3.5
 42
3.5
 43
3.5
 50
90.0
  0
ENDBLK
  5
220
100
AcDbEntity
  8
0
  6
BYBLOCK
 62
0
100
AcDbBlockEnd
  0
BLOCK
  5
221
100
AcDbEntity
  8
0
100
AcDbBlockBegin
 62
2
  6
CONTINUOUS
  2
*D1
 70
65
 10
0.0
 20
0.0
  3
*D1
  1

  0
MTEXT
  5
222
100
AcDbEntity
  8
0
100
AcDbMText
 62
2
  6
CONTINUOUS
  7
STANDARD
 71
2
 72
1
 10
101.6517253346
 20
106.8263368227
 30
0.0
 11
1.0
 21
0.0
 31
0.0
  1
61.5
 40
3.5
 41
10.0002
  0
LINE
  5
223
100
AcDbEntity
  8
0
100
AcDbLine
 62
2
  6
CONTINUOUS
 10
70.6031054816
 20
172.4070598749
 11
70.6031054816
 21
100.9513368227
  0
LINE
  5
224
100
AcDbEntity
  8
0
100
AcDbLine
 62
2
  6
CONTINUOUS
 10
132.1031054816
 20
171.7779267203
 11
132.1031054816
 21
100.9513368227
  0
LINE
  5
225
100
AcDbEntity
  8
0
100
AcDbLine
 62
2
  6
CONTINUOUS
 10
70.6031054816
 20
102.4513368227
 11
101.3531054816
 21
102.4513368227
  0
LINE
  5
226
100
AcDbEntity
  8
0
100
AcDbLine
 62
2
  6
CONTINUOUS
 10
132.1031054816
 20
102.4513368227
 11
101.3531054816
 21
102.4513368227
  0
INSERT
  5
227
100
AcDbEntity
  8
0
100
AcDbBlockReference
 62
2
  6
CONTINUOUS
  2
_ARROW_FILLED
 10
70.6031054816
 20
102.4513368227
 41
3.5
 42
3.5
 43
3.5
 50
180.0
  0
INSERT
  5
228
100
AcDbEntity
  8
0
100
AcDbBlockReference
 62
2
  6
CONTINUOUS
  2
_ARROW_FILLED
 10
132.1031054816
 20
102.4513368227
 41
3.5
 42
3.5
 43
3.5
  0
ENDBLK
  5
229
100
AcDbEntity
  8
0
  6
BYBLOCK
 62
0
100
AcDbBlockEnd
  0
BLOCK
  5
22A
100
AcDbEntity
  8
0
100
AcDbBlockBegin
 62
2
  6
CONTINUOUS
  2
*D2
 70
65
 10
0.0
 20
0.0
  3
*D2
  1

  0
MTEXT
  5
22B
100
AcDbEntity
  8
0
100
AcDbMText
 62
2
  6
CONTINUOUS
  7
TEXTSTYLE_3
 71
2
 72
1
 10
23.4284327419
 20
189.6536751371
 30
0.0
 11
0.0
 21
1.0
 31
0.0
  1
{\Fgdt;n}\Ftxt;142.5
 40
3.5
 41
17.1669166667
  0
LINE
  5
22C
100
AcDbEntity
  8
0
100
AcDbLine
 62
2
  6
CONTINUOUS
 10
76.3862985415
 20
118.4036751371
 11
26.3034327419
 21
118.4036751371
  0
LINE
  5
22D
100
AcDbEntity
  8
0
100
AcDbLine
 62
2
  6
CONTINUOUS
 10
72.8674981354
 20
260.9036751371
 11
26.3034327419
 21
260.9036751371
  0
LINE
  5
22E
100
AcDbEntity
  8
0
100
AcDbLine
 62
2
  6
CONTINUOUS
 10
27.8034327419
 20
118.4036751371
 11
27.8034327419
 21
189.6536751371
  0
LINE
  5
22F
100
AcDbEntity
  8
0
100
AcDbLine
 62
2
  6
CONTINUOUS
 10
27.8034327419
 20
260.9036751371
 11
27.8034327419
 21
189.6536751371
  0
INSERT
  5
230
100
AcDbEntity
  8
0
100
AcDbBlockReference
 62
2
  6
CONTINUOUS
  2
_ARROW_FILLED
 10
27.8034327419
 20
118.4036751371
 41
3.5
 42
3.5
 43
3.5
 50
270.0
  0
INSERT
  5
231
100
AcDbEntity
  8
0
100
AcDbBlockReference
 62
2
  6
CONTINUOUS
  2
_ARROW_FILLED
 10
27.8034327419
 20
260.9036751371
 41
3.5
 42
3.5
 43
3.5
 50
90.0
  0
ENDBLK
  5
232
100
AcDbEntity
  8
0
  6
BYBLOCK
 62
0
100
AcDbBlockEnd
  0
BLOCK
  5
233
100
AcDbEntity
  8
0
100
AcDbBlockBegin
 62
2
  6
CONTINUOUS
  2
*D3
 70
65
 10
0.0
 20
0.0
  3
*D3
  1

  0
MTEXT
  5
234
100
AcDbEntity
  8
0
100
AcDbMText
 62
2
  6
CONTINUOUS
  7
TEXTSTYLE_3
 71
2
 72
1
 10
52.7015898481
 20
189.6536751371
 30
0.0
 11
0.0
 21
1.0
 31
0.0
  1
{\Fgdt;n}\Ftxt;40
 40
3.5
 41
9.6667666667
  0
LINE
  5
235
100
AcDbEntity
  8
0
100
AcDbLine
 62
2
  6
CONTINUOUS
 10
84.1648796989
 20
169.6536751371
 11
55.5765898481
 21
169.6536751371
  0
LINE
  5
236
100
AcDbEntity
  8
0
100
AcDbLine
 62
2
  6
CONTINUOUS
 10
84.3408197192
 20
209.6536751371
 11
55.5765898481
 21
209.6536751371
  0
LINE
  5
237
100
AcDbEntity
  8
0
100
AcDbLine
 62
2
  6
CONTINUOUS
 10
57.0765898481
 20
169.6536751371
 11
57.0765898481
 21
189.6536751371
  0
LINE
  5
238
100
AcDbEntity
  8
0
100
AcDbLine
 62
2
  6
CONTINUOUS
 10
57.0765898481
 20
209.6536751371
 11
57.0765898481
 21
189.6536751371
  0
INSERT
  5
239
100
AcDbEntity
  8
0
100
AcDbBlockReference
 62
2
  6
CONTINUOUS
  2
_ARROW_FILLED
 10
57.0765898481
 20
169.6536751371
 41
3.5
 42
3.5
 43
3.5
 50
270.0
  0
INSERT
  5
23A
100
AcDbEntity
  8
0
100
AcDbBlockReference
 62
2
  6
CONTINUOUS
  2
_ARROW_FILLED
 10
57.0765898481
 20
209.6536751371
 41
3.5
 42
3.5
 43
3.5
 50
90.0
  0
ENDBLK
  5
23B
100
AcDbEntity
  8
0
  6
BYBLOCK
 62
0
100
AcDbBlockEnd
  0
BLOCK
  5
23C
100
AcDbEntity
  8
0
100
AcDbBlockBegin
 62
2
  6
CONTINUOUS
  2
*D4
 70
65
 10
0.0
 20
0.0
  3
*D4
  1

  0
MTEXT
  5
23D
100
AcDbEntity
  8
0
100
AcDbMText
 62
2
  6
CONTINUOUS
  7
STANDARD
 71
2
 72
1
 10
102.5032772129
 20
272.7559292507
 30
0.0
 11
1.0
 21
0.0
 31
0.0
  1
44
 40
3.5
 41
5.0001
  0
LINE
  5
23E
100
AcDbEntity
  8
0
100
AcDbLine
 62
2
  6
CONTINUOUS
 10
123.3531054816
 20
241.3723965432
 11
123.3531054816
 21
269.8809292507
  0
LINE
  5
23F
100
AcDbEntity
  8
0
100
AcDbLine
 62
2
  6
CONTINUOUS
 10
79.3531054816
 20
241.3723965432
 11
79.3531054816
 21
269.8809292507
  0
LINE
  5
240
100
AcDbEntity
  8
0
100
AcDbLine
 62
2
  6
CONTINUOUS
 10
123.3531054816
 20
268.3809292507
 11
101.3531054816
 21
268.3809292507
  0
LINE
  5
241
100
AcDbEntity
  8
0
100
AcDbLine
 62
2
  6
CONTINUOUS
 10
79.3531054816
 20
268.3809292507
 11
101.3531054816
 21
268.3809292507
  0
INSERT
  5
242
100
AcDbEntity
  8
0
100
AcDbBlockReference
 62
2
  6
CONTINUOUS
  2
_ARROW_FILLED
 10
123.3531054816
 20
268.3809292507
 41
3.5
 42
3.5
 43
3.5
  0
INSERT
  5
243
100
AcDbEntity
  8
0
100
AcDbBlockReference
 62
2
  6
CONTINUOUS
  2
_ARROW_FILLED
 10
79.3531054816
 20
268.3809292507
 41
3.5
 42
3.5
 43
3.5
 50
180.0
  0
ENDBLK
  5
244
100
AcDbEntity
  8
0
  6
BYBLOCK
 62
0
100
AcDbBlockEnd
  0
BLOCK
  5
245
100
AcDbEntity
  8
0
100
AcDbBlockBegin
 62
2
  6
CONTINUOUS
  2
*D5
 70
65
 10
0.0
 20
0.0
  3
*D5
  1

  0
MTEXT
  5
246
100
AcDbEntity
  8
0
100
AcDbMText
 62
2
  6
CONTINUOUS
  7
STANDARD
 71
2
 72
1
 10
100.6679403744
 20
283.102077937
 30
0.0
 11
1.0
 21
0.0
 31
0.0
  1
59.5
 40
3.5
 41
10.0002
  0
LINE
  5
247
100
AcDbEntity
  8
0
100
AcDbLine
 62
2
  6
CONTINUOUS
 10
71.6031054816
 20
261.4036751371
 11
71.6031054816
 21
280.227077937
  0
LINE
  5
248
100
AcDbEntity
  8
0
100
AcDbLine
 62
2
  6
CONTINUOUS
 10
131.1031054816
 20
261.4036751371
 11
131.1031054816
 21
280.227077937
  0
LINE
  5
249
100
AcDbEntity
  8
0
100
AcDbLine
 62
2
  6
CONTINUOUS
 10
71.6031054816
 20
278.727077937
 11
101.3531054816
 21
278.727077937
  0
LINE
  5
24A
100
AcDbEntity
  8
0
100
AcDbLine
 62
2
  6
CONTINUOUS
 10
131.1031054816
 20
278.727077937
 11
101.3531054816
 21
278.727077937
  0
INSERT
  5
24B
100
AcDbEntity
  8
0
100
AcDbBlockReference
 62
2
  6
CONTINUOUS
  2
_ARROW_FILLED
 10
71.6031054816
 20
278.727077937
 41
3.5
 42
3.5
 43
3.5
 50
180.0
  0
INSERT
  5
24C
100
AcDbEntity
  8
0
100
AcDbBlockReference
 62
2
  6
CONTINUOUS
  2
_ARROW_FILLED
 10
131.1031054816
 20
278.727077937
 41
3.5
 42
3.5
 43
3.5
  0
ENDBLK
  5
24D
100
AcDbEntity
  8
0
  6
BYBLOCK
 62
0
100
AcDbBlockEnd
  0
ENDSEC
  0
SECTION
  2
ENTITIES
  0
MTEXT
  5
24E
100
AcDbEntity
  8
0
100
AcDbMText
 62
2
  6
CONTINUOUS
  7
TEXTSTYLE_2
 71
2
 72
1
 10
200.0485969212
 20
4.4774188379
 30
0.0
 11
1.0
 21
0.0
 31
0.0
  1
\Q10.0;UNI A4
 40
3.0
 41
9.0
  0
LINE
  5
24F
100
AcDbEntity
  8
0
100
AcDbLine
 62
7
  6
CONTINUOUS
 10
70.6031054816
 20
202.1536751371
 11
132.1031054816
 21
202.1536751371
  0
LINE
  5
250
100
AcDbEntity
  8
0
100
AcDbLine
 62
7
  6
CONTINUOUS
 10
70.6031054816
 20
207.6536751371
 11
70.6031054816
 21
202.1536751371
  0
SPLINE
  5
251
100
AcDbEntity
  8
0
100
AcDbSpline
 62
7
  6
CONTINUOUS
 70
4
 71
3
 72
8
 73
4
 74
129
 42
0.0000001
 43
0.0000001
 44
0.0000000001
 12
0.0
 22
1.3824529728
 32
0.0
 13
1.3810889137
 23
0.061397348
 33
0.0
 40
0.0
 40
0.0
 40
0.0
 40
0.0
 40
1.0
 40
1.0
 40
1.0
 40
1.0
 10
70.6031054816
 20
207.6536751371
 30
0.0
 41
1.0
 10
70.6031054816
 20
208.2190316715
 30
0.0
 41
0.8150921225
 10
70.9938948924
 20
208.6275798907
 30
0.0
 41
0.8150921225
 10
71.5586935925
 20
208.6526884424
 30
0.0
 41
1.0
 11
70.6031054816
 21
207.6536751371
 31
0.0
 11
70.6031640579
 21
207.6644986881
 31
0.0
 11
70.6033407871
 21
207.675367433
 31
0.0
 11
70.6036371522
 21
207.6862797168
 31
0.0
 11
70.6040546122
 21
207.697233838
 31
0.0
 11
70.6045946004
 21
207.7082280492
 31
0.0
 11
70.605258523
 21
207.719260557
 31
0.0
 11
70.6060477575
 21
207.7303295227
 31
0.0
 11
70.606963651
 21
207.7414330622
 31
0.0
 11
70.608007519
 21
207.7525692468
 31
0.0
 11
70.6091806435
 21
207.7637361035
 31
0.0
 11
70.6104842716
 21
207.7749316154
 31
0.0
 11
70.6119196139
 21
207.7861537226
 31
0.0
 11
70.6134878428
 21
207.7974003226
 31
0.0
 11
70.6151900913
 21
207.8086692711
 31
0.0
 11
70.6170274511
 21
207.8199583826
 31
0.0
 11
70.6190009712
 21
207.8312654316
 31
0.0
 11
70.6211116566
 21
207.8425881531
 31
0.0
 11
70.6233604661
 21
207.8539242437
 31
0.0
 11
70.6257483118
 21
207.8652713627
 31
0.0
 11
70.6282760568
 21
207.8766271332
 31
0.0
 11
70.6309445141
 21
207.8879891429
 31
0.0
 11
70.6337544452
 21
207.8993549457
 31
0.0
 11
70.6367065587
 21
207.9107220626
 31
0.0
 11
70.6398015089
 21
207.9220879836
 31
0.0
 11
70.6430398943
 21
207.9334501683
 31
0.0
 11
70.6464222567
 21
207.9448060479
 31
0.0
 11
70.6499490797
 21
207.9561530266
 31
0.0
 11
70.6536207876
 21
207.9674884828
 31
0.0
 11
70.6574377442
 21
207.9788097714
 31
0.0
 11
70.6614002515
 21
207.9901142246
 31
0.0
 11
70.6655085491
 21
208.0013991545
 31
0.0
 11
70.669762813
 21
208.012661854
 31
0.0
 11
70.6741631542
 21
208.0238995994
 31
0.0
 11
70.6787096188
 21
208.0351096516
 31
0.0
 11
70.6834021861
 21
208.0462892585
 31
0.0
 11
70.6882407687
 21
208.0574356567
 31
0.0
 11
70.6932252113
 21
208.0685460734
 31
0.0
 11
70.6983552903
 21
208.0796177288
 31
0.0
 11
70.7036307132
 21
208.0906478376
 31
0.0
 11
70.709051118
 21
208.1016336118
 31
0.0
 11
70.7146160732
 21
208.1125722619
 31
0.0
 11
70.7203250768
 21
208.123461
 31
0.0
 11
70.7261775568
 21
208.1342970413
 31
0.0
 11
70.7321728705
 21
208.1450776065
 31
0.0
 11
70.7383103046
 21
208.1557999242
 31
0.0
 11
70.7445890751
 21
208.1664612326
 31
0.0
 11
70.7510083276
 21
208.1770587824
 31
0.0
 11
70.7575671372
 21
208.1875898383
 31
0.0
 11
70.7642645089
 21
208.1980516819
 31
0.0
 11
70.7710993779
 21
208.2084416135
 31
0.0
 11
70.7780706098
 21
208.2187569545
 31
0.0
 11
70.7851770015
 21
208.2289950493
 31
0.0
 11
70.7924172814
 21
208.2391532682
 31
0.0
 11
70.7997901102
 21
208.2492290089
 31
0.0
 11
70.8072940819
 21
208.2592196988
 31
0.0
 11
70.8149277241
 21
208.2691227974
 31
0.0
 11
70.8226894992
 21
208.2789357983
 31
0.0
 11
70.8305778056
 21
208.2886562312
 31
0.0
 11
70.8385909784
 21
208.298281664
 31
0.0
 11
70.8467272908
 21
208.3078097046
 31
0.0
 11
70.8549849549
 21
208.3172380034
 31
0.0
 11
70.8633621238
 21
208.3265642547
 31
0.0
 11
70.8718568921
 21
208.3357861987
 31
0.0
 11
70.8804672979
 21
208.3449016235
 31
0.0
 11
70.8891913242
 21
208.3539083667
 31
0.0
 11
70.8980269002
 21
208.3628043172
 31
0.0
 11
70.9069719034
 21
208.3715874168
 31
0.0
 11
70.9160241609
 21
208.3802556617
 31
0.0
 11
70.9251814513
 21
208.3888071043
 31
0.0
 11
70.9344415065
 21
208.3972398542
 31
0.0
 11
70.9438020137
 21
208.40555208
 31
0.0
 11
70.9532606171
 21
208.4137420106
 31
0.0
 11
70.96281492
 21
208.421807936
 31
0.0
 11
70.9724624866
 21
208.4297482089
 31
0.0
 11
70.9822008443
 21
208.4375612458
 31
0.0
 11
70.9920274856
 21
208.4452455274
 31
0.0
 11
71.0019398703
 21
208.4527996004
 31
0.0
 11
71.0119354276
 21
208.4602220776
 31
0.0
 11
71.022011558
 21
208.4675116391
 31
0.0
 11
71.0321656361
 21
208.4746670328
 31
0.0
 11
71.0423950119
 21
208.481687075
 31
0.0
 11
71.052697014
 21
208.4885706508
 31
0.0
 11
71.063068951
 21
208.495316715
 31
0.0
 11
71.0735081139
 21
208.5019242916
 31
0.0
 11
71.0840117788
 21
208.508392475
 31
0.0
 11
71.0945772086
 21
208.5147204295
 31
0.0
 11
71.1052016551
 21
208.5209073895
 31
0.0
 11
71.115882362
 21
208.5269526599
 31
0.0
 11
71.1266165661
 21
208.5328556154
 31
0.0
 11
71.1374015001
 21
208.538615701
 31
0.0
 11
71.1482343946
 21
208.5442324313
 31
0.0
 11
71.1591124803
 21
208.5497053904
 31
0.0
 11
71.1700329898
 21
208.5550342314
 31
0.0
 11
71.18099316
 21
208.560218676
 31
0.0
 11
71.1919902343
 21
208.5652585142
 31
0.0
 11
71.2030214639
 21
208.5701536032
 31
0.0
 11
71.2140841107
 21
208.5749038671
 31
0.0
 11
71.2251754485
 21
208.5795092962
 31
0.0
 11
71.2362927653
 21
208.5839699458
 31
0.0
 11
71.2474333649
 21
208.588285936
 31
0.0
 11
71.2585945691
 21
208.5924574501
 31
0.0
 11
71.2697737189
 21
208.596484734
 31
0.0
 11
71.2809681766
 21
208.6003680951
 31
0.0
 11
71.2921753275
 21
208.6041079013
 31
0.0
 11
71.3033925812
 21
208.6077045797
 31
0.0
 11
71.3146173733
 21
208.6111586155
 31
0.0
 11
71.3258471672
 21
208.6144705509
 31
0.0
 11
71.3370794548
 21
208.6176409835
 31
0.0
 11
71.3483117586
 21
208.6206705656
 31
0.0
 11
71.3595416328
 21
208.6235600022
 31
0.0
 11
71.3707666643
 21
208.6263100501
 31
0.0
 11
71.3819844742
 21
208.6289215163
 31
0.0
 11
71.3931927188
 21
208.6313952566
 31
0.0
 11
71.4043890908
 21
208.6337321742
 31
0.0
 11
71.4155713202
 21
208.6359332184
 31
0.0
 11
71.4267371752
 21
208.6379993827
 31
0.0
 11
71.4378844634
 21
208.6399317037
 31
0.0
 11
71.4490110322
 21
208.6417312593
 31
0.0
 11
71.4601147699
 21
208.6433991675
 31
0.0
 11
71.4711936063
 21
208.6449365845
 31
0.0
 11
71.4822455135
 21
208.6463447035
 31
0.0
 11
71.4932685061
 21
208.6476247529
 31
0.0
 11
71.5042606421
 21
208.648777995
 31
0.0
 11
71.5152200235
 21
208.649805724
 31
0.0
 11
71.5261447961
 21
208.6507092653
 31
0.0
 11
71.5370331507
 21
208.6514899732
 31
0.0
 11
71.5478833226
 21
208.6521492295
 31
0.0
 11
71.5586935925
 21
208.6526884424
 31
0.0
  0
LINE
  5
252
100
AcDbEntity
  8
0
100
AcDbLine
 62
7
  6
CONTINUOUS
 10
71.5586935925
 20
208.6526884424
 11
94.0751649268
 21
209.6536751371
  0
SPLINE
  5
253
100
AcDbEntity
  8
0
100
AcDbSpline
 62
7
  6
CONTINUOUS
 70
4
 71
3
 72
8
 73
4
 74
129
 42
0.0000001
 43
0.0000001
 44
0.0000000001
 12
0.0
 22
-6.9122648639
 32
0.0
 13
-6.9054445686
 23
-0.3069867401
 33
0.0
 40
0.0
 40
0.0
 40
0.0
 40
0.0
 40
1.0
 40
1.0
 40
1.0
 40
1.0
 10
98.8531054816
 20
214.6487416635
 30
0.0
 41
1.0
 10
98.8531054816
 20
211.8219589913
 30
0.0
 41
0.8150921225
 10
96.8991584274
 20
209.7792178955
 30
0.0
 41
0.8150921225
 10
94.0751649268
 20
209.6536751371
 30
0.0
 41
1.0
 11
98.8531054816
 21
214.6487416635
 31
0.0
 11
98.8528125999
 21
214.5946239087
 31
0.0
 11
98.8519289539
 21
214.5402801839
 31
0.0
 11
98.8504471284
 21
214.485718765
 31
0.0
 11
98.8483598284
 21
214.4309481589
 31
0.0
 11
98.8456598874
 21
214.3759771031
 31
0.0
 11
98.8423402744
 21
214.3208145639
 31
0.0
 11
98.838394102
 21
214.2654697356
 31
0.0
 11
98.8338146344
 21
214.209952038
 31
0.0
 11
98.8285952943
 21
214.154271115
 31
0.0
 11
98.8227296718
 21
214.0984368316
 31
0.0
 11
98.8162115314
 21
214.042459272
 31
0.0
 11
98.8090348202
 21
213.9863487359
 31
0.0
 11
98.8011936756
 21
213.9301157358
 31
0.0
 11
98.7926824332
 21
213.8737709935
 31
0.0
 11
98.7834956342
 21
213.8173254359
 31
0.0
 11
98.7736280334
 21
213.760790191
 31
0.0
 11
98.7630746067
 21
213.7041765836
 31
0.0
 11
98.7518305589
 21
213.6474961305
 31
0.0
 11
98.7398913304
 21
213.5907605352
 31
0.0
 11
98.7272526055
 21
213.5339816829
 31
0.0
 11
98.713910319
 21
213.4771716345
 31
0.0
 11
98.6998606633
 21
213.4203426207
 31
0.0
 11
98.6851000958
 21
213.3635070357
 31
0.0
 11
98.6696253451
 21
213.3066774309
 31
0.0
 11
98.6534334181
 21
213.2498665074
 31
0.0
 11
98.636521606
 21
213.1930871093
 31
0.0
 11
98.6188874908
 21
213.1363522161
 31
0.0
 11
98.6005289513
 21
213.0796749348
 31
0.0
 11
98.5814441687
 21
213.023068492
 31
0.0
 11
98.561631632
 21
212.9665462257
 31
0.0
 11
98.5410901438
 21
212.9101215765
 31
0.0
 11
98.5198188247
 21
212.8538080789
 31
0.0
 11
98.4978171183
 21
212.7976193521
 31
0.0
 11
98.4750847956
 21
212.7415690911
 31
0.0
 11
98.4516219589
 21
212.6856710565
 31
0.0
 11
98.4274290459
 21
212.6299390657
 31
0.0
 11
98.4025068329
 21
212.5743869819
 31
0.0
 11
98.3768564379
 21
212.5190287051
 31
0.0
 11
98.3504793236
 21
212.4638781607
 31
0.0
 11
98.3233772993
 21
212.4089492902
 31
0.0
 11
98.2955525236
 21
212.3542560395
 31
0.0
 11
98.2670075054
 21
212.299812349
 31
0.0
 11
98.2377451054
 21
212.2456321426
 31
0.0
 11
98.207768537
 21
212.1917293164
 31
0.0
 11
98.1770813667
 21
212.1381177281
 31
0.0
 11
98.1456875141
 21
212.0848111859
 31
0.0
 11
98.1135912516
 21
212.0318234371
 31
0.0
 11
98.0807972035
 21
211.9791681574
 31
0.0
 11
98.047310345
 21
211.9268589393
 31
0.0
 11
98.0131360002
 21
211.8749092813
 31
0.0
 11
97.9782798406
 21
211.8233325767
 31
0.0
 11
97.9427478822
 21
211.7721421023
 31
0.0
 11
97.9065464827
 21
211.7213510079
 31
0.0
 11
97.8696823383
 21
211.6709723047
 31
0.0
 11
97.83216248
 21
211.6210188552
 31
0.0
 11
97.7939942691
 21
211.571503362
 31
0.0
 11
97.7551853934
 21
211.5224383573
 31
0.0
 11
97.7157438613
 21
211.4738361928
 31
0.0
 11
97.6756779973
 21
211.4257090291
 31
0.0
 11
97.6349964358
 21
211.3780688259
 31
0.0
 11
97.593708115
 21
211.3309273319
 31
0.0
 11
97.5518222707
 21
211.2842960756
 31
0.0
 11
97.5093484292
 21
211.2381863556
 31
0.0
 11
97.4662964
 21
211.1926092315
 31
0.0
 11
97.4226762686
 21
211.1475755154
 31
0.0
 11
97.3784983883
 21
211.1030957628
 31
0.0
 11
97.3337733723
 21
211.0591802649
 31
0.0
 11
97.288512085
 21
211.0158390403
 31
0.0
 11
97.2427256331
 21
210.9730818276
 31
0.0
 11
97.1964253569
 21
210.9309180782
 31
0.0
 11
97.1496228208
 21
210.8893569489
 31
0.0
 11
97.1023298038
 21
210.8484072961
 31
0.0
 11
97.0545582896
 21
210.8080776691
 31
0.0
 11
97.0063204567
 21
210.7683763043
 31
0.0
 11
96.9576286682
 21
210.7293111202
 31
0.0
 11
96.9084954616
 21
210.690889712
 31
0.0
 11
96.858933538
 21
210.6531193471
 31
0.0
 11
96.8089557517
 21
210.616006961
 31
0.0
 11
96.7585750994
 21
210.5795591534
 31
0.0
 11
96.7078047092
 21
210.543782185
 31
0.0
 11
96.6566578298
 21
210.5086819742
 31
0.0
 11
96.6051478194
 21
210.4742640948
 31
0.0
 11
96.5532881348
 21
210.4405337742
 31
0.0
 11
96.50109232
 21
210.4074958908
 31
0.0
 11
96.4485739954
 21
210.3751549738
 31
0.0
 11
96.3957468467
 21
210.3435152016
 31
0.0
 11
96.3426246138
 21
210.3125804014
 31
0.0
 11
96.2892210795
 21
210.2823540497
 31
0.0
 11
96.235550059
 21
210.252839272
 31
0.0
 11
96.1816253889
 21
210.2240388439
 31
0.0
 11
96.1274609163
 21
210.1959551924
 31
0.0
 11
96.0730704881
 21
210.168590397
 31
0.0
 11
96.0184679406
 21
210.1419461921
 31
0.0
 11
95.9636670893
 21
210.1160239687
 31
0.0
 11
95.9086817181
 21
210.0908247779
 31
0.0
 11
95.8535255698
 21
210.066349333
 31
0.0
 11
95.7982123359
 21
210.0425980134
 31
0.0
 11
95.7427556469
 21
210.0195708681
 31
0.0
 11
95.687169063
 21
209.9972676197
 31
0.0
 11
95.6314660648
 21
209.9756876689
 31
0.0
 11
95.5756600441
 21
209.9548300985
 31
0.0
 11
95.5197642952
 21
209.9346936791
 31
0.0
 11
95.4637920066
 21
209.9152768735
 31
0.0
 11
95.4077562522
 21
209.8965778425
 31
0.0
 11
95.3516699837
 21
209.8785944505
 31
0.0
 11
95.2955460228
 21
209.8613242715
 31
0.0
 11
95.2393970537
 21
209.8447645947
 31
0.0
 11
95.1832356156
 21
209.8289124314
 31
0.0
 11
95.1270740963
 21
209.8137645209
 31
0.0
 11
95.0709247254
 21
209.7993173379
 31
0.0
 11
95.014799568
 21
209.7855670985
 31
0.0
 11
94.9587105186
 21
209.7725097676
 31
0.0
 11
94.9026692955
 21
209.7601410661
 31
0.0
 11
94.8466874355
 21
209.7484564778
 31
0.0
 11
94.7907762886
 21
209.7374512569
 31
0.0
 11
94.7349470134
 21
209.7271204354
 31
0.0
 11
94.6792105726
 21
209.7174588305
 31
0.0
 11
94.6235777286
 21
209.7084610523
 31
0.0
 11
94.56805904
 21
209.7001215114
 31
0.0
 11
94.5126648578
 21
209.6924344263
 31
0.0
 11
94.4574053221
 21
209.6853938313
 31
0.0
 11
94.4022903592
 21
209.6789935843
 31
0.0
 11
94.3473296789
 21
209.6732273742
 31
0.0
 11
94.2925327722
 21
209.6680887287
 31
0.0
 11
94.2379089089
 21
209.6635710222
 31
0.0
 11
94.1834671361
 21
209.6596674831
 31
0.0
 11
94.1292162765
 21
209.6563712016
 31
0.0
 11
94.0751649268
 21
209.6536751371
 31
0.0
  0
LINE
  5
254
100
AcDbEntity
  8
0
100
AcDbLine
 62
7
  6
CONTINUOUS
 10
98.8531054816
 20
232.3536751371
 11
98.8531054816
 21
214.6487416635
  0
SPLINE
  5
255
100
AcDbEntity
  8
0
100
AcDbSpline
 62
7
  6
CONTINUOUS
 70
4
 71
3
 72
8
 73
4
 74
255
 42
0.0000001
 43
0.0000001
 44
0.0000000001
 12
7.0710678119
 22
-0.0
 32
0.0
 13
0.0
 23
-7.0710678119
 33
0.0
 40
0.0
 40
0.0
 40
0.0
 40
0.0
 40
1.0
 40
1.0
 40
1.0
 40
1.0
 10
93.8531054816
 20
237.3536751371
 30
0.0
 41
1.0
 10
96.7820376697
 20
237.3536751371
 30
0.0
 41
0.8047378541
 10
98.8531054816
 20
235.2826073252
 30
0.0
 41
0.8047378541
 10
98.8531054816
 20
232.3536751371
 30
0.0
 41
1.0
 11
93.8531054816
 21
237.3536751371
 31
0.0
 11
93.9084731993
 21
237.3533685693
 31
0.0
 11
93.9362492066
 21
237.3529838014
 31
0.0
 11
93.9640852004
 21
237.3524433356
 31
0.0
 11
93.9919800761
 21
237.3517461497
 31
0.0
 11
94.0199327126
 21
237.3508912296
 31
0.0
 11
94.0479419726
 21
237.3498775691
 31
0.0
 11
94.0760067023
 21
237.3487041706
 31
0.0
 11
94.104125732
 21
237.3473700451
 31
0.0
 11
94.1322978755
 21
237.3458742124
 31
0.0
 11
94.1605219305
 21
237.3442157017
 31
0.0
 11
94.1887966785
 21
237.3423935517
 31
0.0
 11
94.2171208851
 21
237.3404068108
 31
0.0
 11
94.2454932998
 21
237.3382545376
 31
0.0
 11
94.2739126559
 21
237.3359358009
 31
0.0
 11
94.3023776711
 21
237.3334496802
 31
0.0
 11
94.3308870471
 21
237.3307952658
 31
0.0
 11
94.3594394699
 21
237.3279716595
 31
0.0
 11
94.3880336098
 21
237.3249779741
 31
0.0
 11
94.4166681215
 21
237.3218133347
 31
0.0
 11
94.4453416443
 21
237.3184768781
 31
0.0
 11
94.4740528019
 21
237.3149677535
 31
0.0
 11
94.5028002028
 21
237.3112851227
 31
0.0
 11
94.5315824405
 21
237.3074281604
 31
0.0
 11
94.560398093
 21
237.3033960547
 31
0.0
 11
94.5892457238
 21
237.2991880067
 31
0.0
 11
94.6181238813
 21
237.2948032318
 31
0.0
 11
94.6470310992
 21
237.290240959
 31
0.0
 11
94.6759658967
 21
237.2855004318
 31
0.0
 11
94.7049267787
 21
237.2805809083
 31
0.0
 11
94.7339122355
 21
237.2754816614
 31
0.0
 11
94.7629207436
 21
237.2702019792
 31
0.0
 11
94.7919507655
 21
237.2647411653
 31
0.0
 11
94.8210007497
 21
237.2590985388
 31
0.0
 11
94.8500691312
 21
237.2532734351
 31
0.0
 11
94.8791543316
 21
237.2472652055
 31
0.0
 11
94.9082547593
 21
237.2410732181
 31
0.0
 11
94.9373688094
 21
237.2346968576
 31
0.0
 11
94.9664948643
 21
237.228135526
 31
0.0
 11
94.9956312936
 21
237.2213886423
 31
0.0
 11
95.0247764547
 21
237.2144556434
 31
0.0
 11
95.0539286923
 21
237.207335984
 31
0.0
 11
95.0830863395
 21
237.2000291367
 31
0.0
 11
95.1122477173
 21
237.1925345926
 31
0.0
 11
95.1414111352
 21
237.1848518615
 31
0.0
 11
95.1705748914
 21
237.176980472
 31
0.0
 11
95.1997372729
 21
237.1689199719
 31
0.0
 11
95.2288965558
 21
237.160669928
 31
0.0
 11
95.2580510057
 21
237.1522299273
 31
0.0
 11
95.2871988779
 21
237.143599576
 31
0.0
 11
95.3163384173
 21
237.1347785009
 31
0.0
 11
95.3454678593
 21
237.1257663489
 31
0.0
 11
95.3745854296
 21
237.1165627872
 31
0.0
 11
95.4036893447
 21
237.1071675041
 31
0.0
 11
95.4327778119
 21
237.0975802087
 31
0.0
 11
95.4618490302
 21
237.0878006313
 31
0.0
 11
95.4909011897
 21
237.0778285235
 31
0.0
 11
95.5199324728
 21
237.0676636586
 31
0.0
 11
95.548941054
 21
237.0573058317
 31
0.0
 11
95.5779251001
 21
237.0467548598
 31
0.0
 11
95.606882771
 21
237.036010582
 31
0.0
 11
95.6358122197
 21
237.0250728601
 31
0.0
 11
95.6647115924
 21
237.0139415779
 31
0.0
 11
95.6935790294
 21
237.0026166424
 31
0.0
 11
95.722412665
 21
236.9910979832
 31
0.0
 11
95.7512106281
 21
236.9793855531
 31
0.0
 11
95.7799710422
 21
236.9674793279
 31
0.0
 11
95.808692026
 21
236.955379307
 31
0.0
 11
95.8373716939
 21
236.943085513
 31
0.0
 11
95.8660081559
 21
236.9305979925
 31
0.0
 11
95.8945995184
 21
236.9179168154
 31
0.0
 11
95.9231438843
 21
236.9050420759
 31
0.0
 11
95.9516393534
 21
236.891973892
 31
0.0
 11
95.980084023
 21
236.8787124059
 31
0.0
 11
96.0084759879
 21
236.8652577841
 31
0.0
 11
96.036813341
 21
236.8516102172
 31
0.0
 11
96.0650941736
 21
236.8377699205
 31
0.0
 11
96.0933165759
 21
236.8237371336
 31
0.0
 11
96.1214786374
 21
236.8095121209
 31
0.0
 11
96.1495784469
 21
236.7950951712
 31
0.0
 11
96.1776140934
 21
236.7804865984
 31
0.0
 11
96.2055836662
 21
236.7656867408
 31
0.0
 11
96.2334852554
 21
236.7506959618
 31
0.0
 11
96.2613169522
 21
236.7355146496
 31
0.0
 11
96.2890768494
 21
236.7201432173
 31
0.0
 11
96.3167630418
 21
236.704582103
 31
0.0
 11
96.3443736264
 21
236.6888317699
 31
0.0
 11
96.3719067032
 21
236.6728927058
 31
0.0
 11
96.3993603751
 21
236.656765424
 31
0.0
 11
96.4267327488
 21
236.6404504624
 31
0.0
 11
96.4540219347
 21
236.6239483841
 31
0.0
 11
96.481226048
 21
236.607259777
 31
0.0
 11
96.5083432082
 21
236.5903852541
 31
0.0
 11
96.5353715404
 21
236.5733254532
 31
0.0
 11
96.5623091749
 21
236.556081037
 31
0.0
 11
96.5891542485
 21
236.5386526932
 31
0.0
 11
96.615904904
 21
236.5210411339
 31
0.0
 11
96.6425592912
 21
236.5032470962
 31
0.0
 11
96.6691155671
 21
236.4852713417
 31
0.0
 11
96.6955718964
 21
236.4671146566
 31
0.0
 11
96.7219264516
 21
236.4487778516
 31
0.0
 11
96.748177414
 21
236.4302617615
 31
0.0
 11
96.7743229734
 21
236.4115672457
 31
0.0
 11
96.8003613292
 21
236.3926951876
 31
0.0
 11
96.8262906901
 21
236.3736464947
 31
0.0
 11
96.8521092751
 21
236.3544220982
 31
0.0
 11
96.8778153135
 21
236.3350229532
 31
0.0
 11
96.9034070454
 21
236.3154500385
 31
0.0
 11
96.9288827224
 21
236.2957043563
 31
0.0
 11
96.9542406073
 21
236.275786932
 31
0.0
 11
96.9794789752
 21
236.2556988144
 31
0.0
 11
97.0045961136
 21
236.235441075
 31
0.0
 11
97.0295903225
 21
236.2150148082
 31
0.0
 11
97.0544599153
 21
236.194421131
 31
0.0
 11
97.0792032189
 21
236.1736611828
 31
0.0
 11
97.1038185738
 21
236.1527361253
 31
0.0
 11
97.1283043351
 21
236.131647142
 31
0.0
 11
97.1526588725
 21
236.1103954382
 31
0.0
 11
97.1768805703
 21
236.0889822409
 31
0.0
 11
97.2009678285
 21
236.0674087982
 31
0.0
 11
97.2249190628
 21
236.0456763795
 31
0.0
 11
97.2487327046
 21
236.0237862747
 31
0.0
 11
97.2724072019
 21
236.0017397946
 31
0.0
 11
97.2959410194
 21
235.9795382701
 31
0.0
 11
97.3193326388
 21
235.9571830522
 31
0.0
 11
97.3425805591
 21
235.9346755117
 31
0.0
 11
97.3656832971
 21
235.9120170388
 31
0.0
 11
97.3886393875
 21
235.889209043
 31
0.0
 11
97.4114473833
 21
235.8662529526
 31
0.0
 11
97.4341058562
 21
235.8431502147
 31
0.0
 11
97.4566133967
 21
235.8199022943
 31
0.0
 11
97.4789686146
 21
235.7965106749
 31
0.0
 11
97.5011701391
 21
235.7729768574
 31
0.0
 11
97.5232166192
 21
235.7493023601
 31
0.0
 11
97.545106724
 21
235.7254887183
 31
0.0
 11
97.5668391427
 21
235.7015374841
 31
0.0
 11
97.5884125854
 21
235.6774502258
 31
0.0
 11
97.6098257827
 21
235.653228528
 31
0.0
 11
97.6310774865
 21
235.6288739907
 31
0.0
 11
97.6521664698
 21
235.6043882293
 31
0.0
 11
97.6730915273
 21
235.5797728744
 31
0.0
 11
97.6938514755
 21
235.5550295708
 31
0.0
 11
97.7144451527
 21
235.530159978
 31
0.0
 11
97.7348714195
 21
235.5051657691
 31
0.0
 11
97.7551291589
 21
235.4800486307
 31
0.0
 11
97.7752172765
 21
235.4548102628
 31
0.0
 11
97.7951347008
 21
235.4294523779
 31
0.0
 11
97.814880383
 21
235.403976701
 31
0.0
 11
97.8344532977
 21
235.378384969
 31
0.0
 11
97.8538524427
 21
235.3526789306
 31
0.0
 11
97.8730768392
 21
235.3268603456
 31
0.0
 11
97.8921255321
 21
235.3009309847
 31
0.0
 11
97.9109975902
 21
235.2748926289
 31
0.0
 11
97.929692106
 21
235.2487470695
 31
0.0
 11
97.9482081961
 21
235.2224961071
 31
0.0
 11
97.9665450011
 21
235.1961415519
 31
0.0
 11
97.9847016862
 21
235.1696852226
 31
0.0
 11
98.0026774407
 21
235.1431289467
 31
0.0
 11
98.0204714784
 21
235.1164745595
 31
0.0
 11
98.0380830377
 21
235.089723904
 31
0.0
 11
98.0555113815
 21
235.0628788305
 31
0.0
 11
98.0727557977
 21
235.0359411959
 31
0.0
 11
98.0898155985
 21
235.0089128637
 31
0.0
 11
98.1066901215
 21
234.9817957035
 31
0.0
 11
98.1233787285
 21
234.9545915903
 31
0.0
 11
98.1398808069
 21
234.9273024043
 31
0.0
 11
98.1561957685
 21
234.8999300306
 31
0.0
 11
98.1723230503
 21
234.8724763587
 31
0.0
 11
98.1882621143
 21
234.8449432819
 31
0.0
 11
98.2040124475
 21
234.8173326973
 31
0.0
 11
98.2195735618
 21
234.7896465049
 31
0.0
 11
98.234944994
 21
234.7618866077
 31
0.0
 11
98.2501263063
 21
234.7340549109
 31
0.0
 11
98.2651170853
 21
234.7061533217
 31
0.0
 11
98.2799169429
 21
234.6781837489
 31
0.0
 11
98.2945255157
 21
234.6501481024
 31
0.0
 11
98.3089424654
 21
234.6220482929
 31
0.0
 11
98.3231674781
 21
234.5938862314
 31
0.0
 11
98.337200265
 21
234.5656638291
 31
0.0
 11
98.3510405617
 21
234.5373829965
 31
0.0
 11
98.3646881286
 21
234.5090456434
 31
0.0
 11
98.3781427504
 21
234.4806536785
 31
0.0
 11
98.3914042365
 21
234.4522090089
 31
0.0
 11
98.4044724204
 21
234.4237135398
 31
0.0
 11
98.4173471599
 21
234.3951691739
 31
0.0
 11
98.4300283369
 21
234.3665778114
 31
0.0
 11
98.4425158575
 21
234.3379413494
 31
0.0
 11
98.4548096515
 21
234.3092616815
 31
0.0
 11
98.4669096724
 21
234.2805406977
 31
0.0
 11
98.4788158976
 21
234.2517802836
 31
0.0
 11
98.4905283277
 21
234.2229823205
 31
0.0
 11
98.5020469869
 21
234.1941486849
 31
0.0
 11
98.5133719224
 21
234.1652812479
 31
0.0
 11
98.5245032045
 21
234.1363818752
 31
0.0
 11
98.5354409265
 21
234.1074524266
 31
0.0
 11
98.5461852043
 21
234.0784947556
 31
0.0
 11
98.5567361762
 21
234.0495107095
 31
0.0
 11
98.5670940031
 21
234.0205021283
 31
0.0
 11
98.577258868
 21
233.9914708452
 31
0.0
 11
98.5872309758
 21
233.9624186857
 31
0.0
 11
98.5970105532
 21
233.9333474674
 31
0.0
 11
98.6065978486
 21
233.9042590002
 31
0.0
 11
98.6159931317
 21
233.8751550851
 31
0.0
 11
98.6251966934
 21
233.8460375148
 31
0.0
 11
98.6342088454
 21
233.8169080728
 31
0.0
 11
98.6430299205
 21
233.7877685334
 31
0.0
 11
98.6516602717
 21
233.7586206613
 31
0.0
 11
98.6601002725
 21
233.7294662113
 31
0.0
 11
98.6683503163
 21
233.7003069284
 31
0.0
 11
98.6764108165
 21
233.6711445469
 31
0.0
 11
98.684282206
 21
233.6419807908
 31
0.0
 11
98.6919649371
 21
233.6128173728
 31
0.0
 11
98.6994594812
 21
233.583655995
 31
0.0
 11
98.7067663285
 21
233.5544983478
 31
0.0
 11
98.7138859879
 21
233.5253461102
 31
0.0
 11
98.7208189868
 21
233.4962009491
 31
0.0
 11
98.7275658704
 21
233.4670645198
 31
0.0
 11
98.7341272021
 21
233.4379384649
 31
0.0
 11
98.7405035626
 21
233.4088244148
 31
0.0
 11
98.74669555
 21
233.3797239871
 31
0.0
 11
98.7527037795
 21
233.3506387867
 31
0.0
 11
98.7585288833
 21
233.3215704052
 31
0.0
 11
98.7641715097
 21
233.292520421
 31
0.0
 11
98.7696323237
 21
233.2634903992
 31
0.0
 11
98.7749120058
 21
233.234481891
 31
0.0
 11
98.7800112527
 21
233.2054964342
 31
0.0
 11
98.7849307763
 21
233.1765355523
 31
0.0
 11
98.7896713035
 21
233.1476007547
 31
0.0
 11
98.7942335763
 21
233.1186935368
 31
0.0
 11
98.7986183512
 21
233.0898153793
 31
0.0
 11
98.8028263992
 21
233.0609677486
 31
0.0
 11
98.8068585049
 21
233.032152096
 31
0.0
 11
98.8107154672
 21
233.0033698583
 31
0.0
 11
98.814398098
 21
232.9746224574
 31
0.0
 11
98.8179072226
 21
232.9459112998
 31
0.0
 11
98.8212436792
 21
232.917237777
 31
0.0
 11
98.8244083186
 21
232.8886032653
 31
0.0
 11
98.8274020039
 21
232.8600091254
 31
0.0
 11
98.8302256103
 21
232.8314567026
 31
0.0
 11
98.8328800247
 21
232.8029473266
 31
0.0
 11
98.8353661454
 21
232.7744823114
 31
0.0
 11
98.8376848821
 21
232.7460629553
 31
0.0
 11
98.8398371553
 21
232.7176905407
 31
0.0
 11
98.8418238962
 21
232.689366334
 31
0.0
 11
98.8436460462
 21
232.661091586
 31
0.0
 11
98.8453045569
 21
232.632867531
 31
0.0
 11
98.8468003896
 21
232.6046953875
 31
0.0
 11
98.8481345151
 21
232.5765763578
 31
0.0
 11
98.8493079136
 21
232.5485116281
 31
0.0
 11
98.8503215741
 21
232.5205023681
 31
0.0
 11
98.8511764942
 21
232.4925497316
 31
0.0
 11
98.8518736801
 21
232.4646548559
 31
0.0
 11
98.8524141459
 21
232.4368188621
 31
0.0
 11
98.8527989138
 21
232.4090428548
 31
0.0
 11
98.8531054816
 21
232.3536751371
 31
0.0
  0
LINE
  5
256
100
AcDbEntity
  8
0
100
AcDbLine
 62
7
  6
CONTINUOUS
 10
76.6031054816
 20
237.3536751371
 11
93.8531054816
 21
237.3536751371
  0
SPLINE
  5
257
100
AcDbEntity
  8
0
100
AcDbSpline
 62
7
  6
CONTINUOUS
 70
4
 71
3
 72
8
 73
4
 74
255
 42
0.0000001
 43
0.0000001
 44
0.0000000001
 12
-7.0710678119
 22
-0.0
 32
0.0
 13
-0.0
 23
7.0710678119
 33
0.0
 40
0.0
 40
0.0
 40
0.0
 40
0.0
 40
1.0
 40
1.0
 40
1.0
 40
1.0
 10
76.6031054816
 20
237.3536751371
 30
0.0
 41
1.0
 10
73.6741732935
 20
237.3536751371
 30
0.0
 41
0.8047378541
 10
71.6031054816
 20
239.424742949
 30
0.0
 41
0.8047378541
 10
71.6031054816
 20
242.3536751371
 30
0.0
 41
1.0
 11
76.6031054816
 21
237.3536751371
 31
0.0
 11
76.5477377639
 21
237.3539817049
 31
0.0
 11
76.5199617566
 21
237.3543664728
 31
0.0
 11
76.4921257628
 21
237.3549069386
 31
0.0
 11
76.4642308871
 21
237.3556041245
 31
0.0
 11
76.4362782506
 21
237.3564590446
 31
0.0
 11
76.4082689906
 21
237.3574727051
 31
0.0
 11
76.3802042608
 21
237.3586461036
 31
0.0
 11
76.3520852312
 21
237.3599802291
 31
0.0
 11
76.3239130877
 21
237.3614760618
 31
0.0
 11
76.2956890327
 21
237.3631345725
 31
0.0
 11
76.2674142846
 21
237.3649567225
 31
0.0
 11
76.239090078
 21
237.3669434633
 31
0.0
 11
76.2107176634
 21
237.3690957366
 31
0.0
 11
76.1822983073
 21
237.3714144733
 31
0.0
 11
76.1538332921
 21
237.373900594
 31
0.0
 11
76.1253239161
 21
237.3765550084
 31
0.0
 11
76.0967714933
 21
237.3793786147
 31
0.0
 11
76.0681773534
 21
237.3823723
 31
0.0
 11
76.0395428417
 21
237.3855369395
 31
0.0
 11
76.0108693189
 21
237.3888733961
 31
0.0
 11
75.9821581613
 21
237.3923825207
 31
0.0
 11
75.9534107603
 21
237.3960651515
 31
0.0
 11
75.9246285227
 21
237.3999221138
 31
0.0
 11
75.8958128701
 21
237.4039542195
 31
0.0
 11
75.8669652393
 21
237.4081622675
 31
0.0
 11
75.8380870819
 21
237.4125470424
 31
0.0
 11
75.809179864
 21
237.4171093152
 31
0.0
 11
75.7802450664
 21
237.4218498424
 31
0.0
 11
75.7512841845
 21
237.4267693659
 31
0.0
 11
75.7222987277
 21
237.4318686128
 31
0.0
 11
75.6932902195
 21
237.437148295
 31
0.0
 11
75.6642601977
 21
237.4426091089
 31
0.0
 11
75.6352102135
 21
237.4482517354
 31
0.0
 11
75.606141832
 21
237.4540768391
 31
0.0
 11
75.5770566316
 21
237.4600850687
 31
0.0
 11
75.5479562039
 21
237.4662770561
 31
0.0
 11
75.5188421538
 21
237.4726534166
 31
0.0
 11
75.4897160989
 21
237.4792147482
 31
0.0
 11
75.4605796696
 21
237.4859616319
 31
0.0
 11
75.4314345085
 21
237.4928946308
 31
0.0
 11
75.4022822708
 21
237.5000142902
 31
0.0
 11
75.3731246237
 21
237.5073211375
 31
0.0
 11
75.3439632458
 21
237.5148156816
 31
0.0
 11
75.3147998279
 21
237.5224984127
 31
0.0
 11
75.2856360717
 21
237.5303698022
 31
0.0
 11
75.2564736903
 21
237.5384303023
 31
0.0
 11
75.2273144074
 21
237.5466803462
 31
0.0
 11
75.1981599574
 21
237.5551203469
 31
0.0
 11
75.1690120853
 21
237.5637506982
 31
0.0
 11
75.1398725459
 21
237.5725717732
 31
0.0
 11
75.1107431039
 21
237.5815839253
 31
0.0
 11
75.0816255336
 21
237.590787487
 31
0.0
 11
75.0525216185
 21
237.6001827701
 31
0.0
 11
75.0234331512
 21
237.6097700655
 31
0.0
 11
74.994361933
 21
237.6195496429
 31
0.0
 11
74.9653097735
 21
237.6295217507
 31
0.0
 11
74.9362784903
 21
237.6396866156
 31
0.0
 11
74.9072699092
 21
237.6500444425
 31
0.0
 11
74.878285863
 21
237.6605954144
 31
0.0
 11
74.8493281921
 21
237.6713396922
 31
0.0
 11
74.8203987435
 21
237.6822774141
 31
0.0
 11
74.7914993708
 21
237.6934086963
 31
0.0
 11
74.7626319338
 21
237.7047336318
 31
0.0
 11
74.7337982981
 21
237.716252291
 31
0.0
 11
74.7050003351
 21
237.7279647211
 31
0.0
 11
74.676239921
 21
237.7398709462
 31
0.0
 11
74.6475189372
 21
237.7519709672
 31
0.0
 11
74.6188392693
 21
237.7642647611
 31
0.0
 11
74.5902028073
 21
237.7767522817
 31
0.0
 11
74.5616114448
 21
237.7894334588
 31
0.0
 11
74.5330670789
 21
237.8023081983
 31
0.0
 11
74.5045716098
 21
237.8153763822
 31
0.0
 11
74.4761269402
 21
237.8286378683
 31
0.0
 11
74.4477349753
 21
237.8420924901
 31
0.0
 11
74.4193976222
 21
237.855740057
 31
0.0
 11
74.3911167896
 21
237.8695803537
 31
0.0
 11
74.3628943872
 21
237.8836131406
 31
0.0
 11
74.3347323258
 21
237.8978381533
 31
0.0
 11
74.3066325163
 21
237.9122551029
 31
0.0
 11
74.2785968698
 21
237.9268636758
 31
0.0
 11
74.250627297
 21
237.9416635334
 31
0.0
 11
74.2227257078
 21
237.9566543124
 31
0.0
 11
74.194894011
 21
237.9718356246
 31
0.0
 11
74.1671341138
 21
237.9872070569
 31
0.0
 11
74.1394479214
 21
238.0027681712
 31
0.0
 11
74.1118373368
 21
238.0185185043
 31
0.0
 11
74.08430426
 21
238.0344575684
 31
0.0
 11
74.0568505881
 21
238.0505848502
 31
0.0
 11
74.0294782144
 21
238.0668998118
 31
0.0
 11
74.0021890284
 21
238.0834018901
 31
0.0
 11
73.9749849152
 21
238.1000904972
 31
0.0
 11
73.947867755
 21
238.1169650201
 31
0.0
 11
73.9208394228
 21
238.134024821
 31
0.0
 11
73.8939017882
 21
238.1512692372
 31
0.0
 11
73.8670567147
 21
238.168697581
 31
0.0
 11
73.8403060592
 21
238.1863091403
 31
0.0
 11
73.813651672
 21
238.204103178
 31
0.0
 11
73.7870953961
 21
238.2220789325
 31
0.0
 11
73.7606390668
 21
238.2402356176
 31
0.0
 11
73.7342845116
 21
238.2585724226
 31
0.0
 11
73.7080335492
 21
238.2770885127
 31
0.0
 11
73.6818879897
 21
238.2957830285
 31
0.0
 11
73.655849634
 21
238.3146550866
 31
0.0
 11
73.6299202731
 21
238.3337037795
 31
0.0
 11
73.6041016881
 21
238.352928176
 31
0.0
 11
73.5783956497
 21
238.372327321
 31
0.0
 11
73.5528039177
 21
238.3919002357
 31
0.0
 11
73.5273282408
 21
238.4116459179
 31
0.0
 11
73.5019703559
 21
238.4315633422
 31
0.0
 11
73.4767319879
 21
238.4516514598
 31
0.0
 11
73.4516148496
 21
238.4719091992
 31
0.0
 11
73.4266206407
 21
238.492335466
 31
0.0
 11
73.4017510479
 21
238.5129291432
 31
0.0
 11
73.3770077443
 21
238.5336890914
 31
0.0
 11
73.3523923894
 21
238.5546141489
 31
0.0
 11
73.327906628
 21
238.5757031322
 31
0.0
 11
73.3035520907
 21
238.596954836
 31
0.0
 11
73.2793303929
 21
238.6183680333
 31
0.0
 11
73.2552431346
 21
238.639941476
 31
0.0
 11
73.2312919004
 21
238.6616738947
 31
0.0
 11
73.2074782586
 21
238.6835639995
 31
0.0
 11
73.1838037613
 21
238.7056104796
 31
0.0
 11
73.1602699438
 21
238.7278120041
 31
0.0
 11
73.1368783244
 21
238.750167222
 31
0.0
 11
73.113630404
 21
238.7726747625
 31
0.0
 11
73.090527666
 21
238.7953332354
 31
0.0
 11
73.0675715757
 21
238.8181412312
 31
0.0
 11
73.0447635798
 21
238.8410973216
 31
0.0
 11
73.022105107
 21
238.8642000595
 31
0.0
 11
72.9995975664
 21
238.8874479799
 31
0.0
 11
72.9772423486
 21
238.9108395993
 31
0.0
 11
72.9550408241
 21
238.9343734168
 31
0.0
 11
72.932994344
 21
238.9580479141
 31
0.0
 11
72.9111042392
 21
238.9818615559
 31
0.0
 11
72.8893718205
 21
239.0058127901
 31
0.0
 11
72.8677983778
 21
239.0299000484
 31
0.0
 11
72.8463851805
 21
239.0541217462
 31
0.0
 11
72.8251334767
 21
239.0784762835
 31
0.0
 11
72.8040444934
 21
239.1029620449
 31
0.0
 11
72.7831194359
 21
239.1275773998
 31
0.0
 11
72.7623594877
 21
239.1523207034
 31
0.0
 11
72.7417658105
 21
239.1771902962
 31
0.0
 11
72.7213395437
 21
239.2021845051
 31
0.0
 11
72.7010818043
 21
239.2273016435
 31
0.0
 11
72.6809936866
 21
239.2525400114
 31
0.0
 11
72.6610762624
 21
239.2778978963
 31
0.0
 11
72.6413305802
 21
239.3033735732
 31
0.0
 11
72.6217576655
 21
239.3289653052
 31
0.0
 11
72.6023585205
 21
239.3546713436
 31
0.0
 11
72.583134124
 21
239.3804899286
 31
0.0
 11
72.564085431
 21
239.4064192895
 31
0.0
 11
72.545213373
 21
239.4324576452
 31
0.0
 11
72.5265188572
 21
239.4586032047
 31
0.0
 11
72.5080027671
 21
239.4848541671
 31
0.0
 11
72.489665962
 21
239.5112087223
 31
0.0
 11
72.4715092769
 21
239.5376650516
 31
0.0
 11
72.4535335225
 21
239.5642213275
 31
0.0
 11
72.4357394848
 21
239.5908757147
 31
0.0
 11
72.4181279255
 21
239.6176263702
 31
0.0
 11
72.4006995816
 21
239.6444714437
 31
0.0
 11
72.3834551655
 21
239.6714090783
 31
0.0
 11
72.3663953646
 21
239.6984374105
 31
0.0
 11
72.3495208417
 21
239.7255545707
 31
0.0
 11
72.3328322346
 21
239.7527586839
 31
0.0
 11
72.3163301563
 21
239.7800478699
 31
0.0
 11
72.3000151947
 21
239.8074202436
 31
0.0
 11
72.2838879129
 21
239.8348739155
 31
0.0
 11
72.2679488488
 21
239.8624069923
 31
0.0
 11
72.2521985157
 21
239.8900175769
 31
0.0
 11
72.2366374014
 21
239.9177037693
 31
0.0
 11
72.2212659691
 21
239.9454636665
 31
0.0
 11
72.2060846569
 21
239.9732953633
 31
0.0
 11
72.1910938779
 21
240.0011969525
 31
0.0
 11
72.1762940203
 21
240.0291665253
 31
0.0
 11
72.1616854474
 21
240.0572021718
 31
0.0
 11
72.1472684978
 21
240.0853019813
 31
0.0
 11
72.1330434851
 21
240.1134640428
 31
0.0
 11
72.1190106982
 21
240.1416864451
 31
0.0
 11
72.1051704015
 21
240.1699672777
 31
0.0
 11
72.0915228346
 21
240.1983046308
 31
0.0
 11
72.0780682128
 21
240.2266965957
 31
0.0
 11
72.0648067267
 21
240.2551412653
 31
0.0
 11
72.0517385428
 21
240.2836367344
 31
0.0
 11
72.0388638033
 21
240.3121811003
 31
0.0
 11
72.0261826262
 21
240.3407724628
 31
0.0
 11
72.0136951056
 21
240.3694089248
 31
0.0
 11
72.0014013117
 21
240.3980885927
 31
0.0
 11
71.9893012907
 21
240.4268095765
 31
0.0
 11
71.9773950656
 21
240.4555699906
 31
0.0
 11
71.9656826354
 21
240.4843679537
 31
0.0
 11
71.9541639763
 21
240.5132015893
 31
0.0
 11
71.9428390408
 21
240.5420690263
 31
0.0
 11
71.9317077586
 21
240.570968399
 31
0.0
 11
71.9207700366
 21
240.5998978476
 31
0.0
 11
71.9100257589
 21
240.6288555186
 31
0.0
 11
71.899474787
 21
240.6578395647
 31
0.0
 11
71.88911696
 21
240.6868481458
 31
0.0
 11
71.8789520952
 21
240.715879429
 31
0.0
 11
71.8689799874
 21
240.7449315885
 31
0.0
 11
71.8592004099
 21
240.7740028067
 31
0.0
 11
71.8496131145
 21
240.803091274
 31
0.0
 11
71.8402178315
 21
240.8321951891
 31
0.0
 11
71.8310142698
 21
240.8613127594
 31
0.0
 11
71.8220021177
 21
240.8904422014
 31
0.0
 11
71.8131810427
 21
240.9195817408
 31
0.0
 11
71.8045506914
 21
240.9487296129
 31
0.0
 11
71.7961106907
 21
240.9778840629
 31
0.0
 11
71.7878606468
 21
241.0070433458
 31
0.0
 11
71.7798001466
 21
241.0362057273
 31
0.0
 11
71.7719287572
 21
241.0653694834
 31
0.0
 11
71.7642460261
 21
241.0945329014
 31
0.0
 11
71.756751482
 21
241.1236942792
 31
0.0
 11
71.7494446347
 21
241.1528519264
 31
0.0
 11
71.7423249752
 21
241.182004164
 31
0.0
 11
71.7353919764
 21
241.2111493251
 31
0.0
 11
71.7286450927
 21
241.2402857544
 31
0.0
 11
71.7220837611
 21
241.2694118093
 31
0.0
 11
71.7157074006
 21
241.2985258594
 31
0.0
 11
71.7095154132
 21
241.3276262871
 31
0.0
 11
71.7035071836
 21
241.3567114875
 31
0.0
 11
71.6976820799
 21
241.385779869
 31
0.0
 11
71.6920394534
 21
241.4148298532
 31
0.0
 11
71.6865786395
 21
241.443859875
 31
0.0
 11
71.6812989573
 21
241.4728683832
 31
0.0
 11
71.6761997104
 21
241.50185384
 31
0.0
 11
71.6712801869
 21
241.5308147219
 31
0.0
 11
71.6665396597
 21
241.5597495195
 31
0.0
 11
71.6619773869
 21
241.5886567374
 31
0.0
 11
71.657592612
 21
241.6175348948
 31
0.0
 11
71.653384564
 21
241.6463825256
 31
0.0
 11
71.6493524582
 21
241.6751981782
 31
0.0
 11
71.645495496
 21
241.7039804159
 31
0.0
 11
71.6418128652
 21
241.7327278168
 31
0.0
 11
71.6383037406
 21
241.7614389744
 31
0.0
 11
71.6349672839
 21
241.7901124972
 31
0.0
 11
71.6318026445
 21
241.8187470089
 31
0.0
 11
71.6288089592
 21
241.8473411488
 31
0.0
 11
71.6259853529
 21
241.8758935716
 31
0.0
 11
71.6233309385
 21
241.9044029476
 31
0.0
 11
71.6208448178
 21
241.9328679628
 31
0.0
 11
71.6185260811
 21
241.9612873189
 31
0.0
 11
71.6163738078
 21
241.9896597335
 31
0.0
 11
71.614387067
 21
242.0179839402
 31
0.0
 11
71.612564917
 21
242.0462586882
 31
0.0
 11
71.6109064063
 21
242.0744827432
 31
0.0
 11
71.6094105736
 21
242.1026548867
 31
0.0
 11
71.6080764481
 21
242.1307739164
 31
0.0
 11
71.6069030496
 21
242.1588386461
 31
0.0
 11
71.6058893891
 21
242.1868479061
 31
0.0
 11
71.605034469
 21
242.2148005426
 31
0.0
 11
71.6043372831
 21
242.2426954183
 31
0.0
 11
71.6037968173
 21
242.2705314121
 31
0.0
 11
71.6034120494
 21
242.2983074194
 31
0.0
 11
71.6031054816
 21
242.3536751371
 31
0.0
  0
LINE
  5
258
100
AcDbEntity
  8
0
100
AcDbLine
 62
7
  6
CONTINUOUS
 10
71.6031054816
 20
260.9036751371
 11
71.6031054816
 21
242.3536751371
  0
LINE
  5
259
100
AcDbEntity
  8
0
100
AcDbLine
 62
7
  6
CONTINUOUS
 10
71.6031054816
 20
260.9036751371
 11
78.6915746506
 21
260.9036751371
  0
LINE
  5
25A
100
AcDbEntity
  8
0
100
AcDbLine
 62
7
  6
CONTINUOUS
 10
78.6915746506
 20
260.9036751371
 11
79.3531054816
 21
241.9599107077
  0
SPLINE
  5
25B
100
AcDbEntity
  8
0
100
AcDbSpline
 62
7
  6
CONTINUOUS
 70
4
 71
3
 72
8
 73
4
 74
129
 42
0.0000001
 43
0.0000001
 44
0.0000000001
 12
-1.3201971578
 22
0.1155022849
 32
0.0
 13
-0.0462502124
 23
1.324432796
 33
0.0
 40
0.0
 40
0.0
 40
0.0
 40
0.0
 40
1.0
 40
1.0
 40
1.0
 40
1.0
 10
80.2653405659
 20
240.9986155063
 30
0.0
 41
1.0
 10
79.7368201645
 20
241.0448550499
 30
0.0
 41
0.8326371472
 10
79.3716210349
 20
241.4296946344
 30
0.0
 41
0.8326371472
 10
79.3531054816
 20
241.9599107077
 30
0.0
 41
1.0
 11
80.2653405659
 21
240.9986155063
 31
0.0
 11
80.2550112246
 21
240.9995732184
 31
0.0
 11
80.2446523193
 21
241.0006423745
 31
0.0
 11
80.2342654331
 21
241.0018240715
 31
0.0
 11
80.223852184
 21
241.003119381
 31
0.0
 11
80.2134142245
 21
241.0045293484
 31
0.0
 11
80.2029532415
 21
241.0060549915
 31
0.0
 11
80.1924709553
 21
241.0076972999
 31
0.0
 11
80.1819691198
 21
241.0094572332
 31
0.0
 11
80.1714495214
 21
241.0113357203
 31
0.0
 11
80.1609139789
 21
241.0133336581
 31
0.0
 11
80.1503643427
 21
241.0154519102
 31
0.0
 11
80.1398024941
 21
241.0176913062
 31
0.0
 11
80.1292303449
 21
241.02005264
 31
0.0
 11
80.1186498363
 21
241.0225366691
 31
0.0
 11
80.1080629386
 21
241.0251441136
 31
0.0
 11
80.0974716499
 21
241.0278756547
 31
0.0
 11
80.0868779956
 21
241.0307319339
 31
0.0
 11
80.0762840273
 21
241.0337135518
 31
0.0
 11
80.0656918223
 21
241.0368210674
 31
0.0
 11
80.0551034818
 21
241.0400549967
 31
0.0
 11
80.0445211308
 21
241.043415812
 31
0.0
 11
80.0339469163
 21
241.0469039408
 31
0.0
 11
80.0233830066
 21
241.0505197647
 31
0.0
 11
80.0128315903
 21
241.0542636191
 31
0.0
 11
80.0022948746
 21
241.0581357916
 31
0.0
 11
79.9917750844
 21
241.0621365217
 31
0.0
 11
79.9812744613
 21
241.0662659997
 31
0.0
 11
79.9707952617
 21
241.0705243662
 31
0.0
 11
79.9603397559
 21
241.074911711
 31
0.0
 11
79.9499102268
 21
241.0794280729
 31
0.0
 11
79.9395089683
 21
241.0840734385
 31
0.0
 11
79.9291382837
 21
241.0888477423
 31
0.0
 11
79.9188004847
 21
241.0937508655
 31
0.0
 11
79.9084978897
 21
241.0987826357
 31
0.0
 11
79.8982328222
 21
241.1039428266
 31
0.0
 11
79.8880076094
 21
241.1092311575
 31
0.0
 11
79.8778245806
 21
241.114647293
 31
0.0
 11
79.8676860657
 21
241.1201908424
 31
0.0
 11
79.8575943934
 21
241.1258613599
 31
0.0
 11
79.8475518899
 21
241.1316583441
 31
0.0
 11
79.8375608769
 21
241.1375812378
 31
0.0
 11
79.8276236703
 21
241.1436294283
 31
0.0
 11
79.8177425785
 21
241.149802247
 31
0.0
 11
79.8079199005
 21
241.1560989694
 31
0.0
 11
79.7981579246
 21
241.1625188155
 31
0.0
 11
79.7884589262
 21
241.1690609499
 31
0.0
 11
79.778825167
 21
241.1757244816
 31
0.0
 11
79.7692588923
 21
241.1825084648
 31
0.0
 11
79.7597623301
 21
241.1894118988
 31
0.0
 11
79.7503376894
 21
241.1964337285
 31
0.0
 11
79.740987158
 21
241.2035728451
 31
0.0
 11
79.7317129014
 21
241.2108280864
 31
0.0
 11
79.7225170612
 21
241.2181982371
 31
0.0
 11
79.7134017529
 21
241.2256820299
 31
0.0
 11
79.7043690652
 21
241.2332781458
 31
0.0
 11
79.6954210576
 21
241.2409852151
 31
0.0
 11
79.6865597594
 21
241.2488018181
 31
0.0
 11
79.6777871681
 21
241.2567264857
 31
0.0
 11
79.6691052478
 21
241.2647577008
 31
0.0
 11
79.6605159277
 21
241.2728938988
 31
0.0
 11
79.6520211007
 21
241.2811334687
 31
0.0
 11
79.6436226225
 21
241.2894747543
 31
0.0
 11
79.6353223094
 21
241.2979160555
 31
0.0
 11
79.6271219376
 21
241.3064556287
 31
0.0
 11
79.6190232418
 21
241.3150916889
 31
0.0
 11
79.611027914
 21
241.3238224103
 31
0.0
 11
79.6031376022
 21
241.3326459279
 31
0.0
 11
79.5953539092
 21
241.3415603387
 31
0.0
 11
79.5876783919
 21
241.3505637032
 31
0.0
 11
79.58011256
 21
241.3596540466
 31
0.0
 11
79.5726578748
 21
241.3688293604
 31
0.0
 11
79.5653157487
 21
241.3780876038
 31
0.0
 11
79.5580875441
 21
241.3874267053
 31
0.0
 11
79.5509745728
 21
241.3968445641
 31
0.0
 11
79.5439780947
 21
241.4063390516
 31
0.0
 11
79.5370993176
 21
241.4159080132
 31
0.0
 11
79.5303393965
 21
241.4255492696
 31
0.0
 11
79.5236994328
 21
241.435260619
 31
0.0
 11
79.5171804738
 21
241.4450398377
 31
0.0
 11
79.5107835124
 21
241.454884683
 31
0.0
 11
79.5045094866
 21
241.4647928937
 31
0.0
 11
79.498359279
 21
241.4747621925
 31
0.0
 11
79.4923337167
 21
241.4847902876
 31
0.0
 11
79.4864335711
 21
241.4948748739
 31
0.0
 11
79.4806595574
 21
241.5050136352
 31
0.0
 11
79.4750123348
 21
241.5152042457
 31
0.0
 11
79.4694925063
 21
241.5254443715
 31
0.0
 11
79.4641006189
 21
241.5357316724
 31
0.0
 11
79.4588371633
 21
241.5460638038
 31
0.0
 11
79.4537025744
 21
241.5564384177
 31
0.0
 11
79.4486972311
 21
241.5668531651
 31
0.0
 11
79.4438214568
 21
241.5773056971
 31
0.0
 11
79.4390755196
 21
241.5877936664
 31
0.0
 11
79.4344596327
 21
241.5983147295
 31
0.0
 11
79.4299739545
 21
241.6088665477
 31
0.0
 11
79.4256185895
 21
241.6194467887
 31
0.0
 11
79.4213935884
 21
241.6300531284
 31
0.0
 11
79.4172989489
 21
241.6406832521
 31
0.0
 11
79.4133346159
 21
241.651334856
 31
0.0
 11
79.4095004827
 21
241.6620056487
 31
0.0
 11
79.4057963911
 21
241.6726933526
 31
0.0
 11
79.4022221326
 21
241.6833957052
 31
0.0
 11
79.3987774486
 21
241.6941104604
 31
0.0
 11
79.3954620319
 21
241.7048353897
 31
0.0
 11
79.3922755268
 21
241.7155682839
 31
0.0
 11
79.3892175305
 21
241.7263069537
 31
0.0
 11
79.3862875938
 21
241.7370492311
 31
0.0
 11
79.3834852218
 21
241.7477929709
 31
0.0
 11
79.3808098754
 21
241.7585360512
 31
0.0
 11
79.3782609717
 21
241.7692763748
 31
0.0
 11
79.3758378854
 21
241.7800118702
 31
0.0
 11
79.3735399497
 21
241.7907404924
 31
0.0
 11
79.3713664573
 21
241.8014602239
 31
0.0
 11
79.3693166617
 21
241.8121690758
 31
0.0
 11
79.3673897778
 21
241.8228650882
 31
0.0
 11
79.3655849837
 21
241.8335463313
 31
0.0
 11
79.3639014212
 21
241.8442109062
 31
0.0
 11
79.3623381974
 21
241.8548569453
 31
0.0
 11
79.3608943854
 21
241.8654826131
 31
0.0
 11
79.3595690259
 21
241.8760861072
 31
0.0
 11
79.3583611281
 21
241.8866656581
 31
0.0
 11
79.3572696709
 21
241.8972195304
 31
0.0
 11
79.3562936042
 21
241.907746023
 31
0.0
 11
79.3554318497
 21
241.9182434696
 31
0.0
 11
79.3546833028
 21
241.928710239
 31
0.0
 11
79.3540468329
 21
241.9391447356
 31
0.0
 11
79.3535212852
 21
241.9495453997
 31
0.0
 11
79.3531054816
 21
241.9599107077
 31
0.0
  0
LINE
  5
25C
100
AcDbEntity
  8
0
100
AcDbLine
 62
7
  6
CONTINUOUS
 10
80.2653405659
 20
240.9986155063
 11
101.3531054816
 21
239.1536751371
  0
LINE
  5
25D
100
AcDbEntity
  8
0
100
AcDbLine
 62
7
  6
CONTINUOUS
 10
101.3531054816
 20
239.1536751371
 11
122.4408703973
 21
240.9986155063
  0
SPLINE
  5
25E
100
AcDbEntity
  8
0
100
AcDbSpline
 62
7
  6
CONTINUOUS
 70
4
 71
3
 72
8
 73
4
 74
129
 42
0.0000001
 43
0.0000001
 44
0.0000000001
 12
-0.0462502124
 22
-1.324432796
 32
0.0
 13
-1.3201971578
 23
-0.1155022849
 33
0.0
 40
0.0
 40
0.0
 40
0.0
 40
0.0
 40
1.0
 40
1.0
 40
1.0
 40
1.0
 10
123.3531054816
 20
241.9599107077
 30
0.0
 41
1.0
 10
123.3345899283
 20
241.4296946344
 30
0.0
 41
0.8326371472
 10
122.9693907987
 20
241.0448550499
 30
0.0
 41
0.8326371472
 10
122.4408703973
 20
240.9986155063
 30
0.0
 41
1.0
 11
123.3531054816
 21
241.9599107077
 31
0.0
 11
123.352689678
 21
241.9495453997
 31
0.0
 11
123.3521641303
 21
241.9391447356
 31
0.0
 11
123.3515276604
 21
241.928710239
 31
0.0
 11
123.3507791134
 21
241.9182434696
 31
0.0
 11
123.349917359
 21
241.907746023
 31
0.0
 11
123.3489412923
 21
241.8972195304
 31
0.0
 11
123.3478498351
 21
241.8866656581
 31
0.0
 11
123.3466419373
 21
241.8760861072
 31
0.0
 11
123.3453165778
 21
241.8654826131
 31
0.0
 11
123.3438727658
 21
241.8548569453
 31
0.0
 11
123.342309542
 21
241.8442109062
 31
0.0
 11
123.3406259795
 21
241.8335463313
 31
0.0
 11
123.3388211854
 21
241.8228650882
 31
0.0
 11
123.3368943015
 21
241.8121690758
 31
0.0
 11
123.3348445058
 21
241.8014602239
 31
0.0
 11
123.3326710135
 21
241.7907404924
 31
0.0
 11
123.3303730778
 21
241.7800118702
 31
0.0
 11
123.3279499915
 21
241.7692763748
 31
0.0
 11
123.3254010878
 21
241.7585360512
 31
0.0
 11
123.3227257414
 21
241.7477929709
 31
0.0
 11
123.3199233694
 21
241.7370492311
 31
0.0
 11
123.3169934327
 21
241.7263069537
 31
0.0
 11
123.3139354364
 21
241.7155682839
 31
0.0
 11
123.3107489313
 21
241.7048353897
 31
0.0
 11
123.3074335146
 21
241.6941104604
 31
0.0
 11
123.3039888306
 21
241.6833957052
 31
0.0
 11
123.3004145721
 21
241.6726933526
 31
0.0
 11
123.2967104805
 21
241.6620056487
 31
0.0
 11
123.2928763473
 21
241.651334856
 31
0.0
 11
123.2889120143
 21
241.6406832521
 31
0.0
 11
123.2848173747
 21
241.6300531284
 31
0.0
 11
123.2805923737
 21
241.6194467887
 31
0.0
 11
123.2762370087
 21
241.6088665477
 31
0.0
 11
123.2717513305
 21
241.5983147295
 31
0.0
 11
123.2671354436
 21
241.5877936664
 31
0.0
 11
123.2623895064
 21
241.5773056971
 31
0.0
 11
123.2575137321
 21
241.5668531651
 31
0.0
 11
123.2525083888
 21
241.5564384177
 31
0.0
 11
123.2473737998
 21
241.5460638038
 31
0.0
 11
123.2421103443
 21
241.5357316724
 31
0.0
 11
123.2367184569
 21
241.5254443715
 31
0.0
 11
123.2311986284
 21
241.5152042457
 31
0.0
 11
123.2255514058
 21
241.5050136352
 31
0.0
 11
123.2197773921
 21
241.4948748739
 31
0.0
 11
123.2138772464
 21
241.4847902876
 31
0.0
 11
123.2078516842
 21
241.4747621925
 31
0.0
 11
123.2017014766
 21
241.4647928937
 31
0.0
 11
123.1954274508
 21
241.454884683
 31
0.0
 11
123.1890304894
 21
241.4450398377
 31
0.0
 11
123.1825115304
 21
241.435260619
 31
0.0
 11
123.1758715667
 21
241.4255492696
 31
0.0
 11
123.1691116456
 21
241.4159080132
 31
0.0
 11
123.1622328685
 21
241.4063390516
 31
0.0
 11
123.1552363904
 21
241.3968445641
 31
0.0
 11
123.148123419
 21
241.3874267053
 31
0.0
 11
123.1408952145
 21
241.3780876038
 31
0.0
 11
123.1335530884
 21
241.3688293604
 31
0.0
 11
123.1260984032
 21
241.3596540466
 31
0.0
 11
123.1185325712
 21
241.3505637032
 31
0.0
 11
123.110857054
 21
241.3415603387
 31
0.0
 11
123.103073361
 21
241.3326459279
 31
0.0
 11
123.0951830491
 21
241.3238224103
 31
0.0
 11
123.0871877213
 21
241.3150916889
 31
0.0
 11
123.0790890256
 21
241.3064556287
 31
0.0
 11
123.0708886538
 21
241.2979160555
 31
0.0
 11
123.0625883407
 21
241.2894747543
 31
0.0
 11
123.0541898624
 21
241.2811334687
 31
0.0
 11
123.0456950355
 21
241.2728938988
 31
0.0
 11
123.0371057154
 21
241.2647577008
 31
0.0
 11
123.028423795
 21
241.2567264857
 31
0.0
 11
123.0196512038
 21
241.2488018181
 31
0.0
 11
123.0107899056
 21
241.2409852151
 31
0.0
 11
123.001841898
 21
241.2332781458
 31
0.0
 11
122.9928092103
 21
241.2256820299
 31
0.0
 11
122.983693902
 21
241.2181982371
 31
0.0
 11
122.9744980617
 21
241.2108280864
 31
0.0
 11
122.9652238052
 21
241.2035728451
 31
0.0
 11
122.9558732738
 21
241.1964337285
 31
0.0
 11
122.946448633
 21
241.1894118988
 31
0.0
 11
122.9369520709
 21
241.1825084648
 31
0.0
 11
122.9273857962
 21
241.1757244816
 31
0.0
 11
122.9177520369
 21
241.1690609499
 31
0.0
 11
122.9080530386
 21
241.1625188155
 31
0.0
 11
122.8982910626
 21
241.1560989694
 31
0.0
 11
122.8884683847
 21
241.149802247
 31
0.0
 11
122.8785872929
 21
241.1436294283
 31
0.0
 11
122.8686500863
 21
241.1375812378
 31
0.0
 11
122.8586590733
 21
241.1316583441
 31
0.0
 11
122.8486165698
 21
241.1258613599
 31
0.0
 11
122.8385248975
 21
241.1201908424
 31
0.0
 11
122.8283863826
 21
241.114647293
 31
0.0
 11
122.8182033538
 21
241.1092311575
 31
0.0
 11
122.807978141
 21
241.1039428266
 31
0.0
 11
122.7977130735
 21
241.0987826357
 31
0.0
 11
122.7874104785
 21
241.0937508655
 31
0.0
 11
122.7770726795
 21
241.0888477423
 31
0.0
 11
122.7667019949
 21
241.0840734385
 31
0.0
 11
122.7563007363
 21
241.0794280729
 31
0.0
 11
122.7458712072
 21
241.074911711
 31
0.0
 11
122.7354157015
 21
241.0705243662
 31
0.0
 11
122.7249365019
 21
241.0662659997
 31
0.0
 11
122.7144358787
 21
241.0621365217
 31
0.0
 11
122.7039160886
 21
241.0581357916
 31
0.0
 11
122.6933793729
 21
241.0542636191
 31
0.0
 11
122.6828279565
 21
241.0505197647
 31
0.0
 11
122.6722640469
 21
241.0469039408
 31
0.0
 11
122.6616898324
 21
241.043415812
 31
0.0
 11
122.6511074814
 21
241.0400549967
 31
0.0
 11
122.6405191409
 21
241.0368210674
 31
0.0
 11
122.6299269358
 21
241.0337135518
 31
0.0
 11
122.6193329676
 21
241.0307319339
 31
0.0
 11
122.6087393133
 21
241.0278756547
 31
0.0
 11
122.5981480246
 21
241.0251441136
 31
0.0
 11
122.5875611268
 21
241.0225366691
 31
0.0
 11
122.5769806183
 21
241.02005264
 31
0.0
 11
122.566408469
 21
241.0176913062
 31
0.0
 11
122.5558466205
 21
241.0154519102
 31
0.0
 11
122.5452969842
 21
241.0133336581
 31
0.0
 11
122.5347614417
 21
241.0113357203
 31
0.0
 11
122.5242418434
 21
241.0094572332
 31
0.0
 11
122.5137400078
 21
241.0076972999
 31
0.0
 11
122.5032577217
 21
241.0060549915
 31
0.0
 11
122.4927967387
 21
241.0045293484
 31
0.0
 11
122.4823587792
 21
241.003119381
 31
0.0
 11
122.4719455301
 21
241.0018240715
 31
0.0
 11
122.4615586439
 21
241.0006423745
 31
0.0
 11
122.4511997386
 21
240.9995732184
 31
0.0
 11
122.4408703973
 21
240.9986155063
 31
0.0
  0
LINE
  5
25F
100
AcDbEntity
  8
0
100
AcDbLine
 62
7
  6
CONTINUOUS
 10
123.3531054816
 20
241.9599107077
 11
124.0146363125
 21
260.9036751371
  0
LINE
  5
260
100
AcDbEntity
  8
0
100
AcDbLine
 62
7
  6
CONTINUOUS
 10
124.0146363125
 20
260.9036751371
 11
131.1031054816
 21
260.9036751371
  0
LINE
  5
261
100
AcDbEntity
  8
0
100
AcDbLine
 62
7
  6
CONTINUOUS
 10
131.1031054816
 20
260.9036751371
 11
131.1031054816
 21
242.3536751371
  0
SPLINE
  5
262
100
AcDbEntity
  8
0
100
AcDbSpline
 62
7
  6
CONTINUOUS
 70
4
 71
3
 72
8
 73
4
 74
255
 42
0.0000001
 43
0.0000001
 44
0.0000000001
 12
0.0
 22
-7.0710678119
 32
0.0
 13
-7.0710678119
 23
0.0
 33
0.0
 40
0.0
 40
0.0
 40
0.0
 40
0.0
 40
1.0
 40
1.0
 40
1.0
 40
1.0
 10
131.1031054816
 20
242.3536751371
 30
0.0
 41
1.0
 10
131.1031054816
 20
239.424742949
 30
0.0
 41
0.8047378541
 10
129.0320376697
 20
237.3536751371
 30
0.0
 41
0.8047378541
 10
126.1031054816
 20
237.3536751371
 30
0.0
 41
1.0
 11
131.1031054816
 21
242.3536751371
 31
0.0
 11
131.1027989138
 21
242.2983074194
 31
0.0
 11
131.1024141459
 21
242.2705314121
 31
0.0
 11
131.1018736801
 21
242.2426954183
 31
0.0
 11
131.1011764942
 21
242.2148005426
 31
0.0
 11
131.1003215741
 21
242.1868479061
 31
0.0
 11
131.0993079136
 21
242.1588386461
 31
0.0
 11
131.0981345151
 21
242.1307739164
 31
0.0
 11
131.0968003896
 21
242.1026548867
 31
0.0
 11
131.0953045569
 21
242.0744827432
 31
0.0
 11
131.0936460462
 21
242.0462586882
 31
0.0
 11
131.0918238962
 21
242.0179839402
 31
0.0
 11
131.0898371553
 21
241.9896597335
 31
0.0
 11
131.0876848821
 21
241.9612873189
 31
0.0
 11
131.0853661454
 21
241.9328679628
 31
0.0
 11
131.0828800247
 21
241.9044029476
 31
0.0
 11
131.0802256103
 21
241.8758935716
 31
0.0
 11
131.0774020039
 21
241.8473411488
 31
0.0
 11
131.0744083186
 21
241.8187470089
 31
0.0
 11
131.0712436792
 21
241.7901124972
 31
0.0
 11
131.0679072226
 21
241.7614389744
 31
0.0
 11
131.064398098
 21
241.7327278168
 31
0.0
 11
131.0607154672
 21
241.7039804159
 31
0.0
 11
131.0568585049
 21
241.6751981782
 31
0.0
 11
131.0528263992
 21
241.6463825256
 31
0.0
 11
131.0486183512
 21
241.6175348948
 31
0.0
 11
131.0442335763
 21
241.5886567374
 31
0.0
 11
131.0396713035
 21
241.5597495195
 31
0.0
 11
131.0349307763
 21
241.5308147219
 31
0.0
 11
131.0300112527
 21
241.50185384
 31
0.0
 11
131.0249120058
 21
241.4728683832
 31
0.0
 11
131.0196323237
 21
241.443859875
 31
0.0
 11
131.0141715097
 21
241.4148298532
 31
0.0
 11
131.0085288833
 21
241.385779869
 31
0.0
 11
131.0027037795
 21
241.3567114875
 31
0.0
 11
130.99669555
 21
241.3276262871
 31
0.0
 11
130.9905035626
 21
241.2985258594
 31
0.0
 11
130.9841272021
 21
241.2694118093
 31
0.0
 11
130.9775658704
 21
241.2402857544
 31
0.0
 11
130.9708189868
 21
241.2111493251
 31
0.0
 11
130.9638859879
 21
241.182004164
 31
0.0
 11
130.9567663285
 21
241.1528519264
 31
0.0
 11
130.9494594812
 21
241.1236942792
 31
0.0
 11
130.9419649371
 21
241.0945329014
 31
0.0
 11
130.934282206
 21
241.0653694834
 31
0.0
 11
130.9264108165
 21
241.0362057273
 31
0.0
 11
130.9183503163
 21
241.0070433458
 31
0.0
 11
130.9101002725
 21
240.9778840629
 31
0.0
 11
130.9016602717
 21
240.9487296129
 31
0.0
 11
130.8930299205
 21
240.9195817408
 31
0.0
 11
130.8842088454
 21
240.8904422014
 31
0.0
 11
130.8751966934
 21
240.8613127594
 31
0.0
 11
130.8659931317
 21
240.8321951891
 31
0.0
 11
130.8565978486
 21
240.803091274
 31
0.0
 11
130.8470105532
 21
240.7740028067
 31
0.0
 11
130.8372309758
 21
240.7449315885
 31
0.0
 11
130.827258868
 21
240.715879429
 31
0.0
 11
130.8170940031
 21
240.6868481458
 31
0.0
 11
130.8067361762
 21
240.6578395647
 31
0.0
 11
130.7961852043
 21
240.6288555186
 31
0.0
 11
130.7854409265
 21
240.5998978476
 31
0.0
 11
130.7745032045
 21
240.570968399
 31
0.0
 11
130.7633719224
 21
240.5420690263
 31
0.0
 11
130.7520469869
 21
240.5132015893
 31
0.0
 11
130.7405283277
 21
240.4843679537
 31
0.0
 11
130.7288158976
 21
240.4555699906
 31
0.0
 11
130.7169096724
 21
240.4268095765
 31
0.0
 11
130.7048096515
 21
240.3980885927
 31
0.0
 11
130.6925158575
 21
240.3694089248
 31
0.0
 11
130.6800283369
 21
240.3407724628
 31
0.0
 11
130.6673471599
 21
240.3121811003
 31
0.0
 11
130.6544724204
 21
240.2836367344
 31
0.0
 11
130.6414042365
 21
240.2551412653
 31
0.0
 11
130.6281427504
 21
240.2266965957
 31
0.0
 11
130.6146881286
 21
240.1983046308
 31
0.0
 11
130.6010405617
 21
240.1699672777
 31
0.0
 11
130.587200265
 21
240.1416864451
 31
0.0
 11
130.5731674781
 21
240.1134640428
 31
0.0
 11
130.5589424654
 21
240.0853019813
 31
0.0
 11
130.5445255157
 21
240.0572021718
 31
0.0
 11
130.5299169429
 21
240.0291665253
 31
0.0
 11
130.5151170853
 21
240.0011969525
 31
0.0
 11
130.5001263063
 21
239.9732953633
 31
0.0
 11
130.484944994
 21
239.9454636665
 31
0.0
 11
130.4695735618
 21
239.9177037693
 31
0.0
 11
130.4540124475
 21
239.8900175769
 31
0.0
 11
130.4382621143
 21
239.8624069923
 31
0.0
 11
130.4223230503
 21
239.8348739155
 31
0.0
 11
130.4061957685
 21
239.8074202436
 31
0.0
 11
130.3898808069
 21
239.7800478699
 31
0.0
 11
130.3733787286
 21
239.7527586839
 31
0.0
 11
130.3566901215
 21
239.7255545707
 31
0.0
 11
130.3398155985
 21
239.6984374105
 31
0.0
 11
130.3227557977
 21
239.6714090783
 31
0.0
 11
130.3055113815
 21
239.6444714437
 31
0.0
 11
130.2880830377
 21
239.6176263702
 31
0.0
 11
130.2704714784
 21
239.5908757147
 31
0.0
 11
130.2526774407
 21
239.5642213275
 31
0.0
 11
130.2347016862
 21
239.5376650516
 31
0.0
 11
130.2165450011
 21
239.5112087223
 31
0.0
 11
130.1982081961
 21
239.4848541671
 31
0.0
 11
130.179692106
 21
239.4586032047
 31
0.0
 11
130.1609975902
 21
239.4324576452
 31
0.0
 11
130.1421255321
 21
239.4064192895
 31
0.0
 11
130.1230768392
 21
239.3804899286
 31
0.0
 11
130.1038524427
 21
239.3546713436
 31
0.0
 11
130.0844532977
 21
239.3289653052
 31
0.0
 11
130.064880383
 21
239.3033735732
 31
0.0
 11
130.0451347008
 21
239.2778978963
 31
0.0
 11
130.0252172765
 21
239.2525400114
 31
0.0
 11
130.0051291589
 21
239.2273016435
 31
0.0
 11
129.9848714195
 21
239.2021845051
 31
0.0
 11
129.9644451527
 21
239.1771902962
 31
0.0
 11
129.9438514755
 21
239.1523207034
 31
0.0
 11
129.9230915273
 21
239.1275773998
 31
0.0
 11
129.9021664698
 21
239.1029620449
 31
0.0
 11
129.8810774865
 21
239.0784762835
 31
0.0
 11
129.8598257827
 21
239.0541217462
 31
0.0
 11
129.8384125854
 21
239.0299000484
 31
0.0
 11
129.8168391427
 21
239.0058127901
 31
0.0
 11
129.795106724
 21
238.9818615559
 31
0.0
 11
129.7732166192
 21
238.9580479141
 31
0.0
 11
129.7511701391
 21
238.9343734168
 31
0.0
 11
129.7289686146
 21
238.9108395993
 31
0.0
 11
129.7066133967
 21
238.8874479799
 31
0.0
 11
129.6841058562
 21
238.8642000595
 31
0.0
 11
129.6614473833
 21
238.8410973216
 31
0.0
 11
129.6386393875
 21
238.8181412312
 31
0.0
 11
129.6156832971
 21
238.7953332354
 31
0.0
 11
129.5925805591
 21
238.7726747625
 31
0.0
 11
129.5693326388
 21
238.750167222
 31
0.0
 11
129.5459410194
 21
238.7278120041
 31
0.0
 11
129.5224072019
 21
238.7056104796
 31
0.0
 11
129.4987327046
 21
238.6835639995
 31
0.0
 11
129.4749190628
 21
238.6616738947
 31
0.0
 11
129.4509678285
 21
238.639941476
 31
0.0
 11
129.4268805703
 21
238.6183680333
 31
0.0
 11
129.4026588725
 21
238.596954836
 31
0.0
 11
129.3783043351
 21
238.5757031322
 31
0.0
 11
129.3538185738
 21
238.5546141489
 31
0.0
 11
129.3292032189
 21
238.5336890914
 31
0.0
 11
129.3044599153
 21
238.5129291432
 31
0.0
 11
129.2795903225
 21
238.492335466
 31
0.0
 11
129.2545961136
 21
238.4719091992
 31
0.0
 11
129.2294789752
 21
238.4516514598
 31
0.0
 11
129.2042406073
 21
238.4315633422
 31
0.0
 11
129.1788827224
 21
238.4116459179
 31
0.0
 11
129.1534070454
 21
238.3919002357
 31
0.0
 11
129.1278153135
 21
238.372327321
 31
0.0
 11
129.1021092751
 21
238.352928176
 31
0.0
 11
129.0762906901
 21
238.3337037795
 31
0.0
 11
129.0503613292
 21
238.3146550866
 31
0.0
 11
129.0243229734
 21
238.2957830285
 31
0.0
 11
128.998177414
 21
238.2770885127
 31
0.0
 11
128.9719264516
 21
238.2585724226
 31
0.0
 11
128.9455718964
 21
238.2402356176
 31
0.0
 11
128.9191155671
 21
238.2220789325
 31
0.0
 11
128.8925592912
 21
238.204103178
 31
0.0
 11
128.865904904
 21
238.1863091403
 31
0.0
 11
128.8391542485
 21
238.168697581
 31
0.0
 11
128.8123091749
 21
238.1512692372
 31
0.0
 11
128.7853715404
 21
238.134024821
 31
0.0
 11
128.7583432082
 21
238.1169650201
 31
0.0
 11
128.731226048
 21
238.1000904972
 31
0.0
 11
128.7040219347
 21
238.0834018901
 31
0.0
 11
128.6767327488
 21
238.0668998118
 31
0.0
 11
128.6493603751
 21
238.0505848502
 31
0.0
 11
128.6219067032
 21
238.0344575684
 31
0.0
 11
128.5943736264
 21
238.0185185043
 31
0.0
 11
128.5667630418
 21
238.0027681712
 31
0.0
 11
128.5390768494
 21
237.9872070569
 31
0.0
 11
128.5113169522
 21
237.9718356246
 31
0.0
 11
128.4834852554
 21
237.9566543124
 31
0.0
 11
128.4555836662
 21
237.9416635334
 31
0.0
 11
128.4276140934
 21
237.9268636758
 31
0.0
 11
128.3995784469
 21
237.9122551029
 31
0.0
 11
128.3714786374
 21
237.8978381533
 31
0.0
 11
128.3433165759
 21
237.8836131406
 31
0.0
 11
128.3150941736
 21
237.8695803537
 31
0.0
 11
128.286813341
 21
237.855740057
 31
0.0
 11
128.2584759879
 21
237.8420924901
 31
0.0
 11
128.230084023
 21
237.8286378683
 31
0.0
 11
128.2016393534
 21
237.8153763822
 31
0.0
 11
128.1731438843
 21
237.8023081983
 31
0.0
 11
128.1445995184
 21
237.7894334588
 31
0.0
 11
128.1160081559
 21
237.7767522817
 31
0.0
 11
128.0873716939
 21
237.7642647611
 31
0.0
 11
128.058692026
 21
237.7519709672
 31
0.0
 11
128.0299710422
 21
237.7398709462
 31
0.0
 11
128.0012106281
 21
237.7279647211
 31
0.0
 11
127.972412665
 21
237.716252291
 31
0.0
 11
127.9435790294
 21
237.7047336318
 31
0.0
 11
127.9147115924
 21
237.6934086963
 31
0.0
 11
127.8858122197
 21
237.6822774141
 31
0.0
 11
127.856882771
 21
237.6713396922
 31
0.0
 11
127.8279251001
 21
237.6605954144
 31
0.0
 11
127.798941054
 21
237.6500444425
 31
0.0
 11
127.7699324728
 21
237.6396866156
 31
0.0
 11
127.7409011897
 21
237.6295217507
 31
0.0
 11
127.7118490302
 21
237.6195496429
 31
0.0
 11
127.6827778119
 21
237.6097700655
 31
0.0
 11
127.6536893447
 21
237.6001827701
 31
0.0
 11
127.6245854296
 21
237.590787487
 31
0.0
 11
127.5954678593
 21
237.5815839253
 31
0.0
 11
127.5663384173
 21
237.5725717732
 31
0.0
 11
127.5371988779
 21
237.5637506982
 31
0.0
 11
127.5080510057
 21
237.5551203469
 31
0.0
 11
127.4788965558
 21
237.5466803462
 31
0.0
 11
127.4497372729
 21
237.5384303023
 31
0.0
 11
127.4205748914
 21
237.5303698022
 31
0.0
 11
127.3914111352
 21
237.5224984127
 31
0.0
 11
127.3622477173
 21
237.5148156816
 31
0.0
 11
127.3330863395
 21
237.5073211375
 31
0.0
 11
127.3039286923
 21
237.5000142902
 31
0.0
 11
127.2747764547
 21
237.4928946308
 31
0.0
 11
127.2456312936
 21
237.4859616319
 31
0.0
 11
127.2164948643
 21
237.4792147482
 31
0.0
 11
127.1873688094
 21
237.4726534166
 31
0.0
 11
127.1582547593
 21
237.4662770561
 31
0.0
 11
127.1291543316
 21
237.4600850687
 31
0.0
 11
127.1000691312
 21
237.4540768391
 31
0.0
 11
127.0710007497
 21
237.4482517354
 31
0.0
 11
127.0419507655
 21
237.4426091089
 31
0.0
 11
127.0129207436
 21
237.437148295
 31
0.0
 11
126.9839122355
 21
237.4318686128
 31
0.0
 11
126.9549267787
 21
237.4267693659
 31
0.0
 11
126.9259658967
 21
237.4218498424
 31
0.0
 11
126.8970310992
 21
237.4171093152
 31
0.0
 11
126.8681238813
 21
237.4125470424
 31
0.0
 11
126.8392457238
 21
237.4081622675
 31
0.0
 11
126.810398093
 21
237.4039542195
 31
0.0
 11
126.7815824405
 21
237.3999221138
 31
0.0
 11
126.7528002028
 21
237.3960651515
 31
0.0
 11
126.7240528019
 21
237.3923825207
 31
0.0
 11
126.6953416443
 21
237.3888733961
 31
0.0
 11
126.6666681215
 21
237.3855369395
 31
0.0
 11
126.6380336098
 21
237.3823723
 31
0.0
 11
126.6094394699
 21
237.3793786147
 31
0.0
 11
126.5808870471
 21
237.3765550084
 31
0.0
 11
126.5523776711
 21
237.373900594
 31
0.0
 11
126.5239126559
 21
237.3714144733
 31
0.0
 11
126.4954932998
 21
237.3690957366
 31
0.0
 11
126.4671208851
 21
237.3669434633
 31
0.0
 11
126.4387966785
 21
237.3649567225
 31
0.0
 11
126.4105219305
 21
237.3631345725
 31
0.0
 11
126.3822978755
 21
237.3614760618
 31
0.0
 11
126.354125732
 21
237.3599802291
 31
0.0
 11
126.3260067023
 21
237.3586461036
 31
0.0
 11
126.2979419726
 21
237.3574727051
 31
0.0
 11
126.2699327126
 21
237.3564590446
 31
0.0
 11
126.2419800761
 21
237.3556041245
 31
0.0
 11
126.2140852004
 21
237.3549069386
 31
0.0
 11
126.1862492066
 21
237.3543664728
 31
0.0
 11
126.1584731993
 21
237.3539817049
 31
0.0
 11
126.1031054816
 21
237.3536751371
 31
0.0
  0
LINE
  5
263
100
AcDbEntity
  8
0
100
AcDbLine
 62
7
  6
CONTINUOUS
 10
108.8531054816
 20
237.3536751371
 11
126.1031054816
 21
237.3536751371
  0
SPLINE
  5
264
100
AcDbEntity
  8
0
100
AcDbSpline
 62
7
  6
CONTINUOUS
 70
4
 71
3
 72
8
 73
4
 74
255
 42
0.0000001
 43
0.0000001
 44
0.0000000001
 12
0.0
 22
7.0710678119
 32
0.0
 13
7.0710678119
 23
-0.0
 33
0.0
 40
0.0
 40
0.0
 40
0.0
 40
0.0
 40
1.0
 40
1.0
 40
1.0
 40
1.0
 10
103.8531054816
 20
232.3536751371
 30
0.0
 41
1.0
 10
103.8531054816
 20
235.2826073252
 30
0.0
 41
0.8047378541
 10
105.9241732935
 20
237.3536751371
 30
0.0
 41
0.8047378541
 10
108.8531054816
 20
237.3536751371
 30
0.0
 41
1.0
 11
103.8531054816
 21
232.3536751371
 31
0.0
 11
103.8534120494
 21
232.4090428548
 31
0.0
 11
103.8537968173
 21
232.4368188621
 31
0.0
 11
103.8543372831
 21
232.4646548559
 31
0.0
 11
103.855034469
 21
232.4925497316
 31
0.0
 11
103.8558893891
 21
232.5205023681
 31
0.0
 11
103.8569030496
 21
232.5485116281
 31
0.0
 11
103.8580764481
 21
232.5765763578
 31
0.0
 11
103.8594105736
 21
232.6046953875
 31
0.0
 11
103.8609064063
 21
232.632867531
 31
0.0
 11
103.862564917
 21
232.661091586
 31
0.0
 11
103.864387067
 21
232.689366334
 31
0.0
 11
103.8663738078
 21
232.7176905407
 31
0.0
 11
103.8685260811
 21
232.7460629553
 31
0.0
 11
103.8708448178
 21
232.7744823114
 31
0.0
 11
103.8733309385
 21
232.8029473266
 31
0.0
 11
103.8759853529
 21
232.8314567026
 31
0.0
 11
103.8788089592
 21
232.8600091254
 31
0.0
 11
103.8818026445
 21
232.8886032653
 31
0.0
 11
103.8849672839
 21
232.917237777
 31
0.0
 11
103.8883037406
 21
232.9459112998
 31
0.0
 11
103.8918128652
 21
232.9746224574
 31
0.0
 11
103.895495496
 21
233.0033698583
 31
0.0
 11
103.8993524582
 21
233.032152096
 31
0.0
 11
103.903384564
 21
233.0609677486
 31
0.0
 11
103.907592612
 21
233.0898153793
 31
0.0
 11
103.9119773869
 21
233.1186935368
 31
0.0
 11
103.9165396597
 21
233.1476007547
 31
0.0
 11
103.9212801869
 21
233.1765355523
 31
0.0
 11
103.9261997104
 21
233.2054964342
 31
0.0
 11
103.9312989573
 21
233.234481891
 31
0.0
 11
103.9365786395
 21
233.2634903992
 31
0.0
 11
103.9420394534
 21
233.292520421
 31
0.0
 11
103.9476820799
 21
233.3215704052
 31
0.0
 11
103.9535071836
 21
233.3506387867
 31
0.0
 11
103.9595154132
 21
233.3797239871
 31
0.0
 11
103.9657074006
 21
233.4088244148
 31
0.0
 11
103.9720837611
 21
233.4379384649
 31
0.0
 11
103.9786450927
 21
233.4670645198
 31
0.0
 11
103.9853919764
 21
233.4962009491
 31
0.0
 11
103.9923249752
 21
233.5253461102
 31
0.0
 11
103.9994446347
 21
233.5544983478
 31
0.0
 11
104.006751482
 21
233.583655995
 31
0.0
 11
104.0142460261
 21
233.6128173728
 31
0.0
 11
104.0219287572
 21
233.6419807908
 31
0.0
 11
104.0298001466
 21
233.6711445469
 31
0.0
 11
104.0378606468
 21
233.7003069284
 31
0.0
 11
104.0461106907
 21
233.7294662113
 31
0.0
 11
104.0545506914
 21
233.7586206613
 31
0.0
 11
104.0631810427
 21
233.7877685334
 31
0.0
 11
104.0720021177
 21
233.8169080728
 31
0.0
 11
104.0810142698
 21
233.8460375148
 31
0.0
 11
104.0902178315
 21
233.8751550851
 31
0.0
 11
104.0996131145
 21
233.9042590002
 31
0.0
 11
104.1092004099
 21
233.9333474674
 31
0.0
 11
104.1189799874
 21
233.9624186857
 31
0.0
 11
104.1289520952
 21
233.9914708452
 31
0.0
 11
104.13911696
 21
234.0205021283
 31
0.0
 11
104.149474787
 21
234.0495107095
 31
0.0
 11
104.1600257589
 21
234.0784947556
 31
0.0
 11
104.1707700366
 21
234.1074524266
 31
0.0
 11
104.1817077586
 21
234.1363818752
 31
0.0
 11
104.1928390408
 21
234.1652812479
 31
0.0
 11
104.2041639763
 21
234.1941486849
 31
0.0
 11
104.2156826354
 21
234.2229823205
 31
0.0
 11
104.2273950656
 21
234.2517802836
 31
0.0
 11
104.2393012907
 21
234.2805406977
 31
0.0
 11
104.2514013117
 21
234.3092616815
 31
0.0
 11
104.2636951056
 21
234.3379413494
 31
0.0
 11
104.2761826262
 21
234.3665778114
 31
0.0
 11
104.2888638033
 21
234.3951691739
 31
0.0
 11
104.3017385428
 21
234.4237135398
 31
0.0
 11
104.3148067267
 21
234.4522090089
 31
0.0
 11
104.3280682128
 21
234.4806536785
 31
0.0
 11
104.3415228346
 21
234.5090456434
 31
0.0
 11
104.3551704015
 21
234.5373829965
 31
0.0
 11
104.3690106982
 21
234.5656638291
 31
0.0
 11
104.3830434851
 21
234.5938862314
 31
0.0
 11
104.3972684978
 21
234.6220482929
 31
0.0
 11
104.4116854474
 21
234.6501481024
 31
0.0
 11
104.4262940203
 21
234.6781837489
 31
0.0
 11
104.4410938779
 21
234.7061533217
 31
0.0
 11
104.4560846569
 21
234.7340549109
 31
0.0
 11
104.4712659691
 21
234.7618866077
 31
0.0
 11
104.4866374014
 21
234.7896465049
 31
0.0
 11
104.5021985157
 21
234.8173326973
 31
0.0
 11
104.5179488488
 21
234.8449432819
 31
0.0
 11
104.5338879129
 21
234.8724763587
 31
0.0
 11
104.5500151947
 21
234.8999300306
 31
0.0
 11
104.5663301563
 21
234.9273024043
 31
0.0
 11
104.5828322346
 21
234.9545915903
 31
0.0
 11
104.5995208417
 21
234.9817957035
 31
0.0
 11
104.6163953646
 21
235.0089128637
 31
0.0
 11
104.6334551655
 21
235.0359411959
 31
0.0
 11
104.6506995816
 21
235.0628788305
 31
0.0
 11
104.6681279255
 21
235.089723904
 31
0.0
 11
104.6857394848
 21
235.1164745595
 31
0.0
 11
104.7035335225
 21
235.1431289467
 31
0.0
 11
104.7215092769
 21
235.1696852226
 31
0.0
 11
104.739665962
 21
235.1961415519
 31
0.0
 11
104.7580027671
 21
235.2224961071
 31
0.0
 11
104.7765188572
 21
235.2487470695
 31
0.0
 11
104.795213373
 21
235.2748926289
 31
0.0
 11
104.814085431
 21
235.3009309847
 31
0.0
 11
104.833134124
 21
235.3268603456
 31
0.0
 11
104.8523585205
 21
235.3526789306
 31
0.0
 11
104.8717576655
 21
235.378384969
 31
0.0
 11
104.8913305802
 21
235.403976701
 31
0.0
 11
104.9110762624
 21
235.4294523779
 31
0.0
 11
104.9309936866
 21
235.4548102628
 31
0.0
 11
104.9510818043
 21
235.4800486307
 31
0.0
 11
104.9713395437
 21
235.5051657691
 31
0.0
 11
104.9917658105
 21
235.530159978
 31
0.0
 11
105.0123594877
 21
235.5550295708
 31
0.0
 11
105.0331194359
 21
235.5797728744
 31
0.0
 11
105.0540444934
 21
235.6043882293
 31
0.0
 11
105.0751334767
 21
235.6288739907
 31
0.0
 11
105.0963851805
 21
235.653228528
 31
0.0
 11
105.1177983778
 21
235.6774502258
 31
0.0
 11
105.1393718205
 21
235.7015374841
 31
0.0
 11
105.1611042392
 21
235.7254887183
 31
0.0
 11
105.182994344
 21
235.7493023601
 31
0.0
 11
105.2050408241
 21
235.7729768574
 31
0.0
 11
105.2272423486
 21
235.7965106749
 31
0.0
 11
105.2495975664
 21
235.8199022943
 31
0.0
 11
105.272105107
 21
235.8431502147
 31
0.0
 11
105.2947635798
 21
235.8662529526
 31
0.0
 11
105.3175715757
 21
235.889209043
 31
0.0
 11
105.340527666
 21
235.9120170388
 31
0.0
 11
105.363630404
 21
235.9346755117
 31
0.0
 11
105.3868783244
 21
235.9571830522
 31
0.0
 11
105.4102699438
 21
235.9795382701
 31
0.0
 11
105.4338037613
 21
236.0017397946
 31
0.0
 11
105.4574782586
 21
236.0237862747
 31
0.0
 11
105.4812919004
 21
236.0456763795
 31
0.0
 11
105.5052431346
 21
236.0674087982
 31
0.0
 11
105.5293303929
 21
236.0889822409
 31
0.0
 11
105.5535520907
 21
236.1103954382
 31
0.0
 11
105.577906628
 21
236.131647142
 31
0.0
 11
105.6023923894
 21
236.1527361253
 31
0.0
 11
105.6270077443
 21
236.1736611828
 31
0.0
 11
105.6517510479
 21
236.194421131
 31
0.0
 11
105.6766206407
 21
236.2150148082
 31
0.0
 11
105.7016148496
 21
236.235441075
 31
0.0
 11
105.7267319879
 21
236.2556988144
 31
0.0
 11
105.7519703559
 21
236.275786932
 31
0.0
 11
105.7773282408
 21
236.2957043563
 31
0.0
 11
105.8028039177
 21
236.3154500385
 31
0.0
 11
105.8283956497
 21
236.3350229532
 31
0.0
 11
105.8541016881
 21
236.3544220982
 31
0.0
 11
105.8799202731
 21
236.3736464947
 31
0.0
 11
105.905849634
 21
236.3926951876
 31
0.0
 11
105.9318879897
 21
236.4115672457
 31
0.0
 11
105.9580335492
 21
236.4302617615
 31
0.0
 11
105.9842845116
 21
236.4487778516
 31
0.0
 11
106.0106390668
 21
236.4671146566
 31
0.0
 11
106.0370953961
 21
236.4852713417
 31
0.0
 11
106.063651672
 21
236.5032470962
 31
0.0
 11
106.0903060592
 21
236.5210411339
 31
0.0
 11
106.1170567147
 21
236.5386526932
 31
0.0
 11
106.1439017882
 21
236.556081037
 31
0.0
 11
106.1708394228
 21
236.5733254532
 31
0.0
 11
106.197867755
 21
236.5903852541
 31
0.0
 11
106.2249849152
 21
236.607259777
 31
0.0
 11
106.2521890284
 21
236.6239483841
 31
0.0
 11
106.2794782144
 21
236.6404504624
 31
0.0
 11
106.3068505881
 21
236.656765424
 31
0.0
 11
106.33430426
 21
236.6728927058
 31
0.0
 11
106.3618373368
 21
236.6888317699
 31
0.0
 11
106.3894479214
 21
236.704582103
 31
0.0
 11
106.4171341138
 21
236.7201432173
 31
0.0
 11
106.444894011
 21
236.7355146496
 31
0.0
 11
106.4727257078
 21
236.7506959618
 31
0.0
 11
106.500627297
 21
236.7656867408
 31
0.0
 11
106.5285968698
 21
236.7804865984
 31
0.0
 11
106.5566325163
 21
236.7950951712
 31
0.0
 11
106.5847323258
 21
236.8095121209
 31
0.0
 11
106.6128943872
 21
236.8237371336
 31
0.0
 11
106.6411167896
 21
236.8377699205
 31
0.0
 11
106.6693976222
 21
236.8516102172
 31
0.0
 11
106.6977349753
 21
236.8652577841
 31
0.0
 11
106.7261269402
 21
236.8787124059
 31
0.0
 11
106.7545716098
 21
236.891973892
 31
0.0
 11
106.7830670789
 21
236.9050420759
 31
0.0
 11
106.8116114448
 21
236.9179168154
 31
0.0
 11
106.8402028073
 21
236.9305979925
 31
0.0
 11
106.8688392693
 21
236.943085513
 31
0.0
 11
106.8975189372
 21
236.955379307
 31
0.0
 11
106.926239921
 21
236.9674793279
 31
0.0
 11
106.9550003351
 21
236.9793855531
 31
0.0
 11
106.9837982981
 21
236.9910979832
 31
0.0
 11
107.0126319338
 21
237.0026166424
 31
0.0
 11
107.0414993708
 21
237.0139415779
 31
0.0
 11
107.0703987435
 21
237.0250728601
 31
0.0
 11
107.0993281921
 21
237.036010582
 31
0.0
 11
107.128285863
 21
237.0467548598
 31
0.0
 11
107.1572699092
 21
237.0573058317
 31
0.0
 11
107.1862784903
 21
237.0676636586
 31
0.0
 11
107.2153097735
 21
237.0778285235
 31
0.0
 11
107.244361933
 21
237.0878006313
 31
0.0
 11
107.2734331512
 21
237.0975802087
 31
0.0
 11
107.3025216185
 21
237.1071675041
 31
0.0
 11
107.3316255336
 21
237.1165627872
 31
0.0
 11
107.3607431039
 21
237.1257663489
 31
0.0
 11
107.3898725459
 21
237.1347785009
 31
0.0
 11
107.4190120853
 21
237.143599576
 31
0.0
 11
107.4481599574
 21
237.1522299273
 31
0.0
 11
107.4773144074
 21
237.160669928
 31
0.0
 11
107.5064736903
 21
237.1689199719
 31
0.0
 11
107.5356360717
 21
237.176980472
 31
0.0
 11
107.5647998279
 21
237.1848518615
 31
0.0
 11
107.5939632458
 21
237.1925345926
 31
0.0
 11
107.6231246237
 21
237.2000291367
 31
0.0
 11
107.6522822708
 21
237.207335984
 31
0.0
 11
107.6814345085
 21
237.2144556434
 31
0.0
 11
107.7105796696
 21
237.2213886423
 31
0.0
 11
107.7397160989
 21
237.228135526
 31
0.0
 11
107.7688421538
 21
237.2346968576
 31
0.0
 11
107.7979562039
 21
237.2410732181
 31
0.0
 11
107.8270566316
 21
237.2472652055
 31
0.0
 11
107.856141832
 21
237.2532734351
 31
0.0
 11
107.8852102135
 21
237.2590985388
 31
0.0
 11
107.9142601977
 21
237.2647411653
 31
0.0
 11
107.9432902195
 21
237.2702019792
 31
0.0
 11
107.9722987277
 21
237.2754816614
 31
0.0
 11
108.0012841845
 21
237.2805809083
 31
0.0
 11
108.0302450664
 21
237.2855004318
 31
0.0
 11
108.059179864
 21
237.290240959
 31
0.0
 11
108.0880870819
 21
237.2948032318
 31
0.0
 11
108.1169652393
 21
237.2991880067
 31
0.0
 11
108.1458128701
 21
237.3033960547
 31
0.0
 11
108.1746285227
 21
237.3074281604
 31
0.0
 11
108.2034107603
 21
237.3112851227
 31
0.0
 11
108.2321581613
 21
237.3149677535
 31
0.0
 11
108.2608693189
 21
237.3184768781
 31
0.0
 11
108.2895428417
 21
237.3218133347
 31
0.0
 11
108.3181773534
 21
237.3249779741
 31
0.0
 11
108.3467714933
 21
237.3279716595
 31
0.0
 11
108.3753239161
 21
237.3307952658
 31
0.0
 11
108.4038332921
 21
237.3334496802
 31
0.0
 11
108.4322983073
 21
237.3359358009
 31
0.0
 11
108.4607176634
 21
237.3382545376
 31
0.0
 11
108.489090078
 21
237.3404068108
 31
0.0
 11
108.5174142846
 21
237.3423935517
 31
0.0
 11
108.5456890327
 21
237.3442157017
 31
0.0
 11
108.5739130877
 21
237.3458742124
 31
0.0
 11
108.6020852312
 21
237.3473700451
 31
0.0
 11
108.6302042608
 21
237.3487041706
 31
0.0
 11
108.6582689906
 21
237.3498775691
 31
0.0
 11
108.6862782506
 21
237.3508912296
 31
0.0
 11
108.7142308871
 21
237.3517461497
 31
0.0
 11
108.7421257628
 21
237.3524433356
 31
0.0
 11
108.7699617566
 21
237.3529838014
 31
0.0
 11
108.7977377639
 21
237.3533685693
 31
0.0
 11
108.8531054816
 21
237.3536751371
 31
0.0
  0
LINE
  5
265
100
AcDbEntity
  8
0
100
AcDbLine
 62
7
  6
CONTINUOUS
 10
103.8531054816
 20
232.3536751371
 11
103.8531054816
 21
214.6487416635
  0
SPLINE
  5
266
100
AcDbEntity
  8
0
100
AcDbSpline
 62
7
  6
CONTINUOUS
 70
4
 71
3
 72
8
 73
4
 74
129
 42
0.0000001
 43
0.0000001
 44
0.0000000001
 12
-6.9054445686
 22
0.3069867401
 32
0.0
 13
-0.0
 23
6.9122648639
 33
0.0
 40
0.0
 40
0.0
 40
0.0
 40
0.0
 40
1.0
 40
1.0
 40
1.0
 40
1.0
 10
108.6310460364
 20
209.6536751371
 30
0.0
 41
1.0
 10
105.8070525358
 20
209.7792178955
 30
0.0
 41
0.8150921225
 10
103.8531054816
 20
211.8219589913
 30
0.0
 41
0.8150921225
 10
103.8531054816
 20
214.6487416635
 30
0.0
 41
1.0
 11
108.6310460364
 21
209.6536751371
 31
0.0
 11
108.5769946867
 21
209.6563712016
 31
0.0
 11
108.5227438271
 21
209.6596674831
 31
0.0
 11
108.4683020543
 21
209.6635710222
 31
0.0
 11
108.413678191
 21
209.6680887287
 31
0.0
 11
108.3588812843
 21
209.6732273742
 31
0.0
 11
108.303920604
 21
209.6789935843
 31
0.0
 11
108.2488056411
 21
209.6853938313
 31
0.0
 11
108.1935461053
 21
209.6924344263
 31
0.0
 11
108.1381519231
 21
209.7001215114
 31
0.0
 11
108.0826332345
 21
209.7084610523
 31
0.0
 11
108.0270003906
 21
209.7174588305
 31
0.0
 11
107.9712639497
 21
209.7271204354
 31
0.0
 11
107.9154346746
 21
209.7374512569
 31
0.0
 11
107.8595235277
 21
209.7484564778
 31
0.0
 11
107.8035416677
 21
209.7601410661
 31
0.0
 11
107.7475004446
 21
209.7725097676
 31
0.0
 11
107.6914113952
 21
209.7855670985
 31
0.0
 11
107.6352862377
 21
209.7993173379
 31
0.0
 11
107.5791368669
 21
209.8137645209
 31
0.0
 11
107.5229753476
 21
209.8289124314
 31
0.0
 11
107.4668139095
 21
209.8447645947
 31
0.0
 11
107.4106649403
 21
209.8613242715
 31
0.0
 11
107.3545409795
 21
209.8785944505
 31
0.0
 11
107.298454711
 21
209.8965778425
 31
0.0
 11
107.2424189566
 21
209.9152768735
 31
0.0
 11
107.186446668
 21
209.9346936791
 31
0.0
 11
107.1305509191
 21
209.9548300985
 31
0.0
 11
107.0747448984
 21
209.9756876689
 31
0.0
 11
107.0190419002
 21
209.9972676197
 31
0.0
 11
106.9634553163
 21
210.0195708681
 31
0.0
 11
106.9079986273
 21
210.0425980134
 31
0.0
 11
106.8526853934
 21
210.066349333
 31
0.0
 11
106.7975292451
 21
210.0908247779
 31
0.0
 11
106.7425438739
 21
210.1160239687
 31
0.0
 11
106.6877430225
 21
210.1419461921
 31
0.0
 11
106.6331404751
 21
210.168590397
 31
0.0
 11
106.5787500469
 21
210.1959551924
 31
0.0
 11
106.5245855742
 21
210.2240388439
 31
0.0
 11
106.4706609041
 21
210.252839272
 31
0.0
 11
106.4169898837
 21
210.2823540497
 31
0.0
 11
106.3635863494
 21
210.3125804014
 31
0.0
 11
106.3104641164
 21
210.3435152016
 31
0.0
 11
106.2576369678
 21
210.3751549738
 31
0.0
 11
106.2051186432
 21
210.4074958908
 31
0.0
 11
106.1529228284
 21
210.4405337742
 31
0.0
 11
106.1010631438
 21
210.4742640948
 31
0.0
 11
106.0495531334
 21
210.5086819742
 31
0.0
 11
105.998406254
 21
210.543782185
 31
0.0
 11
105.9476358638
 21
210.5795591534
 31
0.0
 11
105.8972552115
 21
210.616006961
 31
0.0
 11
105.8472774252
 21
210.6531193471
 31
0.0
 11
105.7977155016
 21
210.690889712
 31
0.0
 11
105.7485822949
 21
210.7293111202
 31
0.0
 11
105.6998905065
 21
210.7683763043
 31
0.0
 11
105.6516526736
 21
210.8080776691
 31
0.0
 11
105.6038811593
 21
210.8484072961
 31
0.0
 11
105.5565881423
 21
210.8893569489
 31
0.0
 11
105.5097856063
 21
210.9309180782
 31
0.0
 11
105.4634853301
 21
210.9730818276
 31
0.0
 11
105.4176988782
 21
211.0158390403
 31
0.0
 11
105.3724375908
 21
211.0591802649
 31
0.0
 11
105.3277125748
 21
211.1030957628
 31
0.0
 11
105.2835346946
 21
211.1475755154
 31
0.0
 11
105.2399145632
 21
211.1926092315
 31
0.0
 11
105.196862534
 21
211.2381863556
 31
0.0
 11
105.1543886924
 21
211.2842960756
 31
0.0
 11
105.1125028482
 21
211.3309273319
 31
0.0
 11
105.0712145274
 21
211.3780688259
 31
0.0
 11
105.0305329659
 21
211.4257090291
 31
0.0
 11
104.9904671019
 21
211.4738361928
 31
0.0
 11
104.9510255698
 21
211.5224383573
 31
0.0
 11
104.9122166941
 21
211.571503362
 31
0.0
 11
104.8740484832
 21
211.6210188552
 31
0.0
 11
104.8365286249
 21
211.6709723047
 31
0.0
 11
104.7996644805
 21
211.7213510079
 31
0.0
 11
104.763463081
 21
211.7721421023
 31
0.0
 11
104.7279311226
 21
211.8233325767
 31
0.0
 11
104.693074963
 21
211.8749092813
 31
0.0
 11
104.6589006182
 21
211.9268589393
 31
0.0
 11
104.6254137597
 21
211.9791681574
 31
0.0
 11
104.5926197116
 21
212.0318234371
 31
0.0
 11
104.560523449
 21
212.0848111859
 31
0.0
 11
104.5291295965
 21
212.1381177281
 31
0.0
 11
104.4984424262
 21
212.1917293164
 31
0.0
 11
104.4684658578
 21
212.2456321426
 31
0.0
 11
104.4392034578
 21
212.299812349
 31
0.0
 11
104.4106584395
 21
212.3542560395
 31
0.0
 11
104.3828336638
 21
212.4089492902
 31
0.0
 11
104.3557316396
 21
212.4638781607
 31
0.0
 11
104.3293545253
 21
212.5190287051
 31
0.0
 11
104.3037041303
 21
212.5743869819
 31
0.0
 11
104.2787819173
 21
212.6299390657
 31
0.0
 11
104.2545890043
 21
212.6856710565
 31
0.0
 11
104.2311261676
 21
212.7415690911
 31
0.0
 11
104.2083938448
 21
212.7976193521
 31
0.0
 11
104.1863921385
 21
212.8538080789
 31
0.0
 11
104.1651208194
 21
212.9101215765
 31
0.0
 11
104.1445793312
 21
212.9665462257
 31
0.0
 11
104.1247667945
 21
213.023068492
 31
0.0
 11
104.1056820119
 21
213.0796749348
 31
0.0
 11
104.0873234724
 21
213.1363522161
 31
0.0
 11
104.0696893572
 21
213.1930871093
 31
0.0
 11
104.0527775451
 21
213.2498665074
 31
0.0
 11
104.0365856181
 21
213.3066774309
 31
0.0
 11
104.0211108674
 21
213.3635070357
 31
0.0
 11
104.0063502999
 21
213.4203426207
 31
0.0
 11
103.9923006442
 21
213.4771716345
 31
0.0
 11
103.9789583577
 21
213.5339816829
 31
0.0
 11
103.9663196328
 21
213.5907605352
 31
0.0
 11
103.9543804043
 21
213.6474961305
 31
0.0
 11
103.9431363564
 21
213.7041765836
 31
0.0
 11
103.9325829298
 21
213.760790191
 31
0.0
 11
103.922715329
 21
213.8173254359
 31
0.0
 11
103.91352853
 21
213.8737709935
 31
0.0
 11
103.9050172875
 21
213.9301157358
 31
0.0
 11
103.897176143
 21
213.9863487359
 31
0.0
 11
103.8899994318
 21
214.042459272
 31
0.0
 11
103.8834812914
 21
214.0984368316
 31
0.0
 11
103.8776156688
 21
214.154271115
 31
0.0
 11
103.8723963288
 21
214.209952038
 31
0.0
 11
103.8678168611
 21
214.2654697356
 31
0.0
 11
103.8638706888
 21
214.3208145639
 31
0.0
 11
103.8605510758
 21
214.3759771031
 31
0.0
 11
103.8578511348
 21
214.4309481589
 31
0.0
 11
103.8557638348
 21
214.485718765
 31
0.0
 11
103.8542820093
 21
214.5402801839
 31
0.0
 11
103.8533983633
 21
214.5946239087
 31
0.0
 11
103.8531054816
 21
214.6487416635
 31
0.0
  0
LINE
  5
267
100
AcDbEntity
  8
0
100
AcDbLine
 62
7
  6
CONTINUOUS
 10
108.6310460364
 20
209.6536751371
 11
131.1475173706
 21
208.6526884424
  0
SPLINE
  5
268
100
AcDbEntity
  8
0
100
AcDbSpline
 62
7
  6
CONTINUOUS
 70
4
 71
3
 72
8
 73
4
 74
129
 42
0.0000001
 43
0.0000001
 44
0.0000000001
 12
1.3810889137
 22
-0.061397348
 32
0.0
 13
0.0
 23
-1.3824529728
 33
0.0
 40
0.0
 40
0.0
 40
0.0
 40
0.0
 40
1.0
 40
1.0
 40
1.0
 40
1.0
 10
131.1475173706
 20
208.6526884424
 30
0.0
 41
1.0
 10
131.7123160707
 20
208.6275798907
 30
0.0
 41
0.8150921225
 10
132.1031054816
 20
208.2190316715
 30
0.0
 41
0.8150921225
 10
132.1031054816
 20
207.6536751371
 30
0.0
 41
1.0
 11
131.1475173706
 21
208.6526884424
 31
0.0
 11
131.1583276406
 21
208.6521492295
 31
0.0
 11
131.1691778125
 21
208.6514899732
 31
0.0
 11
131.1800661671
 21
208.6507092653
 31
0.0
 11
131.1909909397
 21
208.649805724
 31
0.0
 11
131.2019503211
 21
208.648777995
 31
0.0
 11
131.2129424571
 21
208.6476247529
 31
0.0
 11
131.2239654497
 21
208.6463447035
 31
0.0
 11
131.2350173568
 21
208.6449365845
 31
0.0
 11
131.2460961933
 21
208.6433991675
 31
0.0
 11
131.257199931
 21
208.6417312593
 31
0.0
 11
131.2683264998
 21
208.6399317037
 31
0.0
 11
131.279473788
 21
208.6379993827
 31
0.0
 11
131.290639643
 21
208.6359332184
 31
0.0
 11
131.3018218724
 21
208.6337321742
 31
0.0
 11
131.3130182444
 21
208.6313952566
 31
0.0
 11
131.324226489
 21
208.6289215163
 31
0.0
 11
131.3354442989
 21
208.6263100501
 31
0.0
 11
131.3466693304
 21
208.6235600022
 31
0.0
 11
131.3578992045
 21
208.6206705656
 31
0.0
 11
131.3691315084
 21
208.6176409835
 31
0.0
 11
131.380363796
 21
208.6144705509
 31
0.0
 11
131.3915935898
 21
208.6111586155
 31
0.0
 11
131.402818382
 21
208.6077045797
 31
0.0
 11
131.4140356357
 21
208.6041079013
 31
0.0
 11
131.4252427866
 21
208.6003680951
 31
0.0
 11
131.4364372443
 21
208.596484734
 31
0.0
 11
131.4476163941
 21
208.5924574501
 31
0.0
 11
131.4587775982
 21
208.588285936
 31
0.0
 11
131.4699181979
 21
208.5839699458
 31
0.0
 11
131.4810355146
 21
208.5795092962
 31
0.0
 11
131.4921268524
 21
208.5749038671
 31
0.0
 11
131.5031894992
 21
208.5701536032
 31
0.0
 11
131.5142207289
 21
208.5652585142
 31
0.0
 11
131.5252178031
 21
208.560218676
 31
0.0
 11
131.5361779734
 21
208.5550342314
 31
0.0
 11
131.5470984829
 21
208.5497053904
 31
0.0
 11
131.5579765685
 21
208.5442324313
 31
0.0
 11
131.5688094631
 21
208.538615701
 31
0.0
 11
131.5795943971
 21
208.5328556154
 31
0.0
 11
131.5903286012
 21
208.5269526599
 31
0.0
 11
131.601009308
 21
208.5209073895
 31
0.0
 11
131.6116337546
 21
208.5147204295
 31
0.0
 11
131.6221991844
 21
208.508392475
 31
0.0
 11
131.6327028493
 21
208.5019242916
 31
0.0
 11
131.6431420122
 21
208.495316715
 31
0.0
 11
131.6535139492
 21
208.4885706508
 31
0.0
 11
131.6638159512
 21
208.481687075
 31
0.0
 11
131.6740453271
 21
208.4746670328
 31
0.0
 11
131.6841994051
 21
208.4675116391
 31
0.0
 11
131.6942755356
 21
208.4602220776
 31
0.0
 11
131.7042710929
 21
208.4527996004
 31
0.0
 11
131.7141834776
 21
208.4452455274
 31
0.0
 11
131.7240101189
 21
208.4375612458
 31
0.0
 11
131.7337484766
 21
208.4297482089
 31
0.0
 11
131.7433960432
 21
208.421807936
 31
0.0
 11
131.752950346
 21
208.4137420106
 31
0.0
 11
131.7624089494
 21
208.40555208
 31
0.0
 11
131.7717694566
 21
208.3972398542
 31
0.0
 11
131.7810295119
 21
208.3888071043
 31
0.0
 11
131.7901868023
 21
208.3802556617
 31
0.0
 11
131.7992390597
 21
208.3715874168
 31
0.0
 11
131.8081840629
 21
208.3628043172
 31
0.0
 11
131.817019639
 21
208.3539083667
 31
0.0
 11
131.8257436653
 21
208.3449016235
 31
0.0
 11
131.8343540711
 21
208.3357861987
 31
0.0
 11
131.8428488394
 21
208.3265642547
 31
0.0
 11
131.8512260083
 21
208.3172380034
 31
0.0
 11
131.8594836724
 21
208.3078097046
 31
0.0
 11
131.8676199847
 21
208.298281664
 31
0.0
 11
131.8756331575
 21
208.2886562312
 31
0.0
 11
131.8835214639
 21
208.2789357983
 31
0.0
 11
131.8912832391
 21
208.2691227974
 31
0.0
 11
131.8989168813
 21
208.2592196988
 31
0.0
 11
131.9064208529
 21
208.2492290089
 31
0.0
 11
131.9137936818
 21
208.2391532682
 31
0.0
 11
131.9210339617
 21
208.2289950493
 31
0.0
 11
131.9281403534
 21
208.2187569545
 31
0.0
 11
131.9351115853
 21
208.2084416135
 31
0.0
 11
131.9419464543
 21
208.1980516819
 31
0.0
 11
131.948643826
 21
208.1875898383
 31
0.0
 11
131.9552026356
 21
208.1770587824
 31
0.0
 11
131.9616218881
 21
208.1664612326
 31
0.0
 11
131.9679006586
 21
208.1557999242
 31
0.0
 11
131.9740380927
 21
208.1450776065
 31
0.0
 11
131.9800334064
 21
208.1342970413
 31
0.0
 11
131.9858858864
 21
208.123461
 31
0.0
 11
131.99159489
 21
208.1125722619
 31
0.0
 11
131.9971598451
 21
208.1016336118
 31
0.0
 11
132.00258025
 21
208.0906478376
 31
0.0
 11
132.0078556729
 21
208.0796177288
 31
0.0
 11
132.0129857518
 21
208.0685460734
 31
0.0
 11
132.0179701945
 21
208.0574356567
 31
0.0
 11
132.0228087771
 21
208.0462892585
 31
0.0
 11
132.0275013444
 21
208.0351096516
 31
0.0
 11
132.0320478089
 21
208.0238995994
 31
0.0
 11
132.0364481502
 21
208.012661854
 31
0.0
 11
132.040702414
 21
208.0013991545
 31
0.0
 11
132.0448107117
 21
207.9901142246
 31
0.0
 11
132.048773219
 21
207.9788097714
 31
0.0
 11
132.0525901755
 21
207.9674884828
 31
0.0
 11
132.0562618834
 21
207.9561530266
 31
0.0
 11
132.0597887065
 21
207.9448060479
 31
0.0
 11
132.0631710689
 21
207.9334501683
 31
0.0
 11
132.0664094543
 21
207.9220879836
 31
0.0
 11
132.0695044044
 21
207.9107220626
 31
0.0
 11
132.0724565179
 21
207.8993549457
 31
0.0
 11
132.0752664491
 21
207.8879891429
 31
0.0
 11
132.0779349064
 21
207.8766271332
 31
0.0
 11
132.0804626514
 21
207.8652713627
 31
0.0
 11
132.082850497
 21
207.8539242437
 31
0.0
 11
132.0850993066
 21
207.8425881531
 31
0.0
 11
132.0872099919
 21
207.8312654316
 31
0.0
 11
132.0891835121
 21
207.8199583826
 31
0.0
 11
132.0910208719
 21
207.8086692711
 31
0.0
 11
132.0927231204
 21
207.7974003226
 31
0.0
 11
132.0942913493
 21
207.7861537226
 31
0.0
 11
132.0957266916
 21
207.7749316154
 31
0.0
 11
132.0970303196
 21
207.7637361035
 31
0.0
 11
132.0982034441
 21
207.7525692468
 31
0.0
 11
132.0992473121
 21
207.7414330622
 31
0.0
 11
132.1001632057
 21
207.7303295227
 31
0.0
 11
132.1009524401
 21
207.719260557
 31
0.0
 11
132.1016163627
 21
207.7082280492
 31
0.0
 11
132.102156351
 21
207.697233838
 31
0.0
 11
132.1025738109
 21
207.6862797168
 31
0.0
 11
132.1028701761
 21
207.675367433
 31
0.0
 11
132.1030469052
 21
207.6644986881
 31
0.0
 11
132.1031054816
 21
207.6536751371
 31
0.0
  0
LINE
  5
269
100
AcDbEntity
  8
0
100
AcDbLine
 62
7
  6
CONTINUOUS
 10
132.1031054816
 20
207.6536751371
 11
132.1031054816
 21
202.1536751371
  0
LINE
  5
26A
100
AcDbEntity
  8
0
100
AcDbLine
 62
7
  6
CONTINUOUS
 10
70.6031054816
 20
177.1536751371
 11
132.1031054816
 21
177.1536751371
  0
LINE
  5
26B
100
AcDbEntity
  8
0
100
AcDbLine
 62
7
  6
CONTINUOUS
 10
132.1031054816
 20
177.1536751371
 11
132.1031054816
 21
171.6536751371
  0
SPLINE
  5
26C
100
AcDbEntity
  8
0
100
AcDbSpline
 62
7
  6
CONTINUOUS
 70
4
 71
3
 72
8
 73
4
 74
129
 42
0.0000001
 43
0.0000001
 44
0.0000000001
 12
1.3810889137
 22
0.061397348
 32
0.0
 13
0.0
 23
1.3824529728
 33
0.0
 40
0.0
 40
0.0
 40
0.0
 40
0.0
 40
1.0
 40
1.0
 40
1.0
 40
1.0
 10
131.1475173706
 20
170.6546618318
 30
0.0
 41
1.0
 10
131.7123160707
 20
170.6797703835
 30
0.0
 41
0.8150921225
 10
132.1031054816
 20
171.0883186027
 30
0.0
 41
0.8150921225
 10
132.1031054816
 20
171.6536751371
 30
0.0
 41
1.0
 11
131.1475173706
 21
170.6546618318
 31
0.0
 11
131.1583276406
 21
170.6552010447
 31
0.0
 11
131.1691778125
 21
170.655860301
 31
0.0
 11
131.1800661671
 21
170.6566410088
 31
0.0
 11
131.1909909397
 21
170.6575445502
 31
0.0
 11
131.2019503211
 21
170.6585722792
 31
0.0
 11
131.2129424571
 21
170.6597255213
 31
0.0
 11
131.2239654497
 21
170.6610055707
 31
0.0
 11
131.2350173568
 21
170.6624136897
 31
0.0
 11
131.2460961933
 21
170.6639511067
 31
0.0
 11
131.257199931
 21
170.6656190149
 31
0.0
 11
131.2683264998
 21
170.6674185705
 31
0.0
 11
131.279473788
 21
170.6693508915
 31
0.0
 11
131.290639643
 21
170.6714170558
 31
0.0
 11
131.3018218724
 21
170.6736181
 31
0.0
 11
131.3130182444
 21
170.6759550176
 31
0.0
 11
131.324226489
 21
170.6784287579
 31
0.0
 11
131.3354442989
 21
170.6810402241
 31
0.0
 11
131.3466693304
 21
170.683790272
 31
0.0
 11
131.3578992045
 21
170.6866797086
 31
0.0
 11
131.3691315084
 21
170.6897092907
 31
0.0
 11
131.380363796
 21
170.6928797233
 31
0.0
 11
131.3915935898
 21
170.6961916587
 31
0.0
 11
131.402818382
 21
170.6996456945
 31
0.0
 11
131.4140356357
 21
170.7032423729
 31
0.0
 11
131.4252427866
 21
170.7069821791
 31
0.0
 11
131.4364372443
 21
170.7108655402
 31
0.0
 11
131.4476163941
 21
170.7148928241
 31
0.0
 11
131.4587775982
 21
170.7190643382
 31
0.0
 11
131.4699181979
 21
170.7233803284
 31
0.0
 11
131.4810355146
 21
170.727840978
 31
0.0
 11
131.4921268524
 21
170.7324464071
 31
0.0
 11
131.5031894992
 21
170.737196671
 31
0.0
 11
131.5142207289
 21
170.74209176
 31
0.0
 11
131.5252178031
 21
170.7471315982
 31
0.0
 11
131.5361779734
 21
170.7523160428
 31
0.0
 11
131.5470984829
 21
170.7576448838
 31
0.0
 11
131.5579765685
 21
170.7631178429
 31
0.0
 11
131.5688094631
 21
170.7687345732
 31
0.0
 11
131.5795943971
 21
170.7744946588
 31
0.0
 11
131.5903286012
 21
170.7803976143
 31
0.0
 11
131.601009308
 21
170.7864428847
 31
0.0
 11
131.6116337546
 21
170.7926298447
 31
0.0
 11
131.6221991844
 21
170.7989577992
 31
0.0
 11
131.6327028493
 21
170.8054259826
 31
0.0
 11
131.6431420122
 21
170.8120335592
 31
0.0
 11
131.6535139492
 21
170.8187796234
 31
0.0
 11
131.6638159512
 21
170.8256631992
 31
0.0
 11
131.6740453271
 21
170.8326832414
 31
0.0
 11
131.6841994051
 21
170.8398386351
 31
0.0
 11
131.6942755356
 21
170.8471281966
 31
0.0
 11
131.7042710929
 21
170.8545506738
 31
0.0
 11
131.7141834776
 21
170.8621047468
 31
0.0
 11
131.7240101189
 21
170.8697890284
 31
0.0
 11
131.7337484766
 21
170.8776020653
 31
0.0
 11
131.7433960432
 21
170.8855423382
 31
0.0
 11
131.752950346
 21
170.8936082636
 31
0.0
 11
131.7624089494
 21
170.9017981942
 31
0.0
 11
131.7717694566
 21
170.91011042
 31
0.0
 11
131.7810295119
 21
170.9185431699
 31
0.0
 11
131.7901868023
 21
170.9270946125
 31
0.0
 11
131.7992390597
 21
170.9357628574
 31
0.0
 11
131.8081840629
 21
170.944545957
 31
0.0
 11
131.817019639
 21
170.9534419075
 31
0.0
 11
131.8257436653
 21
170.9624486507
 31
0.0
 11
131.8343540711
 21
170.9715640755
 31
0.0
 11
131.8428488394
 21
170.9807860195
 31
0.0
 11
131.8512260083
 21
170.9901122708
 31
0.0
 11
131.8594836724
 21
170.9995405696
 31
0.0
 11
131.8676199847
 21
171.0090686102
 31
0.0
 11
131.8756331575
 21
171.018694043
 31
0.0
 11
131.8835214639
 21
171.0284144759
 31
0.0
 11
131.8912832391
 21
171.0382274768
 31
0.0
 11
131.8989168813
 21
171.0481305754
 31
0.0
 11
131.9064208529
 21
171.0581212653
 31
0.0
 11
131.9137936818
 21
171.068197006
 31
0.0
 11
131.9210339617
 21
171.0783552249
 31
0.0
 11
131.9281403534
 21
171.0885933197
 31
0.0
 11
131.9351115853
 21
171.0989086607
 31
0.0
 11
131.9419464543
 21
171.1092985923
 31
0.0
 11
131.948643826
 21
171.1197604359
 31
0.0
 11
131.9552026356
 21
171.1302914918
 31
0.0
 11
131.9616218881
 21
171.1408890416
 31
0.0
 11
131.9679006586
 21
171.15155035
 31
0.0
 11
131.9740380927
 21
171.1622726677
 31
0.0
 11
131.9800334064
 21
171.1730532329
 31
0.0
 11
131.9858858864
 21
171.1838892742
 31
0.0
 11
131.99159489
 21
171.1947780123
 31
0.0
 11
131.9971598451
 21
171.2057166624
 31
0.0
 11
132.00258025
 21
171.2167024366
 31
0.0
 11
132.0078556729
 21
171.2277325454
 31
0.0
 11
132.0129857518
 21
171.2388042008
 31
0.0
 11
132.0179701945
 21
171.2499146175
 31
0.0
 11
132.0228087771
 21
171.2610610157
 31
0.0
 11
132.0275013444
 21
171.2722406226
 31
0.0
 11
132.0320478089
 21
171.2834506748
 31
0.0
 11
132.0364481502
 21
171.2946884202
 31
0.0
 11
132.040702414
 21
171.3059511197
 31
0.0
 11
132.0448107117
 21
171.3172360496
 31
0.0
 11
132.048773219
 21
171.3285405028
 31
0.0
 11
132.0525901755
 21
171.3398617914
 31
0.0
 11
132.0562618834
 21
171.3511972476
 31
0.0
 11
132.0597887065
 21
171.3625442263
 31
0.0
 11
132.0631710689
 21
171.3739001059
 31
0.0
 11
132.0664094543
 21
171.3852622906
 31
0.0
 11
132.0695044044
 21
171.3966282116
 31
0.0
 11
132.0724565179
 21
171.4079953285
 31
0.0
 11
132.0752664491
 21
171.4193611313
 31
0.0
 11
132.0779349064
 21
171.430723141
 31
0.0
 11
132.0804626514
 21
171.4420789115
 31
0.0
 11
132.082850497
 21
171.4534260305
 31
0.0
 11
132.0850993066
 21
171.4647621211
 31
0.0
 11
132.0872099919
 21
171.4760848426
 31
0.0
 11
132.0891835121
 21
171.4873918916
 31
0.0
 11
132.0910208719
 21
171.4986810031
 31
0.0
 11
132.0927231204
 21
171.5099499516
 31
0.0
 11
132.0942913493
 21
171.5211965516
 31
0.0
 11
132.0957266916
 21
171.5324186588
 31
0.0
 11
132.0970303196
 21
171.5436141707
 31
0.0
 11
132.0982034441
 21
171.5547810274
 31
0.0
 11
132.0992473121
 21
171.565917212
 31
0.0
 11
132.1001632057
 21
171.5770207515
 31
0.0
 11
132.1009524401
 21
171.5880897172
 31
0.0
 11
132.1016163627
 21
171.599122225
 31
0.0
 11
132.102156351
 21
171.6101164362
 31
0.0
 11
132.1025738109
 21
171.6210705574
 31
0.0
 11
132.1028701761
 21
171.6319828412
 31
0.0
 11
132.1030469052
 21
171.6428515861
 31
0.0
 11
132.1031054816
 21
171.6536751371
 31
0.0
  0
LINE
  5
26D
100
AcDbEntity
  8
0
100
AcDbLine
 62
7
  6
CONTINUOUS
 10
108.6310460364
 20
169.6536751371
 11
131.1475173706
 21
170.6546618318
  0
SPLINE
  5
26E
100
AcDbEntity
  8
0
100
AcDbSpline
 62
7
  6
CONTINUOUS
 70
4
 71
3
 72
8
 73
4
 74
129
 42
0.0000001
 43
0.0000001
 44
0.0000000001
 12
-6.9054445686
 22
-0.3069867401
 32
0.0
 13
0.0
 23
-6.9122648639
 33
0.0
 40
0.0
 40
0.0
 40
0.0
 40
0.0
 40
1.0
 40
1.0
 40
1.0
 40
1.0
 10
108.6310460364
 20
169.6536751371
 30
0.0
 41
1.0
 10
105.8070525358
 20
169.5281323787
 30
0.0
 41
0.8150921225
 10
103.8531054816
 20
167.4853912829
 30
0.0
 41
0.8150921225
 10
103.8531054816
 20
164.6586086107
 30
0.0
 41
1.0
 11
108.6310460364
 21
169.6536751371
 31
0.0
 11
108.5769946867
 21
169.6509790726
 31
0.0
 11
108.5227438271
 21
169.6476827911
 31
0.0
 11
108.4683020543
 21
169.643779252
 31
0.0
 11
108.413678191
 21
169.6392615455
 31
0.0
 11
108.3588812843
 21
169.6341229
 31
0.0
 11
108.303920604
 21
169.6283566899
 31
0.0
 11
108.2488056411
 21
169.6219564429
 31
0.0
 11
108.1935461053
 21
169.6149158479
 31
0.0
 11
108.1381519231
 21
169.6072287628
 31
0.0
 11
108.0826332345
 21
169.5988892218
 31
0.0
 11
108.0270003906
 21
169.5898914437
 31
0.0
 11
107.9712639497
 21
169.5802298388
 31
0.0
 11
107.9154346746
 21
169.5698990173
 31
0.0
 11
107.8595235277
 21
169.5588937964
 31
0.0
 11
107.8035416677
 21
169.5472092081
 31
0.0
 11
107.7475004446
 21
169.5348405066
 31
0.0
 11
107.6914113952
 21
169.5217831757
 31
0.0
 11
107.6352862377
 21
169.5080329363
 31
0.0
 11
107.5791368669
 21
169.4935857533
 31
0.0
 11
107.5229753476
 21
169.4784378428
 31
0.0
 11
107.4668139095
 21
169.4625856795
 31
0.0
 11
107.4106649403
 21
169.4460260027
 31
0.0
 11
107.3545409795
 21
169.4287558237
 31
0.0
 11
107.298454711
 21
169.4107724317
 31
0.0
 11
107.2424189566
 21
169.3920734007
 31
0.0
 11
107.186446668
 21
169.3726565951
 31
0.0
 11
107.1305509191
 21
169.3525201757
 31
0.0
 11
107.0747448984
 21
169.3316626053
 31
0.0
 11
107.0190419002
 21
169.3100826544
 31
0.0
 11
106.9634553163
 21
169.2877794061
 31
0.0
 11
106.9079986273
 21
169.2647522608
 31
0.0
 11
106.8526853934
 21
169.2410009412
 31
0.0
 11
106.7975292451
 21
169.2165254963
 31
0.0
 11
106.7425438739
 21
169.1913263055
 31
0.0
 11
106.6877430225
 21
169.1654040821
 31
0.0
 11
106.6331404751
 21
169.1387598771
 31
0.0
 11
106.5787500469
 21
169.1113950818
 31
0.0
 11
106.5245855742
 21
169.0833114303
 31
0.0
 11
106.4706609041
 21
169.0545110022
 31
0.0
 11
106.4169898837
 21
169.0249962245
 31
0.0
 11
106.3635863494
 21
168.9947698728
 31
0.0
 11
106.3104641164
 21
168.9638350726
 31
0.0
 11
106.2576369678
 21
168.9321953004
 31
0.0
 11
106.2051186432
 21
168.8998543834
 31
0.0
 11
106.1529228284
 21
168.8668165
 31
0.0
 11
106.1010631438
 21
168.8330861793
 31
0.0
 11
106.0495531334
 21
168.7986683
 31
0.0
 11
105.998406254
 21
168.7635680892
 31
0.0
 11
105.9476358638
 21
168.7277911208
 31
0.0
 11
105.8972552115
 21
168.6913433132
 31
0.0
 11
105.8472774252
 21
168.6542309271
 31
0.0
 11
105.7977155016
 21
168.6164605622
 31
0.0
 11
105.7485822949
 21
168.578039154
 31
0.0
 11
105.6998905065
 21
168.5389739699
 31
0.0
 11
105.6516526736
 21
168.4992726051
 31
0.0
 11
105.6038811593
 21
168.4589429781
 31
0.0
 11
105.5565881423
 21
168.4179933253
 31
0.0
 11
105.5097856063
 21
168.376432196
 31
0.0
 11
105.4634853301
 21
168.3342684466
 31
0.0
 11
105.4176988782
 21
168.2915112339
 31
0.0
 11
105.3724375908
 21
168.2481700093
 31
0.0
 11
105.3277125748
 21
168.2042545114
 31
0.0
 11
105.2835346946
 21
168.1597747588
 31
0.0
 11
105.2399145632
 21
168.1147410427
 31
0.0
 11
105.196862534
 21
168.0691639186
 31
0.0
 11
105.1543886924
 21
168.0230541986
 31
0.0
 11
105.1125028482
 21
167.9764229423
 31
0.0
 11
105.0712145274
 21
167.9292814483
 31
0.0
 11
105.0305329659
 21
167.8816412451
 31
0.0
 11
104.9904671019
 21
167.8335140814
 31
0.0
 11
104.9510255698
 21
167.7849119169
 31
0.0
 11
104.9122166941
 21
167.7358469122
 31
0.0
 11
104.8740484832
 21
167.686331419
 31
0.0
 11
104.8365286249
 21
167.6363779695
 31
0.0
 11
104.7996644805
 21
167.5859992663
 31
0.0
 11
104.763463081
 21
167.5352081719
 31
0.0
 11
104.7279311226
 21
167.4840176975
 31
0.0
 11
104.693074963
 21
167.4324409929
 31
0.0
 11
104.6589006182
 21
167.3804913349
 31
0.0
 11
104.6254137597
 21
167.3281821168
 31
0.0
 11
104.5926197116
 21
167.2755268371
 31
0.0
 11
104.560523449
 21
167.2225390883
 31
0.0
 11
104.5291295965
 21
167.1692325461
 31
0.0
 11
104.4984424262
 21
167.1156209578
 31
0.0
 11
104.4684658578
 21
167.0617181316
 31
0.0
 11
104.4392034578
 21
167.0075379252
 31
0.0
 11
104.4106584395
 21
166.9530942347
 31
0.0
 11
104.3828336638
 21
166.898400984
 31
0.0
 11
104.3557316396
 21
166.8434721134
 31
0.0
 11
104.3293545253
 21
166.7883215691
 31
0.0
 11
104.3037041303
 21
166.7329632923
 31
0.0
 11
104.2787819173
 21
166.6774112085
 31
0.0
 11
104.2545890043
 21
166.6216792177
 31
0.0
 11
104.2311261676
 21
166.5657811831
 31
0.0
 11
104.2083938448
 21
166.5097309221
 31
0.0
 11
104.1863921385
 21
166.4535421953
 31
0.0
 11
104.1651208194
 21
166.3972286977
 31
0.0
 11
104.1445793312
 21
166.3408040485
 31
0.0
 11
104.1247667945
 21
166.2842817822
 31
0.0
 11
104.1056820119
 21
166.2276753394
 31
0.0
 11
104.0873234724
 21
166.1709980581
 31
0.0
 11
104.0696893572
 21
166.1142631649
 31
0.0
 11
104.0527775451
 21
166.0574837668
 31
0.0
 11
104.0365856181
 21
166.0006728433
 31
0.0
 11
104.0211108674
 21
165.9438432385
 31
0.0
 11
104.0063502999
 21
165.8870076535
 31
0.0
 11
103.9923006442
 21
165.8301786397
 31
0.0
 11
103.9789583577
 21
165.7733685913
 31
0.0
 11
103.9663196328
 21
165.716589739
 31
0.0
 11
103.9543804043
 21
165.6598541437
 31
0.0
 11
103.9431363564
 21
165.6031736906
 31
0.0
 11
103.9325829298
 21
165.5465600832
 31
0.0
 11
103.922715329
 21
165.4900248383
 31
0.0
 11
103.91352853
 21
165.4335792807
 31
0.0
 11
103.9050172875
 21
165.3772345384
 31
0.0
 11
103.897176143
 21
165.3210015383
 31
0.0
 11
103.8899994318
 21
165.2648910022
 31
0.0
 11
103.8834812914
 21
165.2089134426
 31
0.0
 11
103.8776156688
 21
165.1530791592
 31
0.0
 11
103.8723963288
 21
165.0973982362
 31
0.0
 11
103.8678168611
 21
165.0418805386
 31
0.0
 11
103.8638706888
 21
164.9865357103
 31
0.0
 11
103.8605510758
 21
164.9313731711
 31
0.0
 11
103.8578511348
 21
164.8764021153
 31
0.0
 11
103.8557638348
 21
164.8216315092
 31
0.0
 11
103.8542820093
 21
164.7670700903
 31
0.0
 11
103.8533983633
 21
164.7127263655
 31
0.0
 11
103.8531054816
 21
164.6586086107
 31
0.0
  0
LINE
  5
26F
100
AcDbEntity
  8
0
100
AcDbLine
 62
7
  6
CONTINUOUS
 10
103.8531054816
 20
164.6586086107
 11
103.8531054816
 21
146.9536751371
  0
SPLINE
  5
270
100
AcDbEntity
  8
0
100
AcDbSpline
 62
7
  6
CONTINUOUS
 70
4
 71
3
 72
8
 73
4
 74
255
 42
0.0000001
 43
0.0000001
 44
0.0000000001
 12
0.0
 22
-7.0710678119
 32
0.0
 13
7.0710678119
 23
-0.0
 33
0.0
 40
0.0
 40
0.0
 40
0.0
 40
0.0
 40
1.0
 40
1.0
 40
1.0
 40
1.0
 10
103.8531054816
 20
146.9536751371
 30
0.0
 41
1.0
 10
103.8531054816
 20
144.024742949
 30
0.0
 41
0.8047378541
 10
105.9241732935
 20
141.9536751371
 30
0.0
 41
0.8047378541
 10
108.8531054816
 20
141.9536751371
 30
0.0
 41
1.0
 11
103.8531054816
 21
146.9536751371
 31
0.0
 11
103.8534120494
 21
146.8983074194
 31
0.0
 11
103.8537968173
 21
146.8705314121
 31
0.0
 11
103.8543372831
 21
146.8426954183
 31
0.0
 11
103.855034469
 21
146.8148005426
 31
0.0
 11
103.8558893891
 21
146.7868479061
 31
0.0
 11
103.8569030496
 21
146.7588386461
 31
0.0
 11
103.8580764481
 21
146.7307739164
 31
0.0
 11
103.8594105736
 21
146.7026548867
 31
0.0
 11
103.8609064063
 21
146.6744827432
 31
0.0
 11
103.862564917
 21
146.6462586882
 31
0.0
 11
103.864387067
 21
146.6179839402
 31
0.0
 11
103.8663738078
 21
146.5896597335
 31
0.0
 11
103.8685260811
 21
146.5612873189
 31
0.0
 11
103.8708448178
 21
146.5328679628
 31
0.0
 11
103.8733309385
 21
146.5044029476
 31
0.0
 11
103.8759853529
 21
146.4758935716
 31
0.0
 11
103.8788089592
 21
146.4473411488
 31
0.0
 11
103.8818026445
 21
146.4187470089
 31
0.0
 11
103.8849672839
 21
146.3901124972
 31
0.0
 11
103.8883037406
 21
146.3614389744
 31
0.0
 11
103.8918128652
 21
146.3327278168
 31
0.0
 11
103.895495496
 21
146.3039804159
 31
0.0
 11
103.8993524582
 21
146.2751981782
 31
0.0
 11
103.903384564
 21
146.2463825256
 31
0.0
 11
103.907592612
 21
146.2175348948
 31
0.0
 11
103.9119773869
 21
146.1886567374
 31
0.0
 11
103.9165396597
 21
146.1597495195
 31
0.0
 11
103.9212801869
 21
146.1308147219
 31
0.0
 11
103.9261997104
 21
146.10185384
 31
0.0
 11
103.9312989573
 21
146.0728683832
 31
0.0
 11
103.9365786395
 21
146.043859875
 31
0.0
 11
103.9420394534
 21
146.0148298532
 31
0.0
 11
103.9476820799
 21
145.985779869
 31
0.0
 11
103.9535071836
 21
145.9567114875
 31
0.0
 11
103.9595154132
 21
145.9276262871
 31
0.0
 11
103.9657074006
 21
145.8985258594
 31
0.0
 11
103.9720837611
 21
145.8694118093
 31
0.0
 11
103.9786450927
 21
145.8402857544
 31
0.0
 11
103.9853919764
 21
145.8111493251
 31
0.0
 11
103.9923249752
 21
145.782004164
 31
0.0
 11
103.9994446347
 21
145.7528519264
 31
0.0
 11
104.006751482
 21
145.7236942792
 31
0.0
 11
104.0142460261
 21
145.6945329014
 31
0.0
 11
104.0219287572
 21
145.6653694834
 31
0.0
 11
104.0298001466
 21
145.6362057273
 31
0.0
 11
104.0378606468
 21
145.6070433458
 31
0.0
 11
104.0461106907
 21
145.5778840629
 31
0.0
 11
104.0545506914
 21
145.5487296129
 31
0.0
 11
104.0631810427
 21
145.5195817408
 31
0.0
 11
104.0720021177
 21
145.4904422014
 31
0.0
 11
104.0810142698
 21
145.4613127594
 31
0.0
 11
104.0902178315
 21
145.4321951891
 31
0.0
 11
104.0996131145
 21
145.403091274
 31
0.0
 11
104.1092004099
 21
145.3740028067
 31
0.0
 11
104.1189799874
 21
145.3449315885
 31
0.0
 11
104.1289520952
 21
145.315879429
 31
0.0
 11
104.13911696
 21
145.2868481458
 31
0.0
 11
104.149474787
 21
145.2578395647
 31
0.0
 11
104.1600257589
 21
145.2288555186
 31
0.0
 11
104.1707700366
 21
145.1998978476
 31
0.0
 11
104.1817077586
 21
145.170968399
 31
0.0
 11
104.1928390408
 21
145.1420690263
 31
0.0
 11
104.2041639763
 21
145.1132015893
 31
0.0
 11
104.2156826354
 21
145.0843679537
 31
0.0
 11
104.2273950656
 21
145.0555699906
 31
0.0
 11
104.2393012907
 21
145.0268095765
 31
0.0
 11
104.2514013117
 21
144.9980885927
 31
0.0
 11
104.2636951056
 21
144.9694089248
 31
0.0
 11
104.2761826262
 21
144.9407724628
 31
0.0
 11
104.2888638033
 21
144.9121811003
 31
0.0
 11
104.3017385428
 21
144.8836367344
 31
0.0
 11
104.3148067267
 21
144.8551412653
 31
0.0
 11
104.3280682128
 21
144.8266965957
 31
0.0
 11
104.3415228346
 21
144.7983046308
 31
0.0
 11
104.3551704015
 21
144.7699672777
 31
0.0
 11
104.3690106982
 21
144.7416864451
 31
0.0
 11
104.3830434851
 21
144.7134640428
 31
0.0
 11
104.3972684978
 21
144.6853019813
 31
0.0
 11
104.4116854474
 21
144.6572021718
 31
0.0
 11
104.4262940203
 21
144.6291665253
 31
0.0
 11
104.4410938779
 21
144.6011969525
 31
0.0
 11
104.4560846569
 21
144.5732953633
 31
0.0
 11
104.4712659691
 21
144.5454636665
 31
0.0
 11
104.4866374014
 21
144.5177037693
 31
0.0
 11
104.5021985157
 21
144.4900175769
 31
0.0
 11
104.5179488488
 21
144.4624069923
 31
0.0
 11
104.5338879129
 21
144.4348739155
 31
0.0
 11
104.5500151947
 21
144.4074202436
 31
0.0
 11
104.5663301563
 21
144.3800478699
 31
0.0
 11
104.5828322346
 21
144.3527586839
 31
0.0
 11
104.5995208417
 21
144.3255545707
 31
0.0
 11
104.6163953646
 21
144.2984374105
 31
0.0
 11
104.6334551655
 21
144.2714090783
 31
0.0
 11
104.6506995816
 21
144.2444714437
 31
0.0
 11
104.6681279255
 21
144.2176263702
 31
0.0
 11
104.6857394848
 21
144.1908757147
 31
0.0
 11
104.7035335225
 21
144.1642213275
 31
0.0
 11
104.7215092769
 21
144.1376650516
 31
0.0
 11
104.739665962
 21
144.1112087223
 31
0.0
 11
104.7580027671
 21
144.0848541671
 31
0.0
 11
104.7765188572
 21
144.0586032047
 31
0.0
 11
104.795213373
 21
144.0324576452
 31
0.0
 11
104.814085431
 21
144.0064192895
 31
0.0
 11
104.833134124
 21
143.9804899286
 31
0.0
 11
104.8523585205
 21
143.9546713436
 31
0.0
 11
104.8717576655
 21
143.9289653052
 31
0.0
 11
104.8913305802
 21
143.9033735732
 31
0.0
 11
104.9110762624
 21
143.8778978963
 31
0.0
 11
104.9309936866
 21
143.8525400114
 31
0.0
 11
104.9510818043
 21
143.8273016435
 31
0.0
 11
104.9713395437
 21
143.8021845051
 31
0.0
 11
104.9917658105
 21
143.7771902962
 31
0.0
 11
105.0123594877
 21
143.7523207034
 31
0.0
 11
105.0331194359
 21
143.7275773998
 31
0.0
 11
105.0540444934
 21
143.7029620449
 31
0.0
 11
105.0751334767
 21
143.6784762835
 31
0.0
 11
105.0963851805
 21
143.6541217462
 31
0.0
 11
105.1177983778
 21
143.6299000484
 31
0.0
 11
105.1393718205
 21
143.6058127901
 31
0.0
 11
105.1611042392
 21
143.5818615559
 31
0.0
 11
105.182994344
 21
143.5580479141
 31
0.0
 11
105.2050408241
 21
143.5343734168
 31
0.0
 11
105.2272423486
 21
143.5108395993
 31
0.0
 11
105.2495975664
 21
143.4874479799
 31
0.0
 11
105.272105107
 21
143.4642000595
 31
0.0
 11
105.2947635798
 21
143.4410973216
 31
0.0
 11
105.3175715757
 21
143.4181412312
 31
0.0
 11
105.340527666
 21
143.3953332354
 31
0.0
 11
105.363630404
 21
143.3726747625
 31
0.0
 11
105.3868783244
 21
143.350167222
 31
0.0
 11
105.4102699438
 21
143.3278120041
 31
0.0
 11
105.4338037613
 21
143.3056104796
 31
0.0
 11
105.4574782586
 21
143.2835639995
 31
0.0
 11
105.4812919004
 21
143.2616738947
 31
0.0
 11
105.5052431346
 21
143.239941476
 31
0.0
 11
105.5293303929
 21
143.2183680333
 31
0.0
 11
105.5535520907
 21
143.196954836
 31
0.0
 11
105.577906628
 21
143.1757031322
 31
0.0
 11
105.6023923894
 21
143.1546141489
 31
0.0
 11
105.6270077443
 21
143.1336890914
 31
0.0
 11
105.6517510479
 21
143.1129291432
 31
0.0
 11
105.6766206407
 21
143.092335466
 31
0.0
 11
105.7016148496
 21
143.0719091992
 31
0.0
 11
105.7267319879
 21
143.0516514598
 31
0.0
 11
105.7519703559
 21
143.0315633422
 31
0.0
 11
105.7773282408
 21
143.0116459179
 31
0.0
 11
105.8028039177
 21
142.9919002357
 31
0.0
 11
105.8283956497
 21
142.972327321
 31
0.0
 11
105.8541016881
 21
142.952928176
 31
0.0
 11
105.8799202731
 21
142.9337037795
 31
0.0
 11
105.905849634
 21
142.9146550866
 31
0.0
 11
105.9318879897
 21
142.8957830285
 31
0.0
 11
105.9580335492
 21
142.8770885127
 31
0.0
 11
105.9842845116
 21
142.8585724226
 31
0.0
 11
106.0106390668
 21
142.8402356176
 31
0.0
 11
106.0370953961
 21
142.8220789325
 31
0.0
 11
106.063651672
 21
142.804103178
 31
0.0
 11
106.0903060592
 21
142.7863091403
 31
0.0
 11
106.1170567147
 21
142.768697581
 31
0.0
 11
106.1439017882
 21
142.7512692372
 31
0.0
 11
106.1708394228
 21
142.734024821
 31
0.0
 11
106.197867755
 21
142.7169650201
 31
0.0
 11
106.2249849152
 21
142.7000904972
 31
0.0
 11
106.2521890284
 21
142.6834018901
 31
0.0
 11
106.2794782144
 21
142.6668998118
 31
0.0
 11
106.3068505881
 21
142.6505848502
 31
0.0
 11
106.33430426
 21
142.6344575684
 31
0.0
 11
106.3618373368
 21
142.6185185043
 31
0.0
 11
106.3894479214
 21
142.6027681712
 31
0.0
 11
106.4171341138
 21
142.5872070569
 31
0.0
 11
106.444894011
 21
142.5718356246
 31
0.0
 11
106.4727257078
 21
142.5566543124
 31
0.0
 11
106.500627297
 21
142.5416635334
 31
0.0
 11
106.5285968698
 21
142.5268636758
 31
0.0
 11
106.5566325163
 21
142.5122551029
 31
0.0
 11
106.5847323258
 21
142.4978381533
 31
0.0
 11
106.6128943872
 21
142.4836131406
 31
0.0
 11
106.6411167896
 21
142.4695803537
 31
0.0
 11
106.6693976222
 21
142.455740057
 31
0.0
 11
106.6977349753
 21
142.4420924901
 31
0.0
 11
106.7261269402
 21
142.4286378683
 31
0.0
 11
106.7545716098
 21
142.4153763822
 31
0.0
 11
106.7830670789
 21
142.4023081983
 31
0.0
 11
106.8116114448
 21
142.3894334588
 31
0.0
 11
106.8402028073
 21
142.3767522817
 31
0.0
 11
106.8688392693
 21
142.3642647611
 31
0.0
 11
106.8975189372
 21
142.3519709672
 31
0.0
 11
106.926239921
 21
142.3398709462
 31
0.0
 11
106.9550003351
 21
142.3279647211
 31
0.0
 11
106.9837982981
 21
142.316252291
 31
0.0
 11
107.0126319338
 21
142.3047336318
 31
0.0
 11
107.0414993708
 21
142.2934086963
 31
0.0
 11
107.0703987435
 21
142.2822774141
 31
0.0
 11
107.0993281921
 21
142.2713396922
 31
0.0
 11
107.128285863
 21
142.2605954144
 31
0.0
 11
107.1572699092
 21
142.2500444425
 31
0.0
 11
107.1862784903
 21
142.2396866156
 31
0.0
 11
107.2153097735
 21
142.2295217507
 31
0.0
 11
107.244361933
 21
142.2195496429
 31
0.0
 11
107.2734331512
 21
142.2097700655
 31
0.0
 11
107.3025216185
 21
142.2001827701
 31
0.0
 11
107.3316255336
 21
142.190787487
 31
0.0
 11
107.3607431039
 21
142.1815839253
 31
0.0
 11
107.3898725459
 21
142.1725717732
 31
0.0
 11
107.4190120853
 21
142.1637506982
 31
0.0
 11
107.4481599574
 21
142.1551203469
 31
0.0
 11
107.4773144074
 21
142.1466803462
 31
0.0
 11
107.5064736903
 21
142.1384303023
 31
0.0
 11
107.5356360717
 21
142.1303698022
 31
0.0
 11
107.5647998279
 21
142.1224984127
 31
0.0
 11
107.5939632458
 21
142.1148156816
 31
0.0
 11
107.6231246237
 21
142.1073211375
 31
0.0
 11
107.6522822708
 21
142.1000142902
 31
0.0
 11
107.6814345085
 21
142.0928946308
 31
0.0
 11
107.7105796696
 21
142.0859616319
 31
0.0
 11
107.7397160989
 21
142.0792147482
 31
0.0
 11
107.7688421538
 21
142.0726534166
 31
0.0
 11
107.7979562039
 21
142.0662770561
 31
0.0
 11
107.8270566316
 21
142.0600850687
 31
0.0
 11
107.856141832
 21
142.0540768391
 31
0.0
 11
107.8852102135
 21
142.0482517354
 31
0.0
 11
107.9142601977
 21
142.0426091089
 31
0.0
 11
107.9432902195
 21
142.037148295
 31
0.0
 11
107.9722987277
 21
142.0318686128
 31
0.0
 11
108.0012841845
 21
142.0267693659
 31
0.0
 11
108.0302450664
 21
142.0218498424
 31
0.0
 11
108.059179864
 21
142.0171093152
 31
0.0
 11
108.0880870819
 21
142.0125470424
 31
0.0
 11
108.1169652393
 21
142.0081622675
 31
0.0
 11
108.1458128701
 21
142.0039542195
 31
0.0
 11
108.1746285227
 21
141.9999221138
 31
0.0
 11
108.2034107603
 21
141.9960651515
 31
0.0
 11
108.2321581613
 21
141.9923825207
 31
0.0
 11
108.2608693189
 21
141.9888733961
 31
0.0
 11
108.2895428417
 21
141.9855369395
 31
0.0
 11
108.3181773534
 21
141.9823723
 31
0.0
 11
108.3467714933
 21
141.9793786147
 31
0.0
 11
108.3753239161
 21
141.9765550084
 31
0.0
 11
108.4038332921
 21
141.973900594
 31
0.0
 11
108.4322983073
 21
141.9714144733
 31
0.0
 11
108.4607176634
 21
141.9690957366
 31
0.0
 11
108.489090078
 21
141.9669434633
 31
0.0
 11
108.5174142846
 21
141.9649567225
 31
0.0
 11
108.5456890327
 21
141.9631345725
 31
0.0
 11
108.5739130877
 21
141.9614760618
 31
0.0
 11
108.6020852312
 21
141.9599802291
 31
0.0
 11
108.6302042608
 21
141.9586461036
 31
0.0
 11
108.6582689906
 21
141.9574727051
 31
0.0
 11
108.6862782506
 21
141.9564590446
 31
0.0
 11
108.7142308871
 21
141.9556041245
 31
0.0
 11
108.7421257628
 21
141.9549069386
 31
0.0
 11
108.7699617566
 21
141.9543664728
 31
0.0
 11
108.7977377639
 21
141.9539817049
 31
0.0
 11
108.8531054816
 21
141.9536751371
 31
0.0
  0
LINE
  5
271
100
AcDbEntity
  8
0
100
AcDbLine
 62
7
  6
CONTINUOUS
 10
108.8531054816
 20
141.9536751371
 11
126.1031054816
 21
141.9536751371
  0
SPLINE
  5
272
100
AcDbEntity
  8
0
100
AcDbSpline
 62
7
  6
CONTINUOUS
 70
4
 71
3
 72
8
 73
4
 74
255
 42
0.0000001
 43
0.0000001
 44
0.0000000001
 12
0.0
 22
7.0710678119
 32
0.0
 13
-7.0710678119
 23
-0.0
 33
0.0
 40
0.0
 40
0.0
 40
0.0
 40
0.0
 40
1.0
 40
1.0
 40
1.0
 40
1.0
 10
131.1031054816
 20
136.9536751371
 30
0.0
 41
1.0
 10
131.1031054816
 20
139.8826073252
 30
0.0
 41
0.8047378541
 10
129.0320376697
 20
141.9536751371
 30
0.0
 41
0.8047378541
 10
126.1031054816
 20
141.9536751371
 30
0.0
 41
1.0
 11
131.1031054816
 21
136.9536751371
 31
0.0
 11
131.1027989138
 21
137.0090428548
 31
0.0
 11
131.1024141459
 21
137.0368188621
 31
0.0
 11
131.1018736801
 21
137.0646548559
 31
0.0
 11
131.1011764942
 21
137.0925497316
 31
0.0
 11
131.1003215741
 21
137.1205023681
 31
0.0
 11
131.0993079136
 21
137.1485116281
 31
0.0
 11
131.0981345151
 21
137.1765763578
 31
0.0
 11
131.0968003896
 21
137.2046953875
 31
0.0
 11
131.0953045569
 21
137.232867531
 31
0.0
 11
131.0936460462
 21
137.261091586
 31
0.0
 11
131.0918238962
 21
137.289366334
 31
0.0
 11
131.0898371553
 21
137.3176905407
 31
0.0
 11
131.0876848821
 21
137.3460629553
 31
0.0
 11
131.0853661454
 21
137.3744823114
 31
0.0
 11
131.0828800247
 21
137.4029473266
 31
0.0
 11
131.0802256103
 21
137.4314567026
 31
0.0
 11
131.0774020039
 21
137.4600091254
 31
0.0
 11
131.0744083186
 21
137.4886032653
 31
0.0
 11
131.0712436792
 21
137.517237777
 31
0.0
 11
131.0679072226
 21
137.5459112998
 31
0.0
 11
131.064398098
 21
137.5746224574
 31
0.0
 11
131.0607154672
 21
137.6033698583
 31
0.0
 11
131.0568585049
 21
137.632152096
 31
0.0
 11
131.0528263992
 21
137.6609677486
 31
0.0
 11
131.0486183512
 21
137.6898153793
 31
0.0
 11
131.0442335763
 21
137.7186935368
 31
0.0
 11
131.0396713035
 21
137.7476007547
 31
0.0
 11
131.0349307763
 21
137.7765355523
 31
0.0
 11
131.0300112527
 21
137.8054964342
 31
0.0
 11
131.0249120058
 21
137.834481891
 31
0.0
 11
131.0196323237
 21
137.8634903992
 31
0.0
 11
131.0141715097
 21
137.892520421
 31
0.0
 11
131.0085288833
 21
137.9215704052
 31
0.0
 11
131.0027037795
 21
137.9506387867
 31
0.0
 11
130.99669555
 21
137.9797239871
 31
0.0
 11
130.9905035626
 21
138.0088244148
 31
0.0
 11
130.9841272021
 21
138.0379384649
 31
0.0
 11
130.9775658704
 21
138.0670645198
 31
0.0
 11
130.9708189868
 21
138.0962009491
 31
0.0
 11
130.9638859879
 21
138.1253461102
 31
0.0
 11
130.9567663285
 21
138.1544983478
 31
0.0
 11
130.9494594812
 21
138.183655995
 31
0.0
 11
130.9419649371
 21
138.2128173728
 31
0.0
 11
130.934282206
 21
138.2419807908
 31
0.0
 11
130.9264108165
 21
138.2711445469
 31
0.0
 11
130.9183503163
 21
138.3003069284
 31
0.0
 11
130.9101002725
 21
138.3294662113
 31
0.0
 11
130.9016602717
 21
138.3586206613
 31
0.0
 11
130.8930299205
 21
138.3877685334
 31
0.0
 11
130.8842088454
 21
138.4169080728
 31
0.0
 11
130.8751966934
 21
138.4460375148
 31
0.0
 11
130.8659931317
 21
138.4751550851
 31
0.0
 11
130.8565978486
 21
138.5042590002
 31
0.0
 11
130.8470105532
 21
138.5333474674
 31
0.0
 11
130.8372309758
 21
138.5624186857
 31
0.0
 11
130.827258868
 21
138.5914708452
 31
0.0
 11
130.8170940031
 21
138.6205021283
 31
0.0
 11
130.8067361762
 21
138.6495107095
 31
0.0
 11
130.7961852043
 21
138.6784947556
 31
0.0
 11
130.7854409265
 21
138.7074524266
 31
0.0
 11
130.7745032045
 21
138.7363818752
 31
0.0
 11
130.7633719224
 21
138.7652812479
 31
0.0
 11
130.7520469869
 21
138.7941486849
 31
0.0
 11
130.7405283277
 21
138.8229823205
 31
0.0
 11
130.7288158976
 21
138.8517802836
 31
0.0
 11
130.7169096724
 21
138.8805406977
 31
0.0
 11
130.7048096515
 21
138.9092616815
 31
0.0
 11
130.6925158575
 21
138.9379413494
 31
0.0
 11
130.6800283369
 21
138.9665778114
 31
0.0
 11
130.6673471599
 21
138.9951691739
 31
0.0
 11
130.6544724204
 21
139.0237135398
 31
0.0
 11
130.6414042365
 21
139.0522090089
 31
0.0
 11
130.6281427504
 21
139.0806536785
 31
0.0
 11
130.6146881286
 21
139.1090456434
 31
0.0
 11
130.6010405617
 21
139.1373829965
 31
0.0
 11
130.587200265
 21
139.1656638291
 31
0.0
 11
130.5731674781
 21
139.1938862314
 31
0.0
 11
130.5589424654
 21
139.2220482929
 31
0.0
 11
130.5445255157
 21
139.2501481024
 31
0.0
 11
130.5299169429
 21
139.2781837489
 31
0.0
 11
130.5151170853
 21
139.3061533217
 31
0.0
 11
130.5001263063
 21
139.3340549109
 31
0.0
 11
130.484944994
 21
139.3618866077
 31
0.0
 11
130.4695735618
 21
139.3896465049
 31
0.0
 11
130.4540124475
 21
139.4173326973
 31
0.0
 11
130.4382621143
 21
139.4449432819
 31
0.0
 11
130.4223230503
 21
139.4724763587
 31
0.0
 11
130.4061957685
 21
139.4999300306
 31
0.0
 11
130.3898808069
 21
139.5273024043
 31
0.0
 11
130.3733787286
 21
139.5545915903
 31
0.0
 11
130.3566901215
 21
139.5817957035
 31
0.0
 11
130.3398155985
 21
139.6089128637
 31
0.0
 11
130.3227557977
 21
139.6359411959
 31
0.0
 11
130.3055113815
 21
139.6628788305
 31
0.0
 11
130.2880830377
 21
139.689723904
 31
0.0
 11
130.2704714784
 21
139.7164745595
 31
0.0
 11
130.2526774407
 21
139.7431289467
 31
0.0
 11
130.2347016862
 21
139.7696852226
 31
0.0
 11
130.2165450011
 21
139.7961415519
 31
0.0
 11
130.1982081961
 21
139.8224961071
 31
0.0
 11
130.179692106
 21
139.8487470695
 31
0.0
 11
130.1609975902
 21
139.8748926289
 31
0.0
 11
130.1421255321
 21
139.9009309847
 31
0.0
 11
130.1230768392
 21
139.9268603456
 31
0.0
 11
130.1038524427
 21
139.9526789306
 31
0.0
 11
130.0844532977
 21
139.978384969
 31
0.0
 11
130.064880383
 21
140.003976701
 31
0.0
 11
130.0451347008
 21
140.0294523779
 31
0.0
 11
130.0252172765
 21
140.0548102628
 31
0.0
 11
130.0051291589
 21
140.0800486307
 31
0.0
 11
129.9848714195
 21
140.1051657691
 31
0.0
 11
129.9644451527
 21
140.130159978
 31
0.0
 11
129.9438514755
 21
140.1550295708
 31
0.0
 11
129.9230915273
 21
140.1797728744
 31
0.0
 11
129.9021664698
 21
140.2043882293
 31
0.0
 11
129.8810774865
 21
140.2288739907
 31
0.0
 11
129.8598257827
 21
140.253228528
 31
0.0
 11
129.8384125854
 21
140.2774502258
 31
0.0
 11
129.8168391427
 21
140.3015374841
 31
0.0
 11
129.795106724
 21
140.3254887183
 31
0.0
 11
129.7732166192
 21
140.3493023601
 31
0.0
 11
129.7511701391
 21
140.3729768574
 31
0.0
 11
129.7289686146
 21
140.3965106749
 31
0.0
 11
129.7066133967
 21
140.4199022943
 31
0.0
 11
129.6841058562
 21
140.4431502147
 31
0.0
 11
129.6614473833
 21
140.4662529526
 31
0.0
 11
129.6386393875
 21
140.489209043
 31
0.0
 11
129.6156832971
 21
140.5120170388
 31
0.0
 11
129.5925805591
 21
140.5346755117
 31
0.0
 11
129.5693326388
 21
140.5571830522
 31
0.0
 11
129.5459410194
 21
140.5795382701
 31
0.0
 11
129.5224072019
 21
140.6017397946
 31
0.0
 11
129.4987327046
 21
140.6237862747
 31
0.0
 11
129.4749190628
 21
140.6456763795
 31
0.0
 11
129.4509678285
 21
140.6674087982
 31
0.0
 11
129.4268805703
 21
140.6889822409
 31
0.0
 11
129.4026588725
 21
140.7103954382
 31
0.0
 11
129.3783043351
 21
140.731647142
 31
0.0
 11
129.3538185738
 21
140.7527361253
 31
0.0
 11
129.3292032189
 21
140.7736611828
 31
0.0
 11
129.3044599153
 21
140.794421131
 31
0.0
 11
129.2795903225
 21
140.8150148082
 31
0.0
 11
129.2545961136
 21
140.835441075
 31
0.0
 11
129.2294789752
 21
140.8556988144
 31
0.0
 11
129.2042406073
 21
140.875786932
 31
0.0
 11
129.1788827224
 21
140.8957043563
 31
0.0
 11
129.1534070454
 21
140.9154500385
 31
0.0
 11
129.1278153135
 21
140.9350229532
 31
0.0
 11
129.1021092751
 21
140.9544220982
 31
0.0
 11
129.0762906901
 21
140.9736464947
 31
0.0
 11
129.0503613292
 21
140.9926951876
 31
0.0
 11
129.0243229734
 21
141.0115672457
 31
0.0
 11
128.998177414
 21
141.0302617615
 31
0.0
 11
128.9719264516
 21
141.0487778516
 31
0.0
 11
128.9455718964
 21
141.0671146566
 31
0.0
 11
128.9191155671
 21
141.0852713417
 31
0.0
 11
128.8925592912
 21
141.1032470962
 31
0.0
 11
128.865904904
 21
141.1210411339
 31
0.0
 11
128.8391542485
 21
141.1386526932
 31
0.0
 11
128.8123091749
 21
141.156081037
 31
0.0
 11
128.7853715404
 21
141.1733254532
 31
0.0
 11
128.7583432082
 21
141.1903852541
 31
0.0
 11
128.731226048
 21
141.207259777
 31
0.0
 11
128.7040219347
 21
141.2239483841
 31
0.0
 11
128.6767327488
 21
141.2404504624
 31
0.0
 11
128.6493603751
 21
141.256765424
 31
0.0
 11
128.6219067032
 21
141.2728927058
 31
0.0
 11
128.5943736264
 21
141.2888317699
 31
0.0
 11
128.5667630418
 21
141.304582103
 31
0.0
 11
128.5390768494
 21
141.3201432173
 31
0.0
 11
128.5113169522
 21
141.3355146496
 31
0.0
 11
128.4834852554
 21
141.3506959618
 31
0.0
 11
128.4555836662
 21
141.3656867408
 31
0.0
 11
128.4276140934
 21
141.3804865984
 31
0.0
 11
128.3995784469
 21
141.3950951712
 31
0.0
 11
128.3714786374
 21
141.4095121209
 31
0.0
 11
128.3433165759
 21
141.4237371336
 31
0.0
 11
128.3150941736
 21
141.4377699205
 31
0.0
 11
128.286813341
 21
141.4516102172
 31
0.0
 11
128.2584759879
 21
141.4652577841
 31
0.0
 11
128.230084023
 21
141.4787124059
 31
0.0
 11
128.2016393534
 21
141.491973892
 31
0.0
 11
128.1731438843
 21
141.5050420759
 31
0.0
 11
128.1445995184
 21
141.5179168154
 31
0.0
 11
128.1160081559
 21
141.5305979925
 31
0.0
 11
128.0873716939
 21
141.543085513
 31
0.0
 11
128.058692026
 21
141.555379307
 31
0.0
 11
128.0299710422
 21
141.5674793279
 31
0.0
 11
128.0012106281
 21
141.5793855531
 31
0.0
 11
127.972412665
 21
141.5910979832
 31
0.0
 11
127.9435790294
 21
141.6026166424
 31
0.0
 11
127.9147115924
 21
141.6139415779
 31
0.0
 11
127.8858122197
 21
141.6250728601
 31
0.0
 11
127.856882771
 21
141.636010582
 31
0.0
 11
127.8279251001
 21
141.6467548598
 31
0.0
 11
127.798941054
 21
141.6573058317
 31
0.0
 11
127.7699324728
 21
141.6676636586
 31
0.0
 11
127.7409011897
 21
141.6778285235
 31
0.0
 11
127.7118490302
 21
141.6878006313
 31
0.0
 11
127.6827778119
 21
141.6975802087
 31
0.0
 11
127.6536893447
 21
141.7071675041
 31
0.0
 11
127.6245854296
 21
141.7165627872
 31
0.0
 11
127.5954678593
 21
141.7257663489
 31
0.0
 11
127.5663384173
 21
141.7347785009
 31
0.0
 11
127.5371988779
 21
141.743599576
 31
0.0
 11
127.5080510057
 21
141.7522299273
 31
0.0
 11
127.4788965558
 21
141.760669928
 31
0.0
 11
127.4497372729
 21
141.7689199719
 31
0.0
 11
127.4205748914
 21
141.776980472
 31
0.0
 11
127.3914111352
 21
141.7848518615
 31
0.0
 11
127.3622477173
 21
141.7925345926
 31
0.0
 11
127.3330863395
 21
141.8000291367
 31
0.0
 11
127.3039286923
 21
141.807335984
 31
0.0
 11
127.2747764547
 21
141.8144556434
 31
0.0
 11
127.2456312936
 21
141.8213886423
 31
0.0
 11
127.2164948643
 21
141.828135526
 31
0.0
 11
127.1873688094
 21
141.8346968576
 31
0.0
 11
127.1582547593
 21
141.8410732181
 31
0.0
 11
127.1291543316
 21
141.8472652055
 31
0.0
 11
127.1000691312
 21
141.8532734351
 31
0.0
 11
127.0710007497
 21
141.8590985388
 31
0.0
 11
127.0419507655
 21
141.8647411653
 31
0.0
 11
127.0129207436
 21
141.8702019792
 31
0.0
 11
126.9839122355
 21
141.8754816614
 31
0.0
 11
126.9549267787
 21
141.8805809083
 31
0.0
 11
126.9259658967
 21
141.8855004318
 31
0.0
 11
126.8970310992
 21
141.890240959
 31
0.0
 11
126.8681238813
 21
141.8948032318
 31
0.0
 11
126.8392457238
 21
141.8991880067
 31
0.0
 11
126.810398093
 21
141.9033960547
 31
0.0
 11
126.7815824405
 21
141.9074281604
 31
0.0
 11
126.7528002028
 21
141.9112851227
 31
0.0
 11
126.7240528019
 21
141.9149677535
 31
0.0
 11
126.6953416443
 21
141.9184768781
 31
0.0
 11
126.6666681215
 21
141.9218133347
 31
0.0
 11
126.6380336098
 21
141.9249779741
 31
0.0
 11
126.6094394699
 21
141.9279716595
 31
0.0
 11
126.5808870471
 21
141.9307952658
 31
0.0
 11
126.5523776711
 21
141.9334496802
 31
0.0
 11
126.5239126559
 21
141.9359358009
 31
0.0
 11
126.4954932998
 21
141.9382545376
 31
0.0
 11
126.4671208851
 21
141.9404068108
 31
0.0
 11
126.4387966785
 21
141.9423935517
 31
0.0
 11
126.4105219305
 21
141.9442157017
 31
0.0
 11
126.3822978755
 21
141.9458742124
 31
0.0
 11
126.354125732
 21
141.9473700451
 31
0.0
 11
126.3260067023
 21
141.9487041706
 31
0.0
 11
126.2979419726
 21
141.9498775691
 31
0.0
 11
126.2699327126
 21
141.9508912296
 31
0.0
 11
126.2419800761
 21
141.9517461497
 31
0.0
 11
126.2140852004
 21
141.9524433356
 31
0.0
 11
126.1862492066
 21
141.9529838014
 31
0.0
 11
126.1584731993
 21
141.9533685693
 31
0.0
 11
126.1031054816
 21
141.9536751371
 31
0.0
  0
LINE
  5
273
100
AcDbEntity
  8
0
100
AcDbLine
 62
7
  6
CONTINUOUS
 10
131.1031054816
 20
136.9536751371
 11
131.1031054816
 21
118.4036751371
  0
LINE
  5
274
100
AcDbEntity
  8
0
100
AcDbLine
 62
7
  6
CONTINUOUS
 10
124.0146363125
 20
118.4036751371
 11
131.1031054816
 21
118.4036751371
  0
LINE
  5
275
100
AcDbEntity
  8
0
100
AcDbLine
 62
7
  6
CONTINUOUS
 10
123.3531054816
 20
137.3474395665
 11
124.0146363125
 21
118.4036751371
  0
SPLINE
  5
276
100
AcDbEntity
  8
0
100
AcDbSpline
 62
7
  6
CONTINUOUS
 70
4
 71
3
 72
8
 73
4
 74
129
 42
0.0000001
 43
0.0000001
 44
0.0000000001
 12
-0.0462502124
 22
1.324432796
 32
0.0
 13
-1.3201971578
 23
0.1155022849
 33
0.0
 40
0.0
 40
0.0
 40
0.0
 40
0.0
 40
1.0
 40
1.0
 40
1.0
 40
1.0
 10
123.3531054816
 20
137.3474395665
 30
0.0
 41
1.0
 10
123.3345899283
 20
137.8776556398
 30
0.0
 41
0.8326371472
 10
122.9693907987
 20
138.2624952243
 30
0.0
 41
0.8326371472
 10
122.4408703973
 20
138.3087347679
 30
0.0
 41
1.0
 11
123.3531054816
 21
137.3474395665
 31
0.0
 11
123.352689678
 21
137.3578048745
 31
0.0
 11
123.3521641303
 21
137.3682055386
 31
0.0
 11
123.3515276604
 21
137.3786400352
 31
0.0
 11
123.3507791134
 21
137.3891068046
 31
0.0
 11
123.349917359
 21
137.3996042512
 31
0.0
 11
123.3489412923
 21
137.4101307438
 31
0.0
 11
123.3478498351
 21
137.4206846161
 31
0.0
 11
123.3466419373
 21
137.431264167
 31
0.0
 11
123.3453165778
 21
137.4418676611
 31
0.0
 11
123.3438727658
 21
137.4524933289
 31
0.0
 11
123.342309542
 21
137.463139368
 31
0.0
 11
123.3406259795
 21
137.4738039429
 31
0.0
 11
123.3388211854
 21
137.484485186
 31
0.0
 11
123.3368943015
 21
137.4951811984
 31
0.0
 11
123.3348445058
 21
137.5058900503
 31
0.0
 11
123.3326710135
 21
137.5166097818
 31
0.0
 11
123.3303730778
 21
137.527338404
 31
0.0
 11
123.3279499915
 21
137.5380738993
 31
0.0
 11
123.3254010878
 21
137.548814223
 31
0.0
 11
123.3227257414
 21
137.5595573033
 31
0.0
 11
123.3199233694
 21
137.5703010431
 31
0.0
 11
123.3169934327
 21
137.5810433205
 31
0.0
 11
123.3139354364
 21
137.5917819903
 31
0.0
 11
123.3107489313
 21
137.6025148845
 31
0.0
 11
123.3074335146
 21
137.6132398138
 31
0.0
 11
123.3039888306
 21
137.623954569
 31
0.0
 11
123.3004145721
 21
137.6346569216
 31
0.0
 11
123.2967104805
 21
137.6453446255
 31
0.0
 11
123.2928763473
 21
137.6560154182
 31
0.0
 11
123.2889120143
 21
137.6666670221
 31
0.0
 11
123.2848173747
 21
137.6772971458
 31
0.0
 11
123.2805923737
 21
137.6879034855
 31
0.0
 11
123.2762370087
 21
137.6984837265
 31
0.0
 11
123.2717513305
 21
137.7090355447
 31
0.0
 11
123.2671354436
 21
137.7195566078
 31
0.0
 11
123.2623895064
 21
137.7300445771
 31
0.0
 11
123.2575137321
 21
137.7404971091
 31
0.0
 11
123.2525083888
 21
137.7509118565
 31
0.0
 11
123.2473737998
 21
137.7612864704
 31
0.0
 11
123.2421103443
 21
137.7716186018
 31
0.0
 11
123.2367184569
 21
137.7819059027
 31
0.0
 11
123.2311986284
 21
137.7921460285
 31
0.0
 11
123.2255514058
 21
137.802336639
 31
0.0
 11
123.2197773921
 21
137.8124754003
 31
0.0
 11
123.2138772464
 21
137.8225599866
 31
0.0
 11
123.2078516842
 21
137.8325880817
 31
0.0
 11
123.2017014766
 21
137.8425573805
 31
0.0
 11
123.1954274508
 21
137.8524655912
 31
0.0
 11
123.1890304894
 21
137.8623104365
 31
0.0
 11
123.1825115304
 21
137.8720896552
 31
0.0
 11
123.1758715667
 21
137.8818010045
 31
0.0
 11
123.1691116456
 21
137.891442261
 31
0.0
 11
123.1622328685
 21
137.9010112226
 31
0.0
 11
123.1552363904
 21
137.9105057101
 31
0.0
 11
123.148123419
 21
137.9199235689
 31
0.0
 11
123.1408952145
 21
137.9292626704
 31
0.0
 11
123.1335530884
 21
137.9385209138
 31
0.0
 11
123.1260984032
 21
137.9476962276
 31
0.0
 11
123.1185325712
 21
137.956786571
 31
0.0
 11
123.110857054
 21
137.9657899355
 31
0.0
 11
123.103073361
 21
137.9747043463
 31
0.0
 11
123.0951830491
 21
137.9835278639
 31
0.0
 11
123.0871877213
 21
137.9922585853
 31
0.0
 11
123.0790890256
 21
138.0008946455
 31
0.0
 11
123.0708886538
 21
138.0094342187
 31
0.0
 11
123.0625883407
 21
138.0178755199
 31
0.0
 11
123.0541898624
 21
138.0262168055
 31
0.0
 11
123.0456950355
 21
138.0344563754
 31
0.0
 11
123.0371057154
 21
138.0425925734
 31
0.0
 11
123.028423795
 21
138.0506237885
 31
0.0
 11
123.0196512038
 21
138.0585484561
 31
0.0
 11
123.0107899056
 21
138.0663650591
 31
0.0
 11
123.001841898
 21
138.0740721284
 31
0.0
 11
122.9928092103
 21
138.0816682443
 31
0.0
 11
122.983693902
 21
138.0891520371
 31
0.0
 11
122.9744980617
 21
138.0965221878
 31
0.0
 11
122.9652238052
 21
138.1037774291
 31
0.0
 11
122.9558732738
 21
138.1109165457
 31
0.0
 11
122.946448633
 21
138.1179383754
 31
0.0
 11
122.9369520709
 21
138.1248418094
 31
0.0
 11
122.9273857962
 21
138.1316257925
 31
0.0
 11
122.9177520369
 21
138.1382893243
 31
0.0
 11
122.9080530386
 21
138.1448314587
 31
0.0
 11
122.8982910626
 21
138.1512513048
 31
0.0
 11
122.8884683847
 21
138.1575480272
 31
0.0
 11
122.8785872929
 21
138.1637208459
 31
0.0
 11
122.8686500863
 21
138.1697690364
 31
0.0
 11
122.8586590733
 21
138.1756919301
 31
0.0
 11
122.8486165698
 21
138.1814889143
 31
0.0
 11
122.8385248975
 21
138.1871594318
 31
0.0
 11
122.8283863826
 21
138.1927029812
 31
0.0
 11
122.8182033538
 21
138.1981191167
 31
0.0
 11
122.807978141
 21
138.2034074476
 31
0.0
 11
122.7977130735
 21
138.2085676385
 31
0.0
 11
122.7874104785
 21
138.2135994087
 31
0.0
 11
122.7770726795
 21
138.2185025319
 31
0.0
 11
122.7667019949
 21
138.2232768357
 31
0.0
 11
122.7563007363
 21
138.2279222013
 31
0.0
 11
122.7458712072
 21
138.2324385632
 31
0.0
 11
122.7354157015
 21
138.236825908
 31
0.0
 11
122.7249365019
 21
138.2410842745
 31
0.0
 11
122.7144358787
 21
138.2452137525
 31
0.0
 11
122.7039160886
 21
138.2492144826
 31
0.0
 11
122.6933793729
 21
138.2530866551
 31
0.0
 11
122.6828279565
 21
138.2568305095
 31
0.0
 11
122.6722640469
 21
138.2604463334
 31
0.0
 11
122.6616898324
 21
138.2639344622
 31
0.0
 11
122.6511074814
 21
138.2672952775
 31
0.0
 11
122.6405191409
 21
138.2705292068
 31
0.0
 11
122.6299269358
 21
138.2736367224
 31
0.0
 11
122.6193329676
 21
138.2766183403
 31
0.0
 11
122.6087393133
 21
138.2794746195
 31
0.0
 11
122.5981480246
 21
138.2822061606
 31
0.0
 11
122.5875611268
 21
138.2848136051
 31
0.0
 11
122.5769806183
 21
138.2872976342
 31
0.0
 11
122.566408469
 21
138.289658968
 31
0.0
 11
122.5558466205
 21
138.291898364
 31
0.0
 11
122.5452969842
 21
138.2940166161
 31
0.0
 11
122.5347614417
 21
138.2960145539
 31
0.0
 11
122.5242418434
 21
138.297893041
 31
0.0
 11
122.5137400078
 21
138.2996529743
 31
0.0
 11
122.5032577217
 21
138.3012952827
 31
0.0
 11
122.4927967387
 21
138.3028209258
 31
0.0
 11
122.4823587792
 21
138.3042308932
 31
0.0
 11
122.4719455301
 21
138.3055262026
 31
0.0
 11
122.4615586439
 21
138.3067078997
 31
0.0
 11
122.4511997386
 21
138.3077770558
 31
0.0
 11
122.4408703973
 21
138.3087347679
 31
0.0
  0
LINE
  5
277
100
AcDbEntity
  8
0
100
AcDbLine
 62
7
  6
CONTINUOUS
 10
101.3531054816
 20
140.1536751371
 11
122.4408703973
 21
138.3087347679
  0
LINE
  5
278
100
AcDbEntity
  8
0
100
AcDbLine
 62
7
  6
CONTINUOUS
 10
80.2653405659
 20
138.3087347679
 11
101.3531054816
 21
140.1536751371
  0
SPLINE
  5
279
100
AcDbEntity
  8
0
100
AcDbSpline
 62
7
  6
CONTINUOUS
 70
4
 71
3
 72
8
 73
4
 74
129
 42
0.0000001
 43
0.0000001
 44
0.0000000001
 12
-1.3201971578
 22
-0.1155022849
 32
0.0
 13
-0.0462502124
 23
-1.324432796
 33
0.0
 40
0.0
 40
0.0
 40
0.0
 40
0.0
 40
1.0
 40
1.0
 40
1.0
 40
1.0
 10
80.2653405659
 20
138.3087347679
 30
0.0
 41
1.0
 10
79.7368201645
 20
138.2624952243
 30
0.0
 41
0.8326371472
 10
79.3716210349
 20
137.8776556398
 30
0.0
 41
0.8326371472
 10
79.3531054816
 20
137.3474395665
 30
0.0
 41
1.0
 11
80.2653405659
 21
138.3087347679
 31
0.0
 11
80.2550112246
 21
138.3077770558
 31
0.0
 11
80.2446523193
 21
138.3067078997
 31
0.0
 11
80.2342654331
 21
138.3055262026
 31
0.0
 11
80.223852184
 21
138.3042308932
 31
0.0
 11
80.2134142245
 21
138.3028209258
 31
0.0
 11
80.2029532415
 21
138.3012952827
 31
0.0
 11
80.1924709553
 21
138.2996529743
 31
0.0
 11
80.1819691198
 21
138.297893041
 31
0.0
 11
80.1714495214
 21
138.2960145539
 31
0.0
 11
80.1609139789
 21
138.2940166161
 31
0.0
 11
80.1503643427
 21
138.291898364
 31
0.0
 11
80.1398024941
 21
138.289658968
 31
0.0
 11
80.1292303449
 21
138.2872976342
 31
0.0
 11
80.1186498363
 21
138.2848136051
 31
0.0
 11
80.1080629386
 21
138.2822061606
 31
0.0
 11
80.0974716499
 21
138.2794746195
 31
0.0
 11
80.0868779956
 21
138.2766183403
 31
0.0
 11
80.0762840273
 21
138.2736367224
 31
0.0
 11
80.0656918223
 21
138.2705292068
 31
0.0
 11
80.0551034818
 21
138.2672952775
 31
0.0
 11
80.0445211308
 21
138.2639344622
 31
0.0
 11
80.0339469163
 21
138.2604463334
 31
0.0
 11
80.0233830066
 21
138.2568305095
 31
0.0
 11
80.0128315903
 21
138.2530866551
 31
0.0
 11
80.0022948746
 21
138.2492144826
 31
0.0
 11
79.9917750844
 21
138.2452137525
 31
0.0
 11
79.9812744613
 21
138.2410842745
 31
0.0
 11
79.9707952617
 21
138.236825908
 31
0.0
 11
79.9603397559
 21
138.2324385632
 31
0.0
 11
79.9499102268
 21
138.2279222013
 31
0.0
 11
79.9395089683
 21
138.2232768357
 31
0.0
 11
79.9291382837
 21
138.2185025319
 31
0.0
 11
79.9188004847
 21
138.2135994087
 31
0.0
 11
79.9084978897
 21
138.2085676385
 31
0.0
 11
79.8982328222
 21
138.2034074476
 31
0.0
 11
79.8880076094
 21
138.1981191167
 31
0.0
 11
79.8778245806
 21
138.1927029812
 31
0.0
 11
79.8676860657
 21
138.1871594318
 31
0.0
 11
79.8575943934
 21
138.1814889143
 31
0.0
 11
79.8475518899
 21
138.1756919301
 31
0.0
 11
79.8375608769
 21
138.1697690364
 31
0.0
 11
79.8276236703
 21
138.1637208459
 31
0.0
 11
79.8177425785
 21
138.1575480272
 31
0.0
 11
79.8079199005
 21
138.1512513048
 31
0.0
 11
79.7981579246
 21
138.1448314587
 31
0.0
 11
79.7884589262
 21
138.1382893243
 31
0.0
 11
79.778825167
 21
138.1316257925
 31
0.0
 11
79.7692588923
 21
138.1248418094
 31
0.0
 11
79.7597623301
 21
138.1179383754
 31
0.0
 11
79.7503376894
 21
138.1109165457
 31
0.0
 11
79.740987158
 21
138.1037774291
 31
0.0
 11
79.7317129014
 21
138.0965221878
 31
0.0
 11
79.7225170612
 21
138.0891520371
 31
0.0
 11
79.7134017529
 21
138.0816682443
 31
0.0
 11
79.7043690652
 21
138.0740721284
 31
0.0
 11
79.6954210576
 21
138.0663650591
 31
0.0
 11
79.6865597594
 21
138.0585484561
 31
0.0
 11
79.6777871681
 21
138.0506237885
 31
0.0
 11
79.6691052478
 21
138.0425925734
 31
0.0
 11
79.6605159277
 21
138.0344563754
 31
0.0
 11
79.6520211007
 21
138.0262168055
 31
0.0
 11
79.6436226225
 21
138.0178755199
 31
0.0
 11
79.6353223094
 21
138.0094342187
 31
0.0
 11
79.6271219376
 21
138.0008946455
 31
0.0
 11
79.6190232418
 21
137.9922585853
 31
0.0
 11
79.611027914
 21
137.9835278639
 31
0.0
 11
79.6031376022
 21
137.9747043463
 31
0.0
 11
79.5953539092
 21
137.9657899355
 31
0.0
 11
79.5876783919
 21
137.956786571
 31
0.0
 11
79.58011256
 21
137.9476962276
 31
0.0
 11
79.5726578748
 21
137.9385209138
 31
0.0
 11
79.5653157487
 21
137.9292626704
 31
0.0
 11
79.5580875441
 21
137.9199235689
 31
0.0
 11
79.5509745728
 21
137.9105057101
 31
0.0
 11
79.5439780947
 21
137.9010112226
 31
0.0
 11
79.5370993176
 21
137.891442261
 31
0.0
 11
79.5303393965
 21
137.8818010045
 31
0.0
 11
79.5236994328
 21
137.8720896552
 31
0.0
 11
79.5171804738
 21
137.8623104365
 31
0.0
 11
79.5107835124
 21
137.8524655912
 31
0.0
 11
79.5045094866
 21
137.8425573805
 31
0.0
 11
79.498359279
 21
137.8325880817
 31
0.0
 11
79.4923337167
 21
137.8225599866
 31
0.0
 11
79.4864335711
 21
137.8124754003
 31
0.0
 11
79.4806595574
 21
137.802336639
 31
0.0
 11
79.4750123348
 21
137.7921460285
 31
0.0
 11
79.4694925063
 21
137.7819059027
 31
0.0
 11
79.4641006189
 21
137.7716186018
 31
0.0
 11
79.4588371633
 21
137.7612864704
 31
0.0
 11
79.4537025744
 21
137.7509118565
 31
0.0
 11
79.4486972311
 21
137.7404971091
 31
0.0
 11
79.4438214568
 21
137.7300445771
 31
0.0
 11
79.4390755196
 21
137.7195566078
 31
0.0
 11
79.4344596327
 21
137.7090355447
 31
0.0
 11
79.4299739545
 21
137.6984837265
 31
0.0
 11
79.4256185895
 21
137.6879034855
 31
0.0
 11
79.4213935884
 21
137.6772971458
 31
0.0
 11
79.4172989489
 21
137.6666670221
 31
0.0
 11
79.4133346159
 21
137.6560154182
 31
0.0
 11
79.4095004827
 21
137.6453446255
 31
0.0
 11
79.4057963911
 21
137.6346569216
 31
0.0
 11
79.4022221326
 21
137.623954569
 31
0.0
 11
79.3987774486
 21
137.6132398138
 31
0.0
 11
79.3954620319
 21
137.6025148845
 31
0.0
 11
79.3922755268
 21
137.5917819903
 31
0.0
 11
79.3892175305
 21
137.5810433205
 31
0.0
 11
79.3862875938
 21
137.5703010431
 31
0.0
 11
79.3834852218
 21
137.5595573033
 31
0.0
 11
79.3808098754
 21
137.548814223
 31
0.0
 11
79.3782609717
 21
137.5380738993
 31
0.0
 11
79.3758378854
 21
137.527338404
 31
0.0
 11
79.3735399497
 21
137.5166097818
 31
0.0
 11
79.3713664573
 21
137.5058900503
 31
0.0
 11
79.3693166617
 21
137.4951811984
 31
0.0
 11
79.3673897778
 21
137.484485186
 31
0.0
 11
79.3655849837
 21
137.4738039429
 31
0.0
 11
79.3639014212
 21
137.463139368
 31
0.0
 11
79.3623381974
 21
137.4524933289
 31
0.0
 11
79.3608943854
 21
137.4418676611
 31
0.0
 11
79.3595690259
 21
137.431264167
 31
0.0
 11
79.3583611281
 21
137.4206846161
 31
0.0
 11
79.3572696709
 21
137.4101307438
 31
0.0
 11
79.3562936042
 21
137.3996042512
 31
0.0
 11
79.3554318497
 21
137.3891068046
 31
0.0
 11
79.3546833028
 21
137.3786400352
 31
0.0
 11
79.3540468329
 21
137.3682055386
 31
0.0
 11
79.3535212852
 21
137.3578048745
 31
0.0
 11
79.3531054816
 21
137.3474395665
 31
0.0
  0
LINE
  5
27A
100
AcDbEntity
  8
0
100
AcDbLine
 62
7
  6
CONTINUOUS
 10
78.6915746506
 20
118.4036751371
 11
79.3531054816
 21
137.3474395665
  0
LINE
  5
27B
100
AcDbEntity
  8
0
100
AcDbLine
 62
7
  6
CONTINUOUS
 10
71.6031054816
 20
118.4036751371
 11
78.6915746506
 21
118.4036751371
  0
LINE
  5
27C
100
AcDbEntity
  8
0
100
AcDbLine
 62
7
  6
CONTINUOUS
 10
71.6031054816
 20
136.9536751371
 11
71.6031054816
 21
118.4036751371
  0
SPLINE
  5
27D
100
AcDbEntity
  8
0
100
AcDbSpline
 62
7
  6
CONTINUOUS
 70
4
 71
3
 72
8
 73
4
 74
255
 42
0.0000001
 43
0.0000001
 44
0.0000000001
 12
-7.0710678119
 22
0.0
 32
0.0
 13
-0.0
 23
-7.0710678119
 33
0.0
 40
0.0
 40
0.0
 40
0.0
 40
0.0
 40
1.0
 40
1.0
 40
1.0
 40
1.0
 10
76.6031054816
 20
141.9536751371
 30
0.0
 41
1.0
 10
73.6741732935
 20
141.9536751371
 30
0.0
 41
0.8047378541
 10
71.6031054816
 20
139.8826073252
 30
0.0
 41
0.8047378541
 10
71.6031054816
 20
136.9536751371
 30
0.0
 41
1.0
 11
76.6031054816
 21
141.9536751371
 31
0.0
 11
76.5477377639
 21
141.9533685693
 31
0.0
 11
76.5199617566
 21
141.9529838014
 31
0.0
 11
76.4921257628
 21
141.9524433356
 31
0.0
 11
76.4642308871
 21
141.9517461497
 31
0.0
 11
76.4362782506
 21
141.9508912296
 31
0.0
 11
76.4082689906
 21
141.9498775691
 31
0.0
 11
76.3802042608
 21
141.9487041706
 31
0.0
 11
76.3520852312
 21
141.9473700451
 31
0.0
 11
76.3239130877
 21
141.9458742124
 31
0.0
 11
76.2956890327
 21
141.9442157017
 31
0.0
 11
76.2674142846
 21
141.9423935517
 31
0.0
 11
76.239090078
 21
141.9404068108
 31
0.0
 11
76.2107176634
 21
141.9382545376
 31
0.0
 11
76.1822983073
 21
141.9359358009
 31
0.0
 11
76.1538332921
 21
141.9334496802
 31
0.0
 11
76.1253239161
 21
141.9307952658
 31
0.0
 11
76.0967714933
 21
141.9279716595
 31
0.0
 11
76.0681773534
 21
141.9249779741
 31
0.0
 11
76.0395428417
 21
141.9218133347
 31
0.0
 11
76.0108693189
 21
141.9184768781
 31
0.0
 11
75.9821581613
 21
141.9149677535
 31
0.0
 11
75.9534107603
 21
141.9112851227
 31
0.0
 11
75.9246285227
 21
141.9074281604
 31
0.0
 11
75.8958128701
 21
141.9033960547
 31
0.0
 11
75.8669652393
 21
141.8991880067
 31
0.0
 11
75.8380870819
 21
141.8948032318
 31
0.0
 11
75.809179864
 21
141.890240959
 31
0.0
 11
75.7802450664
 21
141.8855004318
 31
0.0
 11
75.7512841845
 21
141.8805809083
 31
0.0
 11
75.7222987277
 21
141.8754816614
 31
0.0
 11
75.6932902195
 21
141.8702019792
 31
0.0
 11
75.6642601977
 21
141.8647411653
 31
0.0
 11
75.6352102135
 21
141.8590985388
 31
0.0
 11
75.606141832
 21
141.8532734351
 31
0.0
 11
75.5770566316
 21
141.8472652055
 31
0.0
 11
75.5479562039
 21
141.8410732181
 31
0.0
 11
75.5188421538
 21
141.8346968576
 31
0.0
 11
75.4897160989
 21
141.828135526
 31
0.0
 11
75.4605796696
 21
141.8213886423
 31
0.0
 11
75.4314345085
 21
141.8144556434
 31
0.0
 11
75.4022822708
 21
141.807335984
 31
0.0
 11
75.3731246237
 21
141.8000291367
 31
0.0
 11
75.3439632458
 21
141.7925345926
 31
0.0
 11
75.3147998279
 21
141.7848518615
 31
0.0
 11
75.2856360717
 21
141.776980472
 31
0.0
 11
75.2564736903
 21
141.7689199719
 31
0.0
 11
75.2273144074
 21
141.760669928
 31
0.0
 11
75.1981599574
 21
141.7522299273
 31
0.0
 11
75.1690120853
 21
141.743599576
 31
0.0
 11
75.1398725459
 21
141.7347785009
 31
0.0
 11
75.1107431039
 21
141.7257663489
 31
0.0
 11
75.0816255336
 21
141.7165627872
 31
0.0
 11
75.0525216185
 21
141.7071675041
 31
0.0
 11
75.0234331512
 21
141.6975802087
 31
0.0
 11
74.994361933
 21
141.6878006313
 31
0.0
 11
74.9653097735
 21
141.6778285235
 31
0.0
 11
74.9362784903
 21
141.6676636586
 31
0.0
 11
74.9072699092
 21
141.6573058317
 31
0.0
 11
74.878285863
 21
141.6467548598
 31
0.0
 11
74.8493281921
 21
141.636010582
 31
0.0
 11
74.8203987435
 21
141.6250728601
 31
0.0
 11
74.7914993708
 21
141.6139415779
 31
0.0
 11
74.7626319338
 21
141.6026166424
 31
0.0
 11
74.7337982981
 21
141.5910979832
 31
0.0
 11
74.7050003351
 21
141.5793855531
 31
0.0
 11
74.676239921
 21
141.5674793279
 31
0.0
 11
74.6475189372
 21
141.555379307
 31
0.0
 11
74.6188392693
 21
141.543085513
 31
0.0
 11
74.5902028073
 21
141.5305979925
 31
0.0
 11
74.5616114448
 21
141.5179168154
 31
0.0
 11
74.5330670789
 21
141.5050420759
 31
0.0
 11
74.5045716098
 21
141.491973892
 31
0.0
 11
74.4761269402
 21
141.4787124059
 31
0.0
 11
74.4477349753
 21
141.4652577841
 31
0.0
 11
74.4193976222
 21
141.4516102172
 31
0.0
 11
74.3911167896
 21
141.4377699205
 31
0.0
 11
74.3628943872
 21
141.4237371336
 31
0.0
 11
74.3347323258
 21
141.4095121209
 31
0.0
 11
74.3066325163
 21
141.3950951712
 31
0.0
 11
74.2785968698
 21
141.3804865984
 31
0.0
 11
74.250627297
 21
141.3656867408
 31
0.0
 11
74.2227257078
 21
141.3506959618
 31
0.0
 11
74.194894011
 21
141.3355146496
 31
0.0
 11
74.1671341138
 21
141.3201432173
 31
0.0
 11
74.1394479214
 21
141.304582103
 31
0.0
 11
74.1118373368
 21
141.2888317699
 31
0.0
 11
74.08430426
 21
141.2728927058
 31
0.0
 11
74.0568505881
 21
141.256765424
 31
0.0
 11
74.0294782144
 21
141.2404504624
 31
0.0
 11
74.0021890284
 21
141.2239483841
 31
0.0
 11
73.9749849152
 21
141.207259777
 31
0.0
 11
73.947867755
 21
141.1903852541
 31
0.0
 11
73.9208394228
 21
141.1733254532
 31
0.0
 11
73.8939017882
 21
141.156081037
 31
0.0
 11
73.8670567147
 21
141.1386526932
 31
0.0
 11
73.8403060592
 21
141.1210411339
 31
0.0
 11
73.813651672
 21
141.1032470962
 31
0.0
 11
73.7870953961
 21
141.0852713417
 31
0.0
 11
73.7606390668
 21
141.0671146566
 31
0.0
 11
73.7342845116
 21
141.0487778516
 31
0.0
 11
73.7080335492
 21
141.0302617615
 31
0.0
 11
73.6818879897
 21
141.0115672457
 31
0.0
 11
73.655849634
 21
140.9926951876
 31
0.0
 11
73.6299202731
 21
140.9736464947
 31
0.0
 11
73.6041016881
 21
140.9544220982
 31
0.0
 11
73.5783956497
 21
140.9350229532
 31
0.0
 11
73.5528039177
 21
140.9154500385
 31
0.0
 11
73.5273282408
 21
140.8957043563
 31
0.0
 11
73.5019703559
 21
140.875786932
 31
0.0
 11
73.4767319879
 21
140.8556988144
 31
0.0
 11
73.4516148496
 21
140.835441075
 31
0.0
 11
73.4266206407
 21
140.8150148082
 31
0.0
 11
73.4017510479
 21
140.794421131
 31
0.0
 11
73.3770077443
 21
140.7736611828
 31
0.0
 11
73.3523923894
 21
140.7527361253
 31
0.0
 11
73.327906628
 21
140.731647142
 31
0.0
 11
73.3035520907
 21
140.7103954382
 31
0.0
 11
73.2793303929
 21
140.6889822409
 31
0.0
 11
73.2552431346
 21
140.6674087982
 31
0.0
 11
73.2312919004
 21
140.6456763795
 31
0.0
 11
73.2074782586
 21
140.6237862747
 31
0.0
 11
73.1838037613
 21
140.6017397946
 31
0.0
 11
73.1602699438
 21
140.5795382701
 31
0.0
 11
73.1368783244
 21
140.5571830522
 31
0.0
 11
73.113630404
 21
140.5346755117
 31
0.0
 11
73.090527666
 21
140.5120170388
 31
0.0
 11
73.0675715757
 21
140.489209043
 31
0.0
 11
73.0447635798
 21
140.4662529526
 31
0.0
 11
73.022105107
 21
140.4431502147
 31
0.0
 11
72.9995975664
 21
140.4199022943
 31
0.0
 11
72.9772423486
 21
140.3965106749
 31
0.0
 11
72.9550408241
 21
140.3729768574
 31
0.0
 11
72.932994344
 21
140.3493023601
 31
0.0
 11
72.9111042392
 21
140.3254887183
 31
0.0
 11
72.8893718205
 21
140.3015374841
 31
0.0
 11
72.8677983778
 21
140.2774502258
 31
0.0
 11
72.8463851805
 21
140.253228528
 31
0.0
 11
72.8251334767
 21
140.2288739907
 31
0.0
 11
72.8040444934
 21
140.2043882293
 31
0.0
 11
72.7831194359
 21
140.1797728744
 31
0.0
 11
72.7623594877
 21
140.1550295708
 31
0.0
 11
72.7417658105
 21
140.130159978
 31
0.0
 11
72.7213395437
 21
140.1051657691
 31
0.0
 11
72.7010818043
 21
140.0800486307
 31
0.0
 11
72.6809936866
 21
140.0548102628
 31
0.0
 11
72.6610762624
 21
140.0294523779
 31
0.0
 11
72.6413305802
 21
140.003976701
 31
0.0
 11
72.6217576655
 21
139.978384969
 31
0.0
 11
72.6023585205
 21
139.9526789306
 31
0.0
 11
72.583134124
 21
139.9268603456
 31
0.0
 11
72.564085431
 21
139.9009309847
 31
0.0
 11
72.545213373
 21
139.8748926289
 31
0.0
 11
72.5265188572
 21
139.8487470695
 31
0.0
 11
72.5080027671
 21
139.8224961071
 31
0.0
 11
72.489665962
 21
139.7961415519
 31
0.0
 11
72.4715092769
 21
139.7696852226
 31
0.0
 11
72.4535335225
 21
139.7431289467
 31
0.0
 11
72.4357394848
 21
139.7164745595
 31
0.0
 11
72.4181279255
 21
139.689723904
 31
0.0
 11
72.4006995816
 21
139.6628788305
 31
0.0
 11
72.3834551655
 21
139.6359411959
 31
0.0
 11
72.3663953646
 21
139.6089128637
 31
0.0
 11
72.3495208417
 21
139.5817957035
 31
0.0
 11
72.3328322346
 21
139.5545915903
 31
0.0
 11
72.3163301563
 21
139.5273024043
 31
0.0
 11
72.3000151947
 21
139.4999300306
 31
0.0
 11
72.2838879129
 21
139.4724763587
 31
0.0
 11
72.2679488488
 21
139.4449432819
 31
0.0
 11
72.2521985157
 21
139.4173326973
 31
0.0
 11
72.2366374014
 21
139.3896465049
 31
0.0
 11
72.2212659691
 21
139.3618866077
 31
0.0
 11
72.2060846569
 21
139.3340549109
 31
0.0
 11
72.1910938779
 21
139.3061533217
 31
0.0
 11
72.1762940203
 21
139.2781837489
 31
0.0
 11
72.1616854474
 21
139.2501481024
 31
0.0
 11
72.1472684978
 21
139.2220482929
 31
0.0
 11
72.1330434851
 21
139.1938862314
 31
0.0
 11
72.1190106982
 21
139.1656638291
 31
0.0
 11
72.1051704015
 21
139.1373829965
 31
0.0
 11
72.0915228346
 21
139.1090456434
 31
0.0
 11
72.0780682128
 21
139.0806536785
 31
0.0
 11
72.0648067267
 21
139.0522090089
 31
0.0
 11
72.0517385428
 21
139.0237135398
 31
0.0
 11
72.0388638033
 21
138.9951691739
 31
0.0
 11
72.0261826262
 21
138.9665778114
 31
0.0
 11
72.0136951056
 21
138.9379413494
 31
0.0
 11
72.0014013117
 21
138.9092616815
 31
0.0
 11
71.9893012907
 21
138.8805406977
 31
0.0
 11
71.9773950656
 21
138.8517802836
 31
0.0
 11
71.9656826354
 21
138.8229823205
 31
0.0
 11
71.9541639763
 21
138.7941486849
 31
0.0
 11
71.9428390408
 21
138.7652812479
 31
0.0
 11
71.9317077586
 21
138.7363818752
 31
0.0
 11
71.9207700366
 21
138.7074524266
 31
0.0
 11
71.9100257589
 21
138.6784947556
 31
0.0
 11
71.899474787
 21
138.6495107095
 31
0.0
 11
71.88911696
 21
138.6205021283
 31
0.0
 11
71.8789520952
 21
138.5914708452
 31
0.0
 11
71.8689799874
 21
138.5624186857
 31
0.0
 11
71.8592004099
 21
138.5333474674
 31
0.0
 11
71.8496131145
 21
138.5042590002
 31
0.0
 11
71.8402178315
 21
138.4751550851
 31
0.0
 11
71.8310142698
 21
138.4460375148
 31
0.0
 11
71.8220021177
 21
138.4169080728
 31
0.0
 11
71.8131810427
 21
138.3877685334
 31
0.0
 11
71.8045506914
 21
138.3586206613
 31
0.0
 11
71.7961106907
 21
138.3294662113
 31
0.0
 11
71.7878606468
 21
138.3003069284
 31
0.0
 11
71.7798001466
 21
138.2711445469
 31
0.0
 11
71.7719287572
 21
138.2419807908
 31
0.0
 11
71.7642460261
 21
138.2128173728
 31
0.0
 11
71.756751482
 21
138.183655995
 31
0.0
 11
71.7494446347
 21
138.1544983478
 31
0.0
 11
71.7423249752
 21
138.1253461102
 31
0.0
 11
71.7353919764
 21
138.0962009491
 31
0.0
 11
71.7286450927
 21
138.0670645198
 31
0.0
 11
71.7220837611
 21
138.0379384649
 31
0.0
 11
71.7157074006
 21
138.0088244148
 31
0.0
 11
71.7095154132
 21
137.9797239871
 31
0.0
 11
71.7035071836
 21
137.9506387867
 31
0.0
 11
71.6976820799
 21
137.9215704052
 31
0.0
 11
71.6920394534
 21
137.892520421
 31
0.0
 11
71.6865786395
 21
137.8634903992
 31
0.0
 11
71.6812989573
 21
137.834481891
 31
0.0
 11
71.6761997104
 21
137.8054964342
 31
0.0
 11
71.6712801869
 21
137.7765355523
 31
0.0
 11
71.6665396597
 21
137.7476007547
 31
0.0
 11
71.6619773869
 21
137.7186935368
 31
0.0
 11
71.657592612
 21
137.6898153793
 31
0.0
 11
71.653384564
 21
137.6609677486
 31
0.0
 11
71.6493524582
 21
137.632152096
 31
0.0
 11
71.645495496
 21
137.6033698583
 31
0.0
 11
71.6418128652
 21
137.5746224574
 31
0.0
 11
71.6383037406
 21
137.5459112998
 31
0.0
 11
71.6349672839
 21
137.517237777
 31
0.0
 11
71.6318026445
 21
137.4886032653
 31
0.0
 11
71.6288089592
 21
137.4600091254
 31
0.0
 11
71.6259853529
 21
137.4314567026
 31
0.0
 11
71.6233309385
 21
137.4029473266
 31
0.0
 11
71.6208448178
 21
137.3744823114
 31
0.0
 11
71.6185260811
 21
137.3460629553
 31
0.0
 11
71.6163738078
 21
137.3176905407
 31
0.0
 11
71.614387067
 21
137.289366334
 31
0.0
 11
71.612564917
 21
137.261091586
 31
0.0
 11
71.6109064063
 21
137.232867531
 31
0.0
 11
71.6094105736
 21
137.2046953875
 31
0.0
 11
71.6080764481
 21
137.1765763578
 31
0.0
 11
71.6069030496
 21
137.1485116281
 31
0.0
 11
71.6058893891
 21
137.1205023681
 31
0.0
 11
71.605034469
 21
137.0925497316
 31
0.0
 11
71.6043372831
 21
137.0646548559
 31
0.0
 11
71.6037968173
 21
137.0368188621
 31
0.0
 11
71.6034120494
 21
137.0090428548
 31
0.0
 11
71.6031054816
 21
136.9536751371
 31
0.0
  0
LINE
  5
27E
100
AcDbEntity
  8
0
100
AcDbLine
 62
7
  6
CONTINUOUS
 10
76.6031054816
 20
141.9536751371
 11
93.8531054816
 21
141.9536751371
  0
SPLINE
  5
27F
100
AcDbEntity
  8
0
100
AcDbSpline
 62
7
  6
CONTINUOUS
 70
4
 71
3
 72
8
 73
4
 74
255
 42
0.0000001
 43
0.0000001
 44
0.0000000001
 12
7.0710678119
 22
-0.0
 32
0.0
 13
0.0
 23
7.0710678119
 33
0.0
 40
0.0
 40
0.0
 40
0.0
 40
0.0
 40
1.0
 40
1.0
 40
1.0
 40
1.0
 10
93.8531054816
 20
141.9536751371
 30
0.0
 41
1.0
 10
96.7820376697
 20
141.9536751371
 30
0.0
 41
0.8047378541
 10
98.8531054816
 20
144.024742949
 30
0.0
 41
0.8047378541
 10
98.8531054816
 20
146.9536751371
 30
0.0
 41
1.0
 11
93.8531054816
 21
141.9536751371
 31
0.0
 11
93.9084731993
 21
141.9539817049
 31
0.0
 11
93.9362492066
 21
141.9543664728
 31
0.0
 11
93.9640852004
 21
141.9549069386
 31
0.0
 11
93.9919800761
 21
141.9556041245
 31
0.0
 11
94.0199327126
 21
141.9564590446
 31
0.0
 11
94.0479419726
 21
141.9574727051
 31
0.0
 11
94.0760067023
 21
141.9586461036
 31
0.0
 11
94.104125732
 21
141.9599802291
 31
0.0
 11
94.1322978755
 21
141.9614760618
 31
0.0
 11
94.1605219305
 21
141.9631345725
 31
0.0
 11
94.1887966785
 21
141.9649567225
 31
0.0
 11
94.2171208851
 21
141.9669434633
 31
0.0
 11
94.2454932998
 21
141.9690957366
 31
0.0
 11
94.2739126559
 21
141.9714144733
 31
0.0
 11
94.3023776711
 21
141.973900594
 31
0.0
 11
94.3308870471
 21
141.9765550084
 31
0.0
 11
94.3594394699
 21
141.9793786147
 31
0.0
 11
94.3880336098
 21
141.9823723
 31
0.0
 11
94.4166681215
 21
141.9855369395
 31
0.0
 11
94.4453416443
 21
141.9888733961
 31
0.0
 11
94.4740528019
 21
141.9923825207
 31
0.0
 11
94.5028002028
 21
141.9960651515
 31
0.0
 11
94.5315824405
 21
141.9999221138
 31
0.0
 11
94.560398093
 21
142.0039542195
 31
0.0
 11
94.5892457238
 21
142.0081622675
 31
0.0
 11
94.6181238813
 21
142.0125470424
 31
0.0
 11
94.6470310992
 21
142.0171093152
 31
0.0
 11
94.6759658967
 21
142.0218498424
 31
0.0
 11
94.7049267787
 21
142.0267693659
 31
0.0
 11
94.7339122355
 21
142.0318686128
 31
0.0
 11
94.7629207436
 21
142.037148295
 31
0.0
 11
94.7919507655
 21
142.0426091089
 31
0.0
 11
94.8210007497
 21
142.0482517354
 31
0.0
 11
94.8500691312
 21
142.0540768391
 31
0.0
 11
94.8791543316
 21
142.0600850687
 31
0.0
 11
94.9082547593
 21
142.0662770561
 31
0.0
 11
94.9373688094
 21
142.0726534166
 31
0.0
 11
94.9664948643
 21
142.0792147482
 31
0.0
 11
94.9956312936
 21
142.0859616319
 31
0.0
 11
95.0247764547
 21
142.0928946308
 31
0.0
 11
95.0539286923
 21
142.1000142902
 31
0.0
 11
95.0830863395
 21
142.1073211375
 31
0.0
 11
95.1122477173
 21
142.1148156816
 31
0.0
 11
95.1414111352
 21
142.1224984127
 31
0.0
 11
95.1705748914
 21
142.1303698022
 31
0.0
 11
95.1997372729
 21
142.1384303023
 31
0.0
 11
95.2288965558
 21
142.1466803462
 31
0.0
 11
95.2580510057
 21
142.1551203469
 31
0.0
 11
95.2871988779
 21
142.1637506982
 31
0.0
 11
95.3163384173
 21
142.1725717732
 31
0.0
 11
95.3454678593
 21
142.1815839253
 31
0.0
 11
95.3745854296
 21
142.190787487
 31
0.0
 11
95.4036893447
 21
142.2001827701
 31
0.0
 11
95.4327778119
 21
142.2097700655
 31
0.0
 11
95.4618490302
 21
142.2195496429
 31
0.0
 11
95.4909011897
 21
142.2295217507
 31
0.0
 11
95.5199324728
 21
142.2396866156
 31
0.0
 11
95.548941054
 21
142.2500444425
 31
0.0
 11
95.5779251001
 21
142.2605954144
 31
0.0
 11
95.606882771
 21
142.2713396922
 31
0.0
 11
95.6358122197
 21
142.2822774141
 31
0.0
 11
95.6647115924
 21
142.2934086963
 31
0.0
 11
95.6935790294
 21
142.3047336318
 31
0.0
 11
95.722412665
 21
142.316252291
 31
0.0
 11
95.7512106281
 21
142.3279647211
 31
0.0
 11
95.7799710422
 21
142.3398709462
 31
0.0
 11
95.808692026
 21
142.3519709672
 31
0.0
 11
95.8373716939
 21
142.3642647611
 31
0.0
 11
95.8660081559
 21
142.3767522817
 31
0.0
 11
95.8945995184
 21
142.3894334588
 31
0.0
 11
95.9231438843
 21
142.4023081983
 31
0.0
 11
95.9516393534
 21
142.4153763822
 31
0.0
 11
95.980084023
 21
142.4286378683
 31
0.0
 11
96.0084759879
 21
142.4420924901
 31
0.0
 11
96.036813341
 21
142.455740057
 31
0.0
 11
96.0650941736
 21
142.4695803537
 31
0.0
 11
96.0933165759
 21
142.4836131406
 31
0.0
 11
96.1214786374
 21
142.4978381533
 31
0.0
 11
96.1495784469
 21
142.5122551029
 31
0.0
 11
96.1776140934
 21
142.5268636758
 31
0.0
 11
96.2055836662
 21
142.5416635334
 31
0.0
 11
96.2334852554
 21
142.5566543124
 31
0.0
 11
96.2613169522
 21
142.5718356246
 31
0.0
 11
96.2890768494
 21
142.5872070569
 31
0.0
 11
96.3167630418
 21
142.6027681712
 31
0.0
 11
96.3443736264
 21
142.6185185043
 31
0.0
 11
96.3719067032
 21
142.6344575684
 31
0.0
 11
96.3993603751
 21
142.6505848502
 31
0.0
 11
96.4267327488
 21
142.6668998118
 31
0.0
 11
96.4540219347
 21
142.6834018901
 31
0.0
 11
96.481226048
 21
142.7000904972
 31
0.0
 11
96.5083432082
 21
142.7169650201
 31
0.0
 11
96.5353715404
 21
142.734024821
 31
0.0
 11
96.5623091749
 21
142.7512692372
 31
0.0
 11
96.5891542485
 21
142.768697581
 31
0.0
 11
96.615904904
 21
142.7863091403
 31
0.0
 11
96.6425592912
 21
142.804103178
 31
0.0
 11
96.6691155671
 21
142.8220789325
 31
0.0
 11
96.6955718964
 21
142.8402356176
 31
0.0
 11
96.7219264516
 21
142.8585724226
 31
0.0
 11
96.748177414
 21
142.8770885127
 31
0.0
 11
96.7743229734
 21
142.8957830285
 31
0.0
 11
96.8003613292
 21
142.9146550866
 31
0.0
 11
96.8262906901
 21
142.9337037795
 31
0.0
 11
96.8521092751
 21
142.952928176
 31
0.0
 11
96.8778153135
 21
142.972327321
 31
0.0
 11
96.9034070454
 21
142.9919002357
 31
0.0
 11
96.9288827224
 21
143.0116459179
 31
0.0
 11
96.9542406073
 21
143.0315633422
 31
0.0
 11
96.9794789752
 21
143.0516514598
 31
0.0
 11
97.0045961136
 21
143.0719091992
 31
0.0
 11
97.0295903225
 21
143.092335466
 31
0.0
 11
97.0544599153
 21
143.1129291432
 31
0.0
 11
97.0792032189
 21
143.1336890914
 31
0.0
 11
97.1038185738
 21
143.1546141489
 31
0.0
 11
97.1283043351
 21
143.1757031322
 31
0.0
 11
97.1526588725
 21
143.196954836
 31
0.0
 11
97.1768805703
 21
143.2183680333
 31
0.0
 11
97.2009678285
 21
143.239941476
 31
0.0
 11
97.2249190628
 21
143.2616738947
 31
0.0
 11
97.2487327046
 21
143.2835639995
 31
0.0
 11
97.2724072019
 21
143.3056104796
 31
0.0
 11
97.2959410194
 21
143.3278120041
 31
0.0
 11
97.3193326388
 21
143.350167222
 31
0.0
 11
97.3425805591
 21
143.3726747625
 31
0.0
 11
97.3656832971
 21
143.3953332354
 31
0.0
 11
97.3886393875
 21
143.4181412312
 31
0.0
 11
97.4114473833
 21
143.4410973216
 31
0.0
 11
97.4341058562
 21
143.4642000595
 31
0.0
 11
97.4566133967
 21
143.4874479799
 31
0.0
 11
97.4789686146
 21
143.5108395993
 31
0.0
 11
97.5011701391
 21
143.5343734168
 31
0.0
 11
97.5232166192
 21
143.5580479141
 31
0.0
 11
97.545106724
 21
143.5818615559
 31
0.0
 11
97.5668391427
 21
143.6058127901
 31
0.0
 11
97.5884125854
 21
143.6299000484
 31
0.0
 11
97.6098257827
 21
143.6541217462
 31
0.0
 11
97.6310774865
 21
143.6784762835
 31
0.0
 11
97.6521664698
 21
143.7029620449
 31
0.0
 11
97.6730915273
 21
143.7275773998
 31
0.0
 11
97.6938514755
 21
143.7523207034
 31
0.0
 11
97.7144451527
 21
143.7771902962
 31
0.0
 11
97.7348714195
 21
143.8021845051
 31
0.0
 11
97.7551291589
 21
143.8273016435
 31
0.0
 11
97.7752172765
 21
143.8525400114
 31
0.0
 11
97.7951347008
 21
143.8778978963
 31
0.0
 11
97.814880383
 21
143.9033735732
 31
0.0
 11
97.8344532977
 21
143.9289653052
 31
0.0
 11
97.8538524427
 21
143.9546713436
 31
0.0
 11
97.8730768392
 21
143.9804899286
 31
0.0
 11
97.8921255321
 21
144.0064192895
 31
0.0
 11
97.9109975902
 21
144.0324576452
 31
0.0
 11
97.929692106
 21
144.0586032047
 31
0.0
 11
97.9482081961
 21
144.0848541671
 31
0.0
 11
97.9665450011
 21
144.1112087223
 31
0.0
 11
97.9847016862
 21
144.1376650516
 31
0.0
 11
98.0026774407
 21
144.1642213275
 31
0.0
 11
98.0204714784
 21
144.1908757147
 31
0.0
 11
98.0380830377
 21
144.2176263702
 31
0.0
 11
98.0555113815
 21
144.2444714437
 31
0.0
 11
98.0727557977
 21
144.2714090783
 31
0.0
 11
98.0898155985
 21
144.2984374105
 31
0.0
 11
98.1066901215
 21
144.3255545707
 31
0.0
 11
98.1233787285
 21
144.3527586839
 31
0.0
 11
98.1398808069
 21
144.3800478699
 31
0.0
 11
98.1561957685
 21
144.4074202436
 31
0.0
 11
98.1723230503
 21
144.4348739155
 31
0.0
 11
98.1882621143
 21
144.4624069923
 31
0.0
 11
98.2040124475
 21
144.4900175769
 31
0.0
 11
98.2195735618
 21
144.5177037693
 31
0.0
 11
98.234944994
 21
144.5454636665
 31
0.0
 11
98.2501263063
 21
144.5732953633
 31
0.0
 11
98.2651170853
 21
144.6011969525
 31
0.0
 11
98.2799169429
 21
144.6291665253
 31
0.0
 11
98.2945255157
 21
144.6572021718
 31
0.0
 11
98.3089424654
 21
144.6853019813
 31
0.0
 11
98.3231674781
 21
144.7134640428
 31
0.0
 11
98.337200265
 21
144.7416864451
 31
0.0
 11
98.3510405617
 21
144.7699672777
 31
0.0
 11
98.3646881286
 21
144.7983046308
 31
0.0
 11
98.3781427504
 21
144.8266965957
 31
0.0
 11
98.3914042365
 21
144.8551412653
 31
0.0
 11
98.4044724204
 21
144.8836367344
 31
0.0
 11
98.4173471599
 21
144.9121811003
 31
0.0
 11
98.4300283369
 21
144.9407724628
 31
0.0
 11
98.4425158575
 21
144.9694089248
 31
0.0
 11
98.4548096515
 21
144.9980885927
 31
0.0
 11
98.4669096724
 21
145.0268095765
 31
0.0
 11
98.4788158976
 21
145.0555699906
 31
0.0
 11
98.4905283277
 21
145.0843679537
 31
0.0
 11
98.5020469869
 21
145.1132015893
 31
0.0
 11
98.5133719224
 21
145.1420690263
 31
0.0
 11
98.5245032045
 21
145.170968399
 31
0.0
 11
98.5354409265
 21
145.1998978476
 31
0.0
 11
98.5461852043
 21
145.2288555186
 31
0.0
 11
98.5567361762
 21
145.2578395647
 31
0.0
 11
98.5670940031
 21
145.2868481458
 31
0.0
 11
98.577258868
 21
145.315879429
 31
0.0
 11
98.5872309758
 21
145.3449315885
 31
0.0
 11
98.5970105532
 21
145.3740028067
 31
0.0
 11
98.6065978486
 21
145.403091274
 31
0.0
 11
98.6159931317
 21
145.4321951891
 31
0.0
 11
98.6251966934
 21
145.4613127594
 31
0.0
 11
98.6342088454
 21
145.4904422014
 31
0.0
 11
98.6430299205
 21
145.5195817408
 31
0.0
 11
98.6516602717
 21
145.5487296129
 31
0.0
 11
98.6601002725
 21
145.5778840629
 31
0.0
 11
98.6683503163
 21
145.6070433458
 31
0.0
 11
98.6764108165
 21
145.6362057273
 31
0.0
 11
98.684282206
 21
145.6653694834
 31
0.0
 11
98.6919649371
 21
145.6945329014
 31
0.0
 11
98.6994594812
 21
145.7236942792
 31
0.0
 11
98.7067663285
 21
145.7528519264
 31
0.0
 11
98.7138859879
 21
145.782004164
 31
0.0
 11
98.7208189868
 21
145.8111493251
 31
0.0
 11
98.7275658704
 21
145.8402857544
 31
0.0
 11
98.7341272021
 21
145.8694118093
 31
0.0
 11
98.7405035626
 21
145.8985258594
 31
0.0
 11
98.74669555
 21
145.9276262871
 31
0.0
 11
98.7527037795
 21
145.9567114875
 31
0.0
 11
98.7585288833
 21
145.985779869
 31
0.0
 11
98.7641715097
 21
146.0148298532
 31
0.0
 11
98.7696323237
 21
146.043859875
 31
0.0
 11
98.7749120058
 21
146.0728683832
 31
0.0
 11
98.7800112527
 21
146.10185384
 31
0.0
 11
98.7849307763
 21
146.1308147219
 31
0.0
 11
98.7896713035
 21
146.1597495195
 31
0.0
 11
98.7942335763
 21
146.1886567374
 31
0.0
 11
98.7986183512
 21
146.2175348948
 31
0.0
 11
98.8028263992
 21
146.2463825256
 31
0.0
 11
98.8068585049
 21
146.2751981782
 31
0.0
 11
98.8107154672
 21
146.3039804159
 31
0.0
 11
98.814398098
 21
146.3327278168
 31
0.0
 11
98.8179072226
 21
146.3614389744
 31
0.0
 11
98.8212436792
 21
146.3901124972
 31
0.0
 11
98.8244083186
 21
146.4187470089
 31
0.0
 11
98.8274020039
 21
146.4473411488
 31
0.0
 11
98.8302256103
 21
146.4758935716
 31
0.0
 11
98.8328800247
 21
146.5044029476
 31
0.0
 11
98.8353661454
 21
146.5328679628
 31
0.0
 11
98.8376848821
 21
146.5612873189
 31
0.0
 11
98.8398371553
 21
146.5896597335
 31
0.0
 11
98.8418238962
 21
146.6179839402
 31
0.0
 11
98.8436460462
 21
146.6462586882
 31
0.0
 11
98.8453045569
 21
146.6744827432
 31
0.0
 11
98.8468003896
 21
146.7026548867
 31
0.0
 11
98.8481345151
 21
146.7307739164
 31
0.0
 11
98.8493079136
 21
146.7588386461
 31
0.0
 11
98.8503215741
 21
146.7868479061
 31
0.0
 11
98.8511764942
 21
146.8148005426
 31
0.0
 11
98.8518736801
 21
146.8426954183
 31
0.0
 11
98.8524141459
 21
146.8705314121
 31
0.0
 11
98.8527989138
 21
146.8983074194
 31
0.0
 11
98.8531054816
 21
146.9536751371
 31
0.0
  0
LINE
  5
280
100
AcDbEntity
  8
0
100
AcDbLine
 62
7
  6
CONTINUOUS
 10
98.8531054816
 20
164.6586086107
 11
98.8531054816
 21
146.9536751371
  0
SPLINE
  5
281
100
AcDbEntity
  8
0
100
AcDbSpline
 62
7
  6
CONTINUOUS
 70
4
 71
3
 72
8
 73
4
 74
129
 42
0.0000001
 43
0.0000001
 44
0.0000000001
 12
0.0
 22
6.9122648639
 32
0.0
 13
-6.9054445686
 23
0.3069867401
 33
0.0
 40
0.0
 40
0.0
 40
0.0
 40
0.0
 40
1.0
 40
1.0
 40
1.0
 40
1.0
 10
98.8531054816
 20
164.6586086107
 30
0.0
 41
1.0
 10
98.8531054816
 20
167.4853912829
 30
0.0
 41
0.8150921225
 10
96.8991584274
 20
169.5281323787
 30
0.0
 41
0.8150921225
 10
94.0751649268
 20
169.6536751371
 30
0.0
 41
1.0
 11
98.8531054816
 21
164.6586086107
 31
0.0
 11
98.8528125999
 21
164.7127263655
 31
0.0
 11
98.8519289539
 21
164.7670700903
 31
0.0
 11
98.8504471284
 21
164.8216315092
 31
0.0
 11
98.8483598284
 21
164.8764021153
 31
0.0
 11
98.8456598874
 21
164.9313731711
 31
0.0
 11
98.8423402744
 21
164.9865357103
 31
0.0
 11
98.838394102
 21
165.0418805386
 31
0.0
 11
98.8338146344
 21
165.0973982362
 31
0.0
 11
98.8285952943
 21
165.1530791592
 31
0.0
 11
98.8227296718
 21
165.2089134426
 31
0.0
 11
98.8162115314
 21
165.2648910022
 31
0.0
 11
98.8090348202
 21
165.3210015383
 31
0.0
 11
98.8011936756
 21
165.3772345384
 31
0.0
 11
98.7926824332
 21
165.4335792807
 31
0.0
 11
98.7834956342
 21
165.4900248383
 31
0.0
 11
98.7736280334
 21
165.5465600832
 31
0.0
 11
98.7630746067
 21
165.6031736906
 31
0.0
 11
98.7518305589
 21
165.6598541437
 31
0.0
 11
98.7398913304
 21
165.716589739
 31
0.0
 11
98.7272526055
 21
165.7733685913
 31
0.0
 11
98.713910319
 21
165.8301786397
 31
0.0
 11
98.6998606633
 21
165.8870076535
 31
0.0
 11
98.6851000958
 21
165.9438432385
 31
0.0
 11
98.6696253451
 21
166.0006728433
 31
0.0
 11
98.6534334181
 21
166.0574837668
 31
0.0
 11
98.636521606
 21
166.1142631649
 31
0.0
 11
98.6188874908
 21
166.1709980581
 31
0.0
 11
98.6005289513
 21
166.2276753394
 31
0.0
 11
98.5814441687
 21
166.2842817822
 31
0.0
 11
98.561631632
 21
166.3408040485
 31
0.0
 11
98.5410901438
 21
166.3972286977
 31
0.0
 11
98.5198188247
 21
166.4535421953
 31
0.0
 11
98.4978171183
 21
166.5097309221
 31
0.0
 11
98.4750847956
 21
166.5657811831
 31
0.0
 11
98.4516219589
 21
166.6216792177
 31
0.0
 11
98.4274290459
 21
166.6774112085
 31
0.0
 11
98.4025068329
 21
166.7329632923
 31
0.0
 11
98.3768564379
 21
166.7883215691
 31
0.0
 11
98.3504793236
 21
166.8434721134
 31
0.0
 11
98.3233772993
 21
166.898400984
 31
0.0
 11
98.2955525236
 21
166.9530942347
 31
0.0
 11
98.2670075054
 21
167.0075379252
 31
0.0
 11
98.2377451054
 21
167.0617181316
 31
0.0
 11
98.207768537
 21
167.1156209578
 31
0.0
 11
98.1770813667
 21
167.1692325461
 31
0.0
 11
98.1456875141
 21
167.2225390883
 31
0.0
 11
98.1135912516
 21
167.2755268371
 31
0.0
 11
98.0807972035
 21
167.3281821168
 31
0.0
 11
98.047310345
 21
167.3804913349
 31
0.0
 11
98.0131360002
 21
167.4324409929
 31
0.0
 11
97.9782798406
 21
167.4840176975
 31
0.0
 11
97.9427478822
 21
167.5352081719
 31
0.0
 11
97.9065464827
 21
167.5859992663
 31
0.0
 11
97.8696823383
 21
167.6363779695
 31
0.0
 11
97.83216248
 21
167.686331419
 31
0.0
 11
97.7939942691
 21
167.7358469122
 31
0.0
 11
97.7551853934
 21
167.7849119169
 31
0.0
 11
97.7157438613
 21
167.8335140814
 31
0.0
 11
97.6756779973
 21
167.8816412451
 31
0.0
 11
97.6349964358
 21
167.9292814483
 31
0.0
 11
97.593708115
 21
167.9764229423
 31
0.0
 11
97.5518222707
 21
168.0230541986
 31
0.0
 11
97.5093484292
 21
168.0691639186
 31
0.0
 11
97.4662964
 21
168.1147410427
 31
0.0
 11
97.4226762686
 21
168.1597747588
 31
0.0
 11
97.3784983883
 21
168.2042545114
 31
0.0
 11
97.3337733723
 21
168.2481700093
 31
0.0
 11
97.288512085
 21
168.2915112339
 31
0.0
 11
97.2427256331
 21
168.3342684466
 31
0.0
 11
97.1964253569
 21
168.376432196
 31
0.0
 11
97.1496228208
 21
168.4179933253
 31
0.0
 11
97.1023298038
 21
168.4589429781
 31
0.0
 11
97.0545582896
 21
168.4992726051
 31
0.0
 11
97.0063204567
 21
168.5389739699
 31
0.0
 11
96.9576286682
 21
168.578039154
 31
0.0
 11
96.9084954616
 21
168.6164605622
 31
0.0
 11
96.858933538
 21
168.6542309271
 31
0.0
 11
96.8089557517
 21
168.6913433132
 31
0.0
 11
96.7585750994
 21
168.7277911208
 31
0.0
 11
96.7078047092
 21
168.7635680892
 31
0.0
 11
96.6566578298
 21
168.7986683
 31
0.0
 11
96.6051478194
 21
168.8330861793
 31
0.0
 11
96.5532881348
 21
168.8668165
 31
0.0
 11
96.50109232
 21
168.8998543834
 31
0.0
 11
96.4485739954
 21
168.9321953004
 31
0.0
 11
96.3957468467
 21
168.9638350726
 31
0.0
 11
96.3426246138
 21
168.9947698728
 31
0.0
 11
96.2892210795
 21
169.0249962245
 31
0.0
 11
96.235550059
 21
169.0545110022
 31
0.0
 11
96.1816253889
 21
169.0833114303
 31
0.0
 11
96.1274609163
 21
169.1113950818
 31
0.0
 11
96.0730704881
 21
169.1387598771
 31
0.0
 11
96.0184679406
 21
169.1654040821
 31
0.0
 11
95.9636670893
 21
169.1913263055
 31
0.0
 11
95.9086817181
 21
169.2165254963
 31
0.0
 11
95.8535255698
 21
169.2410009412
 31
0.0
 11
95.7982123359
 21
169.2647522608
 31
0.0
 11
95.7427556469
 21
169.2877794061
 31
0.0
 11
95.687169063
 21
169.3100826544
 31
0.0
 11
95.6314660648
 21
169.3316626053
 31
0.0
 11
95.5756600441
 21
169.3525201757
 31
0.0
 11
95.5197642952
 21
169.3726565951
 31
0.0
 11
95.4637920066
 21
169.3920734007
 31
0.0
 11
95.4077562522
 21
169.4107724317
 31
0.0
 11
95.3516699837
 21
169.4287558237
 31
0.0
 11
95.2955460228
 21
169.4460260027
 31
0.0
 11
95.2393970537
 21
169.4625856795
 31
0.0
 11
95.1832356156
 21
169.4784378428
 31
0.0
 11
95.1270740963
 21
169.4935857533
 31
0.0
 11
95.0709247254
 21
169.5080329363
 31
0.0
 11
95.014799568
 21
169.5217831757
 31
0.0
 11
94.9587105186
 21
169.5348405066
 31
0.0
 11
94.9026692955
 21
169.5472092081
 31
0.0
 11
94.8466874355
 21
169.5588937964
 31
0.0
 11
94.7907762886
 21
169.5698990173
 31
0.0
 11
94.7349470134
 21
169.5802298388
 31
0.0
 11
94.6792105726
 21
169.5898914437
 31
0.0
 11
94.6235777286
 21
169.5988892218
 31
0.0
 11
94.56805904
 21
169.6072287628
 31
0.0
 11
94.5126648578
 21
169.6149158479
 31
0.0
 11
94.4574053221
 21
169.6219564429
 31
0.0
 11
94.4022903592
 21
169.6283566899
 31
0.0
 11
94.3473296789
 21
169.6341229
 31
0.0
 11
94.2925327722
 21
169.6392615455
 31
0.0
 11
94.2379089089
 21
169.643779252
 31
0.0
 11
94.1834671361
 21
169.6476827911
 31
0.0
 11
94.1292162765
 21
169.6509790726
 31
0.0
 11
94.0751649268
 21
169.6536751371
 31
0.0
  0
LINE
  5
282
100
AcDbEntity
  8
0
100
AcDbLine
 62
7
  6
CONTINUOUS
 10
71.5586935925
 20
170.6546618318
 11
94.0751649268
 21
169.6536751371
  0
SPLINE
  5
283
100
AcDbEntity
  8
0
100
AcDbSpline
 62
7
  6
CONTINUOUS
 70
4
 71
3
 72
8
 73
4
 74
129
 42
0.0000001
 43
0.0000001
 44
0.0000000001
 12
0.0
 22
-1.3824529728
 32
0.0
 13
1.3810889137
 23
-0.061397348
 33
0.0
 40
0.0
 40
0.0
 40
0.0
 40
0.0
 40
1.0
 40
1.0
 40
1.0
 40
1.0
 10
70.6031054816
 20
171.6536751371
 30
0.0
 41
1.0
 10
70.6031054816
 20
171.0883186027
 30
0.0
 41
0.8150921225
 10
70.9938948924
 20
170.6797703835
 30
0.0
 41
0.8150921225
 10
71.5586935925
 20
170.6546618318
 30
0.0
 41
1.0
 11
70.6031054816
 21
171.6536751371
 31
0.0
 11
70.6031640579
 21
171.6428515861
 31
0.0
 11
70.6033407871
 21
171.6319828412
 31
0.0
 11
70.6036371522
 21
171.6210705574
 31
0.0
 11
70.6040546122
 21
171.6101164362
 31
0.0
 11
70.6045946004
 21
171.599122225
 31
0.0
 11
70.605258523
 21
171.5880897172
 31
0.0
 11
70.6060477575
 21
171.5770207515
 31
0.0
 11
70.606963651
 21
171.565917212
 31
0.0
 11
70.608007519
 21
171.5547810274
 31
0.0
 11
70.6091806435
 21
171.5436141707
 31
0.0
 11
70.6104842716
 21
171.5324186588
 31
0.0
 11
70.6119196139
 21
171.5211965516
 31
0.0
 11
70.6134878428
 21
171.5099499516
 31
0.0
 11
70.6151900913
 21
171.4986810031
 31
0.0
 11
70.6170274511
 21
171.4873918916
 31
0.0
 11
70.6190009712
 21
171.4760848426
 31
0.0
 11
70.6211116566
 21
171.4647621211
 31
0.0
 11
70.6233604661
 21
171.4534260305
 31
0.0
 11
70.6257483118
 21
171.4420789115
 31
0.0
 11
70.6282760568
 21
171.430723141
 31
0.0
 11
70.6309445141
 21
171.4193611313
 31
0.0
 11
70.6337544452
 21
171.4079953285
 31
0.0
 11
70.6367065587
 21
171.3966282116
 31
0.0
 11
70.6398015089
 21
171.3852622906
 31
0.0
 11
70.6430398943
 21
171.3739001059
 31
0.0
 11
70.6464222567
 21
171.3625442263
 31
0.0
 11
70.6499490797
 21
171.3511972476
 31
0.0
 11
70.6536207876
 21
171.3398617914
 31
0.0
 11
70.6574377442
 21
171.3285405028
 31
0.0
 11
70.6614002515
 21
171.3172360496
 31
0.0
 11
70.6655085491
 21
171.3059511197
 31
0.0
 11
70.669762813
 21
171.2946884202
 31
0.0
 11
70.6741631542
 21
171.2834506748
 31
0.0
 11
70.6787096188
 21
171.2722406226
 31
0.0
 11
70.6834021861
 21
171.2610610157
 31
0.0
 11
70.6882407687
 21
171.2499146175
 31
0.0
 11
70.6932252113
 21
171.2388042008
 31
0.0
 11
70.6983552903
 21
171.2277325454
 31
0.0
 11
70.7036307132
 21
171.2167024366
 31
0.0
 11
70.709051118
 21
171.2057166624
 31
0.0
 11
70.7146160732
 21
171.1947780123
 31
0.0
 11
70.7203250768
 21
171.1838892742
 31
0.0
 11
70.7261775568
 21
171.1730532329
 31
0.0
 11
70.7321728705
 21
171.1622726677
 31
0.0
 11
70.7383103046
 21
171.15155035
 31
0.0
 11
70.7445890751
 21
171.1408890416
 31
0.0
 11
70.7510083276
 21
171.1302914918
 31
0.0
 11
70.7575671372
 21
171.1197604359
 31
0.0
 11
70.7642645089
 21
171.1092985923
 31
0.0
 11
70.7710993779
 21
171.0989086607
 31
0.0
 11
70.7780706098
 21
171.0885933197
 31
0.0
 11
70.7851770015
 21
171.0783552249
 31
0.0
 11
70.7924172814
 21
171.068197006
 31
0.0
 11
70.7997901102
 21
171.0581212653
 31
0.0
 11
70.8072940819
 21
171.0481305754
 31
0.0
 11
70.8149277241
 21
171.0382274768
 31
0.0
 11
70.8226894992
 21
171.0284144759
 31
0.0
 11
70.8305778056
 21
171.018694043
 31
0.0
 11
70.8385909784
 21
171.0090686102
 31
0.0
 11
70.8467272908
 21
170.9995405696
 31
0.0
 11
70.8549849549
 21
170.9901122708
 31
0.0
 11
70.8633621238
 21
170.9807860195
 31
0.0
 11
70.8718568921
 21
170.9715640755
 31
0.0
 11
70.8804672979
 21
170.9624486507
 31
0.0
 11
70.8891913242
 21
170.9534419075
 31
0.0
 11
70.8980269002
 21
170.944545957
 31
0.0
 11
70.9069719034
 21
170.9357628574
 31
0.0
 11
70.9160241609
 21
170.9270946125
 31
0.0
 11
70.9251814513
 21
170.9185431699
 31
0.0
 11
70.9344415065
 21
170.91011042
 31
0.0
 11
70.9438020137
 21
170.9017981942
 31
0.0
 11
70.9532606171
 21
170.8936082636
 31
0.0
 11
70.96281492
 21
170.8855423382
 31
0.0
 11
70.9724624866
 21
170.8776020653
 31
0.0
 11
70.9822008443
 21
170.8697890284
 31
0.0
 11
70.9920274856
 21
170.8621047468
 31
0.0
 11
71.0019398703
 21
170.8545506738
 31
0.0
 11
71.0119354276
 21
170.8471281966
 31
0.0
 11
71.022011558
 21
170.8398386351
 31
0.0
 11
71.0321656361
 21
170.8326832414
 31
0.0
 11
71.0423950119
 21
170.8256631992
 31
0.0
 11
71.052697014
 21
170.8187796234
 31
0.0
 11
71.063068951
 21
170.8120335592
 31
0.0
 11
71.0735081139
 21
170.8054259826
 31
0.0
 11
71.0840117788
 21
170.7989577992
 31
0.0
 11
71.0945772086
 21
170.7926298447
 31
0.0
 11
71.1052016551
 21
170.7864428847
 31
0.0
 11
71.115882362
 21
170.7803976143
 31
0.0
 11
71.1266165661
 21
170.7744946588
 31
0.0
 11
71.1374015001
 21
170.7687345732
 31
0.0
 11
71.1482343946
 21
170.7631178429
 31
0.0
 11
71.1591124803
 21
170.7576448838
 31
0.0
 11
71.1700329898
 21
170.7523160428
 31
0.0
 11
71.18099316
 21
170.7471315982
 31
0.0
 11
71.1919902343
 21
170.74209176
 31
0.0
 11
71.2030214639
 21
170.737196671
 31
0.0
 11
71.2140841107
 21
170.7324464071
 31
0.0
 11
71.2251754485
 21
170.727840978
 31
0.0
 11
71.2362927653
 21
170.7233803284
 31
0.0
 11
71.2474333649
 21
170.7190643382
 31
0.0
 11
71.2585945691
 21
170.7148928241
 31
0.0
 11
71.2697737189
 21
170.7108655402
 31
0.0
 11
71.2809681766
 21
170.7069821791
 31
0.0
 11
71.2921753275
 21
170.7032423729
 31
0.0
 11
71.3033925812
 21
170.6996456945
 31
0.0
 11
71.3146173733
 21
170.6961916587
 31
0.0
 11
71.3258471672
 21
170.6928797233
 31
0.0
 11
71.3370794548
 21
170.6897092907
 31
0.0
 11
71.3483117586
 21
170.6866797086
 31
0.0
 11
71.3595416328
 21
170.683790272
 31
0.0
 11
71.3707666643
 21
170.6810402241
 31
0.0
 11
71.3819844742
 21
170.6784287579
 31
0.0
 11
71.3931927188
 21
170.6759550176
 31
0.0
 11
71.4043890908
 21
170.6736181
 31
0.0
 11
71.4155713202
 21
170.6714170558
 31
0.0
 11
71.4267371752
 21
170.6693508915
 31
0.0
 11
71.4378844634
 21
170.6674185705
 31
0.0
 11
71.4490110322
 21
170.6656190149
 31
0.0
 11
71.4601147699
 21
170.6639511067
 31
0.0
 11
71.4711936063
 21
170.6624136897
 31
0.0
 11
71.4822455135
 21
170.6610055707
 31
0.0
 11
71.4932685061
 21
170.6597255213
 31
0.0
 11
71.5042606421
 21
170.6585722792
 31
0.0
 11
71.5152200235
 21
170.6575445502
 31
0.0
 11
71.5261447961
 21
170.6566410088
 31
0.0
 11
71.5370331507
 21
170.655860301
 31
0.0
 11
71.5478833226
 21
170.6552010447
 31
0.0
 11
71.5586935925
 21
170.6546618318
 31
0.0
  0
LINE
  5
284
100
AcDbEntity
  8
0
100
AcDbLine
 62
7
  6
CONTINUOUS
 10
70.6031054816
 20
177.1536751371
 11
70.6031054816
 21
171.6536751371
  0
HATCH
  5
285
100
AcDbEntity
  8
0
100
AcDbHatch
 62
2
  6
CONTINUOUS
 10
0.0
 20
0.0
 30
0.0
210
0.0
220
0.0
230
1.0
  2
A
 70
0
 71
1
 91
2
 92
1
 93
27
 72
1
 10
70.6031054816
 20
202.1536751371
 11
132.1031054816
 21
202.1536751371
 72
1
 10
70.6031054816
 20
207.6536751371
 11
70.6031054816
 21
202.1536751371
 72
4
 94
3
 73
1
 74
0
 95
8
 96
4
 40
0.0
 40
0.0
 40
0.0
 40
0.0
 40
1.0
 40
1.0
 40
1.0
 40
1.0
 10
70.6031054816
 20
207.6536751371
 42
1.0
 10
70.6031054816
 20
208.2190316715
 42
0.8150921225
 10
70.9938948924
 20
208.6275798907
 42
0.8150921225
 10
71.5586935925
 20
208.6526884424
 42
1.0
 72
1
 10
71.5586935925
 20
208.6526884424
 11
94.0751649268
 21
209.6536751371
 72
4
 94
3
 73
1
 74
0
 95
8
 96
4
 40
0.0
 40
0.0
 40
0.0
 40
0.0
 40
1.0
 40
1.0
 40
1.0
 40
1.0
 10
98.8531054816
 20
214.6487416635
 42
1.0
 10
98.8531054816
 20
211.8219589913
 42
0.8150921225
 10
96.8991584274
 20
209.7792178955
 42
0.8150921225
 10
94.0751649268
 20
209.6536751371
 42
1.0
 72
1
 10
98.8531054816
 20
232.3536751371
 11
98.8531054816
 21
214.6487416635
 72
4
 94
3
 73
1
 74
0
 95
8
 96
4
 40
0.0
 40
0.0
 40
0.0
 40
0.0
 40
1.0
 40
1.0
 40
1.0
 40
1.0
 10
93.8531054816
 20
237.3536751371
 42
1.0
 10
96.7820376697
 20
237.3536751371
 42
0.8047378541
 10
98.8531054816
 20
235.2826073252
 42
0.8047378541
 10
98.8531054816
 20
232.3536751371
 42
1.0
 72
1
 10
76.6031054816
 20
237.3536751371
 11
93.8531054816
 21
237.3536751371
 72
4
 94
3
 73
1
 74
0
 95
8
 96
4
 40
0.0
 40
0.0
 40
0.0
 40
0.0
 40
1.0
 40
1.0
 40
1.0
 40
1.0
 10
76.6031054816
 20
237.3536751371
 42
1.0
 10
73.6741732935
 20
237.3536751371
 42
0.8047378541
 10
71.6031054816
 20
239.424742949
 42
0.8047378541
 10
71.6031054816
 20
242.3536751371
 42
1.0
 72
1
 10
71.6031054816
 20
260.9036751371
 11
71.6031054816
 21
242.3536751371
 72
1
 10
71.6031054816
 20
260.9036751371
 11
78.6915746506
 21
260.9036751371
 72
1
 10
78.6915746506
 20
260.9036751371
 11
79.3531054816
 21
241.9599107077
 72
4
 94
3
 73
1
 74
0
 95
8
 96
4
 40
0.0
 40
0.0
 40
0.0
 40
0.0
 40
1.0
 40
1.0
 40
1.0
 40
1.0
 10
80.2653405659
 20
240.9986155063
 42
1.0
 10
79.7368201645
 20
241.0448550499
 42
0.8326371472
 10
79.3716210349
 20
241.4296946344
 42
0.8326371472
 10
79.3531054816
 20
241.9599107077
 42
1.0
 72
1
 10
80.2653405659
 20
240.9986155063
 11
101.3531054816
 21
239.1536751371
 72
1
 10
101.3531054816
 20
239.1536751371
 11
122.4408703973
 21
240.9986155063
 72
4
 94
3
 73
1
 74
0
 95
8
 96
4
 40
0.0
 40
0.0
 40
0.0
 40
0.0
 40
1.0
 40
1.0
 40
1.0
 40
1.0
 10
123.3531054816
 20
241.9599107077
 42
1.0
 10
123.3345899283
 20
241.4296946344
 42
0.8326371472
 10
122.9693907987
 20
241.0448550499
 42
0.8326371472
 10
122.4408703973
 20
240.9986155063
 42
1.0
 72
1
 10
123.3531054816
 20
241.9599107077
 11
124.0146363125
 21
260.9036751371
 72
1
 10
124.0146363125
 20
260.9036751371
 11
131.1031054816
 21
260.9036751371
 72
1
 10
131.1031054816
 20
260.9036751371
 11
131.1031054816
 21
242.3536751371
 72
4
 94
3
 73
1
 74
0
 95
8
 96
4
 40
0.0
 40
0.0
 40
0.0
 40
0.0
 40
1.0
 40
1.0
 40
1.0
 40
1.0
 10
131.1031054816
 20
242.3536751371
 42
1.0
 10
131.1031054816
 20
239.424742949
 42
0.8047378541
 10
129.0320376697
 20
237.3536751371
 42
0.8047378541
 10
126.1031054816
 20
237.3536751371
 42
1.0
 72
1
 10
108.8531054816
 20
237.3536751371
 11
126.1031054816
 21
237.3536751371
 72
4
 94
3
 73
1
 74
0
 95
8
 96
4
 40
0.0
 40
0.0
 40
0.0
 40
0.0
 40
1.0
 40
1.0
 40
1.0
 40
1.0
 10
103.8531054816
 20
232.3536751371
 42
1.0
 10
103.8531054816
 20
235.2826073252
 42
0.8047378541
 10
105.9241732935
 20
237.3536751371
 42
0.8047378541
 10
108.8531054816
 20
237.3536751371
 42
1.0
 72
1
 10
103.8531054816
 20
232.3536751371
 11
103.8531054816
 21
214.6487416635
 72
4
 94
3
 73
1
 74
0
 95
8
 96
4
 40
0.0
 40
0.0
 40
0.0
 40
0.0
 40
1.0
 40
1.0
 40
1.0
 40
1.0
 10
108.6310460364
 20
209.6536751371
 42
1.0
 10
105.8070525358
 20
209.7792178955
 42
0.8150921225
 10
103.8531054816
 20
211.8219589913
 42
0.8150921225
 10
103.8531054816
 20
214.6487416635
 42
1.0
 72
1
 10
108.6310460364
 20
209.6536751371
 11
131.1475173706
 21
208.6526884424
 72
4
 94
3
 73
1
 74
0
 95
8
 96
4
 40
0.0
 40
0.0
 40
0.0
 40
0.0
 40
1.0
 40
1.0
 40
1.0
 40
1.0
 10
131.1475173706
 20
208.6526884424
 42
1.0
 10
131.7123160707
 20
208.6275798907
 42
0.8150921225
 10
132.1031054816
 20
208.2190316715
 42
0.8150921225
 10
132.1031054816
 20
207.6536751371
 42
1.0
 72
1
 10
132.1031054816
 20
207.6536751371
 11
132.1031054816
 21
202.1536751371
 97
54
330
24F
330
250
330
251
330
252
330
253
330
254
330
255
330
256
330
257
330
258
330
259
330
25A
330
25B
330
25C
330
25D
330
25E
330
25F
330
260
330
261
330
262
330
263
330
264
330
265
330
266
330
267
330
268
330
269
330
26A
330
26B
330
26C
330
26D
330
26E
330
26F
330
270
330
271
330
272
330
273
330
274
330
275
330
276
330
277
330
278
330
279
330
27A
330
27B
330
27C
330
27D
330
27E
330
27F
330
280
330
281
330
282
330
283
330
284
 92
1
 93
27
 72
1
 10
70.6031054816
 20
177.1536751371
 11
132.1031054816
 21
177.1536751371
 72
1
 10
132.1031054816
 20
177.1536751371
 11
132.1031054816
 21
171.6536751371
 72
4
 94
3
 73
1
 74
0
 95
8
 96
4
 40
0.0
 40
0.0
 40
0.0
 40
0.0
 40
1.0
 40
1.0
 40
1.0
 40
1.0
 10
131.1475173706
 20
170.6546618318
 42
1.0
 10
131.7123160707
 20
170.6797703835
 42
0.8150921225
 10
132.1031054816
 20
171.0883186027
 42
0.8150921225
 10
132.1031054816
 20
171.6536751371
 42
1.0
 72
1
 10
108.6310460364
 20
169.6536751371
 11
131.1475173706
 21
170.6546618318
 72
4
 94
3
 73
1
 74
0
 95
8
 96
4
 40
0.0
 40
0.0
 40
0.0
 40
0.0
 40
1.0
 40
1.0
 40
1.0
 40
1.0
 10
108.6310460364
 20
169.6536751371
 42
1.0
 10
105.8070525358
 20
169.5281323787
 42
0.8150921225
 10
103.8531054816
 20
167.4853912829
 42
0.8150921225
 10
103.8531054816
 20
164.6586086107
 42
1.0
 72
1
 10
103.8531054816
 20
164.6586086107
 11
103.8531054816
 21
146.9536751371
 72
4
 94
3
 73
1
 74
0
 95
8
 96
4
 40
0.0
 40
0.0
 40
0.0
 40
0.0
 40
1.0
 40
1.0
 40
1.0
 40
1.0
 10
103.8531054816
 20
146.9536751371
 42
1.0
 10
103.8531054816
 20
144.024742949
 42
0.8047378541
 10
105.9241732935
 20
141.9536751371
 42
0.8047378541
 10
108.8531054816
 20
141.9536751371
 42
1.0
 72
1
 10
108.8531054816
 20
141.9536751371
 11
126.1031054816
 21
141.9536751371
 72
4
 94
3
 73
1
 74
0
 95
8
 96
4
 40
0.0
 40
0.0
 40
0.0
 40
0.0
 40
1.0
 40
1.0
 40
1.0
 40
1.0
 10
131.1031054816
 20
136.9536751371
 42
1.0
 10
131.1031054816
 20
139.8826073252
 42
0.8047378541
 10
129.0320376697
 20
141.9536751371
 42
0.8047378541
 10
126.1031054816
 20
141.9536751371
 42
1.0
 72
1
 10
131.1031054816
 20
136.9536751371
 11
131.1031054816
 21
118.4036751371
 72
1
 10
124.0146363125
 20
118.4036751371
 11
131.1031054816
 21
118.4036751371
 72
1
 10
123.3531054816
 20
137.3474395665
 11
124.0146363125
 21
118.4036751371
 72
4
 94
3
 73
1
 74
0
 95
8
 96
4
 40
0.0
 40
0.0
 40
0.0
 40
0.0
 40
1.0
 40
1.0
 40
1.0
 40
1.0
 10
123.3531054816
 20
137.3474395665
 42
1.0
 10
123.3345899283
 20
137.8776556398
 42
0.8326371472
 10
122.9693907987
 20
138.2624952243
 42
0.8326371472
 10
122.4408703973
 20
138.3087347679
 42
1.0
 72
1
 10
101.3531054816
 20
140.1536751371
 11
122.4408703973
 21
138.3087347679
 72
1
 10
80.2653405659
 20
138.3087347679
 11
101.3531054816
 21
140.1536751371
 72
4
 94
3
 73
1
 74
0
 95
8
 96
4
 40
0.0
 40
0.0
 40
0.0
 40
0.0
 40
1.0
 40
1.0
 40
1.0
 40
1.0
 10
80.2653405659
 20
138.3087347679
 42
1.0
 10
79.7368201645
 20
138.2624952243
 42
0.8326371472
 10
79.3716210349
 20
137.8776556398
 42
0.8326371472
 10
79.3531054816
 20
137.3474395665
 42
1.0
 72
1
 10
78.6915746506
 20
118.4036751371
 11
79.3531054816
 21
137.3474395665
 72
1
 10
71.6031054816
 20
118.4036751371
 11
78.6915746506
 21
118.4036751371
 72
1
 10
71.6031054816
 20
136.9536751371
 11
71.6031054816
 21
118.4036751371
 72
4
 94
3
 73
1
 74
0
 95
8
 96
4
 40
0.0
 40
0.0
 40
0.0
 40
0.0
 40
1.0
 40
1.0
 40
1.0
 40
1.0
 10
76.6031054816
 20
141.9536751371
 42
1.0
 10
73.6741732935
 20
141.9536751371
 42
0.8047378541
 10
71.6031054816
 20
139.8826073252
 42
0.8047378541
 10
71.6031054816
 20
136.9536751371
 42
1.0
 72
1
 10
76.6031054816
 20
141.9536751371
 11
93.8531054816
 21
141.9536751371
 72
4
 94
3
 73
1
 74
0
 95
8
 96
4
 40
0.0
 40
0.0
 40
0.0
 40
0.0
 40
1.0
 40
1.0
 40
1.0
 40
1.0
 10
93.8531054816
 20
141.9536751371
 42
1.0
 10
96.7820376697
 20
141.9536751371
 42
0.8047378541
 10
98.8531054816
 20
144.024742949
 42
0.8047378541
 10
98.8531054816
 20
146.9536751371
 42
1.0
 72
1
 10
98.8531054816
 20
164.6586086107
 11
98.8531054816
 21
146.9536751371
 72
4
 94
3
 73
1
 74
0
 95
8
 96
4
 40
0.0
 40
0.0
 40
0.0
 40
0.0
 40
1.0
 40
1.0
 40
1.0
 40
1.0
 10
98.8531054816
 20
164.6586086107
 42
1.0
 10
98.8531054816
 20
167.4853912829
 42
0.8150921225
 10
96.8991584274
 20
169.5281323787
 42
0.8150921225
 10
94.0751649268
 20
169.6536751371
 42
1.0
 72
1
 10
71.5586935925
 20
170.6546618318
 11
94.0751649268
 21
169.6536751371
 72
4
 94
3
 73
1
 74
0
 95
8
 96
4
 40
0.0
 40
0.0
 40
0.0
 40
0.0
 40
1.0
 40
1.0
 40
1.0
 40
1.0
 10
70.6031054816
 20
171.6536751371
 42
1.0
 10
70.6031054816
 20
171.0883186027
 42
0.8150921225
 10
70.9938948924
 20
170.6797703835
 42
0.8150921225
 10
71.5586935925
 20
170.6546618318
 42
1.0
 72
1
 10
70.6031054816
 20
177.1536751371
 11
70.6031054816
 21
171.6536751371
 97
54
330
24F
330
250
330
251
330
252
330
253
330
254
330
255
330
256
330
257
330
258
330
259
330
25A
330
25B
330
25C
330
25D
330
25E
330
25F
330
260
330
261
330
262
330
263
330
264
330
265
330
266
330
267
330
268
330
269
330
26A
330
26B
330
26C
330
26D
330
26E
330
26F
330
270
330
271
330
272
330
273
330
274
330
275
330
276
330
277
330
278
330
279
330
27A
330
27B
330
27C
330
27D
330
27E
330
27F
330
280
330
281
330
282
330
283
330
284
 75
0
 76
0
 52
45.0
 41
2.0
 77
0
 78
1
 53
45.0
 43
0.0
 44
0.0
 45
-1.4142135624
 46
1.4142135624
 79
0
 98
1
 10
0.0
 20
0.0
  0
DIMENSION
  5
286
100
AcDbEntity
  8
0
100
AcDbDimension
 62
2
  6
CONTINUOUS
  2
*D0
 10
149.1498654683
 20
202.1536751371
 11
147.6077212424
 21
187.4931608501
 70
160
  1
%%c<>
  3
DIMSTYLE_1
100
AcDbAlignedDimension
 13
132.1251024939
 23
177.1536751371
 14
131.4653086795
 24
202.1536751371
 50
90.0
100
AcDbRotatedDimension
  0
DIMENSION
  5
287
100
AcDbEntity
  8
0
100
AcDbDimension
 62
2
  6
CONTINUOUS
  2
*D1
 10
132.1031054816
 20
102.4513368227
 11
96.6516253346
 21
105.0763368227
 70
160
  3
DIMSTYLE_2
100
AcDbAlignedDimension
 13
70.6031054816
 23
172.4070598749
 14
132.1031054816
 24
171.7779267203
100
AcDbRotatedDimension
  0
DIMENSION
  5
288
100
AcDbEntity
  8
0
100
AcDbDimension
 62
2
  6
CONTINUOUS
  2
*D2
 10
27.8034327419
 20
260.9036751371
 11
27.1014433491
 21
185.816883581
 70
160
  1
%%c<>
  3
DIMSTYLE_3
100
AcDbAlignedDimension
 13
76.3862985415
 23
118.4036751371
 14
72.8674981354
 24
260.9036751371
 50
90.0
100
AcDbRotatedDimension
  0
DIMENSION
  5
289
100
AcDbEntity
  8
0
100
AcDbDimension
 62
2
  6
CONTINUOUS
  2
*D3
 10
57.0765898481
 20
209.6536751371
 11
55.5344456223
 21
187.4931608501
 70
160
  1
%%c<>
  3
DIMSTYLE_2
100
AcDbAlignedDimension
 13
84.1648796989
 23
169.6536751371
 14
84.3408197192
 24
209.6536751371
 50
90.0
100
AcDbRotatedDimension
  0
DIMENSION
  5
28A
100
AcDbEntity
  8
0
100
AcDbDimension
 62
2
  6
CONTINUOUS
  2
*D4
 10
79.3531054816
 20
268.3809292507
 11
100.0032272129
 21
271.0059292507
 70
160
  3
DIMSTYLE_2
100
AcDbAlignedDimension
 13
123.3531054816
 23
241.3723965432
 14
79.3531054816
 24
241.3723965432
 50
180.0
100
AcDbRotatedDimension
  0
DIMENSION
  5
28B
100
AcDbEntity
  8
0
100
AcDbDimension
 62
2
  6
CONTINUOUS
  2
*D5
 10
131.1031054816
 20
278.727077937
 11
95.6678403744
 21
281.352077937
 70
160
  3
DIMSTYLE_2
100
AcDbAlignedDimension
 13
71.6031054816
 23
261.4036751371
 14
131.1031054816
 24
261.4036751371
100
AcDbRotatedDimension
  0
LINE
  5
28C
100
AcDbEntity
  8
0
100
AcDbLine
 62
7
  6
CONTINUOUS
 10
5.0
 20
65.0
 11
205.0
 21
65.0
  0
LINE
  5
28D
100
AcDbEntity
  8
0
100
AcDbLine
 62
7
  6
CONTINUOUS
 10
5.0
 20
65.0
 11
5.0
 21
5.0
  0
LINE
  5
28E
100
AcDbEntity
  8
0
100
AcDbLine
 62
7
  6
CONTINUOUS
 10
5.0
 20
55.0
 11
182.0
 21
55.0
  0
LINE
  5
28F
100
AcDbEntity
  8
0
100
AcDbLine
 62
7
  6
CONTINUOUS
 10
55.0
 20
45.0
 11
182.0
 21
45.0
  0
LINE
  5
290
100
AcDbEntity
  8
0
100
AcDbLine
 62
7
  6
CONTINUOUS
 10
5.0
 20
35.0
 11
182.0
 21
35.0
  0
LINE
  5
291
100
AcDbEntity
  8
0
100
AcDbLine
 62
7
  6
CONTINUOUS
 10
5.0
 20
25.0
 11
55.0
 21
25.0
  0
LINE
  5
292
100
AcDbEntity
  8
0
100
AcDbLine
 62
7
  6
CONTINUOUS
 10
157.0
 20
25.0
 11
182.0
 21
25.0
  0
LINE
  5
293
100
AcDbEntity
  8
0
100
AcDbLine
 62
7
  6
CONTINUOUS
 10
5.0
 20
15.0
 11
205.0
 21
15.0
  0
LINE
  5
294
100
AcDbEntity
  8
0
100
AcDbLine
 62
7
  6
CONTINUOUS
 10
5.0
 20
5.0
 11
205.0
 21
5.0
  0
LINE
  5
295
100
AcDbEntity
  8
0
100
AcDbLine
 62
7
  6
CONTINUOUS
 10
55.0
 20
55.0
 11
55.0
 21
15.0
  0
LINE
  5
296
100
AcDbEntity
  8
0
100
AcDbLine
 62
7
  6
CONTINUOUS
 10
89.0
 20
15.0
 11
89.0
 21
5.0
  0
LINE
  5
297
100
AcDbEntity
  8
0
100
AcDbLine
 62
7
  6
CONTINUOUS
 10
93.0
 20
65.0
 11
93.0
 21
55.0
  0
LINE
  5
298
100
AcDbEntity
  8
0
100
AcDbLine
 62
7
  6
CONTINUOUS
 10
115.0
 20
55.0
 11
115.0
 21
35.0
  0
LINE
  5
299
100
AcDbEntity
  8
0
100
AcDbLine
 62
7
  6
CONTINUOUS
 10
135.0
 20
55.0
 11
135.0
 21
35.0
  0
LINE
  5
29A
100
AcDbEntity
  8
0
100
AcDbLine
 62
7
  6
CONTINUOUS
 10
157.0
 20
55.0
 11
157.0
 21
5.0
  0
LINE
  5
29B
100
AcDbEntity
  8
0
100
AcDbLine
 62
7
  6
CONTINUOUS
 10
182.0
 20
65.0
 11
182.0
 21
5.0
  0
LINE
  5
29C
100
AcDbEntity
  8
0
100
AcDbLine
 62
7
  6
CONTINUOUS
 10
205.0
 20
65.0
 11
205.0
 21
5.0
  0
MTEXT
  5
29D
100
AcDbEntity
  8
0
100
AcDbMText
 62
2
  6
CONTINUOUS
  7
TEXTSTYLE_4
 71
1
 72
1
 10
6.250025
 20
64.2345733881
 30
0.0
 11
1.0
 21
0.0
 31
0.0
  1
\Q10.0;Tratt. Termici (Heat treatments)
 40
2.0
 41
35.2
  0
MTEXT
  5
29E
100
AcDbEntity
  8
0
100
AcDbMText
 62
2
  6
CONTINUOUS
  7
TEXTSTYLE_4
 71
1
 72
1
 10
94.250025
 20
64.2345733881
 30
0.0
 11
1.0
 21
0.0
 31
0.0
  1
\Q10.0;Tratt. Superficiali (Surface Treatments)
 40
2.0
 41
44.0
  0
MTEXT
  5
29F
100
AcDbEntity
  8
0
100
AcDbMText
 62
2
  6
CONTINUOUS
  7
TEXTSTYLE_5
 71
1
 72
1
 10
182.7060686764
 20
16.48
 30
0.0
 11
0.0
 21
1.0
 31
0.0
  3
\Q10.0;Proprietà della Marbett S.p.A..\PSenza autorizzazione scritta della\Pstessa il presente disegno non può\Pessere comunque utilizzato per la\Pcostruzione dell'oggetto rappresentato,\Pnè venire comunicato a terzi o\Priprodotto. La società proprie
  1
taria\Ptutela i propri diritti a rigore di legge.
 40
1.6
 41
47.04
  0
MTEXT
  5
2A0
100
AcDbEntity
  8
0
100
AcDbMText
 62
2
  6
CONTINUOUS
  7
TEXTSTYLE_6
 71
2
 72
1
 10
49.0
 20
60.75
 30
0.0
 11
1.0
 21
0.0
 31
0.0
  1
\Q10.0;-
 40
4.0
 41
2.4
  0
MTEXT
  5
2A1
100
AcDbEntity
  8
0
100
AcDbMText
 62
2
  6
CONTINUOUS
  7
TEXTSTYLE_6
 71
2
 72
1
 10
137.5
 20
60.75
 30
0.0
 11
1.0
 21
0.0
 31
0.0
  1
\Q10.0;-
 40
4.0
 41
2.4
  0
MTEXT
  5
2A2
100
AcDbEntity
  8
0
100
AcDbMText
 62
2
  6
CONTINUOUS
  7
TEXTSTYLE_7
 71
2
 72
1
 10
30.0
 20
50.3173208162
 30
0.0
 11
1.0
 21
0.0
 31
0.0
  1
\Q10.0;Rexnord Marbett S.p.A.\P\H3.5;{\W0.7;- Ufficio Tecnico -}
 40
5.0
 41
46.0052083333
  0
MTEXT
  5
2A3
100
AcDbEntity
  8
0
100
AcDbMText
 62
2
  6
CONTINUOUS
  7
TEXTSTYLE_4
 71
1
 72
1
 10
56.250025
 20
54.2345733881
 30
0.0
 11
1.0
 21
0.0
 31
0.0
  1
\Q10.0;Linea (Line)
 40
2.0
 41
13.2
  0
MTEXT
  5
2A4
100
AcDbEntity
  8
0
100
AcDbMText
 62
2
  6
CONTINUOUS
  7
TEXTSTYLE_4
 71
1
 72
1
 10
116.250025
 20
54.2345733881
 30
0.0
 11
1.0
 21
0.0
 31
0.0
  1
\Q10.0;Peso (Weight) Kg
 40
2.0
 41
17.6
  0
MTEXT
  5
2A5
100
AcDbEntity
  8
0
100
AcDbMText
 62
2
  6
CONTINUOUS
  7
TEXTSTYLE_4
 71
1
 72
1
 10
136.250025
 20
54.2345733881
 30
0.0
 11
1.0
 21
0.0
 31
0.0
  1
\Q10.0;Tol.Gen.(Gen.Tol.)
 40
2.0
 41
19.8
  0
MTEXT
  5
2A6
100
AcDbEntity
  8
0
100
AcDbMText
 62
2
  6
CONTINUOUS
  7
TEXTSTYLE_4
 71
1
 72
1
 10
158.250025
 20
54.2345733881
 30
0.0
 11
1.0
 21
0.0
 31
0.0
  1
\Q10.0;Scala (Scale)
 40
2.0
 41
14.3
  0
MTEXT
  5
2A7
100
AcDbEntity
  8
0
100
AcDbMText
 62
2
  6
CONTINUOUS
  7
TEXTSTYLE_6
 71
2
 72
1
 10
85.0
 20
50.75
 30
0.0
 11
1.0
 21
0.0
 31
0.0
  1
\Q10.0;TableTop
 40
4.0
 41
19.2
  0
MTEXT
  5
2A8
100
AcDbEntity
  8
0
100
AcDbMText
 62
2
  6
CONTINUOUS
  7
TEXTSTYLE_6
 71
2
 72
1
 10
125.0
 20
50.75
 30
0.0
 11
1.0
 21
0.0
 31
0.0
  1
\Q10.0;0.331
 40
4.0
 41
12.0
  0
MTEXT
  5
2A9
100
AcDbEntity
  8
0
100
AcDbMText
 62
2
  6
CONTINUOUS
  7
TEXTSTYLE_9
 71
2
 72
1
 10
146.0
 20
50.75
 30
0.0
 11
1.0
 21
0.0
 31
0.0
  1
\Q10.0;{\Fgdt;`}\Ftxt;0.2
 40
4.0
 41
11.8666666667
  0
MTEXT
  5
2AA
100
AcDbEntity
  8
0
100
AcDbMText
 62
2
  6
CONTINUOUS
  7
TEXTSTYLE_6
 71
2
 72
1
 10
169.5
 20
50.75
 30
0.0
 11
1.0
 21
0.0
 31
0.0
  1
\Q10.0;1/1
 40
4.0
 41
7.2
  0
MTEXT
  5
2AB
100
AcDbEntity
  8
0
100
AcDbMText
 62
2
  6
CONTINUOUS
  7
TEXTSTYLE_4
 71
1
 72
1
 10
56.250025
 20
44.2345733881
 30
0.0
 11
1.0
 21
0.0
 31
0.0
  1
\Q10.0;Materiale (Material)
 40
2.0
 41
22.0
  0
MTEXT
  5
2AC
100
AcDbEntity
  8
0
100
AcDbMText
 62
2
  6
CONTINUOUS
  7
TEXTSTYLE_4
 71
1
 72
1
 10
116.250025
 20
44.2345733881
 30
0.0
 11
1.0
 21
0.0
 31
0.0
  1
\Q10.0;Colore (Color)
 40
2.0
 41
15.4
  0
MTEXT
  5
2AD
100
AcDbEntity
  8
0
100
AcDbMText
 62
2
  6
CONTINUOUS
  7
TEXTSTYLE_4
 71
1
 72
1
 10
136.250025
 20
44.2345733881
 30
0.0
 11
1.0
 21
0.0
 31
0.0
  1
\Q10.0;Ritiro (Contr.)%
 40
2.0
 41
17.6
  0
MTEXT
  5
2AE
100
AcDbEntity
  8
0
100
AcDbMText
 62
2
  6
CONTINUOUS
  7
TEXTSTYLE_4
 71
1
 72
1
 10
158.250025
 20
44.2345733881
 30
0.0
 11
1.0
 21
0.0
 31
0.0
  1
\Q10.0;Dis. (Designer)
 40
2.0
 41
16.5
  0
MTEXT
  5
2AF
100
AcDbEntity
  8
0
100
AcDbMText
 62
2
  6
CONTINUOUS
  7
TEXTSTYLE_6
 71
2
 72
1
 10
85.0
 20
40.75
 30
0.0
 11
1.0
 21
0.0
 31
0.0
  1
\Q10.0;PA6+30%FV
 40
4.0
 41
21.6
  0
MTEXT
  5
2B0
100
AcDbEntity
  8
0
100
AcDbMText
 62
2
  6
CONTINUOUS
  7
TEXTSTYLE_6
 71
2
 72
1
 10
169.5
 20
40.75
 30
0.0
 11
1.0
 21
0.0
 31
0.0
  1
\Q10.0;Lanza
 40
4.0
 41
12.0
  0
MTEXT
  5
2B1
100
AcDbEntity
  8
0
100
AcDbMText
 62
2
  6
CONTINUOUS
  7
TEXTSTYLE_4
 71
1
 72
1
 10
6.250025
 20
34.2345733881
 30
0.0
 11
1.0
 21
0.0
 31
0.0
  1
\Q10.0;Dis. Complessivo (Assembly Drawing)
 40
2.0
 41
38.5
  0
MTEXT
  5
2B2
100
AcDbEntity
  8
0
100
AcDbMText
 62
2
  6
CONTINUOUS
  7
TEXTSTYLE_4
 71
1
 72
1
 10
56.250025
 20
34.2345733881
 30
0.0
 11
1.0
 21
0.0
 31
0.0
  1
\Q10.0;Descrizione (Description)
 40
2.0
 41
27.5
  0
MTEXT
  5
2B3
100
AcDbEntity
  8
0
100
AcDbMText
 62
2
  6
CONTINUOUS
  7
TEXTSTYLE_4
 71
1
 72
1
 10
158.250025
 20
34.2345733881
 30
0.0
 11
1.0
 21
0.0
 31
0.0
  1
\Q10.0;Data (Date)
 40
2.0
 41
12.1
  0
MTEXT
  5
2B4
100
AcDbEntity
  8
0
100
AcDbMText
 62
2
  6
CONTINUOUS
  7
TEXTSTYLE_6
 71
2
 72
1
 10
106.0
 20
27.6549009608
 30
0.0
 11
1.0
 21
0.0
 31
0.0
  1
\Q10.0;Ruota di rinvio\PNXT820 T23 R25
 40
4.0
 41
36.0
  0
MTEXT
  5
2B5
100
AcDbEntity
  8
0
100
AcDbMText
 62
2
  6
CONTINUOUS
  7
TEXTSTYLE_6
 71
2
 72
1
 10
169.5
 20
30.75
 30
0.0
 11
1.0
 21
0.0
 31
0.0
  1
\Q10.0;11-02-08
 40
4.0
 41
19.2
  0
MTEXT
  5
2B6
100
AcDbEntity
  8
0
100
AcDbMText
 62
2
  6
CONTINUOUS
  7
TEXTSTYLE_4
 71
1
 72
1
 10
6.250025
 20
24.2345733881
 30
0.0
 11
1.0
 21
0.0
 31
0.0
  1
\Q10.0;Fase di Sviluppo (Development Status)
 40
2.0
 41
40.7
  0
MTEXT
  5
2B7
100
AcDbEntity
  8
0
100
AcDbMText
 62
2
  6
CONTINUOUS
  7
TEXTSTYLE_4
 71
1
 72
1
 10
158.250025
 20
24.2345733881
 30
0.0
 11
1.0
 21
0.0
 31
0.0
  1
\Q10.0;Contr. (Check)
 40
2.0
 41
15.4
  0
MTEXT
  5
2B8
100
AcDbEntity
  8
0
100
AcDbMText
 62
2
  6
CONTINUOUS
  7
TEXTSTYLE_4
 71
1
 72
1
 10
6.250025
 20
14.2345733881
 30
0.0
 11
1.0
 21
0.0
 31
0.0
  1
\Q10.0;Disegno o stp. (Drawing or mold)
 40
2.0
 41
35.2
  0
MTEXT
  5
2B9
100
AcDbEntity
  8
0
100
AcDbMText
 62
2
  6
CONTINUOUS
  7
TEXTSTYLE_4
 71
1
 72
1
 10
90.250025
 20
14.2345733881
 30
0.0
 11
1.0
 21
0.0
 31
0.0
  1
\Q10.0;Progetto (Project)
 40
2.0
 41
19.8
  0
MTEXT
  5
2BA
100
AcDbEntity
  8
0
100
AcDbMText
 62
2
  6
CONTINUOUS
  7
TEXTSTYLE_4
 71
1
 72
1
 10
158.250025
 20
14.2345733881
 30
0.0
 11
1.0
 21
0.0
 31
0.0
  1
\Q10.0;Data (Date)
 40
2.0
 41
12.1
  0
MTEXT
  5
2BB
100
AcDbEntity
  8
0
100
AcDbMText
 62
2
  6
CONTINUOUS
  7
TEXTSTYLE_4
 71
1
 72
1
 10
183.250025
 20
14.2345733881
 30
0.0
 11
1.0
 21
0.0
 31
0.0
  1
\Q10.0;Foglio (Sheet)
 40
2.0
 41
15.4
  0
MTEXT
  5
2BC
100
AcDbEntity
  8
0
100
AcDbMText
 62
2
  6
CONTINUOUS
  7
TEXTSTYLE_6
 71
2
 72
1
 10
47.0
 20
10.75
 30
0.0
 11
1.0
 21
0.0
 31
0.0
  1
\Q10.0;NXT820T23R25
 40
4.0
 41
28.8
  0
MTEXT
  5
2BD
100
AcDbEntity
  8
0
100
AcDbMText
 62
2
  6
CONTINUOUS
  7
TEXTSTYLE_6
 71
3
 72
1
 10
203.749975
 20
10.75
 30
0.0
 11
1.0
 21
0.0
 31
0.0
  1
\Q10.0;1/1
 40
4.0
 41
7.2
  0
LINE
  5
2BE
100
AcDbEntity
  8
0
100
AcDbLine
 62
7
  6
CONTINUOUS
 10
197.0
 20
292.0
 11
205.0
 21
292.0
  0
LINE
  5
2BF
100
AcDbEntity
  8
0
100
AcDbLine
 62
7
  6
CONTINUOUS
 10
197.0
 20
292.0
 11
197.0
 21
65.0
  0
LINE
  5
2C0
100
AcDbEntity
  8
0
100
AcDbLine
 62
7
  6
CONTINUOUS
 10
197.0
 20
115.0
 11
205.0
 21
115.0
  0
LINE
  5
2C1
100
AcDbEntity
  8
0
100
AcDbLine
 62
7
  6
CONTINUOUS
 10
197.0
 20
95.0
 11
205.0
 21
95.0
  0
LINE
  5
2C2
100
AcDbEntity
  8
0
100
AcDbLine
 62
7
  6
CONTINUOUS
 10
197.0
 20
75.0
 11
205.0
 21
75.0
  0
LINE
  5
2C3
100
AcDbEntity
  8
0
100
AcDbLine
 62
7
  6
CONTINUOUS
 10
197.0
 20
65.0
 11
205.0
 21
65.0
  0
LINE
  5
2C4
100
AcDbEntity
  8
0
100
AcDbLine
 62
7
  6
CONTINUOUS
 10
205.0
 20
292.0
 11
205.0
 21
65.0
  0
MTEXT
  5
2C5
100
AcDbEntity
  8
0
100
AcDbMText
 62
2
  6
CONTINUOUS
  7
TEXTSTYLE_4
 71
1
 72
1
 10
197.7731649178
 20
116.75
 30
0.0
 11
0.0
 21
1.0
 31
0.0
  1
\Q10.0;Modifica (Modification)
 40
2.0
 41
25.3
  0
MTEXT
  5
2C6
100
AcDbEntity
  8
0
100
AcDbMText
 62
2
  6
CONTINUOUS
  7
TEXTSTYLE_4
 71
1
 72
1
 10
197.7731649178
 20
96.75
 30
0.0
 11
0.0
 21
1.0
 31
0.0
  1
\Q10.0;Dis. (Designer)
 40
2.0
 41
16.5
  0
MTEXT
  5
2C7
100
AcDbEntity
  8
0
100
AcDbMText
 62
2
  6
CONTINUOUS
  7
TEXTSTYLE_4
 71
1
 72
1
 10
197.7731649178
 20
78.95
 30
0.0
 11
0.0
 21
1.0
 31
0.0
  1
\Q10.0;Data (Date)
 40
2.0
 41
12.1
  0
MTEXT
  5
2C8
100
AcDbEntity
  8
0
100
AcDbMText
 62
2
  6
CONTINUOUS
  7
TEXTSTYLE_4
 71
1
 72
1
 10
197.7731649178
 20
67.8
 30
0.0
 11
0.0
 21
1.0
 31
0.0
  1
\Q10.0;Rev.
 40
2.0
 41
4.4
  0
MTEXT
  5
2C9
100
AcDbEntity
  8
0
100
AcDbMText
 62
2
  6
CONTINUOUS
  7
STANDARD
 71
1
 72
1
 10
91.1263013579
 20
92.8809947247
 30
0.0
 11
1.0
 21
0.0
 31
0.0
  1
SEZIONE A-A
 40
3.5
 41
27.50055
  0
LINE
  5
2CA
100
AcDbEntity
  8
0
100
AcDbLine
 62
2
  6
CONTINUOUS
 10
210.0
 20
0.0
 11
205.0
 21
0.0
  0
LINE
  5
2CB
100
AcDbEntity
  8
0
100
AcDbLine
 62
2
  6
CONTINUOUS
 10
-0.0
 20
0.0
 11
5.0
 21
0.0
  0
LINE
  5
2CC
100
AcDbEntity
  8
0
100
AcDbLine
 62
7
  6
CONTINUOUS
 10
5.0
 20
5.0
 11
205.0
 21
5.0
  0
LINE
  5
2CD
100
AcDbEntity
  8
0
100
AcDbLine
 62
2
  6
CONTINUOUS
 10
-0.0
 20
297.0
 11
-0.0
 21
292.0
  0
LINE
  5
2CE
100
AcDbEntity
  8
0
100
AcDbLine
 62
2
  6
CONTINUOUS
 10
-0.0
 20
5.0
 11
-0.0
 21
0.0
  0
LINE
  5
2CF
100
AcDbEntity
  8
0
100
AcDbLine
 62
7
  6
CONTINUOUS
 10
5.0
 20
292.0
 11
5.0
 21
5.0
  0
LINE
  5
2D0
100
AcDbEntity
  8
0
100
AcDbLine
 62
7
  6
CONTINUOUS
 10
205.0
 20
5.0
 11
205.0
 21
292.0
  0
LINE
  5
2D1
100
AcDbEntity
  8
0
100
AcDbLine
 62
2
  6
CONTINUOUS
 10
210.0
 20
297.0
 11
210.0
 21
292.0
  0
LINE
  5
2D2
100
AcDbEntity
  8
0
100
AcDbLine
 62
2
  6
CONTINUOUS
 10
210.0
 20
5.0
 11
210.0
 21
0.0
  0
LINE
  5
2D3
100
AcDbEntity
  8
0
100
AcDbLine
 62
7
  6
CONTINUOUS
 10
205.0
 20
292.0
 11
5.0
 21
292.0
  0
LINE
  5
2D4
100
AcDbEntity
  8
0
100
AcDbLine
 62
2
  6
CONTINUOUS
 10
5.0
 20
297.0
 11
-0.0
 21
297.0
  0
LINE
  5
2D5
100
AcDbEntity
  8
0
100
AcDbLine
 62
2
  6
CONTINUOUS
 10
205.0
 20
297.0
 11
210.0
 21
297.0
  0
LINE
  5
2D6
100
AcDbEntity
  8
0
100
AcDbLine
 62
7
  6
CONTINUOUS
 10
71.6031054816
 20
118.4036751371
 11
78.6915746506
 21
118.4036751371
  0
LINE
  5
2D7
100
AcDbEntity
  8
0
100
AcDbLine
 62
7
  6
CONTINUOUS
 10
124.0146363125
 20
118.4036751371
 11
131.1031054816
 21
118.4036751371
  0
LINE
  5
2D8
100
AcDbEntity
  8
0
100
AcDbLine
 62
7
  6
CONTINUOUS
 10
80.2653405659
 20
138.3087347679
 11
101.3531054816
 21
140.1536751371
  0
LINE
  5
2D9
100
AcDbEntity
  8
0
100
AcDbLine
 62
7
  6
CONTINUOUS
 10
76.6031054816
 20
141.9536751371
 11
93.8531054816
 21
141.9536751371
  0
LINE
  5
2DA
100
AcDbEntity
  8
0
100
AcDbLine
 62
7
  6
CONTINUOUS
 10
108.8531054816
 20
141.9536751371
 11
126.1031054816
 21
141.9536751371
  0
LINE
  5
2DB
100
AcDbEntity
  8
0
100
AcDbLine
 62
7
  6
CONTINUOUS
 10
101.3531054816
 20
140.1536751371
 11
122.4408703973
 21
138.3087347679
  0
LINE
  5
2DC
100
AcDbEntity
  8
0
100
AcDbLine
 62
7
  6
CONTINUOUS
 10
70.6031054816
 20
207.6536751371
 11
70.6031054816
 21
171.6536751371
  0
LINE
  5
2DD
100
AcDbEntity
  8
0
100
AcDbLine
 62
7
  6
CONTINUOUS
 10
71.6031054816
 20
260.9036751371
 11
71.6031054816
 21
208.6526884424
  0
LINE
  5
2DE
100
AcDbEntity
  8
0
100
AcDbLine
 62
7
  6
CONTINUOUS
 10
71.6031054816
 20
170.6546618318
 11
71.6031054816
 21
118.4036751371
  0
LINE
  5
2DF
100
AcDbEntity
  8
0
100
AcDbLine
 62
7
  6
CONTINUOUS
 10
78.6915746506
 20
260.9036751371
 11
79.3531054816
 21
241.9599107077
  0
LINE
  5
2E0
100
AcDbEntity
  8
0
100
AcDbLine
 62
7
  6
CONTINUOUS
 10
76.6031054816
 20
237.3536751371
 11
76.6031054816
 21
208.8769415728
  0
LINE
  5
2E1
100
AcDbEntity
  8
0
100
AcDbLine
 62
7
  6
CONTINUOUS
 10
76.6031054816
 20
170.4304087014
 11
76.6031054816
 21
141.9536751371
  0
LINE
  5
2E2
100
AcDbEntity
  8
0
100
AcDbLine
 62
7
  6
CONTINUOUS
 10
78.6915746506
 20
118.4036751371
 11
79.3531054816
 21
137.3474395665
  0
LINE
  5
2E3
100
AcDbEntity
  8
0
100
AcDbLine
 62
7
  6
CONTINUOUS
 10
108.6310460364
 20
169.6536751371
 11
131.1475173706
 21
170.6546618318
  0
LINE
  5
2E4
100
AcDbEntity
  8
0
100
AcDbLine
 62
7
  6
CONTINUOUS
 10
71.5586935925
 20
170.6546618318
 11
94.0751649268
 21
169.6536751371
  0
LINE
  5
2E5
100
AcDbEntity
  8
0
100
AcDbLine
 62
7
  6
CONTINUOUS
 10
70.6031054816
 20
177.1536751371
 11
132.1031054816
 21
177.1536751371
  0
LINE
  5
2E6
100
AcDbEntity
  8
0
100
AcDbLine
 62
7
  6
CONTINUOUS
 10
93.8531054816
 20
237.3536751371
 11
93.8531054816
 21
209.6438033172
  0
LINE
  5
2E7
100
AcDbEntity
  8
0
100
AcDbLine
 62
7
  6
CONTINUOUS
 10
93.8531054816
 20
169.663546957
 11
93.8531054816
 21
141.9536751371
  0
LINE
  5
2E8
100
AcDbEntity
  8
0
100
AcDbLine
 62
7
  6
CONTINUOUS
 10
98.8531054816
 20
232.3536751371
 11
98.8531054816
 21
214.6487416635
  0
LINE
  5
2E9
100
AcDbEntity
  8
0
100
AcDbLine
 62
7
  6
CONTINUOUS
 10
98.8531054816
 20
164.6586086107
 11
98.8531054816
 21
146.9536751371
  0
LINE
  5
2EA
100
AcDbEntity
  8
ASSI
100
AcDbLine
 62
2
  6
CENTER
 10
135.1031054816
 20
189.6536751371
 11
67.6031054816
 21
189.6536751371
  0
LINE
  5
2EB
100
AcDbEntity
  8
0
100
AcDbLine
 62
7
  6
CONTINUOUS
 10
103.8531054816
 20
232.3536751371
 11
103.8531054816
 21
214.6487416635
  0
LINE
  5
2EC
100
AcDbEntity
  8
0
100
AcDbLine
 62
7
  6
CONTINUOUS
 10
103.8531054816
 20
164.6586086107
 11
103.8531054816
 21
146.9536751371
  0
LINE
  5
2ED
100
AcDbEntity
  8
0
100
AcDbLine
 62
7
  6
CONTINUOUS
 10
108.8531054816
 20
237.3536751371
 11
108.8531054816
 21
209.6438033172
  0
LINE
  5
2EE
100
AcDbEntity
  8
0
100
AcDbLine
 62
7
  6
CONTINUOUS
 10
108.8531054816
 20
169.663546957
 11
108.8531054816
 21
141.9536751371
  0
LINE
  5
2EF
100
AcDbEntity
  8
0
100
AcDbLine
 62
7
  6
CONTINUOUS
 10
70.6031054816
 20
202.1536751371
 11
132.1031054816
 21
202.1536751371
  0
LINE
  5
2F0
100
AcDbEntity
  8
0
100
AcDbLine
 62
7
  6
CONTINUOUS
 10
123.3531054816
 20
137.3474395665
 11
124.0146363125
 21
118.4036751371
  0
LINE
  5
2F1
100
AcDbEntity
  8
0
100
AcDbLine
 62
7
  6
CONTINUOUS
 10
123.3531054816
 20
241.9599107077
 11
124.0146363125
 21
260.9036751371
  0
LINE
  5
2F2
100
AcDbEntity
  8
0
100
AcDbLine
 62
7
  6
CONTINUOUS
 10
71.5586935925
 20
208.6526884424
 11
94.0751649268
 21
209.6536751371
  0
LINE
  5
2F3
100
AcDbEntity
  8
0
100
AcDbLine
 62
7
  6
CONTINUOUS
 10
108.6310460364
 20
209.6536751371
 11
131.1475173706
 21
208.6526884424
  0
LINE
  5
2F4
100
AcDbEntity
  8
0
100
AcDbLine
 62
7
  6
CONTINUOUS
 10
126.1031054816
 20
237.3536751371
 11
126.1031054816
 21
208.8769415728
  0
LINE
  5
2F5
100
AcDbEntity
  8
0
100
AcDbLine
 62
7
  6
CONTINUOUS
 10
126.1031054816
 20
170.4304087014
 11
126.1031054816
 21
141.9536751371
  0
LINE
  5
2F6
100
AcDbEntity
  8
0
100
AcDbLine
 62
7
  6
CONTINUOUS
 10
131.1031054816
 20
260.9036751371
 11
131.1031054816
 21
208.6526884424
  0
LINE
  5
2F7
100
AcDbEntity
  8
0
100
AcDbLine
 62
7
  6
CONTINUOUS
 10
131.1031054816
 20
170.6546618318
 11
131.1031054816
 21
118.4036751371
  0
LINE
  5
2F8
100
AcDbEntity
  8
0
100
AcDbLine
 62
7
  6
CONTINUOUS
 10
132.1031054816
 20
207.6536751371
 11
132.1031054816
 21
171.6536751371
  0
LINE
  5
2F9
100
AcDbEntity
  8
0
100
AcDbLine
 62
7
  6
CONTINUOUS
 10
101.3531054816
 20
239.1536751371
 11
122.4408703973
 21
240.9986155063
  0
LINE
  5
2FA
100
AcDbEntity
  8
0
100
AcDbLine
 62
7
  6
CONTINUOUS
 10
76.6031054816
 20
237.3536751371
 11
93.8531054816
 21
237.3536751371
  0
LINE
  5
2FB
100
AcDbEntity
  8
0
100
AcDbLine
 62
7
  6
CONTINUOUS
 10
108.8531054816
 20
237.3536751371
 11
126.1031054816
 21
237.3536751371
  0
LINE
  5
2FC
100
AcDbEntity
  8
0
100
AcDbLine
 62
7
  6
CONTINUOUS
 10
80.2653405659
 20
240.9986155063
 11
101.3531054816
 21
239.1536751371
  0
LINE
  5
2FD
100
AcDbEntity
  8
0
100
AcDbLine
 62
7
  6
CONTINUOUS
 10
71.6031054816
 20
260.9036751371
 11
78.6915746506
 21
260.9036751371
  0
LINE
  5
2FE
100
AcDbEntity
  8
0
100
AcDbLine
 62
7
  6
CONTINUOUS
 10
124.0146363125
 20
260.9036751371
 11
131.1031054816
 21
260.9036751371
  0
ARC
  5
2FF
100
AcDbEntity
  8
0
100
AcDbCircle
 62
7
  6
CONTINUOUS
 10
93.8531054816
 20
164.6586086107
 40
5.0
100
AcDbArc
 50
0.0
 51
87.4545489484
  0
ARC
  5
300
100
AcDbEntity
  8
0
100
AcDbCircle
 62
7
  6
CONTINUOUS
 10
76.6031054816
 20
136.9536751371
 40
5.0
100
AcDbArc
 50
90.0
 51
180.0
  0
ARC
  5
301
100
AcDbEntity
  8
0
100
AcDbCircle
 62
7
  6
CONTINUOUS
 10
93.8531054816
 20
146.9536751371
 40
5.0
100
AcDbArc
 50
270.0
 51
360.0
  0
ARC
  5
302
100
AcDbEntity
  8
0
100
AcDbCircle
 62
7
  6
CONTINUOUS
 10
71.6031054816
 20
171.6536751371
 40
1.0
100
AcDbArc
 50
180.0
 51
267.4545489484
  0
ARC
  5
303
100
AcDbEntity
  8
0
100
AcDbCircle
 62
7
  6
CONTINUOUS
 10
80.3524963086
 20
137.3125400698
 40
1.0
100
AcDbArc
 50
95.0
 51
178.0
  0
ARC
  5
304
100
AcDbEntity
  8
0
100
AcDbCircle
 62
7
  6
CONTINUOUS
 10
93.8531054816
 20
214.6487416635
 40
5.0
100
AcDbArc
 50
272.5454510516
 51
360.0
  0
ARC
  5
305
100
AcDbEntity
  8
0
100
AcDbCircle
 62
7
  6
CONTINUOUS
 10
76.6031054816
 20
242.3536751371
 40
5.0
100
AcDbArc
 50
180.0
 51
270.0
  0
ARC
  5
306
100
AcDbEntity
  8
0
100
AcDbCircle
 62
7
  6
CONTINUOUS
 10
93.8531054816
 20
232.3536751371
 40
5.0
100
AcDbArc
 50
0.0
 51
90.0
  0
ARC
  5
307
100
AcDbEntity
  8
0
100
AcDbCircle
 62
7
  6
CONTINUOUS
 10
71.6031054816
 20
207.6536751371
 40
1.0
100
AcDbArc
 50
92.5454510516
 51
180.0
  0
ARC
  5
308
100
AcDbEntity
  8
0
100
AcDbCircle
 62
7
  6
CONTINUOUS
 10
80.3524963086
 20
241.9948102044
 40
1.0
100
AcDbArc
 50
182.0
 51
265.0
  0
ARC
  5
309
100
AcDbEntity
  8
0
100
AcDbCircle
 62
7
  6
CONTINUOUS
 10
126.1031054816
 20
136.9536751371
 40
5.0
100
AcDbArc
 50
0.0
 51
90.0
  0
ARC
  5
30A
100
AcDbEntity
  8
0
100
AcDbCircle
 62
7
  6
CONTINUOUS
 10
108.8531054816
 20
146.9536751371
 40
5.0
100
AcDbArc
 50
180.0
 51
270.0
  0
ARC
  5
30B
100
AcDbEntity
  8
0
100
AcDbCircle
 62
7
  6
CONTINUOUS
 10
108.8531054816
 20
164.6586086107
 40
5.0
100
AcDbArc
 50
92.5454510516
 51
180.0
  0
ARC
  5
30C
100
AcDbEntity
  8
0
100
AcDbCircle
 62
7
  6
CONTINUOUS
 10
122.3537146546
 20
137.3125400698
 40
1.0
100
AcDbArc
 50
2.0
 51
85.0
  0
ARC
  5
30D
100
AcDbEntity
  8
0
100
AcDbCircle
 62
7
  6
CONTINUOUS
 10
131.1031054816
 20
171.6536751371
 40
1.0
100
AcDbArc
 50
272.5454510516
 51
360.0
  0
ARC
  5
30E
100
AcDbEntity
  8
0
100
AcDbCircle
 62
7
  6
CONTINUOUS
 10
108.8531054816
 20
214.6487416635
 40
5.0
100
AcDbArc
 50
180.0
 51
267.4545489484
  0
ARC
  5
30F
100
AcDbEntity
  8
0
100
AcDbCircle
 62
7
  6
CONTINUOUS
 10
126.1031054816
 20
242.3536751371
 40
5.0
100
AcDbArc
 50
270.0
 51
360.0
  0
ARC
  5
310
100
AcDbEntity
  8
0
100
AcDbCircle
 62
7
  6
CONTINUOUS
 10
108.8531054816
 20
232.3536751371
 40
5.0
100
AcDbArc
 50
90.0
 51
180.0
  0
ARC
  5
311
100
AcDbEntity
  8
0
100
AcDbCircle
 62
7
  6
CONTINUOUS
 10
131.1031054816
 20
207.6536751371
 40
1.0
100
AcDbArc
 50
0.0
 51
87.4545489484
  0
ARC
  5
312
100
AcDbEntity
  8
0
100
AcDbCircle
 62
7
  6
CONTINUOUS
 10
122.3537146546
 20
241.9948102044
 40
1.0
100
AcDbArc
 50
275.0
 51
358.0
  0
ENDSEC
  0
SECTION
  2
OBJECTS
  0
DICTIONARY
  5
313
100
AcDbDictionary
  3
ACAD_GROUP
350
314
  3
ACAD_MLINESTYLE
350
315
  0
DICTIONARY
  5
314
102
{ACAD_REACTORS
330
313
102
}
100
AcDbDictionary
  0
DICTIONARY
  5
315
102
{ACAD_REACTORS
330
313
102
}
100
AcDbDictionary
  3
STANDARD
350
316
  0
MLINESTYLE
  5
316
102
{ACAD_REACTORS
330
315
102
}
100
AcDbMlineStyle
  2
STANDARD
 70
0
  3

 62
256
 51
90.0
 52
90.0
 71
2
 49
0.5
 62
256
  6
BYLAYER
 49
-0.5
 62
256
  6
BYLAYER
  0
ENDSEC
  0
EOF
