999
DXF file: nxt820t21r40.dxf
999
Pro/ENGINEER 2005310 by Parametric Technology Corporation
0
SECTION
2
HEADER
9
$ACADVER
1
AC1015
9
$DWGCODEPAGE
3
ANSI_1252
9
$EXTMAX
10
210.0000000000
20
297.0000000000
30
0.0000000000
9
$EXTMIN
10
0.0000000000
20
0.0000000000
30
0.0000000000
9
$LIMMIN
10
0.0000000000
20
0.0000000000
9
$LIMMAX
10
210.0000000000
20
297.0000000000
9
$VIEWCTR
10
105.0000000000
20
148.5000000000
9
$VIEWSIZE
40
297.0000000000
9
$CLAYER
8
0
9
$LTSCALE
40
19.3600000000
9
$CELTYPE
6
BYLAYER
9
$DIMSCALE
40
1
9
$DIMASZ
40
3.5000000000
9
$DIMEXO
40
2.2000000000
9
$DIMDLI
40
13.3760000000
9
$DIMEXE
40
6.3360000000
9
$DIMCEN
40
3.1680000000
9
$DIMLFAC
40
1.0000000000
9
$DIMBLK
1
_FILLED
9
$DIMTXT
40
3.5000000000
9
$DIMTOL
70
1
9
$DIMLIM
70
0
9
$DIMTFAC
40
1.0000000000
9
$DIMTP
40
0.0010000000
9
$DIMTM
40
0.0010000000
9
$PDMODE
70
3
9
$PDSIZE
40
0.3125000000
9
$HANDSEED
5
2FF
9
$MEASUREMENT
70
1
9
$INSUNITS
70
4
0
ENDSEC
0
SECTION
2
CLASSES
0
CLASS
1
ACDBDICTIONARYWDFLT
2
AcDbDictionaryWithDefault
3
AutoCAD 2000
90
0
280
0
281
0
0
CLASS
1
ACDBPLACEHOLDER
2
AcDbPlaceHolder
3
AutoCAD 2000
90
0
280
0
281
0
0
CLASS
1
LAYOUT
2
AcDbLayout
3
AutoCAD 2000
90
0
280
0
281
0
0
ENDSEC
0
SECTION
2
TABLES
0
TABLE
2
VPORT
5
8
100
AcDbSymbolTable
70
2
0
VPORT
5
1F4
100
AcDbSymbolTableRecord
100
AcDbViewportTableRecord
2
*ACTIVE
70
0
10
0.0
20
0.0
11
1.0
21
1.0
12
105.0000000000
22
148.5000000000
13
0.0
23
0.0
14
1.0
24
1.0
15
0.0
25
0.0
16
0.0
26
0.0
36
1.0
17
0.0
27
0.0
37
0.0
40
297.0000000000
41
0.7070707071
42
50.0
43
0.0
44
0.0
50
0.0
51
0.0
71
0
72
100
73
1
74
1
75
0
76
0
77
0
78
0
0
ENDTAB
0
TABLE
2
LTYPE
5
5
100
AcDbSymbolTable
70
6
0
LTYPE
5
14
100
AcDbSymbolTableRecord
100
AcDbLinetypeTableRecord
2
BYBLOCK
70
0
3

72
65
73
0
40
0.0
0
LTYPE
5
15
100
AcDbSymbolTableRecord
100
AcDbLinetypeTableRecord
2
BYLAYER
70
0
3

72
65
73
0
40
0.0
0
LTYPE
5
16
100
AcDbSymbolTableRecord
100
AcDbLinetypeTableRecord
2
CONTINUOUS
70
64
3
Solid line
72
65
73
0
40
0
0
LTYPE
5
1F5
100
AcDbSymbolTableRecord
100
AcDbLinetypeTableRecord
2
CENTER
70
64
3
____ _ ____ _ ____ _ ____ _ ____ _ ____ _ ____
72
65
73
4
40
0.6
49
0.375
74
0
49
-0.075
74
0
49
0.075
74
0
49
-0.075
74
0
0
LTYPE
5
1F6
100
AcDbSymbolTableRecord
100
AcDbLinetypeTableRecord
2
HIDDEN
70
64
3
- - - - - - - - - - - - - - - - - - - -
72
65
73
2
40
0.2
49
0.1
74
0
49
-0.1
74
0
0
LTYPE
5
1F7
100
AcDbSymbolTableRecord
100
AcDbLinetypeTableRecord
2
PHANTOM
70
64
3
_____ _ _ _____ _ _ _____ _ _ _____
72
65
73
6
40
0.8
49
0.45
74
0
49
-0.05
74
0
49
0.1
74
0
49
-0.05
74
0
49
0.1
74
0
49
-0.05
74
0
0
LTYPE
5
1F8
100
AcDbSymbolTableRecord
100
AcDbLinetypeTableRecord
2
DOT
70
64
3
. . . . . . . . . . . . . . . . . . . .
72
65
73
2
40
0.2
49
0.1
74
0
49
-0.1
74
0
0
LTYPE
5
1F9
100
AcDbSymbolTableRecord
100
AcDbLinetypeTableRecord
2
DASHED
70
64
3
- - - - - - - - - - - - - - - - - - - -
72
65
73
2
40
0.2
49
0.1
74
0
49
-0.1
74
0
0
ENDTAB
0
TABLE
2
LAYER
5
2
100
AcDbSymbolTable
70
36
0
LAYER
5
10
100
AcDbSymbolTableRecord
100
AcDbLayerTableRecord
2
0
70
0
62
7
6
CONTINUOUS
370
-3
390
F
0
LAYER
5
1FA
100
AcDbSymbolTableRecord
100
AcDbLayerTableRecord
2
DEFAULT_1
70
0
62
7
6
CENTER
370
-3
390
F
0
LAYER
5
1FB
100
AcDbSymbolTableRecord
100
AcDbLayerTableRecord
2
DEFAULT_2
70
0
62
8
6
HIDDEN
370
-3
390
F
0
LAYER
5
1FC
100
AcDbSymbolTableRecord
100
AcDbLayerTableRecord
2
DEFAULT_3
70
0
62
7
6
PHANTOM
370
-3
390
F
0
LAYER
5
1FD
100
AcDbSymbolTableRecord
100
AcDbLayerTableRecord
2
_2D_DELETED_OBJS
70
0
62
7
6
CONTINUOUS
370
-3
390
F
0
LAYER
5
1FE
100
AcDbSymbolTableRecord
100
AcDbLayerTableRecord
2
ASSI
70
0
62
7
6
CONTINUOUS
370
-3
390
F
0
LAYER
5
1FF
100
AcDbSymbolTableRecord
100
AcDbLayerTableRecord
2
PIANI
70
0
62
7
6
CONTINUOUS
370
-3
390
F
0
LAYER
5
200
100
AcDbSymbolTableRecord
100
AcDbLayerTableRecord
2
PUNTI
70
0
62
7
6
CONTINUOUS
370
-3
390
F
0
ENDTAB
0
TABLE
2
STYLE
5
3
100
AcDbSymbolTable
70
1
0
STYLE
5
11
100
AcDbSymbolTableRecord
100
AcDbTextStyleTableRecord
2
STANDARD
70
0
40
0.0
41
0.7143000000
50
0.0
71
0
42
0.2
3
txt
4

0
ENDTAB
0
TABLE
2
VIEW
5
6
100
AcDbSymbolTable
70
0
0
ENDTAB
0
TABLE
2
UCS
5
7
100
AcDbSymbolTable
70
0
0
ENDTAB
0
TABLE
2
APPID
5
9
100
AcDbSymbolTable
70
1
0
APPID
5
201
100
AcDbSymbolTableRecord
100
AcDbRegAppTableRecord
2
ACAD
70
0
0
ENDTAB
0
TABLE
2
BLOCK_RECORD
5
1
100
AcDbSymbolTable
70
0
0
BLOCK_RECORD
5
1F
100
AcDbSymbolTableRecord
100
AcDbBlockTableRecord
2
*MODEL_SPACE
0
BLOCK_RECORD
5
1B
100
AcDbSymbolTableRecord
100
AcDbBlockTableRecord
2
*PAPER_SPACE
0
BLOCK_RECORD
5
202
100
AcDbSymbolTableRecord
100
AcDbBlockTableRecord
2
_FILLED
0
BLOCK_RECORD
5
203
100
AcDbSymbolTableRecord
100
AcDbBlockTableRecord
2
*D0
0
BLOCK_RECORD
5
204
100
AcDbSymbolTableRecord
100
AcDbBlockTableRecord
2
*D1
0
BLOCK_RECORD
5
205
100
AcDbSymbolTableRecord
100
AcDbBlockTableRecord
2
*D2
0
BLOCK_RECORD
5
206
100
AcDbSymbolTableRecord
100
AcDbBlockTableRecord
2
*D3
0
BLOCK_RECORD
5
207
100
AcDbSymbolTableRecord
100
AcDbBlockTableRecord
2
*D4
0
BLOCK_RECORD
5
208
100
AcDbSymbolTableRecord
100
AcDbBlockTableRecord
2
*D5
0
ENDTAB
0
TABLE
2
DIMSTYLE
5
A
100
AcDbSymbolTable
70
1
100
AcDbDimStyleTable
71
0
0
DIMSTYLE
105
209
100
AcDbSymbolTableRecord
100
AcDbDimStyleTableRecord
2
STANDARD
70
0
3

4

40
1.0
41
3.5000000000
42
0.0625
43
0.38
44
0.18
45
0.0
46
0.0
47
0.0010000000
48
0.0010000000
140
3.5000000000
141
0.09
142
0.0
143
25.4
144
1.0000000000
145
0.0
146
1.0000000000
147
0.09
71
1
72
0
73
0
74
0
75
0
76
0
77
1
78
8
170
0
171
2
172
0
173
0
174
0
175
0
176
0
177
0
178
0
270
2
271
3
272
3
273
2
274
2
275
0
280
0
281
0
282
0
283
1
284
8
285
0
286
0
287
3
288
0
340
11
341
202
342
202
343
202
344
202
0
DIMSTYLE
105
20A
100
AcDbSymbolTableRecord
100
AcDbDimStyleTableRecord
2
DIMSTYLE_1
70
0
3

4

40
1.0
41
3.5000000000
42
0.0625
43
0.38
44
0.18
45
0.0
46
0.0
47
0.1500000000
48
0.1500000000
140
3.5000000000
141
0.09
142
0.0
143
25.4
144
1.0000000000
145
0.0
146
1.0000000000
147
0.09
71
0
72
0
73
0
74
0
75
0
76
0
77
1
78
8
170
0
171
2
172
0
173
0
174
0
175
0
176
0
177
0
178
0
270
2
271
2
272
2
273
2
274
2
275
0
280
0
281
0
282
0
283
1
284
8
285
0
286
0
287
3
288
0
340
11
341
202
342
202
343
202
344
202
0
DIMSTYLE
105
20B
100
AcDbSymbolTableRecord
100
AcDbDimStyleTableRecord
2
DIMSTYLE_2
70
0
3

4

40
1.0
41
3.5000000000
42
0.0625
43
0.38
44
0.18
45
0.0
46
0.0
47
0.2000000000
48
0.2000000000
140
3.5000000000
141
0.09
142
0.0
143
25.4
144
1.0000000000
145
0.0
146
1.0000000000
147
0.09
71
0
72
0
73
0
74
0
75
0
76
0
77
1
78
8
170
0
171
2
172
0
173
0
174
0
175
0
176
0
177
0
178
0
270
2
271
2
272
2
273
2
274
2
275
0
280
0
281
0
282
0
283
1
284
8
285
0
286
0
287
3
288
0
340
11
341
202
342
202
343
202
344
202
0
ENDTAB
0
ENDSEC
0
SECTION
2
BLOCKS
0
BLOCK
5
20
100
AcDbEntity
8
0
100
AcDbBlockBegin
2
*MODEL_SPACE
70
0
10
0.0
20
0.0
30
0.0
3
*MODEL_SPACE
1

0
ENDBLK
5
21
100
AcDbEntity
8
0
100
AcDbBlockEnd
0
BLOCK
5
1C
100
AcDbEntity
8
0
100
AcDbBlockBegin
2
*PAPER_SPACE
70
0
10
0.0
20
0.0
30
0.0
3
*PAPER_SPACE
1

0
ENDBLK
5
1D
100
AcDbEntity
8
0
100
AcDbBlockEnd
0
BLOCK
5
20C
100
AcDbEntity
8
0
100
AcDbBlockBegin
62
2
6
CONTINUOUS
2
*D0
70
65
10
0.0000000000
20
0.0000000000
3
*D0
1

0
TEXT
5
20D
100
AcDbEntity
8
0
100
AcDbText
62
2
6
CONTINUOUS
10
126.8843382118
20
185.5785839265
7
STANDARD
40
3.5000000000
1
%%c
50
90.0000000000
41
1.3333333333
72
0
100
AcDbText
0
TEXT
5
20E
100
AcDbEntity
8
0
100
AcDbText
62
2
6
CONTINUOUS
10
126.8843382118
20
190.2452505931
7
STANDARD
40
3.5000000000
1
40
50
90.0000000000
41
0.7143000000
72
0
100
AcDbText
0
LINE
5
20F
100
AcDbEntity
8
0
100
AcDbLine
62
2
6
CONTINUOUS
10
116.7113402062
20
172.1702077555
11
129.2593382118
21
172.1702077555
0
LINE
5
210
100
AcDbEntity
8
0
100
AcDbLine
62
2
6
CONTINUOUS
10
116.0515463918
20
212.1702077555
11
129.2593382118
21
212.1702077555
0
LINE
5
211
100
AcDbEntity
8
0
100
AcDbLine
62
2
6
CONTINUOUS
10
127.7593382118
20
172.1702077555
11
127.7593382118
21
192.1702077555
0
LINE
5
212
100
AcDbEntity
8
0
100
AcDbLine
62
2
6
CONTINUOUS
10
127.7593382118
20
212.1702077555
11
127.7593382118
21
192.1702077555
0
INSERT
5
213
100
AcDbEntity
8
0
100
AcDbBlockReference
62
2
6
CONTINUOUS
2
_FILLED
10
127.7593382118
20
172.1702077555
41
  3.500000
42
  3.500000
43
  3.500000
50
270.000000
0
INSERT
5
214
100
AcDbEntity
8
0
100
AcDbBlockReference
62
2
6
CONTINUOUS
2
_FILLED
10
127.7593382118
20
212.1702077555
41
  3.500000
42
  3.500000
43
  3.500000
50
 90.000000
0
ENDBLK
5
215
100
AcDbEntity
8
0
6
BYBLOCK
62
0
100
AcDbBlockEnd
0
BLOCK
5
216
100
AcDbEntity
8
0
100
AcDbBlockBegin
62
2
6
CONTINUOUS
2
*D1
70
65
10
0.0000000000
20
0.0000000000
3
*D1
1

0
TEXT
5
217
100
AcDbEntity
8
0
100
AcDbText
62
2
6
CONTINUOUS
10
81.2378630468
20
112.5928694411
7
STANDARD
40
3.5000000000
1
61.5
41
0.7143000000
72
0
100
AcDbText
0
LINE
5
218
100
AcDbEntity
8
0
100
AcDbLine
62
2
6
CONTINUOUS
10
55.1893431938
20
168.7886597938
11
55.1893431938
21
110.2178694411
0
LINE
5
219
100
AcDbEntity
8
0
100
AcDbLine
62
2
6
CONTINUOUS
10
116.6893431938
20
170.1082474227
11
116.6893431938
21
110.2178694411
0
LINE
5
21A
100
AcDbEntity
8
0
100
AcDbLine
62
2
6
CONTINUOUS
10
55.1893431938
20
111.7178694411
11
85.9393431938
21
111.7178694411
0
LINE
5
21B
100
AcDbEntity
8
0
100
AcDbLine
62
2
6
CONTINUOUS
10
116.6893431938
20
111.7178694411
11
85.9393431938
21
111.7178694411
0
INSERT
5
21C
100
AcDbEntity
8
0
100
AcDbBlockReference
62
2
6
CONTINUOUS
2
_FILLED
10
55.1893431938
20
111.7178694411
41
  3.500000
42
  3.500000
43
  3.500000
50
180.000000
0
INSERT
5
21D
100
AcDbEntity
8
0
100
AcDbBlockReference
62
2
6
CONTINUOUS
2
_FILLED
10
116.6893431938
20
111.7178694411
41
  3.500000
42
  3.500000
43
  3.500000
0
ENDBLK
5
21E
100
AcDbEntity
8
0
6
BYBLOCK
62
0
100
AcDbBlockEnd
0
BLOCK
5
21F
100
AcDbEntity
8
0
100
AcDbBlockBegin
62
2
6
CONTINUOUS
2
*D2
70
65
10
0.0000000000
20
0.0000000000
3
*D2
1

0
TEXT
5
220
100
AcDbEntity
8
0
100
AcDbText
62
2
6
CONTINUOUS
10
154.3278965489
20
185.3386415842
7
STANDARD
40
3.5000000000
1
%%c
50
90.0000000000
41
1.3333333333
72
0
100
AcDbText
0
TEXT
5
221
100
AcDbEntity
8
0
100
AcDbText
62
2
6
CONTINUOUS
10
154.3278965489
20
190.0053082509
7
STANDARD
40
3.5000000000
1
129
50
90.0000000000
41
0.7143000000
72
0
100
AcDbText
0
LINE
5
222
100
AcDbEntity
8
0
100
AcDbLine
62
2
6
CONTINUOUS
10
60.9725362537
20
127.6702077555
11
156.7028965489
21
127.6702077555
0
LINE
5
223
100
AcDbEntity
8
0
100
AcDbLine
62
2
6
CONTINUOUS
10
57.4537358476
20
256.6702077555
11
156.7028965489
21
256.6702077555
0
LINE
5
224
100
AcDbEntity
8
0
100
AcDbLine
62
2
6
CONTINUOUS
10
155.2028965489
20
127.6702077555
11
155.2028965489
21
192.1702077555
0
LINE
5
225
100
AcDbEntity
8
0
100
AcDbLine
62
2
6
CONTINUOUS
10
155.2028965489
20
256.6702077555
11
155.2028965489
21
192.1702077555
0
INSERT
5
226
100
AcDbEntity
8
0
100
AcDbBlockReference
62
2
6
CONTINUOUS
2
_FILLED
10
155.2028965489
20
127.6702077555
41
  3.500000
42
  3.500000
43
  3.500000
50
270.000000
0
INSERT
5
227
100
AcDbEntity
8
0
100
AcDbBlockReference
62
2
6
CONTINUOUS
2
_FILLED
10
155.2028965489
20
256.6702077555
41
  3.500000
42
  3.500000
43
  3.500000
50
 90.000000
0
ENDBLK
5
228
100
AcDbEntity
8
0
6
BYBLOCK
62
0
100
AcDbBlockEnd
0
BLOCK
5
229
100
AcDbEntity
8
0
100
AcDbBlockBegin
62
2
6
CONTINUOUS
2
*D3
70
65
10
0.0000000000
20
0.0000000000
3
*D3
1

0
TEXT
5
22A
100
AcDbEntity
8
0
100
AcDbText
62
2
6
CONTINUOUS
10
141.1345657194
20
186.9657025538
7
STANDARD
40
3.5000000000
1
%%c
50
90.0000000000
41
1.3333333333
72
0
100
AcDbText
0
TEXT
5
22B
100
AcDbEntity
8
0
100
AcDbText
62
2
6
CONTINUOUS
10
141.1345657194
20
191.6323692205
7
STANDARD
40
3.5000000000
1
50
50
90.0000000000
41
0.7143000000
72
0
100
AcDbText
0
LINE
5
22C
100
AcDbEntity
8
0
100
AcDbLine
62
2
6
CONTINUOUS
10
68.7511174112
20
167.1702077555
11
143.5095657194
21
167.1702077555
0
LINE
5
22D
100
AcDbEntity
8
0
100
AcDbLine
62
2
6
CONTINUOUS
10
68.9270574315
20
217.1702077555
11
143.5095657194
21
217.1702077555
0
LINE
5
22E
100
AcDbEntity
8
0
100
AcDbLine
62
2
6
CONTINUOUS
10
142.0095657194
20
167.1702077555
11
142.0095657194
21
192.1702077555
0
LINE
5
22F
100
AcDbEntity
8
0
100
AcDbLine
62
2
6
CONTINUOUS
10
142.0095657194
20
217.1702077555
11
142.0095657194
21
192.1702077555
0
INSERT
5
230
100
AcDbEntity
8
0
100
AcDbBlockReference
62
2
6
CONTINUOUS
2
_FILLED
10
142.0095657194
20
167.1702077555
41
  3.500000
42
  3.500000
43
  3.500000
50
270.000000
0
INSERT
5
231
100
AcDbEntity
8
0
100
AcDbBlockReference
62
2
6
CONTINUOUS
2
_FILLED
10
142.0095657194
20
217.1702077555
41
  3.500000
42
  3.500000
43
  3.500000
50
 90.000000
0
ENDBLK
5
232
100
AcDbEntity
8
0
6
BYBLOCK
62
0
100
AcDbBlockEnd
0
BLOCK
5
233
100
AcDbEntity
8
0
100
AcDbBlockBegin
62
2
6
CONTINUOUS
2
*D4
70
65
10
0.0000000000
20
0.0000000000
3
*D4
1

0
TEXT
5
234
100
AcDbEntity
8
0
100
AcDbText
62
2
6
CONTINUOUS
10
84.5894649251
20
265.0224618691
7
STANDARD
40
3.5000000000
1
44
41
0.7143000000
72
0
100
AcDbText
0
LINE
5
235
100
AcDbEntity
8
0
100
AcDbLine
62
2
6
CONTINUOUS
10
107.9393431938
20
240.0463917526
11
107.9393431938
21
265.6474618691
0
LINE
5
236
100
AcDbEntity
8
0
100
AcDbLine
62
2
6
CONTINUOUS
10
63.9393431938
20
240.0463917526
11
63.9393431938
21
265.6474618691
0
LINE
5
237
100
AcDbEntity
8
0
100
AcDbLine
62
2
6
CONTINUOUS
10
107.9393431938
20
264.1474618691
11
85.9393431938
21
264.1474618691
0
LINE
5
238
100
AcDbEntity
8
0
100
AcDbLine
62
2
6
CONTINUOUS
10
63.9393431938
20
264.1474618691
11
85.9393431938
21
264.1474618691
0
INSERT
5
239
100
AcDbEntity
8
0
100
AcDbBlockReference
62
2
6
CONTINUOUS
2
_FILLED
10
107.9393431938
20
264.1474618691
41
  3.500000
42
  3.500000
43
  3.500000
0
INSERT
5
23A
100
AcDbEntity
8
0
100
AcDbBlockReference
62
2
6
CONTINUOUS
2
_FILLED
10
63.9393431938
20
264.1474618691
41
  3.500000
42
  3.500000
43
  3.500000
50
180.000000
0
ENDBLK
5
23B
100
AcDbEntity
8
0
6
BYBLOCK
62
0
100
AcDbBlockEnd
0
BLOCK
5
23C
100
AcDbEntity
8
0
100
AcDbBlockBegin
62
2
6
CONTINUOUS
2
*D5
70
65
10
0.0000000000
20
0.0000000000
3
*D5
1

0
TEXT
5
23D
100
AcDbEntity
8
0
100
AcDbText
62
2
6
CONTINUOUS
10
80.2540780866
20
275.3686105555
7
STANDARD
40
3.5000000000
1
59.5
41
0.7143000000
72
0
100
AcDbText
0
LINE
5
23E
100
AcDbEntity
8
0
100
AcDbLine
62
2
6
CONTINUOUS
10
56.1893431938
20
257.1702077555
11
56.1893431938
21
275.9936105555
0
LINE
5
23F
100
AcDbEntity
8
0
100
AcDbLine
62
2
6
CONTINUOUS
10
115.6893431938
20
257.1702077555
11
115.6893431938
21
275.9936105555
0
LINE
5
240
100
AcDbEntity
8
0
100
AcDbLine
62
2
6
CONTINUOUS
10
56.1893431938
20
274.4936105555
11
85.9393431938
21
274.4936105555
0
LINE
5
241
100
AcDbEntity
8
0
100
AcDbLine
62
2
6
CONTINUOUS
10
115.6893431938
20
274.4936105555
11
85.9393431938
21
274.4936105555
0
INSERT
5
242
100
AcDbEntity
8
0
100
AcDbBlockReference
62
2
6
CONTINUOUS
2
_FILLED
10
56.1893431938
20
274.4936105555
41
  3.500000
42
  3.500000
43
  3.500000
50
180.000000
0
INSERT
5
243
100
AcDbEntity
8
0
100
AcDbBlockReference
62
2
6
CONTINUOUS
2
_FILLED
10
115.6893431938
20
274.4936105555
41
  3.500000
42
  3.500000
43
  3.500000
0
ENDBLK
5
244
100
AcDbEntity
8
0
6
BYBLOCK
62
0
100
AcDbBlockEnd
0
BLOCK
5
245
100
AcDbEntity
8
0
100
AcDbBlockBegin
2
_FILLED
70
64
10
0.0000000000
20
0.0000000000
3
_FILLED
1

0
SOLID
5
246
100
AcDbEntity
8
0
6
BYBLOCK
62
0
100
AcDbTrace
10
0.0000000000
20
0.0000000000
11
-1.0000000000
21
0.1857142857
12
-1.0000000000
22
-0.1857142857
13
-1.0000000000
23
-0.1857142857
0
ENDBLK
5
247
100
AcDbEntity
8
0
6
BYBLOCK
62
0
100
AcDbBlockEnd
0
ENDSEC
0
SECTION
2
ENTITIES
0
DIMENSION
5
248
100
AcDbEntity
8
0
100
AcDbDimension
62
2
6
CONTINUOUS
2
*D0
10
127.7593382118
20
212.1702077555
11
125.1343382118
21
190.4119672598
70
160
42
40.000000
1
%%c<>
3
DIMSTYLE_1
100
AcDbAlignedDimension
13
116.7113402062
23
172.1702077555
14
116.0515463918
24
212.1702077555
50
90.000000
100
AcDbRotatedDimension
0
DIMENSION
5
249
100
AcDbEntity
8
0
100
AcDbDimension
62
2
6
CONTINUOUS
2
*D1
10
116.6893431938
20
111.7178694411
11
86.2379630468
21
114.3428694411
70
160
42
61.500000
3
DIMSTYLE_1
100
AcDbAlignedDimension
13
55.1893431938
23
168.7886597938
14
116.6893431938
24
170.1082474227
100
AcDbRotatedDimension
0
DIMENSION
5
24A
100
AcDbEntity
8
0
100
AcDbDimension
62
2
6
CONTINUOUS
2
*D2
10
155.2028965489
20
256.6702077555
11
152.5778965489
21
191.4220499175
70
160
42
129.000000
1
%%c<>
3
DIMSTYLE_2
100
AcDbAlignedDimension
13
60.9725362537
23
127.6702077555
14
57.4537358476
24
256.6702077555
50
90.000000
100
AcDbRotatedDimension
0
DIMENSION
5
24B
100
AcDbEntity
8
0
100
AcDbDimension
62
2
6
CONTINUOUS
2
*D3
10
142.0095657194
20
217.1702077555
11
139.3845657194
21
191.7990858872
70
160
42
50.000000
1
%%c<>
3
DIMSTYLE_1
100
AcDbAlignedDimension
13
68.7511174112
23
167.1702077555
14
68.9270574315
24
217.1702077555
50
90.000000
100
AcDbRotatedDimension
0
DIMENSION
5
24C
100
AcDbEntity
8
0
100
AcDbDimension
62
2
6
CONTINUOUS
2
*D4
10
63.9393431938
20
264.1474618691
11
87.0895149251
21
266.7724618691
70
160
42
44.000000
3
DIMSTYLE_1
100
AcDbAlignedDimension
13
107.9393431938
23
240.0463917526
14
63.9393431938
24
240.0463917526
50
180.000000
100
AcDbRotatedDimension
0
DIMENSION
5
24D
100
AcDbEntity
8
0
100
AcDbDimension
62
2
6
CONTINUOUS
2
*D5
10
115.6893431938
20
274.4936105555
11
85.2541780866
21
277.1186105555
70
160
42
59.500000
3
DIMSTYLE_1
100
AcDbAlignedDimension
13
56.1893431938
23
257.1702077555
14
115.6893431938
24
257.1702077555
100
AcDbRotatedDimension
0
MTEXT
5
24E
100
AcDbEntity
8
0
100
AcDbMText
62
2
6
CONTINUOUS
7
STANDARD
71
1
72
1
10
75.7125390701
20
102.1475273431
30
0.0000000000
11
1.0000000000
21
0.0000000000
31
0.0000000000
1
SEZIONE A-A
40
3.5000000000
41
27.5005500000
0
LINE
5
24F
100
AcDbEntity
8
0
100
AcDbLine
62
2
6
CONTINUOUS
10
56.1893431938
20
254.6578979888
11
58.2016529606
21
256.6702077555
0
LINE
5
250
100
AcDbEntity
8
0
100
AcDbLine
62
2
6
CONTINUOUS
10
56.1893431938
20
251.8294708640
11
61.0300800853
21
256.6702077555
0
LINE
5
251
100
AcDbEntity
8
0
100
AcDbLine
62
7
6
CONTINUOUS
10
56.1893431938
20
127.6702077555
11
63.3793431938
21
127.6702077555
0
LINE
5
252
100
AcDbEntity
8
0
100
AcDbLine
62
7
6
CONTINUOUS
10
108.4993431938
20
127.6702077555
11
115.6893431938
21
127.6702077555
0
LINE
5
253
100
AcDbEntity
8
0
100
AcDbLine
62
2
6
CONTINUOUS
10
56.1893431938
20
249.0010437393
11
63.3955113650
21
256.2072119104
0
LINE
5
254
100
AcDbEntity
8
0
100
AcDbLine
62
2
6
CONTINUOUS
10
56.1893431938
20
246.1726166145
11
63.4909494455
21
253.4742228661
0
LINE
5
255
100
AcDbEntity
8
0
100
AcDbLine
62
2
6
CONTINUOUS
10
56.1893431938
20
243.3441894898
11
63.5863875259
21
250.7412338218
0
LINE
5
256
100
AcDbEntity
8
0
100
AcDbLine
62
2
6
CONTINUOUS
10
56.1990316250
20
240.5254507962
11
63.6818256063
21
248.0082447775
0
LINE
5
257
100
AcDbEntity
8
0
100
AcDbLine
62
2
6
CONTINUOUS
10
56.7975421045
20
238.2955341510
11
63.7772636868
21
245.2752557332
0
LINE
5
258
100
AcDbEntity
8
0
100
AcDbLine
62
2
6
CONTINUOUS
10
58.0863870582
20
236.7559519799
11
63.8727017672
21
242.5422666889
0
LINE
5
259
100
AcDbEntity
8
0
100
AcDbLine
62
2
6
CONTINUOUS
10
59.9821753409
20
235.8233131378
11
64.1817222526
21
240.0228600496
0
LINE
5
25A
100
AcDbEntity
8
0
100
AcDbLine
62
2
6
CONTINUOUS
10
62.6574970833
20
235.6702077555
11
66.6574970833
21
239.6702077555
0
LINE
5
25B
100
AcDbEntity
8
0
100
AcDbLine
62
7
6
CONTINUOUS
10
64.9387674511
20
144.6702077555
11
106.8870116743
21
144.6702077555
0
LINE
5
25C
100
AcDbEntity
8
0
100
AcDbLine
62
2
6
CONTINUOUS
10
65.4859242080
20
235.6702077555
11
69.4859242080
21
239.6702077555
0
LINE
5
25D
100
AcDbEntity
8
0
100
AcDbLine
62
2
6
CONTINUOUS
10
68.3143513328
20
235.6702077555
11
72.3143513328
21
239.6702077555
0
LINE
5
25E
100
AcDbEntity
8
0
100
AcDbLine
62
7
6
CONTINUOUS
10
61.1893431938
20
148.6702077555
11
78.4393431938
21
148.6702077555
0
LINE
5
25F
100
AcDbEntity
8
0
100
AcDbLine
62
7
6
CONTINUOUS
10
93.4393431938
20
148.6702077555
11
110.6893431938
21
148.6702077555
0
LINE
5
260
100
AcDbEntity
8
0
100
AcDbLine
62
2
6
CONTINUOUS
10
71.1427784575
20
235.6702077555
11
75.1427784575
21
239.6702077555
0
LINE
5
261
100
AcDbEntity
8
0
100
AcDbLine
62
2
6
CONTINUOUS
10
73.9712055823
20
235.6702077555
11
77.9712055823
21
239.6702077555
0
LINE
5
262
100
AcDbEntity
8
0
100
AcDbLine
62
2
6
CONTINUOUS
10
55.1893431938
20
214.0599182423
11
57.3523214508
21
216.2228964992
0
LINE
5
263
100
AcDbEntity
8
0
100
AcDbLine
62
2
6
CONTINUOUS
10
76.7996327070
20
235.6702077555
11
80.7996327070
21
239.6702077555
0
LINE
5
264
100
AcDbEntity
8
0
100
AcDbLine
62
2
6
CONTINUOUS
10
56.1280598318
20
212.1702077555
11
60.3123383568
21
216.3544862806
0
LINE
5
265
100
AcDbEntity
8
0
100
AcDbLine
62
2
6
CONTINUOUS
10
79.5033825788
20
235.5455305025
11
83.6280598318
21
239.6702077555
0
LINE
5
266
100
AcDbEntity
8
0
100
AcDbLine
62
2
6
CONTINUOUS
10
58.9564869565
20
212.1702077555
11
63.2723552629
21
216.4860760619
0
LINE
5
267
100
AcDbEntity
8
0
100
AcDbLine
62
2
6
CONTINUOUS
10
81.4468771624
20
234.6605979614
11
86.4564869565
21
239.6702077555
0
LINE
5
268
100
AcDbEntity
8
0
100
AcDbLine
62
7
6
CONTINUOUS
10
55.1893431938
20
215.1702077555
11
55.1893431938
21
169.1702077555
0
LINE
5
269
100
AcDbEntity
8
0
100
AcDbLine
62
7
6
CONTINUOUS
10
56.1893431938
20
256.6702077555
11
56.1893431938
21
216.1692210608
0
LINE
5
26A
100
AcDbEntity
8
0
100
AcDbLine
62
7
6
CONTINUOUS
10
56.1893431938
20
168.1711944502
11
56.1893431938
21
127.6702077555
0
LINE
5
26B
100
AcDbEntity
8
0
100
AcDbLine
62
2
6
CONTINUOUS
10
61.7849140813
20
212.1702077555
11
66.2323721690
21
216.6176658432
0
LINE
5
26C
100
AcDbEntity
8
0
100
AcDbLine
62
2
6
CONTINUOUS
10
82.7745637093
20
233.1598573836
11
89.2849140813
21
239.6702077555
0
LINE
5
26D
100
AcDbEntity
8
0
100
AcDbLine
62
2
6
CONTINUOUS
10
64.6133412060
20
212.1702077555
11
69.1923890751
21
216.7492556246
0
LINE
5
26E
100
AcDbEntity
8
0
100
AcDbLine
62
2
6
CONTINUOUS
10
83.4188929374
20
230.9757594869
11
92.1133412060
21
239.6702077555
0
LINE
5
26F
100
AcDbEntity
8
0
100
AcDbLine
62
2
6
CONTINUOUS
10
108.4771260718
20
256.0339926213
11
109.1133412060
21
256.6702077555
0
LINE
5
270
100
AcDbEntity
8
0
100
AcDbLine
62
7
6
CONTINUOUS
10
61.1893431938
20
235.6702077555
11
61.1893431938
21
216.3934741912
0
LINE
5
271
100
AcDbEntity
8
0
100
AcDbLine
62
7
6
CONTINUOUS
10
61.1893431938
20
167.9469413198
11
61.1893431938
21
148.6702077555
0
LINE
5
272
100
AcDbEntity
8
0
100
AcDbLine
62
2
6
CONTINUOUS
10
67.4417683308
20
212.1702077555
11
72.1524059811
21
216.8808454059
0
LINE
5
273
100
AcDbEntity
8
0
100
AcDbLine
62
2
6
CONTINUOUS
10
83.4393431938
20
228.1677826186
11
94.9417683308
21
239.6702077555
0
LINE
5
274
100
AcDbEntity
8
0
100
AcDbLine
62
2
6
CONTINUOUS
10
108.3747812606
20
253.1032206853
11
111.9417683308
21
256.6702077555
0
LINE
5
275
100
AcDbEntity
8
0
100
AcDbLine
62
2
6
CONTINUOUS
10
70.2701954555
20
212.1702077555
11
75.1124228872
21
217.0124351872
0
LINE
5
276
100
AcDbEntity
8
0
100
AcDbLine
62
2
6
CONTINUOUS
10
83.4393431938
20
225.3393554938
11
88.4393431938
21
230.3393554938
0
LINE
5
277
100
AcDbEntity
8
0
100
AcDbLine
62
2
6
CONTINUOUS
10
93.7701954555
20
235.6702077555
11
97.7701954555
21
239.6702077555
0
LINE
5
278
100
AcDbEntity
8
0
100
AcDbLine
62
2
6
CONTINUOUS
10
108.2724364494
20
250.1724487494
11
114.7701954555
21
256.6702077555
0
LINE
5
279
100
AcDbEntity
8
0
100
AcDbLine
62
2
6
CONTINUOUS
10
73.0986225803
20
212.1702077555
11
78.0724397933
21
217.1440249685
0
LINE
5
27A
100
AcDbEntity
8
0
100
AcDbLine
62
2
6
CONTINUOUS
10
83.4393431938
20
222.5109283691
11
88.4393431938
21
227.5109283691
0
LINE
5
27B
100
AcDbEntity
8
0
100
AcDbLine
62
2
6
CONTINUOUS
10
96.5986225803
20
235.6702077555
11
100.5986225803
21
239.6702077555
0
LINE
5
27C
100
AcDbEntity
8
0
100
AcDbLine
62
2
6
CONTINUOUS
10
108.1700916382
20
247.2416768134
11
115.6893431938
21
254.7609283691
0
LINE
5
27D
100
AcDbEntity
8
0
100
AcDbLine
62
7
6
CONTINUOUS
10
93.2172837486
20
167.1702077555
11
115.7337550829
21
168.1711944502
0
LINE
5
27E
100
AcDbEntity
8
0
100
AcDbLine
62
7
6
CONTINUOUS
10
56.1449313048
20
168.1711944502
11
78.6614026390
21
167.1702077555
0
LINE
5
27F
100
AcDbEntity
8
0
100
AcDbLine
62
7
6
CONTINUOUS
10
63.3793431938
20
256.6702077555
11
63.9393431938
21
240.6339059171
0
LINE
5
280
100
AcDbEntity
8
0
100
AcDbLine
62
7
6
CONTINUOUS
10
63.3793431938
20
127.6702077555
11
63.9393431938
21
143.7065095940
0
LINE
5
281
100
AcDbEntity
8
0
100
AcDbLine
62
2
6
CONTINUOUS
10
75.9270497050
20
212.1702077555
11
88.4393431938
21
224.6825012443
0
LINE
5
282
100
AcDbEntity
8
0
100
AcDbLine
62
2
6
CONTINUOUS
10
99.4270497050
20
235.6702077555
11
103.4270497050
21
239.6702077555
0
LINE
5
283
100
AcDbEntity
8
0
100
AcDbLine
62
2
6
CONTINUOUS
10
108.0677468269
20
244.3109048775
11
115.6893431938
21
251.9325012443
0
LINE
5
284
100
AcDbEntity
8
0
100
AcDbLine
62
2
6
CONTINUOUS
10
78.7554768297
20
212.1702077555
11
88.4583247413
21
221.8730556671
0
LINE
5
285
100
AcDbEntity
8
0
100
AcDbLine
62
2
6
CONTINUOUS
10
102.2554768297
20
235.6702077555
11
106.2554768297
21
239.6702077555
0
LINE
5
286
100
AcDbEntity
8
0
100
AcDbLine
62
2
6
CONTINUOUS
10
107.9654020157
20
241.3801329415
11
115.6893431938
21
249.1040741196
0
LINE
5
287
100
AcDbEntity
8
0
100
AcDbLine
62
7
6
CONTINUOUS
10
55.1893431938
20
172.1702077555
11
116.6893431938
21
172.1702077555
0
LINE
5
288
100
AcDbEntity
8
0
100
AcDbLine
62
2
6
CONTINUOUS
10
81.5839039545
20
212.1702077555
11
89.1004012145
21
219.6867050155
0
LINE
5
289
100
AcDbEntity
8
0
100
AcDbLine
62
2
6
CONTINUOUS
10
105.0839039545
20
235.6702077555
11
115.6893431938
21
246.2756469948
0
LINE
5
28A
100
AcDbEntity
8
0
100
AcDbLine
62
2
6
CONTINUOUS
10
84.4123310792
20
212.1702077555
11
90.4268854512
21
218.1847621275
0
LINE
5
28B
100
AcDbEntity
8
0
100
AcDbLine
62
2
6
CONTINUOUS
10
107.9123310792
20
235.6702077555
11
115.6893431938
21
243.4472198701
0
LINE
5
28C
100
AcDbEntity
8
0
100
AcDbLine
62
2
6
CONTINUOUS
10
87.2407582040
20
212.1702077555
11
92.3627551323
21
217.2922046838
0
LINE
5
28D
100
AcDbEntity
8
0
100
AcDbLine
62
2
6
CONTINUOUS
10
110.7444461896
20
235.6738957411
11
115.6856552082
21
240.6151047597
0
LINE
5
28E
100
AcDbEntity
8
0
100
AcDbLine
62
2
6
CONTINUOUS
10
90.0691853287
20
212.1702077555
11
94.9903618080
21
217.0913842347
0
LINE
5
28F
100
AcDbEntity
8
0
100
AcDbLine
62
2
6
CONTINUOUS
10
92.8976124535
20
212.1702077555
11
97.6984010100
21
216.9709963120
0
LINE
5
290
100
AcDbEntity
8
0
100
AcDbLine
62
7
6
CONTINUOUS
10
78.4393431938
20
235.6702077555
11
78.4393431938
21
217.1603359356
0
LINE
5
291
100
AcDbEntity
8
0
100
AcDbLine
62
7
6
CONTINUOUS
10
78.4393431938
20
167.1800795754
11
78.4393431938
21
148.6702077555
0
LINE
5
292
100
AcDbEntity
8
0
100
AcDbLine
62
2
6
CONTINUOUS
10
55.1893431938
20
171.6335113711
11
55.7260395782
21
172.1702077555
0
LINE
5
293
100
AcDbEntity
8
0
100
AcDbLine
62
2
6
CONTINUOUS
10
95.7260395782
20
212.1702077555
11
100.4064402121
21
216.8506083894
0
LINE
5
294
100
AcDbEntity
8
0
100
AcDbLine
62
2
6
CONTINUOUS
10
55.2433075197
20
168.8590485722
11
58.5544667030
21
172.1702077555
0
LINE
5
295
100
AcDbEntity
8
0
100
AcDbLine
62
2
6
CONTINUOUS
10
98.5544667030
20
212.1702077555
11
103.1144794141
21
216.7302204667
0
LINE
5
296
100
AcDbEntity
8
0
100
AcDbLine
62
7
6
CONTINUOUS
10
83.4393431938
20
230.6702077555
11
83.4393431938
21
222.1652742819
0
LINE
5
297
100
AcDbEntity
8
0
100
AcDbLine
62
7
6
CONTINUOUS
10
83.4393431938
20
162.1751412291
11
83.4393431938
21
153.6702077555
0
LINE
5
298
100
AcDbEntity
8
0
100
AcDbLine
62
2
6
CONTINUOUS
10
57.3311464352
20
168.1184603630
11
61.3828938277
21
172.1702077555
0
LINE
5
299
100
AcDbEntity
8
0
100
AcDbLine
62
2
6
CONTINUOUS
10
101.3828938277
20
212.1702077555
11
105.8225186162
21
216.6098325440
0
LINE
5
29A
100
AcDbEntity
8
0
100
AcDbLine
62
2
6
CONTINUOUS
10
60.0391856373
20
167.9980724404
11
64.2113209525
21
172.1702077555
0
LINE
5
29B
100
AcDbEntity
8
0
100
AcDbLine
62
2
6
CONTINUOUS
10
104.2113209525
20
212.1702077555
11
108.5305578183
21
216.4894446213
0
LINE
5
29C
100
AcDbEntity
8
DEFAULT_1
100
AcDbLine
62
2
6
CENTER
10
119.6893431938
20
192.1702077555
11
52.1893431938
21
192.1702077555
0
LINE
5
29D
100
AcDbEntity
8
0
100
AcDbLine
62
7
6
CONTINUOUS
10
88.4393431938
20
230.6702077555
11
88.4393431938
21
222.1652742819
0
LINE
5
29E
100
AcDbEntity
8
0
100
AcDbLine
62
7
6
CONTINUOUS
10
88.4393431938
20
162.1751412291
11
88.4393431938
21
153.6702077555
0
LINE
5
29F
100
AcDbEntity
8
0
100
AcDbLine
62
2
6
CONTINUOUS
10
62.7472248394
20
167.8776845177
11
67.0397480772
21
172.1702077555
0
LINE
5
2A0
100
AcDbEntity
8
0
100
AcDbLine
62
2
6
CONTINUOUS
10
107.0397480772
20
212.1702077555
11
111.2385970203
21
216.3690566986
0
LINE
5
2A1
100
AcDbEntity
8
0
100
AcDbLine
62
2
6
CONTINUOUS
10
65.4552640414
20
167.7572965950
11
69.8681752020
21
172.1702077555
0
LINE
5
2A2
100
AcDbEntity
8
0
100
AcDbLine
62
2
6
CONTINUOUS
10
109.8681752020
20
212.1702077555
11
113.9466362224
21
216.2486687760
0
LINE
5
2A3
100
AcDbEntity
8
0
100
AcDbLine
62
2
6
CONTINUOUS
10
68.1633032435
20
167.6369086723
11
72.6966023267
21
172.1702077555
0
LINE
5
2A4
100
AcDbEntity
8
0
100
AcDbLine
62
2
6
CONTINUOUS
10
112.6966023267
20
212.1702077555
11
116.3989885528
21
215.8725939816
0
LINE
5
2A5
100
AcDbEntity
8
0
100
AcDbLine
62
7
6
CONTINUOUS
10
93.4393431938
20
235.6702077555
11
93.4393431938
21
217.1603359356
0
LINE
5
2A6
100
AcDbEntity
8
0
100
AcDbLine
62
7
6
CONTINUOUS
10
93.4393431938
20
167.1800795754
11
93.4393431938
21
148.6702077555
0
LINE
5
2A7
100
AcDbEntity
8
0
100
AcDbLine
62
2
6
CONTINUOUS
10
70.8713424456
20
167.5165207496
11
75.5250294514
21
172.1702077555
0
LINE
5
2A8
100
AcDbEntity
8
0
100
AcDbLine
62
2
6
CONTINUOUS
10
115.5250294514
20
212.1702077555
11
116.6893431938
21
213.3345214979
0
LINE
5
2A9
100
AcDbEntity
8
0
100
AcDbLine
62
2
6
CONTINUOUS
10
73.5793816476
20
167.3961328269
11
78.3534565762
21
172.1702077555
0
LINE
5
2AA
100
AcDbEntity
8
0
100
AcDbLine
62
2
6
CONTINUOUS
10
76.2874208497
20
167.2757449043
11
81.1818837009
21
172.1702077555
0
LINE
5
2AB
100
AcDbEntity
8
0
100
AcDbLine
62
2
6
CONTINUOUS
10
56.2494985082
20
144.4093954381
11
60.4501555113
21
148.6100524411
0
LINE
5
2AC
100
AcDbEntity
8
0
100
AcDbLine
62
2
6
CONTINUOUS
10
78.9758110187
20
167.1357079485
11
84.0103108257
21
172.1702077555
0
LINE
5
2AD
100
AcDbEntity
8
0
100
AcDbLine
62
2
6
CONTINUOUS
10
56.1893431938
20
141.5208129989
11
63.3387379504
21
148.6702077555
0
LINE
5
2AE
100
AcDbEntity
8
0
100
AcDbLine
62
2
6
CONTINUOUS
10
81.0848300195
20
166.4162998245
11
86.8387379504
21
172.1702077555
0
LINE
5
2AF
100
AcDbEntity
8
0
100
AcDbLine
62
2
6
CONTINUOUS
10
56.1893431938
20
138.6923858742
11
66.1671650752
21
148.6702077555
0
LINE
5
2B0
100
AcDbEntity
8
0
100
AcDbLine
62
2
6
CONTINUOUS
10
82.5320986115
20
165.0351412919
11
89.6671650752
21
172.1702077555
0
LINE
5
2B1
100
AcDbEntity
8
0
100
AcDbLine
62
2
6
CONTINUOUS
10
56.1893431938
20
135.8639587494
11
63.9359943012
21
143.6106098568
0
LINE
5
2B2
100
AcDbEntity
8
0
100
AcDbLine
62
2
6
CONTINUOUS
10
64.9955921999
20
144.6702077555
11
68.9955921999
21
148.6702077555
0
LINE
5
2B3
100
AcDbEntity
8
0
100
AcDbLine
62
2
6
CONTINUOUS
10
83.3560988114
20
163.0307143670
11
92.4955921999
21
172.1702077555
0
LINE
5
2B4
100
AcDbEntity
8
0
100
AcDbLine
62
7
6
CONTINUOUS
10
107.9393431938
20
143.7065095940
11
108.4993431938
21
127.6702077555
0
LINE
5
2B5
100
AcDbEntity
8
0
100
AcDbLine
62
7
6
CONTINUOUS
10
107.9393431938
20
240.6339059171
11
108.4993431938
21
256.6702077555
0
LINE
5
2B6
100
AcDbEntity
8
0
100
AcDbLine
62
2
6
CONTINUOUS
10
56.1893431938
20
133.0355316247
11
63.8336494900
21
140.6798379208
0
LINE
5
2B7
100
AcDbEntity
8
0
100
AcDbLine
62
2
6
CONTINUOUS
10
67.8240193247
20
144.6702077555
11
71.8240193247
21
148.6702077555
0
LINE
5
2B8
100
AcDbEntity
8
0
100
AcDbLine
62
2
6
CONTINUOUS
10
83.4393431938
20
160.2855316247
11
95.3240193247
21
172.1702077555
0
LINE
5
2B9
100
AcDbEntity
8
0
100
AcDbLine
62
2
6
CONTINUOUS
10
56.1893431938
20
130.2071044999
11
63.7313046788
21
137.7490659849
0
LINE
5
2BA
100
AcDbEntity
8
0
100
AcDbLine
62
2
6
CONTINUOUS
10
70.6524464494
20
144.6702077555
11
74.6524464494
21
148.6702077555
0
LINE
5
2BB
100
AcDbEntity
8
0
100
AcDbLine
62
2
6
CONTINUOUS
10
83.4393431938
20
157.4571044999
11
88.4589309432
21
162.4766922493
0
LINE
5
2BC
100
AcDbEntity
8
0
100
AcDbLine
62
2
6
CONTINUOUS
10
93.1444550032
20
167.1622163093
11
98.1524464494
21
172.1702077555
0
LINE
5
2BD
100
AcDbEntity
8
0
100
AcDbLine
62
7
6
CONTINUOUS
10
55.1893431938
20
212.1702077555
11
116.6893431938
21
212.1702077555
0
LINE
5
2BE
100
AcDbEntity
8
0
100
AcDbLine
62
7
6
CONTINUOUS
10
110.6893431938
20
235.6702077555
11
110.6893431938
21
216.3934741912
0
LINE
5
2BF
100
AcDbEntity
8
0
100
AcDbLine
62
7
6
CONTINUOUS
10
110.6893431938
20
167.9469413198
11
110.6893431938
21
148.6702077555
0
LINE
5
2C0
100
AcDbEntity
8
0
100
AcDbLine
62
2
6
CONTINUOUS
10
56.4808735742
20
127.6702077555
11
63.6289598676
21
134.8182940489
0
LINE
5
2C1
100
AcDbEntity
8
0
100
AcDbLine
62
2
6
CONTINUOUS
10
73.4808735742
20
144.6702077555
11
77.4808735742
21
148.6702077555
0
LINE
5
2C2
100
AcDbEntity
8
0
100
AcDbLine
62
2
6
CONTINUOUS
10
83.4393431938
20
154.6286773752
11
88.4393431938
21
159.6286773752
0
LINE
5
2C3
100
AcDbEntity
8
0
100
AcDbLine
62
2
6
CONTINUOUS
10
96.1094468641
20
167.2987810455
11
100.9808735742
21
172.1702077555
0
LINE
5
2C4
100
AcDbEntity
8
0
100
AcDbLine
62
2
6
CONTINUOUS
10
59.3093006989
20
127.6702077555
11
63.5266150564
21
131.8875221130
0
LINE
5
2C5
100
AcDbEntity
8
0
100
AcDbLine
62
2
6
CONTINUOUS
10
76.3093006989
20
144.6702077555
11
81.0598179697
21
149.4207250263
0
LINE
5
2C6
100
AcDbEntity
8
0
100
AcDbLine
62
2
6
CONTINUOUS
10
82.6888259230
20
151.0497329796
11
88.4393431938
21
156.8002502504
0
LINE
5
2C7
100
AcDbEntity
8
0
100
AcDbLine
62
2
6
CONTINUOUS
10
99.0694637702
20
167.4303708268
11
103.8093006989
21
172.1702077555
0
LINE
5
2C8
100
AcDbEntity
8
0
100
AcDbLine
62
2
6
CONTINUOUS
10
62.1377278237
20
127.6702077555
11
63.4242702452
21
128.9567501770
0
LINE
5
2C9
100
AcDbEntity
8
0
100
AcDbLine
62
2
6
CONTINUOUS
10
79.1377278237
20
144.6702077555
11
88.4393431938
21
153.9718231257
0
LINE
5
2CA
100
AcDbEntity
8
0
100
AcDbLine
62
2
6
CONTINUOUS
10
102.0294806763
20
167.5619606081
11
106.6377278237
21
172.1702077555
0
LINE
5
2CB
100
AcDbEntity
8
0
100
AcDbLine
62
7
6
CONTINUOUS
10
56.1449313048
20
216.1692210608
11
78.6614026390
21
217.1702077555
0
LINE
5
2CC
100
AcDbEntity
8
0
100
AcDbLine
62
7
6
CONTINUOUS
10
93.2172837486
20
217.1702077555
11
115.7337550829
21
216.1692210608
0
LINE
5
2CD
100
AcDbEntity
8
0
100
AcDbLine
62
7
6
CONTINUOUS
10
115.6893431938
20
256.6702077555
11
115.6893431938
21
216.1692210608
0
LINE
5
2CE
100
AcDbEntity
8
0
100
AcDbLine
62
7
6
CONTINUOUS
10
115.6893431938
20
168.1711944502
11
115.6893431938
21
127.6702077555
0
LINE
5
2CF
100
AcDbEntity
8
0
100
AcDbLine
62
7
6
CONTINUOUS
10
116.6893431938
20
215.1702077555
11
116.6893431938
21
169.1702077555
0
LINE
5
2D0
100
AcDbEntity
8
0
100
AcDbLine
62
2
6
CONTINUOUS
10
81.9661549484
20
144.6702077555
11
88.8971300544
21
151.6011828615
0
LINE
5
2D1
100
AcDbEntity
8
0
100
AcDbLine
62
2
6
CONTINUOUS
10
104.9894975823
20
167.6935503894
11
109.4661549484
21
172.1702077555
0
LINE
5
2D2
100
AcDbEntity
8
0
100
AcDbLine
62
2
6
CONTINUOUS
10
84.7945820731
20
144.6702077555
11
90.0932195067
21
149.9688451891
0
LINE
5
2D3
100
AcDbEntity
8
0
100
AcDbLine
62
2
6
CONTINUOUS
10
107.9495144884
20
167.8251401708
11
112.2945820731
21
172.1702077555
0
LINE
5
2D4
100
AcDbEntity
8
0
100
AcDbLine
62
2
6
CONTINUOUS
10
87.6230091979
20
144.6702077555
11
91.8827355849
21
148.9299341425
0
LINE
5
2D5
100
AcDbEntity
8
0
100
AcDbLine
62
2
6
CONTINUOUS
10
110.9095313945
20
167.9567299521
11
115.1230091979
21
172.1702077555
0
LINE
5
2D6
100
AcDbEntity
8
0
100
AcDbLine
62
2
6
CONTINUOUS
10
90.4514363226
20
144.6702077555
11
94.4514363226
21
148.6702077555
0
LINE
5
2D7
100
AcDbEntity
8
0
100
AcDbLine
62
2
6
CONTINUOUS
10
113.8695483006
20
168.0883197334
11
116.6893431938
21
170.9081146267
0
LINE
5
2D8
100
AcDbEntity
8
0
100
AcDbLine
62
2
6
CONTINUOUS
10
93.2798634474
20
144.6702077555
11
97.2798634474
21
148.6702077555
0
LINE
5
2D9
100
AcDbEntity
8
0
100
AcDbLine
62
2
6
CONTINUOUS
10
96.1082905721
20
144.6702077555
11
100.1082905721
21
148.6702077555
0
LINE
5
2DA
100
AcDbEntity
8
0
100
AcDbLine
62
2
6
CONTINUOUS
10
98.9367176969
20
144.6702077555
11
102.9367176969
21
148.6702077555
0
LINE
5
2DB
100
AcDbEntity
8
0
100
AcDbLine
62
7
6
CONTINUOUS
10
61.1893431938
20
235.6702077555
11
78.4393431938
21
235.6702077555
0
LINE
5
2DC
100
AcDbEntity
8
0
100
AcDbLine
62
7
6
CONTINUOUS
10
93.4393431938
20
235.6702077555
11
110.6893431938
21
235.6702077555
0
LINE
5
2DD
100
AcDbEntity
8
0
100
AcDbLine
62
2
6
CONTINUOUS
10
101.7651448216
20
144.6702077555
11
105.7651448216
21
148.6702077555
0
LINE
5
2DE
100
AcDbEntity
8
0
100
AcDbLine
62
2
6
CONTINUOUS
10
104.5935719464
20
144.6702077555
11
108.5935719464
21
148.6702077555
0
LINE
5
2DF
100
AcDbEntity
8
0
100
AcDbLine
62
7
6
CONTINUOUS
10
64.9387674511
20
239.6702077555
11
106.8870116743
21
239.6702077555
0
LINE
5
2E0
100
AcDbEntity
8
0
100
AcDbLine
62
2
6
CONTINUOUS
10
107.3390583192
20
144.5872670036
11
111.3728942794
21
148.6211029637
0
LINE
5
2E1
100
AcDbEntity
8
0
100
AcDbLine
62
2
6
CONTINUOUS
10
107.9848072688
20
142.4045888284
11
113.4236866632
21
147.8434682229
0
LINE
5
2E2
100
AcDbEntity
8
0
100
AcDbLine
62
2
6
CONTINUOUS
10
108.0802453492
20
139.6715997841
11
114.8427926004
21
146.4341470353
0
LINE
5
2E3
100
AcDbEntity
8
0
100
AcDbLine
62
2
6
CONTINUOUS
10
108.1756834297
20
136.9386107398
11
115.6320513376
21
144.3949786477
0
LINE
5
2E4
100
AcDbEntity
8
0
100
AcDbLine
62
2
6
CONTINUOUS
10
108.2711215101
20
134.2056216955
11
115.6893431938
21
141.6238433792
0
LINE
5
2E5
100
AcDbEntity
8
0
100
AcDbLine
62
2
6
CONTINUOUS
10
108.3665595905
20
131.4726326512
11
115.6893431938
21
138.7954162545
0
LINE
5
2E6
100
AcDbEntity
8
0
100
AcDbLine
62
2
6
CONTINUOUS
10
108.4619976710
20
128.7396436069
11
115.6893431938
21
135.9669891297
0
LINE
5
2E7
100
AcDbEntity
8
0
100
AcDbLine
62
2
6
CONTINUOUS
10
110.2209889443
20
127.6702077555
11
115.6893431938
21
133.1385620050
0
LINE
5
2E8
100
AcDbEntity
8
0
100
AcDbLine
62
2
6
CONTINUOUS
10
113.0494160691
20
127.6702077555
11
115.6893431938
21
130.3101348803
0
LINE
5
2E9
100
AcDbEntity
8
0
100
AcDbLine
62
7
6
CONTINUOUS
10
56.1893431938
20
256.6702077555
11
63.3793431938
21
256.6702077555
0
LINE
5
2EA
100
AcDbEntity
8
0
100
AcDbLine
62
7
6
CONTINUOUS
10
108.4993431938
20
256.6702077555
11
115.6893431938
21
256.6702077555
0
ARC
5
2EB
100
AcDbEntity
8
0
100
AcDbCircle
62
7
6
CONTINUOUS
10
56.1893431938
20
215.1702077555
40
1.0000000000
100
AcDbArc
50
92.5454510516
51
180.0000000000
0
ARC
5
2EC
100
AcDbEntity
8
0
100
AcDbCircle
62
7
6
CONTINUOUS
10
115.6893431938
20
215.1702077555
40
1.0000000000
100
AcDbArc
50
0.0000000000
51
87.4545489484
0
ARC
5
2ED
100
AcDbEntity
8
0
100
AcDbCircle
62
7
6
CONTINUOUS
10
56.1893431938
20
169.1702077555
40
1.0000000000
100
AcDbArc
50
180.0000000000
51
267.4545489484
0
ARC
5
2EE
100
AcDbEntity
8
0
100
AcDbCircle
62
7
6
CONTINUOUS
10
93.4393431938
20
222.1652742819
40
5.0000000000
100
AcDbArc
50
180.0000000000
51
267.4545489484
0
ARC
5
2EF
100
AcDbEntity
8
0
100
AcDbCircle
62
7
6
CONTINUOUS
10
78.4393431938
20
222.1652742819
40
5.0000000000
100
AcDbArc
50
272.5454510516
51
360.0000000000
0
ARC
5
2F0
100
AcDbEntity
8
0
100
AcDbCircle
62
7
6
CONTINUOUS
10
78.4393431938
20
162.1751412291
40
5.0000000000
100
AcDbArc
50
0.0000000000
51
87.4545489484
0
ARC
5
2F1
100
AcDbEntity
8
0
100
AcDbCircle
62
7
6
CONTINUOUS
10
106.9399523668
20
240.6688054138
40
1.0000000000
100
AcDbArc
50
266.9653030633
51
358.0000000000
0
ARC
5
2F2
100
AcDbEntity
8
0
100
AcDbCircle
62
7
6
CONTINUOUS
10
106.9399523668
20
143.6716100972
40
1.0000000000
100
AcDbArc
50
2.0000000000
51
93.0346969367
0
ARC
5
2F3
100
AcDbEntity
8
0
100
AcDbCircle
62
7
6
CONTINUOUS
10
64.9387340208
20
240.6688054138
40
1.0000000000
100
AcDbArc
50
182.0000000000
51
270.0019154135
0
ARC
5
2F4
100
AcDbEntity
8
0
100
AcDbCircle
62
7
6
CONTINUOUS
10
64.9387340208
20
143.6716100972
40
1.0000000000
100
AcDbArc
50
89.9980845865
51
178.0000000000
0
ARC
5
2F5
100
AcDbEntity
8
0
100
AcDbCircle
62
7
6
CONTINUOUS
10
110.6893431938
20
240.6702077555
40
5.0000000000
100
AcDbArc
50
270.0000000000
51
360.0000000000
0
ARC
5
2F6
100
AcDbEntity
8
0
100
AcDbCircle
62
7
6
CONTINUOUS
10
61.1893431938
20
240.6702077555
40
5.0000000000
100
AcDbArc
50
180.0000000000
51
270.0000000000
0
ARC
5
2F7
100
AcDbEntity
8
0
100
AcDbCircle
62
7
6
CONTINUOUS
10
61.1893431938
20
143.6702077555
40
5.0000000000
100
AcDbArc
50
90.0000000000
51
180.0000000000
0
ARC
5
2F8
100
AcDbEntity
8
0
100
AcDbCircle
62
7
6
CONTINUOUS
10
78.4393431938
20
230.6702077555
40
5.0000000000
100
AcDbArc
50
0.0000000000
51
90.0000000000
0
ARC
5
2F9
100
AcDbEntity
8
0
100
AcDbCircle
62
7
6
CONTINUOUS
10
78.4393431938
20
153.6702077555
40
5.0000000000
100
AcDbArc
50
270.0000000000
51
360.0000000000
0
ARC
5
2FA
100
AcDbEntity
8
0
100
AcDbCircle
62
7
6
CONTINUOUS
10
110.6893431938
20
143.6702077555
40
5.0000000000
100
AcDbArc
50
0.0000000000
51
90.0000000000
0
ARC
5
2FB
100
AcDbEntity
8
0
100
AcDbCircle
62
7
6
CONTINUOUS
10
93.4393431938
20
230.6702077555
40
5.0000000000
100
AcDbArc
50
90.0000000000
51
180.0000000000
0
ARC
5
2FC
100
AcDbEntity
8
0
100
AcDbCircle
62
7
6
CONTINUOUS
10
93.4393431938
20
153.6702077555
40
5.0000000000
100
AcDbArc
50
180.0000000000
51
270.0000000000
0
ARC
5
2FD
100
AcDbEntity
8
0
100
AcDbCircle
62
7
6
CONTINUOUS
10
93.4393431938
20
162.1751412291
40
5.0000000000
100
AcDbArc
50
92.5454510516
51
180.0000000000
0
ARC
5
2FE
100
AcDbEntity
8
0
100
AcDbCircle
62
7
6
CONTINUOUS
10
115.6893431938
20
169.1702077555
40
1.0000000000
100
AcDbArc
50
272.5454510516
51
360.0000000000
0
ENDSEC
0
SECTION
2
OBJECTS
0
DICTIONARY
5
C
100
AcDbDictionary
280
0
281
1
3
ACAD_GROUP
350
D
3
ACAD_MLINESTYLE
350
17
3
ACAD_LAYOUT
350
1A
3
ACAD_PLOTSETTINGS
350
19
3
ACAD_PLOTSTYLENAME
350
E
0
DICTIONARY
5
D
102
{ACAD_REACTORS
330
C
102
}
100
AcDbDictionary
280
0
281
1
0
ACDBDICTIONARYWDFLT
5
E
102
{ACAD_REACTORS
330
C
102
}
100
AcDbDictionary
281
1
3
Normal
350
F
100
AcDbDictionaryWithDefault
340
F
0
DICTIONARY
5
17
102
{ACAD_REACTORS
330
C
102
}
100
AcDbDictionary
280
0
281
1
3
Standard
350
18
0
DICTIONARY
5
19
102
{ACAD_REACTORS
330
C
102
}
100
AcDbDictionary
281
1
0
DICTIONARY
5
1A
102
{ACAD_REACTORS
330
C
102
}
100
AcDbDictionary
281
1
3
Layout1
350
1E
3
Model
350
22
0
ACDBPLACEHOLDER
5
F
102
{ACAD_REACTORS
330
E
102
}
0
MLINESTYLE
5
18
102
{ACAD_REACTORS
330
17
102
}
100
AcDbMlineStyle
2
STANDARD
70
0
3

62
256
51
90.0
52
90.0
71
2
49
0.5
62
256
6
BYLAYER
49
-0.5
62
256
6
BYLAYER
0
LAYOUT
5
1E
102
{ACAD_REACTORS
330
1A
102
}
100
AcDbPlotSettings
1

2

4

6

40
0.0
41
0.0
42
0.0
43
0.0
44
0.0
45
0.0
46
0.0
47
0.0
48
0.0
49
0.0
140
0.0
141
0.0
142
1.0
143
1.0
70
0
72
0
73
0
74
0
7

75
0
147
1.0
148
0.0
149
0.0
100
AcDbLayout
1
Layout1
70
0
71
0
10
0.0
20
0.0
11
0.0
21
0.0
12
0.0
22
0.0
32
0.0
14
0.0
24
0.0
34
0.0
15
0.0
25
0.0
35
0.0
146
0.0
13
0.0
23
0.0
33
0.0
16
0.0
26
0.0
36
0.0
17
0.0
27
0.0
37
0.0
76
0
330
1B
331
0
345
0
346
0
0
LAYOUT
5
22
102
{ACAD_REACTORS
330
1A
102
}
100
AcDbPlotSettings
1

2

4

6

40
0.0
41
0.0
42
0.0
43
0.0
44
0.0
45
0.0
46
0.0
47
0.0
48
0.0
49
0.0
140
0.0
141
0.0
142
1.0
143
1.0
70
0
72
0
73
0
74
0
7

75
0
147
1.0
148
0.0
149
0.0
100
AcDbLayout
1
Model
70
0
71
0
10
0.0
20
0.0
11
0.0
21
0.0
12
0.0
22
0.0
32
0.0
14
0.0
24
0.0
34
0.0
15
0.0
25
0.0
35
0.0
146
0.0
13
0.0
23
0.0
33
0.0
16
0.0
26
0.0
36
0.0
17
0.0
27
0.0
37
0.0
76
0
330
1F
331
0
345
0
346
0
0
ENDSEC
0
EOF
