999
DXF file: NXT820T21R25.dxf
999
Pro/ENGINEER 2009380 by Parametric Technology Corporation
  0
SECTION
  2
HEADER
  9
$ACADVER
  1
AC1014
  9
$DWGCODEPAGE
  3
ANSI_1252
  9
$EXTMAX
 10
210.0
 20
297.0
 30
0.0
  9
$EXTMIN
 10
0.0
 20
0.0
 30
0.0
  9
$LIMMIN
 10
0.0
 20
0.0
  9
$LIMMAX
 10
210.0
 20
297.0
  9
$VIEWCTR
 10
105.0
 20
148.5
  9
$VIEWSIZE
 40
297.0
  9
$CLAYER
  8
0
  9
$LTSCALE
 40
19.36
  9
$CELTYPE
  6
BYLAYER
  9
$DIMSCALE
 40
1.0
  9
$DIMASZ
 40
3.5
  9
$DIMEXO
 40
2.2
  9
$DIMDLI
 40
13.376
  9
$DIMEXE
 40
6.336
  9
$DIMCEN
 40
3.168
  9
$DIMLFAC
 40
1.0
  9
$DIMBLK
  1
_ARROW_FILLED
  9
$DIMTXT
 40
3.5
  9
$DIMTOL
 70
1
  9
$DIMLIM
 70
0
  9
$DIMTFAC
 40
1.0
  9
$DIMTP
 40
0.01
  9
$DIMTM
 40
0.01
  9
$PDMODE
 70
3
  9
$PDSIZE
 40
0.3125
  9
$HANDSEED
  5
317
  9
$TILEMODE
 70
1
  9
$MEASUREMENT
 70
1
  0
ENDSEC
  0
SECTION
  2
CLASSES
  0
ENDSEC
  0
SECTION
  2
TABLES
  0
TABLE
  2
VPORT
  5
8
100
AcDbSymbolTable
 70
2
  0
VPORT
  5
1F4
100
AcDbSymbolTableRecord
100
AcDbViewportTableRecord
  2
*ACTIVE
 70
0
 10
0.0
 20
0.0
 11
1.0
 21
1.0
 12
105.0
 22
148.5
 13
0.0
 23
0.0
 14
1.0
 24
1.0
 15
0.0
 25
0.0
 16
0.0
 26
0.0
 36
1.0
 17
0.0
 27
0.0
 37
0.0
 40
297.0
 41
0.7070707071
 42
50.0
 43
0.0
 44
0.0
 50
0.0
 51
0.0
 71
0
 72
100
 73
1
 74
1
 75
0
 76
0
 77
0
 78
0
  0
ENDTAB
  0
TABLE
  2
LTYPE
  5
5
100
AcDbSymbolTable
 70
6
  0
LTYPE
  5
14
100
AcDbSymbolTableRecord
100
AcDbLinetypeTableRecord
  2
BYBLOCK
 70
0
  3

 72
65
 73
0
 40
0.0
  0
LTYPE
  5
15
100
AcDbSymbolTableRecord
100
AcDbLinetypeTableRecord
  2
BYLAYER
 70
0
  3

 72
65
 73
0
 40
0.0
  0
LTYPE
  5
16
100
AcDbSymbolTableRecord
100
AcDbLinetypeTableRecord
  2
CONTINUOUS
 70
64
  3
Solid line
 72
65
 73
0
 40
0.0
  0
LTYPE
  5
1F5
100
AcDbSymbolTableRecord
100
AcDbLinetypeTableRecord
  2
CENTER
 70
64
  3
____ _ ____ _ ____ _ ____ _ ____ _ ____ _ ____
 72
65
 73
4
 40
0.6
 49
0.375
 74
0
 49
-0.075
 74
0
 49
0.075
 74
0
 49
-0.075
 74
0
  0
LTYPE
  5
1F6
100
AcDbSymbolTableRecord
100
AcDbLinetypeTableRecord
  2
HIDDEN
 70
64
  3
- - - - - - - - - - - - - - - - - - - -
 72
65
 73
2
 40
0.2
 49
0.1
 74
0
 49
-0.1
 74
0
  0
LTYPE
  5
1F7
100
AcDbSymbolTableRecord
100
AcDbLinetypeTableRecord
  2
PHANTOM
 70
64
  3
_____ _ _ _____ _ _ _____ _ _ _____
 72
65
 73
6
 40
0.8
 49
0.45
 74
0
 49
-0.05
 74
0
 49
0.1
 74
0
 49
-0.05
 74
0
 49
0.1
 74
0
 49
-0.05
 74
0
  0
LTYPE
  5
1F8
100
AcDbSymbolTableRecord
100
AcDbLinetypeTableRecord
  2
DOT
 70
64
  3
. . . . . . . . . . . . . . . . . . . .
 72
65
 73
2
 40
0.2
 49
0.1
 74
0
 49
-0.1
 74
0
  0
LTYPE
  5
1F9
100
AcDbSymbolTableRecord
100
AcDbLinetypeTableRecord
  2
DASHED
 70
64
  3
- - - - - - - - - - - - - - - - - - - -
 72
65
 73
2
 40
0.2
 49
0.1
 74
0
 49
-0.1
 74
0
  0
ENDTAB
  0
TABLE
  2
LAYER
  5
2
100
AcDbSymbolTable
 70
36
  0
LAYER
  5
10
100
AcDbSymbolTableRecord
100
AcDbLayerTableRecord
  2
0
 70
0
 62
7
  6
CONTINUOUS
  0
LAYER
  5
1FA
100
AcDbSymbolTableRecord
100
AcDbLayerTableRecord
  2
DEFAULT_1
 70
0
 62
7
  6
CENTER
  0
LAYER
  5
1FB
100
AcDbSymbolTableRecord
100
AcDbLayerTableRecord
  2
DEFAULT_2
 70
0
 62
8
  6
HIDDEN
  0
LAYER
  5
1FC
100
AcDbSymbolTableRecord
100
AcDbLayerTableRecord
  2
DEFAULT_3
 70
0
 62
7
  6
PHANTOM
  0
LAYER
  5
1FD
100
AcDbSymbolTableRecord
100
AcDbLayerTableRecord
  2
ASSI
 70
0
 62
7
  6
CONTINUOUS
  0
LAYER
  5
1FE
100
AcDbSymbolTableRecord
100
AcDbLayerTableRecord
  2
PIANI
 70
0
 62
7
  6
CONTINUOUS
  0
LAYER
  5
1FF
100
AcDbSymbolTableRecord
100
AcDbLayerTableRecord
  2
PUNTI
 70
0
 62
7
  6
CONTINUOUS
  0
ENDTAB
  0
TABLE
  2
STYLE
  5
3
100
AcDbSymbolTable
 70
1
  0
STYLE
  5
11
100
AcDbSymbolTableRecord
100
AcDbTextStyleTableRecord
  2
STANDARD
 70
0
 40
0.0
 41
0.7143
 50
0.0
 71
0
 42
0.2
  3
txt
  4

  0
STYLE
  5
200
100
AcDbSymbolTableRecord
100
AcDbTextStyleTableRecord
  2
TEXTSTYLE_1
 70
0
 40
0.0
 41
0.8
 50
0.0
 71
0
 42
0.2
  3
gdt
  4

  0
STYLE
  5
201
100
AcDbSymbolTableRecord
100
AcDbTextStyleTableRecord
  2
TEXTSTYLE_2
 70
0
 40
0.0
 41
0.5
 50
0.0
 71
0
 42
0.2
  3
txt
  4

  0
STYLE
  5
202
100
AcDbSymbolTableRecord
100
AcDbTextStyleTableRecord
  2
TEXTSTYLE_3
 70
0
 40
0.0
 41
0.7143
 50
0.0
 71
0
 42
0.2
  3
gdt
  4

  0
STYLE
  5
203
100
AcDbSymbolTableRecord
100
AcDbTextStyleTableRecord
  2
TEXTSTYLE_4
 70
0
 40
0.0
 41
0.55
 50
0.0
 71
0
 42
0.2
  3
txt
  4

  0
STYLE
  5
204
100
AcDbSymbolTableRecord
100
AcDbTextStyleTableRecord
  2
TEXTSTYLE_5
 70
0
 40
0.0
 41
0.7
 50
0.0
 71
0
 42
0.2
  3
txt
  4

  0
STYLE
  5
205
100
AcDbSymbolTableRecord
100
AcDbTextStyleTableRecord
  2
TEXTSTYLE_6
 70
0
 40
0.0
 41
0.6
 50
0.0
 71
0
 42
0.2
  3
txt
  4

  0
STYLE
  5
206
100
AcDbSymbolTableRecord
100
AcDbTextStyleTableRecord
  2
TEXTSTYLE_7
 70
0
 40
0.0
 41
0.55
 50
0.0
 71
0
 42
0.2
  3
txt
  4

  0
STYLE
  5
207
100
AcDbSymbolTableRecord
100
AcDbTextStyleTableRecord
  2
TEXTSTYLE_8
 70
0
 40
0.0
 41
0.7
 50
0.0
 71
0
 42
0.2
  3
txt
  4

  0
STYLE
  5
208
100
AcDbSymbolTableRecord
100
AcDbTextStyleTableRecord
  2
TEXTSTYLE_9
 70
0
 40
0.0
 41
0.6
 50
0.0
 71
0
 42
0.2
  3
gdt
  4

  0
ENDTAB
  0
TABLE
  2
VIEW
  5
6
100
AcDbSymbolTable
 70
0
  0
ENDTAB
  0
TABLE
  2
UCS
  5
7
100
AcDbSymbolTable
 70
0
  0
ENDTAB
  0
TABLE
  2
APPID
  5
9
100
AcDbSymbolTable
 70
1
  0
APPID
  5
209
100
AcDbSymbolTableRecord
100
AcDbRegAppTableRecord
  2
ACAD
 70
0
  0
ENDTAB
  0
TABLE
  2
BLOCK_RECORD
  5
1
100
AcDbSymbolTable
 70
0
  0
BLOCK_RECORD
  5
1F
100
AcDbSymbolTableRecord
100
AcDbBlockTableRecord
  2
*MODEL_SPACE
  0
BLOCK_RECORD
  5
1B
100
AcDbSymbolTableRecord
100
AcDbBlockTableRecord
  2
*PAPER_SPACE
  0
BLOCK_RECORD
  5
20A
100
AcDbSymbolTableRecord
100
AcDbBlockTableRecord
  2
_ARROW_FILLED
  0
BLOCK_RECORD
  5
20B
100
AcDbSymbolTableRecord
100
AcDbBlockTableRecord
  2
*D0
  0
BLOCK_RECORD
  5
20C
100
AcDbSymbolTableRecord
100
AcDbBlockTableRecord
  2
*D1
  0
BLOCK_RECORD
  5
20D
100
AcDbSymbolTableRecord
100
AcDbBlockTableRecord
  2
*D2
  0
BLOCK_RECORD
  5
20E
100
AcDbSymbolTableRecord
100
AcDbBlockTableRecord
  2
*D3
  0
BLOCK_RECORD
  5
20F
100
AcDbSymbolTableRecord
100
AcDbBlockTableRecord
  2
*D4
  0
BLOCK_RECORD
  5
210
100
AcDbSymbolTableRecord
100
AcDbBlockTableRecord
  2
*D5
  0
ENDTAB
  0
TABLE
  2
DIMSTYLE
  5
A
100
AcDbSymbolTable
 70
1
  0
DIMSTYLE
105
211
100
AcDbSymbolTableRecord
100
AcDbDimStyleTableRecord
  2
STANDARD
 70
0
  3

  4

  5
_ARROW_FILLED
  6
_ARROW_FILLED
  7
_ARROW_FILLED
 40
1.0
 41
3.5
 42
0.0625
 43
0.38
 44
0.18
 45
0.0
 46
0.0
 47
0.01
 48
0.01
140
3.5
141
0.09
142
0.0
143
25.4
144
1.0
145
0.0
146
1.0
147
0.09
 71
1.0
 72
0.0
 73
0
 74
0
 75
0
 76
0
 77
1
 78
8
170
0
171
2
172
0
173
0
174
0
175
0
176
0
177
0
178
0
270
2
271
2
272
2
273
2
274
2
275
0
280
0
281
0
282
0
283
1
284
8
285
0
286
0
287
3
288
0
340
11
  0
DIMSTYLE
105
212
100
AcDbSymbolTableRecord
100
AcDbDimStyleTableRecord
  2
DIMSTYLE_1
 70
0
  3

  4

  5
_ARROW_FILLED
  6
_ARROW_FILLED
  7
_ARROW_FILLED
 40
1.0
 41
3.5
 42
0.0625
 43
0.38
 44
0.18
 45
0.0
 46
0.0
 47
0.1
 48
0.1
140
3.5
141
0.09
142
0.0
143
25.4
144
1.0
145
0.0
146
1.0
147
0.09
 71
0.0
 72
0.0
 73
0
 74
0
 75
0
 76
0
 77
1
 78
8
170
0
171
2
172
0
173
0
174
0
175
0
176
0
177
0
178
0
270
2
271
2
272
2
273
2
274
2
275
0
280
0
281
0
282
0
283
1
284
8
285
0
286
0
287
3
288
0
340
11
  0
DIMSTYLE
105
213
100
AcDbSymbolTableRecord
100
AcDbDimStyleTableRecord
  2
DIMSTYLE_2
 70
0
  3

  4

  5
_ARROW_FILLED
  6
_ARROW_FILLED
  7
_ARROW_FILLED
 40
1.0
 41
3.5
 42
0.0625
 43
0.38
 44
0.18
 45
0.0
 46
0.0
 47
0.15
 48
0.15
140
3.5
141
0.09
142
0.0
143
25.4
144
1.0
145
0.0
146
1.0
147
0.09
 71
0.0
 72
0.0
 73
0
 74
0
 75
0
 76
0
 77
1
 78
8
170
0
171
2
172
0
173
0
174
0
175
0
176
0
177
0
178
0
270
2
271
2
272
2
273
2
274
2
275
0
280
0
281
0
282
0
283
1
284
8
285
0
286
0
287
3
288
0
340
11
  0
DIMSTYLE
105
214
100
AcDbSymbolTableRecord
100
AcDbDimStyleTableRecord
  2
DIMSTYLE_3
 70
0
  3

  4

  5
_ARROW_FILLED
  6
_ARROW_FILLED
  7
_ARROW_FILLED
 40
1.0
 41
3.5
 42
0.0625
 43
0.38
 44
0.18
 45
0.0
 46
0.0
 47
0.2
 48
0.2
140
3.5
141
0.09
142
0.0
143
25.4
144
1.0
145
0.0
146
1.0
147
0.09
 71
0.0
 72
0.0
 73
0
 74
0
 75
0
 76
0
 77
1
 78
8
170
0
171
2
172
0
173
0
174
0
175
0
176
0
177
0
178
0
270
2
271
2
272
2
273
2
274
2
275
0
280
0
281
0
282
0
283
1
284
8
285
0
286
0
287
3
288
0
340
11
  0
ENDTAB
  0
ENDSEC
  0
SECTION
  2
BLOCKS
  0
BLOCK
  5
20
100
AcDbEntity
  8
0
100
AcDbBlockBegin
  2
*MODEL_SPACE
 70
0
 10
0.0
 20
0.0
 30
0.0
  3
*MODEL_SPACE
  1

  0
ENDBLK
  5
21
100
AcDbEntity
  8
0
100
AcDbBlockEnd
  0
BLOCK
  5
1C
100
AcDbEntity
  8
0
100
AcDbBlockBegin
  2
*PAPER_SPACE
 70
0
 10
0.0
 20
0.0
 30
0.0
  3
*PAPER_SPACE
  1

  0
ENDBLK
  5
1D
100
AcDbEntity
  8
0
100
AcDbBlockEnd
  0
BLOCK
  5
215
100
AcDbEntity
  8
0
100
AcDbBlockBegin
  2
_ARROW_FILLED
 70
64
 10
0.0
 20
0.0
  3
_ARROW_FILLED
  1

  0
SOLID
  5
216
100
AcDbEntity
  8
0
  6
BYBLOCK
 62
0
100
AcDbTrace
 10
0.0
 20
0.0
 11
-1.0
 21
0.1857142857
 12
-1.0
 22
-0.1857142857
 13
-1.0
 23
-0.1857142857
  0
ENDBLK
  5
217
100
AcDbEntity
  8
0
  6
BYBLOCK
 62
0
100
AcDbBlockEnd
  0
BLOCK
  5
218
100
AcDbEntity
  8
0
100
AcDbBlockBegin
 62
2
  6
CONTINUOUS
  2
*D0
 70
65
 10
0.0
 20
0.0
  3
*D0
  1

  0
MTEXT
  5
219
100
AcDbEntity
  8
0
100
AcDbMText
 62
2
  6
CONTINUOUS
  7
TEXTSTYLE_3
 71
2
 72
1
 10
123.3843382118
 20
191.0713074457
 30
0.0
 11
0.0
 21
1.0
 31
0.0
  1
{\Fgdt;n}\Ftxt;25
 40
3.5
 41
9.6667666667
  0
LINE
  5
21A
100
AcDbEntity
  8
0
100
AcDbLine
 62
2
  6
CONTINUOUS
 10
116.7113402062
 20
179.6702077555
 11
129.2593382118
 21
179.6702077555
  0
LINE
  5
21B
100
AcDbEntity
  8
0
100
AcDbLine
 62
2
  6
CONTINUOUS
 10
116.0515463918
 20
204.6702077555
 11
129.2593382118
 21
204.6702077555
  0
LINE
  5
21C
100
AcDbEntity
  8
0
100
AcDbLine
 62
2
  6
CONTINUOUS
 10
127.7593382118
 20
179.6702077555
 11
127.7593382118
 21
192.1702077555
  0
LINE
  5
21D
100
AcDbEntity
  8
0
100
AcDbLine
 62
2
  6
CONTINUOUS
 10
127.7593382118
 20
204.6702077555
 11
127.7593382118
 21
192.1702077555
  0
INSERT
  5
21E
100
AcDbEntity
  8
0
100
AcDbBlockReference
 62
2
  6
CONTINUOUS
  2
_ARROW_FILLED
 10
127.7593382118
 20
179.6702077555
 41
3.5
 42
3.5
 43
3.5
 50
270.0
  0
INSERT
  5
21F
100
AcDbEntity
  8
0
100
AcDbBlockReference
 62
2
  6
CONTINUOUS
  2
_ARROW_FILLED
 10
127.7593382118
 20
204.6702077555
 41
3.5
 42
3.5
 43
3.5
 50
90.0
  0
ENDBLK
  5
220
100
AcDbEntity
  8
0
  6
BYBLOCK
 62
0
100
AcDbBlockEnd
  0
BLOCK
  5
221
100
AcDbEntity
  8
0
100
AcDbBlockBegin
 62
2
  6
CONTINUOUS
  2
*D1
 70
65
 10
0.0
 20
0.0
  3
*D1
  1

  0
MTEXT
  5
222
100
AcDbEntity
  8
0
100
AcDbMText
 62
2
  6
CONTINUOUS
  7
STANDARD
 71
2
 72
1
 10
86.2379630468
 20
116.0928694411
 30
0.0
 11
1.0
 21
0.0
 31
0.0
  1
61.5
 40
3.5
 41
10.0002
  0
LINE
  5
223
100
AcDbEntity
  8
0
100
AcDbLine
 62
2
  6
CONTINUOUS
 10
55.1893431938
 20
161.2886597938
 11
55.1893431938
 21
110.2178694411
  0
LINE
  5
224
100
AcDbEntity
  8
0
100
AcDbLine
 62
2
  6
CONTINUOUS
 10
116.6893431938
 20
162.6082474227
 11
116.6893431938
 21
110.2178694411
  0
LINE
  5
225
100
AcDbEntity
  8
0
100
AcDbLine
 62
2
  6
CONTINUOUS
 10
55.1893431938
 20
111.7178694411
 11
85.9393431938
 21
111.7178694411
  0
LINE
  5
226
100
AcDbEntity
  8
0
100
AcDbLine
 62
2
  6
CONTINUOUS
 10
116.6893431938
 20
111.7178694411
 11
85.9393431938
 21
111.7178694411
  0
INSERT
  5
227
100
AcDbEntity
  8
0
100
AcDbBlockReference
 62
2
  6
CONTINUOUS
  2
_ARROW_FILLED
 10
55.1893431938
 20
111.7178694411
 41
3.5
 42
3.5
 43
3.5
 50
180.0
  0
INSERT
  5
228
100
AcDbEntity
  8
0
100
AcDbBlockReference
 62
2
  6
CONTINUOUS
  2
_ARROW_FILLED
 10
116.6893431938
 20
111.7178694411
 41
3.5
 42
3.5
 43
3.5
  0
ENDBLK
  5
229
100
AcDbEntity
  8
0
  6
BYBLOCK
 62
0
100
AcDbBlockEnd
  0
BLOCK
  5
22A
100
AcDbEntity
  8
0
100
AcDbBlockBegin
 62
2
  6
CONTINUOUS
  2
*D2
 70
65
 10
0.0
 20
0.0
  3
*D2
  1

  0
MTEXT
  5
22B
100
AcDbEntity
  8
0
100
AcDbMText
 62
2
  6
CONTINUOUS
  7
TEXTSTYLE_3
 71
2
 72
1
 10
25.7548974284
 20
192.1702077555
 30
0.0
 11
0.0
 21
1.0
 31
0.0
  1
{\Fgdt;n}\Ftxt;129
 40
3.5
 41
12.1668166667
  0
LINE
  5
22C
100
AcDbEntity
  8
0
100
AcDbLine
 62
2
  6
CONTINUOUS
 10
60.9725362537
 20
127.6702077555
 11
28.6298974284
 21
127.6702077555
  0
LINE
  5
22D
100
AcDbEntity
  8
0
100
AcDbLine
 62
2
  6
CONTINUOUS
 10
57.4537358476
 20
256.6702077555
 11
28.6298974284
 21
256.6702077555
  0
LINE
  5
22E
100
AcDbEntity
  8
0
100
AcDbLine
 62
2
  6
CONTINUOUS
 10
30.1298974284
 20
127.6702077555
 11
30.1298974284
 21
192.1702077555
  0
LINE
  5
22F
100
AcDbEntity
  8
0
100
AcDbLine
 62
2
  6
CONTINUOUS
 10
30.1298974284
 20
256.6702077555
 11
30.1298974284
 21
192.1702077555
  0
INSERT
  5
230
100
AcDbEntity
  8
0
100
AcDbBlockReference
 62
2
  6
CONTINUOUS
  2
_ARROW_FILLED
 10
30.1298974284
 20
127.6702077555
 41
3.5
 42
3.5
 43
3.5
 50
270.0
  0
INSERT
  5
231
100
AcDbEntity
  8
0
100
AcDbBlockReference
 62
2
  6
CONTINUOUS
  2
_ARROW_FILLED
 10
30.1298974284
 20
256.6702077555
 41
3.5
 42
3.5
 43
3.5
 50
90.0
  0
ENDBLK
  5
232
100
AcDbEntity
  8
0
  6
BYBLOCK
 62
0
100
AcDbBlockEnd
  0
BLOCK
  5
233
100
AcDbEntity
  8
0
100
AcDbBlockBegin
 62
2
  6
CONTINUOUS
  2
*D3
 70
65
 10
0.0
 20
0.0
  3
*D3
  1

  0
MTEXT
  5
234
100
AcDbEntity
  8
0
100
AcDbMText
 62
2
  6
CONTINUOUS
  7
TEXTSTYLE_3
 71
2
 72
1
 10
39.8051901697
 20
192.1702077555
 30
0.0
 11
0.0
 21
1.0
 31
0.0
  1
{\Fgdt;n}\Ftxt;40
 40
3.5
 41
9.6667666667
  0
LINE
  5
235
100
AcDbEntity
  8
0
100
AcDbLine
 62
2
  6
CONTINUOUS
 10
68.7511174112
 20
172.1702077555
 11
42.6801901697
 21
172.1702077555
  0
LINE
  5
236
100
AcDbEntity
  8
0
100
AcDbLine
 62
2
  6
CONTINUOUS
 10
68.9270574315
 20
212.1702077555
 11
42.6801901697
 21
212.1702077555
  0
LINE
  5
237
100
AcDbEntity
  8
0
100
AcDbLine
 62
2
  6
CONTINUOUS
 10
44.1801901697
 20
172.1702077555
 11
44.1801901697
 21
192.1702077555
  0
LINE
  5
238
100
AcDbEntity
  8
0
100
AcDbLine
 62
2
  6
CONTINUOUS
 10
44.1801901697
 20
212.1702077555
 11
44.1801901697
 21
192.1702077555
  0
INSERT
  5
239
100
AcDbEntity
  8
0
100
AcDbBlockReference
 62
2
  6
CONTINUOUS
  2
_ARROW_FILLED
 10
44.1801901697
 20
172.1702077555
 41
3.5
 42
3.5
 43
3.5
 50
270.0
  0
INSERT
  5
23A
100
AcDbEntity
  8
0
100
AcDbBlockReference
 62
2
  6
CONTINUOUS
  2
_ARROW_FILLED
 10
44.1801901697
 20
212.1702077555
 41
3.5
 42
3.5
 43
3.5
 50
90.0
  0
ENDBLK
  5
23B
100
AcDbEntity
  8
0
  6
BYBLOCK
 62
0
100
AcDbBlockEnd
  0
BLOCK
  5
23C
100
AcDbEntity
  8
0
100
AcDbBlockBegin
 62
2
  6
CONTINUOUS
  2
*D4
 70
65
 10
0.0
 20
0.0
  3
*D4
  1

  0
MTEXT
  5
23D
100
AcDbEntity
  8
0
100
AcDbMText
 62
2
  6
CONTINUOUS
  7
STANDARD
 71
2
 72
1
 10
87.2181948873
 20
268.5224618691
 30
0.0
 11
1.0
 21
0.0
 31
0.0
  1
44
 40
3.5
 41
5.0001
  0
LINE
  5
23E
100
AcDbEntity
  8
0
100
AcDbLine
 62
2
  6
CONTINUOUS
 10
108.068023156
 20
243.7313037414
 11
108.068023156
 21
265.6474618691
  0
LINE
  5
23F
100
AcDbEntity
  8
0
100
AcDbLine
 62
2
  6
CONTINUOUS
 10
64.068023156
 20
243.7248512125
 11
64.068023156
 21
265.6474618691
  0
LINE
  5
240
100
AcDbEntity
  8
0
100
AcDbLine
 62
2
  6
CONTINUOUS
 10
108.068023156
 20
264.1474618691
 11
86.068023156
 21
264.1474618691
  0
LINE
  5
241
100
AcDbEntity
  8
0
100
AcDbLine
 62
2
  6
CONTINUOUS
 10
64.068023156
 20
264.1474618691
 11
86.068023156
 21
264.1474618691
  0
INSERT
  5
242
100
AcDbEntity
  8
0
100
AcDbBlockReference
 62
2
  6
CONTINUOUS
  2
_ARROW_FILLED
 10
108.068023156
 20
264.1474618691
 41
3.5
 42
3.5
 43
3.5
  0
INSERT
  5
243
100
AcDbEntity
  8
0
100
AcDbBlockReference
 62
2
  6
CONTINUOUS
  2
_ARROW_FILLED
 10
64.068023156
 20
264.1474618691
 41
3.5
 42
3.5
 43
3.5
 50
180.0
  0
ENDBLK
  5
244
100
AcDbEntity
  8
0
  6
BYBLOCK
 62
0
100
AcDbBlockEnd
  0
BLOCK
  5
245
100
AcDbEntity
  8
0
100
AcDbBlockBegin
 62
2
  6
CONTINUOUS
  2
*D5
 70
65
 10
0.0
 20
0.0
  3
*D5
  1

  0
MTEXT
  5
246
100
AcDbEntity
  8
0
100
AcDbMText
 62
2
  6
CONTINUOUS
  7
STANDARD
 71
2
 72
1
 10
85.2541780866
 20
278.8686105555
 30
0.0
 11
1.0
 21
0.0
 31
0.0
  1
59.5
 40
3.5
 41
10.0002
  0
LINE
  5
247
100
AcDbEntity
  8
0
100
AcDbLine
 62
2
  6
CONTINUOUS
 10
56.1893431938
 20
257.1702077555
 11
56.1893431938
 21
275.9936105555
  0
LINE
  5
248
100
AcDbEntity
  8
0
100
AcDbLine
 62
2
  6
CONTINUOUS
 10
115.6893431938
 20
257.1702077555
 11
115.6893431938
 21
275.9936105555
  0
LINE
  5
249
100
AcDbEntity
  8
0
100
AcDbLine
 62
2
  6
CONTINUOUS
 10
56.1893431938
 20
274.4936105555
 11
85.9393431938
 21
274.4936105555
  0
LINE
  5
24A
100
AcDbEntity
  8
0
100
AcDbLine
 62
2
  6
CONTINUOUS
 10
115.6893431938
 20
274.4936105555
 11
85.9393431938
 21
274.4936105555
  0
INSERT
  5
24B
100
AcDbEntity
  8
0
100
AcDbBlockReference
 62
2
  6
CONTINUOUS
  2
_ARROW_FILLED
 10
56.1893431938
 20
274.4936105555
 41
3.5
 42
3.5
 43
3.5
 50
180.0
  0
INSERT
  5
24C
100
AcDbEntity
  8
0
100
AcDbBlockReference
 62
2
  6
CONTINUOUS
  2
_ARROW_FILLED
 10
115.6893431938
 20
274.4936105555
 41
3.5
 42
3.5
 43
3.5
  0
ENDBLK
  5
24D
100
AcDbEntity
  8
0
  6
BYBLOCK
 62
0
100
AcDbBlockEnd
  0
ENDSEC
  0
SECTION
  2
ENTITIES
  0
MTEXT
  5
24E
100
AcDbEntity
  8
0
100
AcDbMText
 62
2
  6
CONTINUOUS
  7
TEXTSTYLE_2
 71
2
 72
1
 10
200.0485969212
 20
4.4774188379
 30
0.0
 11
1.0
 21
0.0
 31
0.0
  1
\Q10.0;UNI A4
 40
3.0
 41
9.0
  0
LINE
  5
24F
100
AcDbEntity
  8
0
100
AcDbLine
 62
7
  6
CONTINUOUS
 10
55.1893431938
 20
204.6702077555
 11
116.6893431938
 21
204.6702077555
  0
LINE
  5
250
100
AcDbEntity
  8
0
100
AcDbLine
 62
7
  6
CONTINUOUS
 10
55.1893431938
 20
210.1702077555
 11
55.1893431938
 21
204.6702077555
  0
SPLINE
  5
251
100
AcDbEntity
  8
0
100
AcDbSpline
 62
7
  6
CONTINUOUS
 70
4
 71
3
 72
8
 73
4
 74
129
 42
0.0000001
 43
0.0000001
 44
0.0000000001
 12
0.0
 22
1.3824529728
 32
0.0
 13
1.3810889137
 23
0.061397348
 33
0.0
 40
0.0
 40
0.0
 40
0.0
 40
0.0
 40
1.0
 40
1.0
 40
1.0
 40
1.0
 10
55.1893431938
 20
210.1702077555
 30
0.0
 41
1.0
 10
55.1893431938
 20
210.7355642899
 30
0.0
 41
0.8150921225
 10
55.5801326047
 20
211.1441125091
 30
0.0
 41
0.8150921225
 10
56.1449313048
 20
211.1692210608
 30
0.0
 41
1.0
 11
55.1893431938
 21
210.1702077555
 31
0.0
 11
55.1894017702
 21
210.1810313065
 31
0.0
 11
55.1895784994
 21
210.1919000514
 31
0.0
 11
55.1898748645
 21
210.2028123352
 31
0.0
 11
55.1902923245
 21
210.2137664564
 31
0.0
 11
55.1908323127
 21
210.2247606676
 31
0.0
 11
55.1914962353
 21
210.2357931754
 31
0.0
 11
55.1922854697
 21
210.2468621411
 31
0.0
 11
55.1932013633
 21
210.2579656806
 31
0.0
 11
55.1942452313
 21
210.2691018652
 31
0.0
 11
55.1954183558
 21
210.2802687219
 31
0.0
 11
55.1967219839
 21
210.2914642338
 31
0.0
 11
55.1981573261
 21
210.302686341
 31
0.0
 11
55.199725555
 21
210.313932941
 31
0.0
 11
55.2014278035
 21
210.3252018895
 31
0.0
 11
55.2032651633
 21
210.336491001
 31
0.0
 11
55.2052386835
 21
210.34779805
 31
0.0
 11
55.2073493688
 21
210.3591207715
 31
0.0
 11
55.2095981784
 21
210.3704568621
 31
0.0
 11
55.2119860241
 21
210.3818039812
 31
0.0
 11
55.214513769
 21
210.3931597516
 31
0.0
 11
55.2171822264
 21
210.4045217613
 31
0.0
 11
55.2199921575
 21
210.4158875641
 31
0.0
 11
55.222944271
 21
210.4272546811
 31
0.0
 11
55.2260392211
 21
210.438620602
 31
0.0
 11
55.2292776065
 21
210.4499827867
 31
0.0
 11
55.232659969
 21
210.4613386663
 31
0.0
 11
55.236186792
 21
210.472685645
 31
0.0
 11
55.2398584999
 21
210.4840211012
 31
0.0
 11
55.2436754564
 21
210.4953423898
 31
0.0
 11
55.2476379637
 21
210.5066468431
 31
0.0
 11
55.2517462614
 21
210.5179317729
 31
0.0
 11
55.2560005252
 21
210.5291944724
 31
0.0
 11
55.2604008665
 21
210.5404322178
 31
0.0
 11
55.264947331
 21
210.55164227
 31
0.0
 11
55.2696398984
 21
210.5628218769
 31
0.0
 11
55.274478481
 21
210.5739682751
 31
0.0
 11
55.2794629236
 21
210.5850786918
 31
0.0
 11
55.2845930026
 21
210.5961503472
 31
0.0
 11
55.2898684254
 21
210.6071804561
 31
0.0
 11
55.2952888303
 21
210.6181662302
 31
0.0
 11
55.3008537854
 21
210.6291048803
 31
0.0
 11
55.3065627891
 21
210.6399936184
 31
0.0
 11
55.3124152691
 21
210.6508296597
 31
0.0
 11
55.3184105827
 21
210.6616102249
 31
0.0
 11
55.3245480168
 21
210.6723325426
 31
0.0
 11
55.3308267873
 21
210.682993851
 31
0.0
 11
55.3372460398
 21
210.6935914008
 31
0.0
 11
55.3438048494
 21
210.7041224567
 31
0.0
 11
55.3505022212
 21
210.7145843003
 31
0.0
 11
55.3573370901
 21
210.7249742319
 31
0.0
 11
55.364308322
 21
210.7352895729
 31
0.0
 11
55.3714147137
 21
210.7455276677
 31
0.0
 11
55.3786549936
 21
210.7556858866
 31
0.0
 11
55.3860278225
 21
210.7657616273
 31
0.0
 11
55.3935317942
 21
210.7757523172
 31
0.0
 11
55.4011654363
 21
210.7856554158
 31
0.0
 11
55.4089272115
 21
210.7954684167
 31
0.0
 11
55.4168155179
 21
210.8051888496
 31
0.0
 11
55.4248286907
 21
210.8148142824
 31
0.0
 11
55.432965003
 21
210.824342323
 31
0.0
 11
55.4412226671
 21
210.8337706218
 31
0.0
 11
55.449599836
 21
210.8430968731
 31
0.0
 11
55.4580946043
 21
210.8523188171
 31
0.0
 11
55.4667050101
 21
210.8614342419
 31
0.0
 11
55.4754290364
 21
210.8704409851
 31
0.0
 11
55.4842646125
 21
210.8793369356
 31
0.0
 11
55.4932096157
 21
210.8881200352
 31
0.0
 11
55.5022618732
 21
210.8967882801
 31
0.0
 11
55.5114191635
 21
210.9053397227
 31
0.0
 11
55.5206792188
 21
210.9137724726
 31
0.0
 11
55.530039726
 21
210.9220846984
 31
0.0
 11
55.5394983294
 21
210.930274629
 31
0.0
 11
55.5490526322
 21
210.9383405544
 31
0.0
 11
55.5587001988
 21
210.9462808273
 31
0.0
 11
55.5684385565
 21
210.9540938642
 31
0.0
 11
55.5782651978
 21
210.9617781458
 31
0.0
 11
55.5881775825
 21
210.9693322188
 31
0.0
 11
55.5981731398
 21
210.976754696
 31
0.0
 11
55.6082492703
 21
210.9840442575
 31
0.0
 11
55.6184033483
 21
210.9911996512
 31
0.0
 11
55.6286327242
 21
210.9982196934
 31
0.0
 11
55.6389347263
 21
211.0051032692
 31
0.0
 11
55.6493066632
 21
211.0118493334
 31
0.0
 11
55.6597458262
 21
211.01845691
 31
0.0
 11
55.6702494911
 21
211.0249250934
 31
0.0
 11
55.6808149208
 21
211.0312530479
 31
0.0
 11
55.6914393674
 21
211.0374400079
 31
0.0
 11
55.7021200742
 21
211.0434852783
 31
0.0
 11
55.7128542783
 21
211.0493882338
 31
0.0
 11
55.7236392124
 21
211.0551483194
 31
0.0
 11
55.7344721069
 21
211.0607650497
 31
0.0
 11
55.7453501925
 21
211.0662380088
 31
0.0
 11
55.756270702
 21
211.0715668498
 31
0.0
 11
55.7672308723
 21
211.0767512945
 31
0.0
 11
55.7782279465
 21
211.0817911326
 31
0.0
 11
55.7892591762
 21
211.0866862216
 31
0.0
 11
55.800321823
 21
211.0914364855
 31
0.0
 11
55.8114131608
 21
211.0960419146
 31
0.0
 11
55.8225304775
 21
211.1005025643
 31
0.0
 11
55.8336710772
 21
211.1048185544
 31
0.0
 11
55.8448322813
 21
211.1089900685
 31
0.0
 11
55.8560114311
 21
211.1130173524
 31
0.0
 11
55.8672058888
 21
211.1169007135
 31
0.0
 11
55.8784130397
 21
211.1206405197
 31
0.0
 11
55.8896302934
 21
211.1242371981
 31
0.0
 11
55.9008550856
 21
211.1276912339
 31
0.0
 11
55.9120848794
 21
211.1310031693
 31
0.0
 11
55.923317167
 21
211.1341736019
 31
0.0
 11
55.9345494709
 21
211.137203184
 31
0.0
 11
55.9457793451
 21
211.1400926206
 31
0.0
 11
55.9570043765
 21
211.1428426685
 31
0.0
 11
55.9682221864
 21
211.1454541347
 31
0.0
 11
55.979430431
 21
211.147927875
 31
0.0
 11
55.990626803
 21
211.1502647926
 31
0.0
 11
56.0018090324
 21
211.1524658368
 31
0.0
 11
56.0129748875
 21
211.1545320011
 31
0.0
 11
56.0241221756
 21
211.1564643221
 31
0.0
 11
56.0352487444
 21
211.1582638777
 31
0.0
 11
56.0463524821
 21
211.1599317859
 31
0.0
 11
56.0574313186
 21
211.1614692029
 31
0.0
 11
56.0684832257
 21
211.1628773219
 31
0.0
 11
56.0795062183
 21
211.1641573713
 31
0.0
 11
56.0904983544
 21
211.1653106134
 31
0.0
 11
56.1014577357
 21
211.1663383425
 31
0.0
 11
56.1123825084
 21
211.1672418838
 31
0.0
 11
56.1232708629
 21
211.1680225916
 31
0.0
 11
56.1341210349
 21
211.1686818479
 31
0.0
 11
56.1449313048
 21
211.1692210608
 31
0.0
  0
LINE
  5
252
100
AcDbEntity
  8
0
100
AcDbLine
 62
7
  6
CONTINUOUS
 10
56.1449313048
 20
211.1692210608
 11
78.661402639
 21
212.1702077555
  0
SPLINE
  5
253
100
AcDbEntity
  8
0
100
AcDbSpline
 62
7
  6
CONTINUOUS
 70
4
 71
3
 72
8
 73
4
 74
129
 42
0.0000001
 43
0.0000001
 44
0.0000000001
 12
-0.0
 22
-6.9122648639
 32
0.0
 13
-6.9054445686
 23
-0.3069867401
 33
0.0
 40
0.0
 40
0.0
 40
0.0
 40
0.0
 40
1.0
 40
1.0
 40
1.0
 40
1.0
 10
83.4393431938
 20
217.1652742819
 30
0.0
 41
1.0
 10
83.4393431938
 20
214.3384916097
 30
0.0
 41
0.8150921225
 10
81.4853961396
 20
212.2957505139
 30
0.0
 41
0.8150921225
 10
78.661402639
 20
212.1702077555
 30
0.0
 41
1.0
 11
83.4393431938
 21
217.1652742819
 31
0.0
 11
83.4390503121
 21
217.1111565271
 31
0.0
 11
83.4381666662
 21
217.0568128023
 31
0.0
 11
83.4366848406
 21
217.0022513834
 31
0.0
 11
83.4345975406
 21
216.9474807774
 31
0.0
 11
83.4318975996
 21
216.8925097215
 31
0.0
 11
83.4285779866
 21
216.8373471823
 31
0.0
 11
83.4246318143
 21
216.782002354
 31
0.0
 11
83.4200523466
 21
216.7264846564
 31
0.0
 11
83.4148330066
 21
216.6708037334
 31
0.0
 11
83.4089673841
 21
216.6149694501
 31
0.0
 11
83.4024492437
 21
216.5589918904
 31
0.0
 11
83.3952725325
 21
216.5028813543
 31
0.0
 11
83.3874313879
 21
216.4466483543
 31
0.0
 11
83.3789201454
 21
216.3903036119
 31
0.0
 11
83.3697333464
 21
216.3338580543
 31
0.0
 11
83.3598657456
 21
216.2773228094
 31
0.0
 11
83.349312319
 21
216.220709202
 31
0.0
 11
83.3380682711
 21
216.1640287489
 31
0.0
 11
83.3261290427
 21
216.1072931536
 31
0.0
 11
83.3134903178
 21
216.0505143013
 31
0.0
 11
83.3001480312
 21
215.9937042529
 31
0.0
 11
83.2860983756
 21
215.9368752391
 31
0.0
 11
83.271337808
 21
215.8800396542
 31
0.0
 11
83.2558630574
 21
215.8232100493
 31
0.0
 11
83.2396711303
 21
215.7663991258
 31
0.0
 11
83.2227593182
 21
215.7096197277
 31
0.0
 11
83.2051252031
 21
215.6528848345
 31
0.0
 11
83.1867666636
 21
215.5962075532
 31
0.0
 11
83.1676818809
 21
215.5396011104
 31
0.0
 11
83.1478693443
 21
215.4830788441
 31
0.0
 11
83.1273278561
 21
215.4266541949
 31
0.0
 11
83.106056537
 21
215.3703406973
 31
0.0
 11
83.0840548306
 21
215.3141519705
 31
0.0
 11
83.0613225078
 21
215.2581017095
 31
0.0
 11
83.0378596712
 21
215.2022036749
 31
0.0
 11
83.0136667582
 21
215.1464716841
 31
0.0
 11
82.9887445451
 21
215.0909196003
 31
0.0
 11
82.9630941502
 21
215.0355613235
 31
0.0
 11
82.9367170358
 21
214.9804107792
 31
0.0
 11
82.9096150116
 21
214.9254819086
 31
0.0
 11
82.8817902359
 21
214.8707886579
 31
0.0
 11
82.8532452176
 21
214.8163449674
 31
0.0
 11
82.8239828176
 21
214.762164761
 31
0.0
 11
82.7940062493
 21
214.7082619348
 31
0.0
 11
82.763319079
 21
214.6546503465
 31
0.0
 11
82.7319252264
 21
214.6013438043
 31
0.0
 11
82.6998289639
 21
214.5483560555
 31
0.0
 11
82.6670349158
 21
214.4957007758
 31
0.0
 11
82.6335480572
 21
214.4433915577
 31
0.0
 11
82.5993737125
 21
214.3914418997
 31
0.0
 11
82.5645175529
 21
214.3398651951
 31
0.0
 11
82.5289855944
 21
214.2886747207
 31
0.0
 11
82.4927841949
 21
214.2378836263
 31
0.0
 11
82.4559200506
 21
214.1875049231
 31
0.0
 11
82.4184001922
 21
214.1375514736
 31
0.0
 11
82.3802319814
 21
214.0880359804
 31
0.0
 11
82.3414231056
 21
214.0389709757
 31
0.0
 11
82.3019815735
 21
213.9903688112
 31
0.0
 11
82.2619157095
 21
213.9422416475
 31
0.0
 11
82.221234148
 21
213.8946014443
 31
0.0
 11
82.1799458273
 21
213.8474599503
 31
0.0
 11
82.138059983
 21
213.800828694
 31
0.0
 11
82.0955861414
 21
213.754718974
 31
0.0
 11
82.0525341123
 21
213.7091418499
 31
0.0
 11
82.0089139808
 21
213.6641081338
 31
0.0
 11
81.9647361006
 21
213.6196283812
 31
0.0
 11
81.9200110846
 21
213.5757128833
 31
0.0
 11
81.8747497972
 21
213.5323716587
 31
0.0
 11
81.8289633453
 21
213.489614446
 31
0.0
 11
81.7826630691
 21
213.4474506966
 31
0.0
 11
81.7358605331
 21
213.4058895673
 31
0.0
 11
81.6885675161
 21
213.3649399145
 31
0.0
 11
81.6407960019
 21
213.3246102875
 31
0.0
 11
81.5925581689
 21
213.2849089227
 31
0.0
 11
81.5438663805
 21
213.2458437386
 31
0.0
 11
81.4947331738
 21
213.2074223304
 31
0.0
 11
81.4451712502
 21
213.1696519655
 31
0.0
 11
81.395193464
 21
213.1325395794
 31
0.0
 11
81.3448128116
 21
213.0960917718
 31
0.0
 11
81.2940424214
 21
213.0603148034
 31
0.0
 11
81.242895542
 21
213.0252145926
 31
0.0
 11
81.1913855316
 21
212.9907967133
 31
0.0
 11
81.139525847
 21
212.9570663926
 31
0.0
 11
81.0873300322
 21
212.9240285092
 31
0.0
 11
81.0348117077
 21
212.8916875922
 31
0.0
 11
80.981984559
 21
212.86004782
 31
0.0
 11
80.928862326
 21
212.8291130198
 31
0.0
 11
80.8754587917
 21
212.7988866681
 31
0.0
 11
80.8217877713
 21
212.7693718904
 31
0.0
 11
80.7678631012
 21
212.7405714624
 31
0.0
 11
80.7136986285
 21
212.7124878108
 31
0.0
 11
80.6593082003
 21
212.6851230155
 31
0.0
 11
80.6047056529
 21
212.6584788105
 31
0.0
 11
80.5499048015
 21
212.6325565872
 31
0.0
 11
80.4949194304
 21
212.6073573963
 31
0.0
 11
80.4397632821
 21
212.5828819514
 31
0.0
 11
80.3844500481
 21
212.5591306318
 31
0.0
 11
80.3289933591
 21
212.5361034865
 31
0.0
 11
80.2734067752
 21
212.5138002382
 31
0.0
 11
80.217703777
 21
212.4922202873
 31
0.0
 11
80.1618977563
 21
212.471362717
 31
0.0
 11
80.1060020075
 21
212.4512262975
 31
0.0
 11
80.0500297188
 21
212.4318094919
 31
0.0
 11
79.9939939644
 21
212.4131104609
 31
0.0
 11
79.937907696
 21
212.3951270689
 31
0.0
 11
79.8817837351
 21
212.3778568899
 31
0.0
 11
79.8256347659
 21
212.3612972131
 31
0.0
 11
79.7694733278
 21
212.3454450498
 31
0.0
 11
79.7133118085
 21
212.3302971393
 31
0.0
 11
79.6571624377
 21
212.3158499563
 31
0.0
 11
79.6010372803
 21
212.3020997169
 31
0.0
 11
79.5449482308
 21
212.289042386
 31
0.0
 11
79.4889070078
 21
212.2766736845
 31
0.0
 11
79.4329251478
 21
212.2649890962
 31
0.0
 11
79.3770140009
 21
212.2539838753
 31
0.0
 11
79.3211847257
 21
212.2436530538
 31
0.0
 11
79.2654482848
 21
212.2339914489
 31
0.0
 11
79.2098154409
 21
212.2249936708
 31
0.0
 11
79.1542967523
 21
212.2166541298
 31
0.0
 11
79.0989025701
 21
212.2089670447
 31
0.0
 11
79.0436430343
 21
212.2019264497
 31
0.0
 11
78.9885280714
 21
212.1955262027
 31
0.0
 11
78.9335673911
 21
212.1897599926
 31
0.0
 11
78.8787704844
 21
212.1846213471
 31
0.0
 11
78.8241466211
 21
212.1801036406
 31
0.0
 11
78.7697048484
 21
212.1762001015
 31
0.0
 11
78.7154539887
 21
212.17290382
 31
0.0
 11
78.661402639
 21
212.1702077555
 31
0.0
  0
LINE
  5
254
100
AcDbEntity
  8
0
100
AcDbLine
 62
7
  6
CONTINUOUS
 10
83.4393431938
 20
233.1702077555
 11
83.4393431938
 21
217.1652742819
  0
SPLINE
  5
255
100
AcDbEntity
  8
0
100
AcDbSpline
 62
7
  6
CONTINUOUS
 70
4
 71
3
 72
8
 73
4
 74
255
 42
0.0000001
 43
0.0000001
 44
0.0000000001
 12
7.0710678119
 22
-0.0
 32
0.0
 13
-0.0
 23
-7.0710678119
 33
0.0
 40
0.0
 40
0.0
 40
0.0
 40
0.0
 40
1.0
 40
1.0
 40
1.0
 40
1.0
 10
78.4393431938
 20
238.1702077555
 30
0.0
 41
1.0
 10
81.368275382
 20
238.1702077555
 30
0.0
 41
0.8047378541
 10
83.4393431938
 20
236.0991399436
 30
0.0
 41
0.8047378541
 10
83.4393431938
 20
233.1702077555
 30
0.0
 41
1.0
 11
78.4393431938
 21
238.1702077555
 31
0.0
 11
78.4947109115
 21
238.1699011877
 31
0.0
 11
78.5224869188
 21
238.1695164198
 31
0.0
 11
78.5503229126
 21
238.168975954
 31
0.0
 11
78.5782177883
 21
238.1682787681
 31
0.0
 11
78.6061704248
 21
238.167423848
 31
0.0
 11
78.6341796848
 21
238.1664101875
 31
0.0
 11
78.6622444146
 21
238.165236789
 31
0.0
 11
78.6903634443
 21
238.1639026635
 31
0.0
 11
78.7185355877
 21
238.1624068308
 31
0.0
 11
78.7467596427
 21
238.1607483201
 31
0.0
 11
78.7750343908
 21
238.1589261701
 31
0.0
 11
78.8033585974
 21
238.1569394293
 31
0.0
 11
78.831731012
 21
238.154787156
 31
0.0
 11
78.8601503681
 21
238.1524684193
 31
0.0
 11
78.8886153833
 21
238.1499822986
 31
0.0
 11
78.9171247593
 21
238.1473278842
 31
0.0
 11
78.9456771821
 21
238.1445042779
 31
0.0
 11
78.974271322
 21
238.1415105926
 31
0.0
 11
79.0029058338
 21
238.1383459532
 31
0.0
 11
79.0315793565
 21
238.1350094965
 31
0.0
 11
79.0602905141
 21
238.1315003719
 31
0.0
 11
79.0890379151
 21
238.1278177411
 31
0.0
 11
79.1178201527
 21
238.1239607788
 31
0.0
 11
79.1466358053
 21
238.1199286731
 31
0.0
 11
79.1754834361
 21
238.1157206251
 31
0.0
 11
79.2043615936
 21
238.1113358502
 31
0.0
 11
79.2332688115
 21
238.1067735774
 31
0.0
 11
79.262203609
 21
238.1020330502
 31
0.0
 11
79.2911644909
 21
238.0971135267
 31
0.0
 11
79.3201499478
 21
238.0920142798
 31
0.0
 11
79.3491584559
 21
238.0867345976
 31
0.0
 11
79.3781884777
 21
238.0812737837
 31
0.0
 11
79.4072384619
 21
238.0756311572
 31
0.0
 11
79.4363068434
 21
238.0698060535
 31
0.0
 11
79.4653920439
 21
238.0637978239
 31
0.0
 11
79.4944924715
 21
238.0576058365
 31
0.0
 11
79.5236065216
 21
238.051229476
 31
0.0
 11
79.5527325765
 21
238.0446681444
 31
0.0
 11
79.5818690059
 21
238.0379212607
 31
0.0
 11
79.6110141669
 21
238.0309882619
 31
0.0
 11
79.6401664046
 21
238.0238686024
 31
0.0
 11
79.6693240518
 21
238.0165617551
 31
0.0
 11
79.6984854296
 21
238.009067211
 31
0.0
 11
79.7276488475
 21
238.0013844799
 31
0.0
 11
79.7568126037
 21
237.9935130905
 31
0.0
 11
79.7859749851
 21
237.9854525903
 31
0.0
 11
79.8151342681
 21
237.9772025464
 31
0.0
 11
79.844288718
 21
237.9687625457
 31
0.0
 11
79.8734365901
 21
237.9601321944
 31
0.0
 11
79.9025761296
 21
237.9513111194
 31
0.0
 11
79.9317055716
 21
237.9422989673
 31
0.0
 11
79.9608231419
 21
237.9330954056
 31
0.0
 11
79.9899270569
 21
237.9237001225
 31
0.0
 11
80.0190155242
 21
237.9141128271
 31
0.0
 11
80.0480867424
 21
237.9043332497
 31
0.0
 11
80.077138902
 21
237.8943611419
 31
0.0
 11
80.1061701851
 21
237.8841962771
 31
0.0
 11
80.1351787662
 21
237.8738384501
 31
0.0
 11
80.1641628124
 21
237.8632874782
 31
0.0
 11
80.1931204833
 21
237.8525432005
 31
0.0
 11
80.2220499319
 21
237.8416054785
 31
0.0
 11
80.2509493046
 21
237.8304741963
 31
0.0
 11
80.2798167416
 21
237.8191492608
 31
0.0
 11
80.3086503773
 21
237.8076306016
 31
0.0
 11
80.3374483403
 21
237.7959181715
 31
0.0
 11
80.3662087544
 21
237.7840119464
 31
0.0
 11
80.3949297382
 21
237.7719119254
 31
0.0
 11
80.4236094061
 21
237.7596181315
 31
0.0
 11
80.4522458681
 21
237.7471306109
 31
0.0
 11
80.4808372306
 21
237.7344494338
 31
0.0
 11
80.5093815965
 21
237.7215746943
 31
0.0
 11
80.5378770657
 21
237.7085065104
 31
0.0
 11
80.5663217353
 21
237.6952450243
 31
0.0
 11
80.5947137001
 21
237.6817904025
 31
0.0
 11
80.6230510532
 21
237.6681428356
 31
0.0
 11
80.6513318858
 21
237.6543025389
 31
0.0
 11
80.6795542882
 21
237.640269752
 31
0.0
 11
80.7077163496
 21
237.6260447393
 31
0.0
 11
80.7358161591
 21
237.6116277897
 31
0.0
 11
80.7638518056
 21
237.5970192168
 31
0.0
 11
80.7918213784
 21
237.5822193592
 31
0.0
 11
80.8197229676
 21
237.5672285802
 31
0.0
 11
80.8475546644
 21
237.552047268
 31
0.0
 11
80.8753145616
 21
237.5366758357
 31
0.0
 11
80.903000754
 21
237.5211147214
 31
0.0
 11
80.9306113387
 21
237.5053643883
 31
0.0
 11
80.9581444154
 21
237.4894253242
 31
0.0
 11
80.9855980873
 21
237.4732980424
 31
0.0
 11
81.012970461
 21
237.4569830808
 31
0.0
 11
81.040259647
 21
237.4404810025
 31
0.0
 11
81.0674637602
 21
237.4237923954
 31
0.0
 11
81.0945809204
 21
237.4069178725
 31
0.0
 11
81.1216092526
 21
237.3898580716
 31
0.0
 11
81.1485468872
 21
237.3726136555
 31
0.0
 11
81.1753919608
 21
237.3551853116
 31
0.0
 11
81.2021426163
 21
237.3375737523
 31
0.0
 11
81.2287970035
 21
237.3197797146
 31
0.0
 11
81.2553532794
 21
237.3018039602
 31
0.0
 11
81.2818096086
 21
237.2836472751
 31
0.0
 11
81.3081641638
 21
237.26531047
 31
0.0
 11
81.3344151262
 21
237.2467943799
 31
0.0
 11
81.3605606857
 21
237.2280998641
 31
0.0
 11
81.3865990414
 21
237.2092278061
 31
0.0
 11
81.4125284024
 21
237.1901791131
 31
0.0
 11
81.4383469873
 21
237.1709547166
 31
0.0
 11
81.4640530257
 21
237.1515555716
 31
0.0
 11
81.4896447577
 21
237.1319826569
 31
0.0
 11
81.5151204346
 21
237.1122369747
 31
0.0
 11
81.5404783195
 21
237.0923195505
 31
0.0
 11
81.5657166875
 21
237.0722314328
 31
0.0
 11
81.5908338258
 21
237.0519736934
 31
0.0
 11
81.6158280348
 21
237.0315474266
 31
0.0
 11
81.6406976276
 21
237.0109537494
 31
0.0
 11
81.6654409311
 21
236.9901938012
 31
0.0
 11
81.690056286
 21
236.9692687437
 31
0.0
 11
81.7145420474
 21
236.9481797604
 31
0.0
 11
81.7388965847
 21
236.9269280566
 31
0.0
 11
81.7631182825
 21
236.9055148593
 31
0.0
 11
81.7872055408
 21
236.8839414166
 31
0.0
 11
81.811156775
 21
236.8622089979
 31
0.0
 11
81.8349704168
 21
236.8403188931
 31
0.0
 11
81.8586449142
 21
236.818272413
 31
0.0
 11
81.8821787317
 21
236.7960708885
 31
0.0
 11
81.9055703511
 21
236.7737156706
 31
0.0
 11
81.9288182714
 21
236.7512081301
 31
0.0
 11
81.9519210094
 21
236.7285496573
 31
0.0
 11
81.9748770998
 21
236.7057416614
 31
0.0
 11
81.9976850956
 21
236.6827855711
 31
0.0
 11
82.0203435685
 21
236.6596828331
 31
0.0
 11
82.042851109
 21
236.6364349127
 31
0.0
 11
82.0652063269
 21
236.6130432933
 31
0.0
 11
82.0874078513
 21
236.5895094758
 31
0.0
 11
82.1094543314
 21
236.5658349785
 31
0.0
 11
82.1313444362
 21
236.5420213367
 31
0.0
 11
82.153076855
 21
236.5180701025
 31
0.0
 11
82.1746502976
 21
236.4939828442
 31
0.0
 11
82.1960634949
 21
236.4697611464
 31
0.0
 11
82.2173151987
 21
236.4454066091
 31
0.0
 11
82.238404182
 21
236.4209208477
 31
0.0
 11
82.2593292396
 21
236.3963054928
 31
0.0
 11
82.2800891877
 21
236.3715621892
 31
0.0
 11
82.3006828649
 21
236.3466925964
 31
0.0
 11
82.3211091317
 21
236.3216983875
 31
0.0
 11
82.3413668711
 21
236.2965812492
 31
0.0
 11
82.3614549888
 21
236.2713428812
 31
0.0
 11
82.381372413
 21
236.2459849963
 31
0.0
 11
82.4011180953
 21
236.2205093194
 31
0.0
 11
82.4206910099
 21
236.1949175874
 31
0.0
 11
82.4400901549
 21
236.169211549
 31
0.0
 11
82.4593145514
 21
236.143392964
 31
0.0
 11
82.4783632444
 21
236.1174636031
 31
0.0
 11
82.4972353025
 21
236.0914252474
 31
0.0
 11
82.5159298182
 21
236.0652796879
 31
0.0
 11
82.5344459083
 21
236.0390287255
 31
0.0
 11
82.5527827134
 21
236.0126741703
 31
0.0
 11
82.5709393985
 21
235.986217841
 31
0.0
 11
82.588915153
 21
235.9596615651
 31
0.0
 11
82.6067091907
 21
235.9330071779
 31
0.0
 11
82.6243207499
 21
235.9062565224
 31
0.0
 11
82.6417490938
 21
235.8794114489
 31
0.0
 11
82.6589935099
 21
235.8524738143
 31
0.0
 11
82.6760533108
 21
235.8254454821
 31
0.0
 11
82.6929278337
 21
235.7983283219
 31
0.0
 11
82.7096164408
 21
235.7711242087
 31
0.0
 11
82.7261185191
 21
235.7438350227
 31
0.0
 11
82.7424334807
 21
235.716462649
 31
0.0
 11
82.7585607626
 21
235.6890089771
 31
0.0
 11
82.7744998266
 21
235.6614759003
 31
0.0
 11
82.7902501598
 21
235.6338653157
 31
0.0
 11
82.805811274
 21
235.6061791233
 31
0.0
 11
82.8211827063
 21
235.5784192261
 31
0.0
 11
82.8363640185
 21
235.5505875293
 31
0.0
 11
82.8513547975
 21
235.5226859401
 31
0.0
 11
82.8661546551
 21
235.4947163673
 31
0.0
 11
82.880763228
 21
235.4666807208
 31
0.0
 11
82.8951801776
 21
235.4385809113
 31
0.0
 11
82.9094051904
 21
235.4104188498
 31
0.0
 11
82.9234379772
 21
235.3821964475
 31
0.0
 11
82.9372782739
 21
235.3539156149
 31
0.0
 11
82.9509258408
 21
235.3255782618
 31
0.0
 11
82.9643804627
 21
235.2971862969
 31
0.0
 11
82.9776419487
 21
235.2687416273
 31
0.0
 11
82.9907101326
 21
235.2402461582
 31
0.0
 11
83.0035848721
 21
235.2117017923
 31
0.0
 11
83.0162660492
 21
235.1831104298
 31
0.0
 11
83.0287535698
 21
235.1544739678
 31
0.0
 11
83.0410473637
 21
235.1257942999
 31
0.0
 11
83.0531473847
 21
235.0970733161
 31
0.0
 11
83.0650536098
 21
235.068312902
 31
0.0
 11
83.07676604
 21
235.039514939
 31
0.0
 11
83.0882846991
 21
235.0106813033
 31
0.0
 11
83.0996096346
 21
234.9818138663
 31
0.0
 11
83.1107409168
 21
234.9529144936
 31
0.0
 11
83.1216786388
 21
234.923985045
 31
0.0
 11
83.1324229165
 21
234.895027374
 31
0.0
 11
83.1429738885
 21
234.8660433279
 31
0.0
 11
83.1533317154
 21
234.8370347468
 31
0.0
 11
83.1634965803
 21
234.8080034636
 31
0.0
 11
83.173468688
 21
234.7789513041
 31
0.0
 11
83.1832482655
 21
234.7498800859
 31
0.0
 11
83.1928355609
 21
234.7207916186
 31
0.0
 11
83.202230844
 21
234.6916877035
 31
0.0
 11
83.2114344056
 21
234.6625701332
 31
0.0
 11
83.2204465577
 21
234.6334406912
 31
0.0
 11
83.2292676328
 21
234.6043011518
 31
0.0
 11
83.237897984
 21
234.5751532797
 31
0.0
 11
83.2463379848
 21
234.5459988297
 31
0.0
 11
83.2545880286
 21
234.5168395468
 31
0.0
 11
83.2626485288
 21
234.4876771653
 31
0.0
 11
83.2705199183
 21
234.4585134092
 31
0.0
 11
83.2782026493
 21
234.4293499913
 31
0.0
 11
83.2856971934
 21
234.4001886134
 31
0.0
 11
83.2930040407
 21
234.3710309663
 31
0.0
 11
83.3001237002
 21
234.3418787286
 31
0.0
 11
83.307056699
 21
234.3127335675
 31
0.0
 11
83.3138035827
 21
234.2835971382
 31
0.0
 11
83.3203649143
 21
234.2544710833
 31
0.0
 11
83.3267412748
 21
234.2253570332
 31
0.0
 11
83.3329332622
 21
234.1962566055
 31
0.0
 11
83.3389414918
 21
234.1671714051
 31
0.0
 11
83.3447665955
 21
234.1381030236
 31
0.0
 11
83.350409222
 21
234.1090530394
 31
0.0
 11
83.3558700359
 21
234.0800230176
 31
0.0
 11
83.3611497181
 21
234.0510145094
 31
0.0
 11
83.366248965
 21
234.0220290526
 31
0.0
 11
83.3711684885
 21
233.9930681707
 31
0.0
 11
83.3759090157
 21
233.9641333731
 31
0.0
 11
83.3804712885
 21
233.9352261552
 31
0.0
 11
83.3848560635
 21
233.9063479978
 31
0.0
 11
83.3890641114
 21
233.877500367
 31
0.0
 11
83.3930962172
 21
233.8486847144
 31
0.0
 11
83.3969531794
 21
233.8199024767
 31
0.0
 11
83.4006358102
 21
233.7911550758
 31
0.0
 11
83.4041449348
 21
233.7624439182
 31
0.0
 11
83.4074813915
 21
233.7337703954
 31
0.0
 11
83.4106460309
 21
233.7051358837
 31
0.0
 11
83.4136397162
 21
233.6765417438
 31
0.0
 11
83.4164633225
 21
233.647989321
 31
0.0
 11
83.4191177369
 21
233.619479945
 31
0.0
 11
83.4216038576
 21
233.5910149298
 31
0.0
 11
83.4239225944
 21
233.5625955737
 31
0.0
 11
83.4260748676
 21
233.5342231591
 31
0.0
 11
83.4280616084
 21
233.5058989525
 31
0.0
 11
83.4298837584
 21
233.4776242044
 31
0.0
 11
83.4315422691
 21
233.4494001494
 31
0.0
 11
83.4330381018
 21
233.4212280059
 31
0.0
 11
83.4343722274
 21
233.3931089763
 31
0.0
 11
83.4355456259
 21
233.3650442465
 31
0.0
 11
83.4365592863
 21
233.3370349865
 31
0.0
 11
83.4374142064
 21
233.30908235
 31
0.0
 11
83.4381113923
 21
233.2811874743
 31
0.0
 11
83.4386518581
 21
233.2533514805
 31
0.0
 11
83.439036626
 21
233.2255754732
 31
0.0
 11
83.4393431938
 21
233.1702077555
 31
0.0
  0
LINE
  5
256
100
AcDbEntity
  8
0
100
AcDbLine
 62
7
  6
CONTINUOUS
 10
61.1893431938
 20
238.1702077555
 11
78.4393431938
 21
238.1702077555
  0
SPLINE
  5
257
100
AcDbEntity
  8
0
100
AcDbSpline
 62
7
  6
CONTINUOUS
 70
4
 71
3
 72
8
 73
4
 74
255
 42
0.0000001
 43
0.0000001
 44
0.0000000001
 12
-7.0710678119
 22
-0.0
 32
0.0
 13
-0.0
 23
7.0710678119
 33
0.0
 40
0.0
 40
0.0
 40
0.0
 40
0.0
 40
1.0
 40
1.0
 40
1.0
 40
1.0
 10
61.1893431938
 20
238.1702077555
 30
0.0
 41
1.0
 10
58.2604110057
 20
238.1702077555
 30
0.0
 41
0.8047378541
 10
56.1893431938
 20
240.2412755674
 30
0.0
 41
0.8047378541
 10
56.1893431938
 20
243.1702077555
 30
0.0
 41
1.0
 11
61.1893431938
 21
238.1702077555
 31
0.0
 11
61.1339754761
 21
238.1705143233
 31
0.0
 11
61.1061994689
 21
238.1708990912
 31
0.0
 11
61.078363475
 21
238.171439557
 31
0.0
 11
61.0504685993
 21
238.1721367429
 31
0.0
 11
61.0225159628
 21
238.172991663
 31
0.0
 11
60.9945067029
 21
238.1740053235
 31
0.0
 11
60.9664419731
 21
238.175178722
 31
0.0
 11
60.9383229434
 21
238.1765128475
 31
0.0
 11
60.9101507999
 21
238.1780086802
 31
0.0
 11
60.8819267449
 21
238.1796671909
 31
0.0
 11
60.8536519969
 21
238.1814893409
 31
0.0
 11
60.8253277903
 21
238.1834760818
 31
0.0
 11
60.7969553756
 21
238.185628355
 31
0.0
 11
60.7685360195
 21
238.1879470917
 31
0.0
 11
60.7400710043
 21
238.1904332124
 31
0.0
 11
60.7115616283
 21
238.1930876268
 31
0.0
 11
60.6830092055
 21
238.1959112332
 31
0.0
 11
60.6544150656
 21
238.1989049185
 31
0.0
 11
60.6257805539
 21
238.2020695579
 31
0.0
 11
60.5971070312
 21
238.2054060145
 31
0.0
 11
60.5683958736
 21
238.2089151391
 31
0.0
 11
60.5396484726
 21
238.2125977699
 31
0.0
 11
60.5108662349
 21
238.2164547322
 31
0.0
 11
60.4820505824
 21
238.2204868379
 31
0.0
 11
60.4532029516
 21
238.2246948859
 31
0.0
 11
60.4243247941
 21
238.2290796608
 31
0.0
 11
60.3954175762
 21
238.2336419336
 31
0.0
 11
60.3664827787
 21
238.2383824608
 31
0.0
 11
60.3375218967
 21
238.2433019844
 31
0.0
 11
60.3085364399
 21
238.2484012313
 31
0.0
 11
60.2795279318
 21
238.2536809134
 31
0.0
 11
60.2504979099
 21
238.2591417274
 31
0.0
 11
60.2214479258
 21
238.2647843538
 31
0.0
 11
60.1923795442
 21
238.2706094575
 31
0.0
 11
60.1632943438
 21
238.2766176871
 31
0.0
 11
60.1341939162
 21
238.2828096745
 31
0.0
 11
60.1050798661
 21
238.289186035
 31
0.0
 11
60.0759538112
 21
238.2957473666
 31
0.0
 11
60.0468173818
 21
238.3024942503
 31
0.0
 11
60.0176722208
 21
238.3094272492
 31
0.0
 11
59.9885199831
 21
238.3165469086
 31
0.0
 11
59.9593623359
 21
238.3238537559
 31
0.0
 11
59.9302009581
 21
238.3313483
 31
0.0
 11
59.9010375402
 21
238.3390310311
 31
0.0
 11
59.871873784
 21
238.3469024206
 31
0.0
 11
59.8427114025
 21
238.3549629208
 31
0.0
 11
59.8135521196
 21
238.3632129646
 31
0.0
 11
59.7843976697
 21
238.3716529653
 31
0.0
 11
59.7552497975
 21
238.3802833166
 31
0.0
 11
59.7261102581
 21
238.3891043917
 31
0.0
 11
59.6969808161
 21
238.3981165437
 31
0.0
 11
59.6678632458
 21
238.4073201054
 31
0.0
 11
59.6387593307
 21
238.4167153885
 31
0.0
 11
59.6096708635
 21
238.4263026839
 31
0.0
 11
59.5805996453
 21
238.4360822613
 31
0.0
 11
59.5515474857
 21
238.4460543691
 31
0.0
 11
59.5225162026
 21
238.456219234
 31
0.0
 11
59.4935076214
 21
238.4665770609
 31
0.0
 11
59.4645235753
 21
238.4771280328
 31
0.0
 11
59.4355659044
 21
238.4878723106
 31
0.0
 11
59.4066364558
 21
238.4988100326
 31
0.0
 11
59.377737083
 21
238.5099413147
 31
0.0
 11
59.348869646
 21
238.5212662502
 31
0.0
 11
59.3200360104
 21
238.5327849094
 31
0.0
 11
59.2912380473
 21
238.5444973395
 31
0.0
 11
59.2624776333
 21
238.5564035647
 31
0.0
 11
59.2337566494
 21
238.5685035856
 31
0.0
 11
59.2050769816
 21
238.5807973796
 31
0.0
 11
59.1764405196
 21
238.5932849002
 31
0.0
 11
59.1478491571
 21
238.6059660772
 31
0.0
 11
59.1193047912
 21
238.6188408167
 31
0.0
 11
59.090809322
 21
238.6319090006
 31
0.0
 11
59.0623646524
 21
238.6451704867
 31
0.0
 11
59.0339726875
 21
238.6586251085
 31
0.0
 11
59.0056353345
 21
238.6722726754
 31
0.0
 11
58.9773545018
 21
238.6861129721
 31
0.0
 11
58.9491320995
 21
238.700145759
 31
0.0
 11
58.920970038
 21
238.7143707717
 31
0.0
 11
58.8928702286
 21
238.7287877214
 31
0.0
 11
58.8648345821
 21
238.7433962942
 31
0.0
 11
58.8368650092
 21
238.7581961518
 31
0.0
 11
58.8089634201
 21
238.7731869308
 31
0.0
 11
58.7811317232
 21
238.7883682431
 31
0.0
 11
58.753371826
 21
238.8037396753
 31
0.0
 11
58.7256856336
 21
238.8193007896
 31
0.0
 11
58.698075049
 21
238.8350511227
 31
0.0
 11
58.6705419722
 21
238.8509901868
 31
0.0
 11
58.6430883003
 21
238.8671174686
 31
0.0
 11
58.6157159267
 21
238.8834324302
 31
0.0
 11
58.5884267407
 21
238.8999345085
 31
0.0
 11
58.5612226274
 21
238.9166231156
 31
0.0
 11
58.5341054672
 21
238.9334976385
 31
0.0
 11
58.5070771351
 21
238.9505574394
 31
0.0
 11
58.4801395005
 21
238.9678018556
 31
0.0
 11
58.4532944269
 21
238.9852301994
 31
0.0
 11
58.4265437714
 21
239.0028417587
 31
0.0
 11
58.3998893842
 21
239.0206357964
 31
0.0
 11
58.3733331083
 21
239.0386115509
 31
0.0
 11
58.3468767791
 21
239.056768236
 31
0.0
 11
58.3205222238
 21
239.075105041
 31
0.0
 11
58.2942712614
 21
239.0936211311
 31
0.0
 11
58.268125702
 21
239.1123156469
 31
0.0
 11
58.2420873462
 21
239.131187705
 31
0.0
 11
58.2161579853
 21
239.1502363979
 31
0.0
 11
58.1903394003
 21
239.1694607944
 31
0.0
 11
58.1646333619
 21
239.1888599394
 31
0.0
 11
58.13904163
 21
239.2084328541
 31
0.0
 11
58.113565953
 21
239.2281785363
 31
0.0
 11
58.0882080681
 21
239.2480959606
 31
0.0
 11
58.0629697002
 21
239.2681840782
 31
0.0
 11
58.0378525618
 21
239.2884418176
 31
0.0
 11
58.0128583529
 21
239.3088680844
 31
0.0
 11
57.9879887601
 21
239.3294617616
 31
0.0
 11
57.9632454566
 21
239.3502217098
 31
0.0
 11
57.9386301016
 21
239.3711467673
 31
0.0
 11
57.9141443403
 21
239.3922357506
 31
0.0
 11
57.889789803
 21
239.4134874544
 31
0.0
 11
57.8655681051
 21
239.4349006517
 31
0.0
 11
57.8414808469
 21
239.4564740944
 31
0.0
 11
57.8175296126
 21
239.4782065131
 31
0.0
 11
57.7937159708
 21
239.5000966179
 31
0.0
 11
57.7700414735
 21
239.522143098
 31
0.0
 11
57.746507656
 21
239.5443446225
 31
0.0
 11
57.7231160366
 21
239.5666998404
 31
0.0
 11
57.6998681163
 21
239.5892073809
 31
0.0
 11
57.6767653783
 21
239.6118658538
 31
0.0
 11
57.6538092879
 21
239.6346738496
 31
0.0
 11
57.6310012921
 21
239.65762994
 31
0.0
 11
57.6083428192
 21
239.680732678
 31
0.0
 11
57.5858352787
 21
239.7039805983
 31
0.0
 11
57.5634800608
 21
239.7273722177
 31
0.0
 11
57.5412785363
 21
239.7509060352
 31
0.0
 11
57.5192320562
 21
239.7745805325
 31
0.0
 11
57.4973419515
 21
239.7983941743
 31
0.0
 11
57.4756095327
 21
239.8223454085
 31
0.0
 11
57.45403609
 21
239.8464326668
 31
0.0
 11
57.4326228927
 21
239.8706543646
 31
0.0
 11
57.4113711889
 21
239.895008902
 31
0.0
 11
57.3902822056
 21
239.9194946633
 31
0.0
 11
57.3693571481
 21
239.9441100182
 31
0.0
 11
57.3485971999
 21
239.9688533218
 31
0.0
 11
57.3280035228
 21
239.9937229146
 31
0.0
 11
57.307577256
 21
240.0187171235
 31
0.0
 11
57.2873195165
 21
240.0438342619
 31
0.0
 11
57.2672313989
 21
240.0690726298
 31
0.0
 11
57.2473139746
 21
240.0944305147
 31
0.0
 11
57.2275682924
 21
240.1199061917
 31
0.0
 11
57.2079953777
 21
240.1454979236
 31
0.0
 11
57.1885962328
 21
240.171203962
 31
0.0
 11
57.1693718363
 21
240.197022547
 31
0.0
 11
57.1503231433
 21
240.2229519079
 31
0.0
 11
57.1314510852
 21
240.2489902637
 31
0.0
 11
57.1127565694
 21
240.2751358231
 31
0.0
 11
57.0942404794
 21
240.3013867855
 31
0.0
 11
57.0759036743
 21
240.3277413407
 31
0.0
 11
57.0577469892
 21
240.35419767
 31
0.0
 11
57.0397712347
 21
240.3807539459
 31
0.0
 11
57.021977197
 21
240.4074083331
 31
0.0
 11
57.0043656377
 21
240.4341589886
 31
0.0
 11
56.9869372939
 21
240.4610040622
 31
0.0
 11
56.9696928777
 21
240.4879416967
 31
0.0
 11
56.9526330769
 21
240.5149700289
 31
0.0
 11
56.935758554
 21
240.5420871891
 31
0.0
 11
56.9190699469
 21
240.5692913024
 31
0.0
 11
56.9025678685
 21
240.5965804883
 31
0.0
 11
56.8862529069
 21
240.623952862
 31
0.0
 11
56.8701256251
 21
240.6514065339
 31
0.0
 11
56.8541865611
 21
240.6789396107
 31
0.0
 11
56.8384362279
 21
240.7065501953
 31
0.0
 11
56.8228751137
 21
240.7342363877
 31
0.0
 11
56.8075036814
 21
240.7619962849
 31
0.0
 11
56.7923223692
 21
240.7898279817
 31
0.0
 11
56.7773315901
 21
240.8177295709
 31
0.0
 11
56.7625317325
 21
240.8456991437
 31
0.0
 11
56.7479231597
 21
240.8737347902
 31
0.0
 11
56.73350621
 21
240.9018345997
 31
0.0
 11
56.7192811973
 21
240.9299966612
 31
0.0
 11
56.7052484104
 21
240.9582190635
 31
0.0
 11
56.6914081137
 21
240.9864998961
 31
0.0
 11
56.6777605468
 21
241.0148372492
 31
0.0
 11
56.664305925
 21
241.0432292141
 31
0.0
 11
56.6510444389
 21
241.0716738837
 31
0.0
 11
56.637976255
 21
241.1001693528
 31
0.0
 11
56.6251015155
 21
241.1287137187
 31
0.0
 11
56.6124203385
 21
241.1573050812
 31
0.0
 11
56.5999328179
 21
241.1859415432
 31
0.0
 11
56.5876390239
 21
241.2146212111
 31
0.0
 11
56.575539003
 21
241.2433421949
 31
0.0
 11
56.5636327778
 21
241.272102609
 31
0.0
 11
56.5519203477
 21
241.3009005721
 31
0.0
 11
56.5404016885
 21
241.3297342077
 31
0.0
 11
56.529076753
 21
241.3586016447
 31
0.0
 11
56.5179454709
 21
241.3875010174
 31
0.0
 11
56.5070077489
 21
241.4164304661
 31
0.0
 11
56.4962634711
 21
241.445388137
 31
0.0
 11
56.4857124992
 21
241.4743721831
 31
0.0
 11
56.4753546723
 21
241.5033807643
 31
0.0
 11
56.4651898074
 21
241.5324120474
 31
0.0
 11
56.4552176996
 21
241.5614642069
 31
0.0
 11
56.4454381222
 21
241.5905354252
 31
0.0
 11
56.4358508268
 21
241.6196238924
 31
0.0
 11
56.4264555437
 21
241.6487278075
 31
0.0
 11
56.4172519821
 21
241.6778453778
 31
0.0
 11
56.40823983
 21
241.7069748198
 31
0.0
 11
56.3994187549
 21
241.7361143592
 31
0.0
 11
56.3907884037
 21
241.7652622314
 31
0.0
 11
56.3823484029
 21
241.7944166813
 31
0.0
 11
56.3740983591
 21
241.8235759642
 31
0.0
 11
56.3660378589
 21
241.8527383457
 31
0.0
 11
56.3581664694
 21
241.8819021018
 31
0.0
 11
56.3504837383
 21
241.9110655198
 31
0.0
 11
56.3429891943
 21
241.9402268976
 31
0.0
 11
56.3356823469
 21
241.9693845448
 31
0.0
 11
56.3285626875
 21
241.9985367824
 31
0.0
 11
56.3216296886
 21
242.0276819435
 31
0.0
 11
56.314882805
 21
242.0568183728
 31
0.0
 11
56.3083214733
 21
242.0859444277
 31
0.0
 11
56.3019451129
 21
242.1150584778
 31
0.0
 11
56.2957531254
 21
242.1441589055
 31
0.0
 11
56.2897448959
 21
242.1732441059
 31
0.0
 11
56.2839197921
 21
242.2023124874
 31
0.0
 11
56.2782771657
 21
242.2313624716
 31
0.0
 11
56.2728163517
 21
242.2603924934
 31
0.0
 11
56.2675366696
 21
242.2894010016
 31
0.0
 11
56.2624374227
 21
242.3183864584
 31
0.0
 11
56.2575178992
 21
242.3473473403
 31
0.0
 11
56.252777372
 21
242.3762821379
 31
0.0
 11
56.2482150991
 21
242.4051893558
 31
0.0
 11
56.2438303242
 21
242.4340675133
 31
0.0
 11
56.2396222763
 21
242.462915144
 31
0.0
 11
56.2355901705
 21
242.4917307966
 31
0.0
 11
56.2317332082
 21
242.5205130343
 31
0.0
 11
56.2280505774
 21
242.5492604352
 31
0.0
 11
56.2245414528
 21
242.5779715928
 31
0.0
 11
56.2212049962
 21
242.6066451156
 31
0.0
 11
56.2180403568
 21
242.6352796273
 31
0.0
 11
56.2150466715
 21
242.6638737672
 31
0.0
 11
56.2122230651
 21
242.69242619
 31
0.0
 11
56.2095686508
 21
242.720935566
 31
0.0
 11
56.20708253
 21
242.7494005812
 31
0.0
 11
56.2047637933
 21
242.7778199373
 31
0.0
 11
56.2026115201
 21
242.8061923519
 31
0.0
 11
56.2006247792
 21
242.8345165586
 31
0.0
 11
56.1988026292
 21
242.8627913066
 31
0.0
 11
56.1971441186
 21
242.8910153616
 31
0.0
 11
56.1956482859
 21
242.9191875051
 31
0.0
 11
56.1943141603
 21
242.9473065348
 31
0.0
 11
56.1931407618
 21
242.9753712645
 31
0.0
 11
56.1921271013
 21
243.0033805245
 31
0.0
 11
56.1912721812
 21
243.031333161
 31
0.0
 11
56.1905749954
 21
243.0592280367
 31
0.0
 11
56.1900345295
 21
243.0870640305
 31
0.0
 11
56.1896497616
 21
243.1148400378
 31
0.0
 11
56.1893431938
 21
243.1702077555
 31
0.0
  0
LINE
  5
258
100
AcDbEntity
  8
0
100
AcDbLine
 62
7
  6
CONTINUOUS
 10
56.1893431938
 20
256.6702077555
 11
56.1893431938
 21
243.1702077555
  0
LINE
  5
259
100
AcDbEntity
  8
0
100
AcDbLine
 62
7
  6
CONTINUOUS
 10
56.1893431938
 20
256.6702077555
 11
63.3793431938
 21
256.6702077555
  0
LINE
  5
25A
100
AcDbEntity
  8
0
100
AcDbLine
 62
7
  6
CONTINUOUS
 10
63.3793431938
 20
256.6702077555
 11
64.068023156
 21
244.312365377
  0
SPLINE
  5
25B
100
AcDbEntity
  8
0
100
AcDbSpline
 62
7
  6
CONTINUOUS
 70
4
 71
3
 72
8
 73
4
 74
129
 42
0.0000001
 43
0.0000001
 44
0.0000000001
 12
-0.965673485
 22
0.0903586829
 32
0.0
 13
-0.0539665579
 23
0.9683891686
 33
0.0
 40
0.0
 40
0.0
 40
0.0
 40
0.0
 40
1.0
 40
1.0
 40
1.0
 40
1.0
 10
64.7408164658
 20
243.6137674
 30
0.0
 41
1.0
 10
64.356932126
 20
243.6496877021
 30
0.0
 41
0.8385107918
 10
64.0894764906
 20
243.9274014711
 30
0.0
 41
0.8385107918
 10
64.068023156
 20
244.312365377
 30
0.0
 41
1.0
 11
64.7408164658
 21
243.6137674
 31
0.0
 11
64.7332616468
 21
243.6145132521
 31
0.0
 11
64.7256865808
 21
243.6153394646
 31
0.0
 11
64.7180923996
 21
243.6162467904
 31
0.0
 11
64.7104802592
 21
243.6172359642
 31
0.0
 11
64.7028513386
 21
243.6183077022
 31
0.0
 11
64.6952068402
 21
243.6194627009
 31
0.0
 11
64.6875479893
 21
243.6207016363
 31
0.0
 11
64.6798760338
 21
243.6220251637
 31
0.0
 11
64.6721922436
 21
243.6234339162
 31
0.0
 11
64.6644979105
 21
243.6249285043
 31
0.0
 11
64.6567943477
 21
243.6265095151
 31
0.0
 11
64.6490828892
 21
243.6281775118
 31
0.0
 11
64.6413648894
 21
243.6299330323
 31
0.0
 11
64.6336417228
 21
243.631776589
 31
0.0
 11
64.6259147832
 21
243.6337086681
 31
0.0
 11
64.6181854831
 21
243.6357297284
 31
0.0
 11
64.6104552535
 21
243.6378402012
 31
0.0
 11
64.6027255427
 21
243.640040489
 31
0.0
 11
64.5949978162
 21
243.6423309653
 31
0.0
 11
64.5872735556
 21
243.6447119738
 31
0.0
 11
64.5795542582
 21
243.6471838276
 31
0.0
 11
64.5718414362
 21
243.6497468087
 31
0.0
 11
64.5641366157
 21
243.6524011673
 31
0.0
 11
64.5564413362
 21
243.6551471215
 31
0.0
 11
64.5487571498
 21
243.6579848563
 31
0.0
 11
64.5410856201
 21
243.6609145233
 31
0.0
 11
64.5334283215
 21
243.6639362401
 31
0.0
 11
64.5257868385
 21
243.66705009
 31
0.0
 11
64.5181627646
 21
243.6702561213
 31
0.0
 11
64.5105577011
 21
243.6735543468
 31
0.0
 11
64.5029732569
 21
243.6769447438
 31
0.0
 11
64.4954110466
 21
243.680427253
 31
0.0
 11
64.4878726905
 21
243.6840017789
 31
0.0
 11
64.4803598127
 21
243.6876681891
 31
0.0
 11
64.4728740406
 21
243.691426314
 31
0.0
 11
64.4654170039
 21
243.6952759465
 31
0.0
 11
64.4579903331
 21
243.6992168421
 31
0.0
 11
64.450595659
 21
243.7032487181
 31
0.0
 11
64.4432346112
 21
243.7073712542
 31
0.0
 11
64.4359088171
 21
243.7115840918
 31
0.0
 11
64.4286199012
 21
243.7158868341
 31
0.0
 11
64.4213694832
 21
243.7202790462
 31
0.0
 11
64.4141591779
 21
243.7247602547
 31
0.0
 11
64.406990593
 21
243.7293299482
 31
0.0
 11
64.399865329
 21
243.7339875771
 31
0.0
 11
64.3927849774
 21
243.7387325537
 31
0.0
 11
64.3857511198
 21
243.7435642524
 31
0.0
 11
64.3787653268
 21
243.7484820101
 31
0.0
 11
64.371829157
 21
243.7534851258
 31
0.0
 11
64.3649441556
 21
243.7585728616
 31
0.0
 11
64.3581118534
 21
243.7637444425
 31
0.0
 11
64.3513337661
 21
243.7689990569
 31
0.0
 11
64.3446113926
 21
243.7743358572
 31
0.0
 11
64.3379462142
 21
243.7797539597
 31
0.0
 11
64.3313396936
 21
243.7852524456
 31
0.0
 11
64.324793274
 21
243.7908303611
 31
0.0
 11
64.3183083776
 21
243.7964867181
 31
0.0
 11
64.3118864049
 21
243.8022204948
 31
0.0
 11
64.3055287337
 21
243.8080306362
 31
0.0
 11
64.299236718
 21
243.8139160548
 31
0.0
 11
64.2930116873
 21
243.8198756313
 31
0.0
 11
64.2868549454
 21
243.8259082151
 31
0.0
 11
64.2807677694
 21
243.8320126253
 31
0.0
 11
64.2747514094
 21
243.8381876515
 31
0.0
 11
64.2688070868
 21
243.8444320543
 31
0.0
 11
64.2629359942
 21
243.8507445663
 31
0.0
 11
64.2571392942
 21
243.8571238929
 31
0.0
 11
64.251418119
 21
243.8635687135
 31
0.0
 11
64.245773569
 21
243.8700776818
 31
0.0
 11
64.2402067129
 21
243.8766494273
 31
0.0
 11
64.2347185864
 21
243.883282556
 31
0.0
 11
64.2293101919
 21
243.8899756514
 31
0.0
 11
64.2239824979
 21
243.8967272755
 31
0.0
 11
64.2187364383
 21
243.9035359698
 31
0.0
 11
64.2135729118
 21
243.9104002565
 31
0.0
 11
64.2084927816
 21
243.9173186394
 31
0.0
 11
64.203496875
 21
243.9242896048
 31
0.0
 11
64.1985859828
 21
243.9313116229
 31
0.0
 11
64.1937608588
 21
243.9383831488
 31
0.0
 11
64.1890222199
 21
243.9455026235
 31
0.0
 11
64.1843707455
 21
243.9526684751
 31
0.0
 11
64.1798070772
 21
243.9598791199
 31
0.0
 11
64.1753318188
 21
243.9671329633
 31
0.0
 11
64.1709455358
 21
243.9744284012
 31
0.0
 11
64.1666487557
 21
243.9817638213
 31
0.0
 11
64.1624419674
 21
243.9891376037
 31
0.0
 11
64.1583256216
 21
243.9965481221
 31
0.0
 11
64.1543001305
 21
244.0039937456
 31
0.0
 11
64.1503658678
 21
244.0114728388
 31
0.0
 11
64.1465231689
 21
244.0189837638
 31
0.0
 11
64.1427723309
 21
244.0265248807
 31
0.0
 11
64.1391136127
 21
244.034094549
 31
0.0
 11
64.1355472353
 21
244.0416911285
 31
0.0
 11
64.1320733817
 21
244.0493129804
 31
0.0
 11
64.1286921976
 21
244.0569584687
 31
0.0
 11
64.1254037912
 21
244.0646259606
 31
0.0
 11
64.1222082338
 21
244.0723138281
 31
0.0
 11
64.1191055599
 21
244.0800204487
 31
0.0
 11
64.1160957678
 21
244.0877442064
 31
0.0
 11
64.1131788199
 21
244.0954834929
 31
0.0
 11
64.110354643
 21
244.1032367082
 31
0.0
 11
64.1076231289
 21
244.111002262
 31
0.0
 11
64.1049841349
 21
244.1187785739
 31
0.0
 11
64.1024374842
 21
244.1265640752
 31
0.0
 11
64.0999829665
 21
244.1343572089
 31
0.0
 11
64.0976203383
 21
244.1421564311
 31
0.0
 11
64.0953493241
 21
244.1499602116
 31
0.0
 11
64.0931696162
 21
244.1577670347
 31
0.0
 11
64.091080876
 21
244.1655753999
 31
0.0
 11
64.0890827343
 21
244.1733838228
 31
0.0
 11
64.0871747919
 21
244.1811908358
 31
0.0
 11
64.0853566205
 21
244.1889949884
 31
0.0
 11
64.0836277633
 21
244.1967948485
 31
0.0
 11
64.0819877356
 21
244.2045890023
 31
0.0
 11
64.0804360256
 21
244.2123760557
 31
0.0
 11
64.0789720951
 21
244.220154634
 31
0.0
 11
64.0775953805
 21
244.2279233831
 31
0.0
 11
64.076305293
 21
244.2356809697
 31
0.0
 11
64.07510122
 21
244.2434260819
 31
0.0
 11
64.0739825251
 21
244.2511574296
 31
0.0
 11
64.0729485498
 21
244.2588737449
 31
0.0
 11
64.0719986136
 21
244.2665737824
 31
0.0
 11
64.0711320148
 21
244.27425632
 31
0.0
 11
64.0703480317
 21
244.2819201587
 31
0.0
 11
64.0696459231
 21
244.289564123
 31
0.0
 11
64.0690249289
 21
244.2971870616
 31
0.0
 11
64.0684842716
 21
244.3047878472
 31
0.0
 11
64.068023156
 21
244.312365377
 31
0.0
  0
LINE
  5
25C
100
AcDbEntity
  8
0
100
AcDbLine
 62
7
  6
CONTINUOUS
 10
64.7408164658
 20
243.6137674
 11
85.9393431938
 21
241.6302077555
  0
LINE
  5
25D
100
AcDbEntity
  8
0
100
AcDbLine
 62
7
  6
CONTINUOUS
 10
85.9393431938
 20
241.6302077555
 11
107.1497769628
 21
243.3570150657
  0
SPLINE
  5
25E
100
AcDbEntity
  8
0
100
AcDbSpline
 62
7
  6
CONTINUOUS
 70
4
 71
3
 72
8
 73
4
 74
129
 42
0.0000001
 43
0.0000001
 44
0.0000000001
 12
-0.0464076807
 22
-1.3289420988
 32
0.0
 13
-1.3253670733
 23
-0.1079022511
 33
0.0
 40
0.0
 40
0.0
 40
0.0
 40
0.0
 40
1.0
 40
1.0
 40
1.0
 40
1.0
 10
108.068023156
 20
244.3188179059
 30
0.0
 41
1.0
 10
108.049414734
 20
243.7859424208
 30
0.0
 41
0.8313024561
 10
107.6812189442
 20
243.4002814085
 30
0.0
 41
0.8313024561
 10
107.1497769628
 20
243.3570150657
 30
0.0
 41
1.0
 11
108.068023156
 21
244.3188179059
 31
0.0
 11
108.0676057457
 21
244.3084171524
 31
0.0
 11
108.0670778262
 21
244.2979806188
 31
0.0
 11
108.0664382014
 21
244.2875098428
 31
0.0
 11
108.0656856986
 21
244.2770063988
 31
0.0
 11
108.0648191698
 21
244.2664718977
 31
0.0
 11
108.0638374928
 21
244.2559079868
 31
0.0
 11
108.0627395725
 21
244.245316349
 31
0.0
 11
108.0615243418
 21
244.2346987029
 31
0.0
 11
108.0601907633
 21
244.2240568021
 31
0.0
 11
108.0587378301
 21
244.2133924344
 31
0.0
 11
108.0571645671
 21
244.202707422
 31
0.0
 11
108.0554700322
 21
244.1920036201
 31
0.0
 11
108.0536533177
 21
244.181282917
 31
0.0
 11
108.0517135509
 21
244.1705472331
 31
0.0
 11
108.049649896
 21
244.1597985198
 31
0.0
 11
108.0474615547
 21
244.1490387597
 31
0.0
 11
108.0451477674
 21
244.1382699648
 31
0.0
 11
108.0427078147
 21
244.1274941763
 31
0.0
 11
108.040141018
 21
244.1167134635
 31
0.0
 11
108.0374467409
 21
244.1059299228
 31
0.0
 11
108.0346243903
 21
244.0951456767
 31
0.0
 11
108.0316734171
 21
244.084362873
 31
0.0
 11
108.0285933175
 21
244.0735836836
 31
0.0
 11
108.0253836339
 21
244.0628103031
 31
0.0
 11
108.0220439559
 21
244.0520449483
 31
0.0
 11
108.0185739211
 21
244.0412898564
 31
0.0
 11
108.014973216
 21
244.0305472839
 31
0.0
 11
108.011241577
 21
244.0198195058
 31
0.0
 11
108.0073787912
 21
244.0091088134
 31
0.0
 11
108.0033846968
 21
243.9984175139
 31
0.0
 11
107.9992591843
 21
243.9877479282
 31
0.0
 11
107.995002197
 21
243.9771023902
 31
0.0
 11
107.9906137317
 21
243.9664832448
 31
0.0
 11
107.9860938392
 21
243.9558928466
 31
0.0
 11
107.9814426247
 21
243.9453335585
 31
0.0
 11
107.9766602487
 21
243.9348077501
 31
0.0
 11
107.9717469273
 21
243.9243177959
 31
0.0
 11
107.9667029325
 21
243.9138660741
 31
0.0
 11
107.9615285923
 21
243.9034549648
 31
0.0
 11
107.9562242917
 21
243.8930868482
 31
0.0
 11
107.9507904724
 21
243.8827641034
 31
0.0
 11
107.9452276328
 21
243.8724891061
 31
0.0
 11
107.9395363287
 21
243.8622642275
 31
0.0
 11
107.933717173
 21
243.8520918324
 31
0.0
 11
107.9277708357
 21
243.8419742773
 31
0.0
 11
107.921698044
 21
243.8319139091
 31
0.0
 11
107.9154995821
 21
243.821913063
 31
0.0
 11
107.9091762908
 21
243.811974061
 31
0.0
 11
107.9027290678
 21
243.8020992101
 31
0.0
 11
107.8961588668
 21
243.7922908008
 31
0.0
 11
107.8894666974
 21
243.782551105
 31
0.0
 11
107.882653625
 21
243.7728823747
 31
0.0
 11
107.8757207695
 21
243.7632868401
 31
0.0
 11
107.8686693056
 21
243.753766708
 31
0.0
 11
107.8615004618
 21
243.7443241601
 31
0.0
 11
107.8542155196
 21
243.7349613516
 31
0.0
 11
107.846815813
 21
243.7256804092
 31
0.0
 11
107.8393027279
 21
243.7164834296
 31
0.0
 11
107.8316777005
 21
243.7073724785
 31
0.0
 11
107.8239422175
 21
243.6983495881
 31
0.0
 11
107.8160978142
 21
243.6894167565
 31
0.0
 11
107.8081460738
 21
243.6805759455
 31
0.0
 11
107.8000886267
 21
243.67182908
 31
0.0
 11
107.7919271488
 21
243.6631780456
 31
0.0
 11
107.7836633608
 21
243.654624688
 31
0.0
 11
107.7752990266
 21
243.6461708116
 31
0.0
 11
107.7668359526
 21
243.6378181779
 31
0.0
 11
107.7582759857
 21
243.6295685044
 31
0.0
 11
107.7496210125
 21
243.6214234638
 31
0.0
 11
107.7408729578
 21
243.6133846821
 31
0.0
 11
107.7320337828
 21
243.6054537385
 31
0.0
 11
107.7231054844
 21
243.5976321634
 31
0.0
 11
107.7140900928
 21
243.5899214383
 31
0.0
 11
107.7049896709
 21
243.5823229942
 31
0.0
 11
107.6958063121
 21
243.5748382111
 31
0.0
 11
107.6865421387
 21
243.5674684172
 31
0.0
 11
107.677199301
 21
243.5602148881
 31
0.0
 11
107.6677799748
 21
243.5530788458
 31
0.0
 11
107.6582863603
 21
243.5460614589
 31
0.0
 11
107.6487206804
 21
243.5391638411
 31
0.0
 11
107.6390851787
 21
243.5323870511
 31
0.0
 11
107.6293821184
 21
243.5257320926
 31
0.0
 11
107.61961378
 21
243.5191999129
 31
0.0
 11
107.6097824599
 21
243.5127914036
 31
0.0
 11
107.5998904686
 21
243.5065073997
 31
0.0
 11
107.5899401293
 21
243.5003486797
 31
0.0
 11
107.5799337758
 21
243.4943159653
 31
0.0
 11
107.5698737509
 21
243.4884099214
 31
0.0
 11
107.5597624049
 21
243.4826311563
 31
0.0
 11
107.5496020936
 21
243.4769802211
 31
0.0
 11
107.5393951771
 21
243.4714576105
 31
0.0
 11
107.5291440176
 21
243.4660637626
 31
0.0
 11
107.5188509781
 21
243.4607990592
 31
0.0
 11
107.5085184208
 21
243.4556638261
 31
0.0
 11
107.498148705
 21
243.4506583333
 31
0.0
 11
107.4877441864
 21
243.4457827954
 31
0.0
 11
107.4773072147
 21
243.4410373722
 31
0.0
 11
107.4668401324
 21
243.4364221692
 31
0.0
 11
107.4563452735
 21
243.4319372375
 31
0.0
 11
107.4458249615
 21
243.4275825755
 31
0.0
 11
107.4352815085
 21
243.4233581284
 31
0.0
 11
107.4247172135
 21
243.4192637895
 31
0.0
 11
107.414134361
 21
243.4152994009
 31
0.0
 11
107.4035352197
 21
243.411464754
 31
0.0
 11
107.3929220413
 21
243.4077595904
 31
0.0
 11
107.3822970589
 21
243.4041836026
 31
0.0
 11
107.3716624862
 21
243.4007364354
 31
0.0
 11
107.361020516
 21
243.3974176859
 31
0.0
 11
107.3503733193
 21
243.3942269053
 31
0.0
 11
107.3397230437
 21
243.3911635992
 31
0.0
 11
107.3290718129
 21
243.388227229
 31
0.0
 11
107.3184217254
 21
243.3854172129
 31
0.0
 11
107.3077748535
 21
243.3827329264
 31
0.0
 11
107.2971332423
 21
243.3801737042
 31
0.0
 11
107.2864989089
 21
243.3777388407
 31
0.0
 11
107.2758738418
 21
243.3754275911
 31
0.0
 11
107.2652599996
 21
243.3732391728
 31
0.0
 11
107.2546593103
 21
243.3711727663
 31
0.0
 11
107.2440736712
 21
243.3692275167
 31
0.0
 11
107.2335049473
 21
243.3674025341
 31
0.0
 11
107.2229549714
 21
243.3656968957
 31
0.0
 11
107.2124255432
 21
243.3641096462
 31
0.0
 11
107.2019184287
 21
243.3626397994
 31
0.0
 11
107.19143536
 21
243.3612863392
 31
0.0
 11
107.1809780343
 21
243.360048221
 31
0.0
 11
107.1705481141
 21
243.3589243725
 31
0.0
 11
107.1601472265
 21
243.3579136953
 31
0.0
 11
107.1497769628
 21
243.3570150657
 31
0.0
  0
LINE
  5
25F
100
AcDbEntity
  8
0
100
AcDbLine
 62
7
  6
CONTINUOUS
 10
108.068023156
 20
244.3188179059
 11
108.4993431938
 21
256.6702077555
  0
LINE
  5
260
100
AcDbEntity
  8
0
100
AcDbLine
 62
7
  6
CONTINUOUS
 10
108.4993431938
 20
256.6702077555
 11
115.6893431938
 21
256.6702077555
  0
LINE
  5
261
100
AcDbEntity
  8
0
100
AcDbLine
 62
7
  6
CONTINUOUS
 10
115.6893431938
 20
256.6702077555
 11
115.6893431938
 21
243.1702077555
  0
SPLINE
  5
262
100
AcDbEntity
  8
0
100
AcDbSpline
 62
7
  6
CONTINUOUS
 70
4
 71
3
 72
8
 73
4
 74
255
 42
0.0000001
 43
0.0000001
 44
0.0000000001
 12
0.0
 22
-7.0710678119
 32
0.0
 13
-7.0710678119
 23
0.0
 33
0.0
 40
0.0
 40
0.0
 40
0.0
 40
0.0
 40
1.0
 40
1.0
 40
1.0
 40
1.0
 10
115.6893431938
 20
243.1702077555
 30
0.0
 41
1.0
 10
115.6893431938
 20
240.2412755674
 30
0.0
 41
0.8047378541
 10
113.618275382
 20
238.1702077555
 30
0.0
 41
0.8047378541
 10
110.6893431938
 20
238.1702077555
 30
0.0
 41
1.0
 11
115.6893431938
 21
243.1702077555
 31
0.0
 11
115.689036626
 21
243.1148400378
 31
0.0
 11
115.6886518581
 21
243.0870640305
 31
0.0
 11
115.6881113923
 21
243.0592280367
 31
0.0
 11
115.6874142064
 21
243.031333161
 31
0.0
 11
115.6865592863
 21
243.0033805245
 31
0.0
 11
115.6855456259
 21
242.9753712645
 31
0.0
 11
115.6843722274
 21
242.9473065348
 31
0.0
 11
115.6830381018
 21
242.9191875051
 31
0.0
 11
115.6815422691
 21
242.8910153616
 31
0.0
 11
115.6798837584
 21
242.8627913066
 31
0.0
 11
115.6780616084
 21
242.8345165586
 31
0.0
 11
115.6760748676
 21
242.8061923519
 31
0.0
 11
115.6739225944
 21
242.7778199373
 31
0.0
 11
115.6716038576
 21
242.7494005812
 31
0.0
 11
115.6691177369
 21
242.720935566
 31
0.0
 11
115.6664633225
 21
242.69242619
 31
0.0
 11
115.6636397162
 21
242.6638737672
 31
0.0
 11
115.6606460309
 21
242.6352796273
 31
0.0
 11
115.6574813915
 21
242.6066451156
 31
0.0
 11
115.6541449348
 21
242.5779715928
 31
0.0
 11
115.6506358102
 21
242.5492604352
 31
0.0
 11
115.6469531794
 21
242.5205130343
 31
0.0
 11
115.6430962172
 21
242.4917307966
 31
0.0
 11
115.6390641114
 21
242.462915144
 31
0.0
 11
115.6348560635
 21
242.4340675133
 31
0.0
 11
115.6304712885
 21
242.4051893558
 31
0.0
 11
115.6259090157
 21
242.3762821379
 31
0.0
 11
115.6211684885
 21
242.3473473403
 31
0.0
 11
115.616248965
 21
242.3183864584
 31
0.0
 11
115.6111497181
 21
242.2894010016
 31
0.0
 11
115.6058700359
 21
242.2603924934
 31
0.0
 11
115.600409222
 21
242.2313624716
 31
0.0
 11
115.5947665955
 21
242.2023124874
 31
0.0
 11
115.5889414918
 21
242.1732441059
 31
0.0
 11
115.5829332622
 21
242.1441589055
 31
0.0
 11
115.5767412748
 21
242.1150584778
 31
0.0
 11
115.5703649143
 21
242.0859444277
 31
0.0
 11
115.5638035827
 21
242.0568183728
 31
0.0
 11
115.557056699
 21
242.0276819435
 31
0.0
 11
115.5501237002
 21
241.9985367824
 31
0.0
 11
115.5430040407
 21
241.9693845448
 31
0.0
 11
115.5356971934
 21
241.9402268976
 31
0.0
 11
115.5282026493
 21
241.9110655198
 31
0.0
 11
115.5205199183
 21
241.8819021018
 31
0.0
 11
115.5126485288
 21
241.8527383457
 31
0.0
 11
115.5045880286
 21
241.8235759642
 31
0.0
 11
115.4963379848
 21
241.7944166813
 31
0.0
 11
115.487897984
 21
241.7652622314
 31
0.0
 11
115.4792676328
 21
241.7361143592
 31
0.0
 11
115.4704465577
 21
241.7069748198
 31
0.0
 11
115.4614344056
 21
241.6778453778
 31
0.0
 11
115.452230844
 21
241.6487278075
 31
0.0
 11
115.4428355609
 21
241.6196238924
 31
0.0
 11
115.4332482655
 21
241.5905354252
 31
0.0
 11
115.423468688
 21
241.5614642069
 31
0.0
 11
115.4134965803
 21
241.5324120474
 31
0.0
 11
115.4033317154
 21
241.5033807643
 31
0.0
 11
115.3929738885
 21
241.4743721831
 31
0.0
 11
115.3824229165
 21
241.445388137
 31
0.0
 11
115.3716786388
 21
241.4164304661
 31
0.0
 11
115.3607409168
 21
241.3875010174
 31
0.0
 11
115.3496096346
 21
241.3586016447
 31
0.0
 11
115.3382846991
 21
241.3297342077
 31
0.0
 11
115.32676604
 21
241.3009005721
 31
0.0
 11
115.3150536098
 21
241.272102609
 31
0.0
 11
115.3031473847
 21
241.2433421949
 31
0.0
 11
115.2910473637
 21
241.2146212111
 31
0.0
 11
115.2787535698
 21
241.1859415432
 31
0.0
 11
115.2662660492
 21
241.1573050812
 31
0.0
 11
115.2535848721
 21
241.1287137187
 31
0.0
 11
115.2407101326
 21
241.1001693528
 31
0.0
 11
115.2276419487
 21
241.0716738837
 31
0.0
 11
115.2143804627
 21
241.0432292141
 31
0.0
 11
115.2009258408
 21
241.0148372492
 31
0.0
 11
115.1872782739
 21
240.9864998961
 31
0.0
 11
115.1734379772
 21
240.9582190635
 31
0.0
 11
115.1594051904
 21
240.9299966612
 31
0.0
 11
115.1451801776
 21
240.9018345997
 31
0.0
 11
115.130763228
 21
240.8737347902
 31
0.0
 11
115.1161546551
 21
240.8456991437
 31
0.0
 11
115.1013547975
 21
240.8177295709
 31
0.0
 11
115.0863640185
 21
240.7898279817
 31
0.0
 11
115.0711827063
 21
240.7619962849
 31
0.0
 11
115.055811274
 21
240.7342363877
 31
0.0
 11
115.0402501598
 21
240.7065501953
 31
0.0
 11
115.0244998266
 21
240.6789396107
 31
0.0
 11
115.0085607626
 21
240.6514065339
 31
0.0
 11
114.9924334807
 21
240.623952862
 31
0.0
 11
114.9761185191
 21
240.5965804883
 31
0.0
 11
114.9596164408
 21
240.5692913024
 31
0.0
 11
114.9429278337
 21
240.5420871891
 31
0.0
 11
114.9260533108
 21
240.5149700289
 31
0.0
 11
114.9089935099
 21
240.4879416967
 31
0.0
 11
114.8917490938
 21
240.4610040622
 31
0.0
 11
114.8743207499
 21
240.4341589886
 31
0.0
 11
114.8567091907
 21
240.4074083331
 31
0.0
 11
114.838915153
 21
240.3807539459
 31
0.0
 11
114.8209393985
 21
240.35419767
 31
0.0
 11
114.8027827134
 21
240.3277413407
 31
0.0
 11
114.7844459083
 21
240.3013867855
 31
0.0
 11
114.7659298182
 21
240.2751358231
 31
0.0
 11
114.7472353025
 21
240.2489902637
 31
0.0
 11
114.7283632444
 21
240.2229519079
 31
0.0
 11
114.7093145514
 21
240.197022547
 31
0.0
 11
114.6900901549
 21
240.171203962
 31
0.0
 11
114.6706910099
 21
240.1454979236
 31
0.0
 11
114.6511180953
 21
240.1199061917
 31
0.0
 11
114.631372413
 21
240.0944305147
 31
0.0
 11
114.6114549888
 21
240.0690726298
 31
0.0
 11
114.5913668711
 21
240.0438342619
 31
0.0
 11
114.5711091317
 21
240.0187171235
 31
0.0
 11
114.5506828649
 21
239.9937229146
 31
0.0
 11
114.5300891877
 21
239.9688533218
 31
0.0
 11
114.5093292396
 21
239.9441100182
 31
0.0
 11
114.488404182
 21
239.9194946633
 31
0.0
 11
114.4673151987
 21
239.895008902
 31
0.0
 11
114.4460634949
 21
239.8706543646
 31
0.0
 11
114.4246502976
 21
239.8464326668
 31
0.0
 11
114.403076855
 21
239.8223454085
 31
0.0
 11
114.3813444362
 21
239.7983941743
 31
0.0
 11
114.3594543314
 21
239.7745805325
 31
0.0
 11
114.3374078513
 21
239.7509060352
 31
0.0
 11
114.3152063269
 21
239.7273722177
 31
0.0
 11
114.292851109
 21
239.7039805983
 31
0.0
 11
114.2703435685
 21
239.680732678
 31
0.0
 11
114.2476850956
 21
239.65762994
 31
0.0
 11
114.2248770998
 21
239.6346738496
 31
0.0
 11
114.2019210094
 21
239.6118658538
 31
0.0
 11
114.1788182714
 21
239.5892073809
 31
0.0
 11
114.1555703511
 21
239.5666998404
 31
0.0
 11
114.1321787317
 21
239.5443446225
 31
0.0
 11
114.1086449142
 21
239.522143098
 31
0.0
 11
114.0849704168
 21
239.5000966179
 31
0.0
 11
114.061156775
 21
239.4782065131
 31
0.0
 11
114.0372055408
 21
239.4564740944
 31
0.0
 11
114.0131182825
 21
239.4349006517
 31
0.0
 11
113.9888965847
 21
239.4134874544
 31
0.0
 11
113.9645420474
 21
239.3922357506
 31
0.0
 11
113.940056286
 21
239.3711467673
 31
0.0
 11
113.9154409311
 21
239.3502217098
 31
0.0
 11
113.8906976276
 21
239.3294617616
 31
0.0
 11
113.8658280348
 21
239.3088680844
 31
0.0
 11
113.8408338258
 21
239.2884418176
 31
0.0
 11
113.8157166875
 21
239.2681840782
 31
0.0
 11
113.7904783195
 21
239.2480959606
 31
0.0
 11
113.7651204346
 21
239.2281785363
 31
0.0
 11
113.7396447577
 21
239.2084328541
 31
0.0
 11
113.7140530257
 21
239.1888599394
 31
0.0
 11
113.6883469873
 21
239.1694607944
 31
0.0
 11
113.6625284024
 21
239.1502363979
 31
0.0
 11
113.6365990414
 21
239.131187705
 31
0.0
 11
113.6105606857
 21
239.1123156469
 31
0.0
 11
113.5844151262
 21
239.0936211311
 31
0.0
 11
113.5581641638
 21
239.075105041
 31
0.0
 11
113.5318096086
 21
239.056768236
 31
0.0
 11
113.5053532794
 21
239.0386115509
 31
0.0
 11
113.4787970035
 21
239.0206357964
 31
0.0
 11
113.4521426163
 21
239.0028417587
 31
0.0
 11
113.4253919608
 21
238.9852301994
 31
0.0
 11
113.3985468872
 21
238.9678018556
 31
0.0
 11
113.3716092526
 21
238.9505574394
 31
0.0
 11
113.3445809204
 21
238.9334976385
 31
0.0
 11
113.3174637602
 21
238.9166231156
 31
0.0
 11
113.290259647
 21
238.8999345085
 31
0.0
 11
113.262970461
 21
238.8834324302
 31
0.0
 11
113.2355980873
 21
238.8671174686
 31
0.0
 11
113.2081444154
 21
238.8509901868
 31
0.0
 11
113.1806113387
 21
238.8350511227
 31
0.0
 11
113.153000754
 21
238.8193007896
 31
0.0
 11
113.1253145616
 21
238.8037396753
 31
0.0
 11
113.0975546644
 21
238.7883682431
 31
0.0
 11
113.0697229676
 21
238.7731869308
 31
0.0
 11
113.0418213784
 21
238.7581961518
 31
0.0
 11
113.0138518056
 21
238.7433962942
 31
0.0
 11
112.9858161591
 21
238.7287877214
 31
0.0
 11
112.9577163496
 21
238.7143707717
 31
0.0
 11
112.9295542882
 21
238.700145759
 31
0.0
 11
112.9013318858
 21
238.6861129721
 31
0.0
 11
112.8730510532
 21
238.6722726754
 31
0.0
 11
112.8447137001
 21
238.6586251085
 31
0.0
 11
112.8163217353
 21
238.6451704867
 31
0.0
 11
112.7878770657
 21
238.6319090006
 31
0.0
 11
112.7593815965
 21
238.6188408167
 31
0.0
 11
112.7308372306
 21
238.6059660772
 31
0.0
 11
112.7022458681
 21
238.5932849002
 31
0.0
 11
112.6736094061
 21
238.5807973796
 31
0.0
 11
112.6449297382
 21
238.5685035856
 31
0.0
 11
112.6162087544
 21
238.5564035647
 31
0.0
 11
112.5874483403
 21
238.5444973395
 31
0.0
 11
112.5586503773
 21
238.5327849094
 31
0.0
 11
112.5298167416
 21
238.5212662502
 31
0.0
 11
112.5009493046
 21
238.5099413147
 31
0.0
 11
112.4720499319
 21
238.4988100326
 31
0.0
 11
112.4431204833
 21
238.4878723106
 31
0.0
 11
112.4141628124
 21
238.4771280328
 31
0.0
 11
112.3851787662
 21
238.4665770609
 31
0.0
 11
112.3561701851
 21
238.456219234
 31
0.0
 11
112.327138902
 21
238.4460543691
 31
0.0
 11
112.2980867424
 21
238.4360822613
 31
0.0
 11
112.2690155242
 21
238.4263026839
 31
0.0
 11
112.2399270569
 21
238.4167153885
 31
0.0
 11
112.2108231419
 21
238.4073201054
 31
0.0
 11
112.1817055716
 21
238.3981165437
 31
0.0
 11
112.1525761296
 21
238.3891043917
 31
0.0
 11
112.1234365901
 21
238.3802833166
 31
0.0
 11
112.094288718
 21
238.3716529653
 31
0.0
 11
112.0651342681
 21
238.3632129646
 31
0.0
 11
112.0359749851
 21
238.3549629208
 31
0.0
 11
112.0068126037
 21
238.3469024206
 31
0.0
 11
111.9776488475
 21
238.3390310311
 31
0.0
 11
111.9484854296
 21
238.3313483
 31
0.0
 11
111.9193240518
 21
238.3238537559
 31
0.0
 11
111.8901664046
 21
238.3165469086
 31
0.0
 11
111.8610141669
 21
238.3094272492
 31
0.0
 11
111.8318690059
 21
238.3024942503
 31
0.0
 11
111.8027325765
 21
238.2957473666
 31
0.0
 11
111.7736065216
 21
238.289186035
 31
0.0
 11
111.7444924715
 21
238.2828096745
 31
0.0
 11
111.7153920439
 21
238.2766176871
 31
0.0
 11
111.6863068434
 21
238.2706094575
 31
0.0
 11
111.6572384619
 21
238.2647843538
 31
0.0
 11
111.6281884777
 21
238.2591417274
 31
0.0
 11
111.5991584559
 21
238.2536809134
 31
0.0
 11
111.5701499478
 21
238.2484012313
 31
0.0
 11
111.5411644909
 21
238.2433019844
 31
0.0
 11
111.512203609
 21
238.2383824608
 31
0.0
 11
111.4832688115
 21
238.2336419336
 31
0.0
 11
111.4543615936
 21
238.2290796608
 31
0.0
 11
111.4254834361
 21
238.2246948859
 31
0.0
 11
111.3966358053
 21
238.2204868379
 31
0.0
 11
111.3678201527
 21
238.2164547322
 31
0.0
 11
111.3390379151
 21
238.2125977699
 31
0.0
 11
111.3102905141
 21
238.2089151391
 31
0.0
 11
111.2815793565
 21
238.2054060145
 31
0.0
 11
111.2529058338
 21
238.2020695579
 31
0.0
 11
111.224271322
 21
238.1989049185
 31
0.0
 11
111.1956771821
 21
238.1959112332
 31
0.0
 11
111.1671247593
 21
238.1930876268
 31
0.0
 11
111.1386153833
 21
238.1904332124
 31
0.0
 11
111.1101503681
 21
238.1879470917
 31
0.0
 11
111.081731012
 21
238.185628355
 31
0.0
 11
111.0533585974
 21
238.1834760818
 31
0.0
 11
111.0250343908
 21
238.1814893409
 31
0.0
 11
110.9967596427
 21
238.1796671909
 31
0.0
 11
110.9685355877
 21
238.1780086802
 31
0.0
 11
110.9403634443
 21
238.1765128475
 31
0.0
 11
110.9122444146
 21
238.175178722
 31
0.0
 11
110.8841796848
 21
238.1740053235
 31
0.0
 11
110.8561704248
 21
238.172991663
 31
0.0
 11
110.8282177883
 21
238.1721367429
 31
0.0
 11
110.8003229126
 21
238.171439557
 31
0.0
 11
110.7724869188
 21
238.1708990912
 31
0.0
 11
110.7447109115
 21
238.1705143233
 31
0.0
 11
110.6893431938
 21
238.1702077555
 31
0.0
  0
LINE
  5
263
100
AcDbEntity
  8
0
100
AcDbLine
 62
7
  6
CONTINUOUS
 10
93.4393431938
 20
238.1702077555
 11
110.6893431938
 21
238.1702077555
  0
SPLINE
  5
264
100
AcDbEntity
  8
0
100
AcDbSpline
 62
7
  6
CONTINUOUS
 70
4
 71
3
 72
8
 73
4
 74
255
 42
0.0000001
 43
0.0000001
 44
0.0000000001
 12
0.0
 22
7.0710678119
 32
0.0
 13
7.0710678119
 23
0.0
 33
0.0
 40
0.0
 40
0.0
 40
0.0
 40
0.0
 40
1.0
 40
1.0
 40
1.0
 40
1.0
 10
88.4393431938
 20
233.1702077555
 30
0.0
 41
1.0
 10
88.4393431938
 20
236.0991399436
 30
0.0
 41
0.8047378541
 10
90.5104110057
 20
238.1702077555
 30
0.0
 41
0.8047378541
 10
93.4393431938
 20
238.1702077555
 30
0.0
 41
1.0
 11
88.4393431938
 21
233.1702077555
 31
0.0
 11
88.4396497616
 21
233.2255754732
 31
0.0
 11
88.4400345295
 21
233.2533514805
 31
0.0
 11
88.4405749954
 21
233.2811874743
 31
0.0
 11
88.4412721812
 21
233.30908235
 31
0.0
 11
88.4421271013
 21
233.3370349865
 31
0.0
 11
88.4431407618
 21
233.3650442465
 31
0.0
 11
88.4443141603
 21
233.3931089763
 31
0.0
 11
88.4456482859
 21
233.4212280059
 31
0.0
 11
88.4471441186
 21
233.4494001494
 31
0.0
 11
88.4488026292
 21
233.4776242044
 31
0.0
 11
88.4506247792
 21
233.5058989525
 31
0.0
 11
88.4526115201
 21
233.5342231591
 31
0.0
 11
88.4547637933
 21
233.5625955737
 31
0.0
 11
88.45708253
 21
233.5910149298
 31
0.0
 11
88.4595686508
 21
233.619479945
 31
0.0
 11
88.4622230651
 21
233.647989321
 31
0.0
 11
88.4650466715
 21
233.6765417438
 31
0.0
 11
88.4680403568
 21
233.7051358837
 31
0.0
 11
88.4712049962
 21
233.7337703954
 31
0.0
 11
88.4745414528
 21
233.7624439182
 31
0.0
 11
88.4780505774
 21
233.7911550758
 31
0.0
 11
88.4817332082
 21
233.8199024767
 31
0.0
 11
88.4855901705
 21
233.8486847144
 31
0.0
 11
88.4896222763
 21
233.877500367
 31
0.0
 11
88.4938303242
 21
233.9063479978
 31
0.0
 11
88.4982150991
 21
233.9352261552
 31
0.0
 11
88.502777372
 21
233.9641333731
 31
0.0
 11
88.5075178992
 21
233.9930681707
 31
0.0
 11
88.5124374227
 21
234.0220290526
 31
0.0
 11
88.5175366696
 21
234.0510145094
 31
0.0
 11
88.5228163517
 21
234.0800230176
 31
0.0
 11
88.5282771657
 21
234.1090530394
 31
0.0
 11
88.5339197921
 21
234.1381030236
 31
0.0
 11
88.5397448959
 21
234.1671714051
 31
0.0
 11
88.5457531254
 21
234.1962566055
 31
0.0
 11
88.5519451129
 21
234.2253570332
 31
0.0
 11
88.5583214733
 21
234.2544710833
 31
0.0
 11
88.564882805
 21
234.2835971382
 31
0.0
 11
88.5716296886
 21
234.3127335675
 31
0.0
 11
88.5785626875
 21
234.3418787286
 31
0.0
 11
88.5856823469
 21
234.3710309663
 31
0.0
 11
88.5929891943
 21
234.4001886134
 31
0.0
 11
88.6004837383
 21
234.4293499913
 31
0.0
 11
88.6081664694
 21
234.4585134092
 31
0.0
 11
88.6160378589
 21
234.4876771653
 31
0.0
 11
88.6240983591
 21
234.5168395468
 31
0.0
 11
88.6323484029
 21
234.5459988297
 31
0.0
 11
88.6407884037
 21
234.5751532797
 31
0.0
 11
88.6494187549
 21
234.6043011518
 31
0.0
 11
88.65823983
 21
234.6334406912
 31
0.0
 11
88.6672519821
 21
234.6625701332
 31
0.0
 11
88.6764555437
 21
234.6916877035
 31
0.0
 11
88.6858508268
 21
234.7207916186
 31
0.0
 11
88.6954381222
 21
234.7498800859
 31
0.0
 11
88.7052176996
 21
234.7789513041
 31
0.0
 11
88.7151898074
 21
234.8080034636
 31
0.0
 11
88.7253546723
 21
234.8370347468
 31
0.0
 11
88.7357124992
 21
234.8660433279
 31
0.0
 11
88.7462634711
 21
234.895027374
 31
0.0
 11
88.7570077489
 21
234.923985045
 31
0.0
 11
88.7679454709
 21
234.9529144936
 31
0.0
 11
88.779076753
 21
234.9818138663
 31
0.0
 11
88.7904016885
 21
235.0106813033
 31
0.0
 11
88.8019203477
 21
235.039514939
 31
0.0
 11
88.8136327778
 21
235.068312902
 31
0.0
 11
88.825539003
 21
235.0970733161
 31
0.0
 11
88.8376390239
 21
235.1257942999
 31
0.0
 11
88.8499328179
 21
235.1544739678
 31
0.0
 11
88.8624203385
 21
235.1831104298
 31
0.0
 11
88.8751015155
 21
235.2117017923
 31
0.0
 11
88.887976255
 21
235.2402461582
 31
0.0
 11
88.9010444389
 21
235.2687416273
 31
0.0
 11
88.914305925
 21
235.2971862969
 31
0.0
 11
88.9277605468
 21
235.3255782618
 31
0.0
 11
88.9414081137
 21
235.3539156149
 31
0.0
 11
88.9552484104
 21
235.3821964475
 31
0.0
 11
88.9692811973
 21
235.4104188498
 31
0.0
 11
88.98350621
 21
235.4385809113
 31
0.0
 11
88.9979231597
 21
235.4666807208
 31
0.0
 11
89.0125317325
 21
235.4947163673
 31
0.0
 11
89.0273315901
 21
235.5226859401
 31
0.0
 11
89.0423223692
 21
235.5505875293
 31
0.0
 11
89.0575036814
 21
235.5784192261
 31
0.0
 11
89.0728751137
 21
235.6061791233
 31
0.0
 11
89.0884362279
 21
235.6338653157
 31
0.0
 11
89.1041865611
 21
235.6614759003
 31
0.0
 11
89.1201256251
 21
235.6890089771
 31
0.0
 11
89.1362529069
 21
235.716462649
 31
0.0
 11
89.1525678685
 21
235.7438350227
 31
0.0
 11
89.1690699469
 21
235.7711242087
 31
0.0
 11
89.185758554
 21
235.7983283219
 31
0.0
 11
89.2026330769
 21
235.8254454821
 31
0.0
 11
89.2196928777
 21
235.8524738143
 31
0.0
 11
89.2369372939
 21
235.8794114489
 31
0.0
 11
89.2543656377
 21
235.9062565224
 31
0.0
 11
89.271977197
 21
235.9330071779
 31
0.0
 11
89.2897712347
 21
235.9596615651
 31
0.0
 11
89.3077469892
 21
235.986217841
 31
0.0
 11
89.3259036743
 21
236.0126741703
 31
0.0
 11
89.3442404794
 21
236.0390287255
 31
0.0
 11
89.3627565694
 21
236.0652796879
 31
0.0
 11
89.3814510852
 21
236.0914252474
 31
0.0
 11
89.4003231433
 21
236.1174636031
 31
0.0
 11
89.4193718363
 21
236.143392964
 31
0.0
 11
89.4385962328
 21
236.169211549
 31
0.0
 11
89.4579953777
 21
236.1949175874
 31
0.0
 11
89.4775682924
 21
236.2205093194
 31
0.0
 11
89.4973139746
 21
236.2459849963
 31
0.0
 11
89.5172313989
 21
236.2713428812
 31
0.0
 11
89.5373195165
 21
236.2965812492
 31
0.0
 11
89.557577256
 21
236.3216983875
 31
0.0
 11
89.5780035228
 21
236.3466925964
 31
0.0
 11
89.5985971999
 21
236.3715621892
 31
0.0
 11
89.6193571481
 21
236.3963054928
 31
0.0
 11
89.6402822056
 21
236.4209208477
 31
0.0
 11
89.6613711889
 21
236.4454066091
 31
0.0
 11
89.6826228927
 21
236.4697611464
 31
0.0
 11
89.70403609
 21
236.4939828442
 31
0.0
 11
89.7256095327
 21
236.5180701025
 31
0.0
 11
89.7473419515
 21
236.5420213367
 31
0.0
 11
89.7692320562
 21
236.5658349785
 31
0.0
 11
89.7912785363
 21
236.5895094758
 31
0.0
 11
89.8134800608
 21
236.6130432933
 31
0.0
 11
89.8358352787
 21
236.6364349127
 31
0.0
 11
89.8583428192
 21
236.6596828331
 31
0.0
 11
89.8810012921
 21
236.6827855711
 31
0.0
 11
89.9038092879
 21
236.7057416614
 31
0.0
 11
89.9267653783
 21
236.7285496573
 31
0.0
 11
89.9498681163
 21
236.7512081301
 31
0.0
 11
89.9731160366
 21
236.7737156706
 31
0.0
 11
89.996507656
 21
236.7960708885
 31
0.0
 11
90.0200414735
 21
236.818272413
 31
0.0
 11
90.0437159708
 21
236.8403188931
 31
0.0
 11
90.0675296126
 21
236.8622089979
 31
0.0
 11
90.0914808469
 21
236.8839414166
 31
0.0
 11
90.1155681051
 21
236.9055148593
 31
0.0
 11
90.139789803
 21
236.9269280566
 31
0.0
 11
90.1641443403
 21
236.9481797604
 31
0.0
 11
90.1886301016
 21
236.9692687437
 31
0.0
 11
90.2132454566
 21
236.9901938012
 31
0.0
 11
90.2379887601
 21
237.0109537494
 31
0.0
 11
90.2628583529
 21
237.0315474266
 31
0.0
 11
90.2878525618
 21
237.0519736934
 31
0.0
 11
90.3129697002
 21
237.0722314328
 31
0.0
 11
90.3382080681
 21
237.0923195505
 31
0.0
 11
90.363565953
 21
237.1122369747
 31
0.0
 11
90.38904163
 21
237.1319826569
 31
0.0
 11
90.4146333619
 21
237.1515555716
 31
0.0
 11
90.4403394003
 21
237.1709547166
 31
0.0
 11
90.4661579853
 21
237.1901791131
 31
0.0
 11
90.4920873462
 21
237.2092278061
 31
0.0
 11
90.518125702
 21
237.2280998641
 31
0.0
 11
90.5442712614
 21
237.2467943799
 31
0.0
 11
90.5705222238
 21
237.26531047
 31
0.0
 11
90.5968767791
 21
237.2836472751
 31
0.0
 11
90.6233331083
 21
237.3018039602
 31
0.0
 11
90.6498893842
 21
237.3197797146
 31
0.0
 11
90.6765437714
 21
237.3375737523
 31
0.0
 11
90.7032944269
 21
237.3551853116
 31
0.0
 11
90.7301395005
 21
237.3726136555
 31
0.0
 11
90.7570771351
 21
237.3898580716
 31
0.0
 11
90.7841054672
 21
237.4069178725
 31
0.0
 11
90.8112226274
 21
237.4237923954
 31
0.0
 11
90.8384267407
 21
237.4404810025
 31
0.0
 11
90.8657159267
 21
237.4569830808
 31
0.0
 11
90.8930883003
 21
237.4732980424
 31
0.0
 11
90.9205419722
 21
237.4894253242
 31
0.0
 11
90.948075049
 21
237.5053643883
 31
0.0
 11
90.9756856336
 21
237.5211147214
 31
0.0
 11
91.003371826
 21
237.5366758357
 31
0.0
 11
91.0311317232
 21
237.552047268
 31
0.0
 11
91.0589634201
 21
237.5672285802
 31
0.0
 11
91.0868650092
 21
237.5822193592
 31
0.0
 11
91.1148345821
 21
237.5970192168
 31
0.0
 11
91.1428702286
 21
237.6116277897
 31
0.0
 11
91.170970038
 21
237.6260447393
 31
0.0
 11
91.1991320995
 21
237.640269752
 31
0.0
 11
91.2273545018
 21
237.6543025389
 31
0.0
 11
91.2556353345
 21
237.6681428356
 31
0.0
 11
91.2839726875
 21
237.6817904025
 31
0.0
 11
91.3123646524
 21
237.6952450243
 31
0.0
 11
91.340809322
 21
237.7085065104
 31
0.0
 11
91.3693047912
 21
237.7215746943
 31
0.0
 11
91.3978491571
 21
237.7344494338
 31
0.0
 11
91.4264405196
 21
237.7471306109
 31
0.0
 11
91.4550769816
 21
237.7596181315
 31
0.0
 11
91.4837566494
 21
237.7719119254
 31
0.0
 11
91.5124776333
 21
237.7840119464
 31
0.0
 11
91.5412380473
 21
237.7959181715
 31
0.0
 11
91.5700360104
 21
237.8076306016
 31
0.0
 11
91.598869646
 21
237.8191492608
 31
0.0
 11
91.627737083
 21
237.8304741963
 31
0.0
 11
91.6566364558
 21
237.8416054785
 31
0.0
 11
91.6855659044
 21
237.8525432005
 31
0.0
 11
91.7145235753
 21
237.8632874782
 31
0.0
 11
91.7435076214
 21
237.8738384501
 31
0.0
 11
91.7725162026
 21
237.8841962771
 31
0.0
 11
91.8015474857
 21
237.8943611419
 31
0.0
 11
91.8305996453
 21
237.9043332497
 31
0.0
 11
91.8596708635
 21
237.9141128271
 31
0.0
 11
91.8887593307
 21
237.9237001225
 31
0.0
 11
91.9178632458
 21
237.9330954056
 31
0.0
 11
91.9469808161
 21
237.9422989673
 31
0.0
 11
91.9761102581
 21
237.9513111194
 31
0.0
 11
92.0052497975
 21
237.9601321944
 31
0.0
 11
92.0343976697
 21
237.9687625457
 31
0.0
 11
92.0635521196
 21
237.9772025464
 31
0.0
 11
92.0927114025
 21
237.9854525903
 31
0.0
 11
92.121873784
 21
237.9935130905
 31
0.0
 11
92.1510375402
 21
238.0013844799
 31
0.0
 11
92.1802009581
 21
238.009067211
 31
0.0
 11
92.2093623359
 21
238.0165617551
 31
0.0
 11
92.2385199831
 21
238.0238686024
 31
0.0
 11
92.2676722208
 21
238.0309882619
 31
0.0
 11
92.2968173818
 21
238.0379212607
 31
0.0
 11
92.3259538112
 21
238.0446681444
 31
0.0
 11
92.3550798661
 21
238.051229476
 31
0.0
 11
92.3841939162
 21
238.0576058365
 31
0.0
 11
92.4132943438
 21
238.0637978239
 31
0.0
 11
92.4423795442
 21
238.0698060535
 31
0.0
 11
92.4714479258
 21
238.0756311572
 31
0.0
 11
92.5004979099
 21
238.0812737837
 31
0.0
 11
92.5295279318
 21
238.0867345976
 31
0.0
 11
92.5585364399
 21
238.0920142798
 31
0.0
 11
92.5875218967
 21
238.0971135267
 31
0.0
 11
92.6164827787
 21
238.1020330502
 31
0.0
 11
92.6454175762
 21
238.1067735774
 31
0.0
 11
92.6743247941
 21
238.1113358502
 31
0.0
 11
92.7032029516
 21
238.1157206251
 31
0.0
 11
92.7320505824
 21
238.1199286731
 31
0.0
 11
92.7608662349
 21
238.1239607788
 31
0.0
 11
92.7896484726
 21
238.1278177411
 31
0.0
 11
92.8183958736
 21
238.1315003719
 31
0.0
 11
92.8471070312
 21
238.1350094965
 31
0.0
 11
92.8757805539
 21
238.1383459532
 31
0.0
 11
92.9044150656
 21
238.1415105926
 31
0.0
 11
92.9330092055
 21
238.1445042779
 31
0.0
 11
92.9615616283
 21
238.1473278842
 31
0.0
 11
92.9900710043
 21
238.1499822986
 31
0.0
 11
93.0185360195
 21
238.1524684193
 31
0.0
 11
93.0469553756
 21
238.154787156
 31
0.0
 11
93.0753277903
 21
238.1569394293
 31
0.0
 11
93.1036519969
 21
238.1589261701
 31
0.0
 11
93.1319267449
 21
238.1607483201
 31
0.0
 11
93.1601507999
 21
238.1624068308
 31
0.0
 11
93.1883229434
 21
238.1639026635
 31
0.0
 11
93.2164419731
 21
238.165236789
 31
0.0
 11
93.2445067029
 21
238.1664101875
 31
0.0
 11
93.2725159628
 21
238.167423848
 31
0.0
 11
93.3004685993
 21
238.1682787681
 31
0.0
 11
93.328363475
 21
238.168975954
 31
0.0
 11
93.3561994689
 21
238.1695164198
 31
0.0
 11
93.3839754761
 21
238.1699011877
 31
0.0
 11
93.4393431938
 21
238.1702077555
 31
0.0
  0
LINE
  5
265
100
AcDbEntity
  8
0
100
AcDbLine
 62
7
  6
CONTINUOUS
 10
88.4393431938
 20
233.1702077555
 11
88.4393431938
 21
217.1652742819
  0
SPLINE
  5
266
100
AcDbEntity
  8
0
100
AcDbSpline
 62
7
  6
CONTINUOUS
 70
4
 71
3
 72
8
 73
4
 74
129
 42
0.0000001
 43
0.0000001
 44
0.0000000001
 12
-6.9054445686
 22
0.3069867401
 32
0.0
 13
0.0
 23
6.9122648639
 33
0.0
 40
0.0
 40
0.0
 40
0.0
 40
0.0
 40
1.0
 40
1.0
 40
1.0
 40
1.0
 10
93.2172837486
 20
212.1702077555
 30
0.0
 41
1.0
 10
90.3932902481
 20
212.2957505139
 30
0.0
 41
0.8150921225
 10
88.4393431938
 20
214.3384916097
 30
0.0
 41
0.8150921225
 10
88.4393431938
 20
217.1652742819
 30
0.0
 41
1.0
 11
93.2172837486
 21
212.1702077555
 31
0.0
 11
93.163232399
 21
212.17290382
 31
0.0
 11
93.1089815393
 21
212.1762001015
 31
0.0
 11
93.0545397665
 21
212.1801036406
 31
0.0
 11
92.9999159032
 21
212.1846213471
 31
0.0
 11
92.9451189965
 21
212.1897599926
 31
0.0
 11
92.8901583162
 21
212.1955262027
 31
0.0
 11
92.8350433533
 21
212.2019264497
 31
0.0
 11
92.7797838176
 21
212.2089670447
 31
0.0
 11
92.7243896354
 21
212.2166541298
 31
0.0
 11
92.6688709468
 21
212.2249936708
 31
0.0
 11
92.6132381028
 21
212.2339914489
 31
0.0
 11
92.557501662
 21
212.2436530538
 31
0.0
 11
92.5016723868
 21
212.2539838753
 31
0.0
 11
92.4457612399
 21
212.2649890962
 31
0.0
 11
92.3897793799
 21
212.2766736845
 31
0.0
 11
92.3337381568
 21
212.289042386
 31
0.0
 11
92.2776491074
 21
212.3020997169
 31
0.0
 11
92.22152395
 21
212.3158499563
 31
0.0
 11
92.1653745791
 21
212.3302971393
 31
0.0
 11
92.1092130599
 21
212.3454450498
 31
0.0
 11
92.0530516217
 21
212.3612972131
 31
0.0
 11
91.9969026526
 21
212.3778568899
 31
0.0
 11
91.9407786917
 21
212.3951270689
 31
0.0
 11
91.8846924232
 21
212.4131104609
 31
0.0
 11
91.8286566688
 21
212.4318094919
 31
0.0
 11
91.7726843802
 21
212.4512262975
 31
0.0
 11
91.7167886314
 21
212.471362717
 31
0.0
 11
91.6609826106
 21
212.4922202873
 31
0.0
 11
91.6052796124
 21
212.5138002382
 31
0.0
 11
91.5496930285
 21
212.5361034865
 31
0.0
 11
91.4942363395
 21
212.5591306318
 31
0.0
 11
91.4389231056
 21
212.5828819514
 31
0.0
 11
91.3837669573
 21
212.6073573963
 31
0.0
 11
91.3287815861
 21
212.6325565872
 31
0.0
 11
91.2739807348
 21
212.6584788105
 31
0.0
 11
91.2193781873
 21
212.6851230155
 31
0.0
 11
91.1649877591
 21
212.7124878108
 31
0.0
 11
91.1108232865
 21
212.7405714624
 31
0.0
 11
91.0568986164
 21
212.7693718904
 31
0.0
 11
91.0032275959
 21
212.7988866681
 31
0.0
 11
90.9498240616
 21
212.8291130198
 31
0.0
 11
90.8967018287
 21
212.86004782
 31
0.0
 11
90.84387468
 21
212.8916875922
 31
0.0
 11
90.7913563555
 21
212.9240285092
 31
0.0
 11
90.7391605407
 21
212.9570663926
 31
0.0
 11
90.687300856
 21
212.9907967133
 31
0.0
 11
90.6357908456
 21
213.0252145926
 31
0.0
 11
90.5846439662
 21
213.0603148034
 31
0.0
 11
90.533873576
 21
213.0960917718
 31
0.0
 11
90.4834929237
 21
213.1325395794
 31
0.0
 11
90.4335151374
 21
213.1696519655
 31
0.0
 11
90.3839532138
 21
213.2074223304
 31
0.0
 11
90.3348200072
 21
213.2458437386
 31
0.0
 11
90.2861282187
 21
213.2849089227
 31
0.0
 11
90.2378903858
 21
213.3246102875
 31
0.0
 11
90.1901188716
 21
213.3649399145
 31
0.0
 11
90.1428258546
 21
213.4058895673
 31
0.0
 11
90.0960233185
 21
213.4474506966
 31
0.0
 11
90.0497230424
 21
213.489614446
 31
0.0
 11
90.0039365905
 21
213.5323716587
 31
0.0
 11
89.9586753031
 21
213.5757128833
 31
0.0
 11
89.9139502871
 21
213.6196283812
 31
0.0
 11
89.8697724068
 21
213.6641081338
 31
0.0
 11
89.8261522754
 21
213.7091418499
 31
0.0
 11
89.7831002462
 21
213.754718974
 31
0.0
 11
89.7406264047
 21
213.800828694
 31
0.0
 11
89.6987405604
 21
213.8474599503
 31
0.0
 11
89.6574522396
 21
213.8946014443
 31
0.0
 11
89.6167706781
 21
213.9422416475
 31
0.0
 11
89.5767048141
 21
213.9903688112
 31
0.0
 11
89.5372632821
 21
214.0389709757
 31
0.0
 11
89.4984544063
 21
214.0880359804
 31
0.0
 11
89.4602861955
 21
214.1375514736
 31
0.0
 11
89.4227663371
 21
214.1875049231
 31
0.0
 11
89.3859021927
 21
214.2378836263
 31
0.0
 11
89.3497007932
 21
214.2886747207
 31
0.0
 11
89.3141688348
 21
214.3398651951
 31
0.0
 11
89.2793126752
 21
214.3914418997
 31
0.0
 11
89.2451383304
 21
214.4433915577
 31
0.0
 11
89.2116514719
 21
214.4957007758
 31
0.0
 11
89.1788574238
 21
214.5483560555
 31
0.0
 11
89.1467611613
 21
214.6013438043
 31
0.0
 11
89.1153673087
 21
214.6546503465
 31
0.0
 11
89.0846801384
 21
214.7082619348
 31
0.0
 11
89.05470357
 21
214.762164761
 31
0.0
 11
89.02544117
 21
214.8163449674
 31
0.0
 11
88.9968961518
 21
214.8707886579
 31
0.0
 11
88.9690713761
 21
214.9254819086
 31
0.0
 11
88.9419693519
 21
214.9804107792
 31
0.0
 11
88.9155922375
 21
215.0355613235
 31
0.0
 11
88.8899418425
 21
215.0909196003
 31
0.0
 11
88.8650196295
 21
215.1464716841
 31
0.0
 11
88.8408267165
 21
215.2022036749
 31
0.0
 11
88.8173638798
 21
215.2581017095
 31
0.0
 11
88.7946315571
 21
215.3141519705
 31
0.0
 11
88.7726298507
 21
215.3703406973
 31
0.0
 11
88.7513585316
 21
215.4266541949
 31
0.0
 11
88.7308170434
 21
215.4830788441
 31
0.0
 11
88.7110045068
 21
215.5396011104
 31
0.0
 11
88.6919197241
 21
215.5962075532
 31
0.0
 11
88.6735611846
 21
215.6528848345
 31
0.0
 11
88.6559270695
 21
215.7096197277
 31
0.0
 11
88.6390152574
 21
215.7663991258
 31
0.0
 11
88.6228233303
 21
215.8232100493
 31
0.0
 11
88.6073485796
 21
215.8800396542
 31
0.0
 11
88.5925880121
 21
215.9368752391
 31
0.0
 11
88.5785383564
 21
215.9937042529
 31
0.0
 11
88.5651960699
 21
216.0505143013
 31
0.0
 11
88.552557345
 21
216.1072931536
 31
0.0
 11
88.5406181166
 21
216.1640287489
 31
0.0
 11
88.5293740687
 21
216.220709202
 31
0.0
 11
88.5188206421
 21
216.2773228094
 31
0.0
 11
88.5089530413
 21
216.3338580543
 31
0.0
 11
88.4997662422
 21
216.3903036119
 31
0.0
 11
88.4912549998
 21
216.4466483543
 31
0.0
 11
88.4834138552
 21
216.5028813543
 31
0.0
 11
88.476237144
 21
216.5589918904
 31
0.0
 11
88.4697190036
 21
216.6149694501
 31
0.0
 11
88.4638533811
 21
216.6708037334
 31
0.0
 11
88.458634041
 21
216.7264846564
 31
0.0
 11
88.4540545734
 21
216.782002354
 31
0.0
 11
88.4501084011
 21
216.8373471823
 31
0.0
 11
88.4467887881
 21
216.8925097215
 31
0.0
 11
88.444088847
 21
216.9474807774
 31
0.0
 11
88.4420015471
 21
217.0022513834
 31
0.0
 11
88.4405197215
 21
217.0568128023
 31
0.0
 11
88.4396360755
 21
217.1111565271
 31
0.0
 11
88.4393431938
 21
217.1652742819
 31
0.0
  0
LINE
  5
267
100
AcDbEntity
  8
0
100
AcDbLine
 62
7
  6
CONTINUOUS
 10
93.2172837486
 20
212.1702077555
 11
115.7337550829
 21
211.1692210608
  0
SPLINE
  5
268
100
AcDbEntity
  8
0
100
AcDbSpline
 62
7
  6
CONTINUOUS
 70
4
 71
3
 72
8
 73
4
 74
129
 42
0.0000001
 43
0.0000001
 44
0.0000000001
 12
1.3810889137
 22
-0.061397348
 32
0.0
 13
0.0
 23
-1.3824529728
 33
0.0
 40
0.0
 40
0.0
 40
0.0
 40
0.0
 40
1.0
 40
1.0
 40
1.0
 40
1.0
 10
115.7337550829
 20
211.1692210608
 30
0.0
 41
1.0
 10
116.298553783
 20
211.1441125091
 30
0.0
 41
0.8150921225
 10
116.6893431938
 20
210.7355642899
 30
0.0
 41
0.8150921225
 10
116.6893431938
 20
210.1702077555
 30
0.0
 41
1.0
 11
115.7337550829
 21
211.1692210608
 31
0.0
 11
115.7445653528
 21
211.1686818479
 31
0.0
 11
115.7554155247
 21
211.1680225916
 31
0.0
 11
115.7663038793
 21
211.1672418838
 31
0.0
 11
115.7772286519
 21
211.1663383425
 31
0.0
 11
115.7881880333
 21
211.1653106134
 31
0.0
 11
115.7991801694
 21
211.1641573713
 31
0.0
 11
115.8102031619
 21
211.1628773219
 31
0.0
 11
115.8212550691
 21
211.1614692029
 31
0.0
 11
115.8323339055
 21
211.1599317859
 31
0.0
 11
115.8434376432
 21
211.1582638777
 31
0.0
 11
115.854564212
 21
211.1564643221
 31
0.0
 11
115.8657115002
 21
211.1545320011
 31
0.0
 11
115.8768773552
 21
211.1524658368
 31
0.0
 11
115.8880595846
 21
211.1502647926
 31
0.0
 11
115.8992559566
 21
211.147927875
 31
0.0
 11
115.9104642012
 21
211.1454541347
 31
0.0
 11
115.9216820111
 21
211.1428426685
 31
0.0
 11
115.9329070426
 21
211.1400926206
 31
0.0
 11
115.9441369168
 21
211.137203184
 31
0.0
 11
115.9553692206
 21
211.1341736019
 31
0.0
 11
115.9666015082
 21
211.1310031693
 31
0.0
 11
115.9778313021
 21
211.1276912339
 31
0.0
 11
115.9890560943
 21
211.1242371981
 31
0.0
 11
116.0002733479
 21
211.1206405197
 31
0.0
 11
116.0114804988
 21
211.1169007135
 31
0.0
 11
116.0226749566
 21
211.1130173524
 31
0.0
 11
116.0338541063
 21
211.1089900685
 31
0.0
 11
116.0450153105
 21
211.1048185544
 31
0.0
 11
116.0561559101
 21
211.1005025643
 31
0.0
 11
116.0672732269
 21
211.0960419146
 31
0.0
 11
116.0783645647
 21
211.0914364855
 31
0.0
 11
116.0894272115
 21
211.0866862216
 31
0.0
 11
116.1004584411
 21
211.0817911326
 31
0.0
 11
116.1114555154
 21
211.0767512945
 31
0.0
 11
116.1224156856
 21
211.0715668498
 31
0.0
 11
116.1333361951
 21
211.0662380088
 31
0.0
 11
116.1442142808
 21
211.0607650497
 31
0.0
 11
116.1550471753
 21
211.0551483194
 31
0.0
 11
116.1658321093
 21
211.0493882338
 31
0.0
 11
116.1765663134
 21
211.0434852783
 31
0.0
 11
116.1872470203
 21
211.0374400079
 31
0.0
 11
116.1978714669
 21
211.0312530479
 31
0.0
 11
116.2084368966
 21
211.0249250934
 31
0.0
 11
116.2189405615
 21
211.01845691
 31
0.0
 11
116.2293797245
 21
211.0118493334
 31
0.0
 11
116.2397516614
 21
211.0051032692
 31
0.0
 11
116.2500536635
 21
210.9982196934
 31
0.0
 11
116.2602830394
 21
210.9911996512
 31
0.0
 11
116.2704371174
 21
210.9840442575
 31
0.0
 11
116.2805132479
 21
210.976754696
 31
0.0
 11
116.2905088051
 21
210.9693322188
 31
0.0
 11
116.3004211898
 21
210.9617781458
 31
0.0
 11
116.3102478312
 21
210.9540938642
 31
0.0
 11
116.3199861889
 21
210.9462808273
 31
0.0
 11
116.3296337554
 21
210.9383405544
 31
0.0
 11
116.3391880583
 21
210.930274629
 31
0.0
 11
116.3486466617
 21
210.9220846984
 31
0.0
 11
116.3580071689
 21
210.9137724726
 31
0.0
 11
116.3672672241
 21
210.9053397227
 31
0.0
 11
116.3764245145
 21
210.8967882801
 31
0.0
 11
116.385476772
 21
210.8881200352
 31
0.0
 11
116.3944217752
 21
210.8793369356
 31
0.0
 11
116.4032573512
 21
210.8704409851
 31
0.0
 11
116.4119813775
 21
210.8614342419
 31
0.0
 11
116.4205917834
 21
210.8523188171
 31
0.0
 11
116.4290865517
 21
210.8430968731
 31
0.0
 11
116.4374637205
 21
210.8337706218
 31
0.0
 11
116.4457213847
 21
210.824342323
 31
0.0
 11
116.453857697
 21
210.8148142824
 31
0.0
 11
116.4618708698
 21
210.8051888496
 31
0.0
 11
116.4697591762
 21
210.7954684167
 31
0.0
 11
116.4775209513
 21
210.7856554158
 31
0.0
 11
116.4851545935
 21
210.7757523172
 31
0.0
 11
116.4926585652
 21
210.7657616273
 31
0.0
 11
116.5000313941
 21
210.7556858866
 31
0.0
 11
116.507271674
 21
210.7455276677
 31
0.0
 11
116.5143780656
 21
210.7352895729
 31
0.0
 11
116.5213492976
 21
210.7249742319
 31
0.0
 11
116.5281841665
 21
210.7145843003
 31
0.0
 11
116.5348815382
 21
210.7041224567
 31
0.0
 11
116.5414403478
 21
210.6935914008
 31
0.0
 11
116.5478596003
 21
210.682993851
 31
0.0
 11
116.5541383709
 21
210.6723325426
 31
0.0
 11
116.5602758049
 21
210.6616102249
 31
0.0
 11
116.5662711186
 21
210.6508296597
 31
0.0
 11
116.5721235986
 21
210.6399936184
 31
0.0
 11
116.5778326022
 21
210.6291048803
 31
0.0
 11
116.5833975574
 21
210.6181662302
 31
0.0
 11
116.5888179622
 21
210.6071804561
 31
0.0
 11
116.5940933851
 21
210.5961503472
 31
0.0
 11
116.5992234641
 21
210.5850786918
 31
0.0
 11
116.6042079067
 21
210.5739682751
 31
0.0
 11
116.6090464893
 21
210.5628218769
 31
0.0
 11
116.6137390566
 21
210.55164227
 31
0.0
 11
116.6182855212
 21
210.5404322178
 31
0.0
 11
116.6226858625
 21
210.5291944724
 31
0.0
 11
116.6269401263
 21
210.5179317729
 31
0.0
 11
116.6310484239
 21
210.5066468431
 31
0.0
 11
116.6350109312
 21
210.4953423898
 31
0.0
 11
116.6388278878
 21
210.4840211012
 31
0.0
 11
116.6424995957
 21
210.472685645
 31
0.0
 11
116.6460264187
 21
210.4613386663
 31
0.0
 11
116.6494087811
 21
210.4499827867
 31
0.0
 11
116.6526471665
 21
210.438620602
 31
0.0
 11
116.6557421167
 21
210.4272546811
 31
0.0
 11
116.6586942302
 21
210.4158875641
 31
0.0
 11
116.6615041613
 21
210.4045217613
 31
0.0
 11
116.6641726186
 21
210.3931597516
 31
0.0
 11
116.6667003636
 21
210.3818039812
 31
0.0
 11
116.6690882093
 21
210.3704568621
 31
0.0
 11
116.6713370189
 21
210.3591207715
 31
0.0
 11
116.6734477042
 21
210.34779805
 31
0.0
 11
116.6754212243
 21
210.336491001
 31
0.0
 11
116.6772585842
 21
210.3252018895
 31
0.0
 11
116.6789608326
 21
210.313932941
 31
0.0
 11
116.6805290616
 21
210.302686341
 31
0.0
 11
116.6819644038
 21
210.2914642338
 31
0.0
 11
116.6832680319
 21
210.2802687219
 31
0.0
 11
116.6844411564
 21
210.2691018652
 31
0.0
 11
116.6854850244
 21
210.2579656806
 31
0.0
 11
116.6864009179
 21
210.2468621411
 31
0.0
 11
116.6871901524
 21
210.2357931754
 31
0.0
 11
116.687854075
 21
210.2247606676
 31
0.0
 11
116.6883940632
 21
210.2137664564
 31
0.0
 11
116.6888115232
 21
210.2028123352
 31
0.0
 11
116.6891078883
 21
210.1919000514
 31
0.0
 11
116.6892846175
 21
210.1810313065
 31
0.0
 11
116.6893431938
 21
210.1702077555
 31
0.0
  0
LINE
  5
269
100
AcDbEntity
  8
0
100
AcDbLine
 62
7
  6
CONTINUOUS
 10
116.6893431938
 20
210.1702077555
 11
116.6893431938
 21
204.6702077555
  0
LINE
  5
26A
100
AcDbEntity
  8
0
100
AcDbLine
 62
7
  6
CONTINUOUS
 10
55.1893431938
 20
179.6702077555
 11
116.6893431938
 21
179.6702077555
  0
LINE
  5
26B
100
AcDbEntity
  8
0
100
AcDbLine
 62
7
  6
CONTINUOUS
 10
116.6893431938
 20
179.6702077555
 11
116.6893431938
 21
174.1702077555
  0
SPLINE
  5
26C
100
AcDbEntity
  8
0
100
AcDbSpline
 62
7
  6
CONTINUOUS
 70
4
 71
3
 72
8
 73
4
 74
129
 42
0.0000001
 43
0.0000001
 44
0.0000000001
 12
1.3810889137
 22
0.061397348
 32
0.0
 13
0.0
 23
1.3824529728
 33
0.0
 40
0.0
 40
0.0
 40
0.0
 40
0.0
 40
1.0
 40
1.0
 40
1.0
 40
1.0
 10
115.7337550829
 20
173.1711944502
 30
0.0
 41
1.0
 10
116.298553783
 20
173.1963030019
 30
0.0
 41
0.8150921225
 10
116.6893431938
 20
173.6048512211
 30
0.0
 41
0.8150921225
 10
116.6893431938
 20
174.1702077555
 30
0.0
 41
1.0
 11
115.7337550829
 21
173.1711944502
 31
0.0
 11
115.7445653528
 21
173.1717336631
 31
0.0
 11
115.7554155247
 21
173.1723929194
 31
0.0
 11
115.7663038793
 21
173.1731736273
 31
0.0
 11
115.7772286519
 21
173.1740771686
 31
0.0
 11
115.7881880333
 21
173.1751048977
 31
0.0
 11
115.7991801694
 21
173.1762581397
 31
0.0
 11
115.8102031619
 21
173.1775381891
 31
0.0
 11
115.8212550691
 21
173.1789463081
 31
0.0
 11
115.8323339055
 21
173.1804837251
 31
0.0
 11
115.8434376432
 21
173.1821516333
 31
0.0
 11
115.854564212
 21
173.1839511889
 31
0.0
 11
115.8657115002
 21
173.1858835099
 31
0.0
 11
115.8768773552
 21
173.1879496742
 31
0.0
 11
115.8880595846
 21
173.1901507184
 31
0.0
 11
115.8992559566
 21
173.192487636
 31
0.0
 11
115.9104642012
 21
173.1949613763
 31
0.0
 11
115.9216820111
 21
173.1975728425
 31
0.0
 11
115.9329070426
 21
173.2003228904
 31
0.0
 11
115.9441369168
 21
173.203212327
 31
0.0
 11
115.9553692206
 21
173.2062419091
 31
0.0
 11
115.9666015082
 21
173.2094123418
 31
0.0
 11
115.9778313021
 21
173.2127242771
 31
0.0
 11
115.9890560943
 21
173.2161783129
 31
0.0
 11
116.0002733479
 21
173.2197749913
 31
0.0
 11
116.0114804988
 21
173.2235147975
 31
0.0
 11
116.0226749566
 21
173.2273981586
 31
0.0
 11
116.0338541063
 21
173.2314254425
 31
0.0
 11
116.0450153105
 21
173.2355969566
 31
0.0
 11
116.0561559101
 21
173.2399129468
 31
0.0
 11
116.0672732269
 21
173.2443735964
 31
0.0
 11
116.0783645647
 21
173.2489790255
 31
0.0
 11
116.0894272115
 21
173.2537292894
 31
0.0
 11
116.1004584411
 21
173.2586243784
 31
0.0
 11
116.1114555154
 21
173.2636642166
 31
0.0
 11
116.1224156856
 21
173.2688486612
 31
0.0
 11
116.1333361951
 21
173.2741775022
 31
0.0
 11
116.1442142808
 21
173.2796504613
 31
0.0
 11
116.1550471753
 21
173.2852671916
 31
0.0
 11
116.1658321093
 21
173.2910272772
 31
0.0
 11
116.1765663134
 21
173.2969302328
 31
0.0
 11
116.1872470203
 21
173.3029755031
 31
0.0
 11
116.1978714669
 21
173.3091624631
 31
0.0
 11
116.2084368966
 21
173.3154904176
 31
0.0
 11
116.2189405615
 21
173.321958601
 31
0.0
 11
116.2293797245
 21
173.3285661776
 31
0.0
 11
116.2397516614
 21
173.3353122418
 31
0.0
 11
116.2500536635
 21
173.3421958176
 31
0.0
 11
116.2602830394
 21
173.3492158598
 31
0.0
 11
116.2704371174
 21
173.3563712535
 31
0.0
 11
116.2805132479
 21
173.363660815
 31
0.0
 11
116.2905088051
 21
173.3710832922
 31
0.0
 11
116.3004211898
 21
173.3786373652
 31
0.0
 11
116.3102478312
 21
173.3863216469
 31
0.0
 11
116.3199861889
 21
173.3941346837
 31
0.0
 11
116.3296337554
 21
173.4020749566
 31
0.0
 11
116.3391880583
 21
173.410140882
 31
0.0
 11
116.3486466617
 21
173.4183308126
 31
0.0
 11
116.3580071689
 21
173.4266430384
 31
0.0
 11
116.3672672241
 21
173.4350757883
 31
0.0
 11
116.3764245145
 21
173.4436272309
 31
0.0
 11
116.385476772
 21
173.4522954758
 31
0.0
 11
116.3944217752
 21
173.4610785754
 31
0.0
 11
116.4032573512
 21
173.4699745259
 31
0.0
 11
116.4119813775
 21
173.4789812691
 31
0.0
 11
116.4205917834
 21
173.4880966939
 31
0.0
 11
116.4290865517
 21
173.4973186379
 31
0.0
 11
116.4374637205
 21
173.5066448892
 31
0.0
 11
116.4457213847
 21
173.516073188
 31
0.0
 11
116.453857697
 21
173.5256012286
 31
0.0
 11
116.4618708698
 21
173.5352266614
 31
0.0
 11
116.4697591762
 21
173.5449470943
 31
0.0
 11
116.4775209513
 21
173.5547600952
 31
0.0
 11
116.4851545935
 21
173.5646631939
 31
0.0
 11
116.4926585652
 21
173.5746538838
 31
0.0
 11
116.5000313941
 21
173.5847296244
 31
0.0
 11
116.507271674
 21
173.5948878433
 31
0.0
 11
116.5143780656
 21
173.6051259382
 31
0.0
 11
116.5213492976
 21
173.6154412791
 31
0.0
 11
116.5281841665
 21
173.6258312107
 31
0.0
 11
116.5348815382
 21
173.6362930543
 31
0.0
 11
116.5414403478
 21
173.6468241102
 31
0.0
 11
116.5478596003
 21
173.65742166
 31
0.0
 11
116.5541383709
 21
173.6680829684
 31
0.0
 11
116.5602758049
 21
173.6788052861
 31
0.0
 11
116.5662711186
 21
173.6895858513
 31
0.0
 11
116.5721235986
 21
173.7004218926
 31
0.0
 11
116.5778326022
 21
173.7113106307
 31
0.0
 11
116.5833975574
 21
173.7222492809
 31
0.0
 11
116.5888179622
 21
173.733235055
 31
0.0
 11
116.5940933851
 21
173.7442651638
 31
0.0
 11
116.5992234641
 21
173.7553368192
 31
0.0
 11
116.6042079067
 21
173.7664472359
 31
0.0
 11
116.6090464893
 21
173.7775936341
 31
0.0
 11
116.6137390566
 21
173.788773241
 31
0.0
 11
116.6182855212
 21
173.7999832932
 31
0.0
 11
116.6226858625
 21
173.8112210386
 31
0.0
 11
116.6269401263
 21
173.8224837381
 31
0.0
 11
116.6310484239
 21
173.833768668
 31
0.0
 11
116.6350109312
 21
173.8450731212
 31
0.0
 11
116.6388278878
 21
173.8563944098
 31
0.0
 11
116.6424995957
 21
173.867729866
 31
0.0
 11
116.6460264187
 21
173.8790768447
 31
0.0
 11
116.6494087811
 21
173.8904327243
 31
0.0
 11
116.6526471665
 21
173.901794909
 31
0.0
 11
116.6557421167
 21
173.91316083
 31
0.0
 11
116.6586942302
 21
173.9245279469
 31
0.0
 11
116.6615041613
 21
173.9358937497
 31
0.0
 11
116.6641726186
 21
173.9472557594
 31
0.0
 11
116.6667003636
 21
173.9586115299
 31
0.0
 11
116.6690882093
 21
173.9699586489
 31
0.0
 11
116.6713370189
 21
173.9812947395
 31
0.0
 11
116.6734477042
 21
173.992617461
 31
0.0
 11
116.6754212243
 21
174.00392451
 31
0.0
 11
116.6772585842
 21
174.0152136215
 31
0.0
 11
116.6789608326
 21
174.02648257
 31
0.0
 11
116.6805290616
 21
174.03772917
 31
0.0
 11
116.6819644038
 21
174.0489512772
 31
0.0
 11
116.6832680319
 21
174.0601467891
 31
0.0
 11
116.6844411564
 21
174.0713136458
 31
0.0
 11
116.6854850244
 21
174.0824498304
 31
0.0
 11
116.6864009179
 21
174.0935533699
 31
0.0
 11
116.6871901524
 21
174.1046223356
 31
0.0
 11
116.687854075
 21
174.1156548434
 31
0.0
 11
116.6883940632
 21
174.1266490546
 31
0.0
 11
116.6888115232
 21
174.1376031758
 31
0.0
 11
116.6891078883
 21
174.1485154596
 31
0.0
 11
116.6892846175
 21
174.1593842045
 31
0.0
 11
116.6893431938
 21
174.1702077555
 31
0.0
  0
LINE
  5
26D
100
AcDbEntity
  8
0
100
AcDbLine
 62
7
  6
CONTINUOUS
 10
93.2172837486
 20
172.1702077555
 11
115.7337550829
 21
173.1711944502
  0
SPLINE
  5
26E
100
AcDbEntity
  8
0
100
AcDbSpline
 62
7
  6
CONTINUOUS
 70
4
 71
3
 72
8
 73
4
 74
129
 42
0.0000001
 43
0.0000001
 44
0.0000000001
 12
-6.9054445686
 22
-0.3069867401
 32
0.0
 13
0.0
 23
-6.9122648639
 33
0.0
 40
0.0
 40
0.0
 40
0.0
 40
0.0
 40
1.0
 40
1.0
 40
1.0
 40
1.0
 10
93.2172837486
 20
172.1702077555
 30
0.0
 41
1.0
 10
90.3932902481
 20
172.0446649971
 30
0.0
 41
0.8150921225
 10
88.4393431938
 20
170.0019239013
 30
0.0
 41
0.8150921225
 10
88.4393431938
 20
167.1751412291
 30
0.0
 41
1.0
 11
93.2172837486
 21
172.1702077555
 31
0.0
 11
93.163232399
 21
172.1675116911
 31
0.0
 11
93.1089815393
 21
172.1642154095
 31
0.0
 11
93.0545397665
 21
172.1603118704
 31
0.0
 11
92.9999159032
 21
172.1557941639
 31
0.0
 11
92.9451189965
 21
172.1506555184
 31
0.0
 11
92.8901583162
 21
172.1448893083
 31
0.0
 11
92.8350433533
 21
172.1384890613
 31
0.0
 11
92.7797838176
 21
172.1314484663
 31
0.0
 11
92.7243896354
 21
172.1237613812
 31
0.0
 11
92.6688709468
 21
172.1154218403
 31
0.0
 11
92.6132381028
 21
172.1064240621
 31
0.0
 11
92.557501662
 21
172.0967624572
 31
0.0
 11
92.5016723868
 21
172.0864316357
 31
0.0
 11
92.4457612399
 21
172.0754264148
 31
0.0
 11
92.3897793799
 21
172.0637418265
 31
0.0
 11
92.3337381568
 21
172.051373125
 31
0.0
 11
92.2776491074
 21
172.0383157941
 31
0.0
 11
92.22152395
 21
172.0245655547
 31
0.0
 11
92.1653745791
 21
172.0101183717
 31
0.0
 11
92.1092130599
 21
171.9949704613
 31
0.0
 11
92.0530516217
 21
171.9791182979
 31
0.0
 11
91.9969026526
 21
171.9625586211
 31
0.0
 11
91.9407786917
 21
171.9452884421
 31
0.0
 11
91.8846924232
 21
171.9273050501
 31
0.0
 11
91.8286566688
 21
171.9086060192
 31
0.0
 11
91.7726843802
 21
171.8891892135
 31
0.0
 11
91.7167886314
 21
171.8690527941
 31
0.0
 11
91.6609826106
 21
171.8481952237
 31
0.0
 11
91.6052796124
 21
171.8266152729
 31
0.0
 11
91.5496930285
 21
171.8043120245
 31
0.0
 11
91.4942363395
 21
171.7812848793
 31
0.0
 11
91.4389231056
 21
171.7575335596
 31
0.0
 11
91.3837669573
 21
171.7330581147
 31
0.0
 11
91.3287815861
 21
171.7078589239
 31
0.0
 11
91.2739807348
 21
171.6819367005
 31
0.0
 11
91.2193781873
 21
171.6552924956
 31
0.0
 11
91.1649877591
 21
171.6279277002
 31
0.0
 11
91.1108232865
 21
171.5998440487
 31
0.0
 11
91.0568986164
 21
171.5710436206
 31
0.0
 11
91.0032275959
 21
171.5415288429
 31
0.0
 11
90.9498240616
 21
171.5113024912
 31
0.0
 11
90.8967018287
 21
171.480367691
 31
0.0
 11
90.84387468
 21
171.4487279188
 31
0.0
 11
90.7913563555
 21
171.4163870018
 31
0.0
 11
90.7391605407
 21
171.3833491184
 31
0.0
 11
90.687300856
 21
171.3496187978
 31
0.0
 11
90.6357908456
 21
171.3152009184
 31
0.0
 11
90.5846439662
 21
171.2801007076
 31
0.0
 11
90.533873576
 21
171.2443237392
 31
0.0
 11
90.4834929237
 21
171.2078759316
 31
0.0
 11
90.4335151374
 21
171.1707635455
 31
0.0
 11
90.3839532138
 21
171.1329931806
 31
0.0
 11
90.3348200072
 21
171.0945717724
 31
0.0
 11
90.2861282187
 21
171.0555065883
 31
0.0
 11
90.2378903858
 21
171.0158052236
 31
0.0
 11
90.1901188716
 21
170.9754755965
 31
0.0
 11
90.1428258546
 21
170.9345259437
 31
0.0
 11
90.0960233185
 21
170.8929648144
 31
0.0
 11
90.0497230424
 21
170.850801065
 31
0.0
 11
90.0039365905
 21
170.8080438523
 31
0.0
 11
89.9586753031
 21
170.7647026277
 31
0.0
 11
89.9139502871
 21
170.7207871298
 31
0.0
 11
89.8697724068
 21
170.6763073772
 31
0.0
 11
89.8261522754
 21
170.6312736611
 31
0.0
 11
89.7831002462
 21
170.585696537
 31
0.0
 11
89.7406264047
 21
170.539586817
 31
0.0
 11
89.6987405604
 21
170.4929555607
 31
0.0
 11
89.6574522396
 21
170.4458140667
 31
0.0
 11
89.6167706781
 21
170.3981738635
 31
0.0
 11
89.5767048141
 21
170.3500466998
 31
0.0
 11
89.5372632821
 21
170.3014445353
 31
0.0
 11
89.4984544063
 21
170.2523795307
 31
0.0
 11
89.4602861955
 21
170.2028640374
 31
0.0
 11
89.4227663371
 21
170.1529105879
 31
0.0
 11
89.3859021927
 21
170.1025318847
 31
0.0
 11
89.3497007932
 21
170.0517407903
 31
0.0
 11
89.3141688348
 21
170.0005503159
 31
0.0
 11
89.2793126752
 21
169.9489736113
 31
0.0
 11
89.2451383304
 21
169.8970239533
 31
0.0
 11
89.2116514719
 21
169.8447147352
 31
0.0
 11
89.1788574238
 21
169.7920594555
 31
0.0
 11
89.1467611613
 21
169.7390717067
 31
0.0
 11
89.1153673087
 21
169.6857651645
 31
0.0
 11
89.0846801384
 21
169.6321535762
 31
0.0
 11
89.05470357
 21
169.57825075
 31
0.0
 11
89.02544117
 21
169.5240705436
 31
0.0
 11
88.9968961518
 21
169.4696268531
 31
0.0
 11
88.9690713761
 21
169.4149336024
 31
0.0
 11
88.9419693519
 21
169.3600047319
 31
0.0
 11
88.9155922375
 21
169.3048541875
 31
0.0
 11
88.8899418425
 21
169.2494959107
 31
0.0
 11
88.8650196295
 21
169.1939438269
 31
0.0
 11
88.8408267165
 21
169.1382118361
 31
0.0
 11
88.8173638798
 21
169.0823138016
 31
0.0
 11
88.7946315571
 21
169.0262635405
 31
0.0
 11
88.7726298507
 21
168.9700748137
 31
0.0
 11
88.7513585316
 21
168.9137613161
 31
0.0
 11
88.7308170434
 21
168.8573366669
 31
0.0
 11
88.7110045068
 21
168.8008144006
 31
0.0
 11
88.6919197241
 21
168.7442079578
 31
0.0
 11
88.6735611846
 21
168.6875306765
 31
0.0
 11
88.6559270695
 21
168.6307957833
 31
0.0
 11
88.6390152574
 21
168.5740163852
 31
0.0
 11
88.6228233303
 21
168.5172054617
 31
0.0
 11
88.6073485796
 21
168.4603758569
 31
0.0
 11
88.5925880121
 21
168.4035402719
 31
0.0
 11
88.5785383564
 21
168.3467112581
 31
0.0
 11
88.5651960699
 21
168.2899012097
 31
0.0
 11
88.552557345
 21
168.2331223574
 31
0.0
 11
88.5406181166
 21
168.1763867621
 31
0.0
 11
88.5293740687
 21
168.119706309
 31
0.0
 11
88.5188206421
 21
168.0630927016
 31
0.0
 11
88.5089530413
 21
168.0065574567
 31
0.0
 11
88.4997662422
 21
167.9501118991
 31
0.0
 11
88.4912549998
 21
167.8937671568
 31
0.0
 11
88.4834138552
 21
167.8375341567
 31
0.0
 11
88.476237144
 21
167.7814236206
 31
0.0
 11
88.4697190036
 21
167.725446061
 31
0.0
 11
88.4638533811
 21
167.6696117776
 31
0.0
 11
88.458634041
 21
167.6139308546
 31
0.0
 11
88.4540545734
 21
167.558413157
 31
0.0
 11
88.4501084011
 21
167.5030683287
 31
0.0
 11
88.4467887881
 21
167.4479057895
 31
0.0
 11
88.444088847
 21
167.3929347337
 31
0.0
 11
88.4420015471
 21
167.3381641276
 31
0.0
 11
88.4405197215
 21
167.2836027087
 31
0.0
 11
88.4396360755
 21
167.2292589839
 31
0.0
 11
88.4393431938
 21
167.1751412291
 31
0.0
  0
LINE
  5
26F
100
AcDbEntity
  8
0
100
AcDbLine
 62
7
  6
CONTINUOUS
 10
88.4393431938
 20
167.1751412291
 11
88.4393431938
 21
151.1702077555
  0
SPLINE
  5
270
100
AcDbEntity
  8
0
100
AcDbSpline
 62
7
  6
CONTINUOUS
 70
4
 71
3
 72
8
 73
4
 74
255
 42
0.0000001
 43
0.0000001
 44
0.0000000001
 12
0.0
 22
-7.0710678119
 32
0.0
 13
7.0710678119
 23
-0.0
 33
0.0
 40
0.0
 40
0.0
 40
0.0
 40
0.0
 40
1.0
 40
1.0
 40
1.0
 40
1.0
 10
88.4393431938
 20
151.1702077555
 30
0.0
 41
1.0
 10
88.4393431938
 20
148.2412755674
 30
0.0
 41
0.8047378541
 10
90.5104110057
 20
146.1702077555
 30
0.0
 41
0.8047378541
 10
93.4393431938
 20
146.1702077555
 30
0.0
 41
1.0
 11
88.4393431938
 21
151.1702077555
 31
0.0
 11
88.4396497616
 21
151.1148400378
 31
0.0
 11
88.4400345295
 21
151.0870640305
 31
0.0
 11
88.4405749954
 21
151.0592280367
 31
0.0
 11
88.4412721812
 21
151.031333161
 31
0.0
 11
88.4421271013
 21
151.0033805245
 31
0.0
 11
88.4431407618
 21
150.9753712645
 31
0.0
 11
88.4443141603
 21
150.9473065348
 31
0.0
 11
88.4456482859
 21
150.9191875051
 31
0.0
 11
88.4471441186
 21
150.8910153616
 31
0.0
 11
88.4488026292
 21
150.8627913066
 31
0.0
 11
88.4506247792
 21
150.8345165586
 31
0.0
 11
88.4526115201
 21
150.8061923519
 31
0.0
 11
88.4547637933
 21
150.7778199373
 31
0.0
 11
88.45708253
 21
150.7494005812
 31
0.0
 11
88.4595686508
 21
150.720935566
 31
0.0
 11
88.4622230651
 21
150.69242619
 31
0.0
 11
88.4650466715
 21
150.6638737672
 31
0.0
 11
88.4680403568
 21
150.6352796273
 31
0.0
 11
88.4712049962
 21
150.6066451156
 31
0.0
 11
88.4745414528
 21
150.5779715928
 31
0.0
 11
88.4780505774
 21
150.5492604352
 31
0.0
 11
88.4817332082
 21
150.5205130343
 31
0.0
 11
88.4855901705
 21
150.4917307966
 31
0.0
 11
88.4896222763
 21
150.462915144
 31
0.0
 11
88.4938303242
 21
150.4340675133
 31
0.0
 11
88.4982150991
 21
150.4051893558
 31
0.0
 11
88.502777372
 21
150.3762821379
 31
0.0
 11
88.5075178992
 21
150.3473473403
 31
0.0
 11
88.5124374227
 21
150.3183864584
 31
0.0
 11
88.5175366696
 21
150.2894010016
 31
0.0
 11
88.5228163517
 21
150.2603924934
 31
0.0
 11
88.5282771657
 21
150.2313624716
 31
0.0
 11
88.5339197921
 21
150.2023124874
 31
0.0
 11
88.5397448959
 21
150.1732441059
 31
0.0
 11
88.5457531254
 21
150.1441589055
 31
0.0
 11
88.5519451129
 21
150.1150584778
 31
0.0
 11
88.5583214733
 21
150.0859444277
 31
0.0
 11
88.564882805
 21
150.0568183728
 31
0.0
 11
88.5716296886
 21
150.0276819435
 31
0.0
 11
88.5785626875
 21
149.9985367824
 31
0.0
 11
88.5856823469
 21
149.9693845448
 31
0.0
 11
88.5929891943
 21
149.9402268976
 31
0.0
 11
88.6004837383
 21
149.9110655198
 31
0.0
 11
88.6081664694
 21
149.8819021018
 31
0.0
 11
88.6160378589
 21
149.8527383457
 31
0.0
 11
88.6240983591
 21
149.8235759642
 31
0.0
 11
88.6323484029
 21
149.7944166813
 31
0.0
 11
88.6407884037
 21
149.7652622314
 31
0.0
 11
88.6494187549
 21
149.7361143592
 31
0.0
 11
88.65823983
 21
149.7069748198
 31
0.0
 11
88.6672519821
 21
149.6778453778
 31
0.0
 11
88.6764555437
 21
149.6487278075
 31
0.0
 11
88.6858508268
 21
149.6196238924
 31
0.0
 11
88.6954381222
 21
149.5905354252
 31
0.0
 11
88.7052176996
 21
149.5614642069
 31
0.0
 11
88.7151898074
 21
149.5324120474
 31
0.0
 11
88.7253546723
 21
149.5033807643
 31
0.0
 11
88.7357124992
 21
149.4743721831
 31
0.0
 11
88.7462634711
 21
149.445388137
 31
0.0
 11
88.7570077489
 21
149.4164304661
 31
0.0
 11
88.7679454709
 21
149.3875010174
 31
0.0
 11
88.779076753
 21
149.3586016447
 31
0.0
 11
88.7904016885
 21
149.3297342077
 31
0.0
 11
88.8019203477
 21
149.3009005721
 31
0.0
 11
88.8136327778
 21
149.272102609
 31
0.0
 11
88.825539003
 21
149.2433421949
 31
0.0
 11
88.8376390239
 21
149.2146212111
 31
0.0
 11
88.8499328179
 21
149.1859415432
 31
0.0
 11
88.8624203385
 21
149.1573050812
 31
0.0
 11
88.8751015155
 21
149.1287137187
 31
0.0
 11
88.887976255
 21
149.1001693528
 31
0.0
 11
88.9010444389
 21
149.0716738837
 31
0.0
 11
88.914305925
 21
149.0432292141
 31
0.0
 11
88.9277605468
 21
149.0148372492
 31
0.0
 11
88.9414081137
 21
148.9864998961
 31
0.0
 11
88.9552484104
 21
148.9582190635
 31
0.0
 11
88.9692811973
 21
148.9299966612
 31
0.0
 11
88.98350621
 21
148.9018345997
 31
0.0
 11
88.9979231597
 21
148.8737347902
 31
0.0
 11
89.0125317325
 21
148.8456991437
 31
0.0
 11
89.0273315901
 21
148.8177295709
 31
0.0
 11
89.0423223692
 21
148.7898279817
 31
0.0
 11
89.0575036814
 21
148.7619962849
 31
0.0
 11
89.0728751137
 21
148.7342363877
 31
0.0
 11
89.0884362279
 21
148.7065501953
 31
0.0
 11
89.1041865611
 21
148.6789396107
 31
0.0
 11
89.1201256251
 21
148.6514065339
 31
0.0
 11
89.1362529069
 21
148.623952862
 31
0.0
 11
89.1525678685
 21
148.5965804883
 31
0.0
 11
89.1690699469
 21
148.5692913024
 31
0.0
 11
89.185758554
 21
148.5420871891
 31
0.0
 11
89.2026330769
 21
148.5149700289
 31
0.0
 11
89.2196928777
 21
148.4879416967
 31
0.0
 11
89.2369372939
 21
148.4610040622
 31
0.0
 11
89.2543656377
 21
148.4341589886
 31
0.0
 11
89.271977197
 21
148.4074083331
 31
0.0
 11
89.2897712347
 21
148.3807539459
 31
0.0
 11
89.3077469892
 21
148.35419767
 31
0.0
 11
89.3259036743
 21
148.3277413407
 31
0.0
 11
89.3442404794
 21
148.3013867855
 31
0.0
 11
89.3627565694
 21
148.2751358231
 31
0.0
 11
89.3814510852
 21
148.2489902637
 31
0.0
 11
89.4003231433
 21
148.2229519079
 31
0.0
 11
89.4193718363
 21
148.197022547
 31
0.0
 11
89.4385962328
 21
148.171203962
 31
0.0
 11
89.4579953777
 21
148.1454979236
 31
0.0
 11
89.4775682924
 21
148.1199061917
 31
0.0
 11
89.4973139746
 21
148.0944305147
 31
0.0
 11
89.5172313989
 21
148.0690726298
 31
0.0
 11
89.5373195165
 21
148.0438342619
 31
0.0
 11
89.557577256
 21
148.0187171235
 31
0.0
 11
89.5780035228
 21
147.9937229146
 31
0.0
 11
89.5985971999
 21
147.9688533218
 31
0.0
 11
89.6193571481
 21
147.9441100182
 31
0.0
 11
89.6402822056
 21
147.9194946633
 31
0.0
 11
89.6613711889
 21
147.895008902
 31
0.0
 11
89.6826228927
 21
147.8706543646
 31
0.0
 11
89.70403609
 21
147.8464326668
 31
0.0
 11
89.7256095327
 21
147.8223454085
 31
0.0
 11
89.7473419515
 21
147.7983941743
 31
0.0
 11
89.7692320562
 21
147.7745805325
 31
0.0
 11
89.7912785363
 21
147.7509060352
 31
0.0
 11
89.8134800608
 21
147.7273722177
 31
0.0
 11
89.8358352787
 21
147.7039805983
 31
0.0
 11
89.8583428192
 21
147.680732678
 31
0.0
 11
89.8810012921
 21
147.65762994
 31
0.0
 11
89.9038092879
 21
147.6346738496
 31
0.0
 11
89.9267653783
 21
147.6118658538
 31
0.0
 11
89.9498681163
 21
147.5892073809
 31
0.0
 11
89.9731160366
 21
147.5666998404
 31
0.0
 11
89.996507656
 21
147.5443446225
 31
0.0
 11
90.0200414735
 21
147.522143098
 31
0.0
 11
90.0437159708
 21
147.5000966179
 31
0.0
 11
90.0675296126
 21
147.4782065131
 31
0.0
 11
90.0914808469
 21
147.4564740944
 31
0.0
 11
90.1155681051
 21
147.4349006517
 31
0.0
 11
90.139789803
 21
147.4134874544
 31
0.0
 11
90.1641443403
 21
147.3922357506
 31
0.0
 11
90.1886301016
 21
147.3711467673
 31
0.0
 11
90.2132454566
 21
147.3502217098
 31
0.0
 11
90.2379887601
 21
147.3294617616
 31
0.0
 11
90.2628583529
 21
147.3088680844
 31
0.0
 11
90.2878525618
 21
147.2884418176
 31
0.0
 11
90.3129697002
 21
147.2681840782
 31
0.0
 11
90.3382080681
 21
147.2480959606
 31
0.0
 11
90.363565953
 21
147.2281785363
 31
0.0
 11
90.38904163
 21
147.2084328541
 31
0.0
 11
90.4146333619
 21
147.1888599394
 31
0.0
 11
90.4403394003
 21
147.1694607944
 31
0.0
 11
90.4661579853
 21
147.1502363979
 31
0.0
 11
90.4920873462
 21
147.131187705
 31
0.0
 11
90.518125702
 21
147.1123156469
 31
0.0
 11
90.5442712614
 21
147.0936211311
 31
0.0
 11
90.5705222238
 21
147.075105041
 31
0.0
 11
90.5968767791
 21
147.056768236
 31
0.0
 11
90.6233331083
 21
147.0386115509
 31
0.0
 11
90.6498893842
 21
147.0206357964
 31
0.0
 11
90.6765437714
 21
147.0028417587
 31
0.0
 11
90.7032944269
 21
146.9852301994
 31
0.0
 11
90.7301395005
 21
146.9678018556
 31
0.0
 11
90.7570771351
 21
146.9505574394
 31
0.0
 11
90.7841054672
 21
146.9334976385
 31
0.0
 11
90.8112226274
 21
146.9166231156
 31
0.0
 11
90.8384267407
 21
146.8999345085
 31
0.0
 11
90.8657159267
 21
146.8834324302
 31
0.0
 11
90.8930883003
 21
146.8671174686
 31
0.0
 11
90.9205419722
 21
146.8509901868
 31
0.0
 11
90.948075049
 21
146.8350511227
 31
0.0
 11
90.9756856336
 21
146.8193007896
 31
0.0
 11
91.003371826
 21
146.8037396753
 31
0.0
 11
91.0311317232
 21
146.7883682431
 31
0.0
 11
91.0589634201
 21
146.7731869308
 31
0.0
 11
91.0868650092
 21
146.7581961518
 31
0.0
 11
91.1148345821
 21
146.7433962942
 31
0.0
 11
91.1428702286
 21
146.7287877214
 31
0.0
 11
91.170970038
 21
146.7143707717
 31
0.0
 11
91.1991320995
 21
146.700145759
 31
0.0
 11
91.2273545018
 21
146.6861129721
 31
0.0
 11
91.2556353345
 21
146.6722726754
 31
0.0
 11
91.2839726875
 21
146.6586251085
 31
0.0
 11
91.3123646524
 21
146.6451704867
 31
0.0
 11
91.340809322
 21
146.6319090006
 31
0.0
 11
91.3693047912
 21
146.6188408167
 31
0.0
 11
91.3978491571
 21
146.6059660772
 31
0.0
 11
91.4264405196
 21
146.5932849002
 31
0.0
 11
91.4550769816
 21
146.5807973796
 31
0.0
 11
91.4837566494
 21
146.5685035856
 31
0.0
 11
91.5124776333
 21
146.5564035647
 31
0.0
 11
91.5412380473
 21
146.5444973395
 31
0.0
 11
91.5700360104
 21
146.5327849094
 31
0.0
 11
91.598869646
 21
146.5212662502
 31
0.0
 11
91.627737083
 21
146.5099413147
 31
0.0
 11
91.6566364558
 21
146.4988100326
 31
0.0
 11
91.6855659044
 21
146.4878723106
 31
0.0
 11
91.7145235753
 21
146.4771280328
 31
0.0
 11
91.7435076214
 21
146.4665770609
 31
0.0
 11
91.7725162026
 21
146.456219234
 31
0.0
 11
91.8015474857
 21
146.4460543691
 31
0.0
 11
91.8305996453
 21
146.4360822613
 31
0.0
 11
91.8596708635
 21
146.4263026839
 31
0.0
 11
91.8887593307
 21
146.4167153885
 31
0.0
 11
91.9178632458
 21
146.4073201054
 31
0.0
 11
91.9469808161
 21
146.3981165437
 31
0.0
 11
91.9761102581
 21
146.3891043917
 31
0.0
 11
92.0052497975
 21
146.3802833166
 31
0.0
 11
92.0343976697
 21
146.3716529653
 31
0.0
 11
92.0635521196
 21
146.3632129646
 31
0.0
 11
92.0927114025
 21
146.3549629208
 31
0.0
 11
92.121873784
 21
146.3469024206
 31
0.0
 11
92.1510375402
 21
146.3390310311
 31
0.0
 11
92.1802009581
 21
146.3313483
 31
0.0
 11
92.2093623359
 21
146.3238537559
 31
0.0
 11
92.2385199831
 21
146.3165469086
 31
0.0
 11
92.2676722208
 21
146.3094272492
 31
0.0
 11
92.2968173818
 21
146.3024942503
 31
0.0
 11
92.3259538112
 21
146.2957473666
 31
0.0
 11
92.3550798661
 21
146.289186035
 31
0.0
 11
92.3841939162
 21
146.2828096745
 31
0.0
 11
92.4132943438
 21
146.2766176871
 31
0.0
 11
92.4423795442
 21
146.2706094575
 31
0.0
 11
92.4714479258
 21
146.2647843538
 31
0.0
 11
92.5004979099
 21
146.2591417274
 31
0.0
 11
92.5295279318
 21
146.2536809134
 31
0.0
 11
92.5585364399
 21
146.2484012313
 31
0.0
 11
92.5875218967
 21
146.2433019844
 31
0.0
 11
92.6164827787
 21
146.2383824608
 31
0.0
 11
92.6454175762
 21
146.2336419336
 31
0.0
 11
92.6743247941
 21
146.2290796608
 31
0.0
 11
92.7032029516
 21
146.2246948859
 31
0.0
 11
92.7320505824
 21
146.2204868379
 31
0.0
 11
92.7608662349
 21
146.2164547322
 31
0.0
 11
92.7896484726
 21
146.2125977699
 31
0.0
 11
92.8183958736
 21
146.2089151391
 31
0.0
 11
92.8471070312
 21
146.2054060145
 31
0.0
 11
92.8757805539
 21
146.2020695579
 31
0.0
 11
92.9044150656
 21
146.1989049185
 31
0.0
 11
92.9330092055
 21
146.1959112332
 31
0.0
 11
92.9615616283
 21
146.1930876268
 31
0.0
 11
92.9900710043
 21
146.1904332124
 31
0.0
 11
93.0185360195
 21
146.1879470917
 31
0.0
 11
93.0469553756
 21
146.185628355
 31
0.0
 11
93.0753277903
 21
146.1834760818
 31
0.0
 11
93.1036519969
 21
146.1814893409
 31
0.0
 11
93.1319267449
 21
146.1796671909
 31
0.0
 11
93.1601507999
 21
146.1780086802
 31
0.0
 11
93.1883229434
 21
146.1765128475
 31
0.0
 11
93.2164419731
 21
146.175178722
 31
0.0
 11
93.2445067029
 21
146.1740053235
 31
0.0
 11
93.2725159628
 21
146.172991663
 31
0.0
 11
93.3004685993
 21
146.1721367429
 31
0.0
 11
93.328363475
 21
146.171439557
 31
0.0
 11
93.3561994689
 21
146.1708990912
 31
0.0
 11
93.3839754761
 21
146.1705143233
 31
0.0
 11
93.4393431938
 21
146.1702077555
 31
0.0
  0
LINE
  5
271
100
AcDbEntity
  8
0
100
AcDbLine
 62
7
  6
CONTINUOUS
 10
93.4393431938
 20
146.1702077555
 11
110.6893431938
 21
146.1702077555
  0
SPLINE
  5
272
100
AcDbEntity
  8
0
100
AcDbSpline
 62
7
  6
CONTINUOUS
 70
4
 71
3
 72
8
 73
4
 74
255
 42
0.0000001
 43
0.0000001
 44
0.0000000001
 12
0.0
 22
7.0710678119
 32
0.0
 13
-7.0710678119
 23
-0.0
 33
0.0
 40
0.0
 40
0.0
 40
0.0
 40
0.0
 40
1.0
 40
1.0
 40
1.0
 40
1.0
 10
115.6893431938
 20
141.1702077555
 30
0.0
 41
1.0
 10
115.6893431938
 20
144.0991399436
 30
0.0
 41
0.8047378541
 10
113.618275382
 20
146.1702077555
 30
0.0
 41
0.8047378541
 10
110.6893431938
 20
146.1702077555
 30
0.0
 41
1.0
 11
115.6893431938
 21
141.1702077555
 31
0.0
 11
115.689036626
 21
141.2255754732
 31
0.0
 11
115.6886518581
 21
141.2533514805
 31
0.0
 11
115.6881113923
 21
141.2811874743
 31
0.0
 11
115.6874142064
 21
141.30908235
 31
0.0
 11
115.6865592863
 21
141.3370349865
 31
0.0
 11
115.6855456259
 21
141.3650442465
 31
0.0
 11
115.6843722274
 21
141.3931089763
 31
0.0
 11
115.6830381018
 21
141.4212280059
 31
0.0
 11
115.6815422691
 21
141.4494001494
 31
0.0
 11
115.6798837584
 21
141.4776242044
 31
0.0
 11
115.6780616084
 21
141.5058989525
 31
0.0
 11
115.6760748676
 21
141.5342231591
 31
0.0
 11
115.6739225944
 21
141.5625955737
 31
0.0
 11
115.6716038576
 21
141.5910149298
 31
0.0
 11
115.6691177369
 21
141.619479945
 31
0.0
 11
115.6664633225
 21
141.647989321
 31
0.0
 11
115.6636397162
 21
141.6765417438
 31
0.0
 11
115.6606460309
 21
141.7051358837
 31
0.0
 11
115.6574813915
 21
141.7337703954
 31
0.0
 11
115.6541449348
 21
141.7624439182
 31
0.0
 11
115.6506358102
 21
141.7911550758
 31
0.0
 11
115.6469531794
 21
141.8199024767
 31
0.0
 11
115.6430962172
 21
141.8486847144
 31
0.0
 11
115.6390641114
 21
141.877500367
 31
0.0
 11
115.6348560635
 21
141.9063479978
 31
0.0
 11
115.6304712885
 21
141.9352261552
 31
0.0
 11
115.6259090157
 21
141.9641333731
 31
0.0
 11
115.6211684885
 21
141.9930681707
 31
0.0
 11
115.616248965
 21
142.0220290526
 31
0.0
 11
115.6111497181
 21
142.0510145094
 31
0.0
 11
115.6058700359
 21
142.0800230176
 31
0.0
 11
115.600409222
 21
142.1090530394
 31
0.0
 11
115.5947665955
 21
142.1381030236
 31
0.0
 11
115.5889414918
 21
142.1671714051
 31
0.0
 11
115.5829332622
 21
142.1962566055
 31
0.0
 11
115.5767412748
 21
142.2253570332
 31
0.0
 11
115.5703649143
 21
142.2544710833
 31
0.0
 11
115.5638035827
 21
142.2835971382
 31
0.0
 11
115.557056699
 21
142.3127335675
 31
0.0
 11
115.5501237002
 21
142.3418787286
 31
0.0
 11
115.5430040407
 21
142.3710309663
 31
0.0
 11
115.5356971934
 21
142.4001886134
 31
0.0
 11
115.5282026493
 21
142.4293499913
 31
0.0
 11
115.5205199183
 21
142.4585134092
 31
0.0
 11
115.5126485288
 21
142.4876771653
 31
0.0
 11
115.5045880286
 21
142.5168395468
 31
0.0
 11
115.4963379848
 21
142.5459988297
 31
0.0
 11
115.487897984
 21
142.5751532797
 31
0.0
 11
115.4792676328
 21
142.6043011518
 31
0.0
 11
115.4704465577
 21
142.6334406912
 31
0.0
 11
115.4614344056
 21
142.6625701332
 31
0.0
 11
115.452230844
 21
142.6916877035
 31
0.0
 11
115.4428355609
 21
142.7207916186
 31
0.0
 11
115.4332482655
 21
142.7498800859
 31
0.0
 11
115.423468688
 21
142.7789513041
 31
0.0
 11
115.4134965803
 21
142.8080034636
 31
0.0
 11
115.4033317154
 21
142.8370347468
 31
0.0
 11
115.3929738885
 21
142.8660433279
 31
0.0
 11
115.3824229165
 21
142.895027374
 31
0.0
 11
115.3716786388
 21
142.923985045
 31
0.0
 11
115.3607409168
 21
142.9529144936
 31
0.0
 11
115.3496096346
 21
142.9818138663
 31
0.0
 11
115.3382846991
 21
143.0106813033
 31
0.0
 11
115.32676604
 21
143.039514939
 31
0.0
 11
115.3150536098
 21
143.068312902
 31
0.0
 11
115.3031473847
 21
143.0970733161
 31
0.0
 11
115.2910473637
 21
143.1257942999
 31
0.0
 11
115.2787535698
 21
143.1544739678
 31
0.0
 11
115.2662660492
 21
143.1831104298
 31
0.0
 11
115.2535848721
 21
143.2117017923
 31
0.0
 11
115.2407101326
 21
143.2402461582
 31
0.0
 11
115.2276419487
 21
143.2687416273
 31
0.0
 11
115.2143804627
 21
143.2971862969
 31
0.0
 11
115.2009258408
 21
143.3255782618
 31
0.0
 11
115.1872782739
 21
143.3539156149
 31
0.0
 11
115.1734379772
 21
143.3821964475
 31
0.0
 11
115.1594051904
 21
143.4104188498
 31
0.0
 11
115.1451801776
 21
143.4385809113
 31
0.0
 11
115.130763228
 21
143.4666807208
 31
0.0
 11
115.1161546551
 21
143.4947163673
 31
0.0
 11
115.1013547975
 21
143.5226859401
 31
0.0
 11
115.0863640185
 21
143.5505875293
 31
0.0
 11
115.0711827063
 21
143.5784192261
 31
0.0
 11
115.055811274
 21
143.6061791233
 31
0.0
 11
115.0402501598
 21
143.6338653157
 31
0.0
 11
115.0244998266
 21
143.6614759003
 31
0.0
 11
115.0085607626
 21
143.6890089771
 31
0.0
 11
114.9924334807
 21
143.716462649
 31
0.0
 11
114.9761185191
 21
143.7438350227
 31
0.0
 11
114.9596164408
 21
143.7711242087
 31
0.0
 11
114.9429278337
 21
143.7983283219
 31
0.0
 11
114.9260533108
 21
143.8254454821
 31
0.0
 11
114.9089935099
 21
143.8524738143
 31
0.0
 11
114.8917490938
 21
143.8794114489
 31
0.0
 11
114.8743207499
 21
143.9062565224
 31
0.0
 11
114.8567091907
 21
143.9330071779
 31
0.0
 11
114.838915153
 21
143.9596615651
 31
0.0
 11
114.8209393985
 21
143.986217841
 31
0.0
 11
114.8027827134
 21
144.0126741703
 31
0.0
 11
114.7844459083
 21
144.0390287255
 31
0.0
 11
114.7659298182
 21
144.0652796879
 31
0.0
 11
114.7472353025
 21
144.0914252474
 31
0.0
 11
114.7283632444
 21
144.1174636031
 31
0.0
 11
114.7093145514
 21
144.143392964
 31
0.0
 11
114.6900901549
 21
144.169211549
 31
0.0
 11
114.6706910099
 21
144.1949175874
 31
0.0
 11
114.6511180953
 21
144.2205093194
 31
0.0
 11
114.631372413
 21
144.2459849963
 31
0.0
 11
114.6114549888
 21
144.2713428812
 31
0.0
 11
114.5913668711
 21
144.2965812492
 31
0.0
 11
114.5711091317
 21
144.3216983875
 31
0.0
 11
114.5506828649
 21
144.3466925964
 31
0.0
 11
114.5300891877
 21
144.3715621892
 31
0.0
 11
114.5093292396
 21
144.3963054928
 31
0.0
 11
114.488404182
 21
144.4209208477
 31
0.0
 11
114.4673151987
 21
144.4454066091
 31
0.0
 11
114.4460634949
 21
144.4697611464
 31
0.0
 11
114.4246502976
 21
144.4939828442
 31
0.0
 11
114.403076855
 21
144.5180701025
 31
0.0
 11
114.3813444362
 21
144.5420213367
 31
0.0
 11
114.3594543314
 21
144.5658349785
 31
0.0
 11
114.3374078513
 21
144.5895094758
 31
0.0
 11
114.3152063269
 21
144.6130432933
 31
0.0
 11
114.292851109
 21
144.6364349127
 31
0.0
 11
114.2703435685
 21
144.6596828331
 31
0.0
 11
114.2476850956
 21
144.6827855711
 31
0.0
 11
114.2248770998
 21
144.7057416614
 31
0.0
 11
114.2019210094
 21
144.7285496573
 31
0.0
 11
114.1788182714
 21
144.7512081301
 31
0.0
 11
114.1555703511
 21
144.7737156706
 31
0.0
 11
114.1321787317
 21
144.7960708885
 31
0.0
 11
114.1086449142
 21
144.818272413
 31
0.0
 11
114.0849704168
 21
144.8403188931
 31
0.0
 11
114.061156775
 21
144.8622089979
 31
0.0
 11
114.0372055408
 21
144.8839414166
 31
0.0
 11
114.0131182825
 21
144.9055148593
 31
0.0
 11
113.9888965847
 21
144.9269280566
 31
0.0
 11
113.9645420474
 21
144.9481797604
 31
0.0
 11
113.940056286
 21
144.9692687437
 31
0.0
 11
113.9154409311
 21
144.9901938012
 31
0.0
 11
113.8906976276
 21
145.0109537494
 31
0.0
 11
113.8658280348
 21
145.0315474266
 31
0.0
 11
113.8408338258
 21
145.0519736934
 31
0.0
 11
113.8157166875
 21
145.0722314328
 31
0.0
 11
113.7904783195
 21
145.0923195505
 31
0.0
 11
113.7651204346
 21
145.1122369747
 31
0.0
 11
113.7396447577
 21
145.1319826569
 31
0.0
 11
113.7140530257
 21
145.1515555716
 31
0.0
 11
113.6883469873
 21
145.1709547166
 31
0.0
 11
113.6625284024
 21
145.1901791131
 31
0.0
 11
113.6365990414
 21
145.2092278061
 31
0.0
 11
113.6105606857
 21
145.2280998641
 31
0.0
 11
113.5844151262
 21
145.2467943799
 31
0.0
 11
113.5581641638
 21
145.26531047
 31
0.0
 11
113.5318096086
 21
145.2836472751
 31
0.0
 11
113.5053532794
 21
145.3018039602
 31
0.0
 11
113.4787970035
 21
145.3197797146
 31
0.0
 11
113.4521426163
 21
145.3375737523
 31
0.0
 11
113.4253919608
 21
145.3551853116
 31
0.0
 11
113.3985468872
 21
145.3726136555
 31
0.0
 11
113.3716092526
 21
145.3898580716
 31
0.0
 11
113.3445809204
 21
145.4069178725
 31
0.0
 11
113.3174637602
 21
145.4237923954
 31
0.0
 11
113.290259647
 21
145.4404810025
 31
0.0
 11
113.262970461
 21
145.4569830808
 31
0.0
 11
113.2355980873
 21
145.4732980424
 31
0.0
 11
113.2081444154
 21
145.4894253242
 31
0.0
 11
113.1806113387
 21
145.5053643883
 31
0.0
 11
113.153000754
 21
145.5211147214
 31
0.0
 11
113.1253145616
 21
145.5366758357
 31
0.0
 11
113.0975546644
 21
145.552047268
 31
0.0
 11
113.0697229676
 21
145.5672285802
 31
0.0
 11
113.0418213784
 21
145.5822193592
 31
0.0
 11
113.0138518056
 21
145.5970192168
 31
0.0
 11
112.9858161591
 21
145.6116277897
 31
0.0
 11
112.9577163496
 21
145.6260447393
 31
0.0
 11
112.9295542882
 21
145.640269752
 31
0.0
 11
112.9013318858
 21
145.6543025389
 31
0.0
 11
112.8730510532
 21
145.6681428356
 31
0.0
 11
112.8447137001
 21
145.6817904025
 31
0.0
 11
112.8163217353
 21
145.6952450243
 31
0.0
 11
112.7878770657
 21
145.7085065104
 31
0.0
 11
112.7593815965
 21
145.7215746943
 31
0.0
 11
112.7308372306
 21
145.7344494338
 31
0.0
 11
112.7022458681
 21
145.7471306109
 31
0.0
 11
112.6736094061
 21
145.7596181315
 31
0.0
 11
112.6449297382
 21
145.7719119254
 31
0.0
 11
112.6162087544
 21
145.7840119464
 31
0.0
 11
112.5874483403
 21
145.7959181715
 31
0.0
 11
112.5586503773
 21
145.8076306016
 31
0.0
 11
112.5298167416
 21
145.8191492608
 31
0.0
 11
112.5009493046
 21
145.8304741963
 31
0.0
 11
112.4720499319
 21
145.8416054785
 31
0.0
 11
112.4431204833
 21
145.8525432005
 31
0.0
 11
112.4141628124
 21
145.8632874782
 31
0.0
 11
112.3851787662
 21
145.8738384501
 31
0.0
 11
112.3561701851
 21
145.8841962771
 31
0.0
 11
112.327138902
 21
145.8943611419
 31
0.0
 11
112.2980867424
 21
145.9043332497
 31
0.0
 11
112.2690155242
 21
145.9141128271
 31
0.0
 11
112.2399270569
 21
145.9237001225
 31
0.0
 11
112.2108231419
 21
145.9330954056
 31
0.0
 11
112.1817055716
 21
145.9422989673
 31
0.0
 11
112.1525761296
 21
145.9513111194
 31
0.0
 11
112.1234365901
 21
145.9601321944
 31
0.0
 11
112.094288718
 21
145.9687625457
 31
0.0
 11
112.0651342681
 21
145.9772025464
 31
0.0
 11
112.0359749851
 21
145.9854525903
 31
0.0
 11
112.0068126037
 21
145.9935130905
 31
0.0
 11
111.9776488475
 21
146.0013844799
 31
0.0
 11
111.9484854296
 21
146.009067211
 31
0.0
 11
111.9193240518
 21
146.0165617551
 31
0.0
 11
111.8901664046
 21
146.0238686024
 31
0.0
 11
111.8610141669
 21
146.0309882619
 31
0.0
 11
111.8318690059
 21
146.0379212607
 31
0.0
 11
111.8027325765
 21
146.0446681444
 31
0.0
 11
111.7736065216
 21
146.051229476
 31
0.0
 11
111.7444924715
 21
146.0576058365
 31
0.0
 11
111.7153920439
 21
146.0637978239
 31
0.0
 11
111.6863068434
 21
146.0698060535
 31
0.0
 11
111.6572384619
 21
146.0756311572
 31
0.0
 11
111.6281884777
 21
146.0812737837
 31
0.0
 11
111.5991584559
 21
146.0867345976
 31
0.0
 11
111.5701499478
 21
146.0920142798
 31
0.0
 11
111.5411644909
 21
146.0971135267
 31
0.0
 11
111.512203609
 21
146.1020330502
 31
0.0
 11
111.4832688115
 21
146.1067735774
 31
0.0
 11
111.4543615936
 21
146.1113358502
 31
0.0
 11
111.4254834361
 21
146.1157206251
 31
0.0
 11
111.3966358053
 21
146.1199286731
 31
0.0
 11
111.3678201527
 21
146.1239607788
 31
0.0
 11
111.3390379151
 21
146.1278177411
 31
0.0
 11
111.3102905141
 21
146.1315003719
 31
0.0
 11
111.2815793565
 21
146.1350094965
 31
0.0
 11
111.2529058338
 21
146.1383459532
 31
0.0
 11
111.224271322
 21
146.1415105926
 31
0.0
 11
111.1956771821
 21
146.1445042779
 31
0.0
 11
111.1671247593
 21
146.1473278842
 31
0.0
 11
111.1386153833
 21
146.1499822986
 31
0.0
 11
111.1101503681
 21
146.1524684193
 31
0.0
 11
111.081731012
 21
146.154787156
 31
0.0
 11
111.0533585974
 21
146.1569394293
 31
0.0
 11
111.0250343908
 21
146.1589261701
 31
0.0
 11
110.9967596427
 21
146.1607483201
 31
0.0
 11
110.9685355877
 21
146.1624068308
 31
0.0
 11
110.9403634443
 21
146.1639026635
 31
0.0
 11
110.9122444146
 21
146.165236789
 31
0.0
 11
110.8841796848
 21
146.1664101875
 31
0.0
 11
110.8561704248
 21
146.167423848
 31
0.0
 11
110.8282177883
 21
146.1682787681
 31
0.0
 11
110.8003229126
 21
146.168975954
 31
0.0
 11
110.7724869188
 21
146.1695164198
 31
0.0
 11
110.7447109115
 21
146.1699011877
 31
0.0
 11
110.6893431938
 21
146.1702077555
 31
0.0
  0
LINE
  5
273
100
AcDbEntity
  8
0
100
AcDbLine
 62
7
  6
CONTINUOUS
 10
115.6893431938
 20
141.1702077555
 11
115.6893431938
 21
127.6702077555
  0
LINE
  5
274
100
AcDbEntity
  8
0
100
AcDbLine
 62
7
  6
CONTINUOUS
 10
108.4993431938
 20
127.6702077555
 11
115.6893431938
 21
127.6702077555
  0
LINE
  5
275
100
AcDbEntity
  8
0
100
AcDbLine
 62
7
  6
CONTINUOUS
 10
108.068023156
 20
140.0215976051
 11
108.4993431938
 21
127.6702077555
  0
SPLINE
  5
276
100
AcDbEntity
  8
0
100
AcDbSpline
 62
7
  6
CONTINUOUS
 70
4
 71
3
 72
8
 73
4
 74
129
 42
0.0000001
 43
0.0000001
 44
0.0000000001
 12
-0.0464076807
 22
1.3289420988
 32
0.0
 13
-1.3253670733
 23
0.1079022511
 33
0.0
 40
0.0
 40
0.0
 40
0.0
 40
0.0
 40
1.0
 40
1.0
 40
1.0
 40
1.0
 10
108.068023156
 20
140.0215976051
 30
0.0
 41
1.0
 10
108.049414734
 20
140.5544730903
 30
0.0
 41
0.8313024561
 10
107.6812189442
 20
140.9401341025
 30
0.0
 41
0.8313024561
 10
107.1497769628
 20
140.9834004453
 30
0.0
 41
1.0
 11
108.068023156
 21
140.0215976051
 31
0.0
 11
108.0676057457
 21
140.0319983586
 31
0.0
 11
108.0670778262
 21
140.0424348922
 31
0.0
 11
108.0664382014
 21
140.0529056682
 31
0.0
 11
108.0656856986
 21
140.0634091122
 31
0.0
 11
108.0648191698
 21
140.0739436133
 31
0.0
 11
108.0638374928
 21
140.0845075243
 31
0.0
 11
108.0627395725
 21
140.095099162
 31
0.0
 11
108.0615243418
 21
140.1057168081
 31
0.0
 11
108.0601907633
 21
140.1163587089
 31
0.0
 11
108.0587378301
 21
140.1270230766
 31
0.0
 11
108.0571645671
 21
140.1377080891
 31
0.0
 11
108.0554700322
 21
140.1484118909
 31
0.0
 11
108.0536533177
 21
140.159132594
 31
0.0
 11
108.0517135509
 21
140.169868278
 31
0.0
 11
108.049649896
 21
140.1806169912
 31
0.0
 11
108.0474615547
 21
140.1913767513
 31
0.0
 11
108.0451477674
 21
140.2021455462
 31
0.0
 11
108.0427078147
 21
140.2129213347
 31
0.0
 11
108.040141018
 21
140.2237020475
 31
0.0
 11
108.0374467409
 21
140.2344855882
 31
0.0
 11
108.0346243903
 21
140.2452698343
 31
0.0
 11
108.0316734171
 21
140.256052638
 31
0.0
 11
108.0285933175
 21
140.2668318275
 31
0.0
 11
108.0253836339
 21
140.2776052079
 31
0.0
 11
108.0220439559
 21
140.2883705627
 31
0.0
 11
108.0185739211
 21
140.2991256546
 31
0.0
 11
108.014973216
 21
140.3098682271
 31
0.0
 11
108.011241577
 21
140.3205960052
 31
0.0
 11
108.0073787912
 21
140.3313066976
 31
0.0
 11
108.0033846968
 21
140.3419979971
 31
0.0
 11
107.9992591843
 21
140.3526675828
 31
0.0
 11
107.995002197
 21
140.3633131208
 31
0.0
 11
107.9906137317
 21
140.3739322662
 31
0.0
 11
107.9860938392
 21
140.3845226644
 31
0.0
 11
107.9814426247
 21
140.3950819525
 31
0.0
 11
107.9766602487
 21
140.4056077609
 31
0.0
 11
107.9717469273
 21
140.4160977151
 31
0.0
 11
107.9667029325
 21
140.4265494369
 31
0.0
 11
107.9615285923
 21
140.4369605462
 31
0.0
 11
107.9562242917
 21
140.4473286628
 31
0.0
 11
107.9507904724
 21
140.4576514077
 31
0.0
 11
107.9452276328
 21
140.467926405
 31
0.0
 11
107.9395363287
 21
140.4781512835
 31
0.0
 11
107.933717173
 21
140.4883236786
 31
0.0
 11
107.9277708357
 21
140.4984412337
 31
0.0
 11
107.921698044
 21
140.5085016019
 31
0.0
 11
107.9154995821
 21
140.518502448
 31
0.0
 11
107.9091762908
 21
140.52844145
 31
0.0
 11
107.9027290678
 21
140.5383163009
 31
0.0
 11
107.8961588668
 21
140.5481247102
 31
0.0
 11
107.8894666974
 21
140.557864406
 31
0.0
 11
107.882653625
 21
140.5675331364
 31
0.0
 11
107.8757207695
 21
140.577128671
 31
0.0
 11
107.8686693056
 21
140.5866488031
 31
0.0
 11
107.8615004618
 21
140.5960913509
 31
0.0
 11
107.8542155196
 21
140.6054541594
 31
0.0
 11
107.846815813
 21
140.6147351019
 31
0.0
 11
107.8393027279
 21
140.6239320814
 31
0.0
 11
107.8316777005
 21
140.6330430325
 31
0.0
 11
107.8239422175
 21
140.6420659229
 31
0.0
 11
107.8160978142
 21
140.6509987546
 31
0.0
 11
107.8081460738
 21
140.6598395655
 31
0.0
 11
107.8000886267
 21
140.6685864311
 31
0.0
 11
107.7919271488
 21
140.6772374655
 31
0.0
 11
107.7836633608
 21
140.685790823
 31
0.0
 11
107.7752990266
 21
140.6942446994
 31
0.0
 11
107.7668359526
 21
140.7025973331
 31
0.0
 11
107.7582759857
 21
140.7108470066
 31
0.0
 11
107.7496210125
 21
140.7189920473
 31
0.0
 11
107.7408729578
 21
140.7270308289
 31
0.0
 11
107.7320337828
 21
140.7349617725
 31
0.0
 11
107.7231054844
 21
140.7427833476
 31
0.0
 11
107.7140900928
 21
140.7504940727
 31
0.0
 11
107.7049896709
 21
140.7580925168
 31
0.0
 11
107.6958063121
 21
140.7655772999
 31
0.0
 11
107.6865421387
 21
140.7729470938
 31
0.0
 11
107.677199301
 21
140.780200623
 31
0.0
 11
107.6677799748
 21
140.7873366652
 31
0.0
 11
107.6582863603
 21
140.7943540521
 31
0.0
 11
107.6487206804
 21
140.80125167
 31
0.0
 11
107.6390851787
 21
140.8080284599
 31
0.0
 11
107.6293821184
 21
140.8146834185
 31
0.0
 11
107.61961378
 21
140.8212155981
 31
0.0
 11
107.6097824599
 21
140.8276241075
 31
0.0
 11
107.5998904686
 21
140.8339081114
 31
0.0
 11
107.5899401293
 21
140.8400668314
 31
0.0
 11
107.5799337758
 21
140.8460995457
 31
0.0
 11
107.5698737509
 21
140.8520055896
 31
0.0
 11
107.5597624049
 21
140.8577843548
 31
0.0
 11
107.5496020936
 21
140.86343529
 31
0.0
 11
107.5393951771
 21
140.8689579006
 31
0.0
 11
107.5291440176
 21
140.8743517484
 31
0.0
 11
107.5188509781
 21
140.8796164518
 31
0.0
 11
107.5085184208
 21
140.8847516849
 31
0.0
 11
107.498148705
 21
140.8897571778
 31
0.0
 11
107.4877441864
 21
140.8946327156
 31
0.0
 11
107.4773072147
 21
140.8993781388
 31
0.0
 11
107.4668401324
 21
140.9039933419
 31
0.0
 11
107.4563452735
 21
140.9084782735
 31
0.0
 11
107.4458249615
 21
140.9128329355
 31
0.0
 11
107.4352815085
 21
140.9170573826
 31
0.0
 11
107.4247172135
 21
140.9211517215
 31
0.0
 11
107.414134361
 21
140.9251161101
 31
0.0
 11
107.4035352197
 21
140.928950757
 31
0.0
 11
107.3929220413
 21
140.9326559207
 31
0.0
 11
107.3822970589
 21
140.9362319084
 31
0.0
 11
107.3716624862
 21
140.9396790756
 31
0.0
 11
107.361020516
 21
140.9429978251
 31
0.0
 11
107.3503733193
 21
140.9461886057
 31
0.0
 11
107.3397230437
 21
140.9492519118
 31
0.0
 11
107.3290718129
 21
140.952188282
 31
0.0
 11
107.3184217254
 21
140.9549982982
 31
0.0
 11
107.3077748535
 21
140.9576825846
 31
0.0
 11
107.2971332423
 21
140.9602418068
 31
0.0
 11
107.2864989089
 21
140.9626766704
 31
0.0
 11
107.2758738418
 21
140.96498792
 31
0.0
 11
107.2652599996
 21
140.9671763383
 31
0.0
 11
107.2546593103
 21
140.9692427447
 31
0.0
 11
107.2440736712
 21
140.9711879943
 31
0.0
 11
107.2335049473
 21
140.9730129769
 31
0.0
 11
107.2229549714
 21
140.9747186153
 31
0.0
 11
107.2124255432
 21
140.9763058648
 31
0.0
 11
107.2019184287
 21
140.9777757117
 31
0.0
 11
107.19143536
 21
140.9791291718
 31
0.0
 11
107.1809780343
 21
140.98036729
 31
0.0
 11
107.1705481141
 21
140.9814911385
 31
0.0
 11
107.1601472265
 21
140.9825018158
 31
0.0
 11
107.1497769628
 21
140.9834004453
 31
0.0
  0
LINE
  5
277
100
AcDbEntity
  8
0
100
AcDbLine
 62
7
  6
CONTINUOUS
 10
85.9393431938
 20
142.7102077555
 11
107.1497769628
 21
140.9834004453
  0
LINE
  5
278
100
AcDbEntity
  8
0
100
AcDbLine
 62
7
  6
CONTINUOUS
 10
64.7408164658
 20
140.726648111
 11
85.9393431938
 21
142.7102077555
  0
SPLINE
  5
279
100
AcDbEntity
  8
0
100
AcDbSpline
 62
7
  6
CONTINUOUS
 70
4
 71
3
 72
8
 73
4
 74
129
 42
0.0000001
 43
0.0000001
 44
0.0000000001
 12
-0.965673485
 22
-0.0903586829
 32
0.0
 13
-0.0539665579
 23
-0.9683891686
 33
0.0
 40
0.0
 40
0.0
 40
0.0
 40
0.0
 40
1.0
 40
1.0
 40
1.0
 40
1.0
 10
64.7408164658
 20
140.726648111
 30
0.0
 41
1.0
 10
64.356932126
 20
140.6907278089
 30
0.0
 41
0.8385107918
 10
64.0894764906
 20
140.4130140399
 30
0.0
 41
0.8385107918
 10
64.068023156
 20
140.028050134
 30
0.0
 41
1.0
 11
64.7408164658
 21
140.726648111
 31
0.0
 11
64.7332616468
 21
140.7259022589
 31
0.0
 11
64.7256865808
 21
140.7250760464
 31
0.0
 11
64.7180923996
 21
140.7241687206
 31
0.0
 11
64.7104802592
 21
140.7231795468
 31
0.0
 11
64.7028513386
 21
140.7221078088
 31
0.0
 11
64.6952068402
 21
140.7209528101
 31
0.0
 11
64.6875479893
 21
140.7197138747
 31
0.0
 11
64.6798760338
 21
140.7183903473
 31
0.0
 11
64.6721922436
 21
140.7169815948
 31
0.0
 11
64.6644979105
 21
140.7154870068
 31
0.0
 11
64.6567943477
 21
140.7139059959
 31
0.0
 11
64.6490828892
 21
140.7122379992
 31
0.0
 11
64.6413648894
 21
140.7104824788
 31
0.0
 11
64.6336417228
 21
140.708638922
 31
0.0
 11
64.6259147832
 21
140.706706843
 31
0.0
 11
64.6181854831
 21
140.7046857826
 31
0.0
 11
64.6104552535
 21
140.7025753099
 31
0.0
 11
64.6027255427
 21
140.700375022
 31
0.0
 11
64.5949978162
 21
140.6980845457
 31
0.0
 11
64.5872735556
 21
140.6957035372
 31
0.0
 11
64.5795542582
 21
140.6932316834
 31
0.0
 11
64.5718414362
 21
140.6906687023
 31
0.0
 11
64.5641366157
 21
140.6880143437
 31
0.0
 11
64.5564413362
 21
140.6852683895
 31
0.0
 11
64.5487571498
 21
140.6824306547
 31
0.0
 11
64.5410856201
 21
140.6795009878
 31
0.0
 11
64.5334283215
 21
140.6764792709
 31
0.0
 11
64.5257868385
 21
140.673365421
 31
0.0
 11
64.5181627646
 21
140.6701593897
 31
0.0
 11
64.5105577011
 21
140.6668611642
 31
0.0
 11
64.5029732569
 21
140.6634707673
 31
0.0
 11
64.4954110466
 21
140.659988258
 31
0.0
 11
64.4878726905
 21
140.6564137321
 31
0.0
 11
64.4803598127
 21
140.6527473219
 31
0.0
 11
64.4728740406
 21
140.648989197
 31
0.0
 11
64.4654170039
 21
140.6451395645
 31
0.0
 11
64.4579903331
 21
140.6411986689
 31
0.0
 11
64.450595659
 21
140.6371667929
 31
0.0
 11
64.4432346112
 21
140.6330442568
 31
0.0
 11
64.4359088171
 21
140.6288314192
 31
0.0
 11
64.4286199012
 21
140.6245286769
 31
0.0
 11
64.4213694832
 21
140.6201364649
 31
0.0
 11
64.4141591779
 21
140.6156552563
 31
0.0
 11
64.406990593
 21
140.6110855628
 31
0.0
 11
64.399865329
 21
140.6064279339
 31
0.0
 11
64.3927849774
 21
140.6016829573
 31
0.0
 11
64.3857511198
 21
140.5968512586
 31
0.0
 11
64.3787653268
 21
140.5919335009
 31
0.0
 11
64.371829157
 21
140.5869303852
 31
0.0
 11
64.3649441556
 21
140.5818426495
 31
0.0
 11
64.3581118534
 21
140.5766710686
 31
0.0
 11
64.3513337661
 21
140.5714164541
 31
0.0
 11
64.3446113926
 21
140.5660796538
 31
0.0
 11
64.3379462142
 21
140.5606615513
 31
0.0
 11
64.3313396936
 21
140.5551630654
 31
0.0
 11
64.324793274
 21
140.5495851499
 31
0.0
 11
64.3183083776
 21
140.5439287929
 31
0.0
 11
64.3118864049
 21
140.5381950162
 31
0.0
 11
64.3055287337
 21
140.5323848748
 31
0.0
 11
64.299236718
 21
140.5264994562
 31
0.0
 11
64.2930116873
 21
140.5205398797
 31
0.0
 11
64.2868549454
 21
140.5145072959
 31
0.0
 11
64.2807677694
 21
140.5084028857
 31
0.0
 11
64.2747514094
 21
140.5022278595
 31
0.0
 11
64.2688070868
 21
140.4959834567
 31
0.0
 11
64.2629359942
 21
140.4896709447
 31
0.0
 11
64.2571392942
 21
140.4832916181
 31
0.0
 11
64.251418119
 21
140.4768467975
 31
0.0
 11
64.245773569
 21
140.4703378292
 31
0.0
 11
64.2402067129
 21
140.4637660837
 31
0.0
 11
64.2347185864
 21
140.457132955
 31
0.0
 11
64.2293101919
 21
140.4504398596
 31
0.0
 11
64.2239824979
 21
140.4436882355
 31
0.0
 11
64.2187364383
 21
140.4368795412
 31
0.0
 11
64.2135729118
 21
140.4300152545
 31
0.0
 11
64.2084927816
 21
140.4230968716
 31
0.0
 11
64.203496875
 21
140.4161259063
 31
0.0
 11
64.1985859828
 21
140.4091038881
 31
0.0
 11
64.1937608588
 21
140.4020323622
 31
0.0
 11
64.1890222199
 21
140.3949128875
 31
0.0
 11
64.1843707455
 21
140.3877470359
 31
0.0
 11
64.1798070772
 21
140.3805363911
 31
0.0
 11
64.1753318188
 21
140.3732825478
 31
0.0
 11
64.1709455358
 21
140.3659871098
 31
0.0
 11
64.1666487557
 21
140.3586516897
 31
0.0
 11
64.1624419674
 21
140.3512779074
 31
0.0
 11
64.1583256216
 21
140.3438673889
 31
0.0
 11
64.1543001305
 21
140.3364217654
 31
0.0
 11
64.1503658678
 21
140.3289426722
 31
0.0
 11
64.1465231689
 21
140.3214317472
 31
0.0
 11
64.1427723309
 21
140.3138906303
 31
0.0
 11
64.1391136127
 21
140.306320962
 31
0.0
 11
64.1355472353
 21
140.2987243826
 31
0.0
 11
64.1320733817
 21
140.2911025306
 31
0.0
 11
64.1286921976
 21
140.2834570423
 31
0.0
 11
64.1254037912
 21
140.2757895504
 31
0.0
 11
64.1222082338
 21
140.2681016829
 31
0.0
 11
64.1191055599
 21
140.2603950623
 31
0.0
 11
64.1160957678
 21
140.2526713046
 31
0.0
 11
64.1131788199
 21
140.2449320181
 31
0.0
 11
64.110354643
 21
140.2371788028
 31
0.0
 11
64.1076231289
 21
140.229413249
 31
0.0
 11
64.1049841349
 21
140.2216369371
 31
0.0
 11
64.1024374842
 21
140.2138514358
 31
0.0
 11
64.0999829665
 21
140.2060583021
 31
0.0
 11
64.0976203383
 21
140.1982590799
 31
0.0
 11
64.0953493241
 21
140.1904552994
 31
0.0
 11
64.0931696162
 21
140.1826484763
 31
0.0
 11
64.091080876
 21
140.1748401111
 31
0.0
 11
64.0890827343
 21
140.1670316882
 31
0.0
 11
64.0871747919
 21
140.1592246752
 31
0.0
 11
64.0853566205
 21
140.1514205226
 31
0.0
 11
64.0836277633
 21
140.1436206625
 31
0.0
 11
64.0819877356
 21
140.1358265087
 31
0.0
 11
64.0804360256
 21
140.1280394553
 31
0.0
 11
64.0789720951
 21
140.120260877
 31
0.0
 11
64.0775953805
 21
140.1124921279
 31
0.0
 11
64.076305293
 21
140.1047345413
 31
0.0
 11
64.07510122
 21
140.0969894291
 31
0.0
 11
64.0739825251
 21
140.0892580814
 31
0.0
 11
64.0729485498
 21
140.0815417661
 31
0.0
 11
64.0719986136
 21
140.0738417286
 31
0.0
 11
64.0711320148
 21
140.066159191
 31
0.0
 11
64.0703480317
 21
140.0584953524
 31
0.0
 11
64.0696459231
 21
140.050851388
 31
0.0
 11
64.0690249289
 21
140.0432284494
 31
0.0
 11
64.0684842716
 21
140.0356276638
 31
0.0
 11
64.068023156
 21
140.028050134
 31
0.0
  0
LINE
  5
27A
100
AcDbEntity
  8
0
100
AcDbLine
 62
7
  6
CONTINUOUS
 10
63.3793431938
 20
127.6702077555
 11
64.068023156
 21
140.028050134
  0
LINE
  5
27B
100
AcDbEntity
  8
0
100
AcDbLine
 62
7
  6
CONTINUOUS
 10
56.1893431938
 20
127.6702077555
 11
63.3793431938
 21
127.6702077555
  0
LINE
  5
27C
100
AcDbEntity
  8
0
100
AcDbLine
 62
7
  6
CONTINUOUS
 10
56.1893431938
 20
141.1702077555
 11
56.1893431938
 21
127.6702077555
  0
SPLINE
  5
27D
100
AcDbEntity
  8
0
100
AcDbSpline
 62
7
  6
CONTINUOUS
 70
4
 71
3
 72
8
 73
4
 74
255
 42
0.0000001
 43
0.0000001
 44
0.0000000001
 12
-7.0710678119
 22
0.0
 32
0.0
 13
-0.0
 23
-7.0710678119
 33
0.0
 40
0.0
 40
0.0
 40
0.0
 40
0.0
 40
1.0
 40
1.0
 40
1.0
 40
1.0
 10
61.1893431938
 20
146.1702077555
 30
0.0
 41
1.0
 10
58.2604110057
 20
146.1702077555
 30
0.0
 41
0.8047378541
 10
56.1893431938
 20
144.0991399436
 30
0.0
 41
0.8047378541
 10
56.1893431938
 20
141.1702077555
 30
0.0
 41
1.0
 11
61.1893431938
 21
146.1702077555
 31
0.0
 11
61.1339754761
 21
146.1699011877
 31
0.0
 11
61.1061994689
 21
146.1695164198
 31
0.0
 11
61.078363475
 21
146.168975954
 31
0.0
 11
61.0504685993
 21
146.1682787681
 31
0.0
 11
61.0225159628
 21
146.167423848
 31
0.0
 11
60.9945067029
 21
146.1664101875
 31
0.0
 11
60.9664419731
 21
146.165236789
 31
0.0
 11
60.9383229434
 21
146.1639026635
 31
0.0
 11
60.9101507999
 21
146.1624068308
 31
0.0
 11
60.8819267449
 21
146.1607483201
 31
0.0
 11
60.8536519969
 21
146.1589261701
 31
0.0
 11
60.8253277903
 21
146.1569394293
 31
0.0
 11
60.7969553756
 21
146.154787156
 31
0.0
 11
60.7685360195
 21
146.1524684193
 31
0.0
 11
60.7400710043
 21
146.1499822986
 31
0.0
 11
60.7115616283
 21
146.1473278842
 31
0.0
 11
60.6830092055
 21
146.1445042779
 31
0.0
 11
60.6544150656
 21
146.1415105926
 31
0.0
 11
60.6257805539
 21
146.1383459532
 31
0.0
 11
60.5971070312
 21
146.1350094965
 31
0.0
 11
60.5683958736
 21
146.1315003719
 31
0.0
 11
60.5396484726
 21
146.1278177411
 31
0.0
 11
60.5108662349
 21
146.1239607788
 31
0.0
 11
60.4820505824
 21
146.1199286731
 31
0.0
 11
60.4532029516
 21
146.1157206251
 31
0.0
 11
60.4243247941
 21
146.1113358502
 31
0.0
 11
60.3954175762
 21
146.1067735774
 31
0.0
 11
60.3664827787
 21
146.1020330502
 31
0.0
 11
60.3375218967
 21
146.0971135267
 31
0.0
 11
60.3085364399
 21
146.0920142798
 31
0.0
 11
60.2795279318
 21
146.0867345976
 31
0.0
 11
60.2504979099
 21
146.0812737837
 31
0.0
 11
60.2214479258
 21
146.0756311572
 31
0.0
 11
60.1923795442
 21
146.0698060535
 31
0.0
 11
60.1632943438
 21
146.0637978239
 31
0.0
 11
60.1341939162
 21
146.0576058365
 31
0.0
 11
60.1050798661
 21
146.051229476
 31
0.0
 11
60.0759538112
 21
146.0446681444
 31
0.0
 11
60.0468173818
 21
146.0379212607
 31
0.0
 11
60.0176722208
 21
146.0309882619
 31
0.0
 11
59.9885199831
 21
146.0238686024
 31
0.0
 11
59.9593623359
 21
146.0165617551
 31
0.0
 11
59.9302009581
 21
146.009067211
 31
0.0
 11
59.9010375402
 21
146.0013844799
 31
0.0
 11
59.871873784
 21
145.9935130905
 31
0.0
 11
59.8427114025
 21
145.9854525903
 31
0.0
 11
59.8135521196
 21
145.9772025464
 31
0.0
 11
59.7843976697
 21
145.9687625457
 31
0.0
 11
59.7552497975
 21
145.9601321944
 31
0.0
 11
59.7261102581
 21
145.9513111194
 31
0.0
 11
59.6969808161
 21
145.9422989673
 31
0.0
 11
59.6678632458
 21
145.9330954056
 31
0.0
 11
59.6387593307
 21
145.9237001225
 31
0.0
 11
59.6096708635
 21
145.9141128271
 31
0.0
 11
59.5805996453
 21
145.9043332497
 31
0.0
 11
59.5515474857
 21
145.8943611419
 31
0.0
 11
59.5225162026
 21
145.8841962771
 31
0.0
 11
59.4935076214
 21
145.8738384501
 31
0.0
 11
59.4645235753
 21
145.8632874782
 31
0.0
 11
59.4355659044
 21
145.8525432005
 31
0.0
 11
59.4066364558
 21
145.8416054785
 31
0.0
 11
59.377737083
 21
145.8304741963
 31
0.0
 11
59.348869646
 21
145.8191492608
 31
0.0
 11
59.3200360104
 21
145.8076306016
 31
0.0
 11
59.2912380473
 21
145.7959181715
 31
0.0
 11
59.2624776333
 21
145.7840119464
 31
0.0
 11
59.2337566494
 21
145.7719119254
 31
0.0
 11
59.2050769816
 21
145.7596181315
 31
0.0
 11
59.1764405196
 21
145.7471306109
 31
0.0
 11
59.1478491571
 21
145.7344494338
 31
0.0
 11
59.1193047912
 21
145.7215746943
 31
0.0
 11
59.090809322
 21
145.7085065104
 31
0.0
 11
59.0623646524
 21
145.6952450243
 31
0.0
 11
59.0339726875
 21
145.6817904025
 31
0.0
 11
59.0056353345
 21
145.6681428356
 31
0.0
 11
58.9773545018
 21
145.6543025389
 31
0.0
 11
58.9491320995
 21
145.640269752
 31
0.0
 11
58.920970038
 21
145.6260447393
 31
0.0
 11
58.8928702286
 21
145.6116277897
 31
0.0
 11
58.8648345821
 21
145.5970192168
 31
0.0
 11
58.8368650092
 21
145.5822193592
 31
0.0
 11
58.8089634201
 21
145.5672285802
 31
0.0
 11
58.7811317232
 21
145.552047268
 31
0.0
 11
58.753371826
 21
145.5366758357
 31
0.0
 11
58.7256856336
 21
145.5211147214
 31
0.0
 11
58.698075049
 21
145.5053643883
 31
0.0
 11
58.6705419722
 21
145.4894253242
 31
0.0
 11
58.6430883003
 21
145.4732980424
 31
0.0
 11
58.6157159267
 21
145.4569830808
 31
0.0
 11
58.5884267407
 21
145.4404810025
 31
0.0
 11
58.5612226274
 21
145.4237923954
 31
0.0
 11
58.5341054672
 21
145.4069178725
 31
0.0
 11
58.5070771351
 21
145.3898580716
 31
0.0
 11
58.4801395005
 21
145.3726136555
 31
0.0
 11
58.4532944269
 21
145.3551853116
 31
0.0
 11
58.4265437714
 21
145.3375737523
 31
0.0
 11
58.3998893842
 21
145.3197797146
 31
0.0
 11
58.3733331083
 21
145.3018039602
 31
0.0
 11
58.3468767791
 21
145.2836472751
 31
0.0
 11
58.3205222238
 21
145.26531047
 31
0.0
 11
58.2942712614
 21
145.2467943799
 31
0.0
 11
58.268125702
 21
145.2280998641
 31
0.0
 11
58.2420873462
 21
145.2092278061
 31
0.0
 11
58.2161579853
 21
145.1901791131
 31
0.0
 11
58.1903394003
 21
145.1709547166
 31
0.0
 11
58.1646333619
 21
145.1515555716
 31
0.0
 11
58.13904163
 21
145.1319826569
 31
0.0
 11
58.113565953
 21
145.1122369747
 31
0.0
 11
58.0882080681
 21
145.0923195505
 31
0.0
 11
58.0629697002
 21
145.0722314328
 31
0.0
 11
58.0378525618
 21
145.0519736934
 31
0.0
 11
58.0128583529
 21
145.0315474266
 31
0.0
 11
57.9879887601
 21
145.0109537494
 31
0.0
 11
57.9632454566
 21
144.9901938012
 31
0.0
 11
57.9386301016
 21
144.9692687437
 31
0.0
 11
57.9141443403
 21
144.9481797604
 31
0.0
 11
57.889789803
 21
144.9269280566
 31
0.0
 11
57.8655681051
 21
144.9055148593
 31
0.0
 11
57.8414808469
 21
144.8839414166
 31
0.0
 11
57.8175296126
 21
144.8622089979
 31
0.0
 11
57.7937159708
 21
144.8403188931
 31
0.0
 11
57.7700414735
 21
144.818272413
 31
0.0
 11
57.746507656
 21
144.7960708885
 31
0.0
 11
57.7231160366
 21
144.7737156706
 31
0.0
 11
57.6998681163
 21
144.7512081301
 31
0.0
 11
57.6767653783
 21
144.7285496573
 31
0.0
 11
57.6538092879
 21
144.7057416614
 31
0.0
 11
57.6310012921
 21
144.6827855711
 31
0.0
 11
57.6083428192
 21
144.6596828331
 31
0.0
 11
57.5858352787
 21
144.6364349127
 31
0.0
 11
57.5634800608
 21
144.6130432933
 31
0.0
 11
57.5412785363
 21
144.5895094758
 31
0.0
 11
57.5192320562
 21
144.5658349785
 31
0.0
 11
57.4973419515
 21
144.5420213367
 31
0.0
 11
57.4756095327
 21
144.5180701025
 31
0.0
 11
57.45403609
 21
144.4939828442
 31
0.0
 11
57.4326228927
 21
144.4697611464
 31
0.0
 11
57.4113711889
 21
144.4454066091
 31
0.0
 11
57.3902822056
 21
144.4209208477
 31
0.0
 11
57.3693571481
 21
144.3963054928
 31
0.0
 11
57.3485971999
 21
144.3715621892
 31
0.0
 11
57.3280035228
 21
144.3466925964
 31
0.0
 11
57.307577256
 21
144.3216983875
 31
0.0
 11
57.2873195165
 21
144.2965812492
 31
0.0
 11
57.2672313989
 21
144.2713428812
 31
0.0
 11
57.2473139746
 21
144.2459849963
 31
0.0
 11
57.2275682924
 21
144.2205093194
 31
0.0
 11
57.2079953777
 21
144.1949175874
 31
0.0
 11
57.1885962328
 21
144.169211549
 31
0.0
 11
57.1693718363
 21
144.143392964
 31
0.0
 11
57.1503231433
 21
144.1174636031
 31
0.0
 11
57.1314510852
 21
144.0914252474
 31
0.0
 11
57.1127565694
 21
144.0652796879
 31
0.0
 11
57.0942404794
 21
144.0390287255
 31
0.0
 11
57.0759036743
 21
144.0126741703
 31
0.0
 11
57.0577469892
 21
143.986217841
 31
0.0
 11
57.0397712347
 21
143.9596615651
 31
0.0
 11
57.021977197
 21
143.9330071779
 31
0.0
 11
57.0043656377
 21
143.9062565224
 31
0.0
 11
56.9869372939
 21
143.8794114489
 31
0.0
 11
56.9696928777
 21
143.8524738143
 31
0.0
 11
56.9526330769
 21
143.8254454821
 31
0.0
 11
56.935758554
 21
143.7983283219
 31
0.0
 11
56.9190699469
 21
143.7711242087
 31
0.0
 11
56.9025678685
 21
143.7438350227
 31
0.0
 11
56.8862529069
 21
143.716462649
 31
0.0
 11
56.8701256251
 21
143.6890089771
 31
0.0
 11
56.8541865611
 21
143.6614759003
 31
0.0
 11
56.8384362279
 21
143.6338653157
 31
0.0
 11
56.8228751137
 21
143.6061791233
 31
0.0
 11
56.8075036814
 21
143.5784192261
 31
0.0
 11
56.7923223692
 21
143.5505875293
 31
0.0
 11
56.7773315901
 21
143.5226859401
 31
0.0
 11
56.7625317325
 21
143.4947163673
 31
0.0
 11
56.7479231597
 21
143.4666807208
 31
0.0
 11
56.73350621
 21
143.4385809113
 31
0.0
 11
56.7192811973
 21
143.4104188498
 31
0.0
 11
56.7052484104
 21
143.3821964475
 31
0.0
 11
56.6914081137
 21
143.3539156149
 31
0.0
 11
56.6777605468
 21
143.3255782618
 31
0.0
 11
56.664305925
 21
143.2971862969
 31
0.0
 11
56.6510444389
 21
143.2687416273
 31
0.0
 11
56.637976255
 21
143.2402461582
 31
0.0
 11
56.6251015155
 21
143.2117017923
 31
0.0
 11
56.6124203385
 21
143.1831104298
 31
0.0
 11
56.5999328179
 21
143.1544739678
 31
0.0
 11
56.5876390239
 21
143.1257942999
 31
0.0
 11
56.575539003
 21
143.0970733161
 31
0.0
 11
56.5636327778
 21
143.068312902
 31
0.0
 11
56.5519203477
 21
143.039514939
 31
0.0
 11
56.5404016885
 21
143.0106813033
 31
0.0
 11
56.529076753
 21
142.9818138663
 31
0.0
 11
56.5179454709
 21
142.9529144936
 31
0.0
 11
56.5070077489
 21
142.923985045
 31
0.0
 11
56.4962634711
 21
142.895027374
 31
0.0
 11
56.4857124992
 21
142.8660433279
 31
0.0
 11
56.4753546723
 21
142.8370347468
 31
0.0
 11
56.4651898074
 21
142.8080034636
 31
0.0
 11
56.4552176996
 21
142.7789513041
 31
0.0
 11
56.4454381222
 21
142.7498800859
 31
0.0
 11
56.4358508268
 21
142.7207916186
 31
0.0
 11
56.4264555437
 21
142.6916877035
 31
0.0
 11
56.4172519821
 21
142.6625701332
 31
0.0
 11
56.40823983
 21
142.6334406912
 31
0.0
 11
56.3994187549
 21
142.6043011518
 31
0.0
 11
56.3907884037
 21
142.5751532797
 31
0.0
 11
56.3823484029
 21
142.5459988297
 31
0.0
 11
56.3740983591
 21
142.5168395468
 31
0.0
 11
56.3660378589
 21
142.4876771653
 31
0.0
 11
56.3581664694
 21
142.4585134092
 31
0.0
 11
56.3504837383
 21
142.4293499913
 31
0.0
 11
56.3429891943
 21
142.4001886134
 31
0.0
 11
56.3356823469
 21
142.3710309663
 31
0.0
 11
56.3285626875
 21
142.3418787286
 31
0.0
 11
56.3216296886
 21
142.3127335675
 31
0.0
 11
56.314882805
 21
142.2835971382
 31
0.0
 11
56.3083214733
 21
142.2544710833
 31
0.0
 11
56.3019451129
 21
142.2253570332
 31
0.0
 11
56.2957531254
 21
142.1962566055
 31
0.0
 11
56.2897448959
 21
142.1671714051
 31
0.0
 11
56.2839197921
 21
142.1381030236
 31
0.0
 11
56.2782771657
 21
142.1090530394
 31
0.0
 11
56.2728163517
 21
142.0800230176
 31
0.0
 11
56.2675366696
 21
142.0510145094
 31
0.0
 11
56.2624374227
 21
142.0220290526
 31
0.0
 11
56.2575178992
 21
141.9930681707
 31
0.0
 11
56.252777372
 21
141.9641333731
 31
0.0
 11
56.2482150991
 21
141.9352261552
 31
0.0
 11
56.2438303242
 21
141.9063479978
 31
0.0
 11
56.2396222763
 21
141.877500367
 31
0.0
 11
56.2355901705
 21
141.8486847144
 31
0.0
 11
56.2317332082
 21
141.8199024767
 31
0.0
 11
56.2280505774
 21
141.7911550758
 31
0.0
 11
56.2245414528
 21
141.7624439182
 31
0.0
 11
56.2212049962
 21
141.7337703954
 31
0.0
 11
56.2180403568
 21
141.7051358837
 31
0.0
 11
56.2150466715
 21
141.6765417438
 31
0.0
 11
56.2122230651
 21
141.647989321
 31
0.0
 11
56.2095686508
 21
141.619479945
 31
0.0
 11
56.20708253
 21
141.5910149298
 31
0.0
 11
56.2047637933
 21
141.5625955737
 31
0.0
 11
56.2026115201
 21
141.5342231591
 31
0.0
 11
56.2006247792
 21
141.5058989525
 31
0.0
 11
56.1988026292
 21
141.4776242044
 31
0.0
 11
56.1971441186
 21
141.4494001494
 31
0.0
 11
56.1956482859
 21
141.4212280059
 31
0.0
 11
56.1943141603
 21
141.3931089763
 31
0.0
 11
56.1931407618
 21
141.3650442465
 31
0.0
 11
56.1921271013
 21
141.3370349865
 31
0.0
 11
56.1912721812
 21
141.30908235
 31
0.0
 11
56.1905749954
 21
141.2811874743
 31
0.0
 11
56.1900345295
 21
141.2533514805
 31
0.0
 11
56.1896497616
 21
141.2255754732
 31
0.0
 11
56.1893431938
 21
141.1702077555
 31
0.0
  0
LINE
  5
27E
100
AcDbEntity
  8
0
100
AcDbLine
 62
7
  6
CONTINUOUS
 10
61.1893431938
 20
146.1702077555
 11
78.4393431938
 21
146.1702077555
  0
SPLINE
  5
27F
100
AcDbEntity
  8
0
100
AcDbSpline
 62
7
  6
CONTINUOUS
 70
4
 71
3
 72
8
 73
4
 74
255
 42
0.0000001
 43
0.0000001
 44
0.0000000001
 12
7.0710678119
 22
0.0
 32
0.0
 13
-0.0
 23
7.0710678119
 33
0.0
 40
0.0
 40
0.0
 40
0.0
 40
0.0
 40
1.0
 40
1.0
 40
1.0
 40
1.0
 10
78.4393431938
 20
146.1702077555
 30
0.0
 41
1.0
 10
81.368275382
 20
146.1702077555
 30
0.0
 41
0.8047378541
 10
83.4393431938
 20
148.2412755674
 30
0.0
 41
0.8047378541
 10
83.4393431938
 20
151.1702077555
 30
0.0
 41
1.0
 11
78.4393431938
 21
146.1702077555
 31
0.0
 11
78.4947109115
 21
146.1705143233
 31
0.0
 11
78.5224869188
 21
146.1708990912
 31
0.0
 11
78.5503229126
 21
146.171439557
 31
0.0
 11
78.5782177883
 21
146.1721367429
 31
0.0
 11
78.6061704248
 21
146.172991663
 31
0.0
 11
78.6341796848
 21
146.1740053235
 31
0.0
 11
78.6622444146
 21
146.175178722
 31
0.0
 11
78.6903634443
 21
146.1765128475
 31
0.0
 11
78.7185355877
 21
146.1780086802
 31
0.0
 11
78.7467596427
 21
146.1796671909
 31
0.0
 11
78.7750343908
 21
146.1814893409
 31
0.0
 11
78.8033585974
 21
146.1834760818
 31
0.0
 11
78.831731012
 21
146.185628355
 31
0.0
 11
78.8601503681
 21
146.1879470917
 31
0.0
 11
78.8886153833
 21
146.1904332124
 31
0.0
 11
78.9171247593
 21
146.1930876268
 31
0.0
 11
78.9456771821
 21
146.1959112332
 31
0.0
 11
78.974271322
 21
146.1989049185
 31
0.0
 11
79.0029058338
 21
146.2020695579
 31
0.0
 11
79.0315793565
 21
146.2054060145
 31
0.0
 11
79.0602905141
 21
146.2089151391
 31
0.0
 11
79.0890379151
 21
146.2125977699
 31
0.0
 11
79.1178201527
 21
146.2164547322
 31
0.0
 11
79.1466358053
 21
146.2204868379
 31
0.0
 11
79.1754834361
 21
146.2246948859
 31
0.0
 11
79.2043615936
 21
146.2290796608
 31
0.0
 11
79.2332688115
 21
146.2336419336
 31
0.0
 11
79.262203609
 21
146.2383824608
 31
0.0
 11
79.2911644909
 21
146.2433019844
 31
0.0
 11
79.3201499478
 21
146.2484012313
 31
0.0
 11
79.3491584559
 21
146.2536809134
 31
0.0
 11
79.3781884777
 21
146.2591417274
 31
0.0
 11
79.4072384619
 21
146.2647843538
 31
0.0
 11
79.4363068434
 21
146.2706094575
 31
0.0
 11
79.4653920439
 21
146.2766176871
 31
0.0
 11
79.4944924715
 21
146.2828096745
 31
0.0
 11
79.5236065216
 21
146.289186035
 31
0.0
 11
79.5527325765
 21
146.2957473666
 31
0.0
 11
79.5818690059
 21
146.3024942503
 31
0.0
 11
79.6110141669
 21
146.3094272492
 31
0.0
 11
79.6401664046
 21
146.3165469086
 31
0.0
 11
79.6693240518
 21
146.3238537559
 31
0.0
 11
79.6984854296
 21
146.3313483
 31
0.0
 11
79.7276488475
 21
146.3390310311
 31
0.0
 11
79.7568126037
 21
146.3469024206
 31
0.0
 11
79.7859749851
 21
146.3549629208
 31
0.0
 11
79.8151342681
 21
146.3632129646
 31
0.0
 11
79.844288718
 21
146.3716529653
 31
0.0
 11
79.8734365901
 21
146.3802833166
 31
0.0
 11
79.9025761296
 21
146.3891043917
 31
0.0
 11
79.9317055716
 21
146.3981165437
 31
0.0
 11
79.9608231419
 21
146.4073201054
 31
0.0
 11
79.9899270569
 21
146.4167153885
 31
0.0
 11
80.0190155242
 21
146.4263026839
 31
0.0
 11
80.0480867424
 21
146.4360822613
 31
0.0
 11
80.077138902
 21
146.4460543691
 31
0.0
 11
80.1061701851
 21
146.456219234
 31
0.0
 11
80.1351787662
 21
146.4665770609
 31
0.0
 11
80.1641628124
 21
146.4771280328
 31
0.0
 11
80.1931204833
 21
146.4878723106
 31
0.0
 11
80.2220499319
 21
146.4988100326
 31
0.0
 11
80.2509493046
 21
146.5099413147
 31
0.0
 11
80.2798167416
 21
146.5212662502
 31
0.0
 11
80.3086503773
 21
146.5327849094
 31
0.0
 11
80.3374483403
 21
146.5444973395
 31
0.0
 11
80.3662087544
 21
146.5564035647
 31
0.0
 11
80.3949297382
 21
146.5685035856
 31
0.0
 11
80.4236094061
 21
146.5807973796
 31
0.0
 11
80.4522458681
 21
146.5932849002
 31
0.0
 11
80.4808372306
 21
146.6059660772
 31
0.0
 11
80.5093815965
 21
146.6188408167
 31
0.0
 11
80.5378770657
 21
146.6319090006
 31
0.0
 11
80.5663217353
 21
146.6451704867
 31
0.0
 11
80.5947137001
 21
146.6586251085
 31
0.0
 11
80.6230510532
 21
146.6722726754
 31
0.0
 11
80.6513318858
 21
146.6861129721
 31
0.0
 11
80.6795542882
 21
146.700145759
 31
0.0
 11
80.7077163496
 21
146.7143707717
 31
0.0
 11
80.7358161591
 21
146.7287877214
 31
0.0
 11
80.7638518056
 21
146.7433962942
 31
0.0
 11
80.7918213784
 21
146.7581961518
 31
0.0
 11
80.8197229676
 21
146.7731869308
 31
0.0
 11
80.8475546644
 21
146.7883682431
 31
0.0
 11
80.8753145616
 21
146.8037396753
 31
0.0
 11
80.903000754
 21
146.8193007896
 31
0.0
 11
80.9306113387
 21
146.8350511227
 31
0.0
 11
80.9581444154
 21
146.8509901868
 31
0.0
 11
80.9855980873
 21
146.8671174686
 31
0.0
 11
81.012970461
 21
146.8834324302
 31
0.0
 11
81.040259647
 21
146.8999345085
 31
0.0
 11
81.0674637602
 21
146.9166231156
 31
0.0
 11
81.0945809204
 21
146.9334976385
 31
0.0
 11
81.1216092526
 21
146.9505574394
 31
0.0
 11
81.1485468872
 21
146.9678018556
 31
0.0
 11
81.1753919608
 21
146.9852301994
 31
0.0
 11
81.2021426163
 21
147.0028417587
 31
0.0
 11
81.2287970035
 21
147.0206357964
 31
0.0
 11
81.2553532794
 21
147.0386115509
 31
0.0
 11
81.2818096086
 21
147.056768236
 31
0.0
 11
81.3081641638
 21
147.075105041
 31
0.0
 11
81.3344151262
 21
147.0936211311
 31
0.0
 11
81.3605606857
 21
147.1123156469
 31
0.0
 11
81.3865990414
 21
147.131187705
 31
0.0
 11
81.4125284024
 21
147.1502363979
 31
0.0
 11
81.4383469873
 21
147.1694607944
 31
0.0
 11
81.4640530257
 21
147.1888599394
 31
0.0
 11
81.4896447577
 21
147.2084328541
 31
0.0
 11
81.5151204346
 21
147.2281785363
 31
0.0
 11
81.5404783195
 21
147.2480959606
 31
0.0
 11
81.5657166875
 21
147.2681840782
 31
0.0
 11
81.5908338258
 21
147.2884418176
 31
0.0
 11
81.6158280348
 21
147.3088680844
 31
0.0
 11
81.6406976276
 21
147.3294617616
 31
0.0
 11
81.6654409311
 21
147.3502217098
 31
0.0
 11
81.690056286
 21
147.3711467673
 31
0.0
 11
81.7145420474
 21
147.3922357506
 31
0.0
 11
81.7388965847
 21
147.4134874544
 31
0.0
 11
81.7631182825
 21
147.4349006517
 31
0.0
 11
81.7872055408
 21
147.4564740944
 31
0.0
 11
81.811156775
 21
147.4782065131
 31
0.0
 11
81.8349704168
 21
147.5000966179
 31
0.0
 11
81.8586449142
 21
147.522143098
 31
0.0
 11
81.8821787317
 21
147.5443446225
 31
0.0
 11
81.9055703511
 21
147.5666998404
 31
0.0
 11
81.9288182714
 21
147.5892073809
 31
0.0
 11
81.9519210094
 21
147.6118658538
 31
0.0
 11
81.9748770998
 21
147.6346738496
 31
0.0
 11
81.9976850956
 21
147.65762994
 31
0.0
 11
82.0203435685
 21
147.680732678
 31
0.0
 11
82.042851109
 21
147.7039805983
 31
0.0
 11
82.0652063269
 21
147.7273722177
 31
0.0
 11
82.0874078513
 21
147.7509060352
 31
0.0
 11
82.1094543314
 21
147.7745805325
 31
0.0
 11
82.1313444362
 21
147.7983941743
 31
0.0
 11
82.153076855
 21
147.8223454085
 31
0.0
 11
82.1746502976
 21
147.8464326668
 31
0.0
 11
82.1960634949
 21
147.8706543646
 31
0.0
 11
82.2173151987
 21
147.895008902
 31
0.0
 11
82.238404182
 21
147.9194946633
 31
0.0
 11
82.2593292396
 21
147.9441100182
 31
0.0
 11
82.2800891877
 21
147.9688533218
 31
0.0
 11
82.3006828649
 21
147.9937229146
 31
0.0
 11
82.3211091317
 21
148.0187171235
 31
0.0
 11
82.3413668711
 21
148.0438342619
 31
0.0
 11
82.3614549888
 21
148.0690726298
 31
0.0
 11
82.381372413
 21
148.0944305147
 31
0.0
 11
82.4011180953
 21
148.1199061917
 31
0.0
 11
82.4206910099
 21
148.1454979236
 31
0.0
 11
82.4400901549
 21
148.171203962
 31
0.0
 11
82.4593145514
 21
148.197022547
 31
0.0
 11
82.4783632444
 21
148.2229519079
 31
0.0
 11
82.4972353025
 21
148.2489902637
 31
0.0
 11
82.5159298182
 21
148.2751358231
 31
0.0
 11
82.5344459083
 21
148.3013867855
 31
0.0
 11
82.5527827134
 21
148.3277413407
 31
0.0
 11
82.5709393985
 21
148.35419767
 31
0.0
 11
82.588915153
 21
148.3807539459
 31
0.0
 11
82.6067091907
 21
148.4074083331
 31
0.0
 11
82.6243207499
 21
148.4341589886
 31
0.0
 11
82.6417490938
 21
148.4610040622
 31
0.0
 11
82.6589935099
 21
148.4879416967
 31
0.0
 11
82.6760533108
 21
148.5149700289
 31
0.0
 11
82.6929278337
 21
148.5420871891
 31
0.0
 11
82.7096164408
 21
148.5692913024
 31
0.0
 11
82.7261185191
 21
148.5965804883
 31
0.0
 11
82.7424334807
 21
148.623952862
 31
0.0
 11
82.7585607626
 21
148.6514065339
 31
0.0
 11
82.7744998266
 21
148.6789396107
 31
0.0
 11
82.7902501598
 21
148.7065501953
 31
0.0
 11
82.805811274
 21
148.7342363877
 31
0.0
 11
82.8211827063
 21
148.7619962849
 31
0.0
 11
82.8363640185
 21
148.7898279817
 31
0.0
 11
82.8513547975
 21
148.8177295709
 31
0.0
 11
82.8661546551
 21
148.8456991437
 31
0.0
 11
82.880763228
 21
148.8737347902
 31
0.0
 11
82.8951801776
 21
148.9018345997
 31
0.0
 11
82.9094051904
 21
148.9299966612
 31
0.0
 11
82.9234379772
 21
148.9582190635
 31
0.0
 11
82.9372782739
 21
148.9864998961
 31
0.0
 11
82.9509258408
 21
149.0148372492
 31
0.0
 11
82.9643804627
 21
149.0432292141
 31
0.0
 11
82.9776419487
 21
149.0716738837
 31
0.0
 11
82.9907101326
 21
149.1001693528
 31
0.0
 11
83.0035848721
 21
149.1287137187
 31
0.0
 11
83.0162660492
 21
149.1573050812
 31
0.0
 11
83.0287535698
 21
149.1859415432
 31
0.0
 11
83.0410473637
 21
149.2146212111
 31
0.0
 11
83.0531473847
 21
149.2433421949
 31
0.0
 11
83.0650536098
 21
149.272102609
 31
0.0
 11
83.07676604
 21
149.3009005721
 31
0.0
 11
83.0882846991
 21
149.3297342077
 31
0.0
 11
83.0996096346
 21
149.3586016447
 31
0.0
 11
83.1107409168
 21
149.3875010174
 31
0.0
 11
83.1216786388
 21
149.4164304661
 31
0.0
 11
83.1324229165
 21
149.445388137
 31
0.0
 11
83.1429738885
 21
149.4743721831
 31
0.0
 11
83.1533317154
 21
149.5033807643
 31
0.0
 11
83.1634965803
 21
149.5324120474
 31
0.0
 11
83.173468688
 21
149.5614642069
 31
0.0
 11
83.1832482655
 21
149.5905354252
 31
0.0
 11
83.1928355609
 21
149.6196238924
 31
0.0
 11
83.202230844
 21
149.6487278075
 31
0.0
 11
83.2114344056
 21
149.6778453778
 31
0.0
 11
83.2204465577
 21
149.7069748198
 31
0.0
 11
83.2292676328
 21
149.7361143592
 31
0.0
 11
83.237897984
 21
149.7652622314
 31
0.0
 11
83.2463379848
 21
149.7944166813
 31
0.0
 11
83.2545880286
 21
149.8235759642
 31
0.0
 11
83.2626485288
 21
149.8527383457
 31
0.0
 11
83.2705199183
 21
149.8819021018
 31
0.0
 11
83.2782026493
 21
149.9110655198
 31
0.0
 11
83.2856971934
 21
149.9402268976
 31
0.0
 11
83.2930040407
 21
149.9693845448
 31
0.0
 11
83.3001237002
 21
149.9985367824
 31
0.0
 11
83.307056699
 21
150.0276819435
 31
0.0
 11
83.3138035827
 21
150.0568183728
 31
0.0
 11
83.3203649143
 21
150.0859444277
 31
0.0
 11
83.3267412748
 21
150.1150584778
 31
0.0
 11
83.3329332622
 21
150.1441589055
 31
0.0
 11
83.3389414918
 21
150.1732441059
 31
0.0
 11
83.3447665955
 21
150.2023124874
 31
0.0
 11
83.350409222
 21
150.2313624716
 31
0.0
 11
83.3558700359
 21
150.2603924934
 31
0.0
 11
83.3611497181
 21
150.2894010016
 31
0.0
 11
83.366248965
 21
150.3183864584
 31
0.0
 11
83.3711684885
 21
150.3473473403
 31
0.0
 11
83.3759090157
 21
150.3762821379
 31
0.0
 11
83.3804712885
 21
150.4051893558
 31
0.0
 11
83.3848560635
 21
150.4340675133
 31
0.0
 11
83.3890641114
 21
150.462915144
 31
0.0
 11
83.3930962172
 21
150.4917307966
 31
0.0
 11
83.3969531794
 21
150.5205130343
 31
0.0
 11
83.4006358102
 21
150.5492604352
 31
0.0
 11
83.4041449348
 21
150.5779715928
 31
0.0
 11
83.4074813915
 21
150.6066451156
 31
0.0
 11
83.4106460309
 21
150.6352796273
 31
0.0
 11
83.4136397162
 21
150.6638737672
 31
0.0
 11
83.4164633225
 21
150.69242619
 31
0.0
 11
83.4191177369
 21
150.720935566
 31
0.0
 11
83.4216038576
 21
150.7494005812
 31
0.0
 11
83.4239225944
 21
150.7778199373
 31
0.0
 11
83.4260748676
 21
150.8061923519
 31
0.0
 11
83.4280616084
 21
150.8345165586
 31
0.0
 11
83.4298837584
 21
150.8627913066
 31
0.0
 11
83.4315422691
 21
150.8910153616
 31
0.0
 11
83.4330381018
 21
150.9191875051
 31
0.0
 11
83.4343722274
 21
150.9473065348
 31
0.0
 11
83.4355456259
 21
150.9753712645
 31
0.0
 11
83.4365592863
 21
151.0033805245
 31
0.0
 11
83.4374142064
 21
151.031333161
 31
0.0
 11
83.4381113923
 21
151.0592280367
 31
0.0
 11
83.4386518581
 21
151.0870640305
 31
0.0
 11
83.439036626
 21
151.1148400378
 31
0.0
 11
83.4393431938
 21
151.1702077555
 31
0.0
  0
LINE
  5
280
100
AcDbEntity
  8
0
100
AcDbLine
 62
7
  6
CONTINUOUS
 10
83.4393431938
 20
167.1751412291
 11
83.4393431938
 21
151.1702077555
  0
SPLINE
  5
281
100
AcDbEntity
  8
0
100
AcDbSpline
 62
7
  6
CONTINUOUS
 70
4
 71
3
 72
8
 73
4
 74
129
 42
0.0000001
 43
0.0000001
 44
0.0000000001
 12
-0.0
 22
6.9122648639
 32
0.0
 13
-6.9054445686
 23
0.3069867401
 33
0.0
 40
0.0
 40
0.0
 40
0.0
 40
0.0
 40
1.0
 40
1.0
 40
1.0
 40
1.0
 10
83.4393431938
 20
167.1751412291
 30
0.0
 41
1.0
 10
83.4393431938
 20
170.0019239013
 30
0.0
 41
0.8150921225
 10
81.4853961396
 20
172.0446649971
 30
0.0
 41
0.8150921225
 10
78.661402639
 20
172.1702077555
 30
0.0
 41
1.0
 11
83.4393431938
 21
167.1751412291
 31
0.0
 11
83.4390503121
 21
167.2292589839
 31
0.0
 11
83.4381666662
 21
167.2836027087
 31
0.0
 11
83.4366848406
 21
167.3381641276
 31
0.0
 11
83.4345975406
 21
167.3929347337
 31
0.0
 11
83.4318975996
 21
167.4479057895
 31
0.0
 11
83.4285779866
 21
167.5030683287
 31
0.0
 11
83.4246318143
 21
167.558413157
 31
0.0
 11
83.4200523466
 21
167.6139308546
 31
0.0
 11
83.4148330066
 21
167.6696117776
 31
0.0
 11
83.4089673841
 21
167.725446061
 31
0.0
 11
83.4024492437
 21
167.7814236206
 31
0.0
 11
83.3952725325
 21
167.8375341567
 31
0.0
 11
83.3874313879
 21
167.8937671568
 31
0.0
 11
83.3789201454
 21
167.9501118991
 31
0.0
 11
83.3697333464
 21
168.0065574567
 31
0.0
 11
83.3598657456
 21
168.0630927016
 31
0.0
 11
83.349312319
 21
168.119706309
 31
0.0
 11
83.3380682711
 21
168.1763867621
 31
0.0
 11
83.3261290427
 21
168.2331223574
 31
0.0
 11
83.3134903178
 21
168.2899012097
 31
0.0
 11
83.3001480312
 21
168.3467112581
 31
0.0
 11
83.2860983756
 21
168.4035402719
 31
0.0
 11
83.271337808
 21
168.4603758569
 31
0.0
 11
83.2558630574
 21
168.5172054617
 31
0.0
 11
83.2396711303
 21
168.5740163852
 31
0.0
 11
83.2227593182
 21
168.6307957833
 31
0.0
 11
83.2051252031
 21
168.6875306765
 31
0.0
 11
83.1867666636
 21
168.7442079578
 31
0.0
 11
83.1676818809
 21
168.8008144006
 31
0.0
 11
83.1478693443
 21
168.8573366669
 31
0.0
 11
83.1273278561
 21
168.9137613161
 31
0.0
 11
83.106056537
 21
168.9700748137
 31
0.0
 11
83.0840548306
 21
169.0262635405
 31
0.0
 11
83.0613225078
 21
169.0823138016
 31
0.0
 11
83.0378596712
 21
169.1382118361
 31
0.0
 11
83.0136667582
 21
169.1939438269
 31
0.0
 11
82.9887445451
 21
169.2494959107
 31
0.0
 11
82.9630941502
 21
169.3048541875
 31
0.0
 11
82.9367170358
 21
169.3600047319
 31
0.0
 11
82.9096150116
 21
169.4149336024
 31
0.0
 11
82.8817902359
 21
169.4696268531
 31
0.0
 11
82.8532452176
 21
169.5240705436
 31
0.0
 11
82.8239828176
 21
169.57825075
 31
0.0
 11
82.7940062493
 21
169.6321535762
 31
0.0
 11
82.763319079
 21
169.6857651645
 31
0.0
 11
82.7319252264
 21
169.7390717067
 31
0.0
 11
82.6998289639
 21
169.7920594555
 31
0.0
 11
82.6670349158
 21
169.8447147352
 31
0.0
 11
82.6335480572
 21
169.8970239533
 31
0.0
 11
82.5993737125
 21
169.9489736113
 31
0.0
 11
82.5645175529
 21
170.0005503159
 31
0.0
 11
82.5289855944
 21
170.0517407903
 31
0.0
 11
82.4927841949
 21
170.1025318847
 31
0.0
 11
82.4559200506
 21
170.1529105879
 31
0.0
 11
82.4184001922
 21
170.2028640374
 31
0.0
 11
82.3802319814
 21
170.2523795307
 31
0.0
 11
82.3414231056
 21
170.3014445353
 31
0.0
 11
82.3019815735
 21
170.3500466998
 31
0.0
 11
82.2619157095
 21
170.3981738635
 31
0.0
 11
82.221234148
 21
170.4458140667
 31
0.0
 11
82.1799458273
 21
170.4929555607
 31
0.0
 11
82.138059983
 21
170.539586817
 31
0.0
 11
82.0955861414
 21
170.585696537
 31
0.0
 11
82.0525341123
 21
170.6312736611
 31
0.0
 11
82.0089139808
 21
170.6763073772
 31
0.0
 11
81.9647361006
 21
170.7207871298
 31
0.0
 11
81.9200110846
 21
170.7647026277
 31
0.0
 11
81.8747497972
 21
170.8080438523
 31
0.0
 11
81.8289633453
 21
170.850801065
 31
0.0
 11
81.7826630691
 21
170.8929648144
 31
0.0
 11
81.7358605331
 21
170.9345259437
 31
0.0
 11
81.6885675161
 21
170.9754755965
 31
0.0
 11
81.6407960019
 21
171.0158052236
 31
0.0
 11
81.5925581689
 21
171.0555065883
 31
0.0
 11
81.5438663805
 21
171.0945717724
 31
0.0
 11
81.4947331738
 21
171.1329931806
 31
0.0
 11
81.4451712502
 21
171.1707635455
 31
0.0
 11
81.395193464
 21
171.2078759316
 31
0.0
 11
81.3448128116
 21
171.2443237392
 31
0.0
 11
81.2940424214
 21
171.2801007076
 31
0.0
 11
81.242895542
 21
171.3152009184
 31
0.0
 11
81.1913855316
 21
171.3496187978
 31
0.0
 11
81.139525847
 21
171.3833491184
 31
0.0
 11
81.0873300322
 21
171.4163870018
 31
0.0
 11
81.0348117077
 21
171.4487279188
 31
0.0
 11
80.981984559
 21
171.480367691
 31
0.0
 11
80.928862326
 21
171.5113024912
 31
0.0
 11
80.8754587917
 21
171.5415288429
 31
0.0
 11
80.8217877713
 21
171.5710436206
 31
0.0
 11
80.7678631012
 21
171.5998440487
 31
0.0
 11
80.7136986285
 21
171.6279277002
 31
0.0
 11
80.6593082003
 21
171.6552924956
 31
0.0
 11
80.6047056529
 21
171.6819367005
 31
0.0
 11
80.5499048015
 21
171.7078589239
 31
0.0
 11
80.4949194304
 21
171.7330581147
 31
0.0
 11
80.4397632821
 21
171.7575335596
 31
0.0
 11
80.3844500481
 21
171.7812848793
 31
0.0
 11
80.3289933591
 21
171.8043120245
 31
0.0
 11
80.2734067752
 21
171.8266152729
 31
0.0
 11
80.217703777
 21
171.8481952237
 31
0.0
 11
80.1618977563
 21
171.8690527941
 31
0.0
 11
80.1060020075
 21
171.8891892135
 31
0.0
 11
80.0500297188
 21
171.9086060192
 31
0.0
 11
79.9939939644
 21
171.9273050501
 31
0.0
 11
79.937907696
 21
171.9452884421
 31
0.0
 11
79.8817837351
 21
171.9625586211
 31
0.0
 11
79.8256347659
 21
171.9791182979
 31
0.0
 11
79.7694733278
 21
171.9949704613
 31
0.0
 11
79.7133118085
 21
172.0101183717
 31
0.0
 11
79.6571624377
 21
172.0245655547
 31
0.0
 11
79.6010372803
 21
172.0383157941
 31
0.0
 11
79.5449482308
 21
172.051373125
 31
0.0
 11
79.4889070078
 21
172.0637418265
 31
0.0
 11
79.4329251478
 21
172.0754264148
 31
0.0
 11
79.3770140009
 21
172.0864316357
 31
0.0
 11
79.3211847257
 21
172.0967624572
 31
0.0
 11
79.2654482848
 21
172.1064240621
 31
0.0
 11
79.2098154409
 21
172.1154218403
 31
0.0
 11
79.1542967523
 21
172.1237613812
 31
0.0
 11
79.0989025701
 21
172.1314484663
 31
0.0
 11
79.0436430343
 21
172.1384890613
 31
0.0
 11
78.9885280714
 21
172.1448893083
 31
0.0
 11
78.9335673911
 21
172.1506555184
 31
0.0
 11
78.8787704844
 21
172.1557941639
 31
0.0
 11
78.8241466211
 21
172.1603118704
 31
0.0
 11
78.7697048484
 21
172.1642154095
 31
0.0
 11
78.7154539887
 21
172.1675116911
 31
0.0
 11
78.661402639
 21
172.1702077555
 31
0.0
  0
LINE
  5
282
100
AcDbEntity
  8
0
100
AcDbLine
 62
7
  6
CONTINUOUS
 10
56.1449313048
 20
173.1711944502
 11
78.661402639
 21
172.1702077555
  0
SPLINE
  5
283
100
AcDbEntity
  8
0
100
AcDbSpline
 62
7
  6
CONTINUOUS
 70
4
 71
3
 72
8
 73
4
 74
129
 42
0.0000001
 43
0.0000001
 44
0.0000000001
 12
0.0
 22
-1.3824529728
 32
0.0
 13
1.3810889137
 23
-0.061397348
 33
0.0
 40
0.0
 40
0.0
 40
0.0
 40
0.0
 40
1.0
 40
1.0
 40
1.0
 40
1.0
 10
55.1893431938
 20
174.1702077555
 30
0.0
 41
1.0
 10
55.1893431938
 20
173.6048512211
 30
0.0
 41
0.8150921225
 10
55.5801326047
 20
173.1963030019
 30
0.0
 41
0.8150921225
 10
56.1449313048
 20
173.1711944502
 30
0.0
 41
1.0
 11
55.1893431938
 21
174.1702077555
 31
0.0
 11
55.1894017702
 21
174.1593842045
 31
0.0
 11
55.1895784994
 21
174.1485154596
 31
0.0
 11
55.1898748645
 21
174.1376031758
 31
0.0
 11
55.1902923245
 21
174.1266490546
 31
0.0
 11
55.1908323127
 21
174.1156548434
 31
0.0
 11
55.1914962353
 21
174.1046223356
 31
0.0
 11
55.1922854697
 21
174.0935533699
 31
0.0
 11
55.1932013633
 21
174.0824498304
 31
0.0
 11
55.1942452313
 21
174.0713136458
 31
0.0
 11
55.1954183558
 21
174.0601467891
 31
0.0
 11
55.1967219839
 21
174.0489512772
 31
0.0
 11
55.1981573261
 21
174.03772917
 31
0.0
 11
55.199725555
 21
174.02648257
 31
0.0
 11
55.2014278035
 21
174.0152136215
 31
0.0
 11
55.2032651633
 21
174.00392451
 31
0.0
 11
55.2052386835
 21
173.992617461
 31
0.0
 11
55.2073493688
 21
173.9812947395
 31
0.0
 11
55.2095981784
 21
173.9699586489
 31
0.0
 11
55.2119860241
 21
173.9586115299
 31
0.0
 11
55.214513769
 21
173.9472557594
 31
0.0
 11
55.2171822264
 21
173.9358937497
 31
0.0
 11
55.2199921575
 21
173.9245279469
 31
0.0
 11
55.222944271
 21
173.91316083
 31
0.0
 11
55.2260392211
 21
173.901794909
 31
0.0
 11
55.2292776065
 21
173.8904327243
 31
0.0
 11
55.232659969
 21
173.8790768447
 31
0.0
 11
55.236186792
 21
173.867729866
 31
0.0
 11
55.2398584999
 21
173.8563944098
 31
0.0
 11
55.2436754564
 21
173.8450731212
 31
0.0
 11
55.2476379637
 21
173.833768668
 31
0.0
 11
55.2517462614
 21
173.8224837381
 31
0.0
 11
55.2560005252
 21
173.8112210386
 31
0.0
 11
55.2604008665
 21
173.7999832932
 31
0.0
 11
55.264947331
 21
173.788773241
 31
0.0
 11
55.2696398984
 21
173.7775936341
 31
0.0
 11
55.274478481
 21
173.7664472359
 31
0.0
 11
55.2794629236
 21
173.7553368192
 31
0.0
 11
55.2845930026
 21
173.7442651638
 31
0.0
 11
55.2898684254
 21
173.733235055
 31
0.0
 11
55.2952888303
 21
173.7222492809
 31
0.0
 11
55.3008537854
 21
173.7113106307
 31
0.0
 11
55.3065627891
 21
173.7004218926
 31
0.0
 11
55.3124152691
 21
173.6895858513
 31
0.0
 11
55.3184105827
 21
173.6788052861
 31
0.0
 11
55.3245480168
 21
173.6680829684
 31
0.0
 11
55.3308267873
 21
173.65742166
 31
0.0
 11
55.3372460398
 21
173.6468241102
 31
0.0
 11
55.3438048494
 21
173.6362930543
 31
0.0
 11
55.3505022212
 21
173.6258312107
 31
0.0
 11
55.3573370901
 21
173.6154412791
 31
0.0
 11
55.364308322
 21
173.6051259382
 31
0.0
 11
55.3714147137
 21
173.5948878433
 31
0.0
 11
55.3786549936
 21
173.5847296244
 31
0.0
 11
55.3860278225
 21
173.5746538838
 31
0.0
 11
55.3935317942
 21
173.5646631939
 31
0.0
 11
55.4011654363
 21
173.5547600952
 31
0.0
 11
55.4089272115
 21
173.5449470943
 31
0.0
 11
55.4168155179
 21
173.5352266614
 31
0.0
 11
55.4248286907
 21
173.5256012286
 31
0.0
 11
55.432965003
 21
173.516073188
 31
0.0
 11
55.4412226671
 21
173.5066448892
 31
0.0
 11
55.449599836
 21
173.4973186379
 31
0.0
 11
55.4580946043
 21
173.4880966939
 31
0.0
 11
55.4667050101
 21
173.4789812691
 31
0.0
 11
55.4754290364
 21
173.4699745259
 31
0.0
 11
55.4842646125
 21
173.4610785754
 31
0.0
 11
55.4932096157
 21
173.4522954758
 31
0.0
 11
55.5022618732
 21
173.4436272309
 31
0.0
 11
55.5114191635
 21
173.4350757883
 31
0.0
 11
55.5206792188
 21
173.4266430384
 31
0.0
 11
55.530039726
 21
173.4183308126
 31
0.0
 11
55.5394983294
 21
173.410140882
 31
0.0
 11
55.5490526322
 21
173.4020749566
 31
0.0
 11
55.5587001988
 21
173.3941346837
 31
0.0
 11
55.5684385565
 21
173.3863216469
 31
0.0
 11
55.5782651978
 21
173.3786373652
 31
0.0
 11
55.5881775825
 21
173.3710832922
 31
0.0
 11
55.5981731398
 21
173.363660815
 31
0.0
 11
55.6082492703
 21
173.3563712535
 31
0.0
 11
55.6184033483
 21
173.3492158598
 31
0.0
 11
55.6286327242
 21
173.3421958176
 31
0.0
 11
55.6389347263
 21
173.3353122418
 31
0.0
 11
55.6493066632
 21
173.3285661776
 31
0.0
 11
55.6597458262
 21
173.321958601
 31
0.0
 11
55.6702494911
 21
173.3154904176
 31
0.0
 11
55.6808149208
 21
173.3091624631
 31
0.0
 11
55.6914393674
 21
173.3029755031
 31
0.0
 11
55.7021200742
 21
173.2969302328
 31
0.0
 11
55.7128542783
 21
173.2910272772
 31
0.0
 11
55.7236392124
 21
173.2852671916
 31
0.0
 11
55.7344721069
 21
173.2796504613
 31
0.0
 11
55.7453501925
 21
173.2741775022
 31
0.0
 11
55.756270702
 21
173.2688486612
 31
0.0
 11
55.7672308723
 21
173.2636642166
 31
0.0
 11
55.7782279465
 21
173.2586243784
 31
0.0
 11
55.7892591762
 21
173.2537292894
 31
0.0
 11
55.800321823
 21
173.2489790255
 31
0.0
 11
55.8114131608
 21
173.2443735964
 31
0.0
 11
55.8225304775
 21
173.2399129468
 31
0.0
 11
55.8336710772
 21
173.2355969566
 31
0.0
 11
55.8448322813
 21
173.2314254425
 31
0.0
 11
55.8560114311
 21
173.2273981586
 31
0.0
 11
55.8672058888
 21
173.2235147975
 31
0.0
 11
55.8784130397
 21
173.2197749913
 31
0.0
 11
55.8896302934
 21
173.2161783129
 31
0.0
 11
55.9008550856
 21
173.2127242771
 31
0.0
 11
55.9120848794
 21
173.2094123418
 31
0.0
 11
55.923317167
 21
173.2062419091
 31
0.0
 11
55.9345494709
 21
173.203212327
 31
0.0
 11
55.9457793451
 21
173.2003228904
 31
0.0
 11
55.9570043765
 21
173.1975728425
 31
0.0
 11
55.9682221864
 21
173.1949613763
 31
0.0
 11
55.979430431
 21
173.192487636
 31
0.0
 11
55.990626803
 21
173.1901507184
 31
0.0
 11
56.0018090324
 21
173.1879496742
 31
0.0
 11
56.0129748875
 21
173.1858835099
 31
0.0
 11
56.0241221756
 21
173.1839511889
 31
0.0
 11
56.0352487444
 21
173.1821516333
 31
0.0
 11
56.0463524821
 21
173.1804837251
 31
0.0
 11
56.0574313186
 21
173.1789463081
 31
0.0
 11
56.0684832257
 21
173.1775381891
 31
0.0
 11
56.0795062183
 21
173.1762581397
 31
0.0
 11
56.0904983544
 21
173.1751048977
 31
0.0
 11
56.1014577357
 21
173.1740771686
 31
0.0
 11
56.1123825084
 21
173.1731736273
 31
0.0
 11
56.1232708629
 21
173.1723929194
 31
0.0
 11
56.1341210349
 21
173.1717336631
 31
0.0
 11
56.1449313048
 21
173.1711944502
 31
0.0
  0
LINE
  5
284
100
AcDbEntity
  8
0
100
AcDbLine
 62
7
  6
CONTINUOUS
 10
55.1893431938
 20
179.6702077555
 11
55.1893431938
 21
174.1702077555
  0
HATCH
  5
285
100
AcDbEntity
  8
0
100
AcDbHatch
 62
2
  6
CONTINUOUS
 10
0.0
 20
0.0
 30
0.0
210
0.0
220
0.0
230
1.0
  2
A
 70
0
 71
1
 91
2
 92
1
 93
27
 72
1
 10
55.1893431938
 20
204.6702077555
 11
116.6893431938
 21
204.6702077555
 72
1
 10
55.1893431938
 20
210.1702077555
 11
55.1893431938
 21
204.6702077555
 72
4
 94
3
 73
1
 74
0
 95
8
 96
4
 40
0.0
 40
0.0
 40
0.0
 40
0.0
 40
1.0
 40
1.0
 40
1.0
 40
1.0
 10
55.1893431938
 20
210.1702077555
 42
1.0
 10
55.1893431938
 20
210.7355642899
 42
0.8150921225
 10
55.5801326047
 20
211.1441125091
 42
0.8150921225
 10
56.1449313048
 20
211.1692210608
 42
1.0
 72
1
 10
56.1449313048
 20
211.1692210608
 11
78.661402639
 21
212.1702077555
 72
4
 94
3
 73
1
 74
0
 95
8
 96
4
 40
0.0
 40
0.0
 40
0.0
 40
0.0
 40
1.0
 40
1.0
 40
1.0
 40
1.0
 10
83.4393431938
 20
217.1652742819
 42
1.0
 10
83.4393431938
 20
214.3384916097
 42
0.8150921225
 10
81.4853961396
 20
212.2957505139
 42
0.8150921225
 10
78.661402639
 20
212.1702077555
 42
1.0
 72
1
 10
83.4393431938
 20
233.1702077555
 11
83.4393431938
 21
217.1652742819
 72
4
 94
3
 73
1
 74
0
 95
8
 96
4
 40
0.0
 40
0.0
 40
0.0
 40
0.0
 40
1.0
 40
1.0
 40
1.0
 40
1.0
 10
78.4393431938
 20
238.1702077555
 42
1.0
 10
81.368275382
 20
238.1702077555
 42
0.8047378541
 10
83.4393431938
 20
236.0991399436
 42
0.8047378541
 10
83.4393431938
 20
233.1702077555
 42
1.0
 72
1
 10
61.1893431938
 20
238.1702077555
 11
78.4393431938
 21
238.1702077555
 72
4
 94
3
 73
1
 74
0
 95
8
 96
4
 40
0.0
 40
0.0
 40
0.0
 40
0.0
 40
1.0
 40
1.0
 40
1.0
 40
1.0
 10
61.1893431938
 20
238.1702077555
 42
1.0
 10
58.2604110057
 20
238.1702077555
 42
0.8047378541
 10
56.1893431938
 20
240.2412755674
 42
0.8047378541
 10
56.1893431938
 20
243.1702077555
 42
1.0
 72
1
 10
56.1893431938
 20
256.6702077555
 11
56.1893431938
 21
243.1702077555
 72
1
 10
56.1893431938
 20
256.6702077555
 11
63.3793431938
 21
256.6702077555
 72
1
 10
63.3793431938
 20
256.6702077555
 11
64.068023156
 21
244.312365377
 72
4
 94
3
 73
1
 74
0
 95
8
 96
4
 40
0.0
 40
0.0
 40
0.0
 40
0.0
 40
1.0
 40
1.0
 40
1.0
 40
1.0
 10
64.7408164658
 20
243.6137674
 42
1.0
 10
64.356932126
 20
243.6496877021
 42
0.8385107918
 10
64.0894764906
 20
243.9274014711
 42
0.8385107918
 10
64.068023156
 20
244.312365377
 42
1.0
 72
1
 10
64.7408164658
 20
243.6137674
 11
85.9393431938
 21
241.6302077555
 72
1
 10
85.9393431938
 20
241.6302077555
 11
107.1497769628
 21
243.3570150657
 72
4
 94
3
 73
1
 74
0
 95
8
 96
4
 40
0.0
 40
0.0
 40
0.0
 40
0.0
 40
1.0
 40
1.0
 40
1.0
 40
1.0
 10
108.068023156
 20
244.3188179059
 42
1.0
 10
108.049414734
 20
243.7859424208
 42
0.8313024561
 10
107.6812189442
 20
243.4002814085
 42
0.8313024561
 10
107.1497769628
 20
243.3570150657
 42
1.0
 72
1
 10
108.068023156
 20
244.3188179059
 11
108.4993431938
 21
256.6702077555
 72
1
 10
108.4993431938
 20
256.6702077555
 11
115.6893431938
 21
256.6702077555
 72
1
 10
115.6893431938
 20
256.6702077555
 11
115.6893431938
 21
243.1702077555
 72
4
 94
3
 73
1
 74
0
 95
8
 96
4
 40
0.0
 40
0.0
 40
0.0
 40
0.0
 40
1.0
 40
1.0
 40
1.0
 40
1.0
 10
115.6893431938
 20
243.1702077555
 42
1.0
 10
115.6893431938
 20
240.2412755674
 42
0.8047378541
 10
113.618275382
 20
238.1702077555
 42
0.8047378541
 10
110.6893431938
 20
238.1702077555
 42
1.0
 72
1
 10
93.4393431938
 20
238.1702077555
 11
110.6893431938
 21
238.1702077555
 72
4
 94
3
 73
1
 74
0
 95
8
 96
4
 40
0.0
 40
0.0
 40
0.0
 40
0.0
 40
1.0
 40
1.0
 40
1.0
 40
1.0
 10
88.4393431938
 20
233.1702077555
 42
1.0
 10
88.4393431938
 20
236.0991399436
 42
0.8047378541
 10
90.5104110057
 20
238.1702077555
 42
0.8047378541
 10
93.4393431938
 20
238.1702077555
 42
1.0
 72
1
 10
88.4393431938
 20
233.1702077555
 11
88.4393431938
 21
217.1652742819
 72
4
 94
3
 73
1
 74
0
 95
8
 96
4
 40
0.0
 40
0.0
 40
0.0
 40
0.0
 40
1.0
 40
1.0
 40
1.0
 40
1.0
 10
93.2172837486
 20
212.1702077555
 42
1.0
 10
90.3932902481
 20
212.2957505139
 42
0.8150921225
 10
88.4393431938
 20
214.3384916097
 42
0.8150921225
 10
88.4393431938
 20
217.1652742819
 42
1.0
 72
1
 10
93.2172837486
 20
212.1702077555
 11
115.7337550829
 21
211.1692210608
 72
4
 94
3
 73
1
 74
0
 95
8
 96
4
 40
0.0
 40
0.0
 40
0.0
 40
0.0
 40
1.0
 40
1.0
 40
1.0
 40
1.0
 10
115.7337550829
 20
211.1692210608
 42
1.0
 10
116.298553783
 20
211.1441125091
 42
0.8150921225
 10
116.6893431938
 20
210.7355642899
 42
0.8150921225
 10
116.6893431938
 20
210.1702077555
 42
1.0
 72
1
 10
116.6893431938
 20
210.1702077555
 11
116.6893431938
 21
204.6702077555
 97
54
330
24F
330
250
330
251
330
252
330
253
330
254
330
255
330
256
330
257
330
258
330
259
330
25A
330
25B
330
25C
330
25D
330
25E
330
25F
330
260
330
261
330
262
330
263
330
264
330
265
330
266
330
267
330
268
330
269
330
26A
330
26B
330
26C
330
26D
330
26E
330
26F
330
270
330
271
330
272
330
273
330
274
330
275
330
276
330
277
330
278
330
279
330
27A
330
27B
330
27C
330
27D
330
27E
330
27F
330
280
330
281
330
282
330
283
330
284
 92
1
 93
27
 72
1
 10
55.1893431938
 20
179.6702077555
 11
116.6893431938
 21
179.6702077555
 72
1
 10
116.6893431938
 20
179.6702077555
 11
116.6893431938
 21
174.1702077555
 72
4
 94
3
 73
1
 74
0
 95
8
 96
4
 40
0.0
 40
0.0
 40
0.0
 40
0.0
 40
1.0
 40
1.0
 40
1.0
 40
1.0
 10
115.7337550829
 20
173.1711944502
 42
1.0
 10
116.298553783
 20
173.1963030019
 42
0.8150921225
 10
116.6893431938
 20
173.6048512211
 42
0.8150921225
 10
116.6893431938
 20
174.1702077555
 42
1.0
 72
1
 10
93.2172837486
 20
172.1702077555
 11
115.7337550829
 21
173.1711944502
 72
4
 94
3
 73
1
 74
0
 95
8
 96
4
 40
0.0
 40
0.0
 40
0.0
 40
0.0
 40
1.0
 40
1.0
 40
1.0
 40
1.0
 10
93.2172837486
 20
172.1702077555
 42
1.0
 10
90.3932902481
 20
172.0446649971
 42
0.8150921225
 10
88.4393431938
 20
170.0019239013
 42
0.8150921225
 10
88.4393431938
 20
167.1751412291
 42
1.0
 72
1
 10
88.4393431938
 20
167.1751412291
 11
88.4393431938
 21
151.1702077555
 72
4
 94
3
 73
1
 74
0
 95
8
 96
4
 40
0.0
 40
0.0
 40
0.0
 40
0.0
 40
1.0
 40
1.0
 40
1.0
 40
1.0
 10
88.4393431938
 20
151.1702077555
 42
1.0
 10
88.4393431938
 20
148.2412755674
 42
0.8047378541
 10
90.5104110057
 20
146.1702077555
 42
0.8047378541
 10
93.4393431938
 20
146.1702077555
 42
1.0
 72
1
 10
93.4393431938
 20
146.1702077555
 11
110.6893431938
 21
146.1702077555
 72
4
 94
3
 73
1
 74
0
 95
8
 96
4
 40
0.0
 40
0.0
 40
0.0
 40
0.0
 40
1.0
 40
1.0
 40
1.0
 40
1.0
 10
115.6893431938
 20
141.1702077555
 42
1.0
 10
115.6893431938
 20
144.0991399436
 42
0.8047378541
 10
113.618275382
 20
146.1702077555
 42
0.8047378541
 10
110.6893431938
 20
146.1702077555
 42
1.0
 72
1
 10
115.6893431938
 20
141.1702077555
 11
115.6893431938
 21
127.6702077555
 72
1
 10
108.4993431938
 20
127.6702077555
 11
115.6893431938
 21
127.6702077555
 72
1
 10
108.068023156
 20
140.0215976051
 11
108.4993431938
 21
127.6702077555
 72
4
 94
3
 73
1
 74
0
 95
8
 96
4
 40
0.0
 40
0.0
 40
0.0
 40
0.0
 40
1.0
 40
1.0
 40
1.0
 40
1.0
 10
108.068023156
 20
140.0215976051
 42
1.0
 10
108.049414734
 20
140.5544730903
 42
0.8313024561
 10
107.6812189442
 20
140.9401341025
 42
0.8313024561
 10
107.1497769628
 20
140.9834004453
 42
1.0
 72
1
 10
85.9393431938
 20
142.7102077555
 11
107.1497769628
 21
140.9834004453
 72
1
 10
64.7408164658
 20
140.726648111
 11
85.9393431938
 21
142.7102077555
 72
4
 94
3
 73
1
 74
0
 95
8
 96
4
 40
0.0
 40
0.0
 40
0.0
 40
0.0
 40
1.0
 40
1.0
 40
1.0
 40
1.0
 10
64.7408164658
 20
140.726648111
 42
1.0
 10
64.356932126
 20
140.6907278089
 42
0.8385107918
 10
64.0894764906
 20
140.4130140399
 42
0.8385107918
 10
64.068023156
 20
140.028050134
 42
1.0
 72
1
 10
63.3793431938
 20
127.6702077555
 11
64.068023156
 21
140.028050134
 72
1
 10
56.1893431938
 20
127.6702077555
 11
63.3793431938
 21
127.6702077555
 72
1
 10
56.1893431938
 20
141.1702077555
 11
56.1893431938
 21
127.6702077555
 72
4
 94
3
 73
1
 74
0
 95
8
 96
4
 40
0.0
 40
0.0
 40
0.0
 40
0.0
 40
1.0
 40
1.0
 40
1.0
 40
1.0
 10
61.1893431938
 20
146.1702077555
 42
1.0
 10
58.2604110057
 20
146.1702077555
 42
0.8047378541
 10
56.1893431938
 20
144.0991399436
 42
0.8047378541
 10
56.1893431938
 20
141.1702077555
 42
1.0
 72
1
 10
61.1893431938
 20
146.1702077555
 11
78.4393431938
 21
146.1702077555
 72
4
 94
3
 73
1
 74
0
 95
8
 96
4
 40
0.0
 40
0.0
 40
0.0
 40
0.0
 40
1.0
 40
1.0
 40
1.0
 40
1.0
 10
78.4393431938
 20
146.1702077555
 42
1.0
 10
81.368275382
 20
146.1702077555
 42
0.8047378541
 10
83.4393431938
 20
148.2412755674
 42
0.8047378541
 10
83.4393431938
 20
151.1702077555
 42
1.0
 72
1
 10
83.4393431938
 20
167.1751412291
 11
83.4393431938
 21
151.1702077555
 72
4
 94
3
 73
1
 74
0
 95
8
 96
4
 40
0.0
 40
0.0
 40
0.0
 40
0.0
 40
1.0
 40
1.0
 40
1.0
 40
1.0
 10
83.4393431938
 20
167.1751412291
 42
1.0
 10
83.4393431938
 20
170.0019239013
 42
0.8150921225
 10
81.4853961396
 20
172.0446649971
 42
0.8150921225
 10
78.661402639
 20
172.1702077555
 42
1.0
 72
1
 10
56.1449313048
 20
173.1711944502
 11
78.661402639
 21
172.1702077555
 72
4
 94
3
 73
1
 74
0
 95
8
 96
4
 40
0.0
 40
0.0
 40
0.0
 40
0.0
 40
1.0
 40
1.0
 40
1.0
 40
1.0
 10
55.1893431938
 20
174.1702077555
 42
1.0
 10
55.1893431938
 20
173.6048512211
 42
0.8150921225
 10
55.5801326047
 20
173.1963030019
 42
0.8150921225
 10
56.1449313048
 20
173.1711944502
 42
1.0
 72
1
 10
55.1893431938
 20
179.6702077555
 11
55.1893431938
 21
174.1702077555
 97
54
330
24F
330
250
330
251
330
252
330
253
330
254
330
255
330
256
330
257
330
258
330
259
330
25A
330
25B
330
25C
330
25D
330
25E
330
25F
330
260
330
261
330
262
330
263
330
264
330
265
330
266
330
267
330
268
330
269
330
26A
330
26B
330
26C
330
26D
330
26E
330
26F
330
270
330
271
330
272
330
273
330
274
330
275
330
276
330
277
330
278
330
279
330
27A
330
27B
330
27C
330
27D
330
27E
330
27F
330
280
330
281
330
282
330
283
330
284
 75
0
 76
0
 52
45.0
 41
2.0
 77
0
 78
1
 53
45.0
 43
0.0
 44
0.0
 45
-1.4142135624
 46
1.4142135624
 79
0
 98
1
 10
0.0
 20
0.0
  0
DIMENSION
  5
286
100
AcDbEntity
  8
0
100
AcDbDimension
 62
2
  6
CONTINUOUS
  2
*D0
 10
127.7593382118
 20
204.6702077555
 11
126.217193986
 21
188.9107931587
 70
160
  1
%%c<>
  3
DIMSTYLE_1
100
AcDbAlignedDimension
 13
116.7113402062
 23
179.6702077555
 14
116.0515463918
 24
204.6702077555
 50
90.0
100
AcDbRotatedDimension
  0
DIMENSION
  5
287
100
AcDbEntity
  8
0
100
AcDbDimension
 62
2
  6
CONTINUOUS
  2
*D1
 10
116.6893431938
 20
111.7178694411
 11
81.2378630468
 21
114.3428694411
 70
160
  3
DIMSTYLE_2
100
AcDbAlignedDimension
 13
55.1893431938
 23
161.2886597938
 14
116.6893431938
 24
162.6082474227
100
AcDbRotatedDimension
  0
DIMENSION
  5
288
100
AcDbEntity
  8
0
100
AcDbDimension
 62
2
  6
CONTINUOUS
  2
*D2
 10
30.1298974284
 20
256.6702077555
 11
28.8678048135
 21
189.4509343788
 70
160
  1
%%c<>
  3
DIMSTYLE_3
100
AcDbAlignedDimension
 13
60.9725362537
 23
127.6702077555
 14
57.4537358476
 24
256.6702077555
 50
90.0
100
AcDbRotatedDimension
  0
DIMENSION
  5
289
100
AcDbEntity
  8
0
100
AcDbDimension
 62
2
  6
CONTINUOUS
  2
*D3
 10
44.1801901697
 20
212.1702077555
 11
42.6380459439
 21
190.0096934686
 70
160
  1
%%c<>
  3
DIMSTYLE_2
100
AcDbAlignedDimension
 13
68.7511174112
 23
172.1702077555
 14
68.9270574315
 24
212.1702077555
 50
90.0
100
AcDbRotatedDimension
  0
DIMENSION
  5
28A
100
AcDbEntity
  8
0
100
AcDbDimension
 62
2
  6
CONTINUOUS
  2
*D4
 10
64.068023156
 20
264.1474618691
 11
84.7181448873
 21
266.7724618691
 70
160
  3
DIMSTYLE_2
100
AcDbAlignedDimension
 13
108.068023156
 23
243.7313037414
 14
64.068023156
 24
243.7248512125
 50
180.0
100
AcDbRotatedDimension
  0
DIMENSION
  5
28B
100
AcDbEntity
  8
0
100
AcDbDimension
 62
2
  6
CONTINUOUS
  2
*D5
 10
115.6893431938
 20
274.4936105555
 11
80.2540780866
 21
277.1186105555
 70
160
  3
DIMSTYLE_2
100
AcDbAlignedDimension
 13
56.1893431938
 23
257.1702077555
 14
115.6893431938
 24
257.1702077555
100
AcDbRotatedDimension
  0
LINE
  5
28C
100
AcDbEntity
  8
0
100
AcDbLine
 62
7
  6
CONTINUOUS
 10
5.0
 20
65.0
 11
205.0
 21
65.0
  0
LINE
  5
28D
100
AcDbEntity
  8
0
100
AcDbLine
 62
7
  6
CONTINUOUS
 10
5.0
 20
65.0
 11
5.0
 21
5.0
  0
LINE
  5
28E
100
AcDbEntity
  8
0
100
AcDbLine
 62
7
  6
CONTINUOUS
 10
5.0
 20
55.0
 11
182.0
 21
55.0
  0
LINE
  5
28F
100
AcDbEntity
  8
0
100
AcDbLine
 62
7
  6
CONTINUOUS
 10
55.0
 20
45.0
 11
182.0
 21
45.0
  0
LINE
  5
290
100
AcDbEntity
  8
0
100
AcDbLine
 62
7
  6
CONTINUOUS
 10
5.0
 20
35.0
 11
182.0
 21
35.0
  0
LINE
  5
291
100
AcDbEntity
  8
0
100
AcDbLine
 62
7
  6
CONTINUOUS
 10
5.0
 20
25.0
 11
55.0
 21
25.0
  0
LINE
  5
292
100
AcDbEntity
  8
0
100
AcDbLine
 62
7
  6
CONTINUOUS
 10
157.0
 20
25.0
 11
182.0
 21
25.0
  0
LINE
  5
293
100
AcDbEntity
  8
0
100
AcDbLine
 62
7
  6
CONTINUOUS
 10
5.0
 20
15.0
 11
205.0
 21
15.0
  0
LINE
  5
294
100
AcDbEntity
  8
0
100
AcDbLine
 62
7
  6
CONTINUOUS
 10
5.0
 20
5.0
 11
205.0
 21
5.0
  0
LINE
  5
295
100
AcDbEntity
  8
0
100
AcDbLine
 62
7
  6
CONTINUOUS
 10
55.0
 20
55.0
 11
55.0
 21
15.0
  0
LINE
  5
296
100
AcDbEntity
  8
0
100
AcDbLine
 62
7
  6
CONTINUOUS
 10
89.0
 20
15.0
 11
89.0
 21
5.0
  0
LINE
  5
297
100
AcDbEntity
  8
0
100
AcDbLine
 62
7
  6
CONTINUOUS
 10
93.0
 20
65.0
 11
93.0
 21
55.0
  0
LINE
  5
298
100
AcDbEntity
  8
0
100
AcDbLine
 62
7
  6
CONTINUOUS
 10
115.0
 20
55.0
 11
115.0
 21
35.0
  0
LINE
  5
299
100
AcDbEntity
  8
0
100
AcDbLine
 62
7
  6
CONTINUOUS
 10
135.0
 20
55.0
 11
135.0
 21
35.0
  0
LINE
  5
29A
100
AcDbEntity
  8
0
100
AcDbLine
 62
7
  6
CONTINUOUS
 10
157.0
 20
55.0
 11
157.0
 21
5.0
  0
LINE
  5
29B
100
AcDbEntity
  8
0
100
AcDbLine
 62
7
  6
CONTINUOUS
 10
182.0
 20
65.0
 11
182.0
 21
5.0
  0
LINE
  5
29C
100
AcDbEntity
  8
0
100
AcDbLine
 62
7
  6
CONTINUOUS
 10
205.0
 20
65.0
 11
205.0
 21
5.0
  0
MTEXT
  5
29D
100
AcDbEntity
  8
0
100
AcDbMText
 62
2
  6
CONTINUOUS
  7
TEXTSTYLE_4
 71
1
 72
1
 10
6.250025
 20
64.2345733881
 30
0.0
 11
1.0
 21
0.0
 31
0.0
  1
\Q10.0;Tratt. Termici (Heat treatments)
 40
2.0
 41
35.2
  0
MTEXT
  5
29E
100
AcDbEntity
  8
0
100
AcDbMText
 62
2
  6
CONTINUOUS
  7
TEXTSTYLE_4
 71
1
 72
1
 10
94.250025
 20
64.2345733881
 30
0.0
 11
1.0
 21
0.0
 31
0.0
  1
\Q10.0;Tratt. Superficiali (Surface Treatments)
 40
2.0
 41
44.0
  0
MTEXT
  5
29F
100
AcDbEntity
  8
0
100
AcDbMText
 62
2
  6
CONTINUOUS
  7
TEXTSTYLE_5
 71
1
 72
1
 10
182.7060686764
 20
16.48
 30
0.0
 11
0.0
 21
1.0
 31
0.0
  3
\Q10.0;Proprietà della Marbett S.p.A..\PSenza autorizzazione scritta della\Pstessa il presente disegno non può\Pessere comunque utilizzato per la\Pcostruzione dell'oggetto rappresentato,\Pnè venire comunicato a terzi o\Priprodotto. La società proprie
  1
taria\Ptutela i propri diritti a rigore di legge.
 40
1.6
 41
47.04
  0
MTEXT
  5
2A0
100
AcDbEntity
  8
0
100
AcDbMText
 62
2
  6
CONTINUOUS
  7
TEXTSTYLE_6
 71
2
 72
1
 10
49.0
 20
60.75
 30
0.0
 11
1.0
 21
0.0
 31
0.0
  1
\Q10.0;-
 40
4.0
 41
2.4
  0
MTEXT
  5
2A1
100
AcDbEntity
  8
0
100
AcDbMText
 62
2
  6
CONTINUOUS
  7
TEXTSTYLE_6
 71
2
 72
1
 10
137.5
 20
60.75
 30
0.0
 11
1.0
 21
0.0
 31
0.0
  1
\Q10.0;-
 40
4.0
 41
2.4
  0
MTEXT
  5
2A2
100
AcDbEntity
  8
0
100
AcDbMText
 62
2
  6
CONTINUOUS
  7
TEXTSTYLE_7
 71
2
 72
1
 10
30.0
 20
50.3173208162
 30
0.0
 11
1.0
 21
0.0
 31
0.0
  1
\Q10.0;Rexnord Marbett S.p.A.\P\H3.5;{\W0.7;- Ufficio Tecnico -}
 40
5.0
 41
46.0052083333
  0
MTEXT
  5
2A3
100
AcDbEntity
  8
0
100
AcDbMText
 62
2
  6
CONTINUOUS
  7
TEXTSTYLE_4
 71
1
 72
1
 10
56.250025
 20
54.2345733881
 30
0.0
 11
1.0
 21
0.0
 31
0.0
  1
\Q10.0;Linea (Line)
 40
2.0
 41
13.2
  0
MTEXT
  5
2A4
100
AcDbEntity
  8
0
100
AcDbMText
 62
2
  6
CONTINUOUS
  7
TEXTSTYLE_4
 71
1
 72
1
 10
116.250025
 20
54.2345733881
 30
0.0
 11
1.0
 21
0.0
 31
0.0
  1
\Q10.0;Peso (Weight) Kg
 40
2.0
 41
17.6
  0
MTEXT
  5
2A5
100
AcDbEntity
  8
0
100
AcDbMText
 62
2
  6
CONTINUOUS
  7
TEXTSTYLE_4
 71
1
 72
1
 10
136.250025
 20
54.2345733881
 30
0.0
 11
1.0
 21
0.0
 31
0.0
  1
\Q10.0;Tol.Gen.(Gen.Tol.)
 40
2.0
 41
19.8
  0
MTEXT
  5
2A6
100
AcDbEntity
  8
0
100
AcDbMText
 62
2
  6
CONTINUOUS
  7
TEXTSTYLE_4
 71
1
 72
1
 10
158.250025
 20
54.2345733881
 30
0.0
 11
1.0
 21
0.0
 31
0.0
  1
\Q10.0;Scala (Scale)
 40
2.0
 41
14.3
  0
MTEXT
  5
2A7
100
AcDbEntity
  8
0
100
AcDbMText
 62
2
  6
CONTINUOUS
  7
TEXTSTYLE_6
 71
2
 72
1
 10
85.0
 20
50.75
 30
0.0
 11
1.0
 21
0.0
 31
0.0
  1
\Q10.0;TableTop
 40
4.0
 41
19.2
  0
MTEXT
  5
2A8
100
AcDbEntity
  8
0
100
AcDbMText
 62
2
  6
CONTINUOUS
  7
TEXTSTYLE_6
 71
2
 72
1
 10
125.0
 20
50.75
 30
0.0
 11
1.0
 21
0.0
 31
0.0
  1
\Q10.0;0.138
 40
4.0
 41
12.0
  0
MTEXT
  5
2A9
100
AcDbEntity
  8
0
100
AcDbMText
 62
2
  6
CONTINUOUS
  7
TEXTSTYLE_9
 71
2
 72
1
 10
146.0
 20
50.75
 30
0.0
 11
1.0
 21
0.0
 31
0.0
  1
\Q10.0;{\Fgdt;`}\Ftxt;0.2
 40
4.0
 41
11.8666666667
  0
MTEXT
  5
2AA
100
AcDbEntity
  8
0
100
AcDbMText
 62
2
  6
CONTINUOUS
  7
TEXTSTYLE_6
 71
2
 72
1
 10
169.5
 20
50.75
 30
0.0
 11
1.0
 21
0.0
 31
0.0
  1
\Q10.0;1/1
 40
4.0
 41
7.2
  0
MTEXT
  5
2AB
100
AcDbEntity
  8
0
100
AcDbMText
 62
2
  6
CONTINUOUS
  7
TEXTSTYLE_4
 71
1
 72
1
 10
56.250025
 20
44.2345733881
 30
0.0
 11
1.0
 21
0.0
 31
0.0
  1
\Q10.0;Materiale (Material)
 40
2.0
 41
22.0
  0
MTEXT
  5
2AC
100
AcDbEntity
  8
0
100
AcDbMText
 62
2
  6
CONTINUOUS
  7
TEXTSTYLE_4
 71
1
 72
1
 10
116.250025
 20
44.2345733881
 30
0.0
 11
1.0
 21
0.0
 31
0.0
  1
\Q10.0;Colore (Color)
 40
2.0
 41
15.4
  0
MTEXT
  5
2AD
100
AcDbEntity
  8
0
100
AcDbMText
 62
2
  6
CONTINUOUS
  7
TEXTSTYLE_4
 71
1
 72
1
 10
136.250025
 20
44.2345733881
 30
0.0
 11
1.0
 21
0.0
 31
0.0
  1
\Q10.0;Ritiro (Contr.)%
 40
2.0
 41
17.6
  0
MTEXT
  5
2AE
100
AcDbEntity
  8
0
100
AcDbMText
 62
2
  6
CONTINUOUS
  7
TEXTSTYLE_4
 71
1
 72
1
 10
158.250025
 20
44.2345733881
 30
0.0
 11
1.0
 21
0.0
 31
0.0
  1
\Q10.0;Dis. (Designer)
 40
2.0
 41
16.5
  0
MTEXT
  5
2AF
100
AcDbEntity
  8
0
100
AcDbMText
 62
2
  6
CONTINUOUS
  7
TEXTSTYLE_6
 71
2
 72
1
 10
85.0
 20
40.75
 30
0.0
 11
1.0
 21
0.0
 31
0.0
  1
\Q10.0;PA6+30%FV
 40
4.0
 41
21.6
  0
MTEXT
  5
2B0
100
AcDbEntity
  8
0
100
AcDbMText
 62
2
  6
CONTINUOUS
  7
TEXTSTYLE_6
 71
2
 72
1
 10
169.5
 20
40.75
 30
0.0
 11
1.0
 21
0.0
 31
0.0
  1
\Q10.0;Lanza
 40
4.0
 41
12.0
  0
MTEXT
  5
2B1
100
AcDbEntity
  8
0
100
AcDbMText
 62
2
  6
CONTINUOUS
  7
TEXTSTYLE_4
 71
1
 72
1
 10
6.250025
 20
34.2345733881
 30
0.0
 11
1.0
 21
0.0
 31
0.0
  1
\Q10.0;Dis. Complessivo (Assembly Drawing)
 40
2.0
 41
38.5
  0
MTEXT
  5
2B2
100
AcDbEntity
  8
0
100
AcDbMText
 62
2
  6
CONTINUOUS
  7
TEXTSTYLE_4
 71
1
 72
1
 10
56.250025
 20
34.2345733881
 30
0.0
 11
1.0
 21
0.0
 31
0.0
  1
\Q10.0;Descrizione (Description)
 40
2.0
 41
27.5
  0
MTEXT
  5
2B3
100
AcDbEntity
  8
0
100
AcDbMText
 62
2
  6
CONTINUOUS
  7
TEXTSTYLE_4
 71
1
 72
1
 10
158.250025
 20
34.2345733881
 30
0.0
 11
1.0
 21
0.0
 31
0.0
  1
\Q10.0;Data (Date)
 40
2.0
 41
12.1
  0
MTEXT
  5
2B4
100
AcDbEntity
  8
0
100
AcDbMText
 62
2
  6
CONTINUOUS
  7
TEXTSTYLE_6
 71
2
 72
1
 10
106.0
 20
27.6549009608
 30
0.0
 11
1.0
 21
0.0
 31
0.0
  1
\Q10.0;Ruota di rinvio\PNXT820 T21 R25
 40
4.0
 41
36.0
  0
MTEXT
  5
2B5
100
AcDbEntity
  8
0
100
AcDbMText
 62
2
  6
CONTINUOUS
  7
TEXTSTYLE_6
 71
2
 72
1
 10
169.5
 20
30.75
 30
0.0
 11
1.0
 21
0.0
 31
0.0
  1
\Q10.0;11-02-08
 40
4.0
 41
19.2
  0
MTEXT
  5
2B6
100
AcDbEntity
  8
0
100
AcDbMText
 62
2
  6
CONTINUOUS
  7
TEXTSTYLE_4
 71
1
 72
1
 10
6.250025
 20
24.2345733881
 30
0.0
 11
1.0
 21
0.0
 31
0.0
  1
\Q10.0;Fase di Sviluppo (Development Status)
 40
2.0
 41
40.7
  0
MTEXT
  5
2B7
100
AcDbEntity
  8
0
100
AcDbMText
 62
2
  6
CONTINUOUS
  7
TEXTSTYLE_4
 71
1
 72
1
 10
158.250025
 20
24.2345733881
 30
0.0
 11
1.0
 21
0.0
 31
0.0
  1
\Q10.0;Contr. (Check)
 40
2.0
 41
15.4
  0
MTEXT
  5
2B8
100
AcDbEntity
  8
0
100
AcDbMText
 62
2
  6
CONTINUOUS
  7
TEXTSTYLE_4
 71
1
 72
1
 10
6.250025
 20
14.2345733881
 30
0.0
 11
1.0
 21
0.0
 31
0.0
  1
\Q10.0;Disegno o stp. (Drawing or mold)
 40
2.0
 41
35.2
  0
MTEXT
  5
2B9
100
AcDbEntity
  8
0
100
AcDbMText
 62
2
  6
CONTINUOUS
  7
TEXTSTYLE_4
 71
1
 72
1
 10
90.250025
 20
14.2345733881
 30
0.0
 11
1.0
 21
0.0
 31
0.0
  1
\Q10.0;Progetto (Project)
 40
2.0
 41
19.8
  0
MTEXT
  5
2BA
100
AcDbEntity
  8
0
100
AcDbMText
 62
2
  6
CONTINUOUS
  7
TEXTSTYLE_4
 71
1
 72
1
 10
158.250025
 20
14.2345733881
 30
0.0
 11
1.0
 21
0.0
 31
0.0
  1
\Q10.0;Data (Date)
 40
2.0
 41
12.1
  0
MTEXT
  5
2BB
100
AcDbEntity
  8
0
100
AcDbMText
 62
2
  6
CONTINUOUS
  7
TEXTSTYLE_4
 71
1
 72
1
 10
183.250025
 20
14.2345733881
 30
0.0
 11
1.0
 21
0.0
 31
0.0
  1
\Q10.0;Foglio (Sheet)
 40
2.0
 41
15.4
  0
MTEXT
  5
2BC
100
AcDbEntity
  8
0
100
AcDbMText
 62
2
  6
CONTINUOUS
  7
TEXTSTYLE_6
 71
2
 72
1
 10
47.0
 20
10.75
 30
0.0
 11
1.0
 21
0.0
 31
0.0
  1
\Q10.0;NXT820T21R25
 40
4.0
 41
28.8
  0
MTEXT
  5
2BD
100
AcDbEntity
  8
0
100
AcDbMText
 62
2
  6
CONTINUOUS
  7
TEXTSTYLE_6
 71
3
 72
1
 10
203.749975
 20
10.75
 30
0.0
 11
1.0
 21
0.0
 31
0.0
  1
\Q10.0;1/1
 40
4.0
 41
7.2
  0
LINE
  5
2BE
100
AcDbEntity
  8
0
100
AcDbLine
 62
7
  6
CONTINUOUS
 10
197.0
 20
292.0
 11
205.0
 21
292.0
  0
LINE
  5
2BF
100
AcDbEntity
  8
0
100
AcDbLine
 62
7
  6
CONTINUOUS
 10
197.0
 20
292.0
 11
197.0
 21
65.0
  0
LINE
  5
2C0
100
AcDbEntity
  8
0
100
AcDbLine
 62
7
  6
CONTINUOUS
 10
197.0
 20
115.0
 11
205.0
 21
115.0
  0
LINE
  5
2C1
100
AcDbEntity
  8
0
100
AcDbLine
 62
7
  6
CONTINUOUS
 10
197.0
 20
95.0
 11
205.0
 21
95.0
  0
LINE
  5
2C2
100
AcDbEntity
  8
0
100
AcDbLine
 62
7
  6
CONTINUOUS
 10
197.0
 20
75.0
 11
205.0
 21
75.0
  0
LINE
  5
2C3
100
AcDbEntity
  8
0
100
AcDbLine
 62
7
  6
CONTINUOUS
 10
197.0
 20
65.0
 11
205.0
 21
65.0
  0
LINE
  5
2C4
100
AcDbEntity
  8
0
100
AcDbLine
 62
7
  6
CONTINUOUS
 10
205.0
 20
292.0
 11
205.0
 21
65.0
  0
MTEXT
  5
2C5
100
AcDbEntity
  8
0
100
AcDbMText
 62
2
  6
CONTINUOUS
  7
TEXTSTYLE_4
 71
1
 72
1
 10
197.7731649178
 20
116.75
 30
0.0
 11
0.0
 21
1.0
 31
0.0
  1
\Q10.0;Modifica (Modification)
 40
2.0
 41
25.3
  0
MTEXT
  5
2C6
100
AcDbEntity
  8
0
100
AcDbMText
 62
2
  6
CONTINUOUS
  7
TEXTSTYLE_4
 71
1
 72
1
 10
197.7731649178
 20
96.75
 30
0.0
 11
0.0
 21
1.0
 31
0.0
  1
\Q10.0;Dis. (Designer)
 40
2.0
 41
16.5
  0
MTEXT
  5
2C7
100
AcDbEntity
  8
0
100
AcDbMText
 62
2
  6
CONTINUOUS
  7
TEXTSTYLE_4
 71
1
 72
1
 10
197.7731649178
 20
78.95
 30
0.0
 11
0.0
 21
1.0
 31
0.0
  1
\Q10.0;Data (Date)
 40
2.0
 41
12.1
  0
MTEXT
  5
2C8
100
AcDbEntity
  8
0
100
AcDbMText
 62
2
  6
CONTINUOUS
  7
TEXTSTYLE_4
 71
1
 72
1
 10
197.7731649178
 20
67.8
 30
0.0
 11
0.0
 21
1.0
 31
0.0
  1
\Q10.0;Rev.
 40
2.0
 41
4.4
  0
MTEXT
  5
2C9
100
AcDbEntity
  8
0
100
AcDbMText
 62
2
  6
CONTINUOUS
  7
STANDARD
 71
1
 72
1
 10
75.7125390701
 20
102.1475273431
 30
0.0
 11
1.0
 21
0.0
 31
0.0
  1
SEZIONE A-A
 40
3.5
 41
27.50055
  0
LINE
  5
2CA
100
AcDbEntity
  8
0
100
AcDbLine
 62
2
  6
CONTINUOUS
 10
210.0
 20
0.0
 11
205.0
 21
0.0
  0
LINE
  5
2CB
100
AcDbEntity
  8
0
100
AcDbLine
 62
2
  6
CONTINUOUS
 10
-0.0
 20
0.0
 11
5.0
 21
0.0
  0
LINE
  5
2CC
100
AcDbEntity
  8
0
100
AcDbLine
 62
7
  6
CONTINUOUS
 10
5.0
 20
5.0
 11
205.0
 21
5.0
  0
LINE
  5
2CD
100
AcDbEntity
  8
0
100
AcDbLine
 62
2
  6
CONTINUOUS
 10
-0.0
 20
297.0
 11
-0.0
 21
292.0
  0
LINE
  5
2CE
100
AcDbEntity
  8
0
100
AcDbLine
 62
2
  6
CONTINUOUS
 10
-0.0
 20
5.0
 11
-0.0
 21
0.0
  0
LINE
  5
2CF
100
AcDbEntity
  8
0
100
AcDbLine
 62
7
  6
CONTINUOUS
 10
5.0
 20
292.0
 11
5.0
 21
5.0
  0
LINE
  5
2D0
100
AcDbEntity
  8
0
100
AcDbLine
 62
7
  6
CONTINUOUS
 10
205.0
 20
5.0
 11
205.0
 21
292.0
  0
LINE
  5
2D1
100
AcDbEntity
  8
0
100
AcDbLine
 62
2
  6
CONTINUOUS
 10
210.0
 20
297.0
 11
210.0
 21
292.0
  0
LINE
  5
2D2
100
AcDbEntity
  8
0
100
AcDbLine
 62
2
  6
CONTINUOUS
 10
210.0
 20
5.0
 11
210.0
 21
0.0
  0
LINE
  5
2D3
100
AcDbEntity
  8
0
100
AcDbLine
 62
7
  6
CONTINUOUS
 10
205.0
 20
292.0
 11
5.0
 21
292.0
  0
LINE
  5
2D4
100
AcDbEntity
  8
0
100
AcDbLine
 62
2
  6
CONTINUOUS
 10
5.0
 20
297.0
 11
-0.0
 21
297.0
  0
LINE
  5
2D5
100
AcDbEntity
  8
0
100
AcDbLine
 62
2
  6
CONTINUOUS
 10
205.0
 20
297.0
 11
210.0
 21
297.0
  0
LINE
  5
2D6
100
AcDbEntity
  8
0
100
AcDbLine
 62
7
  6
CONTINUOUS
 10
56.1893431938
 20
127.6702077555
 11
63.3793431938
 21
127.6702077555
  0
LINE
  5
2D7
100
AcDbEntity
  8
0
100
AcDbLine
 62
7
  6
CONTINUOUS
 10
108.4993431938
 20
127.6702077555
 11
115.6893431938
 21
127.6702077555
  0
LINE
  5
2D8
100
AcDbEntity
  8
0
100
AcDbLine
 62
7
  6
CONTINUOUS
 10
64.7408164658
 20
140.726648111
 11
85.9393431938
 21
142.7102077555
  0
LINE
  5
2D9
100
AcDbEntity
  8
0
100
AcDbLine
 62
7
  6
CONTINUOUS
 10
85.9393431938
 20
142.7102077555
 11
107.1497769628
 21
140.9834004453
  0
LINE
  5
2DA
100
AcDbEntity
  8
0
100
AcDbLine
 62
7
  6
CONTINUOUS
 10
61.1893431938
 20
146.1702077555
 11
78.4393431938
 21
146.1702077555
  0
LINE
  5
2DB
100
AcDbEntity
  8
0
100
AcDbLine
 62
7
  6
CONTINUOUS
 10
93.4393431938
 20
146.1702077555
 11
110.6893431938
 21
146.1702077555
  0
LINE
  5
2DC
100
AcDbEntity
  8
0
100
AcDbLine
 62
7
  6
CONTINUOUS
 10
55.1893431938
 20
210.1702077555
 11
55.1893431938
 21
174.1702077555
  0
LINE
  5
2DD
100
AcDbEntity
  8
0
100
AcDbLine
 62
7
  6
CONTINUOUS
 10
56.1893431938
 20
256.6702077555
 11
56.1893431938
 21
211.1692210608
  0
LINE
  5
2DE
100
AcDbEntity
  8
0
100
AcDbLine
 62
7
  6
CONTINUOUS
 10
56.1893431938
 20
173.1711944502
 11
56.1893431938
 21
127.6702077555
  0
LINE
  5
2DF
100
AcDbEntity
  8
0
100
AcDbLine
 62
7
  6
CONTINUOUS
 10
61.1893431938
 20
238.1702077555
 11
61.1893431938
 21
211.3934741912
  0
LINE
  5
2E0
100
AcDbEntity
  8
0
100
AcDbLine
 62
7
  6
CONTINUOUS
 10
61.1893431938
 20
172.9469413198
 11
61.1893431938
 21
146.1702077555
  0
LINE
  5
2E1
100
AcDbEntity
  8
0
100
AcDbLine
 62
7
  6
CONTINUOUS
 10
63.3793431938
 20
256.6702077555
 11
64.068023156
 21
244.312365377
  0
LINE
  5
2E2
100
AcDbEntity
  8
0
100
AcDbLine
 62
7
  6
CONTINUOUS
 10
63.3793431938
 20
127.6702077555
 11
64.068023156
 21
140.028050134
  0
LINE
  5
2E3
100
AcDbEntity
  8
0
100
AcDbLine
 62
7
  6
CONTINUOUS
 10
93.2172837486
 20
172.1702077555
 11
115.7337550829
 21
173.1711944502
  0
LINE
  5
2E4
100
AcDbEntity
  8
0
100
AcDbLine
 62
7
  6
CONTINUOUS
 10
56.1449313048
 20
173.1711944502
 11
78.661402639
 21
172.1702077555
  0
LINE
  5
2E5
100
AcDbEntity
  8
0
100
AcDbLine
 62
7
  6
CONTINUOUS
 10
55.1893431938
 20
179.6702077555
 11
116.6893431938
 21
179.6702077555
  0
LINE
  5
2E6
100
AcDbEntity
  8
0
100
AcDbLine
 62
7
  6
CONTINUOUS
 10
78.4393431938
 20
238.1702077555
 11
78.4393431938
 21
212.1603359356
  0
LINE
  5
2E7
100
AcDbEntity
  8
0
100
AcDbLine
 62
7
  6
CONTINUOUS
 10
78.4393431938
 20
172.1800795754
 11
78.4393431938
 21
146.1702077555
  0
LINE
  5
2E8
100
AcDbEntity
  8
0
100
AcDbLine
 62
7
  6
CONTINUOUS
 10
83.4393431938
 20
233.1702077555
 11
83.4393431938
 21
217.1652742819
  0
LINE
  5
2E9
100
AcDbEntity
  8
0
100
AcDbLine
 62
7
  6
CONTINUOUS
 10
83.4393431938
 20
167.1751412291
 11
83.4393431938
 21
151.1702077555
  0
LINE
  5
2EA
100
AcDbEntity
  8
ASSI
100
AcDbLine
 62
2
  6
CENTER
 10
119.6893431938
 20
192.1702077555
 11
52.1893431938
 21
192.1702077555
  0
LINE
  5
2EB
100
AcDbEntity
  8
0
100
AcDbLine
 62
7
  6
CONTINUOUS
 10
88.4393431938
 20
233.1702077555
 11
88.4393431938
 21
217.1652742819
  0
LINE
  5
2EC
100
AcDbEntity
  8
0
100
AcDbLine
 62
7
  6
CONTINUOUS
 10
88.4393431938
 20
167.1751412291
 11
88.4393431938
 21
151.1702077555
  0
LINE
  5
2ED
100
AcDbEntity
  8
0
100
AcDbLine
 62
7
  6
CONTINUOUS
 10
93.4393431938
 20
238.1702077555
 11
93.4393431938
 21
212.1603359356
  0
LINE
  5
2EE
100
AcDbEntity
  8
0
100
AcDbLine
 62
7
  6
CONTINUOUS
 10
93.4393431938
 20
172.1800795754
 11
93.4393431938
 21
146.1702077555
  0
LINE
  5
2EF
100
AcDbEntity
  8
0
100
AcDbLine
 62
7
  6
CONTINUOUS
 10
55.1893431938
 20
204.6702077555
 11
116.6893431938
 21
204.6702077555
  0
LINE
  5
2F0
100
AcDbEntity
  8
0
100
AcDbLine
 62
7
  6
CONTINUOUS
 10
108.068023156
 20
140.0215976051
 11
108.4993431938
 21
127.6702077555
  0
LINE
  5
2F1
100
AcDbEntity
  8
0
100
AcDbLine
 62
7
  6
CONTINUOUS
 10
108.068023156
 20
244.3188179059
 11
108.4993431938
 21
256.6702077555
  0
LINE
  5
2F2
100
AcDbEntity
  8
0
100
AcDbLine
 62
7
  6
CONTINUOUS
 10
56.1449313048
 20
211.1692210608
 11
78.661402639
 21
212.1702077555
  0
LINE
  5
2F3
100
AcDbEntity
  8
0
100
AcDbLine
 62
7
  6
CONTINUOUS
 10
93.2172837486
 20
212.1702077555
 11
115.7337550829
 21
211.1692210608
  0
LINE
  5
2F4
100
AcDbEntity
  8
0
100
AcDbLine
 62
7
  6
CONTINUOUS
 10
110.6893431938
 20
238.1702077555
 11
110.6893431938
 21
211.3934741912
  0
LINE
  5
2F5
100
AcDbEntity
  8
0
100
AcDbLine
 62
7
  6
CONTINUOUS
 10
110.6893431938
 20
172.9469413198
 11
110.6893431938
 21
146.1702077555
  0
LINE
  5
2F6
100
AcDbEntity
  8
0
100
AcDbLine
 62
7
  6
CONTINUOUS
 10
115.6893431938
 20
256.6702077555
 11
115.6893431938
 21
211.1692210608
  0
LINE
  5
2F7
100
AcDbEntity
  8
0
100
AcDbLine
 62
7
  6
CONTINUOUS
 10
115.6893431938
 20
173.1711944502
 11
115.6893431938
 21
127.6702077555
  0
LINE
  5
2F8
100
AcDbEntity
  8
0
100
AcDbLine
 62
7
  6
CONTINUOUS
 10
116.6893431938
 20
210.1702077555
 11
116.6893431938
 21
174.1702077555
  0
LINE
  5
2F9
100
AcDbEntity
  8
0
100
AcDbLine
 62
7
  6
CONTINUOUS
 10
61.1893431938
 20
238.1702077555
 11
78.4393431938
 21
238.1702077555
  0
LINE
  5
2FA
100
AcDbEntity
  8
0
100
AcDbLine
 62
7
  6
CONTINUOUS
 10
93.4393431938
 20
238.1702077555
 11
110.6893431938
 21
238.1702077555
  0
LINE
  5
2FB
100
AcDbEntity
  8
0
100
AcDbLine
 62
7
  6
CONTINUOUS
 10
85.9393431938
 20
241.6302077555
 11
107.1497769628
 21
243.3570150657
  0
LINE
  5
2FC
100
AcDbEntity
  8
0
100
AcDbLine
 62
7
  6
CONTINUOUS
 10
64.7408164658
 20
243.6137674
 11
85.9393431938
 21
241.6302077555
  0
LINE
  5
2FD
100
AcDbEntity
  8
0
100
AcDbLine
 62
7
  6
CONTINUOUS
 10
56.1893431938
 20
256.6702077555
 11
63.3793431938
 21
256.6702077555
  0
LINE
  5
2FE
100
AcDbEntity
  8
0
100
AcDbLine
 62
7
  6
CONTINUOUS
 10
108.4993431938
 20
256.6702077555
 11
115.6893431938
 21
256.6702077555
  0
ARC
  5
2FF
100
AcDbEntity
  8
0
100
AcDbCircle
 62
7
  6
CONTINUOUS
 10
78.4393431938
 20
167.1751412291
 40
5.0
100
AcDbArc
 50
0.0
 51
87.4545489484
  0
ARC
  5
300
100
AcDbEntity
  8
0
100
AcDbCircle
 62
7
  6
CONTINUOUS
 10
61.1893431938
 20
141.1702077555
 40
5.0
100
AcDbArc
 50
90.0
 51
180.0
  0
ARC
  5
301
100
AcDbEntity
  8
0
100
AcDbCircle
 62
7
  6
CONTINUOUS
 10
78.4393431938
 20
151.1702077555
 40
5.0
100
AcDbArc
 50
270.0
 51
360.0
  0
ARC
  5
302
100
AcDbEntity
  8
0
100
AcDbCircle
 62
7
  6
CONTINUOUS
 10
56.1893431938
 20
174.1702077555
 40
1.0
100
AcDbArc
 50
180.0
 51
267.4545489484
  0
ARC
  5
303
100
AcDbEntity
  8
0
100
AcDbCircle
 62
7
  6
CONTINUOUS
 10
64.8100540587
 20
139.9866981084
 40
0.7431822459
100
AcDbArc
 50
95.3456376531
 51
176.8103102281
  0
ARC
  5
304
100
AcDbEntity
  8
0
100
AcDbCircle
 62
7
  6
CONTINUOUS
 10
78.4393431938
 20
217.1652742819
 40
5.0
100
AcDbArc
 50
272.5454510516
 51
360.0
  0
ARC
  5
305
100
AcDbEntity
  8
0
100
AcDbCircle
 62
7
  6
CONTINUOUS
 10
61.1893431938
 20
243.1702077555
 40
5.0
100
AcDbArc
 50
180.0
 51
270.0
  0
ARC
  5
306
100
AcDbEntity
  8
0
100
AcDbCircle
 62
7
  6
CONTINUOUS
 10
78.4393431938
 20
233.1702077555
 40
5.0
100
AcDbArc
 50
0.0
 51
90.0
  0
ARC
  5
307
100
AcDbEntity
  8
0
100
AcDbCircle
 62
7
  6
CONTINUOUS
 10
56.1893431938
 20
210.1702077555
 40
1.0
100
AcDbArc
 50
92.5454510516
 51
180.0
  0
ARC
  5
308
100
AcDbEntity
  8
0
100
AcDbCircle
 62
7
  6
CONTINUOUS
 10
64.8100540587
 20
244.3537174026
 40
0.7431822459
100
AcDbArc
 50
183.1896897719
 51
264.6543623469
  0
ARC
  5
309
100
AcDbEntity
  8
0
100
AcDbCircle
 62
7
  6
CONTINUOUS
 10
110.6893431938
 20
141.1702077555
 40
5.0
100
AcDbArc
 50
0.0
 51
90.0
  0
ARC
  5
30A
100
AcDbEntity
  8
0
100
AcDbCircle
 62
7
  6
CONTINUOUS
 10
93.4393431938
 20
151.1702077555
 40
5.0
100
AcDbArc
 50
180.0
 51
270.0
  0
ARC
  5
30B
100
AcDbEntity
  8
0
100
AcDbCircle
 62
7
  6
CONTINUOUS
 10
93.4393431938
 20
167.1751412291
 40
5.0
100
AcDbArc
 50
92.5454510516
 51
180.0
  0
ARC
  5
30C
100
AcDbEntity
  8
0
100
AcDbCircle
 62
7
  6
CONTINUOUS
 10
107.068632329
 20
139.9866981084
 40
1.0
100
AcDbArc
 50
2.0
 51
85.3456376531
  0
ARC
  5
30D
100
AcDbEntity
  8
0
100
AcDbCircle
 62
7
  6
CONTINUOUS
 10
115.6893431938
 20
174.1702077555
 40
1.0
100
AcDbArc
 50
272.5454510516
 51
360.0
  0
ARC
  5
30E
100
AcDbEntity
  8
0
100
AcDbCircle
 62
7
  6
CONTINUOUS
 10
93.4393431938
 20
217.1652742819
 40
5.0
100
AcDbArc
 50
180.0
 51
267.4545489484
  0
ARC
  5
30F
100
AcDbEntity
  8
0
100
AcDbCircle
 62
7
  6
CONTINUOUS
 10
110.6893431938
 20
243.1702077555
 40
5.0
100
AcDbArc
 50
270.0
 51
360.0
  0
ARC
  5
310
100
AcDbEntity
  8
0
100
AcDbCircle
 62
7
  6
CONTINUOUS
 10
93.4393431938
 20
233.1702077555
 40
5.0
100
AcDbArc
 50
90.0
 51
180.0
  0
ARC
  5
311
100
AcDbEntity
  8
0
100
AcDbCircle
 62
7
  6
CONTINUOUS
 10
115.6893431938
 20
210.1702077555
 40
1.0
100
AcDbArc
 50
0.0
 51
87.4545489484
  0
ARC
  5
312
100
AcDbEntity
  8
0
100
AcDbCircle
 62
7
  6
CONTINUOUS
 10
107.068632329
 20
244.3537174026
 40
1.0
100
AcDbArc
 50
274.6543623469
 51
358.0
  0
ENDSEC
  0
SECTION
  2
OBJECTS
  0
DICTIONARY
  5
313
100
AcDbDictionary
  3
ACAD_GROUP
350
314
  3
ACAD_MLINESTYLE
350
315
  0
DICTIONARY
  5
314
102
{ACAD_REACTORS
330
313
102
}
100
AcDbDictionary
  0
DICTIONARY
  5
315
102
{ACAD_REACTORS
330
313
102
}
100
AcDbDictionary
  3
STANDARD
350
316
  0
MLINESTYLE
  5
316
102
{ACAD_REACTORS
330
315
102
}
100
AcDbMlineStyle
  2
STANDARD
 70
0
  3

 62
256
 51
90.0
 52
90.0
 71
2
 49
0.5
 62
256
  6
BYLAYER
 49
-0.5
 62
256
  6
BYLAYER
  0
ENDSEC
  0
EOF
