999
DXF file: nsxt820t23r25.dxf
999
Pro/ENGINEER 2005310 by Parametric Technology Corporation
0
SECTION
2
HEADER
9
$ACADVER
1
AC1015
9
$DWGCODEPAGE
3
ANSI_1252
9
$EXTMAX
10
420.0000000000
20
297.0000000000
30
0.0000000000
9
$EXTMIN
10
0.0000000000
20
0.0000000000
30
0.0000000000
9
$LIMMIN
10
0.0000000000
20
0.0000000000
9
$LIMMAX
10
420.0000000000
20
297.0000000000
9
$VIEWCTR
10
210.0000000000
20
148.5000000000
9
$VIEWSIZE
40
297.0000000000
9
$CLAYER
8
0
9
$LTSCALE
40
23.1000000000
9
$CELTYPE
6
BYLAYER
9
$DIMSCALE
40
1
9
$DIMASZ
40
3.5000000000
9
$DIMEXO
40
2.6250000000
9
$DIMDLI
40
15.9600000000
9
$DIMEXE
40
7.5600000000
9
$DIMCEN
40
3.7800000000
9
$DIMLFAC
40
1.0000000000
9
$DIMBLK
1
_FILLED
9
$DIMTXT
40
3.5000000000
9
$DIMTOL
70
1
9
$DIMLIM
70
0
9
$DIMTFAC
40
1.0000000000
9
$DIMTP
40
0.0010000000
9
$DIMTM
40
0.0010000000
9
$PDMODE
70
3
9
$PDSIZE
40
0.3125000000
9
$HANDSEED
5
4D6
9
$MEASUREMENT
70
1
9
$INSUNITS
70
4
0
ENDSEC
0
SECTION
2
CLASSES
0
CLASS
1
ACDBDICTIONARYWDFLT
2
AcDbDictionaryWithDefault
3
AutoCAD 2000
90
0
280
0
281
0
0
CLASS
1
ACDBPLACEHOLDER
2
AcDbPlaceHolder
3
AutoCAD 2000
90
0
280
0
281
0
0
CLASS
1
LAYOUT
2
AcDbLayout
3
AutoCAD 2000
90
0
280
0
281
0
0
ENDSEC
0
SECTION
2
TABLES
0
TABLE
2
VPORT
5
8
100
AcDbSymbolTable
70
2
0
VPORT
5
1F4
100
AcDbSymbolTableRecord
100
AcDbViewportTableRecord
2
*ACTIVE
70
0
10
0.0
20
0.0
11
1.0
21
1.0
12
210.0000000000
22
148.5000000000
13
0.0
23
0.0
14
1.0
24
1.0
15
0.0
25
0.0
16
0.0
26
0.0
36
1.0
17
0.0
27
0.0
37
0.0
40
297.0000000000
41
1.4141414141
42
50.0
43
0.0
44
0.0
50
0.0
51
0.0
71
0
72
100
73
1
74
1
75
0
76
0
77
0
78
0
0
ENDTAB
0
TABLE
2
LTYPE
5
5
100
AcDbSymbolTable
70
6
0
LTYPE
5
14
100
AcDbSymbolTableRecord
100
AcDbLinetypeTableRecord
2
BYBLOCK
70
0
3

72
65
73
0
40
0.0
0
LTYPE
5
15
100
AcDbSymbolTableRecord
100
AcDbLinetypeTableRecord
2
BYLAYER
70
0
3

72
65
73
0
40
0.0
0
LTYPE
5
16
100
AcDbSymbolTableRecord
100
AcDbLinetypeTableRecord
2
CONTINUOUS
70
64
3
Solid line
72
65
73
0
40
0
0
LTYPE
5
1F5
100
AcDbSymbolTableRecord
100
AcDbLinetypeTableRecord
2
CENTER
70
64
3
____ _ ____ _ ____ _ ____ _ ____ _ ____ _ ____
72
65
73
4
40
0.6
49
0.375
74
0
49
-0.075
74
0
49
0.075
74
0
49
-0.075
74
0
0
LTYPE
5
1F6
100
AcDbSymbolTableRecord
100
AcDbLinetypeTableRecord
2
HIDDEN
70
64
3
- - - - - - - - - - - - - - - - - - - -
72
65
73
2
40
0.2
49
0.1
74
0
49
-0.1
74
0
0
LTYPE
5
1F7
100
AcDbSymbolTableRecord
100
AcDbLinetypeTableRecord
2
PHANTOM
70
64
3
_____ _ _ _____ _ _ _____ _ _ _____
72
65
73
6
40
0.8
49
0.45
74
0
49
-0.05
74
0
49
0.1
74
0
49
-0.05
74
0
49
0.1
74
0
49
-0.05
74
0
0
LTYPE
5
1F8
100
AcDbSymbolTableRecord
100
AcDbLinetypeTableRecord
2
DOT
70
64
3
. . . . . . . . . . . . . . . . . . . .
72
65
73
2
40
0.2
49
0.1
74
0
49
-0.1
74
0
0
LTYPE
5
1F9
100
AcDbSymbolTableRecord
100
AcDbLinetypeTableRecord
2
DASHED
70
64
3
- - - - - - - - - - - - - - - - - - - -
72
65
73
2
40
0.2
49
0.1
74
0
49
-0.1
74
0
0
ENDTAB
0
TABLE
2
LAYER
5
2
100
AcDbSymbolTable
70
36
0
LAYER
5
10
100
AcDbSymbolTableRecord
100
AcDbLayerTableRecord
2
0
70
0
62
7
6
CONTINUOUS
370
-3
390
F
0
LAYER
5
1FA
100
AcDbSymbolTableRecord
100
AcDbLayerTableRecord
2
DEFAULT_1
70
0
62
7
6
CENTER
370
-3
390
F
0
LAYER
5
1FB
100
AcDbSymbolTableRecord
100
AcDbLayerTableRecord
2
DEFAULT_2
70
0
62
8
6
HIDDEN
370
-3
390
F
0
LAYER
5
1FC
100
AcDbSymbolTableRecord
100
AcDbLayerTableRecord
2
DEFAULT_3
70
0
62
7
6
PHANTOM
370
-3
390
F
0
LAYER
5
1FD
100
AcDbSymbolTableRecord
100
AcDbLayerTableRecord
2
_2D_DELETED_OBJS
70
0
62
7
6
CONTINUOUS
370
-3
390
F
0
LAYER
5
1FE
100
AcDbSymbolTableRecord
100
AcDbLayerTableRecord
2
ASSI
70
0
62
7
6
CONTINUOUS
370
-3
390
F
0
LAYER
5
1FF
100
AcDbSymbolTableRecord
100
AcDbLayerTableRecord
2
PIANI
70
0
62
7
6
CONTINUOUS
370
-3
390
F
0
LAYER
5
200
100
AcDbSymbolTableRecord
100
AcDbLayerTableRecord
2
PUNTI
70
0
62
7
6
CONTINUOUS
370
-3
390
F
0
ENDTAB
0
TABLE
2
STYLE
5
3
100
AcDbSymbolTable
70
1
0
STYLE
5
11
100
AcDbSymbolTableRecord
100
AcDbTextStyleTableRecord
2
STANDARD
70
0
40
0.0
41
0.7143000000
50
0.0
71
0
42
0.2
3
txt
4

0
ENDTAB
0
TABLE
2
VIEW
5
6
100
AcDbSymbolTable
70
0
0
ENDTAB
0
TABLE
2
UCS
5
7
100
AcDbSymbolTable
70
0
0
ENDTAB
0
TABLE
2
APPID
5
9
100
AcDbSymbolTable
70
1
0
APPID
5
201
100
AcDbSymbolTableRecord
100
AcDbRegAppTableRecord
2
ACAD
70
0
0
ENDTAB
0
TABLE
2
BLOCK_RECORD
5
1
100
AcDbSymbolTable
70
0
0
BLOCK_RECORD
5
1F
100
AcDbSymbolTableRecord
100
AcDbBlockTableRecord
2
*MODEL_SPACE
0
BLOCK_RECORD
5
1B
100
AcDbSymbolTableRecord
100
AcDbBlockTableRecord
2
*PAPER_SPACE
0
BLOCK_RECORD
5
202
100
AcDbSymbolTableRecord
100
AcDbBlockTableRecord
2
_FILLED
0
BLOCK_RECORD
5
203
100
AcDbSymbolTableRecord
100
AcDbBlockTableRecord
2
*D0
0
BLOCK_RECORD
5
204
100
AcDbSymbolTableRecord
100
AcDbBlockTableRecord
2
*D1
0
BLOCK_RECORD
5
205
100
AcDbSymbolTableRecord
100
AcDbBlockTableRecord
2
*D2
0
BLOCK_RECORD
5
206
100
AcDbSymbolTableRecord
100
AcDbBlockTableRecord
2
*D3
0
BLOCK_RECORD
5
207
100
AcDbSymbolTableRecord
100
AcDbBlockTableRecord
2
*D4
0
ENDTAB
0
TABLE
2
DIMSTYLE
5
A
100
AcDbSymbolTable
70
1
100
AcDbDimStyleTable
71
0
0
DIMSTYLE
105
208
100
AcDbSymbolTableRecord
100
AcDbDimStyleTableRecord
2
STANDARD
70
0
3

4

40
1.0
41
3.5000000000
42
0.0625
43
0.38
44
0.18
45
0.0
46
0.0
47
0.0010000000
48
0.0010000000
140
3.5000000000
141
0.09
142
0.0
143
25.4
144
1.0000000000
145
0.0
146
1.0000000000
147
0.09
71
1
72
0
73
0
74
0
75
0
76
0
77
1
78
8
170
0
171
2
172
0
173
0
174
0
175
0
176
0
177
0
178
0
270
2
271
3
272
3
273
2
274
2
275
0
280
0
281
0
282
0
283
1
284
8
285
0
286
0
287
3
288
0
340
11
341
202
342
202
343
202
344
202
0
DIMSTYLE
105
209
100
AcDbSymbolTableRecord
100
AcDbDimStyleTableRecord
2
DIMSTYLE_1
70
0
3

4

40
1.0
41
3.5000000000
42
0.0625
43
0.38
44
0.18
45
0.0
46
0.0
47
0.1000000000
48
0.1000000000
140
3.5000000000
141
0.09
142
0.0
143
25.4
144
1.0000000000
145
0.0
146
1.0000000000
147
0.09
71
0
72
0
73
0
74
0
75
0
76
0
77
1
78
8
170
0
171
2
172
0
173
0
174
0
175
0
176
0
177
0
178
0
270
2
271
2
272
2
273
2
274
2
275
0
280
0
281
0
282
0
283
1
284
8
285
0
286
0
287
3
288
0
340
11
341
202
342
202
343
202
344
202
0
DIMSTYLE
105
20A
100
AcDbSymbolTableRecord
100
AcDbDimStyleTableRecord
2
DIMSTYLE_2
70
0
3

4

40
1.0
41
3.5000000000
42
0.0625
43
0.38
44
0.18
45
0.0
46
0.0
47
0.1500000000
48
0.1500000000
140
3.5000000000
141
0.09
142
0.0
143
25.4
144
1.0000000000
145
0.0
146
1.0000000000
147
0.09
71
0
72
0
73
0
74
0
75
0
76
0
77
1
78
8
170
0
171
2
172
0
173
0
174
0
175
0
176
0
177
0
178
0
270
2
271
3
272
3
273
2
274
2
275
0
280
0
281
0
282
0
283
1
284
8
285
0
286
0
287
3
288
0
340
11
341
202
342
202
343
202
344
202
0
DIMSTYLE
105
20B
100
AcDbSymbolTableRecord
100
AcDbDimStyleTableRecord
2
DIMSTYLE_3
70
0
3

4

40
1.0
41
3.5000000000
42
0.0625
43
0.38
44
0.18
45
0.0
46
0.0
47
0.2000000000
48
0.2000000000
140
3.5000000000
141
0.09
142
0.0
143
25.4
144
1.0000000000
145
0.0
146
1.0000000000
147
0.09
71
0
72
0
73
0
74
0
75
0
76
0
77
1
78
8
170
0
171
2
172
0
173
0
174
0
175
0
176
0
177
0
178
0
270
2
271
3
272
3
273
2
274
2
275
0
280
0
281
0
282
0
283
1
284
8
285
0
286
0
287
3
288
0
340
11
341
202
342
202
343
202
344
202
0
ENDTAB
0
ENDSEC
0
SECTION
2
BLOCKS
0
BLOCK
5
20
100
AcDbEntity
8
0
100
AcDbBlockBegin
2
*MODEL_SPACE
70
0
10
0.0
20
0.0
30
0.0
3
*MODEL_SPACE
1

0
ENDBLK
5
21
100
AcDbEntity
8
0
100
AcDbBlockEnd
0
BLOCK
5
1C
100
AcDbEntity
8
0
100
AcDbBlockBegin
2
*PAPER_SPACE
70
0
10
0.0
20
0.0
30
0.0
3
*PAPER_SPACE
1

0
ENDBLK
5
1D
100
AcDbEntity
8
0
100
AcDbBlockEnd
0
BLOCK
5
20C
100
AcDbEntity
8
0
100
AcDbBlockBegin
62
2
6
CONTINUOUS
2
*D0
70
65
10
0.0000000000
20
0.0000000000
3
*D0
1

0
TEXT
5
20D
100
AcDbEntity
8
0
100
AcDbText
62
2
6
CONTINUOUS
10
97.1024333128
20
92.2053513135
7
STANDARD
40
3.5000000000
1
%%c
41
1.3333333333
72
0
100
AcDbText
0
TEXT
5
20E
100
AcDbEntity
8
0
100
AcDbText
62
2
6
CONTINUOUS
10
100.6857916461
20
86.9553513135
7
STANDARD
40
3.5000000000
1
 
41
0.7143000000
72
0
100
AcDbText
0
TEXT
5
20F
100
AcDbEntity
8
0
100
AcDbText
62
2
6
CONTINUOUS
10
101.7690999794
20
92.2053513135
7
STANDARD
40
3.5000000000
1
25
41
0.7143000000
72
0
100
AcDbText
0
LINE
5
210
100
AcDbEntity
8
0
100
AcDbLine
62
2
6
CONTINUOUS
10
89.5040085823
20
83.3084358957
11
89.5040085823
21
92.8303513135
0
LINE
5
211
100
AcDbEntity
8
0
100
AcDbLine
62
2
6
CONTINUOUS
10
114.5040085823
20
83.6734957759
11
114.5040085823
21
92.8303513135
0
LINE
5
212
100
AcDbEntity
8
0
100
AcDbLine
62
2
6
CONTINUOUS
10
89.5040085823
20
91.3303513135
11
102.0040085823
21
91.3303513135
0
LINE
5
213
100
AcDbEntity
8
0
100
AcDbLine
62
2
6
CONTINUOUS
10
114.5040085823
20
91.3303513135
11
102.0040085823
21
91.3303513135
0
INSERT
5
214
100
AcDbEntity
8
0
100
AcDbBlockReference
62
2
6
CONTINUOUS
2
_FILLED
10
89.5040085823
20
91.3303513135
41
  3.500000
42
  3.500000
43
  3.500000
50
180.000000
0
INSERT
5
215
100
AcDbEntity
8
0
100
AcDbBlockReference
62
2
6
CONTINUOUS
2
_FILLED
10
114.5040085823
20
91.3303513135
41
  3.500000
42
  3.500000
43
  3.500000
0
ENDBLK
5
216
100
AcDbEntity
8
0
6
BYBLOCK
62
0
100
AcDbBlockEnd
0
BLOCK
5
217
100
AcDbEntity
8
0
100
AcDbBlockBegin
62
2
6
CONTINUOUS
2
*D1
70
65
10
0.0000000000
20
0.0000000000
3
*D1
1

0
TEXT
5
218
100
AcDbEntity
8
0
100
AcDbText
62
2
6
CONTINUOUS
10
97.0196645731
20
102.5930705227
7
STANDARD
40
3.5000000000
1
%%c
41
1.3333333333
72
0
100
AcDbText
0
TEXT
5
219
100
AcDbEntity
8
0
100
AcDbText
62
2
6
CONTINUOUS
10
101.6863312397
20
102.5930705227
7
STANDARD
40
3.5000000000
1
40
41
0.7143000000
72
0
100
AcDbText
0
LINE
5
21A
100
AcDbEntity
8
0
100
AcDbLine
62
2
6
CONTINUOUS
10
82.0040085823
20
61.0396492214
11
82.0040085823
21
103.2180705227
0
LINE
5
21B
100
AcDbEntity
8
0
100
AcDbLine
62
2
6
CONTINUOUS
10
122.0040085823
20
61.0396492214
11
122.0040085823
21
103.2180705227
0
LINE
5
21C
100
AcDbEntity
8
0
100
AcDbLine
62
2
6
CONTINUOUS
10
82.0040085823
20
101.7180705227
11
102.0040085823
21
101.7180705227
0
LINE
5
21D
100
AcDbEntity
8
0
100
AcDbLine
62
2
6
CONTINUOUS
10
122.0040085823
20
101.7180705227
11
102.0040085823
21
101.7180705227
0
INSERT
5
21E
100
AcDbEntity
8
0
100
AcDbBlockReference
62
2
6
CONTINUOUS
2
_FILLED
10
82.0040085823
20
101.7180705227
41
  3.500000
42
  3.500000
43
  3.500000
50
180.000000
0
INSERT
5
21F
100
AcDbEntity
8
0
100
AcDbBlockReference
62
2
6
CONTINUOUS
2
_FILLED
10
122.0040085823
20
101.7180705227
41
  3.500000
42
  3.500000
43
  3.500000
0
ENDBLK
5
220
100
AcDbEntity
8
0
6
BYBLOCK
62
0
100
AcDbBlockEnd
0
BLOCK
5
221
100
AcDbEntity
8
0
100
AcDbBlockBegin
62
2
6
CONTINUOUS
2
*D2
70
65
10
0.0000000000
20
0.0000000000
3
*D2
1

0
TEXT
5
222
100
AcDbEntity
8
0
100
AcDbText
62
2
6
CONTINUOUS
10
93.5241948807
20
112.5952243500
7
STANDARD
40
3.5000000000
1
%%c
41
1.3333333333
72
0
100
AcDbText
0
TEXT
5
223
100
AcDbEntity
8
0
100
AcDbText
62
2
6
CONTINUOUS
10
98.1908615474
20
112.5952243500
7
STANDARD
40
3.5000000000
1
142.5
41
0.7143000000
72
0
100
AcDbText
0
LINE
5
224
100
AcDbEntity
8
0
100
AcDbLine
62
2
6
CONTINUOUS
10
30.7540085823
20
81.2617086665
11
30.7540085823
21
113.2202243500
0
LINE
5
225
100
AcDbEntity
8
0
100
AcDbLine
62
2
6
CONTINUOUS
10
173.2540085823
20
81.2617086665
11
173.2540085823
21
113.2202243500
0
LINE
5
226
100
AcDbEntity
8
0
100
AcDbLine
62
2
6
CONTINUOUS
10
30.7540085823
20
111.7202243500
11
102.0040085823
21
111.7202243500
0
LINE
5
227
100
AcDbEntity
8
0
100
AcDbLine
62
2
6
CONTINUOUS
10
173.2540085823
20
111.7202243500
11
102.0040085823
21
111.7202243500
0
INSERT
5
228
100
AcDbEntity
8
0
100
AcDbBlockReference
62
2
6
CONTINUOUS
2
_FILLED
10
30.7540085823
20
111.7202243500
41
  3.500000
42
  3.500000
43
  3.500000
50
180.000000
0
INSERT
5
229
100
AcDbEntity
8
0
100
AcDbBlockReference
62
2
6
CONTINUOUS
2
_FILLED
10
173.2540085823
20
111.7202243500
41
  3.500000
42
  3.500000
43
  3.500000
50
360.000000
0
ENDBLK
5
22A
100
AcDbEntity
8
0
6
BYBLOCK
62
0
100
AcDbBlockEnd
0
BLOCK
5
22B
100
AcDbEntity
8
0
100
AcDbBlockBegin
62
2
6
CONTINUOUS
2
*D3
70
65
10
0.0000000000
20
0.0000000000
3
*D3
1

0
TEXT
5
22C
100
AcDbEntity
8
0
100
AcDbText
62
2
6
CONTINUOUS
10
187.6074007961
20
51.1094679664
7
STANDARD
40
3.5000000000
1
57
50
90.0000000000
41
0.7143000000
72
0
100
AcDbText
0
LINE
5
22D
100
AcDbEntity
8
0
100
AcDbLine
62
2
6
CONTINUOUS
10
172.7540085823
20
81.7617086665
11
189.9824007961
21
81.7617086665
0
LINE
5
22E
100
AcDbEntity
8
0
100
AcDbLine
62
2
6
CONTINUOUS
10
172.7540085823
20
24.7617086665
11
189.9824007961
21
24.7617086665
0
LINE
5
22F
100
AcDbEntity
8
0
100
AcDbLine
62
2
6
CONTINUOUS
10
188.4824007961
20
81.7617086665
11
188.4824007961
21
53.2617086665
0
LINE
5
230
100
AcDbEntity
8
0
100
AcDbLine
62
2
6
CONTINUOUS
10
188.4824007961
20
24.7617086665
11
188.4824007961
21
53.2617086665
0
INSERT
5
231
100
AcDbEntity
8
0
100
AcDbBlockReference
62
2
6
CONTINUOUS
2
_FILLED
10
188.4824007961
20
81.7617086665
41
  3.500000
42
  3.500000
43
  3.500000
50
 90.000000
0
INSERT
5
232
100
AcDbEntity
8
0
100
AcDbBlockReference
62
2
6
CONTINUOUS
2
_FILLED
10
188.4824007961
20
24.7617086665
41
  3.500000
42
  3.500000
43
  3.500000
50
270.000000
0
ENDBLK
5
233
100
AcDbEntity
8
0
6
BYBLOCK
62
0
100
AcDbBlockEnd
0
BLOCK
5
234
100
AcDbEntity
8
0
100
AcDbBlockBegin
62
2
6
CONTINUOUS
2
*D4
70
65
10
0.0000000000
20
0.0000000000
3
*D4
1

0
TEXT
5
235
100
AcDbEntity
8
0
100
AcDbText
62
2
6
CONTINUOUS
10
200.4712932009
20
50.3949424642
7
STANDARD
40
3.5000000000
1
61.5
50
90.0000000000
41
0.7143000000
72
0
100
AcDbText
0
LINE
5
236
100
AcDbEntity
8
0
100
AcDbLine
62
2
6
CONTINUOUS
10
115.0040085823
20
84.0117086665
11
202.8462932009
21
84.0117086665
0
LINE
5
237
100
AcDbEntity
8
0
100
AcDbLine
62
2
6
CONTINUOUS
10
115.0040085823
20
22.5117086665
11
202.8462932009
21
22.5117086665
0
LINE
5
238
100
AcDbEntity
8
0
100
AcDbLine
62
2
6
CONTINUOUS
10
201.3462932009
20
84.0117086665
11
201.3462932009
21
53.2617086665
0
LINE
5
239
100
AcDbEntity
8
0
100
AcDbLine
62
2
6
CONTINUOUS
10
201.3462932009
20
22.5117086665
11
201.3462932009
21
53.2617086665
0
INSERT
5
23A
100
AcDbEntity
8
0
100
AcDbBlockReference
62
2
6
CONTINUOUS
2
_FILLED
10
201.3462932009
20
84.0117086665
41
  3.500000
42
  3.500000
43
  3.500000
50
 90.000000
0
INSERT
5
23B
100
AcDbEntity
8
0
100
AcDbBlockReference
62
2
6
CONTINUOUS
2
_FILLED
10
201.3462932009
20
22.5117086665
41
  3.500000
42
  3.500000
43
  3.500000
50
270.000000
0
ENDBLK
5
23C
100
AcDbEntity
8
0
6
BYBLOCK
62
0
100
AcDbBlockEnd
0
BLOCK
5
23D
100
AcDbEntity
8
0
100
AcDbBlockBegin
2
_FILLED
70
64
10
0.0000000000
20
0.0000000000
3
_FILLED
1

0
SOLID
5
23E
100
AcDbEntity
8
0
6
BYBLOCK
62
0
100
AcDbTrace
10
0.0000000000
20
0.0000000000
11
-1.0000000000
21
0.1857142857
12
-1.0000000000
22
-0.1857142857
13
-1.0000000000
23
-0.1857142857
0
ENDBLK
5
23F
100
AcDbEntity
8
0
6
BYBLOCK
62
0
100
AcDbBlockEnd
0
ENDSEC
0
SECTION
2
ENTITIES
0
TEXT
5
240
100
AcDbEntity
8
0
100
AcDbText
62
7
6
CONTINUOUS
10
196.5575366673
20
216.9341326552
7
STANDARD
40
3.5000000000
1
A
41
0.7143000000
72
0
100
AcDbText
0
LINE
5
241
100
AcDbEntity
8
0
100
AcDbLine
62
7
6
CONTINUOUS
10
195.3075116673
20
201.1841326552
11
195.3075116673
21
222.1841326552
0
SOLID
5
242
100
AcDbEntity
8
0
100
AcDbTrace
62
7
6
CONTINUOUS
10
194.3075116673
20
208.1841326552
11
195.3075116673
21
201.1841326552
12
196.3075116673
22
208.1841326552
13
196.3075116673
23
208.1841326552
0
TEXT
5
243
100
AcDbEntity
8
0
100
AcDbText
62
7
6
CONTINUOUS
10
4.9504304974
20
216.9341326552
7
STANDARD
40
3.5000000000
1
A
41
0.7143000000
72
0
100
AcDbText
0
LINE
5
244
100
AcDbEntity
8
0
100
AcDbLine
62
7
6
CONTINUOUS
10
8.7005054974
20
201.1841326552
11
8.7005054974
21
222.1841326552
0
SOLID
5
245
100
AcDbEntity
8
0
100
AcDbTrace
62
7
6
CONTINUOUS
10
7.7005054974
20
208.1841326552
11
8.7005054974
21
201.1841326552
12
9.7005054974
22
208.1841326552
13
9.7005054974
23
208.1841326552
0
DIMENSION
5
246
100
AcDbEntity
8
0
100
AcDbDimension
62
2
6
CONTINUOUS
2
*D0
10
114.5040085823
20
91.3303513135
11
101.9358166461
21
93.9553513135
70
160
42
25.000000
1
%%c<>\P 
3
DIMSTYLE_1
100
AcDbAlignedDimension
13
89.5040085823
23
83.3084358957
14
114.5040085823
24
83.6734957759
100
AcDbRotatedDimension
0
DIMENSION
5
247
100
AcDbEntity
8
0
100
AcDbDimension
62
2
6
CONTINUOUS
2
*D1
10
122.0040085823
20
101.7180705227
11
101.8530479064
21
104.3430705227
70
160
42
40.000000
1
%%c<>
3
DIMSTYLE_2
100
AcDbAlignedDimension
13
82.0040085823
23
61.0396492214
14
122.0040085823
24
61.0396492214
100
AcDbRotatedDimension
0
DIMENSION
5
248
100
AcDbEntity
8
0
100
AcDbDimension
62
2
6
CONTINUOUS
2
*D2
10
173.2540085823
20
111.7202243500
11
102.1076532140
21
114.3452243500
70
160
42
142.500000
1
%%c<>
3
DIMSTYLE_3
100
AcDbAlignedDimension
13
30.7540085823
23
81.2617086665
14
173.2540085823
24
81.2617086665
50
360.000000
100
AcDbRotatedDimension
0
DIMENSION
5
249
100
AcDbEntity
8
0
100
AcDbDimension
62
2
6
CONTINUOUS
2
*D3
10
188.4824007961
20
24.7617086665
11
185.8574007961
21
53.6095179664
70
160
42
57.000000
3
DIMSTYLE_2
100
AcDbAlignedDimension
13
172.7540085823
23
81.7617086665
14
172.7540085823
24
24.7617086665
50
270.000000
100
AcDbRotatedDimension
0
DIMENSION
5
24A
100
AcDbEntity
8
0
100
AcDbDimension
62
2
6
CONTINUOUS
2
*D4
10
201.3462932009
20
22.5117086665
11
198.7212932009
21
55.3950424642
70
160
42
61.500000
3
DIMSTYLE_2
100
AcDbAlignedDimension
13
115.0040085823
23
84.0117086665
14
115.0040085823
24
22.5117086665
50
270.000000
100
AcDbRotatedDimension
0
MTEXT
5
24B
100
AcDbEntity
8
0
100
AcDbMText
62
2
6
CONTINUOUS
7
STANDARD
71
1
72
1
10
85.7951347594
20
17.5036629813
30
0.0000000000
11
1.0000000000
21
0.0000000000
31
0.0000000000
1
SEZIONE A-A
40
3.5000000000
41
27.5005500000
0
LINE
5
24C
100
AcDbEntity
8
0
100
AcDbLine
62
7
6
CONTINUOUS
10
0.0000000000
20
0.0000000000
11
0.0000000000
21
297.0000000000
0
LINE
5
24D
100
AcDbEntity
8
0
100
AcDbLine
62
7
6
CONTINUOUS
10
0.0000000000
20
0.0000000000
11
420.0000000000
21
0.0000000000
0
LINE
5
24E
100
AcDbEntity
8
0
100
AcDbLine
62
7
6
CONTINUOUS
10
0.0000000000
20
297.0000000000
11
420.0000000000
21
297.0000000000
0
LINE
5
24F
100
AcDbEntity
8
0
100
AcDbLine
62
7
6
CONTINUOUS
10
420.0000000000
20
0.0000000000
11
420.0000000000
21
297.0000000000
0
LINE
5
250
100
AcDbEntity
8
0
100
AcDbLine
62
4
6
CONTINUOUS
10
40.5040085823
20
192.6841326552
11
40.5040085823
21
209.6841326552
0
LINE
5
251
100
AcDbEntity
8
0
100
AcDbLine
62
4
6
CONTINUOUS
10
41.0040085823
20
197.7841326552
11
41.0040085823
21
198.5341326552
0
LINE
5
252
100
AcDbEntity
8
0
100
AcDbLine
62
4
6
CONTINUOUS
10
42.5040085823
20
198.5341326552
11
42.5040085823
21
197.7841326552
0
LINE
5
253
100
AcDbEntity
8
0
100
AcDbLine
62
4
6
CONTINUOUS
10
42.7540086121
20
201.2341326552
11
42.7540086121
21
200.1841326552
0
LINE
5
254
100
AcDbEntity
8
0
100
AcDbLine
62
4
6
CONTINUOUS
10
45.2730911093
20
196.3624589498
11
45.2730911093
21
196.6600507603
0
LINE
5
255
100
AcDbEntity
8
0
100
AcDbLine
62
4
6
CONTINUOUS
10
45.2730911093
20
197.5528261918
11
45.2730911093
21
198.1480098128
0
LINE
5
256
100
AcDbEntity
8
0
100
AcDbLine
62
4
6
CONTINUOUS
10
45.2730911093
20
204.6206316913
11
45.2730911093
21
205.3646112175
0
LINE
5
257
100
AcDbEntity
8
0
100
AcDbLine
62
4
6
CONTINUOUS
10
46.4634583513
20
197.5528261918
11
46.4634583513
21
197.9248159549
0
LINE
5
258
100
AcDbEntity
8
0
100
AcDbLine
62
4
6
CONTINUOUS
10
46.8602474083
20
195.2464896604
11
46.8602474083
21
195.6928773761
0
LINE
5
259
100
AcDbEntity
8
0
100
AcDbLine
62
4
6
CONTINUOUS
10
46.8602474083
20
205.9597948385
11
46.8602474083
21
206.4061825543
0
LINE
5
25A
100
AcDbEntity
8
0
100
AcDbLine
62
4
6
CONTINUOUS
10
47.6538255933
20
198.1480098128
11
47.6538255933
21
197.5528261918
0
LINE
5
25B
100
AcDbEntity
8
0
100
AcDbLine
62
4
6
CONTINUOUS
10
47.6538255933
20
196.6600507603
11
47.6538255933
21
196.3624589498
0
LINE
5
25C
100
AcDbEntity
8
0
100
AcDbLine
62
4
6
CONTINUOUS
10
47.6538255933
20
207.0757641279
11
47.6538255933
21
207.6709477489
0
LINE
5
25D
100
AcDbEntity
8
0
100
AcDbLine
62
4
6
CONTINUOUS
10
49.5040085823
20
209.6841326552
11
49.5040085823
21
192.6841326552
0
LINE
5
25E
100
AcDbEntity
8
0
100
AcDbLine
62
4
6
CONTINUOUS
10
42.2540086419
20
198.8341326552
11
42.5040085823
21
198.5341326552
0
LINE
5
25F
100
AcDbEntity
8
0
100
AcDbLine
62
4
6
CONTINUOUS
10
42.2540086419
20
200.4841326552
11
42.0040085227
21
200.7841326552
0
LINE
5
260
100
AcDbEntity
8
0
100
AcDbLine
62
4
6
CONTINUOUS
10
42.0040085227
20
200.7841326552
11
42.2540086419
21
201.0841326552
0
LINE
5
261
100
AcDbEntity
8
0
100
AcDbLine
62
4
6
CONTINUOUS
10
41.0040085823
20
198.5341326552
11
41.2540085227
21
198.8341326552
0
LINE
5
262
100
AcDbEntity
8
0
100
AcDbLine
62
4
6
CONTINUOUS
10
44.0040085823
20
200.7841326552
11
43.7540085749
21
200.4841326552
0
LINE
5
263
100
AcDbEntity
8
0
100
AcDbLine
62
7
6
CONTINUOUS
10
102.0040085823
20
160.3787416722
11
98.0040085823
21
160.3787416722
0
LINE
5
264
100
AcDbEntity
8
0
100
AcDbLine
62
7
6
CONTINUOUS
10
102.0040085823
20
160.4135835102
11
106.0040085823
21
160.4135835102
0
LINE
5
265
100
AcDbEntity
8
0
100
AcDbLine
62
4
6
CONTINUOUS
10
43.7540085749
20
201.0841326552
11
44.0040085823
21
200.7841326552
0
LINE
5
266
100
AcDbEntity
8
0
100
AcDbLine
62
4
6
CONTINUOUS
10
42.0040085227
20
198.9841326552
11
42.2540086419
21
198.8341326552
0
LINE
5
267
100
AcDbEntity
8
0
100
AcDbLine
62
4
6
CONTINUOUS
10
47.4554310471
20
196.8088466655
11
47.6538255933
21
196.6600507603
0
LINE
5
268
100
AcDbEntity
8
0
100
AcDbLine
62
4
6
CONTINUOUS
10
45.2730911093
20
196.6600507603
11
45.4714856023
21
196.8088466655
0
LINE
5
269
100
AcDbEntity
8
0
100
AcDbLine
62
4
6
CONTINUOUS
10
43.7540085749
20
200.4841326552
11
43.2540085823
21
200.1841326552
0
LINE
5
26A
100
AcDbEntity
8
0
100
AcDbLine
62
4
6
CONTINUOUS
10
41.2540085227
20
198.8341326552
11
41.5040086419
21
198.9841326552
0
LINE
5
26B
100
AcDbEntity
8
0
100
AcDbLine
62
4
6
CONTINUOUS
10
42.0040085227
20
202.7341326552
11
44.0040085823
21
203.6341326552
0
LINE
5
26C
100
AcDbEntity
8
0
100
AcDbLine
62
4
6
CONTINUOUS
10
42.7540086121
20
200.1841326552
11
42.2540086419
21
200.4841326552
0
LINE
5
26D
100
AcDbEntity
8
0
100
AcDbLine
62
4
6
CONTINUOUS
10
43.5040085674
20
201.2341326552
11
43.7540085749
21
201.0841326552
0
LINE
5
26E
100
AcDbEntity
8
0
100
AcDbLine
62
4
6
CONTINUOUS
10
158.7349260554
20
194.1021339406
11
157.5445588134
21
193.8045421301
0
LINE
5
26F
100
AcDbEntity
8
0
100
AcDbLine
62
7
6
CONTINUOUS
10
102.0040085823
20
176.8790326276
11
98.0040085823
21
176.8790326276
0
LINE
5
270
100
AcDbEntity
8
0
100
AcDbLine
62
7
6
CONTINUOUS
10
102.0040085823
20
176.9190103312
11
106.0040085823
21
176.9190103312
0
LINE
5
271
100
AcDbEntity
8
0
100
AcDbLine
62
7
6
CONTINUOUS
10
98.0040085823
20
181.6794901370
11
106.0040085823
21
181.6846260026
0
LINE
5
272
100
AcDbEntity
8
0
100
AcDbLine
62
7
6
CONTINUOUS
10
98.0040085823
20
181.7052456381
11
106.0040085823
21
181.7052456381
0
LINE
5
273
100
AcDbEntity
8
0
100
AcDbLine
62
4
6
CONTINUOUS
10
47.0586419723
20
196.9576425708
11
47.4554310471
21
196.8088466655
0
LINE
5
274
100
AcDbEntity
8
0
100
AcDbLine
62
4
6
CONTINUOUS
10
44.0040085823
20
202.7341326552
11
42.0040085227
21
203.6341326552
0
LINE
5
275
100
AcDbEntity
8
0
100
AcDbLine
62
4
6
CONTINUOUS
10
45.4714856023
20
196.8088466655
11
45.8682747303
21
196.9576425708
0
LINE
5
276
100
AcDbEntity
8
0
100
AcDbLine
62
4
6
CONTINUOUS
10
42.2540086419
20
201.0841326552
11
42.7540086121
21
201.2341326552
0
LINE
5
277
100
AcDbEntity
8
0
100
AcDbLine
62
4
6
CONTINUOUS
10
42.5040085823
20
198.5341326552
11
44.0040085823
21
198.9841326552
0
LINE
5
278
100
AcDbEntity
8
0
100
AcDbLine
62
4
6
CONTINUOUS
10
158.7349260554
20
201.2443373927
11
156.3541915714
21
200.6491537716
0
LINE
5
279
100
AcDbEntity
8
0
100
AcDbLine
62
4
6
CONTINUOUS
10
158.7349260554
20
196.1852766141
11
156.3541915714
21
195.8132868510
0
LINE
5
27A
100
AcDbEntity
8
0
100
AcDbLine
62
4
6
CONTINUOUS
10
47.6538255933
20
195.0976937551
11
45.2730911093
21
195.4696835183
0
LINE
5
27B
100
AcDbEntity
8
0
100
AcDbLine
62
4
6
CONTINUOUS
10
47.2570365008
20
194.2793162763
11
45.2730911093
21
194.6513060394
0
LINE
5
27C
100
AcDbEntity
8
0
100
AcDbLine
62
4
6
CONTINUOUS
10
163.5040085823
20
192.6841326552
11
154.5040085823
21
192.6841326552
0
LINE
5
27D
100
AcDbEntity
8
0
100
AcDbLine
62
4
6
CONTINUOUS
10
49.5040085823
20
192.6841326552
11
40.5040085823
21
192.6841326552
0
LINE
5
27E
100
AcDbEntity
8
0
100
AcDbLine
62
4
6
CONTINUOUS
10
157.5445588134
20
193.8045421301
11
156.3541915714
21
193.8045421301
0
LINE
5
27F
100
AcDbEntity
8
0
100
AcDbLine
62
4
6
CONTINUOUS
10
47.6538255933
20
193.9073265131
11
45.2730911093
21
193.9073265131
0
LINE
5
280
100
AcDbEntity
8
0
100
AcDbLine
62
4
6
CONTINUOUS
10
45.2730911093
20
194.6513060394
11
47.6538255933
21
194.6513060394
0
LINE
5
281
100
AcDbEntity
8
0
100
AcDbLine
62
4
6
CONTINUOUS
10
158.7349260554
20
195.2925011826
11
156.3541915714
21
195.2925011826
0
LINE
5
282
100
AcDbEntity
8
0
100
AcDbLine
62
4
6
CONTINUOUS
10
46.4634583513
20
197.0320405234
11
47.0586419723
21
196.9576425708
0
LINE
5
283
100
AcDbEntity
8
0
100
AcDbLine
62
4
6
CONTINUOUS
10
46.4634583513
20
208.5637231804
11
45.2730911093
21
208.8613149909
0
LINE
5
284
100
AcDbEntity
8
0
100
AcDbLine
62
7
6
CONTINUOUS
10
98.0040085823
20
220.6630196724
11
98.0040085823
21
220.2478951230
0
LINE
5
285
100
AcDbEntity
8
0
100
AcDbLine
62
7
6
CONTINUOUS
10
98.0040085823
20
182.1203701875
11
98.0040085823
21
181.7052456381
0
LINE
5
286
100
AcDbEntity
8
0
100
AcDbLine
62
7
6
CONTINUOUS
10
98.0040085823
20
155.3583757057
11
98.0040085823
21
181.6794901370
0
LINE
5
287
100
AcDbEntity
8
0
100
AcDbLine
62
7
6
CONTINUOUS
10
98.0040085823
20
220.6836393079
11
98.0040085823
21
247.0098896048
0
LINE
5
288
100
AcDbEntity
8
0
100
AcDbLine
62
7
6
CONTINUOUS
10
102.0040085823
20
220.6630196724
11
102.0040085823
21
213.6841326552
0
LINE
5
289
100
AcDbEntity
8
0
100
AcDbLine
62
7
6
CONTINUOUS
10
102.0040085823
20
129.9341326552
11
102.0040085823
21
181.6846260026
0
LINE
5
28A
100
AcDbEntity
8
0
100
AcDbLine
62
7
6
CONTINUOUS
10
102.0040085823
20
181.7052456381
11
102.0040085823
21
188.6841326552
0
LINE
5
28B
100
AcDbEntity
8
0
100
AcDbLine
62
7
6
CONTINUOUS
10
102.0040085823
20
220.6836393079
11
102.0040085823
21
272.4341326552
0
LINE
5
28C
100
AcDbEntity
8
0
100
AcDbLine
62
4
6
CONTINUOUS
10
158.7349260554
20
208.4609387974
11
156.7509806639
21
208.0889490342
0
LINE
5
28D
100
AcDbEntity
8
0
100
AcDbLine
62
4
6
CONTINUOUS
10
158.7349260554
20
206.8985817922
11
156.3541915714
21
206.5265920291
0
LINE
5
28E
100
AcDbEntity
8
0
100
AcDbLine
62
4
6
CONTINUOUS
10
158.1397424344
20
205.4106227397
11
157.5445588134
21
205.3362247871
0
LINE
5
28F
100
AcDbEntity
8
0
100
AcDbLine
62
4
6
CONTINUOUS
10
47.6538255933
20
196.3624589498
11
45.2730911093
21
196.3624589498
0
LINE
5
290
100
AcDbEntity
8
0
100
AcDbLine
62
4
6
CONTINUOUS
10
158.7349260554
20
197.3756438561
11
156.3541915714
21
197.3756438561
0
LINE
5
291
100
AcDbEntity
8
0
100
AcDbLine
62
4
6
CONTINUOUS
10
47.6538255933
20
197.5528261918
11
45.2730911093
21
197.5528261918
0
LINE
5
292
100
AcDbEntity
8
0
100
AcDbLine
62
4
6
CONTINUOUS
10
44.0040085823
20
197.7841326552
11
41.0040085823
21
197.7841326552
0
LINE
5
293
100
AcDbEntity
8
0
100
AcDbLine
62
4
6
CONTINUOUS
10
158.7349260554
20
198.5660110981
11
156.3541915714
21
198.5660110981
0
LINE
5
294
100
AcDbEntity
8
0
100
AcDbLine
62
4
6
CONTINUOUS
10
41.5040086419
20
198.9841326552
11
42.0040085227
21
198.9841326552
0
LINE
5
295
100
AcDbEntity
8
0
100
AcDbLine
62
4
6
CONTINUOUS
10
43.2540085823
20
200.1841326552
11
42.7540086121
21
200.1841326552
0
LINE
5
296
100
AcDbEntity
8
0
100
AcDbLine
62
4
6
CONTINUOUS
10
45.2730911093
20
200.2311524863
11
47.6538255933
21
200.2311524863
0
LINE
5
297
100
AcDbEntity
8
0
100
AcDbLine
62
4
6
CONTINUOUS
10
156.3541915714
20
200.6491537716
11
158.7349260554
21
200.6491537716
0
LINE
5
298
100
AcDbEntity
8
0
100
AcDbLine
62
4
6
CONTINUOUS
10
47.6538255933
20
201.1239279178
11
45.2730911093
21
201.1239279178
0
LINE
5
299
100
AcDbEntity
8
DEFAULT_1
100
AcDbLine
62
7
6
CENTER
10
195.3075116673
20
201.1841326552
11
190.3075116673
21
201.1841326552
0
LINE
5
29A
100
AcDbEntity
8
DEFAULT_1
100
AcDbLine
62
9
6
CENTER
10
190.3075116673
20
201.1841326552
11
13.7005054974
21
201.1841326552
0
LINE
5
29B
100
AcDbEntity
8
DEFAULT_1
100
AcDbLine
62
7
6
CENTER
10
13.7005054974
20
201.1841326552
11
8.7005054974
21
201.1841326552
0
LINE
5
29C
100
AcDbEntity
8
0
100
AcDbLine
62
4
6
CONTINUOUS
10
156.3541915714
20
201.2443373927
11
158.7349260554
21
201.2443373927
0
LINE
5
29D
100
AcDbEntity
8
0
100
AcDbLine
62
4
6
CONTINUOUS
10
47.6538255933
20
201.7191115388
11
45.2730911093
21
201.7191115388
0
LINE
5
29E
100
AcDbEntity
8
0
100
AcDbLine
62
4
6
CONTINUOUS
10
47.6538255933
20
205.8109989333
11
45.2730911093
21
206.1829886964
0
LINE
5
29F
100
AcDbEntity
8
0
100
AcDbLine
62
7
6
CONTINUOUS
10
106.0040085823
20
247.0098896048
11
106.0040085823
21
220.6887751735
0
LINE
5
2A0
100
AcDbEntity
8
0
100
AcDbLine
62
7
6
CONTINUOUS
10
106.0040085823
20
155.3583757057
11
106.0040085823
21
181.6846260026
0
LINE
5
2A1
100
AcDbEntity
8
0
100
AcDbLine
62
7
6
CONTINUOUS
10
106.0040085823
20
181.7052456381
11
106.0040085823
21
182.1203701875
0
LINE
5
2A2
100
AcDbEntity
8
0
100
AcDbLine
62
7
6
CONTINUOUS
10
106.0040085823
20
220.2478951230
11
106.0040085823
21
220.6630196724
0
LINE
5
2A3
100
AcDbEntity
8
0
100
AcDbLine
62
4
6
CONTINUOUS
10
45.2730911093
20
193.9073265131
11
47.2570365008
21
194.2793162763
0
LINE
5
2A4
100
AcDbEntity
8
0
100
AcDbLine
62
4
6
CONTINUOUS
10
45.2730911093
20
195.4696835183
11
47.6538255933
21
195.8416732814
0
LINE
5
2A5
100
AcDbEntity
8
0
100
AcDbLine
62
4
6
CONTINUOUS
10
45.8682747303
20
196.9576425708
11
46.4634583513
21
197.0320405234
0
LINE
5
2A6
100
AcDbEntity
8
0
100
AcDbLine
62
4
6
CONTINUOUS
10
158.7349260554
20
202.1371128242
11
156.3541915714
21
202.1371128242
0
LINE
5
2A7
100
AcDbEntity
8
0
100
AcDbLine
62
4
6
CONTINUOUS
10
160.7540085823
20
202.1841326552
11
161.2540085525
21
202.1841326552
0
LINE
5
2A8
100
AcDbEntity
8
0
100
AcDbLine
62
4
6
CONTINUOUS
10
162.5040085227
20
203.3841326552
11
162.0040086419
21
203.3841326552
0
LINE
5
2A9
100
AcDbEntity
8
0
100
AcDbLine
62
4
6
CONTINUOUS
10
45.2730911093
20
203.8022542124
11
47.6538255933
21
203.8022542124
0
LINE
5
2AA
100
AcDbEntity
8
0
100
AcDbLine
62
4
6
CONTINUOUS
10
160.0040085823
20
204.5841326552
11
163.0040085823
21
204.5841326552
0
LINE
5
2AB
100
AcDbEntity
8
0
100
AcDbLine
62
4
6
CONTINUOUS
10
156.3541915714
20
204.8154391187
11
158.7349260554
21
204.8154391187
0
LINE
5
2AC
100
AcDbEntity
8
0
100
AcDbLine
62
4
6
CONTINUOUS
10
45.2730911093
20
204.9926214544
11
47.6538255933
21
204.9926214544
0
LINE
5
2AD
100
AcDbEntity
8
0
100
AcDbLine
62
4
6
CONTINUOUS
10
156.3541915714
20
206.0058063607
11
158.7349260554
21
206.0058063607
0
LINE
5
2AE
100
AcDbEntity
8
0
100
AcDbLine
62
4
6
CONTINUOUS
10
45.2730911093
20
207.0757641279
11
47.6538255933
21
207.0757641279
0
LINE
5
2AF
100
AcDbEntity
8
0
100
AcDbLine
62
4
6
CONTINUOUS
10
158.7349260554
20
207.7169592711
11
156.3541915714
21
207.7169592711
0
LINE
5
2B0
100
AcDbEntity
8
0
100
AcDbLine
62
4
6
CONTINUOUS
10
156.3541915714
20
208.4609387974
11
158.7349260554
21
208.4609387974
0
LINE
5
2B1
100
AcDbEntity
8
0
100
AcDbLine
62
4
6
CONTINUOUS
10
46.4634583513
20
208.5637231804
11
47.6538255933
21
208.5637231804
0
LINE
5
2B2
100
AcDbEntity
8
0
100
AcDbLine
62
4
6
CONTINUOUS
10
156.3541915714
20
196.5572663772
11
158.7349260554
21
196.1852766141
0
LINE
5
2B3
100
AcDbEntity
8
0
100
AcDbLine
62
4
6
CONTINUOUS
10
157.5445588134
20
193.8045421301
11
158.7349260554
21
193.5069503196
0
LINE
5
2B4
100
AcDbEntity
8
0
100
AcDbLine
62
4
6
CONTINUOUS
10
45.2730911093
20
201.1239279178
11
47.6538255933
21
201.7191115388
0
LINE
5
2B5
100
AcDbEntity
8
0
100
AcDbLine
62
4
6
CONTINUOUS
10
45.2730911093
20
206.1829886964
11
47.6538255933
21
206.5549784595
0
LINE
5
2B6
100
AcDbEntity
8
0
100
AcDbLine
62
4
6
CONTINUOUS
10
40.5040085823
20
209.6841326552
11
49.5040085823
21
209.6841326552
0
LINE
5
2B7
100
AcDbEntity
8
0
100
AcDbLine
62
4
6
CONTINUOUS
10
154.5040085823
20
209.6841326552
11
163.5040085823
21
209.6841326552
0
LINE
5
2B8
100
AcDbEntity
8
0
100
AcDbLine
62
4
6
CONTINUOUS
10
157.5445588134
20
205.3362247871
11
156.9493751924
21
205.4106227397
0
LINE
5
2B9
100
AcDbEntity
8
0
100
AcDbLine
62
4
6
CONTINUOUS
10
158.5365315623
20
205.5594186450
11
158.1397424344
21
205.4106227397
0
LINE
5
2BA
100
AcDbEntity
8
0
100
AcDbLine
62
4
6
CONTINUOUS
10
161.5040085823
20
203.8341326552
11
160.0040085823
21
203.3841326552
0
LINE
5
2BB
100
AcDbEntity
8
0
100
AcDbLine
62
4
6
CONTINUOUS
10
161.7540085227
20
201.2841326552
11
161.2540085525
21
201.1341326552
0
LINE
5
2BC
100
AcDbEntity
8
0
100
AcDbLine
62
4
6
CONTINUOUS
10
45.2730911093
20
208.2661313699
11
46.4634583513
21
208.5637231804
0
LINE
5
2BD
100
AcDbEntity
8
0
100
AcDbLine
62
7
6
CONTINUOUS
10
98.0040085823
20
220.6630196724
11
106.0040085823
21
220.6630196724
0
LINE
5
2BE
100
AcDbEntity
8
0
100
AcDbLine
62
7
6
CONTINUOUS
10
98.0040085823
20
220.6836393079
11
106.0040085823
21
220.6887751735
0
LINE
5
2BF
100
AcDbEntity
8
0
100
AcDbLine
62
4
6
CONTINUOUS
10
156.3541915714
20
207.2705715554
11
158.7349260554
21
206.8985817922
0
LINE
5
2C0
100
AcDbEntity
8
0
100
AcDbLine
62
4
6
CONTINUOUS
10
156.7509806639
20
208.0889490342
11
158.7349260554
21
207.7169592711
0
LINE
5
2C1
100
AcDbEntity
8
0
100
AcDbLine
62
4
6
CONTINUOUS
10
162.0040086419
20
199.6341326552
11
160.0040085823
21
198.7341326552
0
LINE
5
2C2
100
AcDbEntity
8
0
100
AcDbLine
62
7
6
CONTINUOUS
10
102.0040085823
20
225.4492549793
11
98.0040085823
21
225.4492549793
0
LINE
5
2C3
100
AcDbEntity
8
0
100
AcDbLine
62
7
6
CONTINUOUS
10
102.0040085823
20
225.4892326829
11
106.0040085823
21
225.4892326829
0
LINE
5
2C4
100
AcDbEntity
8
0
100
AcDbLine
62
4
6
CONTINUOUS
10
156.9493751924
20
205.4106227397
11
156.5525861176
21
205.5594186450
0
LINE
5
2C5
100
AcDbEntity
8
0
100
AcDbLine
62
4
6
CONTINUOUS
10
160.0040085823
20
199.6341326552
11
162.0040086419
21
198.7341326552
0
LINE
5
2C6
100
AcDbEntity
8
0
100
AcDbLine
62
4
6
CONTINUOUS
10
158.7349260554
20
205.7082145502
11
158.5365315623
21
205.5594186450
0
LINE
5
2C7
100
AcDbEntity
8
0
100
AcDbLine
62
4
6
CONTINUOUS
10
162.7540086419
20
203.5341326552
11
162.5040085227
21
203.3841326552
0
LINE
5
2C8
100
AcDbEntity
8
0
100
AcDbLine
62
4
6
CONTINUOUS
10
160.2540085898
20
201.8841326552
11
160.7540085823
21
202.1841326552
0
LINE
5
2C9
100
AcDbEntity
8
0
100
AcDbLine
62
4
6
CONTINUOUS
10
160.5040085972
20
201.1341326552
11
160.2540085898
21
201.2841326552
0
LINE
5
2CA
100
AcDbEntity
8
0
100
AcDbLine
62
4
6
CONTINUOUS
10
161.2540085525
20
202.1841326552
11
161.7540085227
21
201.8841326552
0
LINE
5
2CB
100
AcDbEntity
8
0
100
AcDbLine
62
4
6
CONTINUOUS
10
162.0040086419
20
203.3841326552
11
161.7540085227
21
203.5341326552
0
LINE
5
2CC
100
AcDbEntity
8
0
100
AcDbLine
62
7
6
CONTINUOUS
10
102.0040085823
20
241.9546818003
11
98.0040085823
21
241.9546818003
0
LINE
5
2CD
100
AcDbEntity
8
0
100
AcDbLine
62
7
6
CONTINUOUS
10
102.0040085823
20
241.9895236383
11
106.0040085823
21
241.9895236383
0
LINE
5
2CE
100
AcDbEntity
8
0
100
AcDbLine
62
4
6
CONTINUOUS
10
156.5525861176
20
205.5594186450
11
156.3541915714
21
205.7082145502
0
LINE
5
2CF
100
AcDbEntity
8
0
100
AcDbLine
62
4
6
CONTINUOUS
10
160.0040085823
20
201.5841326552
11
160.2540085898
21
201.8841326552
0
LINE
5
2D0
100
AcDbEntity
8
0
100
AcDbLine
62
4
6
CONTINUOUS
10
163.0040085823
20
203.8341326552
11
162.7540086419
21
203.5341326552
0
LINE
5
2D1
100
AcDbEntity
8
0
100
AcDbLine
62
4
6
CONTINUOUS
10
162.0040086419
20
201.5841326552
11
161.7540085227
21
201.2841326552
0
LINE
5
2D2
100
AcDbEntity
8
0
100
AcDbLine
62
4
6
CONTINUOUS
10
160.2540085898
20
201.2841326552
11
160.0040085823
21
201.5841326552
0
LINE
5
2D3
100
AcDbEntity
8
0
100
AcDbLine
62
4
6
CONTINUOUS
10
161.7540085227
20
201.8841326552
11
162.0040086419
21
201.5841326552
0
LINE
5
2D4
100
AcDbEntity
8
0
100
AcDbLine
62
4
6
CONTINUOUS
10
161.7540085227
20
203.5341326552
11
161.5040085823
21
203.8341326552
0
LINE
5
2D5
100
AcDbEntity
8
0
100
AcDbLine
62
4
6
CONTINUOUS
10
154.5040085823
20
192.6841326552
11
154.5040085823
21
209.6841326552
0
LINE
5
2D6
100
AcDbEntity
8
0
100
AcDbLine
62
4
6
CONTINUOUS
10
156.3541915714
20
195.2925011826
11
156.3541915714
21
194.6973175616
0
LINE
5
2D7
100
AcDbEntity
8
0
100
AcDbLine
62
4
6
CONTINUOUS
10
156.3541915714
20
204.2202554977
11
156.3541915714
21
204.8154391187
0
LINE
5
2D8
100
AcDbEntity
8
0
100
AcDbLine
62
4
6
CONTINUOUS
10
156.3541915714
20
205.7082145502
11
156.3541915714
21
206.0058063607
0
LINE
5
2D9
100
AcDbEntity
8
0
100
AcDbLine
62
4
6
CONTINUOUS
10
157.1477697563
20
207.1217756501
11
157.1477697563
21
206.6753879343
0
LINE
5
2DA
100
AcDbEntity
8
0
100
AcDbLine
62
4
6
CONTINUOUS
10
157.1477697563
20
196.4084704720
11
157.1477697563
21
195.9620827562
0
LINE
5
2DB
100
AcDbEntity
8
0
100
AcDbLine
62
4
6
CONTINUOUS
10
157.5445588134
20
204.8154391187
11
157.5445588134
21
204.4434493556
0
LINE
5
2DC
100
AcDbEntity
8
0
100
AcDbLine
62
4
6
CONTINUOUS
10
158.7349260554
20
206.0058063607
11
158.7349260554
21
205.7082145502
0
LINE
5
2DD
100
AcDbEntity
8
0
100
AcDbLine
62
4
6
CONTINUOUS
10
158.7349260554
20
204.8154391187
11
158.7349260554
21
204.2202554977
0
LINE
5
2DE
100
AcDbEntity
8
0
100
AcDbLine
62
4
6
CONTINUOUS
10
158.7349260554
20
197.7476336192
11
158.7349260554
21
197.0036540930
0
LINE
5
2DF
100
AcDbEntity
8
0
100
AcDbLine
62
4
6
CONTINUOUS
10
161.2540085525
20
201.1341326552
11
161.2540085525
21
202.1841326552
0
LINE
5
2E0
100
AcDbEntity
8
0
100
AcDbLine
62
4
6
CONTINUOUS
10
161.5040085823
20
203.8341326552
11
161.5040085823
21
204.5841326552
0
LINE
5
2E1
100
AcDbEntity
8
0
100
AcDbLine
62
4
6
CONTINUOUS
10
163.0040085823
20
204.5841326552
11
163.0040085823
21
203.8341326552
0
LINE
5
2E2
100
AcDbEntity
8
0
100
AcDbLine
62
4
6
CONTINUOUS
10
163.5040085823
20
209.6841326552
11
163.5040085823
21
192.6841326552
0
LINE
5
2E3
100
AcDbEntity
8
0
100
AcDbLine
62
7
6
CONTINUOUS
10
30.7540085823
20
80.7617086665
11
30.7540085823
21
75.9701123115
0
LINE
5
2E4
100
AcDbEntity
8
0
100
AcDbLine
62
7
6
CONTINUOUS
10
30.7540085823
20
30.5533050216
11
30.7540085823
21
25.7617086665
0
LINE
5
2E5
100
AcDbEntity
8
0
100
AcDbLine
62
2
6
CONTINUOUS
10
32.9059154884
20
24.7617086665
11
30.7540085823
21
26.9136155726
0
LINE
5
2E6
100
AcDbEntity
8
0
100
AcDbLine
62
2
6
CONTINUOUS
10
35.6494536735
20
24.8465976062
11
30.7540085823
21
29.7420426974
0
LINE
5
2E7
100
AcDbEntity
8
0
100
AcDbLine
62
2
6
CONTINUOUS
10
36.7205616302
20
26.6039167743
11
32.7031092865
21
30.6213691180
0
LINE
5
2E8
100
AcDbEntity
8
0
100
AcDbLine
62
2
6
CONTINUOUS
10
39.3911968627
20
26.7617086665
11
35.4360983308
21
30.7168071984
0
LINE
5
2E9
100
AcDbEntity
8
0
100
AcDbLine
62
2
6
CONTINUOUS
10
42.2196239874
20
26.7617086665
11
38.1690873751
21
30.8122452789
0
LINE
5
2EA
100
AcDbEntity
8
0
100
AcDbLine
62
2
6
CONTINUOUS
10
45.0480511121
20
26.7617086665
11
40.9020764194
21
30.9076833593
0
LINE
5
2EB
100
AcDbEntity
8
0
100
AcDbLine
62
2
6
CONTINUOUS
10
47.8764782369
20
26.7617086665
11
43.6350654637
21
31.0031214397
0
LINE
5
2EC
100
AcDbEntity
8
0
100
AcDbLine
62
2
6
CONTINUOUS
10
50.7049053616
20
26.7617086665
11
46.3680545080
21
31.0985595202
0
LINE
5
2ED
100
AcDbEntity
8
0
100
AcDbLine
62
2
6
CONTINUOUS
10
53.0777490106
20
27.2172921423
11
49.1010435523
21
31.1939976006
0
LINE
5
2EE
100
AcDbEntity
8
0
100
AcDbLine
62
7
6
CONTINUOUS
10
52.0040085823
20
74.3097746128
11
53.0040085823
21
53.2617086665
0
LINE
5
2EF
100
AcDbEntity
8
0
100
AcDbLine
62
7
6
CONTINUOUS
10
56.0040085823
20
74.7617086665
11
56.0040085823
21
60.7617086665
0
LINE
5
2F0
100
AcDbEntity
8
0
100
AcDbLine
62
7
6
CONTINUOUS
10
56.0040085823
20
45.7617086665
11
56.0040085823
21
31.7617086665
0
LINE
5
2F1
100
AcDbEntity
8
0
100
AcDbLine
62
7
6
CONTINUOUS
10
53.0040085823
20
53.2617086665
11
52.0040085823
21
32.2136427203
0
LINE
5
2F2
100
AcDbEntity
8
0
100
AcDbLine
62
2
6
CONTINUOUS
10
54.7082578826
20
28.4152103951
11
51.6340141200
21
31.4894541577
0
LINE
5
2F3
100
AcDbEntity
8
0
100
AcDbLine
62
2
6
CONTINUOUS
10
55.7496541607
20
30.2022412417
11
52.0826660076
21
33.8692293948
0
LINE
5
2F4
100
AcDbEntity
8
0
100
AcDbLine
62
2
6
CONTINUOUS
10
56.0040085823
20
32.7763139448
11
52.2109505987
21
36.5693719284
0
LINE
5
2F5
100
AcDbEntity
8
0
100
AcDbLine
62
2
6
CONTINUOUS
10
56.0040085823
20
35.6047410696
11
52.3392351899
21
39.2695144621
0
LINE
5
2F6
100
AcDbEntity
8
0
100
AcDbLine
62
2
6
CONTINUOUS
10
56.0040085823
20
38.4331681943
11
52.4675197810
21
41.9696569957
0
LINE
5
2F7
100
AcDbEntity
8
0
100
AcDbLine
62
2
6
CONTINUOUS
10
56.0040085823
20
41.2615953191
11
52.5958043721
21
44.6697995293
0
LINE
5
2F8
100
AcDbEntity
8
0
100
AcDbLine
62
2
6
CONTINUOUS
10
56.0040085823
20
44.0900224438
11
52.7240889632
21
47.3699420630
0
LINE
5
2F9
100
AcDbEntity
8
0
100
AcDbLine
62
2
6
CONTINUOUS
10
56.1175835577
20
46.8048745932
11
52.8523735543
21
50.0700845966
0
LINE
5
2FA
100
AcDbEntity
8
0
100
AcDbLine
62
7
6
CONTINUOUS
10
84.0040085823
20
22.5117086665
11
120.0040085823
21
22.5117086665
0
LINE
5
2FB
100
AcDbEntity
8
0
100
AcDbLine
62
2
6
CONTINUOUS
10
57.0023049807
20
48.7485802950
11
52.9806581454
21
52.7702271302
0
LINE
5
2FC
100
AcDbEntity
8
0
100
AcDbLine
62
2
6
CONTINUOUS
10
86.0676037338
20
22.5117086665
11
82.9069682344
21
25.6723441660
0
LINE
5
2FD
100
AcDbEntity
8
0
100
AcDbLine
62
2
6
CONTINUOUS
10
58.4986551215
20
50.0806572789
11
52.8886061711
21
55.6907062293
0
LINE
5
2FE
100
AcDbEntity
8
0
100
AcDbLine
62
2
6
CONTINUOUS
10
32.6763289970
20
75.9029834034
11
30.7540085823
21
77.8253038181
0
LINE
5
2FF
100
AcDbEntity
8
0
100
AcDbLine
62
2
6
CONTINUOUS
10
88.8960308586
20
22.5117086665
11
82.7753784530
21
28.6323610721
0
LINE
5
300
100
AcDbEntity
8
0
100
AcDbLine
62
2
6
CONTINUOUS
10
60.6653461208
20
50.7423934044
11
52.7475238775
21
58.6602156476
0
LINE
5
301
100
AcDbEntity
8
0
100
AcDbLine
62
2
6
CONTINUOUS
10
35.6071009329
20
75.8006385922
11
30.7540085823
21
80.6537309428
0
LINE
5
302
100
AcDbEntity
8
0
100
AcDbLine
62
7
6
CONTINUOUS
10
82.9474512215
20
24.7617086665
11
31.7540085823
21
24.7617086665
0
LINE
5
303
100
AcDbEntity
8
0
100
AcDbLine
62
7
6
CONTINUOUS
10
121.0605659432
20
24.7617086665
11
172.2540085823
21
24.7617086665
0
LINE
5
304
100
AcDbEntity
8
0
100
AcDbLine
62
7
6
CONTINUOUS
10
167.7540085823
20
25.7617086665
11
121.1050216965
21
25.7617086665
0
LINE
5
305
100
AcDbEntity
8
0
100
AcDbLine
62
7
6
CONTINUOUS
10
82.9029954682
20
25.7617086665
11
36.2540085823
21
25.7617086665
0
LINE
5
306
100
AcDbEntity
8
0
100
AcDbLine
62
7
6
CONTINUOUS
10
37.2540085823
20
26.7617086665
11
82.8585397149
21
26.7617086665
0
LINE
5
307
100
AcDbEntity
8
0
100
AcDbLine
62
7
6
CONTINUOUS
10
121.1494774498
20
26.7617086665
11
166.7540085823
21
26.7617086665
0
LINE
5
308
100
AcDbEntity
8
0
100
AcDbLine
62
2
6
CONTINUOUS
10
89.5040085823
20
24.7321580675
11
82.6437886717
21
31.5923779782
0
LINE
5
309
100
AcDbEntity
8
0
100
AcDbLine
62
2
6
CONTINUOUS
10
63.4744579833
20
50.7617086665
11
52.6064415840
21
61.6297250659
0
LINE
5
30A
100
AcDbEntity
8
0
100
AcDbLine
62
2
6
CONTINUOUS
10
38.5378728689
20
75.6982937810
11
32.4744579833
21
81.7617086665
0
LINE
5
30B
100
AcDbEntity
8
0
100
AcDbLine
62
2
6
CONTINUOUS
10
89.5040085823
20
27.5605851923
11
82.5121988904
21
34.5523948843
0
LINE
5
30C
100
AcDbEntity
8
0
100
AcDbLine
62
2
6
CONTINUOUS
10
66.3028851081
20
50.7617086665
11
61.3028851081
21
55.7617086665
0
LINE
5
30D
100
AcDbEntity
8
0
100
AcDbLine
62
2
6
CONTINUOUS
10
56.0040085823
20
61.0605851923
11
52.4653592905
21
64.5992344842
0
LINE
5
30E
100
AcDbEntity
8
0
100
AcDbLine
62
2
6
CONTINUOUS
10
41.4686448048
20
75.5959489698
11
37.3028851081
21
79.7617086665
0
LINE
5
30F
100
AcDbEntity
8
0
100
AcDbLine
62
2
6
CONTINUOUS
10
36.2496957846
20
80.8148979900
11
35.3071979058
21
81.7573958688
0
LINE
5
310
100
AcDbEntity
8
0
100
AcDbLine
62
7
6
CONTINUOUS
10
82.0040085823
20
45.9837681117
11
83.0049952771
21
23.4672967775
0
LINE
5
311
100
AcDbEntity
8
0
100
AcDbLine
62
7
6
CONTINUOUS
10
83.0049952771
20
83.0561205556
11
82.0040085823
21
60.5396492214
0
LINE
5
312
100
AcDbEntity
8
0
100
AcDbLine
62
7
6
CONTINUOUS
10
51.0400347864
20
31.2617086665
11
30.7540085823
21
30.5533050216
0
LINE
5
313
100
AcDbEntity
8
0
100
AcDbLine
62
7
6
CONTINUOUS
10
56.0040085823
20
31.7617086665
11
82.6362609484
21
31.7617086665
0
LINE
5
314
100
AcDbEntity
8
0
100
AcDbLine
62
7
6
CONTINUOUS
10
121.3717562163
20
31.7617086665
11
148.0040085823
21
31.7617086665
0
LINE
5
315
100
AcDbEntity
8
0
100
AcDbLine
62
7
6
CONTINUOUS
10
152.9679823782
20
31.2617086665
11
173.2540085823
21
30.5533050216
0
LINE
5
316
100
AcDbEntity
8
0
100
AcDbLine
62
2
6
CONTINUOUS
10
89.5040085823
20
30.3890123170
11
82.3806091090
21
37.5124117903
0
LINE
5
317
100
AcDbEntity
8
0
100
AcDbLine
62
2
6
CONTINUOUS
10
69.1313122328
20
50.7617086665
11
64.1313122328
21
55.7617086665
0
LINE
5
318
100
AcDbEntity
8
0
100
AcDbLine
62
2
6
CONTINUOUS
10
56.0040085823
20
63.8890123170
11
52.3242769969
21
67.5687439025
0
LINE
5
319
100
AcDbEntity
8
0
100
AcDbLine
62
2
6
CONTINUOUS
10
44.3994167408
20
75.4936041586
11
40.1313122328
21
79.7617086665
0
LINE
5
31A
100
AcDbEntity
8
0
100
AcDbLine
62
2
6
CONTINUOUS
10
89.5040085823
20
33.2174394418
11
82.2490193277
21
40.4724286964
0
LINE
5
31B
100
AcDbEntity
8
0
100
AcDbLine
62
2
6
CONTINUOUS
10
71.9597393576
20
50.7617086665
11
66.9597393576
21
55.7617086665
0
LINE
5
31C
100
AcDbEntity
8
0
100
AcDbLine
62
2
6
CONTINUOUS
10
56.0040085823
20
66.7174394418
11
52.1831947034
21
70.5382533208
0
LINE
5
31D
100
AcDbEntity
8
0
100
AcDbLine
62
2
6
CONTINUOUS
10
47.3301886767
20
75.3912593474
11
42.9597393576
21
79.7617086665
0
LINE
5
31E
100
AcDbEntity
8
0
100
AcDbLine
62
2
6
CONTINUOUS
10
89.5040085823
20
36.0458665665
11
82.1174295464
21
43.4324456025
0
LINE
5
31F
100
AcDbEntity
8
0
100
AcDbLine
62
2
6
CONTINUOUS
10
74.7881664823
20
50.7617086665
11
69.7881664823
21
55.7617086665
0
LINE
5
320
100
AcDbEntity
8
0
100
AcDbLine
62
2
6
CONTINUOUS
10
56.0040085823
20
69.5458665665
11
52.0421124098
21
73.5077627390
0
LINE
5
321
100
AcDbEntity
8
0
100
AcDbLine
62
2
6
CONTINUOUS
10
50.2609606127
20
75.2889145362
11
45.7881664823
21
79.7617086665
0
LINE
5
322
100
AcDbEntity
8
0
100
AcDbLine
62
2
6
CONTINUOUS
10
89.5040085823
20
38.8742936913
11
81.9558748042
21
46.4224274694
0
LINE
5
323
100
AcDbEntity
8
0
100
AcDbLine
62
2
6
CONTINUOUS
10
77.6604851343
20
50.7178171393
11
72.6165936071
21
55.7617086665
0
LINE
5
324
100
AcDbEntity
8
0
100
AcDbLine
62
2
6
CONTINUOUS
10
56.0040085823
20
72.3742936913
11
48.6165936071
21
79.7617086665
0
LINE
5
325
100
AcDbEntity
8
0
100
AcDbLine
62
2
6
CONTINUOUS
10
89.5040085823
20
41.7027208160
11
75.4450207318
21
55.7617086665
0
LINE
5
326
100
AcDbEntity
8
0
100
AcDbLine
62
2
6
CONTINUOUS
10
55.9773345883
20
75.2293948100
11
51.4716947258
21
79.7350346725
0
LINE
5
327
100
AcDbEntity
8
0
100
AcDbLine
62
2
6
CONTINUOUS
10
89.5040085823
20
44.5311479408
11
78.1375425725
21
55.8976139506
0
LINE
5
328
100
AcDbEntity
8
0
100
AcDbLine
62
7
6
CONTINUOUS
10
89.5040085823
20
84.0117086665
11
89.5040085823
21
22.5117086665
0
LINE
5
329
100
AcDbEntity
8
0
100
AcDbLine
62
2
6
CONTINUOUS
10
114.5040085823
20
82.4407810942
11
116.0749361547
21
84.0117086665
0
LINE
5
32A
100
AcDbEntity
8
0
100
AcDbLine
62
2
6
CONTINUOUS
10
114.5040085823
20
79.6123539695
11
118.9033632794
21
84.0117086665
0
LINE
5
32B
100
AcDbEntity
8
0
100
AcDbLine
62
2
6
CONTINUOUS
10
89.5040085823
20
47.3595750655
11
80.0575214882
21
56.8060621597
0
LINE
5
32C
100
AcDbEntity
8
0
100
AcDbLine
62
2
6
CONTINUOUS
10
89.5040085823
20
50.1880021903
11
81.3653234527
21
58.3266873199
0
LINE
5
32D
100
AcDbEntity
8
0
100
AcDbLine
62
2
6
CONTINUOUS
10
114.5040085823
20
76.7839268447
11
120.9733765087
21
83.2532947711
0
LINE
5
32E
100
AcDbEntity
8
0
100
AcDbLine
62
2
6
CONTINUOUS
10
114.5040085823
20
73.9554997200
11
121.1137555613
21
80.5652466989
0
LINE
5
32F
100
AcDbEntity
8
0
100
AcDbLine
62
7
6
CONTINUOUS
10
56.0040085823
20
45.7617086665
11
82.0138804023
21
45.7617086665
0
LINE
5
330
100
AcDbEntity
8
0
100
AcDbLine
62
7
6
CONTINUOUS
10
121.9941367624
20
45.7617086665
11
148.0040085823
21
45.7617086665
0
LINE
5
331
100
AcDbEntity
8
0
100
AcDbLine
62
2
6
CONTINUOUS
10
89.5040085823
20
53.0164293150
11
82.0017126136
21
60.5187252837
0
LINE
5
332
100
AcDbEntity
8
0
100
AcDbLine
62
2
6
CONTINUOUS
10
89.5040085823
20
55.8448564398
11
82.1234081832
21
63.2254568389
0
LINE
5
333
100
AcDbEntity
8
0
100
AcDbLine
62
2
6
CONTINUOUS
10
89.5040085823
20
58.6732835645
11
82.2437961059
21
65.9334960410
0
LINE
5
334
100
AcDbEntity
8
0
100
AcDbLine
62
7
6
CONTINUOUS
10
102.0040085823
20
84.0117086665
11
102.0040085823
21
22.5117086665
0
LINE
5
335
100
AcDbEntity
8
0
100
AcDbLine
62
2
6
CONTINUOUS
10
114.5040085823
20
71.1270725952
11
121.2341434840
21
77.8572074968
0
LINE
5
336
100
AcDbEntity
8
0
100
AcDbLine
62
2
6
CONTINUOUS
10
114.5040085823
20
68.2986454705
11
121.3545314066
21
75.1491682948
0
LINE
5
337
100
AcDbEntity
8
0
100
AcDbLine
62
2
6
CONTINUOUS
10
114.5040085823
20
65.4702183457
11
121.4749193293
21
72.4411290927
0
LINE
5
338
100
AcDbEntity
8
0
100
AcDbLine
62
7
6
CONTINUOUS
10
77.0089420560
20
50.7617086665
11
61.0040085823
21
50.7617086665
0
LINE
5
339
100
AcDbEntity
8
0
100
AcDbLine
62
7
6
CONTINUOUS
10
126.9990751087
20
50.7617086665
11
143.0040085823
21
50.7617086665
0
LINE
5
33A
100
AcDbEntity
8
0
100
AcDbLine
62
2
6
CONTINUOUS
10
89.5040085823
20
61.5017106892
11
82.3641840286
21
68.6415352430
0
LINE
5
33B
100
AcDbEntity
8
0
100
AcDbLine
62
2
6
CONTINUOUS
10
89.5040085823
20
64.3301378140
11
82.4845719512
21
71.3495744451
0
LINE
5
33C
100
AcDbEntity
8
0
100
AcDbLine
62
2
6
CONTINUOUS
10
114.5040085823
20
62.6417912210
11
121.5953072520
21
69.7330898907
0
LINE
5
33D
100
AcDbEntity
8
0
100
AcDbLine
62
2
6
CONTINUOUS
10
114.5040085823
20
59.8133640962
11
121.7156951747
21
67.0250506886
0
LINE
5
33E
100
AcDbEntity
8
0
100
AcDbLine
62
7
6
CONTINUOUS
10
77.0089420560
20
55.7617086665
11
61.0040085823
21
55.7617086665
0
LINE
5
33F
100
AcDbEntity
8
0
100
AcDbLine
62
7
6
CONTINUOUS
10
126.9990751087
20
55.7617086665
11
143.0040085823
21
55.7617086665
0
LINE
5
340
100
AcDbEntity
8
0
100
AcDbLine
62
2
6
CONTINUOUS
10
89.5040085823
20
67.1585649387
11
82.6049598739
21
74.0576136472
0
LINE
5
341
100
AcDbEntity
8
0
100
AcDbLine
62
2
6
CONTINUOUS
10
89.5040085823
20
69.9869920635
11
82.7253477966
21
76.7656528492
0
LINE
5
342
100
AcDbEntity
8
0
100
AcDbLine
62
2
6
CONTINUOUS
10
89.5040085823
20
72.8154191882
11
82.8457357193
21
79.4736920513
0
LINE
5
343
100
AcDbEntity
8
0
100
AcDbLine
62
2
6
CONTINUOUS
10
114.5040085823
20
56.9849369715
11
121.8360830974
21
64.3170114865
0
LINE
5
344
100
AcDbEntity
8
0
100
AcDbLine
62
2
6
CONTINUOUS
10
114.5040085823
20
54.1565098467
11
121.9564710201
21
61.6089722845
0
LINE
5
345
100
AcDbEntity
8
0
100
AcDbLine
62
2
6
CONTINUOUS
10
114.5040085823
20
51.3280827220
11
122.2881267971
21
59.1122009368
0
LINE
5
346
100
AcDbEntity
8
0
100
AcDbLine
62
7
6
CONTINUOUS
10
56.0040085823
20
60.7617086665
11
82.0138804023
21
60.7617086665
0
LINE
5
347
100
AcDbEntity
8
0
100
AcDbLine
62
7
6
CONTINUOUS
10
121.9941367624
20
60.7617086665
11
148.0040085823
21
60.7617086665
0
LINE
5
348
100
AcDbEntity
8
0
100
AcDbLine
62
2
6
CONTINUOUS
10
89.5040085823
20
75.6438463130
11
82.9661236420
21
82.1817312534
0
LINE
5
349
100
AcDbEntity
8
0
100
AcDbLine
62
2
6
CONTINUOUS
10
89.5040085823
20
78.4722734377
11
83.9681559415
21
84.0081260785
0
LINE
5
34A
100
AcDbEntity
8
0
100
AcDbLine
62
2
6
CONTINUOUS
10
89.5040085823
20
81.3007005625
11
86.7930004783
21
84.0117086665
0
LINE
5
34B
100
AcDbEntity
8
0
100
AcDbLine
62
7
6
CONTINUOUS
10
114.5040085823
20
84.0117086665
11
114.5040085823
21
22.5117086665
0
LINE
5
34C
100
AcDbEntity
8
0
100
AcDbLine
62
2
6
CONTINUOUS
10
114.5040085823
20
48.4996555973
11
123.3561327486
21
57.3517797635
0
LINE
5
34D
100
AcDbEntity
8
0
100
AcDbLine
62
2
6
CONTINUOUS
10
114.5040085823
20
45.6712284725
11
125.0135090231
21
56.1807289133
0
LINE
5
34E
100
AcDbEntity
8
0
100
AcDbLine
62
2
6
CONTINUOUS
10
114.5040085823
20
42.8428013478
11
127.4229159011
21
55.7617086665
0
LINE
5
34F
100
AcDbEntity
8
0
100
AcDbLine
62
2
6
CONTINUOUS
10
148.4334502546
20
76.7722430200
11
150.9934742289
21
79.3322669943
0
LINE
5
350
100
AcDbEntity
8
0
100
AcDbLine
62
7
6
CONTINUOUS
10
121.0030218876
20
83.0561205556
11
122.0040085823
21
60.5396492214
0
LINE
5
351
100
AcDbEntity
8
0
100
AcDbLine
62
7
6
CONTINUOUS
10
122.0040085823
20
45.9837681117
11
121.0030218876
21
23.4672967775
0
LINE
5
352
100
AcDbEntity
8
0
100
AcDbLine
62
2
6
CONTINUOUS
10
114.5040085823
20
40.0143742230
11
122.5930682777
21
48.1034339184
0
LINE
5
353
100
AcDbEntity
8
0
100
AcDbLine
62
2
6
CONTINUOUS
10
124.6676036330
20
50.1779692736
11
130.2513430259
21
55.7617086665
0
LINE
5
354
100
AcDbEntity
8
0
100
AcDbLine
62
2
6
CONTINUOUS
10
148.0040085823
20
73.5143742230
11
154.2513430259
21
79.7617086665
0
LINE
5
355
100
AcDbEntity
8
0
100
AcDbLine
62
2
6
CONTINUOUS
10
114.5040085823
20
37.1859470983
11
121.9436287402
21
44.6255672561
0
LINE
5
356
100
AcDbEntity
8
0
100
AcDbLine
62
2
6
CONTINUOUS
10
128.0797701506
20
50.7617086665
11
133.0797701506
21
55.7617086665
0
LINE
5
357
100
AcDbEntity
8
0
100
AcDbLine
62
2
6
CONTINUOUS
10
148.0040085823
20
70.6859470983
11
157.0797701506
21
79.7617086665
0
LINE
5
358
100
AcDbEntity
8
0
100
AcDbLine
62
7
6
CONTINUOUS
10
173.2540085823
20
75.9701123115
11
152.9679823782
21
75.2617086665
0
LINE
5
359
100
AcDbEntity
8
0
100
AcDbLine
62
7
6
CONTINUOUS
10
30.7540085823
20
75.9701123115
11
51.0400347864
21
75.2617086665
0
LINE
5
35A
100
AcDbEntity
8
0
100
AcDbLine
62
2
6
CONTINUOUS
10
114.5040085823
20
34.3575199735
11
121.8120389589
21
41.6655503500
0
LINE
5
35B
100
AcDbEntity
8
0
100
AcDbLine
62
2
6
CONTINUOUS
10
130.9081972754
20
50.7617086665
11
135.9081972754
21
55.7617086665
0
LINE
5
35C
100
AcDbEntity
8
0
100
AcDbLine
62
2
6
CONTINUOUS
10
148.0040085823
20
67.8575199735
11
151.8816898187
21
71.7352012099
0
LINE
5
35D
100
AcDbEntity
8
0
100
AcDbLine
62
2
6
CONTINUOUS
10
155.4964948775
20
75.3500062687
11
159.9081972754
21
79.7617086665
0
LINE
5
35E
100
AcDbEntity
8
0
100
AcDbLine
62
2
6
CONTINUOUS
10
114.5040085823
20
31.5290928488
11
121.6804491775
21
38.7055334440
0
LINE
5
35F
100
AcDbEntity
8
0
100
AcDbLine
62
2
6
CONTINUOUS
10
133.7366244001
20
50.7617086665
11
138.7366244001
21
55.7617086665
0
LINE
5
360
100
AcDbEntity
8
0
100
AcDbLine
62
2
6
CONTINUOUS
10
148.0040085823
20
65.0290928488
11
151.7406075252
21
68.7656917916
0
LINE
5
361
100
AcDbEntity
8
0
100
AcDbLine
62
2
6
CONTINUOUS
10
158.4272668135
20
75.4523510799
11
162.7366244001
21
79.7617086665
0
LINE
5
362
100
AcDbEntity
8
0
100
AcDbLine
62
2
6
CONTINUOUS
10
114.5040085823
20
28.7006657240
11
121.5488593962
21
35.7455165379
0
LINE
5
363
100
AcDbEntity
8
0
100
AcDbLine
62
2
6
CONTINUOUS
10
136.5650515249
20
50.7617086665
11
141.5650515249
21
55.7617086665
0
LINE
5
364
100
AcDbEntity
8
0
100
AcDbLine
62
2
6
CONTINUOUS
10
148.0040085823
20
62.2006657240
11
151.5995252317
21
65.7961823733
0
LINE
5
365
100
AcDbEntity
8
0
100
AcDbLine
62
2
6
CONTINUOUS
10
161.3580387494
20
75.5546958911
11
165.5650515249
21
79.7617086665
0
LINE
5
366
100
AcDbEntity
8
0
100
AcDbLine
62
7
6
CONTINUOUS
10
56.0040085823
20
74.7617086665
11
82.6362609484
21
74.7617086665
0
LINE
5
367
100
AcDbEntity
8
0
100
AcDbLine
62
7
6
CONTINUOUS
10
121.3717562163
20
74.7617086665
11
148.0040085823
21
74.7617086665
0
LINE
5
368
100
AcDbEntity
8
0
100
AcDbLine
62
7
6
CONTINUOUS
10
37.2540085823
20
79.7617086665
11
82.8585397149
21
79.7617086665
0
LINE
5
369
100
AcDbEntity
8
0
100
AcDbLine
62
7
6
CONTINUOUS
10
121.1494774498
20
79.7617086665
11
166.7540085823
21
79.7617086665
0
LINE
5
36A
100
AcDbEntity
8
0
100
AcDbLine
62
2
6
CONTINUOUS
10
114.5040085823
20
25.8722385993
11
121.4172696149
21
32.7854996318
0
LINE
5
36B
100
AcDbEntity
8
0
100
AcDbLine
62
2
6
CONTINUOUS
10
139.3934786496
20
50.7617086665
11
144.6877669638
21
56.0559969807
0
LINE
5
36C
100
AcDbEntity
8
0
100
AcDbLine
62
2
6
CONTINUOUS
10
147.7097202682
20
59.0779502851
11
151.4584429381
21
62.8266729551
0
LINE
5
36D
100
AcDbEntity
8
0
100
AcDbLine
62
2
6
CONTINUOUS
10
164.2888106854
20
75.6570407023
11
170.3934786496
21
81.7617086665
0
LINE
5
36E
100
AcDbEntity
8
0
100
AcDbLine
62
2
6
CONTINUOUS
10
114.5040085823
20
23.0438114745
11
121.2856798335
21
29.8254827257
0
LINE
5
36F
100
AcDbEntity
8
0
100
AcDbLine
62
2
6
CONTINUOUS
10
142.2219057744
20
50.7617086665
11
151.3173606446
21
59.8571635368
0
LINE
5
370
100
AcDbEntity
8
0
100
AcDbLine
62
2
6
CONTINUOUS
10
167.2195826213
20
75.7593855135
11
172.9436638085
21
81.4834667007
0
LINE
5
371
100
AcDbEntity
8
0
100
AcDbLine
62
7
6
CONTINUOUS
10
167.7540085823
20
80.7617086665
11
121.1050216965
21
80.7617086665
0
LINE
5
372
100
AcDbEntity
8
0
100
AcDbLine
62
7
6
CONTINUOUS
10
82.9029954682
20
80.7617086665
11
36.2540085823
21
80.7617086665
0
LINE
5
373
100
AcDbEntity
8
0
100
AcDbLine
62
7
6
CONTINUOUS
10
82.9474512215
20
81.7617086665
11
31.7540085823
21
81.7617086665
0
LINE
5
374
100
AcDbEntity
8
0
100
AcDbLine
62
7
6
CONTINUOUS
10
121.0605659432
20
81.7617086665
11
172.2540085823
21
81.7617086665
0
LINE
5
375
100
AcDbEntity
8
0
100
AcDbLine
62
7
6
CONTINUOUS
10
84.0040085823
20
84.0117086665
11
120.0040085823
21
84.0117086665
0
LINE
5
376
100
AcDbEntity
8
0
100
AcDbLine
62
2
6
CONTINUOUS
10
116.8003328991
20
22.5117086665
11
121.1540900522
21
26.8654658197
0
LINE
5
377
100
AcDbEntity
8
0
100
AcDbLine
62
2
6
CONTINUOUS
10
144.7360676119
20
50.4474433793
11
151.1762783510
21
56.8876541185
0
LINE
5
378
100
AcDbEntity
8
0
100
AcDbLine
62
2
6
CONTINUOUS
10
170.1503545573
20
75.8617303247
11
173.2540085823
21
78.9653843498
0
LINE
5
379
100
AcDbEntity
8
0
100
AcDbLine
62
2
6
CONTINUOUS
10
119.6287600238
20
22.5117086665
11
121.0225002709
21
23.9054489136
0
LINE
5
37A
100
AcDbEntity
8
0
100
AcDbLine
62
2
6
CONTINUOUS
10
146.4732251723
20
49.3561738150
11
151.0351960575
21
53.9181447002
0
LINE
5
37B
100
AcDbEntity
8
0
100
AcDbLine
62
2
6
CONTINUOUS
10
173.0811264932
20
75.9640751359
11
173.2540085823
21
76.1369572250
0
LINE
5
37C
100
AcDbEntity
8
0
100
AcDbLine
62
2
6
CONTINUOUS
10
147.6164517236
20
47.6709732415
11
151.1039347424
21
51.1584562603
0
LINE
5
37D
100
AcDbEntity
8
0
100
AcDbLine
62
2
6
CONTINUOUS
10
148.0040085823
20
45.2301029756
11
151.2322193335
21
48.4583137267
0
LINE
5
37E
100
AcDbEntity
8
0
100
AcDbLine
62
2
6
CONTINUOUS
10
148.0040085823
20
42.4016758508
11
151.3605039246
21
45.7581711931
0
LINE
5
37F
100
AcDbEntity
8
0
100
AcDbLine
62
7
6
CONTINUOUS
10
148.0040085823
20
74.7617086665
11
148.0040085823
21
60.7617086665
0
LINE
5
380
100
AcDbEntity
8
0
100
AcDbLine
62
7
6
CONTINUOUS
10
148.0040085823
20
45.7617086665
11
148.0040085823
21
31.7617086665
0
LINE
5
381
100
AcDbEntity
8
0
100
AcDbLine
62
2
6
CONTINUOUS
10
148.0040085823
20
39.5732487261
11
151.4887885157
21
43.0580286594
0
LINE
5
382
100
AcDbEntity
8
0
100
AcDbLine
62
2
6
CONTINUOUS
10
148.0040085823
20
36.7448216013
11
151.6170731068
21
40.3578861258
0
LINE
5
383
100
AcDbEntity
8
0
100
AcDbLine
62
2
6
CONTINUOUS
10
148.0040085823
20
33.9163944766
11
151.7453576979
21
37.6577435922
0
LINE
5
384
100
AcDbEntity
8
0
100
AcDbLine
62
7
6
CONTINUOUS
10
151.0040085823
20
53.2617086665
11
152.0040085823
21
32.2136427203
0
LINE
5
385
100
AcDbEntity
8
0
100
AcDbLine
62
7
6
CONTINUOUS
10
152.0040085823
20
74.3097746128
11
151.0040085823
21
53.2617086665
0
LINE
5
386
100
AcDbEntity
8
0
100
AcDbLine
62
2
6
CONTINUOUS
10
148.0475013206
20
31.1314600901
11
151.8736422891
21
34.9576010585
0
LINE
5
387
100
AcDbEntity
8
0
100
AcDbLine
62
2
6
CONTINUOUS
10
148.8019685876
20
29.0575002323
11
152.0019268802
21
32.2574585249
0
LINE
5
388
100
AcDbEntity
8
0
100
AcDbLine
62
2
6
CONTINUOUS
10
150.2019295450
20
27.6290340650
11
153.8053621989
21
31.2324667189
0
LINE
5
389
100
AcDbEntity
8
0
100
AcDbLine
62
2
6
CONTINUOUS
10
152.2307896053
20
26.8294670006
11
156.5383512432
21
31.1370286384
0
LINE
5
38A
100
AcDbEntity
8
0
100
AcDbLine
62
2
6
CONTINUOUS
10
154.9914583961
20
26.7617086665
11
159.2713402875
21
31.0415905580
0
LINE
5
38B
100
AcDbEntity
8
0
100
AcDbLine
62
2
6
CONTINUOUS
10
157.8198855208
20
26.7617086665
11
162.0043293318
21
30.9461524775
0
LINE
5
38C
100
AcDbEntity
8
0
100
AcDbLine
62
2
6
CONTINUOUS
10
160.6483126455
20
26.7617086665
11
164.7373183761
21
30.8507143971
0
LINE
5
38D
100
AcDbEntity
8
0
100
AcDbLine
62
2
6
CONTINUOUS
10
163.4767397703
20
26.7617086665
11
167.4703074204
21
30.7552763167
0
LINE
5
38E
100
AcDbEntity
8
0
100
AcDbLine
62
2
6
CONTINUOUS
10
166.3051668950
20
26.7617086665
11
170.2032964647
21
30.6598382362
0
LINE
5
38F
100
AcDbEntity
8
0
100
AcDbLine
62
2
6
CONTINUOUS
10
167.8093040842
20
25.4374187309
11
172.9362855090
21
30.5644001558
0
LINE
5
390
100
AcDbEntity
8
0
100
AcDbLine
62
7
6
CONTINUOUS
10
173.2540085823
20
80.7617086665
11
173.2540085823
21
75.9701123115
0
LINE
5
391
100
AcDbEntity
8
0
100
AcDbLine
62
7
6
CONTINUOUS
10
173.2540085823
20
30.5533050216
11
173.2540085823
21
25.7617086665
0
LINE
5
392
100
AcDbEntity
8
0
100
AcDbLine
62
2
6
CONTINUOUS
10
169.9620211445
20
24.7617086665
11
173.2540085823
21
28.0536961044
0
LWPOLYLINE
5
393
100
AcDbEntity
8
0
100
AcDbPolyline
62
7
6
CONTINUOUS
90
15
70
0
10
302.8362063885
20
102.6389409560
10
304.6583645739
20
102.7816006182
10
306.4854833410
20
103.2134809732
10
308.3093369585
20
103.9401094403
10
310.1172720300
20
104.9634271589
10
311.9013157436
20
106.2850627132
10
313.6470956588
20
107.8987149040
10
315.3413783285
20
109.7927293907
10
316.9775923856
20
111.9582320427
10
318.5465790730
20
114.3802734615
10
320.0441707084
20
117.0488057919
10
321.4646286211
20
119.9501392422
10
322.8038119017
20
123.0723949888
10
324.0573702241
20
126.4024650322
10
325.2208183637
20
129.9255933135
0
LINE
5
394
100
AcDbEntity
8
0
100
AcDbLine
62
7
6
CONTINUOUS
10
252.1778517183
20
102.6389409560
11
256.5912042200
21
102.6389409560
0
LINE
5
395
100
AcDbEntity
8
0
100
AcDbLine
62
7
6
CONTINUOUS
10
298.4228538869
20
102.6389409560
11
302.8362063885
21
102.6389409560
0
LINE
5
396
100
AcDbEntity
8
0
100
AcDbLine
62
7
6
CONTINUOUS
10
230.9566878828
20
221.3754168797
11
229.7932397431
21
217.8522885984
0
LWPOLYLINE
5
397
100
AcDbEntity
8
0
100
AcDbPolyline
62
7
6
CONTINUOUS
90
35
70
0
10
229.7932397431
20
217.8522885984
10
228.7030861040
20
214.0737690950
10
227.7142344772
20
210.1236853116
10
226.8305921160
20
206.0195110352
10
226.0555159320
20
201.7787000507
10
225.3920118191
20
197.4194804031
10
224.8426259439
20
192.9602926589
10
224.4094852694
20
188.4199668586
10
224.0942968237
20
183.8178786179
10
223.8982989839
20
179.1735704307
10
223.8222655785
20
174.5068408848
10
223.8664929400
20
169.8375467666
10
224.0307991436
20
165.1855886383
10
224.3145219379
20
160.5708107637
10
224.7165319166
20
156.0128060336
10
225.2352311491
20
151.5310004378
10
225.8685872979
20
147.1443621637
10
226.6141195403
20
142.8715818687
10
227.4689735244
20
138.7306613267
10
228.4298793581
20
134.7392356028
10
229.4932792419
20
130.9140699434
10
230.6552804794
20
127.2713954335
10
231.9116944095
20
123.8268021476
10
233.2581164055
20
120.5950883404
10
234.6898505498
20
117.5905107486
10
236.2025127764
20
114.8257024621
10
237.7900286825
20
112.3152471950
10
239.4478733480
20
110.0699129236
10
241.1666126174
20
108.1052919761
10
242.9393123239
20
106.4308070296
10
244.7527027202
20
105.0584171213
10
246.5920486683
20
103.9949226971
10
248.4501300387
20
103.2385893803
10
250.3150993696
20
102.7880370718
10
252.1778517183
20
102.6389409560
0
LINE
5
398
100
AcDbEntity
8
0
100
AcDbLine
62
4
6
CONTINUOUS
10
288.1685309720
20
125.6243747270
11
288.3205600984
21
125.6337234172
0
LINE
5
399
100
AcDbEntity
8
0
100
AcDbLine
62
4
6
CONTINUOUS
10
287.6652118920
20
126.6500311746
11
287.5131827223
21
126.6406823443
0
LINE
5
39A
100
AcDbEntity
8
0
100
AcDbLine
62
7
6
CONTINUOUS
10
258.5115894875
20
123.8990291972
11
277.5070290534
21
124.8790524844
0
LINE
5
39B
100
AcDbEntity
8
0
100
AcDbLine
62
7
6
CONTINUOUS
10
277.1237383366
20
124.8988274323
11
278.3102074564
21
124.8376144574
0
LINE
5
39C
100
AcDbEntity
8
0
100
AcDbLine
62
4
6
CONTINUOUS
10
287.8452862409
20
128.1979874675
11
287.9973153836
21
128.2073362102
0
LINE
5
39D
100
AcDbEntity
8
0
100
AcDbLine
62
7
6
CONTINUOUS
10
297.4254956546
20
142.2698859940
11
308.0176970856
21
142.2698859940
0
LINE
5
39E
100
AcDbEntity
8
0
100
AcDbLine
62
7
6
CONTINUOUS
10
311.3417662896
20
145.2948824155
11
308.1180528106
21
145.2948824155
0
LINE
5
39F
100
AcDbEntity
8
0
100
AcDbLine
62
7
6
CONTINUOUS
10
309.0863181042
20
148.4281900540
11
309.9257038290
21
148.4281900540
0
LINE
5
3A0
100
AcDbEntity
8
0
100
AcDbLine
62
7
6
CONTINUOUS
10
307.8279944039
20
148.5365012711
11
309.9542276729
21
148.5365012711
0
LINE
5
3A1
100
AcDbEntity
8
0
100
AcDbLine
62
4
6
CONTINUOUS
10
313.7848736002
20
219.3380310065
11
313.6914599811
21
219.2751162376
0
LWPOLYLINE
5
3A2
100
AcDbEntity
8
0
100
AcDbPolyline
62
7
6
CONTINUOUS
90
3
70
0
10
284.3568431731
20
153.8924740104
10
284.1360635395
20
153.8598129085
10
284.1303470177
20
153.8579883394
0
LWPOLYLINE
5
3A3
100
AcDbEntity
8
0
100
AcDbPolyline
62
7
6
CONTINUOUS
90
11
70
0
10
305.0885600718
20
154.8932838781
10
305.7945086124
20
154.9947296358
10
306.5103559011
20
155.2389129700
10
307.2312065045
20
155.6388113964
10
307.9384827140
20
156.1973205299
10
308.6224483815
20
156.9152483952
10
309.2699437355
20
157.7823277991
10
309.8668864314
20
158.7742531146
10
310.4151005286
20
159.8847015147
10
310.9112139788
20
161.0982521815
10
311.3547680687
20
162.4047141556
0
LINE
5
3A4
100
AcDbEntity
8
0
100
AcDbLine
62
7
6
CONTINUOUS
10
284.3568431731
20
153.8924740104
11
305.0885600718
21
154.8932838781
0
LWPOLYLINE
5
3A5
100
AcDbEntity
8
0
100
AcDbPolyline
62
4
6
CONTINUOUS
90
17
70
0
10
299.3286802621
20
111.0782308914
10
299.6479788850
20
110.5491325435
10
300.0012166778
20
110.1893707802
10
300.3749389228
20
110.0126488155
10
300.7616640474
20
110.0276634721
10
301.1331349755
20
110.2333176650
10
301.4819759394
20
110.6203377333
10
301.7948996953
20
111.1739822028
10
302.0642212123
20
111.8868155982
10
302.2702618139
20
112.7067528951
10
302.4103596433
20
113.6138436878
10
302.4791784179
20
114.5735371700
10
302.4733314352
20
115.5666211689
10
302.3932459203
20
116.5205334214
10
302.2425332069
20
117.4163334545
10
302.0269338953
20
118.2199005232
10
301.7493433628
20
118.9115002594
0
LINE
5
3A6
100
AcDbEntity
8
0
100
AcDbLine
62
7
6
CONTINUOUS
10
234.8569712224
20
218.1786511952
11
241.6975414876
21
205.5686550902
0
LINE
5
3A7
100
AcDbEntity
8
0
100
AcDbLine
62
4
6
CONTINUOUS
10
289.6209223714
20
120.4306512836
11
284.4352106386
21
130.9980207442
0
LINE
5
3A8
100
AcDbEntity
8
0
100
AcDbLine
62
4
6
CONTINUOUS
10
288.1862420133
20
123.9925255766
11
287.9574606133
21
124.4587330528
0
LINE
5
3A9
100
AcDbEntity
8
0
100
AcDbLine
62
4
6
CONTINUOUS
10
288.3205600984
20
125.6337234172
11
288.5493414984
21
125.1675159410
0
LINE
5
3AA
100
AcDbEntity
8
0
100
AcDbLine
62
4
6
CONTINUOUS
10
287.5574636465
20
127.5079020823
11
287.8777576065
21
126.8552116156
0
LWPOLYLINE
5
3AB
100
AcDbEntity
8
0
100
AcDbPolyline
62
7
6
CONTINUOUS
90
22
70
0
10
283.4300826350
20
215.0861589665
10
282.4256833986
20
211.6076205393
10
281.5107950365
20
207.9620650344
10
280.6897738664
20
204.1650377295
10
279.9666602558
20
200.2334110450
10
279.3449530705
20
196.1844693792
10
278.8276876003
20
192.0363052743
10
278.4173709100
20
187.8074872340
10
278.1159623099
20
183.5167514353
10
277.9249046812
20
179.1832013224
10
277.8451088953
20
174.8260628224
10
277.8769586475
20
170.4647056902
10
278.0203086282
20
166.1184722716
10
278.2744885952
20
161.8066242408
10
278.6382964313
20
157.5483627697
10
279.1100090763
20
153.3625797918
10
279.6873655479
20
149.2679684159
10
280.3675976517
20
145.2826970943
10
281.1473837173
20
141.4246383088
10
282.0229136156
20
137.7109148699
10
282.9898003510
20
134.1582315197
10
284.0431754631
20
130.7823629492
0
LINE
5
3AC
100
AcDbEntity
8
0
100
AcDbLine
62
4
6
CONTINUOUS
10
315.7680327067
20
222.2560975105
11
315.6617598170
21
222.1535071849
0
LINE
5
3AD
100
AcDbEntity
8
0
100
AcDbLine
62
4
6
CONTINUOUS
10
315.9525331825
20
220.9226702963
11
316.1650788970
21
221.1278507373
0
LINE
5
3AE
100
AcDbEntity
8
0
100
AcDbLine
62
4
6
CONTINUOUS
10
316.0912774107
20
219.6824846824
11
315.9850045481
21
219.5798944444
0
LINE
5
3AF
100
AcDbEntity
8
0
100
AcDbLine
62
7
6
CONTINUOUS
10
302.0232832497
20
166.1188163526
11
309.6426779519
21
166.1188163526
0
LWPOLYLINE
5
3B0
100
AcDbEntity
8
0
100
AcDbPolyline
62
4
6
CONTINUOUS
90
17
70
0
10
301.7493434962
20
118.9114999877
10
301.4300448732
20
119.4405983357
10
301.0768070804
20
119.8003600989
10
300.7030848355
20
119.9770820637
10
300.3163597108
20
119.9620674071
10
299.9448887827
20
119.7564132141
10
299.5960478188
20
119.3693931458
10
299.2831240630
20
118.8157486764
10
299.0138025460
20
118.1029152809
10
298.8077619444
20
117.2829779841
10
298.6676641149
20
116.3758871914
10
298.5988453404
20
115.4161937092
10
298.6046923230
20
114.4231097103
10
298.6847778379
20
113.4691974578
10
298.8354905514
20
112.5733974247
10
299.0510898629
20
111.7698303559
10
299.3286803954
20
111.0782306197
0
LINE
5
3B1
100
AcDbEntity
8
0
100
AcDbLine
62
4
6
CONTINUOUS
10
289.6533131257
20
126.4528862524
11
289.5625351644
21
126.6378722883
0
LINE
5
3B2
100
AcDbEntity
8
0
100
AcDbLine
62
4
6
CONTINUOUS
10
289.2902012802
20
127.1928303959
11
289.1086453575
21
127.5628024677
0
LINE
5
3B3
100
AcDbEntity
8
0
100
AcDbLine
62
4
6
CONTINUOUS
10
287.1342246977
20
131.5862487482
11
286.9072797943
21
132.0487138379
0
LINE
5
3B4
100
AcDbEntity
8
0
100
AcDbLine
62
4
6
CONTINUOUS
10
289.5783491020
20
128.1252770889
11
289.4648766503
21
128.3565096338
0
LINE
5
3B5
100
AcDbEntity
8
0
100
AcDbLine
62
4
6
CONTINUOUS
10
290.3779275709
20
127.0024508566
11
290.2417606288
21
127.2799299105
0
LINE
5
3B6
100
AcDbEntity
8
0
100
AcDbLine
62
4
6
CONTINUOUS
10
287.1099209615
20
133.6619481485
11
286.9737540195
21
133.9394272023
0
LINE
5
3B7
100
AcDbEntity
8
0
100
AcDbLine
62
4
6
CONTINUOUS
10
289.6849410011
20
129.4276958537
11
289.8664969238
21
129.0577237820
0
LINE
5
3B8
100
AcDbEntity
8
0
100
AcDbLine
62
4
6
CONTINUOUS
10
290.1388308079
20
128.5027656743
11
290.2296087693
21
128.3177796384
0
LINE
5
3B9
100
AcDbEntity
8
0
100
AcDbLine
62
4
6
CONTINUOUS
10
286.9616021599
20
134.9772769303
11
286.7800462372
21
135.3472490020
0
LINE
5
3BA
100
AcDbEntity
8
0
100
AcDbLine
62
4
6
CONTINUOUS
10
286.6138075493
20
138.0479629308
11
291.7995192820
21
127.4805934702
0
LWPOLYLINE
5
3BB
100
AcDbEntity
8
0
100
AcDbPolyline
62
7
6
CONTINUOUS
90
14
70
0
10
284.0431754631
20
130.7823629492
10
285.1776105485
20
127.5983640269
10
286.3871524814
20
124.6203196648
10
287.6654491745
20
121.8609903869
10
289.0053888707
20
119.3325005736
10
290.4002037276
20
117.0442335966
10
291.8415179992
20
115.0062302291
10
293.3239390174
20
113.2227783296
10
294.8386118916
20
111.7015628400
10
296.3849325416
20
110.4420142223
10
297.9605705602
20
109.4483863436
10
299.5618595065
20
108.7277924159
10
301.1896537197
20
108.2876081504
10
302.8362063885
20
108.1389409560
0
LWPOLYLINE
5
3BC
100
AcDbEntity
8
0
100
AcDbPolyline
62
7
6
CONTINUOUS
90
5
70
0
10
286.5298094475
20
204.1148124804
10
285.7661179691
20
201.4593953245
10
285.0682506475
20
198.6434023162
10
284.4420463064
20
195.6794762085
10
283.8935881655
20
192.5854346410
0
LINE
5
3BD
100
AcDbEntity
8
0
100
AcDbLine
62
7
6
CONTINUOUS
10
291.2884701036
20
145.3912043633
11
287.0527870551
21
154.0226189113
0
LINE
5
3BE
100
AcDbEntity
8
0
100
AcDbLine
62
4
6
CONTINUOUS
10
287.5131827223
20
126.6406823443
11
287.4821867721
21
127.0229971556
0
LINE
5
3BF
100
AcDbEntity
8
0
100
AcDbLine
62
4
6
CONTINUOUS
10
287.9574606133
20
124.4587330528
11
287.9264646197
21
124.8410477240
0
LWPOLYLINE
5
3C0
100
AcDbEntity
8
0
100
AcDbPolyline
62
7
6
CONTINUOUS
90
12
70
0
10
283.8935881655
20
192.5854346410
10
283.4278481401
20
189.3788982169
10
283.0491119343
20
186.0793269070
10
282.7607832603
20
182.7070635913
10
282.5653135292
20
179.2819098975
10
282.4643824165
20
175.8245426828
10
282.4588442992
20
172.3552346041
10
282.5487882696
20
168.8944285277
10
282.7335065977
20
165.4628946912
10
283.0115002750
20
162.0809670789
10
283.3804213718
20
158.7691121086
10
283.8371275814
20
155.5469557786
0
LINE
5
3C1
100
AcDbEntity
8
0
100
AcDbLine
62
4
6
CONTINUOUS
10
313.9263118533
20
219.5563535482
11
313.7848736002
21
219.3380310065
0
LINE
5
3C2
100
AcDbEntity
8
0
100
AcDbLine
62
4
6
CONTINUOUS
10
316.4278070454
20
218.3584062635
11
317.1864773866
21
219.3656111580
0
LWPOLYLINE
5
3C3
100
AcDbEntity
8
0
100
AcDbPolyline
62
7
6
CONTINUOUS
90
18
70
0
10
283.8371275814
20
155.5469557786
10
284.3775552254
20
152.4340492623
10
284.9969406515
20
149.4482612194
10
285.6891093569
20
146.6088652595
10
286.4471060030
20
143.9326934306
10
287.2625541943
20
141.4363559396
10
288.1261557356
20
139.1339297452
10
289.0271524368
20
137.0381891887
10
289.9532352264
20
135.1599650189
10
290.8922440056
20
133.5046056360
10
291.8284935089
20
132.0784691092
10
292.7514760525
20
130.8755116962
10
293.6427615791
20
129.8965406843
10
294.4980731860
20
129.1239968657
10
295.3043125309
20
128.5500286752
10
296.0461371001
20
128.1651648199
10
296.7147904812
20
127.9526978026
10
297.3098404245
20
127.8889409560
0
LINE
5
3C4
100
AcDbEntity
8
0
100
AcDbLine
62
4
6
CONTINUOUS
10
287.9973153836
20
128.2073362102
11
288.0283113609
21
127.8250214865
0
LINE
5
3C5
100
AcDbEntity
8
0
100
AcDbLine
62
4
6
CONTINUOUS
10
289.5625351644
20
126.6378722883
11
289.5651708092
21
126.8857730513
0
LINE
5
3C6
100
AcDbEntity
8
0
100
AcDbLine
62
7
6
CONTINUOUS
10
288.5238374392
20
186.0132211729
11
289.4921027328
21
189.1465288114
0
LINE
5
3C7
100
AcDbEntity
8
0
100
AcDbLine
62
7
6
CONTINUOUS
10
288.6318120417
20
186.0100286676
11
287.6635467480
21
182.8767210291
0
LINE
5
3C8
100
AcDbEntity
8
0
100
AcDbLine
62
7
6
CONTINUOUS
10
288.0970465902
20
182.8639036581
11
290.0335771774
21
189.1305189352
0
LINE
5
3C9
100
AcDbEntity
8
0
100
AcDbLine
62
7
6
CONTINUOUS
10
288.0970465902
20
182.8639036581
11
287.6635467480
21
182.8767210291
0
LINE
5
3CA
100
AcDbEntity
8
0
100
AcDbLine
62
7
6
CONTINUOUS
10
288.5238374392
20
186.0132211729
11
299.1540052008
21
185.6989170138
0
LINE
5
3CB
100
AcDbEntity
8
0
100
AcDbLine
62
7
6
CONTINUOUS
10
300.9633989420
20
145.3905955232
11
297.0173258118
21
154.5036504034
0
LINE
5
3CC
100
AcDbEntity
8
0
100
AcDbLine
62
7
6
CONTINUOUS
10
301.9316642356
20
148.5239031617
11
299.2947487582
21
154.6135914840
0
LINE
5
3CD
100
AcDbEntity
8
0
100
AcDbLine
62
7
6
CONTINUOUS
10
299.3564262412
20
154.6165689235
11
301.9223981198
21
148.5455611955
0
LINE
5
3CE
100
AcDbEntity
8
0
100
AcDbLine
62
4
6
CONTINUOUS
10
288.0283113609
20
127.8250214865
11
287.9987907610
21
127.2468750471
0
LINE
5
3CF
100
AcDbEntity
8
0
100
AcDbLine
62
4
6
CONTINUOUS
10
287.9264646197
20
124.8410477240
11
287.9412249494
21
125.1301210400
0
LINE
5
3D0
100
AcDbEntity
8
0
100
AcDbLine
62
4
6
CONTINUOUS
10
286.9183510824
20
127.8528217824
11
287.1279460637
21
129.9789246198
0
LINE
5
3D1
100
AcDbEntity
8
0
100
AcDbLine
62
4
6
CONTINUOUS
10
289.5651708092
20
126.8857730513
11
289.6158311139
21
127.2890816707
0
LINE
5
3D2
100
AcDbEntity
8
0
100
AcDbLine
62
4
6
CONTINUOUS
10
287.4821867721
20
127.0229971556
11
287.5574636465
21
127.5079020823
0
LINE
5
3D3
100
AcDbEntity
8
0
100
AcDbLine
62
4
6
CONTINUOUS
10
288.3205600984
20
125.6337234172
11
288.5463907435
21
127.0884382674
0
LINE
5
3D4
100
AcDbEntity
8
0
100
AcDbLine
62
4
6
CONTINUOUS
10
286.0221946709
20
133.8523276878
11
286.2195645313
21
134.9697604167
0
LINE
5
3D5
100
AcDbEntity
8
0
100
AcDbLine
62
4
6
CONTINUOUS
10
288.2008657438
20
129.4126628266
11
288.5956054646
21
131.6475282843
0
LINE
5
3D6
100
AcDbEntity
8
0
100
AcDbLine
62
4
6
CONTINUOUS
10
286.6576404005
20
132.5574254366
11
287.1204635923
21
134.6535513675
0
LINE
5
3D7
100
AcDbEntity
8
0
100
AcDbLine
62
4
6
CONTINUOUS
10
314.0930802546
20
219.9763303858
11
313.9263118533
21
219.5563535482
0
LINE
5
3D8
100
AcDbEntity
8
0
100
AcDbLine
62
4
6
CONTINUOUS
10
313.2148756839
20
220.2462929260
11
313.9046437792
21
221.8799537672
0
LINE
5
3D9
100
AcDbEntity
8
0
100
AcDbLine
62
4
6
CONTINUOUS
10
313.0612855669
20
221.0658200983
11
313.6550043854
21
222.3886653658
0
LINE
5
3DA
100
AcDbEntity
8
0
100
AcDbLine
62
4
6
CONTINUOUS
10
317.6107262577
20
212.8081214952
11
317.9896520408
21
213.5555821523
0
LINE
5
3DB
100
AcDbEntity
8
0
100
AcDbLine
62
7
6
CONTINUOUS
10
289.4921027328
20
189.1465288114
11
290.0335771774
21
189.1305189352
0
LINE
5
3DC
100
AcDbEntity
8
0
100
AcDbLine
62
7
6
CONTINUOUS
10
288.0970465902
20
182.8639036581
11
288.2236769576
21
182.6058581002
0
LINE
5
3DD
100
AcDbEntity
8
0
100
AcDbLine
62
7
6
CONTINUOUS
10
290.1602075449
20
188.8724733772
11
290.0335771774
21
189.1305189352
0
LINE
5
3DE
100
AcDbEntity
8
0
100
AcDbLine
62
7
6
CONTINUOUS
10
301.6031734179
20
154.7250291517
11
302.8906634134
21
151.6788688340
0
LINE
5
3DF
100
AcDbEntity
8
0
100
AcDbLine
62
4
6
CONTINUOUS
10
290.4022313070
20
124.9267514563
11
290.7690052221
21
126.7120618136
0
LINE
5
3E0
100
AcDbEntity
8
0
100
AcDbLine
62
4
6
CONTINUOUS
10
289.9256470098
20
125.8979281447
11
290.3884702017
21
127.9940540756
0
LINE
5
3E1
100
AcDbEntity
8
0
100
AcDbLine
62
4
6
CONTINUOUS
10
289.6158311139
20
127.2890816707
11
289.7372105344
21
127.8015515261
0
LINE
5
3E2
100
AcDbEntity
8
0
100
AcDbLine
62
4
6
CONTINUOUS
10
284.4352106386
20
130.9980207442
11
286.6138075493
21
138.0479629308
0
LINE
5
3E3
100
AcDbEntity
8
0
100
AcDbLine
62
4
6
CONTINUOUS
10
312.0307715070
20
220.2972884417
11
314.2093684176
21
227.3472306283
0
LINE
5
3E4
100
AcDbEntity
8
0
100
AcDbLine
62
4
6
CONTINUOUS
10
286.2195645313
20
134.9697604167
11
286.5077123531
21
135.9022071097
0
LINE
5
3E5
100
AcDbEntity
8
0
100
AcDbLine
62
4
6
CONTINUOUS
10
312.8517638384
20
220.9862370695
11
313.4280594820
21
222.8511304556
0
LINE
5
3E6
100
AcDbEntity
8
0
100
AcDbLine
62
4
6
CONTINUOUS
10
313.6550043854
20
222.3886653658
11
313.0787087418
21
220.5237719798
0
LINE
5
3E7
100
AcDbEntity
8
0
100
AcDbLine
62
4
6
CONTINUOUS
10
286.3853065164
20
133.1123835442
11
286.9616021599
21
134.9772769303
0
LINE
5
3E8
100
AcDbEntity
8
0
100
AcDbLine
62
4
6
CONTINUOUS
10
313.6006820197
20
219.4601022735
11
314.1769776633
21
221.3249956595
0
LINE
5
3E9
100
AcDbEntity
8
0
100
AcDbLine
62
4
6
CONTINUOUS
10
287.0207522460
20
131.8174812931
11
287.5970478895
21
133.6823746791
0
LINE
5
3EA
100
AcDbEntity
8
0
100
AcDbLine
62
4
6
CONTINUOUS
10
313.9637938652
20
218.7201581299
11
314.5400895087
21
220.5850515160
0
LINE
5
3EB
100
AcDbEntity
8
0
100
AcDbLine
62
4
6
CONTINUOUS
10
314.9178498055
20
221.4353756065
11
315.6440487757
21
223.7853563353
0
LINE
5
3EC
100
AcDbEntity
8
0
100
AcDbLine
62
4
6
CONTINUOUS
10
287.3838640915
20
131.0775371495
11
287.9601597350
21
132.9424305355
0
LINE
5
3ED
100
AcDbEntity
8
0
100
AcDbLine
62
4
6
CONTINUOUS
10
315.8890658396
20
222.6477608719
11
315.7680327067
21
222.2560975105
0
LINE
5
3EE
100
AcDbEntity
8
0
100
AcDbLine
62
4
6
CONTINUOUS
10
315.8315000280
20
220.5310068648
11
315.9525331825
21
220.9226702963
0
LINE
5
3EF
100
AcDbEntity
8
0
100
AcDbLine
62
4
6
CONTINUOUS
10
315.3570911611
20
218.9201771930
11
314.7807955175
21
217.0552838070
0
LINE
5
3F0
100
AcDbEntity
8
0
100
AcDbLine
62
4
6
CONTINUOUS
10
288.5956054646
20
131.6475282843
11
288.0193098211
21
129.7826348983
0
LINE
5
3F1
100
AcDbEntity
8
0
100
AcDbLine
62
4
6
CONTINUOUS
10
315.0531294016
20
216.5003256993
11
315.6294250452
21
218.3652190854
0
LINE
5
3F2
100
AcDbEntity
8
0
100
AcDbLine
62
4
6
CONTINUOUS
10
288.7771613874
20
131.2775562126
11
288.2008657438
21
129.4126628266
0
LINE
5
3F3
100
AcDbEntity
8
0
100
AcDbLine
62
4
6
CONTINUOUS
10
315.2346853244
20
216.1303536276
11
315.8109809679
21
217.9952470136
0
LINE
5
3F4
100
AcDbEntity
8
0
100
AcDbLine
62
4
6
CONTINUOUS
10
288.4731996279
20
128.8577047189
11
289.0494952715
21
130.7225981049
0
LINE
5
3F5
100
AcDbEntity
8
0
100
AcDbLine
62
4
6
CONTINUOUS
10
287.9987907610
20
127.2468750471
11
287.8777576065
21
126.8552116156
0
LINE
5
3F6
100
AcDbEntity
8
0
100
AcDbLine
62
4
6
CONTINUOUS
10
287.9412249494
20
125.1301210400
11
288.0622580823
21
125.5217844014
0
LINE
5
3F7
100
AcDbEntity
8
0
100
AcDbLine
62
4
6
CONTINUOUS
10
316.4464266975
20
216.7003447624
11
315.8701310540
21
214.8354513764
0
LINE
5
3F8
100
AcDbEntity
8
0
100
AcDbLine
62
4
6
CONTINUOUS
10
316.4828822932
20
213.5867956341
11
317.1726503885
21
215.2204564753
0
LINE
5
3F9
100
AcDbEntity
8
0
100
AcDbLine
62
4
6
CONTINUOUS
10
287.3474084958
20
134.1910862778
11
286.6576404005
21
132.5574254366
0
LINE
5
3FA
100
AcDbEntity
8
0
100
AcDbLine
62
7
6
CONTINUOUS
10
284.3568431731
20
193.8854079015
11
305.0885600718
21
192.8845980338
0
LWPOLYLINE
5
3FB
100
AcDbEntity
8
0
100
AcDbPolyline
62
7
6
CONTINUOUS
90
3
70
0
10
284.1302810767
20
193.9207010019
10
284.1476289924
20
193.9151235749
10
284.3568431731
20
193.8854079015
0
LINE
5
3FC
100
AcDbEntity
8
0
100
AcDbLine
62
7
6
CONTINUOUS
10
282.7886421800
20
212.8646566093
11
286.3580101962
21
205.5910493378
0
LINE
5
3FD
100
AcDbEntity
8
0
100
AcDbLine
62
7
6
CONTINUOUS
10
321.6666062590
20
133.6396955104
11
317.4722805928
21
142.1868325741
0
LINE
5
3FE
100
AcDbEntity
8
0
100
AcDbLine
62
7
6
CONTINUOUS
10
282.3280762515
20
217.5570412270
11
283.3957227848
21
215.3814063380
0
LINE
5
3FF
100
AcDbEntity
8
0
100
AcDbLine
62
7
6
CONTINUOUS
10
325.1864585135
20
130.2208406849
11
324.1188119802
21
132.3964755739
0
LINE
5
400
100
AcDbEntity
8
0
100
AcDbLine
62
4
6
CONTINUOUS
10
315.5097306906
20
222.1441584947
11
315.2839000455
21
220.6894436445
0
LINE
5
401
100
AcDbEntity
8
0
100
AcDbLine
62
4
6
CONTINUOUS
10
315.6294250452
20
218.3652190854
11
315.2346853244
21
216.1303536276
0
LINE
5
402
100
AcDbEntity
8
0
100
AcDbLine
62
4
6
CONTINUOUS
10
313.4280594820
20
222.8511304556
11
313.0612855669
21
221.0658200983
0
LINE
5
403
100
AcDbEntity
8
0
100
AcDbLine
62
4
6
CONTINUOUS
10
313.9046437792
20
221.8799537672
11
313.4418205873
21
219.7838278363
0
LINE
5
404
100
AcDbEntity
8
0
100
AcDbLine
62
4
6
CONTINUOUS
10
317.1726503885
20
215.2204564753
11
316.7098271967
21
213.1243305444
0
LINE
5
405
100
AcDbEntity
8
0
100
AcDbLine
62
4
6
CONTINUOUS
10
314.2144596751
20
220.4888002412
11
314.0930802546
21
219.9763303858
0
LINE
5
406
100
AcDbEntity
8
0
100
AcDbLine
62
4
6
CONTINUOUS
10
288.9124409835
20
126.3425063054
11
288.1862420133
21
123.9925255766
0
LINE
5
407
100
AcDbEntity
8
0
100
AcDbLine
62
4
6
CONTINUOUS
10
289.8664969238
20
129.0577237820
11
289.2902012802
21
127.1928303959
0
LINE
5
408
100
AcDbEntity
8
0
100
AcDbLine
62
4
6
CONTINUOUS
10
316.8095385430
20
215.9604006188
11
316.2332428995
21
214.0955072328
0
LINE
5
409
100
AcDbEntity
8
0
100
AcDbLine
62
4
6
CONTINUOUS
10
290.2296087693
20
128.3177796384
11
289.6533131257
21
126.4528862524
0
LINE
5
40A
100
AcDbEntity
8
0
100
AcDbLine
62
4
6
CONTINUOUS
10
317.4449842726
20
214.6654983677
11
316.8686886291
21
212.8006049816
0
LINE
5
40B
100
AcDbEntity
8
0
100
AcDbLine
62
4
6
CONTINUOUS
10
290.1752864036
20
125.3892165461
11
290.7515820472
21
127.2541099321
0
LINE
5
40C
100
AcDbEntity
8
0
100
AcDbLine
62
4
6
CONTINUOUS
10
290.9785269506
20
126.7916448424
11
290.4022313070
21
124.9267514563
0
LINE
5
40D
100
AcDbEntity
8
0
100
AcDbLine
62
4
6
CONTINUOUS
10
317.6107262577
20
212.8081214952
11
317.3225784359
21
211.8756748022
0
LINE
5
40E
100
AcDbEntity
8
0
100
AcDbLine
62
4
6
CONTINUOUS
10
319.3950801504
20
216.7798611677
11
317.2164832397
21
209.7299189811
0
LINE
5
40F
100
AcDbEntity
8
0
100
AcDbLine
62
4
6
CONTINUOUS
10
291.7995192820
20
127.4805934702
11
289.6209223714
21
120.4306512836
0
LINE
5
410
100
AcDbEntity
8
0
100
AcDbLine
62
4
6
CONTINUOUS
10
289.7372105344
20
127.8015515261
11
289.9039789357
21
128.2215283637
0
LINE
5
411
100
AcDbEntity
8
0
100
AcDbLine
62
4
6
CONTINUOUS
10
290.6154151051
20
127.5315889859
11
289.9256470098
21
125.8979281447
0
LINE
5
412
100
AcDbEntity
8
0
100
AcDbLine
62
4
6
CONTINUOUS
10
286.2195645313
20
134.9697604167
11
285.8406387482
21
134.2222997596
0
LINE
5
413
100
AcDbEntity
8
0
100
AcDbLine
62
7
6
CONTINUOUS
10
262.5599775884
20
204.3478294012
11
242.8683831795
21
204.9694393695
0
LINE
5
414
100
AcDbEntity
8
0
100
AcDbLine
62
7
6
CONTINUOUS
10
300.3389010196
20
185.0779203848
11
302.0166312861
21
181.6590655593
0
LINE
5
415
100
AcDbEntity
8
0
100
AcDbLine
62
7
6
CONTINUOUS
10
311.3204082184
20
162.6999615271
11
309.6426779519
21
166.1188163526
0
LINE
5
416
100
AcDbEntity
8
0
100
AcDbLine
62
4
6
CONTINUOUS
10
314.2677556246
20
221.1400096236
11
314.2651199798
21
220.8921088606
0
LINE
5
417
100
AcDbEntity
8
0
100
AcDbLine
62
4
6
CONTINUOUS
10
315.9038261693
20
222.9368341879
11
315.8890658396
21
222.6477608719
0
LINE
5
418
100
AcDbEntity
8
0
100
AcDbLine
62
4
6
CONTINUOUS
10
315.8019794281
20
219.9528604254
11
315.8315000280
21
220.5310068648
0
LINE
5
419
100
AcDbEntity
8
0
100
AcDbLine
62
4
6
CONTINUOUS
10
316.9119397066
20
219.9250601295
11
316.7023447253
21
217.7989572921
0
LINE
5
41A
100
AcDbEntity
8
0
100
AcDbLine
62
4
6
CONTINUOUS
10
314.2651199798
20
220.8921088606
11
314.2144596751
21
220.4888002412
0
LINE
5
41B
100
AcDbEntity
8
0
100
AcDbLine
62
4
6
CONTINUOUS
10
316.3481040169
20
220.7548847563
11
316.2728271424
21
220.2699798296
0
LINE
5
41C
100
AcDbEntity
8
0
100
AcDbLine
62
4
6
CONTINUOUS
10
317.8080961181
20
213.9255542241
11
317.6107262577
21
212.8081214952
0
LWPOLYLINE
5
41D
100
AcDbEntity
8
0
100
AcDbPolyline
62
7
6
CONTINUOUS
90
25
70
0
10
311.3547680687
20
162.4047141556
10
311.7562775521
20
163.8383598619
10
312.1008101736
20
165.3523132781
10
312.3864133594
20
166.9327158833
10
312.6118799138
20
168.5676207641
10
312.7760966403
20
170.2443221578
10
312.8781898227
20
171.9495442257
10
312.9176163943
20
173.6700364432
10
312.8941612028
20
175.3920848569
10
312.8079833185
20
177.1019986870
10
312.6595815986
20
178.7864442506
10
312.4498018134
20
180.4320372932
10
312.1797134784
20
182.0261794343
10
311.8506856941
20
183.5561507616
10
311.4640314898
20
185.0105469466
10
311.0211326091
20
186.3779678563
10
310.5232598621
20
187.6473700313
10
309.9702112624
20
188.8102770294
10
309.3658406997
20
189.8496121728
10
308.7084305313
20
190.7586591161
10
308.0124101084
20
191.5118358642
10
307.2916889737
20
192.0980168966
10
306.5546073319
20
192.5190080524
10
305.8183035555
20
192.7773607555
10
305.0885600718
20
192.8845980338
0
LINE
5
41E
100
AcDbEntity
8
0
100
AcDbLine
62
7
6
CONTINUOUS
10
301.9223981198
20
148.5455611955
11
302.8906634134
21
151.6788688340
0
LINE
5
41F
100
AcDbEntity
8
0
100
AcDbLine
62
7
6
CONTINUOUS
10
301.9316642356
20
148.5239031617
11
300.9633989420
21
145.3905955232
0
LINE
5
420
100
AcDbEntity
8
0
100
AcDbLine
62
4
6
CONTINUOUS
10
290.7690052221
20
126.7120618136
11
290.1752864036
21
125.3892165461
0
LINE
5
421
100
AcDbEntity
8
0
100
AcDbLine
62
4
6
CONTINUOUS
10
289.9039789357
20
128.2215283637
11
290.0454171888
21
128.4398509054
0
LINE
5
422
100
AcDbEntity
8
0
100
AcDbLine
62
4
6
CONTINUOUS
10
287.4024837436
20
129.4194756484
11
286.6438134024
21
128.4122707539
0
LINE
5
423
100
AcDbEntity
8
0
100
AcDbLine
62
7
6
CONTINUOUS
10
273.4137458561
20
204.7014078292
11
262.5599775884
21
204.3478294012
0
LINE
5
424
100
AcDbEntity
8
0
100
AcDbLine
62
4
6
CONTINUOUS
10
315.8329754054
20
219.5705457017
11
315.8019794281
21
219.9528604254
0
LINE
5
425
100
AcDbEntity
8
0
100
AcDbLine
62
4
6
CONTINUOUS
10
315.8728301757
20
223.3191488591
11
315.9038261693
21
222.9368341879
0
LINE
5
426
100
AcDbEntity
8
0
100
AcDbLine
62
7
6
CONTINUOUS
10
307.1832582145
20
142.2698859940
11
309.0863181042
21
148.4281900540
0
LINE
5
427
100
AcDbEntity
8
0
100
AcDbLine
62
4
6
CONTINUOUS
10
287.7390133783
20
128.0953972295
11
287.8452862409
21
128.1979874675
0
LINE
5
428
100
AcDbEntity
8
0
100
AcDbLine
62
4
6
CONTINUOUS
10
287.8777576065
20
126.8552116156
11
287.6652118920
21
126.6500311746
0
LINE
5
429
100
AcDbEntity
8
0
100
AcDbLine
62
4
6
CONTINUOUS
10
288.0622580823
20
125.5217844014
11
288.1685309720
21
125.6243747270
0
LINE
5
42A
100
AcDbEntity
8
0
100
AcDbLine
62
4
6
CONTINUOUS
10
316.3171080667
20
221.1371995676
11
316.3481040169
21
220.7548847563
0
LINE
5
42B
100
AcDbEntity
8
0
100
AcDbLine
62
4
6
CONTINUOUS
10
290.0454171888
20
128.4398509054
11
290.1388308079
21
128.5027656743
0
LWPOLYLINE
5
42C
100
AcDbEntity
8
0
100
AcDbPolyline
62
7
6
CONTINUOUS
90
15
70
0
10
297.3098404245
20
219.8889409560
10
296.7564231374
20
219.8336869655
10
296.1442204436
20
219.6523691452
10
295.4719693356
20
219.3274078153
10
294.7451430962
20
218.8460907869
10
293.9769508432
20
218.2027614937
10
293.1747729932
20
217.3894122272
10
292.3391311197
20
216.3891094233
10
291.4850796802
20
215.2011018412
10
290.6202490988
20
213.8179118340
10
289.7577652868
20
212.2428100090
10
288.9075073639
20
210.4775291302
10
288.0800931342
20
208.5288805198
10
287.2853519353
20
206.4064935154
10
286.5298094475
20
204.1148124804
0
LINE
5
42D
100
AcDbEntity
8
0
100
AcDbLine
62
4
6
CONTINUOUS
10
315.9850045481
20
219.5798944444
11
315.8329754054
21
219.5705457017
0
LINE
5
42E
100
AcDbEntity
8
0
100
AcDbLine
62
4
6
CONTINUOUS
10
316.1650788970
20
221.1278507373
11
316.3171080667
21
221.1371995676
0
LINE
5
42F
100
AcDbEntity
8
0
100
AcDbLine
62
4
6
CONTINUOUS
10
315.6617598170
20
222.1535071849
11
315.5097306906
21
222.1441584947
0
LINE
5
430
100
AcDbEntity
8
0
100
AcDbLine
62
7
6
CONTINUOUS
10
281.1019733909
20
218.1786511952
11
276.6886208893
21
218.1786511952
0
LINE
5
431
100
AcDbEntity
8
0
100
AcDbLine
62
7
6
CONTINUOUS
10
234.8569712224
20
218.1786511952
11
230.4436187207
21
218.1786511952
0
LINE
5
432
100
AcDbEntity
8
0
100
AcDbLine
62
7
6
CONTINUOUS
10
277.1237383366
20
222.8790544796
11
278.3099022088
21
222.9402517060
0
LINE
5
433
100
AcDbEntity
8
0
100
AcDbLine
62
7
6
CONTINUOUS
10
258.5115894875
20
223.8788527147
11
277.5070290534
21
222.8988294275
0
LWPOLYLINE
5
434
100
AcDbEntity
8
0
100
AcDbPolyline
62
4
6
CONTINUOUS
90
17
70
0
10
302.0809472928
20
228.8663819242
10
302.4002459158
20
228.3372835762
10
302.7534837086
20
227.9775218130
10
303.1272059535
20
227.8007998482
10
303.5139310782
20
227.8158145048
10
303.8854020063
20
228.0214686978
10
304.2342429702
20
228.4084887661
10
304.5471667260
20
228.9621332355
10
304.8164882430
20
229.6749666310
10
305.0225288446
20
230.4949039278
10
305.1626266741
20
231.4019947205
10
305.2314454486
20
232.3616882027
10
305.2255984660
20
233.3547722016
10
305.1455129511
20
234.3086844541
10
304.9948002376
20
235.2044844872
10
304.7792009261
20
236.0080515560
10
304.5016103936
20
236.6996512922
0
LINE
5
435
100
AcDbEntity
8
0
100
AcDbLine
62
4
6
CONTINUOUS
10
317.2164832397
20
209.7299189811
11
312.0307715070
21
220.2972884417
0
LINE
5
436
100
AcDbEntity
8
0
100
AcDbLine
62
4
6
CONTINUOUS
10
316.8686886291
20
212.8006049816
11
317.0502445518
21
212.4306329099
0
LINE
5
437
100
AcDbEntity
8
0
100
AcDbLine
62
4
6
CONTINUOUS
10
314.1453497879
20
218.3501860582
11
313.9637938652
21
218.7201581299
0
LINE
5
438
100
AcDbEntity
8
0
100
AcDbLine
62
4
6
CONTINUOUS
10
313.6914599811
20
219.2751162376
11
313.6006820197
21
219.4601022735
0
LINE
5
439
100
AcDbEntity
8
0
100
AcDbLine
62
4
6
CONTINUOUS
10
313.4523632181
20
220.7754310553
11
313.5885301602
21
220.4979520014
0
LINE
5
43A
100
AcDbEntity
8
0
100
AcDbLine
62
4
6
CONTINUOUS
10
316.7203698275
20
214.1159337634
11
316.8565367695
21
213.8384547096
0
LINE
5
43B
100
AcDbEntity
8
0
100
AcDbLine
62
4
6
CONTINUOUS
10
314.2519416870
20
219.6526048230
11
314.3654141387
21
219.4213722781
0
LINE
5
43C
100
AcDbEntity
8
0
100
AcDbLine
62
4
6
CONTINUOUS
10
314.1769776633
20
221.3249956595
11
314.2677556246
21
221.1400096236
0
LINE
5
43D
100
AcDbEntity
8
0
100
AcDbLine
62
4
6
CONTINUOUS
10
314.5400895087
20
220.5850515160
11
314.7216454315
21
220.2150794442
0
LINE
5
43E
100
AcDbEntity
8
0
100
AcDbLine
62
4
6
CONTINUOUS
10
316.6960660913
20
216.1916331637
11
316.9230109947
21
215.7291680740
0
LWPOLYLINE
5
43F
100
AcDbEntity
8
0
100
AcDbPolyline
62
7
6
CONTINUOUS
90
35
70
0
10
325.2208183637
20
129.9255933135
10
326.3109720028
20
133.7041128169
10
327.2998236297
20
137.6541966003
10
328.1834659909
20
141.7583708767
10
328.9585421749
20
145.9991818612
10
329.6220462877
20
150.3584015088
10
330.1714321630
20
154.8175892530
10
330.6045728374
20
159.3579150533
10
330.9197612831
20
163.9600032940
10
331.1157591229
20
168.6043114812
10
331.1917925284
20
173.2710410271
10
331.1475651668
20
177.9403351453
10
330.9832589632
20
182.5922932736
10
330.6995361689
20
187.2070711482
10
330.2975261903
20
191.7650758783
10
329.7788269577
20
196.2468814741
10
329.1454708089
20
200.6335197482
10
328.3999385666
20
204.9063000432
10
327.5450845824
20
209.0472205853
10
326.5841787487
20
213.0386463091
10
325.5207788649
20
216.8638119685
10
324.3587776275
20
220.5064864784
10
323.1023636973
20
223.9510797643
10
321.7559417013
20
227.1827935715
10
320.3242075571
20
230.1873711633
10
318.8115453305
20
232.9521794498
10
317.2240294244
20
235.4626347169
10
315.5661847589
20
237.7079689883
10
313.8474454895
20
239.6725899358
10
312.0747457829
20
241.3470748823
10
310.2613553866
20
242.7194647906
10
308.4220094386
20
243.7829592148
10
306.5639280681
20
244.5392925316
10
304.6989587372
20
244.9898448401
10
302.8362063885
20
245.1389409560
0
LWPOLYLINE
5
440
100
AcDbEntity
8
0
100
AcDbPolyline
62
4
6
CONTINUOUS
90
17
70
0
10
304.5016105269
20
236.6996510205
10
304.1823119040
20
237.2287493684
10
303.8290741112
20
237.5885111317
10
303.4553518662
20
237.7652330964
10
303.0686267416
20
237.7502184398
10
302.6971558135
20
237.5445642469
10
302.3483148496
20
237.1575441786
10
302.0353910937
20
236.6038997091
10
301.7660695767
20
235.8910663137
10
301.5600289751
20
235.0711290169
10
301.4199311457
20
234.1640382241
10
301.3511123711
20
233.2043447420
10
301.3569593538
20
232.2112607430
10
301.4370448687
20
231.2573484905
10
301.5877575821
20
230.3615484574
10
301.8033568936
20
229.5579813887
10
302.0809474262
20
228.8663816525
0
LINE
5
441
100
AcDbEntity
8
0
100
AcDbLine
62
4
6
CONTINUOUS
10
316.2728271424
20
220.2699798296
11
315.9525331825
21
220.9226702963
0
LINE
5
442
100
AcDbEntity
8
0
100
AcDbLine
62
4
6
CONTINUOUS
10
315.5097306906
20
222.1441584947
11
315.2809492906
21
222.6103659709
0
LINE
5
443
100
AcDbEntity
8
0
100
AcDbLine
62
4
6
CONTINUOUS
10
315.6440487757
20
223.7853563353
11
315.8728301757
21
223.3191488591
0
LINE
5
444
100
AcDbEntity
8
0
100
AcDbLine
62
4
6
CONTINUOUS
10
314.2093684176
20
227.3472306283
11
319.3950801504
21
216.7798611677
0
LWPOLYLINE
5
445
100
AcDbEntity
8
0
100
AcDbPolyline
62
7
6
CONTINUOUS
90
15
70
0
10
302.8362063885
20
239.6389409560
10
301.2334247882
20
239.4980763490
10
299.6517891210
20
239.0820577319
10
298.0990998064
20
238.4032386710
10
296.5718735036
20
237.4688095577
10
295.0710033281
20
236.2841240309
10
293.5989109669
20
234.8532100772
10
292.1557913072
20
233.1752589763
10
290.7496040920
20
231.2568126285
10
289.3850505829
20
229.1011153983
10
288.0699391900
20
226.7169441354
10
286.8104964975
20
224.1122922358
10
285.6134391202
20
221.2978957097
10
284.4848761768
20
218.2853670198
10
283.5145138495
20
215.3422403801
0
LINE
5
446
100
AcDbEntity
8
0
100
AcDbLine
62
7
6
CONTINUOUS
10
252.1778517183
20
245.1389409560
11
256.5912042200
21
245.1389409560
0
LINE
5
447
100
AcDbEntity
8
0
100
AcDbLine
62
7
6
CONTINUOUS
10
298.4228538869
20
245.1389409560
11
302.8362063885
21
245.1389409560
0
LWPOLYLINE
5
448
100
AcDbEntity
8
0
100
AcDbPolyline
62
7
6
CONTINUOUS
90
14
70
0
10
252.1778517183
20
245.1389409560
10
250.3556935330
20
244.9962812937
10
248.5285747658
20
244.5644009387
10
246.7047211483
20
243.8377724716
10
244.8967860768
20
242.8144547530
10
243.1127423633
20
241.4928191987
10
241.3669624481
20
239.8791670079
10
239.6726797784
20
237.9851525212
10
238.0364657212
20
235.8196498692
10
236.4674790338
20
233.3976084504
10
234.9698873984
20
230.7290761200
10
233.5494294858
20
227.8277426697
10
232.2102462051
20
224.7054869231
10
230.9566878828
20
221.3754168797
0
ARC
5
449
100
AcDbEntity
8
0
100
AcDbCircle
62
7
6
CONTINUOUS
10
102.0040085823
20
201.1841326552
40
24.9950665264
100
AcDbArc
50
99.2087292684
51
260.7912707316
0
ARC
5
44A
100
AcDbEntity
8
0
100
AcDbCircle
62
7
6
CONTINUOUS
10
102.0040085823
20
201.1841326552
40
20.0000000000
100
AcDbArc
50
101.6030685882
51
258.3827924563
0
ARC
5
44B
100
AcDbEntity
8
0
100
AcDbCircle
62
7
6
CONTINUOUS
10
102.0040085823
20
201.1841326552
40
41.0000000000
100
AcDbArc
50
95.5987378162
51
264.4012621838
0
CIRCLE
5
44C
100
AcDbEntity
8
0
100
AcDbCircle
62
4
6
CONTINUOUS
10
53.6740379693
20
167.3431229105
40
5.0000000000
0
CIRCLE
5
44D
100
AcDbEntity
8
0
100
AcDbCircle
62
7
6
CONTINUOUS
10
102.0040085823
20
201.1841326552
40
12.5000000000
0
CIRCLE
5
44E
100
AcDbEntity
8
0
100
AcDbCircle
62
7
6
CONTINUOUS
10
102.0040085823
20
201.1841326552
40
46.0000000000
0
CIRCLE
5
44F
100
AcDbEntity
8
0
100
AcDbCircle
62
7
6
CONTINUOUS
10
102.0040085823
20
201.1841326552
40
65.7500000000
0
CIRCLE
5
450
100
AcDbEntity
8
0
100
AcDbCircle
62
7
6
CONTINUOUS
10
102.0040085823
20
201.1841326552
40
71.2500000000
0
ARC
5
451
100
AcDbEntity
8
0
100
AcDbCircle
62
7
6
CONTINUOUS
10
102.0040085823
20
201.1841326552
40
19.4788870172
100
AcDbArc
50
78.1499798111
51
101.8500201889
0
CIRCLE
5
452
100
AcDbEntity
8
0
100
AcDbCircle
62
7
6
CONTINUOUS
10
102.0040085823
20
201.1841326552
40
51.0000000000
0
CIRCLE
5
453
100
AcDbEntity
8
0
100
AcDbCircle
62
7
6
CONTINUOUS
10
102.0040085823
20
201.1841326552
40
64.7500000000
0
ARC
5
454
100
AcDbEntity
8
0
100
AcDbCircle
62
7
6
CONTINUOUS
10
102.0040085823
20
201.1841326552
40
19.4788870172
100
AcDbArc
50
258.1499798111
51
281.8500201889
0
CIRCLE
5
455
100
AcDbEntity
8
0
100
AcDbCircle
62
7
6
CONTINUOUS
10
102.0040085823
20
201.1841326552
40
66.7500000000
0
CIRCLE
5
456
100
AcDbEntity
8
0
100
AcDbCircle
62
7
6
CONTINUOUS
10
102.0040085823
20
201.1841326552
40
70.2500000000
0
ARC
5
457
100
AcDbEntity
8
0
100
AcDbCircle
62
7
6
CONTINUOUS
10
102.0040085823
20
201.1841326552
40
24.9950665264
100
AcDbArc
50
279.2087292684
51
80.7912707316
0
CIRCLE
5
458
100
AcDbEntity
8
0
100
AcDbCircle
62
7
6
CONTINUOUS
10
102.0040085823
20
201.1841326552
40
18.9990133053
0
ARC
5
459
100
AcDbEntity
8
0
100
AcDbCircle
62
7
6
CONTINUOUS
10
102.0040085823
20
201.1841326552
40
20.0000000000
100
AcDbArc
50
281.6030685882
51
78.3827924563
0
ARC
5
45A
100
AcDbEntity
8
0
100
AcDbCircle
62
7
6
CONTINUOUS
10
102.0040085823
20
201.1841326552
40
41.0000000000
100
AcDbArc
50
275.5987378162
51
84.4012621838
0
CIRCLE
5
45B
100
AcDbEntity
8
0
100
AcDbCircle
62
7
6
CONTINUOUS
10
102.0040085823
20
201.1841326552
40
18.0000000000
0
CIRCLE
5
45C
100
AcDbEntity
8
0
100
AcDbCircle
62
4
6
CONTINUOUS
10
150.3339791954
20
235.0251424000
40
5.0000000000
0
ARC
5
45D
100
AcDbEntity
8
0
100
AcDbCircle
62
7
6
CONTINUOUS
10
84.0040085823
20
83.0117086665
40
1.0000000000
100
AcDbArc
50
90.0000000000
51
177.4545489484
0
ARC
5
45E
100
AcDbEntity
8
0
100
AcDbCircle
62
7
6
CONTINUOUS
10
77.0089420560
20
60.7617086665
40
5.0000000000
100
AcDbArc
50
270.0000000000
51
357.4545489484
0
ARC
5
45F
100
AcDbEntity
8
0
100
AcDbCircle
62
7
6
CONTINUOUS
10
31.7540085823
20
80.7617086665
40
1.0000000000
100
AcDbArc
50
90.0000000000
51
180.0000000000
0
ARC
5
460
100
AcDbEntity
8
0
100
AcDbCircle
62
7
6
CONTINUOUS
10
51.0051352897
20
74.2623178395
40
1.0000000000
100
AcDbArc
50
2.7200944758
51
88.0000000000
0
ARC
5
461
100
AcDbEntity
8
0
100
AcDbCircle
62
7
6
CONTINUOUS
10
35.2540085823
20
80.7617086665
40
1.0000000000
100
AcDbArc
50
0.0000000000
51
90.0000000000
0
ARC
5
462
100
AcDbEntity
8
0
100
AcDbCircle
62
7
6
CONTINUOUS
10
37.2540085823
20
80.7617086665
40
1.0000000000
100
AcDbArc
50
180.0000000000
51
270.0000000000
0
ARC
5
463
100
AcDbEntity
8
0
100
AcDbCircle
62
7
6
CONTINUOUS
10
51.0040085823
20
74.7617086665
40
5.0000000000
100
AcDbArc
50
0.0000000000
51
90.0000000000
0
ARC
5
464
100
AcDbEntity
8
0
100
AcDbCircle
62
7
6
CONTINUOUS
10
51.0051352897
20
32.2610994936
40
1.0000000000
100
AcDbArc
50
272.0000000000
51
357.2799055242
0
ARC
5
465
100
AcDbEntity
8
0
100
AcDbCircle
62
7
6
CONTINUOUS
10
61.0040085823
20
60.7617086665
40
5.0000000000
100
AcDbArc
50
180.0000000000
51
270.0000000000
0
ARC
5
466
100
AcDbEntity
8
0
100
AcDbCircle
62
7
6
CONTINUOUS
10
31.7540085823
20
25.7617086665
40
1.0000000000
100
AcDbArc
50
180.0000000000
51
270.0000000000
0
ARC
5
467
100
AcDbEntity
8
0
100
AcDbCircle
62
7
6
CONTINUOUS
10
35.2540085823
20
25.7617086665
40
1.0000000000
100
AcDbArc
50
270.0000000000
51
360.0000000000
0
ARC
5
468
100
AcDbEntity
8
0
100
AcDbCircle
62
7
6
CONTINUOUS
10
37.2540085823
20
25.7617086665
40
1.0000000000
100
AcDbArc
50
90.0000000000
51
180.0000000000
0
ARC
5
469
100
AcDbEntity
8
0
100
AcDbCircle
62
7
6
CONTINUOUS
10
51.0040085823
20
31.7617086665
40
5.0000000000
100
AcDbArc
50
270.0000000000
51
360.0000000000
0
ARC
5
46A
100
AcDbEntity
8
0
100
AcDbCircle
62
7
6
CONTINUOUS
10
61.0040085823
20
45.7617086665
40
5.0000000000
100
AcDbArc
50
90.0000000000
51
180.0000000000
0
ARC
5
46B
100
AcDbEntity
8
0
100
AcDbCircle
62
7
6
CONTINUOUS
10
77.0089420560
20
45.7617086665
40
5.0000000000
100
AcDbArc
50
2.5454510516
51
90.0000000000
0
ARC
5
46C
100
AcDbEntity
8
0
100
AcDbCircle
62
7
6
CONTINUOUS
10
84.0040085823
20
23.5117086665
40
1.0000000000
100
AcDbArc
50
182.5454510516
51
270.0000000000
0
ARC
5
46D
100
AcDbEntity
8
0
100
AcDbCircle
62
7
6
CONTINUOUS
10
120.0040085823
20
23.5117086665
40
1.0000000000
100
AcDbArc
50
270.0000000000
51
357.4545489484
0
ARC
5
46E
100
AcDbEntity
8
0
100
AcDbCircle
62
7
6
CONTINUOUS
10
126.9990751087
20
45.7617086665
40
5.0000000000
100
AcDbArc
50
90.0000000000
51
177.4545489484
0
ARC
5
46F
100
AcDbEntity
8
0
100
AcDbCircle
62
7
6
CONTINUOUS
10
172.2540085823
20
25.7617086665
40
1.0000000000
100
AcDbArc
50
270.0000000000
51
360.0000000000
0
ARC
5
470
100
AcDbEntity
8
0
100
AcDbCircle
62
7
6
CONTINUOUS
10
153.0028818749
20
32.2610994936
40
1.0000000000
100
AcDbArc
50
182.7200944758
51
268.0000000000
0
ARC
5
471
100
AcDbEntity
8
0
100
AcDbCircle
62
7
6
CONTINUOUS
10
153.0028818749
20
74.2623178395
40
1.0000000000
100
AcDbArc
50
92.0000000000
51
177.2799055242
0
ARC
5
472
100
AcDbEntity
8
0
100
AcDbCircle
62
7
6
CONTINUOUS
10
120.0040085823
20
83.0117086665
40
1.0000000000
100
AcDbArc
50
2.5454510516
51
90.0000000000
0
ARC
5
473
100
AcDbEntity
8
0
100
AcDbCircle
62
7
6
CONTINUOUS
10
126.9990751087
20
60.7617086665
40
5.0000000000
100
AcDbArc
50
182.5454510516
51
270.0000000000
0
ARC
5
474
100
AcDbEntity
8
0
100
AcDbCircle
62
7
6
CONTINUOUS
10
168.7540085823
20
80.7617086665
40
1.0000000000
100
AcDbArc
50
90.0000000000
51
180.0000000000
0
ARC
5
475
100
AcDbEntity
8
0
100
AcDbCircle
62
7
6
CONTINUOUS
10
166.7540085823
20
80.7617086665
40
1.0000000000
100
AcDbArc
50
270.0000000000
51
360.0000000000
0
ARC
5
476
100
AcDbEntity
8
0
100
AcDbCircle
62
7
6
CONTINUOUS
10
153.0040085823
20
74.7617086665
40
5.0000000000
100
AcDbArc
50
90.0000000000
51
180.0000000000
0
ARC
5
477
100
AcDbEntity
8
0
100
AcDbCircle
62
7
6
CONTINUOUS
10
172.2540085823
20
80.7617086665
40
1.0000000000
100
AcDbArc
50
0.0000000000
51
90.0000000000
0
ARC
5
478
100
AcDbEntity
8
0
100
AcDbCircle
62
7
6
CONTINUOUS
10
143.0040085823
20
60.7617086665
40
5.0000000000
100
AcDbArc
50
270.0000000000
51
360.0000000000
0
ARC
5
479
100
AcDbEntity
8
0
100
AcDbCircle
62
7
6
CONTINUOUS
10
168.7540085823
20
25.7617086665
40
1.0000000000
100
AcDbArc
50
180.0000000000
51
270.0000000000
0
ARC
5
47A
100
AcDbEntity
8
0
100
AcDbCircle
62
7
6
CONTINUOUS
10
166.7540085823
20
25.7617086665
40
1.0000000000
100
AcDbArc
50
0.0000000000
51
90.0000000000
0
ARC
5
47B
100
AcDbEntity
8
0
100
AcDbCircle
62
7
6
CONTINUOUS
10
153.0040085823
20
31.7617086665
40
5.0000000000
100
AcDbArc
50
180.0000000000
51
270.0000000000
0
ARC
5
47C
100
AcDbEntity
8
0
100
AcDbCircle
62
7
6
CONTINUOUS
10
143.0040085823
20
45.7617086665
40
5.0000000000
100
AcDbArc
50
0.0000000000
51
90.0000000000
0
SPLINE
5
47D
100
AcDbEntity
8
0
100
AcDbSpline
62
7
6
CONTINUOUS
70
0
71
3
72
9
73
5
74
3
42
0.0000001000
43
0.0000001000
44
0.0000000001
12
0.9676291911
22
3.1312492099
32
0.0000000000
13
0.8202496987
23
3.1730584338
33
0.0000000000
40
0.0000000000
40
0.0000000000
40
0.0000000000
40
0.0000000000
40
0.5075424509
40
1.0000000000
40
1.0000000000
40
1.0000000000
40
1.0000000000
10
309.0391138046
20
145.2948824155
30
0.0000000000
10
309.2028181017
20
145.8246297150
30
0.0000000000
10
309.5120519661
20
146.8725304788
30
0.0000000000
10
309.7968089274
20
147.9273214041
30
0.0000000000
10
309.9314549795
20
148.4481869306
30
0.0000000000
11
309.0391138046
21
145.2948824155
31
0.0000000000
11
309.5104114945
21
146.8901128600
31
0.0000000000
11
309.9314549795
21
148.4481869306
31
0.0000000000
0
SPLINE
5
47E
100
AcDbEntity
8
0
100
AcDbSpline
62
7
6
CONTINUOUS
70
0
71
3
72
8
73
4
74
2
42
0.0000001000
43
0.0000001000
44
0.0000000001
12
0.0228261299
22
0.0883007261
32
0.0000000000
13
0.0227193203
23
0.0883279106
33
0.0000000000
40
0.0000000000
40
0.0000000000
40
0.0000000000
40
0.0000000000
40
1.0000000000
40
1.0000000000
40
1.0000000000
40
1.0000000000
10
309.9314549795
20
148.4481869306
30
0.0000000000
10
309.9390636894
20
148.4776205060
30
0.0000000000
10
309.9466545661
20
148.5070586342
30
0.0000000000
10
309.9542276729
20
148.5365012711
30
0.0000000000
11
309.9314549795
21
148.4481869306
31
0.0000000000
11
309.9542276729
21
148.5365012711
31
0.0000000000
0
SPLINE
5
47F
100
AcDbEntity
8
0
100
AcDbSpline
62
7
6
CONTINUOUS
70
0
71
3
72
16
73
12
74
10
42
0.0000001000
43
0.0000001000
44
0.0000000001
12
-10.9722941303
22
29.6764336207
32
0.0000000000
13
-31.7332735202
23
-0.0108325023
33
0.0000000000
40
0.0000000000
40
0.0000000000
40
0.0000000000
40
0.0000000000
40
0.0616600916
40
0.2321786465
40
0.3879890365
40
0.5287543711
40
0.6547924357
40
0.7673124302
40
0.8687091111
40
0.9627899321
40
1.0000000000
40
1.0000000000
40
1.0000000000
40
1.0000000000
10
276.7139368386
20
222.9439966299
30
0.0000000000
10
276.4884192850
20
223.5539471682
30
0.0000000000
10
275.6126922456
20
225.8408755062
30
0.0000000000
10
273.9718422671
20
229.5930778007
30
0.0000000000
10
271.6231473332
20
233.9303028841
30
0.0000000000
10
269.1088666383
20
237.6209882156
30
0.0000000000
10
266.4511273922
20
240.6276956070
30
0.0000000000
10
263.6691342174
20
242.9178837637
30
0.0000000000
10
260.7797654938
20
244.4578609496
30
0.0000000000
10
258.3734247680
20
245.0638688423
30
0.0000000000
10
256.9848035406
20
245.1383921988
30
0.0000000000
10
256.5912044531
20
245.1382578394
30
0.0000000000
11
276.7139368386
21
222.9439966299
31
0.0000000000
11
276.0157936321
21
224.7657037095
31
0.0000000000
11
273.8384297627
21
229.7009832669
31
0.0000000000
11
271.4721016810
21
234.0247744093
31
0.0000000000
11
268.9427353727
21
237.6897047761
31
0.0000000000
11
266.2780431044
21
240.6556206234
31
0.0000000000
11
263.5072198022
21
242.8900267564
31
0.0000000000
11
260.6606231860
21
244.3684425540
31
0.0000000000
11
257.7694411640
21
245.0746701832
31
0.0000000000
11
256.5912044531
21
245.1382578394
31
0.0000000000
0
SPLINE
5
480
100
AcDbEntity
8
0
100
AcDbSpline
62
7
6
CONTINUOUS
70
0
71
3
72
13
73
9
74
7
42
0.0000001000
43
0.0000001000
44
0.0000000001
12
3.6413098162
22
-5.4304442391
32
0.0000000000
13
6.5242821843
23
-0.1929046720
33
0.0000000000
40
0.0000000000
40
0.0000000000
40
0.0000000000
40
0.0000000000
40
0.0985749719
40
0.2619593516
40
0.4406212575
40
0.6282245730
40
0.8172497550
40
1.0000000000
40
1.0000000000
40
1.0000000000
40
1.0000000000
10
283.7852526885
20
191.8764369916
30
0.0000000000
10
283.9049000260
20
191.6980016956
30
0.0000000000
10
284.2665247774
20
191.2513923695
30
0.0000000000
10
284.9963864645
20
190.6224792579
30
0.0000000000
10
285.9872430220
20
190.0246126495
30
0.0000000000
10
287.1060624599
20
189.5579194229
30
0.0000000000
10
288.2871771480
20
189.2492843036
30
0.0000000000
10
289.0946646771
20
189.1582799367
30
0.0000000000
10
289.4921027328
20
189.1465288114
30
0.0000000000
11
283.7852526885
21
191.8764369916
31
0.0000000000
11
284.1872948667
21
191.3721798991
31
0.0000000000
11
284.9878079961
21
190.6675841485
31
0.0000000000
11
285.9830704107
21
190.0598352197
31
0.0000000000
11
287.1122283260
21
189.5860929833
31
0.0000000000
11
288.3062411234
21
189.2753236773
31
0.0000000000
11
289.4921027328
21
189.1465288114
31
0.0000000000
0
SPLINE
5
481
100
AcDbEntity
8
0
100
AcDbSpline
62
7
6
CONTINUOUS
70
0
71
3
72
13
73
9
74
7
42
0.0000001000
43
0.0000001000
44
0.0000000001
12
-5.9771169348
22
1.0036230968
32
0.0000000000
13
-2.3595520027
23
5.5826248771
33
0.0000000000
40
0.0000000000
40
0.0000000000
40
0.0000000000
40
0.0000000000
40
0.1846202224
40
0.3693806777
40
0.5480789305
40
0.7151546819
40
0.8664220377
40
1.0000000000
40
1.0000000000
40
1.0000000000
40
1.0000000000
10
307.8279944039
20
148.5365012711
30
0.0000000000
10
307.4601621846
20
148.5982643108
30
0.0000000000
10
306.7317251762
20
148.7713937420
30
0.0000000000
10
305.6929714057
20
149.1630858238
30
0.0000000000
10
304.7452268432
20
149.6707762860
30
0.0000000000
10
303.9344853662
20
150.2703897164
30
0.0000000000
10
303.2996827664
20
150.9332334626
30
0.0000000000
10
302.9957247963
20
151.4302969488
30
0.0000000000
10
302.8906634134
20
151.6788688340
30
0.0000000000
11
307.8279944039
21
148.5365012711
31
0.0000000000
11
306.7390871999
21
148.7940241487
31
0.0000000000
11
305.6917068629
21
149.1901732560
31
0.0000000000
11
304.7388031859
21
149.7049332245
31
0.0000000000
11
303.9285570783
21
150.3122903437
31
0.0000000000
11
303.3019527246
21
150.9815353493
31
0.0000000000
11
302.8906634134
21
151.6788688340
31
0.0000000000
0
SPLINE
5
482
100
AcDbEntity
8
0
100
AcDbSpline
62
7
6
CONTINUOUS
70
0
71
3
72
16
73
12
74
10
42
0.0000001000
43
0.0000001000
44
0.0000000001
12
-36.7789813598
22
-0.0125549102
32
0.0000000000
13
-10.8250528294
23
-35.0298837943
33
0.0000000000
40
0.0000000000
40
0.0000000000
40
0.0000000000
40
0.0000000000
40
0.0471277699
40
0.1291852217
40
0.2182692509
40
0.3174303646
40
0.4285222439
40
0.5524245008
40
0.6892910413
40
0.8387423569
40
1.0000000000
40
1.0000000000
40
1.0000000000
40
1.0000000000
10
298.4228541201
20
245.1382578394
30
0.0000000000
10
297.8450836626
20
245.1380606111
30
0.0000000000
10
296.2610789923
20
245.0119717213
30
0.0000000000
10
293.6816437634
20
244.2264643866
30
0.0000000000
10
290.8111292020
20
242.5419742792
30
0.0000000000
10
288.0512808680
20
240.1141294197
30
0.0000000000
10
285.4190373169
20
236.9757459167
30
0.0000000000
10
282.9342573420
20
233.1599766376
30
0.0000000000
10
280.6194031909
20
228.7054606846
30
0.0000000000
10
278.4976975113
20
223.6583714700
30
0.0000000000
10
277.2704950580
20
220.0615966953
30
0.0000000000
10
276.6886208893
20
218.1786511952
30
0.0000000000
11
298.4228541201
21
245.1382578394
31
0.0000000000
11
296.6969997984
21
245.0009720665
31
0.0000000000
11
293.8118175844
21
244.1481556558
31
0.0000000000
11
290.9771548491
21
242.5255645862
31
0.0000000000
11
288.2240687506
21
240.1509763049
31
0.0000000000
11
285.5827226762
21
237.0504072981
31
0.0000000000
11
283.0820557664
21
233.2578280487
31
0.0000000000
11
280.7494658510
21
228.8147908486
31
0.0000000000
11
278.6105092733
21
223.7699745430
31
0.0000000000
11
276.6886208893
21
218.1786511952
31
0.0000000000
0
SPLINE
5
483
100
AcDbEntity
8
0
100
AcDbSpline
62
7
6
CONTINUOUS
70
0
71
3
72
12
73
8
74
6
42
0.0000001000
43
0.0000001000
44
0.0000000001
12
-6.4896753455
22
-0.0188776233
32
0.0000000000
13
-1.8947443076
23
-6.1313948264
33
0.0000000000
40
0.0000000000
40
0.0000000000
40
0.0000000000
40
0.0000000000
40
0.0870360434
40
0.2532462640
40
0.4574125832
40
0.7067662640
40
1.0000000000
40
1.0000000000
40
1.0000000000
40
1.0000000000
10
305.8299116711
20
186.3863215262
30
0.0000000000
10
305.6416331162
20
186.3857738483
30
0.0000000000
10
305.0929008904
20
186.3075073130
30
0.0000000000
10
304.2328201474
20
185.7833868026
30
0.0000000000
10
303.3675768829
20
184.7625250293
30
0.0000000000
10
302.6024402758
20
183.3513810989
30
0.0000000000
10
302.2018322702
20
182.2583761634
30
0.0000000000
10
302.0166312861
20
181.6590655593
30
0.0000000000
11
305.8299116711
21
186.3863215262
31
0.0000000000
11
305.2730241982
21
186.3069458747
31
0.0000000000
11
304.3403021330
21
185.7894773689
31
0.0000000000
11
303.4648150485
21
184.8146779226
31
0.0000000000
11
302.6802074225
21
183.4200085319
31
0.0000000000
11
302.0166312861
21
181.6590655593
31
0.0000000000
0
SPLINE
5
484
100
AcDbEntity
8
0
100
AcDbSpline
62
7
6
CONTINUOUS
70
0
71
3
72
8
73
4
74
2
42
0.0000001000
43
0.0000001000
44
0.0000000001
12
-0.5436121563
22
0.0000000000
32
0.0000000000
13
-0.5426255477
23
0.0410972552
33
0.0000000000
40
0.0000000000
40
0.0000000000
40
0.0000000000
40
0.0000000000
40
1.0000000000
40
1.0000000000
40
1.0000000000
40
1.0000000000
10
308.1180528106
20
145.2948824155
30
0.0000000000
10
307.9368487585
20
145.2948824155
30
0.0000000000
10
307.7555508216
20
145.3020330773
30
0.0000000000
10
307.5746756390
20
145.3157321624
30
0.0000000000
11
308.1180528106
21
145.2948824155
31
0.0000000000
11
307.5746756390
21
145.3157321624
31
0.0000000000
0
SPLINE
5
485
100
AcDbEntity
8
0
100
AcDbSpline
62
7
6
CONTINUOUS
70
0
71
3
72
8
73
4
74
2
42
0.0000001000
43
0.0000001000
44
0.0000000001
12
-0.0927222495
22
0.1557505014
32
0.0000000000
13
-0.0834103766
23
0.1605963319
33
0.0000000000
40
0.0000000000
40
0.0000000000
40
0.0000000000
40
0.0000000000
40
1.0000000000
40
1.0000000000
40
1.0000000000
40
1.0000000000
10
302.1061641441
20
148.1843665978
30
0.0000000000
10
302.0752567276
20
148.2362834316
30
0.0000000000
10
302.0458112077
20
148.2890183256
30
0.0000000000
10
302.0180077489
20
148.3425504362
30
0.0000000000
11
302.1061641441
21
148.1843665978
31
0.0000000000
11
302.0180077489
21
148.3425504362
31
0.0000000000
0
SPLINE
5
486
100
AcDbEntity
8
0
100
AcDbSpline
62
7
6
CONTINUOUS
70
0
71
3
72
8
73
4
74
2
42
0.0000001000
43
0.0000001000
44
0.0000000001
12
-0.0927179183
22
0.1785168488
32
0.0000000000
13
-0.0798017042
23
0.1843413335
33
0.0000000000
40
0.0000000000
40
0.0000000000
40
0.0000000000
40
0.0000000000
40
1.0000000000
40
1.0000000000
40
1.0000000000
40
1.0000000000
10
302.0180077489
20
148.3425504362
30
0.0000000000
10
301.9871017761
20
148.4020560525
30
0.0000000000
10
301.9582247772
20
148.4625467306
30
0.0000000000
10
301.9316242092
20
148.5239938418
30
0.0000000000
11
302.0180077489
21
148.3425504362
31
0.0000000000
11
301.9316242092
21
148.5239938418
31
0.0000000000
0
SPLINE
5
487
100
AcDbEntity
8
0
100
AcDbSpline
62
7
6
CONTINUOUS
70
0
71
3
72
8
73
4
74
2
42
0.0000001000
43
0.0000001000
44
0.0000000001
12
-0.0093196261
22
0.0215282659
32
0.0000000000
13
-0.0091321585
23
0.0216063960
33
0.0000000000
40
0.0000000000
40
0.0000000000
40
0.0000000000
40
0.0000000000
40
1.0000000000
40
1.0000000000
40
1.0000000000
40
1.0000000000
10
301.9316242092
20
148.5239938418
30
0.0000000000
10
301.9285176671
20
148.5311699304
30
0.0000000000
10
301.9254421726
20
148.5383590635
30
0.0000000000
10
301.9223981198
20
148.5455611955
30
0.0000000000
11
301.9316242092
21
148.5239938418
31
0.0000000000
11
301.9223981198
21
148.5455611955
31
0.0000000000
0
SPLINE
5
488
100
AcDbEntity
8
0
100
AcDbSpline
62
7
6
CONTINUOUS
70
0
71
3
72
8
73
4
74
2
42
0.0000001000
43
0.0000001000
44
0.0000000001
12
-0.2186957227
22
0.0107756875
32
0.0000000000
13
-0.2187184999
23
-0.0045412140
33
0.0000000000
40
0.0000000000
40
0.0000000000
40
0.0000000000
40
0.0000000000
40
1.0000000000
40
1.0000000000
40
1.0000000000
40
1.0000000000
10
284.3567654443
20
193.8838303724
30
0.0000000000
10
284.2838668701
20
193.8874222682
30
0.0000000000
10
284.2108651182
20
193.8884857996
30
0.0000000000
10
284.1379589516
20
193.8869720616
30
0.0000000000
11
284.3567654443
21
193.8838303724
31
0.0000000000
11
284.1379589516
21
193.8869720616
31
0.0000000000
0
SPLINE
5
489
100
AcDbEntity
8
0
100
AcDbSpline
62
7
6
CONTINUOUS
70
0
71
3
72
8
73
4
74
2
42
0.0000001000
43
0.0000001000
44
0.0000000001
12
-0.0161352709
22
-0.0003350138
32
0.0000000000
13
-0.0161319102
23
-0.0004192302
33
0.0000000000
40
0.0000000000
40
0.0000000000
40
0.0000000000
40
0.0000000000
40
1.0000000000
40
1.0000000000
40
1.0000000000
40
1.0000000000
10
284.1379589516
20
193.8869720616
30
0.0000000000
10
284.1325805280
20
193.8868603904
30
0.0000000000
10
284.1272026245
20
193.8867346928
30
0.0000000000
10
284.1218253211
20
193.8865949495
30
0.0000000000
11
284.1379589516
21
193.8869720616
31
0.0000000000
11
284.1218253211
21
193.8865949495
31
0.0000000000
0
SPLINE
5
48A
100
AcDbEntity
8
0
100
AcDbSpline
62
7
6
CONTINUOUS
70
0
71
3
72
13
73
9
74
7
42
0.0000001000
43
0.0000001000
44
0.0000000001
12
-9.9719949348
22
0.4722213581
32
0.0000000000
13
-2.9234137072
23
-9.4601702236
33
0.0000000000
40
0.0000000000
40
0.0000000000
40
0.0000000000
40
0.0000000000
40
0.0685540413
40
0.2000251553
40
0.3540568021
40
0.5380743552
40
0.7539361597
40
1.0000000000
40
1.0000000000
40
1.0000000000
40
1.0000000000
10
305.0884760225
20
192.8828231480
30
0.0000000000
10
304.8606025049
20
192.8936140421
30
0.0000000000
10
304.1920113576
20
192.8496139309
30
0.0000000000
10
303.0931644103
20
192.3728765670
30
0.0000000000
10
301.9278367713
20
191.3249784360
30
0.0000000000
10
300.8620064199
20
189.8271861518
30
0.0000000000
10
299.9092539578
20
187.9130716043
30
0.0000000000
10
299.3937873353
20
186.4748522854
30
0.0000000000
10
299.1540052008
20
185.6989170138
30
0.0000000000
11
305.0884760225
21
192.8828231480
31
0.0000000000
11
304.4079280075
21
192.8369858654
31
0.0000000000
11
303.2008175632
21
192.3496543260
31
0.0000000000
11
302.0414066086
21
191.3587626495
31
0.0000000000
11
300.9613208523
21
189.8913397775
31
0.0000000000
11
299.9900222182
21
187.9874131808
31
0.0000000000
11
299.1540052008
21
185.6989170138
31
0.0000000000
0
SPLINE
5
48B
100
AcDbEntity
8
0
100
AcDbSpline
62
7
6
CONTINUOUS
70
0
71
3
72
16
73
12
74
10
42
0.0000001000
43
0.0000001000
44
0.0000000001
12
10.8250525639
22
35.0298829350
32
0.0000000000
13
36.7789804634
23
0.0125579449
33
0.0000000000
40
0.0000000000
40
0.0000000000
40
0.0000000000
40
0.0000000000
40
0.1612576471
40
0.3107089663
40
0.4475755102
40
0.5714777701
40
0.6825696522
40
0.7817307682
40
0.8708147996
40
0.9528722534
40
1.0000000000
40
1.0000000000
40
1.0000000000
40
1.0000000000
10
281.1019733909
20
218.1786511952
30
0.0000000000
10
281.6838475596
20
220.0615966953
30
0.0000000000
10
282.9110500129
20
223.6583714700
30
0.0000000000
10
285.0327556926
20
228.7054606846
30
0.0000000000
10
287.3476098436
20
233.1599766376
30
0.0000000000
10
289.8323898185
20
236.9757459167
30
0.0000000000
10
292.4646333696
20
240.1141294197
30
0.0000000000
10
295.2244817036
20
242.5419742792
30
0.0000000000
10
298.0949962650
20
244.2264643866
30
0.0000000000
10
300.6744312040
20
245.0119716330
30
0.0000000000
10
302.2584355627
20
245.1380605632
30
0.0000000000
10
302.8362057195
20
245.1382578391
30
0.0000000000
11
281.1019733909
21
218.1786511952
31
0.0000000000
11
283.0238617750
21
223.7699745430
31
0.0000000000
11
285.1628183526
21
228.8147908486
31
0.0000000000
11
287.4954082680
21
233.2578280487
31
0.0000000000
11
289.9960751778
21
237.0504072981
31
0.0000000000
11
292.6374212522
21
240.1509763049
31
0.0000000000
11
295.3905073507
21
242.5255645862
31
0.0000000000
11
298.2251700860
21
244.1481556558
31
0.0000000000
11
301.1103523000
21
245.0009720665
31
0.0000000000
11
302.8362057195
21
245.1382578391
31
0.0000000000
0
SPLINE
5
48C
100
AcDbEntity
8
0
100
AcDbSpline
62
7
6
CONTINUOUS
70
0
71
3
72
12
73
8
74
6
42
0.0000001000
43
0.0000001000
44
0.0000000001
12
-3.3952225660
22
16.0849933285
32
0.0000000000
13
-8.7809190945
23
13.9081339800
33
0.0000000000
40
0.0000000000
40
0.0000000000
40
0.0000000000
40
0.0000000000
40
0.0033725444
40
0.2937431975
40
0.5625942926
40
0.8068646200
40
1.0000000000
40
1.0000000000
40
1.0000000000
40
1.0000000000
10
293.8462728989
20
193.4275317400
30
0.0000000000
10
293.8424560526
20
193.4456141915
30
0.0000000000
10
293.5094468057
20
195.0204486828
30
0.0000000000
10
292.7767494304
20
198.0169017039
30
0.0000000000
10
291.4198640488
20
202.2095750406
30
0.0000000000
10
289.9118487750
20
205.7794353261
30
0.0000000000
10
288.7590053581
20
207.8859562727
30
0.0000000000
10
288.1937033095
20
208.7813405198
30
0.0000000000
11
293.8462728989
21
193.4275317400
31
0.0000000000
11
293.8348027842
21
193.4817750254
31
0.0000000000
11
292.6904678858
21
198.1152237474
31
0.0000000000
11
291.3154591862
21
202.3148155678
31
0.0000000000
11
289.7344007981
21
206.0053442507
31
0.0000000000
11
288.1937033095
21
208.7813405198
31
0.0000000000
0
SPLINE
5
48D
100
AcDbEntity
8
0
100
AcDbSpline
62
7
6
CONTINUOUS
70
0
71
3
72
25
73
21
74
19
42
0.0000001000
43
0.0000001000
44
0.0000000001
12
24.0831328979
22
77.9330466196
32
0.0000000000
13
-81.8847501604
23
-0.1029735781
33
0.0000000000
40
0.0000000000
40
0.0000000000
40
0.0000000000
40
0.0000000000
40
0.0628225439
40
0.1297406819
40
0.1998674511
40
0.2722268669
40
0.3457844747
40
0.4194754425
40
0.4922315973
40
0.5630083532
40
0.6308124360
40
0.6947316470
40
0.7539687831
40
0.8078836059
40
0.8560501500
40
0.8983425937
40
0.9350702976
40
0.9671764174
40
0.9964333197
40
1.0000000000
40
1.0000000000
40
1.0000000000
40
1.0000000000
10
311.3417662896
20
145.2948824155
30
0.0000000000
10
311.8460875139
20
146.9268664956
30
0.0000000000
10
312.7563678136
20
150.3386204414
30
0.0000000000
10
313.8137554166
20
155.6722972339
30
0.0000000000
10
314.5936255786
20
161.3153733677
30
0.0000000000
10
315.0823526081
20
167.1718908674
30
0.0000000000
10
315.2714690680
20
173.1425825359
30
0.0000000000
10
315.1576782218
20
179.1259524594
30
0.0000000000
10
314.7429613429
20
185.0203216846
30
0.0000000000
10
314.0345277684
20
190.7256063772
30
0.0000000000
10
313.0446763953
20
196.1451624706
30
0.0000000000
10
311.7905296093
20
201.1876010546
30
0.0000000000
10
310.2935967850
20
205.7686042271
30
0.0000000000
10
308.5790241676
20
209.8127521984
30
0.0000000000
10
306.6742398418
20
213.2552674490
30
0.0000000000
10
304.6062052541
20
216.0432465132
30
0.0000000000
10
302.3968397381
20
218.1337595256
30
0.0000000000
10
300.0589455439
20
219.4830010250
30
0.0000000000
10
298.3029872225
20
219.8709433038
30
0.0000000000
10
297.4071929712
20
219.8888217655
30
0.0000000000
10
297.3098407283
20
219.8886993409
30
0.0000000000
11
311.3417662896
21
145.2948824155
31
0.0000000000
11
312.6751370097
21
150.2427637739
31
0.0000000000
11
313.7456032452
21
155.5952377799
31
0.0000000000
11
314.5348490220
21
161.2607221192
31
0.0000000000
11
315.0293701260
21
167.1422787841
31
0.0000000000
11
315.2207051641
21
173.1392727091
31
0.0000000000
11
315.1055803406
21
179.1490936658
31
0.0000000000
11
314.6859654732
21
185.0689119512
31
0.0000000000
11
313.9690402887
21
190.7974378332
31
0.0000000000
11
312.9670715757
21
196.2366546457
31
0.0000000000
11
311.6972032967
21
201.2934958810
31
0.0000000000
11
310.1811632500
21
205.8814375835
31
0.0000000000
11
308.4448913012
21
209.9219787988
31
0.0000000000
11
306.5180955446
21
213.3459847463
31
0.0000000000
11
304.4337439900
21
216.0948697351
31
0.0000000000
11
302.2275004702
21
218.1215995807
31
0.0000000000
11
299.9371144236
21
219.3914963736
31
0.0000000000
11
297.6017749904
21
219.8828318277
31
0.0000000000
11
297.3098407283
21
219.8886993409
31
0.0000000000
0
SPLINE
5
48E
100
AcDbEntity
8
0
100
AcDbSpline
62
7
6
CONTINUOUS
70
0
71
3
72
28
73
24
74
22
42
0.0000001000
43
0.0000001000
44
0.0000000001
12
116.9845173262
22
-0.0799398966
32
0.0000000000
13
-34.4285368682
23
-111.4107861368
33
0.0000000000
40
0.0000000000
40
0.0000000000
40
0.0000000000
40
0.0000000000
40
0.0164945958
40
0.0413480064
40
0.0685554437
40
0.0990274610
40
0.1332880062
40
0.1715568025
40
0.2138308815
40
0.2599447798
40
0.3096117979
40
0.3624525769
40
0.4180159194
40
0.4757950133
40
0.5352409633
40
0.5957747579
40
0.6567983495
40
0.7177052647
40
0.7778910295
40
0.8367636368
40
0.8937542985
40
0.9483288063
40
1.0000000000
40
1.0000000000
40
1.0000000000
40
1.0000000000
10
302.8362059989
20
239.6383708321
30
0.0000000000
10
303.4794101101
20
239.6379313067
30
0.0000000000
10
305.0923504910
20
239.4820430060
30
0.0000000000
10
307.6401093423
20
238.6053529418
30
0.0000000000
10
310.3650800810
20
236.8676411946
30
0.0000000000
10
312.9758204467
20
234.4032190014
30
0.0000000000
10
315.4555335932
20
231.2453271724
30
0.0000000000
10
317.7836894750
20
227.4287606003
30
0.0000000000
10
319.9372333531
20
222.9948188354
30
0.0000000000
10
321.8927695137
20
217.9925560368
30
0.0000000000
10
323.6280686733
20
212.4784512855
30
0.0000000000
10
325.1229666392
20
206.5156115206
30
0.0000000000
10
326.3599058698
20
200.1728493326
30
0.0000000000
10
327.3242827006
20
193.5237307166
30
0.0000000000
10
328.0046827317
20
186.6456085230
30
0.0000000000
10
328.3930431915
20
179.6186431534
30
0.0000000000
10
328.4847594022
20
172.5248094582
30
0.0000000000
10
328.2787442393
20
165.4468981395
30
0.0000000000
10
327.7774388094
20
158.4674966410
30
0.0000000000
10
326.9867925445
20
151.6680288961
30
0.0000000000
10
325.9161475535
20
145.1275936435
30
0.0000000000
10
324.5782502699
20
138.9225542393
30
0.0000000000
10
323.4856969858
20
134.9369949804
30
0.0000000000
10
322.8927091196
20
133.0180855422
30
0.0000000000
11
302.8362059989
21
239.6383708321
31
0.0000000000
11
304.7541393299
21
239.4542188921
31
0.0000000000
11
307.5034259010
21
238.5373730406
31
0.0000000000
11
310.1979935906
21
236.8625834315
31
0.0000000000
11
312.8062510562
21
234.4494854418
31
0.0000000000
11
315.2976188638
21
231.3263704390
31
0.0000000000
11
317.6428880036
21
227.5298540910
31
0.0000000000
11
319.8145623394
21
223.1044470809
31
0.0000000000
11
321.7871809752
21
218.1020332596
31
0.0000000000
11
323.5376167609
21
212.5812613555
31
0.0000000000
11
325.0453474375
21
206.6068573715
31
0.0000000000
11
326.2926962414
21
200.2488657317
31
0.0000000000
11
327.2650391481
21
193.5818280751
31
0.0000000000
11
327.9509763263
21
186.6839093223
31
0.0000000000
11
328.3424657896
21
179.6359812640
31
0.0000000000
11
328.4349176820
21
172.5206744127
31
0.0000000000
11
328.2272480896
21
165.4214092356
31
0.0000000000
11
327.7218917486
21
158.4214181259
31
0.0000000000
11
326.9247734998
21
151.6027695794
31
0.0000000000
11
325.8452388261
21
145.0454060158
31
0.0000000000
11
324.4959442844
21
138.8262065275
31
0.0000000000
11
322.8927091196
21
133.0180855422
31
0.0000000000
0
SPLINE
5
48F
100
AcDbEntity
8
0
100
AcDbSpline
62
7
6
CONTINUOUS
70
0
71
3
72
17
73
13
74
11
42
0.0000001000
43
0.0000001000
44
0.0000000001
12
-26.8631760706
22
14.5832893356
32
0.0000000000
13
-9.0053868077
23
-29.1414423898
33
0.0000000000
40
0.0000000000
40
0.0000000000
40
0.0000000000
40
0.0000000000
40
0.0150425743
40
0.0970692040
40
0.1756511493
40
0.2570477430
40
0.3467865264
40
0.4486446824
40
0.5646471021
40
0.6954843950
40
0.8409071544
40
1.0000000000
40
1.0000000000
40
1.0000000000
40
1.0000000000
10
261.3515457203
20
223.7494907887
30
0.0000000000
10
261.2168486132
20
223.8226141930
30
0.0000000000
10
260.3372380139
20
224.2757223730
30
0.0000000000
10
258.6233294595
20
224.8605634444
30
0.0000000000
10
256.1211681759
20
224.9023473171
30
0.0000000000
10
253.6592116918
20
224.1448848030
30
0.0000000000
10
251.2956187011
20
222.6411324636
30
0.0000000000
10
249.0490688204
20
220.4411587372
30
0.0000000000
10
246.9345074882
20
217.5814254165
30
0.0000000000
10
244.9728140821
20
214.0999164555
30
0.0000000000
10
243.1882644550
20
210.0431709866
30
0.0000000000
10
242.1751056919
20
207.1140534217
30
0.0000000000
10
241.6975414876
20
205.5686550902
30
0.0000000000
11
261.3515457203
21
223.7494907887
31
0.0000000000
11
260.9426045381
21
223.9599285090
31
0.0000000000
11
258.5653434568
21
224.7397807201
31
0.0000000000
11
256.1688096510
21
224.7781131813
31
0.0000000000
11
253.7879499800
21
224.0743669191
31
0.0000000000
11
251.4574827392
21
222.6388041385
31
0.0000000000
11
249.2113913885
21
220.4923585777
31
0.0000000000
11
247.0824289978
21
217.6663302461
31
0.0000000000
11
245.1016406325
21
214.2019290006
31
0.0000000000
11
243.2979106475
21
210.1496736125
31
0.0000000000
11
241.6975414876
21
205.5686550902
31
0.0000000000
0
SPLINE
5
490
100
AcDbEntity
8
0
100
AcDbSpline
62
7
6
CONTINUOUS
70
0
71
3
72
16
73
12
74
10
42
0.0000001000
43
0.0000001000
44
0.0000000001
12
10.3735271209
22
33.5687460659
32
0.0000000000
13
34.8854835769
23
4.9237831655
33
0.0000000000
40
0.0000000000
40
0.0000000000
40
0.0000000000
40
0.0000000000
40
0.1682766609
40
0.3242331035
40
0.4670569969
40
0.5963523138
40
0.7122796593
40
0.8157569319
40
0.9087184975
40
0.9943476418
40
1.0000000000
40
1.0000000000
40
1.0000000000
40
1.0000000000
10
230.4436187207
20
218.1786511952
30
0.0000000000
10
231.0254928895
20
220.0615966953
30
0.0000000000
10
232.2526953427
20
223.6583714700
30
0.0000000000
10
234.3744010224
20
228.7054606846
30
0.0000000000
10
236.6892551735
20
233.1599766376
30
0.0000000000
10
239.1740351484
20
236.9757459167
30
0.0000000000
10
241.8062786994
20
240.1141294197
30
0.0000000000
10
244.5661270334
20
242.5419742792
30
0.0000000000
10
247.4366415948
20
244.2264643866
30
0.0000000000
10
249.5231476445
20
244.8618615416
30
0.0000000000
10
250.5831755023
20
245.0213151929
30
0.0000000000
10
250.6489039184
20
245.0305921882
30
0.0000000000
11
230.4436187207
21
218.1786511952
31
0.0000000000
11
232.3655071048
21
223.7699745430
31
0.0000000000
11
234.5044636825
21
228.8147908486
31
0.0000000000
11
236.8370535978
21
233.2578280487
31
0.0000000000
11
239.3377205077
21
237.0504072981
31
0.0000000000
11
241.9790665820
21
240.1509763049
31
0.0000000000
11
244.7321526806
21
242.5255645862
31
0.0000000000
11
247.5668154159
21
244.1481556558
31
0.0000000000
11
250.4519976298
21
245.0009720665
31
0.0000000000
11
250.6489039184
21
245.0305921882
31
0.0000000000
0
SPLINE
5
491
100
AcDbEntity
8
0
100
AcDbSpline
62
7
6
CONTINUOUS
70
0
71
3
72
8
73
4
74
2
42
0.0000001000
43
0.0000001000
44
0.0000000001
12
1.5184510058
22
0.2143161778
32
0.0000000000
13
1.5340946488
23
0.0005236801
33
0.0000000000
40
0.0000000000
40
0.0000000000
40
0.0000000000
40
0.0000000000
40
1.0000000000
40
1.0000000000
40
1.0000000000
40
1.0000000000
10
250.6489039184
20
245.0305921882
30
0.0000000000
10
251.1550542537
20
245.1020309142
30
0.0000000000
10
251.6664870686
20
245.1380832794
30
0.0000000000
10
252.1778519515
20
245.1382578394
30
0.0000000000
11
250.6489039184
21
245.0305921882
31
0.0000000000
11
252.1778519515
21
245.1382578394
31
0.0000000000
0
SPLINE
5
492
100
AcDbEntity
8
0
100
AcDbSpline
62
7
6
CONTINUOUS
70
0
71
3
72
33
73
29
74
27
42
0.0000001000
43
0.0000001000
44
0.0000000001
12
34.4489425669
22
111.4768196889
32
0.0000000000
13
-34.4489429545
23
-111.4768195691
33
0.0000000000
40
0.0000000000
40
0.0000000000
40
0.0000000000
40
0.0000000000
40
0.0448276964
40
0.0924030257
40
0.1421925224
40
0.1936098305
40
0.2460319093
40
0.2988138638
40
0.3513031045
40
0.4028532955
40
0.4528384730
40
0.5006677805
40
0.5458014884
40
0.5877694306
40
0.6261938711
40
0.6608203871
40
0.6915629636
40
0.7185726655
40
0.7423377322
40
0.7637956824
40
0.7843525123
40
0.8056456468
40
0.8291210761
40
0.8557669014
40
0.8861128288
40
0.9203395199
40
0.9583817307
40
1.0000000000
40
1.0000000000
40
1.0000000000
40
1.0000000000
10
317.4722805928
20
142.1868325741
30
0.0000000000
10
317.9870361726
20
143.8525822513
30
0.0000000000
10
318.9248502287
20
147.3250324879
30
0.0000000000
10
320.0407990061
20
152.7443836030
30
0.0000000000
10
320.8963937091
20
158.4700846797
30
0.0000000000
10
321.4789274162
20
164.4190826548
30
0.0000000000
10
321.7798172387
20
170.5053769962
30
0.0000000000
10
321.7946072158
20
176.6407249576
30
0.0000000000
10
321.5230805003
20
182.7361745000
30
0.0000000000
10
320.9692516440
20
188.7033715103
30
0.0000000000
10
320.1413050423
20
194.4559270471
30
0.0000000000
10
319.0514563404
20
199.9107576090
30
0.0000000000
10
317.7157268376
20
204.9894183409
30
0.0000000000
10
316.1535922168
20
209.6194254308
30
0.0000000000
10
314.3874172886
20
213.7355726381
30
0.0000000000
10
312.4414722584
20
217.2811746902
30
0.0000000000
10
310.3401349790
20
220.2089546263
30
0.0000000000
10
308.1048165616
20
222.4801669748
30
0.0000000000
10
305.7510542864
20
224.0587701767
30
0.0000000000
10
303.2957629316
20
224.8965950553
30
0.0000000000
10
300.7918328814
20
224.9384084649
30
0.0000000000
10
298.3281360513
20
224.1804105039
30
0.0000000000
10
295.9628722473
20
222.6755951687
30
0.0000000000
10
293.7147342907
20
220.4740662908
30
0.0000000000
10
291.5986781845
20
217.6123114375
30
0.0000000000
10
289.6355980665
20
214.1283414133
30
0.0000000000
10
287.8497869478
20
210.0687282497
30
0.0000000000
10
286.8359119912
20
207.1375401036
30
0.0000000000
10
286.3580101962
20
205.5910493378
30
0.0000000000
11
317.4722805928
21
142.1868325741
31
0.0000000000
11
318.8469229836
21
147.2333775250
31
0.0000000000
11
319.9746619302
21
152.6686206138
31
0.0000000000
11
320.8390524592
21
158.4133037572
31
0.0000000000
11
321.4274898103
21
164.3836565390
31
0.0000000000
11
321.7313932418
21
170.4926177717
31
0.0000000000
11
321.7463311574
21
176.6511050443
31
0.0000000000
11
321.4720857286
21
182.7693137446
31
0.0000000000
11
320.9126560714
21
188.7580266127
31
0.0000000000
11
320.0761999298
21
194.5299147298
31
0.0000000000
11
318.9749147180
21
200.0008109698
31
0.0000000000
11
317.6248596542
21
205.0909373461
31
0.0000000000
11
316.0457215812
21
209.7260683544
31
0.0000000000
11
314.2605278882
21
213.8386133470
31
0.0000000000
11
312.2953107191
21
217.3686021572
31
0.0000000000
11
310.1787273654
21
220.2645595996
31
0.0000000000
11
307.9416423786
21
222.4842560932
31
0.0000000000
11
305.6166774953
21
223.9953234651
31
0.0000000000
11
303.2377359389
21
224.7757269502
31
0.0000000000
11
300.8395080340
21
224.8140865085
31
0.0000000000
11
298.4569653441
21
224.1098427712
31
0.0000000000
11
296.1248507064
21
222.6732651978
31
0.0000000000
11
293.8771716039
21
220.5253023242
31
0.0000000000
11
291.7467042591
21
217.6972762859
31
0.0000000000
11
289.7645156835
21
214.2304260707
31
0.0000000000
11
287.9595106499
21
210.1753061615
31
0.0000000000
11
286.3580101962
21
205.5910493378
31
0.0000000000
0
SPLINE
5
493
100
AcDbEntity
8
0
100
AcDbSpline
62
7
6
CONTINUOUS
70
0
71
3
72
14
73
10
74
8
42
0.0000001000
43
0.0000001000
44
0.0000000001
12
-24.8754541672
22
-1.2767524072
32
0.0000000000
13
-7.3289340296
23
-23.7164392117
33
0.0000000000
40
0.0000000000
40
0.0000000000
40
0.0000000000
40
0.0000000000
40
0.0985846290
40
0.2061017233
40
0.3283231467
40
0.4683266704
40
0.6272469925
40
0.8048612321
40
1.0000000000
40
1.0000000000
40
1.0000000000
40
1.0000000000
10
277.1237384029
20
222.8790531882
30
0.0000000000
10
276.3062925961
20
222.8370971340
30
0.0000000000
10
274.6136167763
20
222.4585339410
30
0.0000000000
10
272.2214491173
20
221.1074160611
30
0.0000000000
10
269.9529091088
20
219.0255120466
30
0.0000000000
10
267.8200833499
20
216.2534137187
30
0.0000000000
10
265.8438265303
20
212.8311037656
30
0.0000000000
10
264.0497346920
20
208.8075208302
30
0.0000000000
10
263.0366973072
20
205.8904949767
30
0.0000000000
10
262.5599775884
20
204.3478294012
30
0.0000000000
11
277.1237384029
21
222.8790531882
31
0.0000000000
11
274.7306817184
21
222.3674993388
31
0.0000000000
11
272.3864781362
21
221.0916715929
31
0.0000000000
11
270.1230287009
21
219.0714285873
31
0.0000000000
11
267.9760293621
21
216.3386307611
31
0.0000000000
11
265.9793395820
21
212.9363759684
31
0.0000000000
11
264.1644483511
21
208.9183197997
31
0.0000000000
11
262.5599775884
21
204.3478294012
31
0.0000000000
0
SPLINE
5
494
100
AcDbEntity
8
0
100
AcDbSpline
62
7
6
CONTINUOUS
70
0
71
3
72
15
73
11
74
9
42
0.0000001000
43
0.0000001000
44
0.0000000001
12
-26.1820191093
22
1.3792629318
32
0.0000000000
13
-7.7086752075
23
-24.9452821139
33
0.0000000000
40
0.0000000000
40
0.0000000000
40
0.0000000000
40
0.0000000000
40
0.0300563828
40
0.1254997289
40
0.2298065015
40
0.3483785509
40
0.4842017501
40
0.6383769163
40
0.8106878240
40
1.0000000000
40
1.0000000000
40
1.0000000000
40
1.0000000000
10
258.5115461004
20
223.8780291143
30
0.0000000000
10
258.2492338376
20
223.8918476659
30
0.0000000000
10
257.1514290061
20
223.8934137187
30
0.0000000000
10
255.1665001482
20
223.4488944009
30
0.0000000000
10
252.7270275910
20
222.0710584450
30
0.0000000000
10
250.4121908552
20
219.9466665473
30
0.0000000000
10
248.2358380376
20
217.1179947992
30
0.0000000000
10
246.2192494470
20
213.6258417809
30
0.0000000000
10
244.3885434892
20
209.5201449097
30
0.0000000000
10
243.3548318722
20
206.5435879158
30
0.0000000000
10
242.8683831795
20
204.9694393695
30
0.0000000000
11
258.5115461004
21
223.8780291143
31
0.0000000000
11
257.7241917184
21
223.8785841226
31
0.0000000000
11
255.2874690264
21
223.3568576731
31
0.0000000000
11
252.8954245548
21
222.0549926263
31
0.0000000000
11
250.5857822739
21
219.9935201716
31
0.0000000000
11
248.3949666220
21
217.2049509612
31
0.0000000000
11
246.3575280709
21
213.7332623972
31
0.0000000000
11
244.5055982435
21
209.6332050823
31
0.0000000000
11
242.8683831795
21
204.9694393695
31
0.0000000000
0
SPLINE
5
495
100
AcDbEntity
8
0
100
AcDbSpline
62
7
6
CONTINUOUS
70
0
71
3
72
31
73
27
74
25
42
0.0000001000
43
0.0000001000
44
0.0000000001
12
97.2271151444
22
75.1631567040
32
0.0000000000
13
-36.2367688933
23
-117.2622272802
33
0.0000000000
40
0.0000000000
40
0.0000000000
40
0.0000000000
40
0.0000000000
40
0.0103082954
40
0.0347964968
40
0.0575118968
40
0.0797838180
40
0.1030378952
40
0.1284945159
40
0.1570056388
40
0.1890614953
40
0.2248676693
40
0.2644213833
40
0.3075678219
40
0.3540387346
40
0.4034791746
40
0.4554669792
40
0.5095279503
40
0.5651485142
40
0.6217869191
40
0.6788836023
40
0.7358711173
40
0.7921838884
40
0.8472680046
40
0.9005912796
40
0.9516538817
40
1.0000000000
40
1.0000000000
40
1.0000000000
40
1.0000000000
10
294.6455538560
20
235.8898423037
30
0.0000000000
10
294.9796357988
20
236.1481103123
30
0.0000000000
10
296.1391539221
20
236.9786044355
30
0.0000000000
10
298.2417108049
20
238.0801467187
30
0.0000000000
10
301.0442091751
20
238.7327732265
30
0.0000000000
10
303.8694748591
20
238.5764769189
30
0.0000000000
10
306.6459851855
20
237.6210729116
30
0.0000000000
10
309.3295115023
20
235.9097902404
30
0.0000000000
10
311.9005447902
20
233.4828497536
30
0.0000000000
10
314.3425436684
20
230.3729866976
30
0.0000000000
10
316.6352903352
20
226.6144667654
30
0.0000000000
10
318.7560806943
20
222.2479613771
30
0.0000000000
10
320.6818748600
20
217.3217786211
30
0.0000000000
10
322.3907816369
20
211.8915385809
30
0.0000000000
10
323.8629435121
20
206.0193883942
30
0.0000000000
10
325.0810699788
20
199.7730940721
30
0.0000000000
10
326.0307794814
20
193.2251027354
30
0.0000000000
10
326.7008312230
20
186.4515907653
30
0.0000000000
10
327.0832850599
20
179.5314993937
30
0.0000000000
10
327.1736063471
20
172.5455567053
30
0.0000000000
10
326.9707244947
20
165.5752942279
30
0.0000000000
10
326.4770434820
20
158.7020433226
30
0.0000000000
10
325.6984222554
20
152.0059895358
30
0.0000000000
10
324.6440608383
20
145.5650285836
30
0.0000000000
10
323.3265118028
20
139.4543624021
30
0.0000000000
10
322.2505752975
20
135.5294200145
30
0.0000000000
10
321.6666062590
20
133.6396955104
30
0.0000000000
11
294.6455538560
21
235.8898423037
31
0.0000000000
11
295.6765206124
21
236.6257749484
31
0.0000000000
11
298.3545338029
21
237.9901153004
31
0.0000000000
11
301.0742919089
21
238.6029279915
31
0.0000000000
11
303.8039082532
21
238.4570283531
31
0.0000000000
11
306.5113805798
21
237.5541269252
31
0.0000000000
11
309.1649662513
21
235.9048094015
31
0.0000000000
11
311.7335544019
21
233.5284125218
31
0.0000000000
11
314.1870306838
21
230.4527973670
31
0.0000000000
11
316.4966303311
21
226.7140227125
31
0.0000000000
11
318.6352753994
21
222.3559222729
31
0.0000000000
11
320.5778922308
21
217.4295907911
31
0.0000000000
11
322.3017054191
21
211.9927849996
31
0.0000000000
11
323.7865048306
21
206.1092464754
31
0.0000000000
11
325.0148825500
21
199.8479543283
31
0.0000000000
11
325.9724369715
21
193.2823164839
31
0.0000000000
11
326.6479416450
21
186.4893090430
31
0.0000000000
11
327.0334768960
21
179.5485738069
31
0.0000000000
11
327.1245226759
21
172.5414845502
31
0.0000000000
11
326.9200115565
21
165.5501929880
31
0.0000000000
11
326.4223412434
21
158.6566656215
31
0.0000000000
11
325.6373464661
21
151.9417227562
31
0.0000000000
11
324.5742305707
21
145.4840909578
31
0.0000000000
11
323.2454576190
21
139.3594800549
31
0.0000000000
11
321.6666062590
21
133.6396955104
31
0.0000000000
0
SPLINE
5
496
100
AcDbEntity
8
0
100
AcDbSpline
62
7
6
CONTINUOUS
70
0
71
3
72
14
73
10
74
8
42
0.0000001000
43
0.0000001000
44
0.0000000001
12
-4.3222498995
22
24.1467469223
32
0.0000000000
13
-15.9194740896
23
18.6997743258
33
0.0000000000
40
0.0000000000
40
0.0000000000
40
0.0000000000
40
0.0000000000
40
0.0304051649
40
0.2460998731
40
0.4478080384
40
0.6332358413
40
0.8006676365
40
0.9491818363
40
1.0000000000
40
1.0000000000
40
1.0000000000
40
1.0000000000
10
300.6915027692
20
193.0986486579
30
0.0000000000
10
300.6476965288
20
193.3433772656
30
0.0000000000
10
300.2851920259
20
195.3228051106
30
0.0000000000
10
299.5068992667
20
198.9027124312
30
0.0000000000
10
298.1408316442
20
203.6425172035
30
0.0000000000
10
296.5511743657
20
207.8943751271
30
0.0000000000
10
294.7633855328
20
211.5910072743
30
0.0000000000
10
293.1512506235
20
214.1292610664
30
0.0000000000
10
292.1339517694
20
215.4065241735
30
0.0000000000
10
291.8642856223
20
215.7232869047
30
0.0000000000
11
300.6915027692
21
193.0986486579
31
0.0000000000
11
300.5571275619
21
193.8323025651
31
0.0000000000
11
299.4237298275
21
198.9998444281
31
0.0000000000
11
298.0408405745
21
203.7499657714
31
0.0000000000
11
296.4314476797
21
208.0037049548
31
0.0000000000
11
294.6223042075
21
211.6903517380
31
0.0000000000
11
292.6434836918
21
214.7486227022
31
0.0000000000
11
291.8642856223
21
215.7232869047
31
0.0000000000
0
SPLINE
5
497
100
AcDbEntity
8
0
100
AcDbSpline
62
7
6
CONTINUOUS
70
0
71
3
72
9
73
5
74
3
42
0.0000001000
43
0.0000001000
44
0.0000000001
12
-1.2640614537
22
0.0000000000
32
0.0000000000
13
-1.2466100980
23
0.2093194262
33
0.0000000000
40
0.0000000000
40
0.0000000000
40
0.0000000000
40
0.0000000000
40
0.4964428779
40
1.0000000000
40
1.0000000000
40
1.0000000000
40
1.0000000000
10
309.0863181042
20
148.4281900540
30
0.0000000000
10
308.8771400022
20
148.4281900540
30
0.0000000000
10
308.4556239963
20
148.4474957308
30
0.0000000000
10
308.0372408683
20
148.5013665085
30
0.0000000000
10
307.8279944039
20
148.5365012711
30
0.0000000000
11
309.0863181042
21
148.4281900540
31
0.0000000000
11
308.4593948792
21
148.4558771458
31
0.0000000000
11
307.8279944039
21
148.5365012711
31
0.0000000000
0
SPLINE
5
498
100
AcDbEntity
8
0
100
AcDbSpline
62
7
6
CONTINUOUS
70
0
71
3
72
16
73
12
74
10
42
0.0000001000
43
0.0000001000
44
0.0000000001
12
-36.7789813598
22
-0.0125549102
32
0.0000000000
13
-10.8250528294
23
-35.0298837943
33
0.0000000000
40
0.0000000000
40
0.0000000000
40
0.0000000000
40
0.0000000000
40
0.0471277699
40
0.1291852217
40
0.2182692509
40
0.3174303646
40
0.4285222439
40
0.5524245008
40
0.6892910413
40
0.8387423569
40
1.0000000000
40
1.0000000000
40
1.0000000000
40
1.0000000000
10
256.5912044531
20
245.1382578394
30
0.0000000000
10
256.0134339957
20
245.1380606111
30
0.0000000000
10
254.4294293254
20
245.0119717213
30
0.0000000000
10
251.8499940965
20
244.2264643866
30
0.0000000000
10
248.9794795350
20
242.5419742792
30
0.0000000000
10
246.2196312011
20
240.1141294197
30
0.0000000000
10
243.5873876500
20
236.9757459167
30
0.0000000000
10
241.1026076751
20
233.1599766376
30
0.0000000000
10
238.7877535240
20
228.7054606846
30
0.0000000000
10
236.6660478443
20
223.6583714700
30
0.0000000000
10
235.4388453911
20
220.0615966953
30
0.0000000000
10
234.8569712224
20
218.1786511952
30
0.0000000000
11
256.5912044531
21
245.1382578394
31
0.0000000000
11
254.8653501314
21
245.0009720665
31
0.0000000000
11
251.9801679175
21
244.1481556558
31
0.0000000000
11
249.1455051822
21
242.5255645862
31
0.0000000000
11
246.3924190836
21
240.1509763049
31
0.0000000000
11
243.7510730093
21
237.0504072981
31
0.0000000000
11
241.2504060994
21
233.2578280487
31
0.0000000000
11
238.9178161841
21
228.8147908486
31
0.0000000000
11
236.7788596064
21
223.7699745430
31
0.0000000000
11
234.8569712224
21
218.1786511952
31
0.0000000000
0
SPLINE
5
499
100
AcDbEntity
8
0
100
AcDbSpline
62
7
6
CONTINUOUS
70
0
71
3
72
36
73
32
74
30
42
0.0000001000
43
0.0000001000
44
0.0000000001
12
45.0929697448
22
145.9209032215
32
0.0000000000
13
-45.0929695464
23
-145.9209032828
33
0.0000000000
40
0.0000000000
40
0.0000000000
40
0.0000000000
40
0.0000000000
40
0.0374706610
40
0.0720923276
40
0.1036758246
40
0.1321368168
40
0.1575328595
40
0.1801166689
40
0.2004032571
40
0.2192212160
40
0.2376717869
40
0.2569359984
40
0.2780248474
40
0.3016441163
40
0.3281999237
40
0.3578625804
40
0.3906297853
40
0.4263732856
40
0.4648708566
40
0.5058284522
40
0.5488963433
40
0.5936816929
40
0.6397590450
40
0.6866796001
40
0.7339798034
40
0.7811895693
40
0.8278403618
40
0.8734733083
40
0.9176475336
40
0.9599489656
40
1.0000000000
40
1.0000000000
40
1.0000000000
40
1.0000000000
10
283.3957227848
20
215.3814063380
30
0.0000000000
10
283.9589439127
20
217.2039905716
30
0.0000000000
10
285.1484379962
20
220.6794495043
30
0.0000000000
10
287.2136715873
20
225.5423266287
30
0.0000000000
10
289.4709219890
20
229.8083862547
30
0.0000000000
10
291.8962841183
20
233.4306058636
30
0.0000000000
10
294.4670750281
20
236.3699559953
30
0.0000000000
10
297.1639478488
20
238.5925863460
30
0.0000000000
10
299.9703676318
20
240.0628866651
30
0.0000000000
10
302.8594296583
20
240.7356715206
30
0.0000000000
10
305.7719622360
20
240.5745475278
30
0.0000000000
10
308.6342334991
20
239.5896329720
30
0.0000000000
10
311.4006486597
20
237.8254921488
30
0.0000000000
10
314.0510961032
20
235.3235882493
30
0.0000000000
10
316.5685235181
20
232.1176676472
30
0.0000000000
10
318.9320886148
20
228.2430544352
30
0.0000000000
10
321.1183860120
20
223.7416762936
30
0.0000000000
10
323.1036641674
20
218.6633334525
30
0.0000000000
10
324.8653557096
20
213.0653639902
30
0.0000000000
10
326.3829897663
20
207.0118346471
30
0.0000000000
10
327.6387417609
20
200.5726045931
30
0.0000000000
10
328.6177859199
20
193.8223586977
30
0.0000000000
10
329.3085342404
20
186.8396262806
30
0.0000000000
10
329.7028013232
20
179.7057869130
30
0.0000000000
10
329.7959124572
20
172.5040622111
30
0.0000000000
10
329.5867639838
20
165.3185020510
30
0.0000000000
10
329.0778341368
20
158.2329499594
30
0.0000000000
10
328.2751628337
20
151.3300682564
30
0.0000000000
10
327.1882342685
20
144.6901587034
30
0.0000000000
10
325.8299887380
20
138.3907460761
30
0.0000000000
10
324.7208186720
20
134.3445699469
30
0.0000000000
10
324.1188119802
20
132.3964755739
30
0.0000000000
11
283.3957227848
21
215.3814063380
31
0.0000000000
11
285.2620622480
21
220.7914025445
31
0.0000000000
11
287.3452410812
21
225.6515102722
31
0.0000000000
11
289.6208359171
21
229.9047492016
31
0.0000000000
11
292.0621674869
21
233.5012539951
31
0.0000000000
11
294.6406134100
21
236.3988589222
31
0.0000000000
11
297.3259437654
21
238.5635922146
31
0.0000000000
11
300.0866755101
21
239.9700743535
31
0.0000000000
11
302.8904415885
21
240.6018156219
31
0.0000000000
11
305.7043704067
21
240.4514094310
31
0.0000000000
11
308.4954712222
21
239.5206191559
31
0.0000000000
11
311.2310209299
21
237.8203574616
31
0.0000000000
11
313.8789477106
21
235.3705583617
31
0.0000000000
11
316.4082070437
21
232.1999435109
31
0.0000000000
11
318.7891456762
21
228.3456854695
31
0.0000000000
11
320.9938492795
21
223.8529718889
31
0.0000000000
11
322.9964697195
21
218.7744757281
31
0.0000000000
11
324.7735281028
21
213.1697377114
31
0.0000000000
11
326.3041900445
21
207.1044682675
31
0.0000000000
11
327.5705099328
21
200.6497771351
31
0.0000000000
11
328.5576413248
21
193.8813396662
31
0.0000000000
11
329.2540110076
21
186.8785096017
31
0.0000000000
11
329.6514546832
21
179.7233887212
31
0.0000000000
11
329.7453126881
21
172.4998642752
31
0.0000000000
11
329.5344846228
21
165.2926254832
31
0.0000000000
11
329.0214422537
21
158.1861706304
31
0.0000000000
11
328.2122005336
21
151.2638164026
31
0.0000000000
11
327.1162470815
21
144.6067210737
31
0.0000000000
11
325.7464309499
21
138.2929330000
31
0.0000000000
11
324.1188119802
21
132.3964755739
31
0.0000000000
0
SPLINE
5
49A
100
AcDbEntity
8
0
100
AcDbSpline
62
7
6
CONTINUOUS
70
0
71
3
72
19
73
15
74
13
42
0.0000001000
43
0.0000001000
44
0.0000000001
12
6.5401974971
22
21.1640868572
32
0.0000000000
13
-22.4007842547
23
-0.0651609742
33
0.0000000000
40
0.0000000000
40
0.0000000000
40
0.0000000000
40
0.0000000000
40
0.0958601446
40
0.1999527192
40
0.3090606092
40
0.4196688541
40
0.5281770751
40
0.6311048936
40
0.7253074313
40
0.8082281038
40
0.8782532089
40
0.9353270086
40
0.9821046849
40
1.0000000000
40
1.0000000000
40
1.0000000000
40
1.0000000000
10
309.6426779519
20
166.1188163526
30
0.0000000000
10
309.8516593779
20
166.7950804950
30
0.0000000000
10
310.2046329513
20
168.2318492501
30
0.0000000000
10
310.5459156292
20
170.4907219963
30
0.0000000000
10
310.7122521254
20
172.8783727963
30
0.0000000000
10
310.6969808499
20
175.3041724609
30
0.0000000000
10
310.5007150168
20
177.6764368997
30
0.0000000000
10
310.1312799347
20
179.9056450896
30
0.0000000000
10
309.6031098534
20
181.9086517086
30
0.0000000000
10
308.9366888511
20
183.6130175422
30
0.0000000000
10
308.1534637171
20
184.9612734303
30
0.0000000000
10
307.2719976596
20
185.9145543278
30
0.0000000000
10
306.4458780137
20
186.3401478968
30
0.0000000000
10
305.9635347018
20
186.3867102183
30
0.0000000000
10
305.8299116711
20
186.3863215262
30
0.0000000000
11
309.6426779519
21
166.1188163526
31
0.0000000000
11
310.1597217400
21
168.1783608561
31
0.0000000000
11
310.5103634770
21
170.4573597503
31
0.0000000000
11
310.6811281976
21
172.8682323858
31
0.0000000000
11
310.6654535093
21
175.3183302793
31
0.0000000000
11
310.4639417815
21
177.7134975426
31
0.0000000000
11
310.0843369971
21
179.9616892412
31
0.0000000000
11
309.5412271549
21
181.9765086288
31
0.0000000000
11
308.8554836616
21
183.6805273263
31
0.0000000000
11
308.0534592551
21
185.0082608508
31
0.0000000000
11
307.1659752836
21
185.9086851475
31
0.0000000000
11
306.2271372584
21
186.3471974156
31
0.0000000000
11
305.8299116711
21
186.3863215262
31
0.0000000000
0
SPLINE
5
49B
100
AcDbEntity
8
0
100
AcDbSpline
62
7
6
CONTINUOUS
70
0
71
3
72
26
73
22
74
20
42
0.0000001000
43
0.0000001000
44
0.0000000001
12
12.1519958851
22
39.3238732014
32
0.0000000000
13
-12.1519959445
23
-39.3238731830
33
0.0000000000
40
0.0000000000
40
0.0000000000
40
0.0000000000
40
0.0000000000
40
0.0620865555
40
0.1289594766
40
0.1991746179
40
0.2711442304
40
0.3432090064
40
0.4137058236
40
0.4810352820
40
0.5437329903
40
0.6005511625
40
0.6505642647
40
0.6933287458
40
0.7291568478
40
0.7595697031
40
0.7877040129
40
0.8176690255
40
0.8527760548
40
0.8947174983
40
0.9439169118
40
1.0000000000
40
1.0000000000
40
1.0000000000
40
1.0000000000
10
311.3204082184
20
162.6999615271
30
0.0000000000
10
311.5719000740
20
163.5137894724
30
0.0000000000
10
312.0107968393
20
165.2305306306
30
0.0000000000
10
312.4766671807
20
167.9254117909
30
0.0000000000
10
312.7659153326
20
170.7812211587
30
0.0000000000
10
312.8704019641
20
173.7207810398
30
0.0000000000
10
312.7872210562
20
176.6649029103
30
0.0000000000
10
312.5186960329
20
179.5341254611
30
0.0000000000
10
312.0723268987
20
182.2512556379
30
0.0000000000
10
311.4605279647
20
184.7437041459
30
0.0000000000
10
310.6999985223
20
186.9459133891
30
0.0000000000
10
309.8106730126
20
188.8019408937
30
0.0000000000
10
308.8122127280
20
190.2676603746
30
0.0000000000
10
307.7188564972
20
191.3103909159
30
0.0000000000
10
306.5273082381
20
191.8898381977
30
0.0000000000
10
305.2733800961
20
191.9226331653
30
0.0000000000
10
304.0709298692
20
191.4009472719
30
0.0000000000
10
302.9668779290
20
190.4081501168
30
0.0000000000
10
301.9570914724
20
188.9891153132
30
0.0000000000
10
301.0544370005
20
187.1756494610
30
0.0000000000
10
300.5660748398
20
185.8130551342
30
0.0000000000
10
300.3389010196
20
185.0779203848
30
0.0000000000
11
311.3204082184
21
162.6999615271
31
0.0000000000
11
311.9626920278
21
165.1733293142
31
0.0000000000
11
312.4376825642
21
167.8844362669
31
0.0000000000
11
312.7324233242
21
170.7593304551
31
0.0000000000
11
312.8388745481
21
173.7195922594
31
0.0000000000
11
312.7541325240
21
176.6844734546
31
0.0000000000
11
312.4805087934
21
179.5730998108
31
0.0000000000
11
312.0254670984
21
182.3066771308
31
0.0000000000
11
311.4014197903
21
184.8106405514
31
0.0000000000
11
310.6253892527
21
187.0166884778
31
0.0000000000
11
309.7185435760
21
188.8646456733
31
0.0000000000
11
308.7056191460
21
190.3041046828
31
0.0000000000
11
307.6142459009
21
191.2958008170
31
0.0000000000
11
306.4741936576
21
191.8126831905
31
0.0000000000
11
305.3165600696
21
191.8406525996
31
0.0000000000
11
304.1729223633
21
191.3789461116
31
0.0000000000
11
303.0744759942
21
190.4401578760
31
0.0000000000
11
302.0511837158
21
189.0498955887
31
0.0000000000
11
301.1309582738
21
187.2460819806
31
0.0000000000
11
300.3389010196
21
185.0779203848
31
0.0000000000
0
SPLINE
5
49C
100
AcDbEntity
8
0
100
AcDbSpline
62
7
6
CONTINUOUS
70
0
71
3
72
9
73
5
74
3
42
0.0000001000
43
0.0000001000
44
0.0000000001
12
-1.3067049940
22
-2.7874160385
32
0.0000000000
13
-0.9089192183
23
-2.9412636685
33
0.0000000000
40
0.0000000000
40
0.0000000000
40
0.0000000000
40
0.0000000000
40
0.4812731322
40
1.0000000000
40
1.0000000000
40
1.0000000000
40
1.0000000000
10
290.1602075449
20
188.8724733772
30
0.0000000000
10
289.9505802098
20
188.4253038946
30
0.0000000000
10
289.5537353867
20
187.4777810574
30
0.0000000000
10
289.2224721569
20
186.5057821267
30
0.0000000000
10
289.0653118838
20
185.9972112967
30
0.0000000000
11
290.1602075449
21
188.8724733772
31
0.0000000000
11
289.5837889674
21
187.5076000807
31
0.0000000000
11
289.0653118838
21
185.9972112967
31
0.0000000000
0
SPLINE
5
49D
100
AcDbEntity
8
0
100
AcDbSpline
62
7
6
CONTINUOUS
70
0
71
3
72
8
73
4
74
2
42
0.0000001000
43
0.0000001000
44
0.0000000001
12
0.6732535863
22
2.1786494008
32
0.0000000000
13
0.7250503433
23
2.1623984872
33
0.0000000000
40
0.0000000000
40
0.0000000000
40
0.0000000000
40
0.0000000000
40
1.0000000000
40
1.0000000000
40
1.0000000000
40
1.0000000000
10
282.3280762515
20
217.5570412270
30
0.0000000000
10
282.5524941136
20
218.2832576939
30
0.0000000000
10
282.7852161203
20
219.0070266493
30
0.0000000000
10
283.0268995680
20
219.7278261450
30
0.0000000000
11
282.3280762515
21
217.5570412270
31
0.0000000000
11
283.0268995680
21
219.7278261450
31
0.0000000000
0
SPLINE
5
49E
100
AcDbEntity
8
0
100
AcDbSpline
62
7
6
CONTINUOUS
70
0
71
3
72
8
73
4
74
2
42
0.0000001000
43
0.0000001000
44
0.0000000001
12
0.1716995944
22
0.5120788462
32
0.0000000000
13
0.1747410869
23
0.5110589010
33
0.0000000000
40
0.0000000000
40
0.0000000000
40
0.0000000000
40
0.0000000000
40
1.0000000000
40
1.0000000000
40
1.0000000000
40
1.0000000000
10
283.0268995680
20
219.7278261450
30
0.0000000000
10
283.0841327662
20
219.8985190937
30
0.0000000000
10
283.1418685152
20
220.0690455174
30
0.0000000000
10
283.2001155442
20
220.2393984844
30
0.0000000000
11
283.0268995680
21
219.7278261450
31
0.0000000000
11
283.2001155442
21
220.2393984844
31
0.0000000000
0
SPLINE
5
49F
100
AcDbEntity
8
0
100
AcDbSpline
62
7
6
CONTINUOUS
70
0
71
3
72
8
73
4
74
2
42
0.0000001000
43
0.0000001000
44
0.0000000001
12
0.0483873577
22
0.1415167450
32
0.0000000000
13
0.0486231388
23
0.1414365011
33
0.0000000000
40
0.0000000000
40
0.0000000000
40
0.0000000000
40
0.0000000000
40
1.0000000000
40
1.0000000000
40
1.0000000000
40
1.0000000000
10
283.2001155442
20
220.2393984844
30
0.0000000000
10
283.2162446634
20
220.2865707327
30
0.0000000000
10
283.2324129868
20
220.3337296807
30
0.0000000000
10
283.2486206998
20
220.3808751810
30
0.0000000000
11
283.2001155442
21
220.2393984844
31
0.0000000000
11
283.2486206998
21
220.3808751810
31
0.0000000000
0
SPLINE
5
4A0
100
AcDbEntity
8
0
100
AcDbSpline
62
7
6
CONTINUOUS
70
0
71
3
72
37
73
33
74
31
42
0.0000001000
43
0.0000001000
44
0.0000000001
12
51.3032904269
22
149.2326094874
32
0.0000000000
13
-46.5820808125
23
-150.7396689588
33
0.0000000000
40
0.0000000000
40
0.0000000000
40
0.0000000000
40
0.0000000000
40
0.0181247122
40
0.0523677545
40
0.0837273093
40
0.1121164219
40
0.1375703558
40
0.1602906524
40
0.1807020363
40
0.1995034552
40
0.2176577189
40
0.2362566881
40
0.2563019400
40
0.2785461753
40
0.3034628167
40
0.3312909129
40
0.3620932870
40
0.3958033390
40
0.4322580885
40
0.4712210584
40
0.5123986371
40
0.5554524633
40
0.6000094250
40
0.6456702409
40
0.6920172079
40
0.7386214718
40
0.7850500519
40
0.8308727819
40
0.8756693075
40
0.9190362958
40
0.9605950707
40
1.0000000000
40
1.0000000000
40
1.0000000000
40
1.0000000000
10
283.2486206998
20
220.3808751810
30
0.0000000000
10
283.5585731580
20
221.2824745477
30
0.0000000000
10
284.4957409488
20
223.8732571095
30
0.0000000000
10
286.2036896788
20
227.9361060217
30
0.0000000000
10
288.4860546488
20
232.3281024526
30
0.0000000000
10
290.9359605188
20
236.0903170752
30
0.0000000000
10
293.5312603007
20
239.1846530904
30
0.0000000000
10
296.2523739212
20
241.5784229343
30
0.0000000000
10
299.0826005590
20
243.2392710753
30
0.0000000000
10
301.9999172195
20
244.1276723846
30
0.0000000000
10
304.9575359783
20
244.2051806882
30
0.0000000000
10
307.8870418314
20
243.4674199673
30
0.0000000000
10
310.7358580116
20
241.9490564963
30
0.0000000000
10
313.4788056681
20
239.6910113311
30
0.0000000000
10
316.0992433108
20
236.7265033418
30
0.0000000000
10
318.5782358555
20
233.0876171027
30
0.0000000000
10
320.8939666500
20
228.8112653538
30
0.0000000000
10
323.0235925103
20
223.9413582057
30
0.0000000000
10
324.9448470666
20
218.5289454296
30
0.0000000000
10
326.6370498845
20
212.6316466617
30
0.0000000000
10
328.0817206093
20
206.3128696868
30
0.0000000000
10
329.2629677938
20
199.6409723650
30
0.0000000000
10
330.1677508976
20
192.6884050786
30
0.0000000000
10
330.7860637607
20
185.5308397082
30
0.0000000000
10
331.1110626110
20
178.2462859105
30
0.0000000000
10
331.1391487176
20
170.9141948575
30
0.0000000000
10
330.8700115449
20
163.6145590561
30
0.0000000000
10
330.3066294754
20
156.4269938722
30
0.0000000000
10
329.4552454214
20
149.4298765469
30
0.0000000000
10
328.3252537590
20
142.6992928780
30
0.0000000000
10
326.9292163963
20
136.3087040466
30
0.0000000000
10
325.7983130464
20
132.2008026820
30
0.0000000000
10
325.1864585135
20
130.2208406849
30
0.0000000000
11
283.2486206998
21
220.3808751810
31
0.0000000000
11
284.2229907635
21
223.0698898611
31
0.0000000000
11
286.3319268980
21
228.0439017273
31
0.0000000000
11
288.6317787093
21
232.4245805106
31
0.0000000000
11
291.0973485397
21
236.1639305775
31
0.0000000000
11
293.7016230902
21
239.2209828263
31
0.0000000000
11
296.4160693838
21
241.5622435528
31
0.0000000000
11
299.2109473790
21
243.1620614144
31
0.0000000000
11
302.0556358075
21
244.0029084720
31
0.0000000000
11
304.9189676676
21
244.0755722292
31
0.0000000000
11
307.7695716963
21
243.3792565666
31
0.0000000000
11
310.5762160794
21
241.9215904645
31
0.0000000000
11
313.3081506335
21
239.7185444176
31
0.0000000000
11
315.9354437121
21
236.7942554594
31
0.0000000000
11
318.4293101423
21
233.1807627117
31
0.0000000000
11
320.7624266018
21
228.9176563573
31
0.0000000000
11
322.9092309783
21
224.0516438814
31
0.0000000000
11
324.8462024339
21
218.6360383351
31
0.0000000000
11
326.5521191038
21
212.7301742259
31
0.0000000000
11
328.0082906082
21
206.3987574370
31
0.0000000000
11
329.1987628273
21
199.7111562956
31
0.0000000000
11
330.1104926983
21
192.7406415593
31
0.0000000000
11
330.7334911180
21
185.5635836462
31
0.0000000000
11
331.0609323853
21
178.2586159048
31
0.0000000000
11
331.0892289852
21
170.9057730901
31
0.0000000000
11
330.8180708941
21
163.5856144869
31
0.0000000000
11
330.2504289770
21
156.3783412846
31
0.0000000000
11
329.3925224374
21
149.3629178766
31
0.0000000000
11
328.2537506788
21
142.6162067099
31
0.0000000000
11
326.8465903231
21
136.2121261638
31
0.0000000000
11
325.1864585135
21
130.2208406849
31
0.0000000000
0
SPLINE
5
4A1
100
AcDbEntity
8
0
100
AcDbSpline
62
7
6
CONTINUOUS
70
0
71
3
72
9
73
5
74
3
42
0.0000001000
43
0.0000001000
44
0.0000000001
12
-1.0671261910
22
2.0738622891
32
0.0000000000
13
-1.3536053743
23
1.9013926168
33
0.0000000000
40
0.0000000000
40
0.0000000000
40
0.0000000000
40
0.0000000000
40
0.9112958987
40
1.0000000000
40
1.0000000000
40
1.0000000000
40
1.0000000000
10
285.6802861485
20
193.8262848220
30
0.0000000000
10
285.3561302414
20
194.4562522215
30
0.0000000000
10
284.9638280619
20
195.1288453947
30
0.0000000000
10
284.5176035652
20
195.7661072732
30
0.0000000000
10
284.4775801158
20
195.8223277143
30
0.0000000000
11
285.6802861485
21
193.8262848220
31
0.0000000000
11
284.5963431677
21
195.6527737874
31
0.0000000000
11
284.4775801158
21
195.8223277143
31
0.0000000000
0
SPLINE
5
4A2
100
AcDbEntity
8
0
100
AcDbSpline
62
7
6
CONTINUOUS
70
0
71
3
72
9
73
5
74
3
42
0.0000001000
43
0.0000001000
44
0.0000000001
12
0.1323680923
22
-0.2697378120
32
0.0000000000
13
-0.0942200733
23
-0.2896921330
33
0.0000000000
40
0.0000000000
40
0.0000000000
40
0.0000000000
40
0.0000000000
40
0.8067658056
40
1.0000000000
40
1.0000000000
40
1.0000000000
40
1.0000000000
10
325.1864585135
20
130.2208406849
30
0.0000000000
10
325.2220551970
20
130.1483022705
30
0.0000000000
10
325.2490307643
20
130.0434207625
30
0.0000000000
10
325.2260736479
20
129.9445131055
30
0.0000000000
10
325.2200048012
20
129.9258536302
30
0.0000000000
11
325.1864585135
21
130.2208406849
31
0.0000000000
11
325.2330813886
21
129.9829608487
31
0.0000000000
11
325.2200048012
21
129.9258536302
31
0.0000000000
0
SPLINE
5
4A3
100
AcDbEntity
8
0
100
AcDbSpline
62
7
6
CONTINUOUS
70
0
71
3
72
11
73
7
74
5
42
0.0000001000
43
0.0000001000
44
0.0000000001
12
1.4305100148
22
0.0000000000
32
0.0000000000
13
0.6302007571
23
-1.2842141209
33
0.0000000000
40
0.0000000000
40
0.0000000000
40
0.0000000000
40
0.0000000000
40
0.2647046808
40
0.5366501592
40
0.7885461813
40
1.0000000000
40
1.0000000000
40
1.0000000000
40
1.0000000000
10
322.8927091196
20
133.0180855422
30
0.0000000000
10
323.0189300186
20
133.0180855422
30
0.0000000000
10
323.2753440606
20
132.9835021952
30
0.0000000000
10
323.6310947964
20
132.8529624840
30
0.0000000000
10
323.9274165291
20
132.6602841147
30
0.0000000000
10
324.0743925280
20
132.4869929005
30
0.0000000000
10
324.1188119802
20
132.3964755739
30
0.0000000000
11
322.8927091196
21
133.0180855422
31
0.0000000000
11
323.2684038317
21
132.9707683008
31
0.0000000000
11
323.6333422885
21
132.8360201977
31
0.0000000000
11
323.9319659183
21
132.6343554101
31
0.0000000000
11
324.1188119802
21
132.3964755739
31
0.0000000000
0
SPLINE
5
4A4
100
AcDbEntity
8
0
100
AcDbSpline
62
7
6
CONTINUOUS
70
0
71
3
72
11
73
7
74
5
42
0.0000001000
43
0.0000001000
44
0.0000000001
12
0.6302007571
22
-1.2842141209
32
0.0000000000
13
1.4305100148
23
0.0000000000
33
0.0000000000
40
0.0000000000
40
0.0000000000
40
0.0000000000
40
0.0000000000
40
0.2114538187
40
0.4633498408
40
0.7352953192
40
1.0000000000
40
1.0000000000
40
1.0000000000
40
1.0000000000
10
321.6666062590
20
133.6396955104
30
0.0000000000
10
321.7110257112
20
133.5491781838
30
0.0000000000
10
321.8580017101
20
133.3758869696
30
0.0000000000
10
322.1543234428
20
133.1832086003
30
0.0000000000
10
322.5100741786
20
133.0526688891
30
0.0000000000
10
322.7664882206
20
133.0180855422
30
0.0000000000
10
322.8927091196
20
133.0180855422
30
0.0000000000
11
321.6666062590
21
133.6396955104
31
0.0000000000
11
321.8534523210
21
133.4018156742
31
0.0000000000
11
322.1520759507
21
133.2001508866
31
0.0000000000
11
322.5170144075
21
133.0654027835
31
0.0000000000
11
322.8927091196
21
133.0180855422
31
0.0000000000
0
SPLINE
5
4A5
100
AcDbEntity
8
0
100
AcDbSpline
62
7
6
CONTINUOUS
70
0
71
3
72
13
73
9
74
7
42
0.0000001000
43
0.0000001000
44
0.0000000001
12
7.1651922878
22
0.0000000000
32
0.0000000000
13
3.1565732203
23
-6.4324199199
33
0.0000000000
40
0.0000000000
40
0.0000000000
40
0.0000000000
40
0.0000000000
40
0.1742327262
40
0.3557609673
40
0.5363756866
40
0.7079950638
40
0.8638671007
40
1.0000000000
40
1.0000000000
40
1.0000000000
40
1.0000000000
10
311.3417662896
20
145.2948824155
30
0.0000000000
10
311.7579032849
20
145.2948824155
30
0.0000000000
10
312.6086657788
20
145.2180743047
30
0.0000000000
10
313.8565103867
20
144.9094754822
30
0.0000000000
10
315.0403337686
20
144.4236606368
30
0.0000000000
10
316.0830275048
20
143.7915738319
30
0.0000000000
10
316.9176213078
20
143.0543634626
30
0.0000000000
10
317.3290427713
20
142.4787205652
30
0.0000000000
10
317.4722805928
20
142.1868325741
30
0.0000000000
11
311.3417662896
21
145.2948824155
31
0.0000000000
11
312.5856771721
21
145.1889781853
31
0.0000000000
11
313.8487580792
21
144.8784826930
31
0.0000000000
11
315.0449321343
21
144.3845556932
31
0.0000000000
11
316.0926820524
21
143.7408574948
31
0.0000000000
11
316.9206054080
21
142.9912550662
31
0.0000000000
11
317.4722805928
21
142.1868325741
31
0.0000000000
0
SPLINE
5
4A6
100
AcDbEntity
8
0
100
AcDbSpline
62
7
6
CONTINUOUS
70
0
71
3
72
14
73
10
74
8
42
0.0000001000
43
0.0000001000
44
0.0000000001
12
-7.3003539575
22
0.0000000000
32
0.0000000000
13
-2.9008693668
23
6.6992630059
33
0.0000000000
40
0.0000000000
40
0.0000000000
40
0.0000000000
40
0.0000000000
40
0.1497118231
40
0.3056811531
40
0.4624969000
40
0.6146575008
40
0.7571719356
40
0.8862241256
40
1.0000000000
40
1.0000000000
40
1.0000000000
40
1.0000000000
10
308.1180528106
20
145.2948824155
30
0.0000000000
10
307.7537363772
20
145.2948824155
30
0.0000000000
10
307.0091028297
20
145.3539042886
30
0.0000000000
10
305.9065912955
20
145.5946187761
30
0.0000000000
10
304.8386491977
20
145.9781172647
30
0.0000000000
10
303.8599156404
20
146.4848127203
30
0.0000000000
10
303.0194325909
20
147.0897281042
30
0.0000000000
10
302.3592812006
20
147.7626506837
30
0.0000000000
10
302.0416805518
20
148.2698316596
30
0.0000000000
10
301.9316642356
20
148.5239031617
30
0.0000000000
11
308.1180528106
21
145.2948824155
31
0.0000000000
11
307.0281703006
21
145.3767010381
31
0.0000000000
11
305.9153680544
21
145.6178491971
31
0.0000000000
11
304.8382345452
21
146.0056305644
31
0.0000000000
11
303.8534803049
21
146.5196286480
31
0.0000000000
11
303.0129521440
21
147.1327817099
31
0.0000000000
11
302.3609034433
21
147.8128075529
31
0.0000000000
11
301.9316642356
21
148.5239031617
31
0.0000000000
0
SPLINE
5
4A7
100
AcDbEntity
8
0
100
AcDbSpline
62
7
6
CONTINUOUS
70
0
71
3
72
9
73
5
74
3
42
0.0000001000
43
0.0000001000
44
0.0000000001
12
0.1324395340
22
-0.2698833948
32
0.0000000000
13
-0.0937667596
23
-0.2903965150
33
0.0000000000
40
0.0000000000
40
0.0000000000
40
0.0000000000
40
0.0000000000
40
0.7859525586
40
1.0000000000
40
1.0000000000
40
1.0000000000
40
1.0000000000
10
311.3204082184
20
162.6999615271
30
0.0000000000
10
311.3551052819
20
162.6292563455
30
0.0000000000
10
311.3826158597
20
162.5250998281
30
0.0000000000
10
311.3606005648
20
162.4257067897
30
0.0000000000
10
311.3539103865
20
162.4049872460
30
0.0000000000
11
311.3204082184
21
162.6999615271
31
0.0000000000
11
311.3677561073
21
162.4684746858
31
0.0000000000
11
311.3539103865
21
162.4049872460
31
0.0000000000
0
SPLINE
5
4A8
100
AcDbEntity
8
0
100
AcDbSpline
62
7
6
CONTINUOUS
70
0
71
3
72
11
73
7
74
5
42
0.0000001000
43
0.0000001000
44
0.0000000001
12
1.3890508794
22
-0.0410703272
32
0.0000000000
13
0.6122036618
23
-1.2475398967
33
0.0000000000
40
0.0000000000
40
0.0000000000
40
0.0000000000
40
0.0000000000
40
0.2668135998
40
0.5383857672
40
0.7890561269
40
1.0000000000
40
1.0000000000
40
1.0000000000
40
1.0000000000
10
299.1540052008
20
185.6989170138
30
0.0000000000
10
299.2775444226
20
185.6952643065
30
0.0000000000
10
299.5264128657
20
185.6561664009
30
0.0000000000
10
299.8701337673
20
185.5240197665
30
0.0000000000
10
300.1549506140
20
185.3341230741
30
0.0000000000
10
300.2958541491
20
185.1656406840
30
0.0000000000
10
300.3389010196
20
185.0779203848
30
0.0000000000
11
299.1540052008
21
185.6989170138
31
0.0000000000
11
299.5206907959
21
185.6439696871
31
0.0000000000
11
299.8725808517
21
185.5075936591
31
0.0000000000
11
300.1590544240
21
185.3094072261
31
0.0000000000
11
300.3389010196
21
185.0779203848
31
0.0000000000
0
SPLINE
5
4A9
100
AcDbEntity
8
0
100
AcDbSpline
62
7
6
CONTINUOUS
70
0
71
3
72
13
73
9
74
7
42
0.0000001000
43
0.0000001000
44
0.0000000001
12
4.0054234386
22
-4.3968353677
32
0.0000000000
13
5.9236803559
23
-0.1751465654
33
0.0000000000
40
0.0000000000
40
0.0000000000
40
0.0000000000
40
0.0000000000
40
0.0111565060
40
0.1906769753
40
0.3867574898
40
0.5924853977
40
0.7996852827
40
1.0000000000
40
1.0000000000
40
1.0000000000
40
1.0000000000
10
283.2981272379
20
188.2670965262
30
0.0000000000
10
283.3130227481
20
188.2507454195
30
0.0000000000
10
283.5695394394
20
187.9731388313
30
0.0000000000
10
284.1530512520
20
187.4741732943
30
0.0000000000
10
285.1419067217
20
186.8808901036
30
0.0000000000
10
286.2567233845
20
186.4180115903
30
0.0000000000
10
287.4326441645
20
186.1119791167
30
0.0000000000
10
288.2362785896
20
186.0217234792
30
0.0000000000
10
288.6318120417
20
186.0100286676
30
0.0000000000
11
283.2981272379
21
188.2670965262
31
0.0000000000
11
283.3431470050
21
188.2183681199
31
0.0000000000
11
284.1445663439
21
187.5186669288
31
0.0000000000
11
285.1378893965
21
186.9156632095
31
0.0000000000
11
286.2629463157
21
186.4458834894
31
0.0000000000
11
287.4515875675
21
186.1377843456
31
0.0000000000
11
288.6318120417
21
186.0100286676
31
0.0000000000
0
SPLINE
5
4AA
100
AcDbEntity
8
0
100
AcDbSpline
62
7
6
CONTINUOUS
70
0
71
3
72
9
73
5
74
3
42
0.0000001000
43
0.0000001000
44
0.0000000001
12
0.6662956462
22
-1.3577677716
32
0.0000000000
13
-0.4453046978
23
-1.4541551279
33
0.0000000000
40
0.0000000000
40
0.0000000000
40
0.0000000000
40
0.0000000000
40
0.5546285794
40
1.0000000000
40
1.0000000000
40
1.0000000000
40
1.0000000000
10
286.3580101962
20
205.5910493378
30
0.0000000000
10
286.4811923988
20
205.3400304010
30
0.0000000000
10
286.6419067549
20
204.8482996686
30
0.0000000000
10
286.5957881109
20
204.3307321744
30
0.0000000000
10
286.5296794489
20
204.1148524626
30
0.0000000000
11
286.3580101962
21
205.5910493378
31
0.0000000000
11
286.5958414579
21
204.7866268457
31
0.0000000000
11
286.5296794489
21
204.1148524626
31
0.0000000000
0
SPLINE
5
4AB
100
AcDbEntity
8
0
100
AcDbSpline
62
7
6
CONTINUOUS
70
0
71
3
72
11
73
7
74
5
42
0.0000001000
43
0.0000001000
44
0.0000000001
12
-0.6302007571
22
1.2842141209
32
0.0000000000
13
-1.4305100148
23
0.0000000000
33
0.0000000000
40
0.0000000000
40
0.0000000000
40
0.0000000000
40
0.0000000000
40
0.2114538187
40
0.4633498408
40
0.7352953192
40
1.0000000000
40
1.0000000000
40
1.0000000000
40
1.0000000000
10
282.3280762515
20
217.5570412270
30
0.0000000000
10
282.2836567993
20
217.6475585536
30
0.0000000000
10
282.1366808004
20
217.8208497678
30
0.0000000000
10
281.8403590677
20
218.0135281370
30
0.0000000000
10
281.4846083319
20
218.1440678483
30
0.0000000000
10
281.2281942899
20
218.1786511952
30
0.0000000000
10
281.1019733909
20
218.1786511952
30
0.0000000000
11
282.3280762515
21
217.5570412270
31
0.0000000000
11
282.1412301896
21
217.7949210632
31
0.0000000000
11
281.8426065598
21
217.9965858508
31
0.0000000000
11
281.4776681030
21
218.1313339539
31
0.0000000000
11
281.1019733909
21
218.1786511952
31
0.0000000000
0
SPLINE
5
4AC
100
AcDbEntity
8
0
100
AcDbSpline
62
7
6
CONTINUOUS
70
0
71
3
72
11
73
7
74
5
42
0.0000001000
43
0.0000001000
44
0.0000000001
12
0.6498203676
22
-1.1978873086
32
0.0000000000
13
1.3621129430
23
-0.0429981933
33
0.0000000000
40
0.0000000000
40
0.0000000000
40
0.0000000000
40
0.0000000000
40
0.2132969395
40
0.4643343653
40
0.7346913092
40
1.0000000000
40
1.0000000000
40
1.0000000000
40
1.0000000000
10
241.6975414876
20
205.5686550902
30
0.0000000000
10
241.7437430528
20
205.4834865246
30
0.0000000000
10
241.8864288522
20
205.3212884935
30
0.0000000000
10
242.1684426341
20
205.1381589603
30
0.0000000000
10
242.5051652601
20
205.0110617077
30
0.0000000000
10
242.7479230457
20
204.9732419676
30
0.0000000000
10
242.8683831795
20
204.9694393695
30
0.0000000000
11
241.6975414876
21
205.5686550902
31
0.0000000000
11
241.8823331365
21
205.3442749011
31
0.0000000000
11
242.1663647763
21
205.1535751044
31
0.0000000000
11
242.5107607248
21
205.0226569635
31
0.0000000000
11
242.8683831795
21
204.9694393695
31
0.0000000000
0
SPLINE
5
4AD
100
AcDbEntity
8
0
100
AcDbSpline
62
7
6
CONTINUOUS
70
0
71
3
72
10
73
6
74
4
42
0.0000001000
43
0.0000001000
44
0.0000000001
12
-0.7688740781
22
0.0000000000
32
0.0000000000
13
-0.2411034170
23
-0.7413044870
33
0.0000000000
40
0.0000000000
40
0.0000000000
40
0.0000000000
40
0.0000000000
40
0.4326293072
40
0.7823469142
40
1.0000000000
40
1.0000000000
40
1.0000000000
40
1.0000000000
10
230.4436187207
20
218.1786511952
30
0.0000000000
10
230.3327395675
20
218.1786511952
30
0.0000000000
10
230.1311966972
20
218.1550522046
30
0.0000000000
10
229.8925031457
20
218.0362014419
30
0.0000000000
10
229.8115456065
20
217.9058106847
30
0.0000000000
10
229.7940533056
20
217.8520282817
30
0.0000000000
11
230.4436187207
21
218.1786511952
31
0.0000000000
11
230.1143638676
21
218.1313339539
31
0.0000000000
11
229.8816749402
21
217.9965858508
31
0.0000000000
11
229.7940533056
21
217.8520282817
31
0.0000000000
0
SPLINE
5
4AE
100
AcDbEntity
8
0
100
AcDbSpline
62
7
6
CONTINUOUS
70
0
71
3
72
19
73
15
74
13
42
0.0000001000
43
0.0000001000
44
0.0000000001
12
-6.5401974971
22
-21.1640868572
32
0.0000000000
13
22.4007842547
23
0.0651609742
33
0.0000000000
40
0.0000000000
40
0.0000000000
40
0.0000000000
40
0.0000000000
40
0.0958601446
40
0.1999527192
40
0.3090606092
40
0.4196688541
40
0.5281770751
40
0.6311048936
40
0.7253074313
40
0.8082281038
40
0.8782532089
40
0.9353270086
40
0.9821046849
40
1.0000000000
40
1.0000000000
40
1.0000000000
40
1.0000000000
10
302.0166312861
20
181.6590655593
30
0.0000000000
10
301.8076498601
20
180.9828014169
30
0.0000000000
10
301.4546762867
20
179.5460326618
30
0.0000000000
10
301.1133936088
20
177.2871599156
30
0.0000000000
10
300.9470571126
20
174.8995091156
30
0.0000000000
10
300.9623283881
20
172.4737094510
30
0.0000000000
10
301.1585942212
20
170.1014450122
30
0.0000000000
10
301.5280293033
20
167.8722368223
30
0.0000000000
10
302.0561993846
20
165.8692302033
30
0.0000000000
10
302.7226203869
20
164.1648643697
30
0.0000000000
10
303.5058455209
20
162.8166084816
30
0.0000000000
10
304.3873115784
20
161.8633275841
30
0.0000000000
10
305.2134312243
20
161.4377340151
30
0.0000000000
10
305.6957745362
20
161.3911716936
30
0.0000000000
10
305.8293975669
20
161.3915603857
30
0.0000000000
11
302.0166312861
21
181.6590655593
31
0.0000000000
11
301.4995874980
21
179.5995210558
31
0.0000000000
11
301.1489457610
21
177.3205221616
31
0.0000000000
11
300.9781810404
21
174.9096495261
31
0.0000000000
11
300.9938557288
21
172.4595516326
31
0.0000000000
11
301.1953674565
21
170.0643843693
31
0.0000000000
11
301.5749722410
21
167.8161926707
31
0.0000000000
11
302.1180820832
21
165.8013732831
31
0.0000000000
11
302.8038255764
21
164.0973545856
31
0.0000000000
11
303.6058499829
21
162.7696210611
31
0.0000000000
11
304.4933339544
21
161.8691967644
31
0.0000000000
11
305.4321719797
21
161.4306844963
31
0.0000000000
11
305.8293975669
21
161.3915603857
31
0.0000000000
0
SPLINE
5
4AF
100
AcDbEntity
8
0
100
AcDbSpline
62
7
6
CONTINUOUS
70
0
71
3
72
9
73
5
74
3
42
0.0000001000
43
0.0000001000
44
0.0000000001
12
1.1041820132
22
2.9960790494
32
0.0000000000
13
0.9427460591
23
3.0507273652
33
0.0000000000
40
0.0000000000
40
0.0000000000
40
0.0000000000
40
0.0000000000
40
0.4928136892
40
1.0000000000
40
1.0000000000
40
1.0000000000
40
1.0000000000
10
308.0176970856
20
142.2698859940
30
0.0000000000
10
308.1990824228
20
142.7620555838
30
0.0000000000
10
308.5528342771
20
143.7660682952
30
0.0000000000
10
308.8797311727
20
144.7791200296
30
0.0000000000
10
309.0391138046
20
145.2948824155
30
0.0000000000
11
308.0176970856
21
142.2698859940
31
0.0000000000
11
308.5412277971
21
143.7538332657
31
0.0000000000
11
309.0391138046
21
145.2948824155
31
0.0000000000
0
SPLINE
5
4B0
100
AcDbEntity
8
0
100
AcDbSpline
62
7
6
CONTINUOUS
70
0
71
3
72
12
73
8
74
6
42
0.0000001000
43
0.0000001000
44
0.0000000001
12
-9.6320244363
22
-31.1692424992
32
0.0000000000
13
-2.2062773510
23
-32.5513455352
33
0.0000000000
40
0.0000000000
40
0.0000000000
40
0.0000000000
40
0.0000000000
40
0.1932815508
40
0.3971277349
40
0.6098432232
40
0.8295706049
40
1.0000000000
40
1.0000000000
40
1.0000000000
40
1.0000000000
10
276.6886208893
20
218.1786511952
30
0.0000000000
10
276.0680566825
20
216.1705046860
30
0.0000000000
10
274.9210550655
20
212.0041278568
30
0.0000000000
10
273.5051452843
20
205.5225697895
30
0.0000000000
10
272.3590683314
20
198.6961771004
30
0.0000000000
10
271.5669514031
20
192.1861478644
30
0.0000000000
10
271.2131872276
20
187.9573038264
30
0.0000000000
10
271.0878490561
20
186.1080684501
30
0.0000000000
11
276.6886208893
21
218.1786511952
31
0.0000000000
11
275.0048573101
21
212.1020805138
31
0.0000000000
11
273.5776662020
21
205.6068386788
31
0.0000000000
11
272.4226841693
21
198.7640889190
31
0.0000000000
11
271.5525654370
21
191.6488018326
31
0.0000000000
11
271.0878490561
21
186.1080684501
31
0.0000000000
0
SPLINE
5
4B1
100
AcDbEntity
8
0
100
AcDbSpline
62
7
6
CONTINUOUS
70
0
71
3
72
25
73
21
74
19
42
0.0000001000
43
0.0000001000
44
0.0000000001
12
-6.3396896106
22
-93.5355779315
32
0.0000000000
13
94.0362142381
23
0.0321002970
33
0.0000000000
40
0.0000000000
40
0.0000000000
40
0.0000000000
40
0.0000000000
40
0.0189079323
40
0.0981612337
40
0.1777144263
40
0.2568284148
40
0.3347711475
40
0.4108296077
40
0.4843222250
40
0.5546120994
40
0.6211216500
40
0.6833496838
40
0.7408925357
40
0.7934719995
40
0.8409743889
40
0.8835069431
40
0.9214777162
40
0.9556948382
40
0.9874431646
40
1.0000000000
40
1.0000000000
40
1.0000000000
40
1.0000000000
10
271.0878490561
20
186.1080684501
30
0.0000000000
10
271.0478922488
20
185.5185469918
30
0.0000000000
10
270.8558580208
20
182.4569799271
30
0.0000000000
10
270.6511948815
20
176.9060321946
30
0.0000000000
10
270.6796807903
20
169.4695697388
30
0.0000000000
10
271.0093059588
20
162.0813212250
30
0.0000000000
10
271.6364204285
20
154.8218688031
30
0.0000000000
10
272.5540830071
20
147.7703325873
30
0.0000000000
10
273.7521450981
20
141.0034616382
30
0.0000000000
10
275.2173805307
20
134.5947376600
30
0.0000000000
10
276.9336716450
20
128.6134915788
30
0.0000000000
10
278.8822750206
20
123.1240337809
30
0.0000000000
10
281.0422158398
20
118.1848041112
30
0.0000000000
10
283.3909107737
20
113.8475790278
30
0.0000000000
10
285.9051914685
20
110.1568936963
30
0.0000000000
10
288.5629307147
20
107.1501863050
30
0.0000000000
10
291.3449238894
20
104.8599981482
30
0.0000000000
10
294.2342926131
20
103.3200209623
30
0.0000000000
10
296.6406333388
20
102.7140130696
30
0.0000000000
10
298.0292545663
20
102.6394897131
30
0.0000000000
10
298.4228536537
20
102.6396240725
30
0.0000000000
11
271.0878490561
21
186.1080684501
31
0.0000000000
11
270.9768432078
21
184.3389339939
31
0.0000000000
11
270.7018252152
21
176.9145738448
31
0.0000000000
11
270.7305246136
21
169.4570642285
31
0.0000000000
11
271.0626269665
21
162.0481111811
31
0.0000000000
11
271.6944936911
21
154.7688887426
31
0.0000000000
11
272.6192019233
21
147.6991495972
31
0.0000000000
11
273.8266203661
21
140.9163512865
31
0.0000000000
11
275.3035202905
21
134.4948075683
31
0.0000000000
11
277.0337204718
21
128.5048742191
31
0.0000000000
11
278.9982644748
21
123.0121782024
31
0.0000000000
11
281.1756283442
21
118.0768986450
31
0.0000000000
11
283.5419564258
21
113.7531075026
31
0.0000000000
11
286.0713227341
21
110.0881771358
31
0.0000000000
11
288.7360150024
21
107.1222612885
31
0.0000000000
11
291.5068383047
21
104.8878551555
31
0.0000000000
11
294.3534349209
21
103.4094393579
31
0.0000000000
11
297.2446169429
21
102.7032117287
31
0.0000000000
11
298.4228536537
21
102.6396240725
31
0.0000000000
0
SPLINE
5
4B2
100
AcDbEntity
8
0
100
AcDbSpline
62
7
6
CONTINUOUS
70
0
71
3
72
9
73
5
74
3
42
0.0000001000
43
0.0000001000
44
0.0000000001
12
0.0942200733
22
0.2896921330
32
0.0000000000
13
-0.1323680923
23
0.2697378120
33
0.0000000000
40
0.0000000000
40
0.0000000000
40
0.0000000000
40
0.0000000000
40
0.1932341944
40
1.0000000000
40
1.0000000000
40
1.0000000000
40
1.0000000000
10
283.4292690725
20
215.0864192833
30
0.0000000000
10
283.4353379192
20
215.1050787586
30
0.0000000000
10
283.4582950356
20
215.2039864155
30
0.0000000000
10
283.4313194683
20
215.3088679236
30
0.0000000000
10
283.3957227848
20
215.3814063380
30
0.0000000000
11
283.4292690725
21
215.0864192833
31
0.0000000000
11
283.4423456598
21
215.1435265018
31
0.0000000000
11
283.3957227848
21
215.3814063380
31
0.0000000000
0
SPLINE
5
4B3
100
AcDbEntity
8
0
100
AcDbSpline
62
7
6
CONTINUOUS
70
0
71
3
72
16
73
12
74
10
42
0.0000001000
43
0.0000001000
44
0.0000000001
12
31.7331298382
22
0.0108324532
32
0.0000000000
13
10.9726678782
23
29.6781553855
33
0.0000000000
40
0.0000000000
40
0.0000000000
40
0.0000000000
40
0.0000000000
40
0.0546215070
40
0.1497268276
40
0.2529760144
40
0.3679046322
40
0.4966611142
40
0.6402649382
40
0.7988944831
40
0.9721098948
40
1.0000000000
40
1.0000000000
40
1.0000000000
40
1.0000000000
10
256.5912039868
20
102.6396240725
30
0.0000000000
10
257.1689744443
20
102.6398213008
30
0.0000000000
10
258.7529791146
20
102.7659101906
30
0.0000000000
10
261.3324143435
20
103.5514175253
30
0.0000000000
10
264.2029289049
20
105.2359076327
30
0.0000000000
10
266.9627772389
20
107.6637524922
30
0.0000000000
10
269.5950207899
20
110.8021359952
30
0.0000000000
10
272.0798007648
20
114.6179052743
30
0.0000000000
10
274.3946549159
20
119.0724212273
30
0.0000000000
10
275.8660009221
20
122.5724422857
30
0.0000000000
10
276.6119152242
20
124.5581094524
30
0.0000000000
10
276.7139248447
20
124.8340184111
30
0.0000000000
11
256.5912039868
21
102.6396240725
31
0.0000000000
11
258.3170583085
21
102.7769098454
31
0.0000000000
11
261.2022405224
21
103.6297262561
31
0.0000000000
11
264.0369032577
21
105.2523173257
31
0.0000000000
11
266.7899893563
21
107.6269056070
31
0.0000000000
11
269.4313354306
21
110.7274746138
31
0.0000000000
11
271.9320023405
21
114.5200538632
31
0.0000000000
11
274.2645922558
21
118.9630910633
31
0.0000000000
11
276.4035488335
21
124.0079073689
31
0.0000000000
11
276.7139248447
21
124.8340184111
31
0.0000000000
0
SPLINE
5
4B4
100
AcDbEntity
8
0
100
AcDbSpline
62
7
6
CONTINUOUS
70
0
71
3
72
12
73
8
74
6
42
0.0000001000
43
0.0000001000
44
0.0000000001
12
6.4896753455
22
0.0188776233
32
0.0000000000
13
1.8947443076
23
6.1313948264
33
0.0000000000
40
0.0000000000
40
0.0000000000
40
0.0000000000
40
0.0000000000
40
0.0870360434
40
0.2532462640
40
0.4574125832
40
0.7067662640
40
1.0000000000
40
1.0000000000
40
1.0000000000
40
1.0000000000
10
305.8293975669
20
161.3915603857
30
0.0000000000
10
306.0176761218
20
161.3921080636
30
0.0000000000
10
306.5664083476
20
161.4703745989
30
0.0000000000
10
307.4264890906
20
161.9944951093
30
0.0000000000
10
308.2917323551
20
163.0153568826
30
0.0000000000
10
309.0568689622
20
164.4265008130
30
0.0000000000
10
309.4574769679
20
165.5195057485
30
0.0000000000
10
309.6426779519
20
166.1188163526
30
0.0000000000
11
305.8293975669
21
161.3915603857
31
0.0000000000
11
306.3862850398
21
161.4709360372
31
0.0000000000
11
307.3190071051
21
161.9884045430
31
0.0000000000
11
308.1944941895
21
162.9632039893
31
0.0000000000
11
308.9791018155
21
164.3578733800
31
0.0000000000
11
309.6426779519
21
166.1188163526
31
0.0000000000
0
SPLINE
5
4B5
100
AcDbEntity
8
0
100
AcDbSpline
62
7
6
CONTINUOUS
70
0
71
3
72
25
73
21
74
19
42
0.0000001000
43
0.0000001000
44
0.0000000001
12
-26.2932922840
22
-85.0851250141
32
0.0000000000
13
89.2432084221
23
4.5804784271
33
0.0000000000
40
0.0000000000
40
0.0000000000
40
0.0000000000
40
0.0000000000
40
0.0599608042
40
0.1237104623
40
0.1904730997
40
0.2593953924
40
0.3295716320
40
0.4000667149
40
0.4699381718
40
0.5382579802
40
0.6041348115
40
0.6667375426
40
0.7253213510
40
0.7792587348
40
0.8280797245
40
0.8715290114
40
0.9096530102
40
0.9429333396
40
0.9724629051
40
1.0000000000
40
1.0000000000
40
1.0000000000
40
1.0000000000
10
242.8683831795
20
204.9694393695
30
0.0000000000
10
242.3428608631
20
203.2688485303
30
0.0000000000
10
241.3896767539
20
199.7188811663
30
0.0000000000
10
240.2683558215
20
194.1738730917
30
0.0000000000
10
239.4240548925
20
188.3111586514
30
0.0000000000
10
238.8703516515
20
182.2226683185
30
0.0000000000
10
238.6160781254
20
176.0035583671
30
0.0000000000
10
238.6653126516
20
169.7513106884
30
0.0000000000
10
239.0172648475
20
163.5639123146
30
0.0000000000
10
239.6663013482
20
157.5382878844
30
0.0000000000
10
240.6020423696
20
151.7686672437
30
0.0000000000
10
241.8095582960
20
146.3449831476
30
0.0000000000
10
243.2696901634
20
141.3512742320
30
0.0000000000
10
244.9595630532
20
136.8640910084
30
0.0000000000
10
246.8534769984
20
132.9509225315
30
0.0000000000
10
248.9245248740
20
129.6688051842
30
0.0000000000
10
251.1477227939
20
127.0640654735
30
0.0000000000
10
253.5041930744
20
125.1762318600
30
0.0000000000
10
255.9789698218
20
124.0533813762
30
0.0000000000
10
257.6924231878
20
123.8569861586
30
0.0000000000
10
258.5115894199
20
123.8990305149
30
0.0000000000
11
242.8683831795
21
204.9694393695
31
0.0000000000
11
241.4717027385
21
199.8155156301
31
0.0000000000
11
240.3375834055
21
194.2527143204
31
0.0000000000
11
239.4839109196
21
188.3687641399
31
0.0000000000
11
238.9241482061
21
182.2564584980
31
0.0000000000
11
238.6671230573
21
176.0121921060
31
0.0000000000
11
238.7168889134
21
169.7344407750
31
0.0000000000
11
239.0726609369
21
163.5222083936
31
0.0000000000
11
239.7288283908
21
157.4734655774
31
0.0000000000
11
240.6750431221
21
151.6836046142
31
0.0000000000
11
241.8963827593
21
146.2439350698
31
0.0000000000
11
243.3735860468
21
141.2402437827
31
0.0000000000
11
245.0833566064
21
136.7514419533
31
0.0000000000
11
246.9987303348
21
132.8483206681
31
0.0000000000
11
249.0895006442
21
129.5924344813
31
0.0000000000
11
251.3226948379
21
127.0351306630
31
0.0000000000
11
253.6630941093
21
125.2167394222
31
0.0000000000
11
256.0737889640
21
124.1659378749
31
0.0000000000
11
258.5115894199
21
123.8990305149
31
0.0000000000
0
SPLINE
5
4B6
100
AcDbEntity
8
0
100
AcDbSpline
62
7
6
CONTINUOUS
70
0
71
3
72
28
73
24
74
22
42
0.0000001000
43
0.0000001000
44
0.0000000001
12
-27.9474809230
22
-90.4380814118
32
0.0000000000
13
83.3715175445
23
45.2409876728
33
0.0000000000
40
0.0000000000
40
0.0000000000
40
0.0000000000
40
0.0000000000
40
0.0552169939
40
0.1138184140
40
0.1751471583
40
0.2384809769
40
0.3030524324
40
0.3680671686
40
0.4327213516
40
0.4962188500
40
0.5577886263
40
0.6167028868
40
0.6722968135
40
0.7239912746
40
0.7713209897
40
0.8139725706
40
0.8518400677
40
0.8851095564
40
0.9143824312
40
0.9408134906
40
0.9661345854
40
0.9923626313
40
1.0000000000
40
1.0000000000
40
1.0000000000
40
1.0000000000
10
241.6975414876
20
205.5686550902
30
0.0000000000
10
241.1831495263
20
203.9040820931
30
0.0000000000
10
240.2459979428
20
200.4340847807
30
0.0000000000
10
239.1308374655
20
195.0185618750
30
0.0000000000
10
238.2758471518
20
189.2969054113
30
0.0000000000
10
237.6937249441
20
183.3521097855
30
0.0000000000
10
237.3930476691
20
177.2701147791
30
0.0000000000
10
237.3782681396
20
171.1391008040
30
0.0000000000
10
237.6496030496
20
165.0479570637
30
0.0000000000
10
238.2030406833
20
159.0849752584
30
0.0000000000
10
239.0304024268
20
153.3364833048
30
0.0000000000
10
240.1194812637
20
147.8855060143
30
0.0000000000
10
241.4542672123
20
142.8104328287
30
0.0000000000
10
243.0152983472
20
138.1836963581
30
0.0000000000
10
244.7802256562
20
134.0704567813
30
0.0000000000
10
246.7247960784
20
130.5273593289
30
0.0000000000
10
248.8246489811
20
127.6016475654
30
0.0000000000
10
251.0583883782
20
125.3320395925
30
0.0000000000
10
253.4104879647
20
123.7545515099
30
0.0000000000
10
255.8640449112
20
122.9173184675
30
0.0000000000
10
258.3662061948
20
122.8755345948
30
0.0000000000
10
260.1771072710
20
123.4326889112
30
0.0000000000
10
261.1357593364
20
123.9112342768
30
0.0000000000
10
261.3480056765
20
124.0264083115
30
0.0000000000
11
241.6975414876
21
205.5686550902
31
0.0000000000
11
240.3238701389
21
200.5256749993
31
0.0000000000
11
239.1969278227
21
195.0942713453
31
0.0000000000
11
238.3331478959
21
189.3536462240
31
0.0000000000
11
237.7451262147
21
183.3875108765
31
0.0000000000
11
237.4414374594
21
177.2828649905
31
0.0000000000
11
237.4265100959
21
171.1287280497
31
0.0000000000
11
237.7005617988
21
165.0148412286
31
0.0000000000
11
238.2595962770
21
159.0303587642
31
0.0000000000
11
239.0954615492
21
153.2625478867
31
0.0000000000
11
240.1959688174
21
147.7955162668
31
0.0000000000
11
241.5450702075
21
142.7089855362
31
0.0000000000
11
243.1230927834
21
138.0771287667
31
0.0000000000
11
244.9070254224
21
133.9674888601
31
0.0000000000
11
246.8708543697
21
130.4399936203
31
0.0000000000
11
248.9859425770
21
127.5460818712
31
0.0000000000
11
251.2214472956
21
125.3279533626
31
0.0000000000
11
253.5447698326
21
123.8179534029
31
0.0000000000
11
255.9220309139
21
123.0381011918
31
0.0000000000
11
258.3185647197
21
122.9997687306
31
0.0000000000
11
260.6994243907
21
123.7035149929
31
0.0000000000
11
261.3480056765
21
124.0264083115
31
0.0000000000
0
SPLINE
5
4B7
100
AcDbEntity
8
0
100
AcDbSpline
62
7
6
CONTINUOUS
70
0
71
3
72
29
73
25
74
23
42
0.0000001000
43
0.0000001000
44
0.0000000001
12
-37.3094355383
22
-120.7333776498
32
0.0000000000
13
126.7617863699
23
0.0432715313
33
0.0000000000
40
0.0000000000
40
0.0000000000
40
0.0000000000
40
0.0000000000
40
0.0498987078
40
0.1025248437
40
0.1574407316
40
0.2141668514
40
0.2721924603
40
0.3309852609
40
0.3900005310
40
0.4486899845
40
0.5065105606
40
0.5629333191
40
0.6174526478
40
0.6695960728
40
0.7189351246
40
0.7650980014
40
0.8077852504
40
0.8467904890
40
0.8820293807
40
0.9135814793
40
0.9417494932
40
0.9671329207
40
0.9906849115
40
1.0000000000
40
1.0000000000
40
1.0000000000
40
1.0000000000
10
234.8569712224
20
218.1786511952
30
0.0000000000
10
234.2364070155
20
216.1705046860
30
0.0000000000
10
233.0894053985
20
212.0041278568
30
0.0000000000
10
231.6734956174
20
205.5225697895
30
0.0000000000
10
230.5274186645
20
198.6961771004
30
0.0000000000
10
229.6639152645
20
191.5994566814
30
0.0000000000
10
229.0925135215
20
184.3095774024
30
0.0000000000
10
228.8195452146
20
176.9060321946
30
0.0000000000
10
228.8480311234
20
169.4695697388
30
0.0000000000
10
229.1776562919
20
162.0813212250
30
0.0000000000
10
229.8047707616
20
154.8218688031
30
0.0000000000
10
230.7224333402
20
147.7703325873
30
0.0000000000
10
231.9204954312
20
141.0034616382
30
0.0000000000
10
233.3857308638
20
134.5947376600
30
0.0000000000
10
235.1020219781
20
128.6134915788
30
0.0000000000
10
237.0506253537
20
123.1240337809
30
0.0000000000
10
239.2105661728
20
118.1848041112
30
0.0000000000
10
241.5592611068
20
113.8475790278
30
0.0000000000
10
244.0735418016
20
110.1568936963
30
0.0000000000
10
246.7312810477
20
107.1501863050
30
0.0000000000
10
249.5132742225
20
104.8599981482
30
0.0000000000
10
252.4026429461
20
103.3200209623
30
0.0000000000
10
254.8089836719
20
102.7140130696
30
0.0000000000
10
256.1976048993
20
102.6394897131
30
0.0000000000
10
256.5912039868
20
102.6396240725
30
0.0000000000
11
234.8569712224
21
218.1786511952
31
0.0000000000
11
233.1732076432
21
212.1020805138
31
0.0000000000
11
231.7460165351
21
205.6068386788
31
0.0000000000
11
230.5910345024
21
198.7640889190
31
0.0000000000
11
229.7209157700
21
191.6488018326
31
0.0000000000
11
229.1451935409
21
184.3389339939
31
0.0000000000
11
228.8701755482
21
176.9145738448
31
0.0000000000
11
228.8988749467
21
169.4570642285
31
0.0000000000
11
229.2309772996
21
162.0481111811
31
0.0000000000
11
229.8628440242
21
154.7688887426
31
0.0000000000
11
230.7875522564
21
147.6991495972
31
0.0000000000
11
231.9949706992
21
140.9163512865
31
0.0000000000
11
233.4718706236
21
134.4948075683
31
0.0000000000
11
235.2020708049
21
128.5048742191
31
0.0000000000
11
237.1666148078
21
123.0121782024
31
0.0000000000
11
239.3439786772
21
118.0768986450
31
0.0000000000
11
241.7103067589
21
113.7531075026
31
0.0000000000
11
244.2396730672
21
110.0881771358
31
0.0000000000
11
246.9043653355
21
107.1222612885
31
0.0000000000
11
249.6751886377
21
104.8878551555
31
0.0000000000
11
252.5217852540
21
103.4094393579
31
0.0000000000
11
255.4129672760
21
102.7032117287
31
0.0000000000
11
256.5912039868
21
102.6396240725
31
0.0000000000
0
SPLINE
5
4B8
100
AcDbEntity
8
0
100
AcDbSpline
62
7
6
CONTINUOUS
70
0
71
3
72
11
73
7
74
5
42
0.0000001000
43
0.0000001000
44
0.0000000001
12
-5.0202677004
22
-16.2455923325
32
0.0000000000
13
-2.0330996623
23
-16.8834997653
33
0.0000000000
40
0.0000000000
40
0.0000000000
40
0.0000000000
40
0.0000000000
40
0.3076064528
40
0.6340670890
40
0.9757212821
40
1.0000000000
40
1.0000000000
40
1.0000000000
40
1.0000000000
10
286.3580101962
20
205.5910493378
30
0.0000000000
10
285.8432546164
20
203.9252996606
30
0.0000000000
10
284.9054405603
20
200.4528494240
30
0.0000000000
10
283.7894917829
20
195.0334983089
30
0.0000000000
10
283.2092335706
20
191.1503687628
30
0.0000000000
10
282.9576063901
20
189.0913920256
30
0.0000000000
10
282.9411527058
20
188.9547554498
30
0.0000000000
11
286.3580101962
21
205.5910493378
31
0.0000000000
11
284.9833678053
21
200.5445043869
31
0.0000000000
11
283.8556288588
21
195.1092612981
31
0.0000000000
11
282.9912383298
21
189.3645781547
31
0.0000000000
11
282.9411527058
21
188.9547554498
31
0.0000000000
0
SPLINE
5
4B9
100
AcDbEntity
8
0
100
AcDbSpline
62
7
6
CONTINUOUS
70
0
71
3
72
30
73
26
74
24
42
0.0000001000
43
0.0000001000
44
0.0000000001
12
-11.9179757939
22
-98.9706236505
32
0.0000000000
13
29.4286751976
23
95.2312272540
33
0.0000000000
40
0.0000000000
40
0.0000000000
40
0.0000000000
40
0.0000000000
40
0.0560469080
40
0.1174117227
40
0.1791978047
40
0.2406412386
40
0.3009854293
40
0.3594976293
40
0.4154861873
40
0.4683193004
40
0.5174465967
40
0.5624259019
40
0.6029593905
40
0.6389463746
40
0.6705636891
40
0.6983828628
40
0.7235013467
40
0.7475649871
40
0.7724905392
40
0.7999706660
40
0.8311620298
40
0.8666846999
40
0.9067501573
40
0.9512820276
40
1.0000000000
40
1.0000000000
40
1.0000000000
40
1.0000000000
10
282.9411527058
20
188.9547554498
30
0.0000000000
10
282.7184974749
20
187.1057563045
30
0.0000000000
10
282.3445661221
20
183.2213068418
30
0.0000000000
10
282.0504735503
20
177.2725049157
30
0.0000000000
10
282.0356835732
20
171.1371569543
30
0.0000000000
10
282.3072102887
20
165.0417074119
30
0.0000000000
10
282.8610391450
20
159.0745104016
30
0.0000000000
10
283.6889857467
20
153.3219548648
30
0.0000000000
10
284.7788344486
20
147.8671243029
30
0.0000000000
10
286.1145639514
20
142.7884635710
30
0.0000000000
10
287.6766985722
20
138.1584564811
30
0.0000000000
10
289.4428735004
20
134.0423092738
30
0.0000000000
10
291.3888185306
20
130.4967072217
30
0.0000000000
10
293.4901558100
20
127.5689272856
30
0.0000000000
10
295.7254742274
20
125.2977149371
30
0.0000000000
10
298.0792365025
20
123.7191117352
30
0.0000000000
10
300.5345278574
20
122.8812868566
30
0.0000000000
10
303.0384579076
20
122.8394734470
30
0.0000000000
10
305.5021547377
20
123.5974714080
30
0.0000000000
10
307.8674185417
20
125.1022867432
30
0.0000000000
10
310.1155564983
20
127.3038156211
30
0.0000000000
10
312.2316126045
20
130.1655704744
30
0.0000000000
10
314.1946927225
20
133.6495404986
30
0.0000000000
10
315.9805038412
20
137.7091536622
30
0.0000000000
10
316.9943787978
20
140.6403418084
30
0.0000000000
10
317.4722805928
20
142.1868325741
30
0.0000000000
11
282.9411527058
21
188.9547554498
31
0.0000000000
11
282.4028009787
21
183.3942253729
31
0.0000000000
11
282.0988975472
21
177.2852641402
31
0.0000000000
11
282.0839596316
21
171.1267768676
31
0.0000000000
11
282.3582050604
21
165.0085681674
31
0.0000000000
11
282.9176347176
21
159.0198552992
31
0.0000000000
11
283.7540908592
21
153.2479671821
31
0.0000000000
11
284.8553760710
21
147.7770709421
31
0.0000000000
11
286.2054311348
21
142.6869445658
31
0.0000000000
11
287.7845692078
21
138.0518135575
31
0.0000000000
11
289.5697629008
21
133.9392685649
31
0.0000000000
11
291.5349800699
21
130.4092797547
31
0.0000000000
11
293.6515634236
21
127.5133223123
31
0.0000000000
11
295.8886484104
21
125.2936258187
31
0.0000000000
11
298.2136132937
21
123.7825584468
31
0.0000000000
11
300.5925548501
21
123.0021549617
31
0.0000000000
11
302.9907827549
21
122.9637954034
31
0.0000000000
11
305.3733254449
21
123.6680391407
31
0.0000000000
11
307.7054400826
21
125.1046167141
31
0.0000000000
11
309.9531191851
21
127.2525795877
31
0.0000000000
11
312.0835865299
21
130.0806056260
31
0.0000000000
11
314.0657751055
21
133.5474558412
31
0.0000000000
11
315.8707801391
21
137.6025757504
31
0.0000000000
11
317.4722805928
21
142.1868325741
31
0.0000000000
0
SPLINE
5
4BA
100
AcDbEntity
8
0
100
AcDbSpline
62
7
6
CONTINUOUS
70
0
71
3
72
18
73
14
74
12
42
0.0000001000
43
0.0000001000
44
0.0000000001
12
-12.1583929329
22
-39.3445738947
32
0.0000000000
13
-32.6850649955
23
25.1615762509
33
0.0000000000
40
0.0000000000
40
0.0000000000
40
0.0000000000
40
0.0000000000
40
0.1348070237
40
0.2593643094
40
0.3729912672
40
0.4753844876
40
0.5667510351
40
0.6480000988
40
0.7209845219
40
0.7886853036
40
0.8550643445
40
0.9243705948
40
1.0000000000
40
1.0000000000
40
1.0000000000
40
1.0000000000
10
321.6666062590
20
133.6396955104
30
0.0000000000
10
321.1202606710
20
131.8717205421
30
0.0000000000
10
319.9664068589
20
128.5003952106
30
0.0000000000
10
317.9630529262
20
123.7832222696
30
0.0000000000
10
315.7734354953
20
119.6449846549
30
0.0000000000
10
313.4207433924
20
116.1312959706
30
0.0000000000
10
310.9269799256
20
113.2800162549
30
0.0000000000
10
308.3109122830
20
111.1239815701
30
0.0000000000
10
305.5885799841
20
109.6977351932
30
0.0000000000
10
302.7860816139
20
109.0451086854
30
0.0000000000
10
299.9608159299
20
109.2014049930
30
0.0000000000
10
297.1874723064
20
110.1557193301
30
0.0000000000
10
295.4971932448
20
111.2326808009
30
0.0000000000
10
294.6732092363
20
111.8669991498
30
0.0000000000
11
321.6666062590
21
133.6396955104
31
0.0000000000
11
319.8561870792
21
128.3917965686
31
0.0000000000
11
317.8354255894
21
123.6773100462
31
0.0000000000
11
315.6280133703
21
119.5515089873
31
0.0000000000
11
313.2598303120
21
116.0627646371
31
0.0000000000
11
310.7586411956
21
113.2519793333
31
0.0000000000
11
308.1537701766
21
111.1521069635
31
0.0000000000
11
305.4757569860
21
109.7877666115
31
0.0000000000
11
302.7559988801
21
109.1749539204
31
0.0000000000
11
300.0263825358
21
109.3208535588
31
0.0000000000
11
297.3189102092
21
110.2237549867
31
0.0000000000
11
294.6732092363
21
111.8669991498
31
0.0000000000
0
SPLINE
5
4BB
100
AcDbEntity
8
0
100
AcDbSpline
62
7
6
CONTINUOUS
70
0
71
3
72
16
73
12
74
10
42
0.0000001000
43
0.0000001000
44
0.0000000001
12
-9.9888826703
22
-32.3240361678
32
0.0000000000
13
-33.9411640492
23
0.0231932670
33
0.0000000000
40
0.0000000000
40
0.0000000000
40
0.0000000000
40
0.0000000000
40
0.1666202443
40
0.3205719065
40
0.4610137838
40
0.5875708647
40
0.7004990790
40
0.8009221763
40
0.8911302536
40
0.9748077984
40
1.0000000000
40
1.0000000000
40
1.0000000000
40
1.0000000000
10
322.8927091196
20
133.0180855422
30
0.0000000000
10
322.3379257626
20
131.2228059409
30
0.0000000000
10
321.1662518134
20
127.7994138092
30
0.0000000000
10
319.1319580520
20
123.0093887764
30
0.0000000000
10
316.9085241356
20
118.8072401561
30
0.0000000000
10
314.5194970195
20
115.2392860095
30
0.0000000000
10
311.9872198312
20
112.3439710858
30
0.0000000000
10
309.3307495996
20
110.1546385680
30
0.0000000000
10
306.5663735586
20
108.7063652200
30
0.0000000000
10
304.3527494490
20
108.1908716919
30
0.0000000000
10
303.1212243268
20
108.1393163166
30
0.0000000000
10
302.8362067781
20
108.1395110798
30
0.0000000000
11
322.8927091196
21
133.0180855422
31
0.0000000000
11
321.0543297981
21
127.6891379680
31
0.0000000000
11
319.0023596366
21
122.9018408430
31
0.0000000000
11
316.7608561091
21
118.7123208488
31
0.0000000000
11
314.3560987951
21
115.1696962770
31
0.0000000000
11
311.8162812753
21
112.3155011615
31
0.0000000000
11
309.1711805881
21
110.1831983304
31
0.0000000000
11
306.4518081205
21
108.7977870850
31
0.0000000000
11
303.6900460283
21
108.1755101052
31
0.0000000000
11
302.8362067781
21
108.1395110798
31
0.0000000000
0
SPLINE
5
4BC
100
AcDbEntity
8
0
100
AcDbSpline
62
7
6
CONTINUOUS
70
0
71
3
72
36
73
32
74
30
42
0.0000001000
43
0.0000001000
44
0.0000000001
12
-45.0121477199
22
-145.6593630540
32
0.0000000000
13
44.5947732807
23
145.7902234894
33
0.0000000000
40
0.0000000000
40
0.0000000000
40
0.0000000000
40
0.0000000000
40
0.0375379419
40
0.0722217737
40
0.1038619808
40
0.1323740764
40
0.1578157192
40
0.1804400792
40
0.2007630932
40
0.2196148410
40
0.2380985409
40
0.2573973424
40
0.2785240578
40
0.3021857365
40
0.3287892265
40
0.3585051442
40
0.3913311846
40
0.4271388645
40
0.4657055602
40
0.5067366977
40
0.5498819197
40
0.5947476842
40
0.6409077710
40
0.6879125748
40
0.7352977084
40
0.7825922422
40
0.8293267990
40
0.8750416823
40
0.9192952251
40
0.9616726118
40
1.0000000000
40
1.0000000000
40
1.0000000000
40
1.0000000000
10
324.1188119802
20
132.3964755739
30
0.0000000000
10
323.5555908523
20
130.5738913403
30
0.0000000000
10
322.3660967688
20
127.0984324076
30
0.0000000000
10
320.3008631777
20
122.2355552832
30
0.0000000000
10
318.0436127760
20
117.9694956572
30
0.0000000000
10
315.6182506467
20
114.3472760483
30
0.0000000000
10
313.0474597369
20
111.4079259167
30
0.0000000000
10
310.3505869162
20
109.1852955659
30
0.0000000000
10
307.5441671332
20
107.7149952468
30
0.0000000000
10
304.6551051067
20
107.0422103913
30
0.0000000000
10
301.7425725290
20
107.2033343841
30
0.0000000000
10
298.8803012659
20
108.1882489399
30
0.0000000000
10
296.1138861053
20
109.9523897631
30
0.0000000000
10
293.4634386618
20
112.4542936626
30
0.0000000000
10
290.9460112469
20
115.6602142647
30
0.0000000000
10
288.5824461502
20
119.5348274767
30
0.0000000000
10
286.3961487530
20
124.0362056183
30
0.0000000000
10
284.4108705976
20
129.1145484594
30
0.0000000000
10
282.6491790554
20
134.7125179217
30
0.0000000000
10
281.1315449987
20
140.7660472648
30
0.0000000000
10
279.8757930041
20
147.2052773188
30
0.0000000000
10
278.8967488451
20
153.9555232142
30
0.0000000000
10
278.2060005246
20
160.9382556313
30
0.0000000000
10
277.8117334418
20
168.0720949989
30
0.0000000000
10
277.7186223078
20
175.2738197008
30
0.0000000000
10
277.9277707812
20
182.4593798609
30
0.0000000000
10
278.4367006282
20
189.5449319525
30
0.0000000000
10
279.2393719313
20
196.4478136555
30
0.0000000000
10
280.3263004965
20
203.0877232085
30
0.0000000000
10
281.6653054975
20
209.2979001035
30
0.0000000000
10
282.7455421599
20
213.2571622122
30
0.0000000000
10
283.3152758886
20
215.1197483748
30
0.0000000000
11
324.1188119802
21
132.3964755739
31
0.0000000000
11
322.2524725170
21
126.9864793674
31
0.0000000000
11
320.1692936838
21
122.1263716397
31
0.0000000000
11
317.8936988479
21
117.8731327103
31
0.0000000000
11
315.4523672782
21
114.2766279168
31
0.0000000000
11
312.8739213551
21
111.3790229897
31
0.0000000000
11
310.1885909996
21
109.2142896973
31
0.0000000000
11
307.4278592549
21
107.8078075584
31
0.0000000000
11
304.6240931765
21
107.1760662900
31
0.0000000000
11
301.8101643583
21
107.3264724809
31
0.0000000000
11
299.0190635428
21
108.2572627560
31
0.0000000000
11
296.2835138351
21
109.9575244503
31
0.0000000000
11
293.6355870545
21
112.4073235502
31
0.0000000000
11
291.1063277213
21
115.5779384010
31
0.0000000000
11
288.7253890888
21
119.4321964424
31
0.0000000000
11
286.5206854855
21
123.9249100230
31
0.0000000000
11
284.5180650455
21
129.0034061838
31
0.0000000000
11
282.7410066622
21
134.6081442005
31
0.0000000000
11
281.2103447205
21
140.6734136444
31
0.0000000000
11
279.9440248322
21
147.1281047768
31
0.0000000000
11
278.9568934402
21
153.8965422457
31
0.0000000000
11
278.2605237574
21
160.8993723102
31
0.0000000000
11
277.8630800818
21
168.0544931907
31
0.0000000000
11
277.7692220769
21
175.2780176367
31
0.0000000000
11
277.9800501422
21
182.4852564287
31
0.0000000000
11
278.4930925113
21
189.5917112815
31
0.0000000000
11
279.3023342314
21
196.5140655093
31
0.0000000000
11
280.3982876835
21
203.1711608382
31
0.0000000000
11
281.7681038151
21
209.4849489119
31
0.0000000000
11
283.3152758886
21
215.1197483748
31
0.0000000000
0
SPLINE
5
4BD
100
AcDbEntity
8
0
100
AcDbSpline
62
7
6
CONTINUOUS
70
0
71
3
72
8
73
4
74
2
42
0.0000001000
43
0.0000001000
44
0.0000000001
12
0.0800726039
22
0.2617751354
32
0.0000000000
13
0.0808220245
23
0.2615401677
33
0.0000000000
40
0.0000000000
40
0.0000000000
40
0.0000000000
40
0.0000000000
40
1.0000000000
40
1.0000000000
40
1.0000000000
40
1.0000000000
10
283.3152758886
20
215.1197483748
30
0.0000000000
10
283.3419667566
20
215.2070067533
30
0.0000000000
10
283.3687821099
20
215.2942262821
30
0.0000000000
10
283.3957227848
20
215.3814063380
30
0.0000000000
11
283.3152758886
21
215.1197483748
31
0.0000000000
11
283.3957227848
21
215.3814063380
31
0.0000000000
0
SPLINE
5
4BE
100
AcDbEntity
8
0
100
AcDbSpline
62
7
6
CONTINUOUS
70
0
71
3
72
8
73
4
74
2
42
0.0000001000
43
0.0000001000
44
0.0000000001
12
-0.0797243712
22
-0.2579881595
32
0.0000000000
13
-0.0804263138
23
-0.2577796383
33
0.0000000000
40
0.0000000000
40
0.0000000000
40
0.0000000000
40
0.0000000000
40
1.0000000000
40
1.0000000000
40
1.0000000000
40
1.0000000000
10
325.1864585135
20
130.2208406849
30
0.0000000000
10
325.1598837231
20
130.1348446318
30
0.0000000000
10
325.1331924879
20
130.0488828988
30
0.0000000000
10
325.1063837167
20
129.9629563527
30
0.0000000000
11
325.1864585135
21
130.2208406849
31
0.0000000000
11
325.1063837167
21
129.9629563527
31
0.0000000000
0
SPLINE
5
4BF
100
AcDbEntity
8
0
100
AcDbSpline
62
7
6
CONTINUOUS
70
0
71
3
72
37
73
33
74
31
42
0.0000001000
43
0.0000001000
44
0.0000000001
12
-47.2519050935
22
-151.4501713676
32
0.0000000000
13
44.1323853322
23
152.3996906658
33
0.0000000000
40
0.0000000000
40
0.0000000000
40
0.0000000000
40
0.0000000000
40
0.0350430327
40
0.0690978822
40
0.1002850914
40
0.1285181832
40
0.1538322275
40
0.1764276580
40
0.1967268651
40
0.2154249552
40
0.2334794469
40
0.2519762000
40
0.2719112872
40
0.2940332727
40
0.3188129775
40
0.3464881361
40
0.3771212267
40
0.4106460151
40
0.4469004168
40
0.4856492542
40
0.5266005294
40
0.5694177406
40
0.6137298264
40
0.6591396998
40
0.7052319534
40
0.7515800898
40
0.7977535079
40
0.8433244056
40
0.8878747386
40
0.9310033909
40
0.9723337673
40
1.0000000000
40
1.0000000000
40
1.0000000000
40
1.0000000000
10
325.1063837167
20
129.9629563527
30
0.0000000000
10
324.5544336986
20
128.1938652512
30
0.0000000000
10
323.3678600242
20
124.7349795072
30
0.0000000000
10
321.3108450862
20
119.8417758902
30
0.0000000000
10
319.0284801162
20
115.4497794593
30
0.0000000000
10
316.5785742462
20
111.6875648367
30
0.0000000000
10
313.9832744643
20
108.5932288215
30
0.0000000000
10
311.2621608438
20
106.1994589776
30
0.0000000000
10
308.4319342060
20
104.5386108366
30
0.0000000000
10
305.5146175455
20
103.6502095273
30
0.0000000000
10
302.5569987867
20
103.5727012237
30
0.0000000000
10
299.6274929336
20
104.3104619446
30
0.0000000000
10
296.7786767534
20
105.8288254156
30
0.0000000000
10
294.0357290969
20
108.0868705808
30
0.0000000000
10
291.4152914542
20
111.0513785701
30
0.0000000000
10
288.9362989095
20
114.6902648092
30
0.0000000000
10
286.6205681150
20
118.9666165581
30
0.0000000000
10
284.4909422547
20
123.8365237062
30
0.0000000000
10
282.5696876984
20
129.2489364823
30
0.0000000000
10
280.8774848805
20
135.1462352502
30
0.0000000000
10
279.4328141557
20
141.4650122251
30
0.0000000000
10
278.2515669712
20
148.1369095469
30
0.0000000000
10
277.3467838674
20
155.0894768333
30
0.0000000000
10
276.7284710043
20
162.2470422037
30
0.0000000000
10
276.4034721540
20
169.5315960015
30
0.0000000000
10
276.3753860474
20
176.8636870544
30
0.0000000000
10
276.6445232201
20
184.1633228558
30
0.0000000000
10
277.2079052896
20
191.3508880397
30
0.0000000000
10
278.0592893436
20
198.3480053650
30
0.0000000000
10
279.1892810061
20
205.0785890339
30
0.0000000000
10
280.4552280341
20
210.8736681307
30
0.0000000000
10
281.3971019457
20
214.4003096298
30
0.0000000000
10
281.8040942261
20
215.8057513970
30
0.0000000000
11
325.1063837167
21
129.9629563527
31
0.0000000000
11
323.2915440015
21
124.7079920508
31
0.0000000000
11
321.1826078670
21
119.7339801846
31
0.0000000000
11
318.8827560557
21
115.3533014013
31
0.0000000000
11
316.4171862253
21
111.6139513344
31
0.0000000000
11
313.8129116748
21
108.5568990856
31
0.0000000000
11
311.0984653812
21
106.2156383591
31
0.0000000000
11
308.3035873860
21
104.6158204975
31
0.0000000000
11
305.4588989575
21
103.7749734399
31
0.0000000000
11
302.5955670974
21
103.7023096827
31
0.0000000000
11
299.7449630687
21
104.3986253453
31
0.0000000000
11
296.9383186857
21
105.8562914474
31
0.0000000000
11
294.2063841315
21
108.0593374944
31
0.0000000000
11
291.5790910529
21
110.9836264525
31
0.0000000000
11
289.0852246227
21
114.5971192002
31
0.0000000000
11
286.7521081632
21
118.8602255546
31
0.0000000000
11
284.6053037867
21
123.7262380305
31
0.0000000000
11
282.6683323311
21
129.1418435768
31
0.0000000000
11
280.9624156612
21
135.0477076860
31
0.0000000000
11
279.5062441568
21
141.3791244749
31
0.0000000000
11
278.3157719377
21
148.0667256163
31
0.0000000000
11
277.4040420667
21
155.0372403526
31
0.0000000000
11
276.7810436470
21
162.2142982657
31
0.0000000000
11
276.4536023797
21
169.5192660071
31
0.0000000000
11
276.4253057799
21
176.8721088218
31
0.0000000000
11
276.6964638709
21
184.1922674250
31
0.0000000000
11
277.2641057880
21
191.3995406273
31
0.0000000000
11
278.1220123277
21
198.4149640353
31
0.0000000000
11
279.2607840862
21
205.1616752020
31
0.0000000000
11
280.6679444419
21
211.5657557481
31
0.0000000000
11
281.8040942261
21
215.8057513970
31
0.0000000000
0
SPLINE
5
4C0
100
AcDbEntity
8
0
100
AcDbSpline
62
7
6
CONTINUOUS
70
0
71
3
72
8
73
4
74
2
42
0.0000001000
43
0.0000001000
44
0.0000000001
12
0.5084993090
22
1.7559698350
32
0.0000000000
13
0.5396910628
23
1.7464409218
33
0.0000000000
40
0.0000000000
40
0.0000000000
40
0.0000000000
40
0.0000000000
40
1.0000000000
40
1.0000000000
40
1.0000000000
40
1.0000000000
10
281.8040942261
20
215.8057513970
30
0.0000000000
10
281.9735939958
20
216.3910746753
30
0.0000000000
10
282.1481792306
20
216.9748942530
30
0.0000000000
10
282.3280762515
20
217.5570412270
30
0.0000000000
11
281.8040942261
21
215.8057513970
31
0.0000000000
11
282.3280762515
21
217.5570412270
31
0.0000000000
0
SPLINE
5
4C1
100
AcDbEntity
8
0
100
AcDbSpline
62
7
6
CONTINUOUS
70
0
71
3
72
13
73
9
74
7
42
0.0000001000
43
0.0000001000
44
0.0000000001
12
-5.9540327165
22
0.9997470049
32
0.0000000000
13
-2.3990153060
23
5.5402820528
33
0.0000000000
40
0.0000000000
40
0.0000000000
40
0.0000000000
40
0.0000000000
40
0.1843747257
40
0.3689213622
40
0.5475063334
40
0.7146204435
40
0.8660932929
40
1.0000000000
40
1.0000000000
40
1.0000000000
40
1.0000000000
10
305.8914638166
20
142.2698859940
30
0.0000000000
10
305.5255394337
20
142.3313286873
30
0.0000000000
10
304.8007833395
20
142.5033217962
30
0.0000000000
10
303.7667692178
20
142.8920698092
30
0.0000000000
10
302.8223662496
20
143.3958799685
30
0.0000000000
10
302.0129626434
20
143.9910781159
30
0.0000000000
10
301.3770722750
20
144.6494357610
30
0.0000000000
10
301.0704803553
20
145.1433018812
30
0.0000000000
10
300.9633989420
20
145.3905955232
30
0.0000000000
11
305.8914638166
21
142.2698859940
31
0.0000000000
11
304.8081184074
21
142.5257090807
31
0.0000000000
11
303.7655943589
21
142.9188223613
31
0.0000000000
11
302.8160556709
21
143.4295681357
31
0.0000000000
11
302.0070213267
21
144.0324007457
31
0.0000000000
11
301.3789961054
21
144.6971518211
31
0.0000000000
11
300.9633989420
21
145.3905955232
31
0.0000000000
0
SPLINE
5
4C2
100
AcDbEntity
8
0
100
AcDbSpline
62
7
6
CONTINUOUS
70
0
71
3
72
9
73
5
74
3
42
0.0000001000
43
0.0000001000
44
0.0000000001
12
3.8011114562
22
6.0193233730
32
0.0000000000
13
2.5066641865
23
6.6580804054
33
0.0000000000
40
0.0000000000
40
0.0000000000
40
0.0000000000
40
0.0000000000
40
0.4370231283
40
1.0000000000
40
1.0000000000
40
1.0000000000
40
1.0000000000
10
288.1928300157
20
138.9951306550
30
0.0000000000
10
288.7465545557
20
139.8719918320
30
0.0000000000
10
289.8899446531
20
141.9548932256
30
0.0000000000
10
290.8180721163
20
144.1417559374
30
0.0000000000
10
291.2884701036
20
145.3912043633
30
0.0000000000
11
288.1928300157
21
138.9951306550
31
0.0000000000
11
289.7048175488
21
141.7123994887
31
0.0000000000
11
291.2884701036
21
145.3912043633
31
0.0000000000
0
SPLINE
5
4C3
100
AcDbEntity
8
0
100
AcDbSpline
62
7
6
CONTINUOUS
70
0
71
3
72
14
73
10
74
8
42
0.0000001000
43
0.0000001000
44
0.0000000001
12
3.1633939296
22
-6.4463190640
32
0.0000000000
13
7.1806748032
23
0.0000000000
33
0.0000000000
40
0.0000000000
40
0.0000000000
40
0.0000000000
40
0.0000000000
40
0.1160726578
40
0.2467502194
40
0.3899221216
40
0.5417591461
40
0.6974691894
40
0.8518878235
40
1.0000000000
40
1.0000000000
40
1.0000000000
40
1.0000000000
10
291.2884701036
20
145.3912043633
30
0.0000000000
10
291.4108646173
20
145.1417905678
30
0.0000000000
10
291.7461676956
20
144.6476571651
30
0.0000000000
10
292.4185593681
20
143.9939986286
30
0.0000000000
10
293.2582354211
20
143.4097717571
30
0.0000000000
10
294.2244514369
20
142.9227974180
30
0.0000000000
10
295.2707360790
20
142.5557328784
30
0.0000000000
10
296.3461288466
20
142.3260342883
30
0.0000000000
10
297.0709805299
20
142.2698859940
30
0.0000000000
10
297.4254956546
20
142.2698859940
30
0.0000000000
11
291.2884701036
21
145.3912043633
31
0.0000000000
11
291.7462808569
21
144.6947144210
31
0.0000000000
11
292.4124845466
21
144.0338974000
31
0.0000000000
11
293.2530387769
21
143.4419528919
31
0.0000000000
11
294.2252291039
21
142.9484113436
31
0.0000000000
11
295.2800662722
21
142.5776374521
31
0.0000000000
11
296.3648046503
21
142.3477535493
31
0.0000000000
11
297.4254956546
21
142.2698859940
31
0.0000000000
0
SPLINE
5
4C4
100
AcDbEntity
8
0
100
AcDbSpline
62
7
6
CONTINUOUS
70
0
71
3
72
10
73
6
74
4
42
0.0000001000
43
0.0000001000
44
0.0000000001
12
7.5993306725
22
8.9099219976
32
0.0000000000
13
4.0443232386
23
10.9738358166
33
0.0000000000
40
0.0000000000
40
0.0000000000
40
0.0000000000
40
0.0000000000
40
0.2903617081
40
0.6258098234
40
1.0000000000
40
1.0000000000
40
1.0000000000
40
1.0000000000
10
291.8552191580
20
132.0444656265
30
0.0000000000
10
292.5907373696
20
132.9068323500
30
0.0000000000
10
294.0117469387
20
134.9000980478
30
0.0000000000
10
295.8612474089
20
138.3408876911
30
0.0000000000
10
296.9210469790
20
140.9011188068
30
0.0000000000
10
297.4254956546
20
142.2698859940
30
0.0000000000
11
291.8552191580
21
132.0444656265
31
0.0000000000
11
293.8526295061
21
134.7909405135
31
0.0000000000
11
295.7331338059
21
138.2340663640
31
0.0000000000
11
297.4254956546
21
142.2698859940
31
0.0000000000
0
SPLINE
5
4C5
100
AcDbEntity
8
0
100
AcDbSpline
62
7
6
CONTINUOUS
70
0
71
3
72
14
73
10
74
8
42
0.0000001000
43
0.0000001000
44
0.0000000001
12
23.7502214855
22
0.0298669201
32
0.0000000000
13
6.9851802597
23
22.6040516046
33
0.0000000000
40
0.0000000000
40
0.0000000000
40
0.0000000000
40
0.0000000000
40
0.0874096123
40
0.1949677050
40
0.3172212681
40
0.4580858551
40
0.6191005200
40
0.8001531811
40
1.0000000000
40
1.0000000000
40
1.0000000000
40
1.0000000000
10
297.3098401206
20
127.8891825710
30
0.0000000000
10
298.0018393379
20
127.8900527896
30
0.0000000000
10
299.5468506930
20
128.1247340656
30
0.0000000000
10
301.8263518407
20
129.2367339873
30
0.0000000000
10
304.0685891854
20
131.1473235363
30
0.0000000000
10
306.1735584893
20
133.7653572886
30
0.0000000000
10
308.1214129351
20
137.0494173147
30
0.0000000000
10
309.8859184082
20
140.9491531105
30
0.0000000000
10
310.8764442715
20
143.7890998130
30
0.0000000000
10
311.3417662896
20
145.2948824155
30
0.0000000000
11
297.3098401206
21
127.8891825710
31
0.0000000000
11
299.3582403730
21
128.1906828549
31
0.0000000000
11
301.6635261965
21
129.2682254917
31
0.0000000000
11
303.8943192493
21
131.1092409412
31
0.0000000000
11
306.0124500439
21
133.6822289188
31
0.0000000000
11
307.9816767751
21
136.9431648867
31
0.0000000000
11
309.7683054275
21
140.8362533264
31
0.0000000000
11
311.3417662896
21
145.2948824155
31
0.0000000000
0
SPLINE
5
4C6
100
AcDbEntity
8
0
100
AcDbSpline
62
7
6
CONTINUOUS
70
0
71
3
72
25
73
21
74
19
42
0.0000001000
43
0.0000001000
44
0.0000000001
12
-25.5418587645
22
-82.6534852539
32
0.0000000000
13
86.7512790792
23
-4.5700380486
33
0.0000000000
40
0.0000000000
40
0.0000000000
40
0.0000000000
40
0.0000000000
40
0.0604903357
40
0.1248029858
40
0.1921552238
40
0.2616861895
40
0.3324821761
40
0.4035998218
40
0.4740883342
40
0.5430114948
40
0.6094701039
40
0.6726256981
40
0.7317268773
40
0.7861405981
40
0.8353927403
40
0.8792257406
40
0.9176864237
40
0.9512606615
40
0.9810510113
40
1.0000000000
40
1.0000000000
40
1.0000000000
40
1.0000000000
10
262.5599775884
20
204.3478294012
30
0.0000000000
10
262.0449657183
20
202.6812503788
30
0.0000000000
10
261.1108452913
20
199.2022823621
30
0.0000000000
10
260.0119507776
20
193.7681744490
30
0.0000000000
10
259.1845358671
20
188.0227142974
30
0.0000000000
10
258.6419066909
20
182.0559937712
30
0.0000000000
10
258.3927186354
20
175.9612660189
30
0.0000000000
10
258.4409684711
20
169.8340632938
30
0.0000000000
10
258.7858816230
20
163.7704128875
30
0.0000000000
10
259.4219373938
20
157.8653009458
30
0.0000000000
10
260.3389635947
20
152.2110727180
30
0.0000000000
10
261.5223292026
20
146.8958623037
30
0.0000000000
10
262.9532584326
20
142.0020275665
30
0.0000000000
10
264.6093338646
20
137.6045880074
30
0.0000000000
10
266.4653695310
20
133.7696828999
30
0.0000000000
10
268.4949964490
20
130.5532078996
30
0.0000000000
10
270.6737304105
20
128.0005629831
30
0.0000000000
10
272.9830712854
20
126.1504860419
30
0.0000000000
10
275.1733598737
20
125.1567129253
30
0.0000000000
10
276.5758311877
20
124.9285004271
30
0.0000000000
10
277.1237808559
20
124.8996345607
30
0.0000000000
11
262.5599775884
21
204.3478294012
31
0.0000000000
11
261.1912307563
21
199.2969841366
31
0.0000000000
11
260.0797938098
21
193.8454388531
31
0.0000000000
11
259.2431947737
21
188.0791676762
31
0.0000000000
11
258.6946273145
21
182.0891081472
31
0.0000000000
11
258.4427426687
21
175.9697270830
31
0.0000000000
11
258.4915132076
21
169.8175307786
31
0.0000000000
11
258.8401697907
21
163.7295430448
31
0.0000000000
11
259.4832138954
21
157.8017750850
31
0.0000000000
11
260.4105043321
21
152.1277113410
31
0.0000000000
11
261.6074171766
21
146.7968351876
31
0.0000000000
11
263.0550763984
21
141.8932177261
31
0.0000000000
11
264.7306515467
21
137.4941919334
31
0.0000000000
11
266.6077178006
21
133.6691330738
31
0.0000000000
11
268.6566727038
21
130.4783646107
31
0.0000000000
11
270.8452030136
21
127.9722068689
31
0.0000000000
11
273.1387942996
21
126.1901834528
31
0.0000000000
11
275.5012752572
21
125.1603979365
31
0.0000000000
11
277.1237808559
21
124.8996345607
31
0.0000000000
0
SPLINE
5
4C7
100
AcDbEntity
8
0
100
AcDbSpline
62
7
6
CONTINUOUS
70
0
71
3
72
26
73
22
74
20
42
0.0000001000
43
0.0000001000
44
0.0000000001
12
-12.0726248113
22
-39.0670283117
32
0.0000000000
13
12.4891384169
23
38.9452548844
33
0.0000000000
40
0.0000000000
40
0.0000000000
40
0.0000000000
40
0.0000000000
40
0.0624947415
40
0.1298073164
40
0.2004840849
40
0.2729268592
40
0.3454654227
40
0.4164257189
40
0.4841978326
40
0.5473077449
40
0.6044994663
40
0.6548413780
40
0.6978870128
40
0.7339506655
40
0.7645634690
40
0.7928827470
40
0.8230447636
40
0.8583826028
40
0.9005997890
40
0.9501226624
40
1.0000000000
40
1.0000000000
40
1.0000000000
40
1.0000000000
10
300.3389010196
20
185.0779203848
30
0.0000000000
10
300.0874091640
20
184.2640924395
30
0.0000000000
10
299.6485123987
20
182.5473512813
30
0.0000000000
10
299.1826420573
20
179.8524701210
30
0.0000000000
10
298.8933939055
20
176.9966607532
30
0.0000000000
10
298.7889072739
20
174.0571008721
30
0.0000000000
10
298.8720881818
20
171.1129790016
30
0.0000000000
10
299.1406132051
20
168.2437564508
30
0.0000000000
10
299.5869823393
20
165.5266262740
30
0.0000000000
10
300.1987812734
20
163.0341777660
30
0.0000000000
10
300.9593107157
20
160.8319685228
30
0.0000000000
10
301.8486362255
20
158.9759410182
30
0.0000000000
10
302.8470965101
20
157.5102215373
30
0.0000000000
10
303.9404527409
20
156.4674909960
30
0.0000000000
10
305.1320009999
20
155.8880437142
30
0.0000000000
10
306.3859291419
20
155.8552487466
30
0.0000000000
10
307.5883793688
20
156.3769346400
30
0.0000000000
10
308.6924313090
20
157.3697317951
30
0.0000000000
10
309.7022177656
20
158.7887665987
30
0.0000000000
10
310.5648263680
20
160.5217788341
30
0.0000000000
10
311.0320354853
20
161.7960143299
30
0.0000000000
10
311.2396771430
20
162.4435095384
30
0.0000000000
11
300.3389010196
21
185.0779203848
31
0.0000000000
11
299.6966172103
21
182.6045525977
31
0.0000000000
11
299.2216266738
21
179.8934456450
31
0.0000000000
11
298.9268859138
21
177.0185514568
31
0.0000000000
11
298.8204346899
21
174.0582896525
31
0.0000000000
11
298.9051767140
21
171.0934084573
31
0.0000000000
11
299.1788004446
21
168.2047821011
31
0.0000000000
11
299.6338421396
21
165.4712047811
31
0.0000000000
11
300.2578894478
21
162.9672413605
31
0.0000000000
11
301.0339199853
21
160.7611934341
31
0.0000000000
11
301.9407656620
21
158.9132362386
31
0.0000000000
11
302.9536900920
21
157.4737772291
31
0.0000000000
11
304.0450633372
21
156.4820810949
31
0.0000000000
11
305.1851155804
21
155.9651987214
31
0.0000000000
11
306.3427491684
21
155.9372293123
31
0.0000000000
11
307.4863868747
21
156.3989358003
31
0.0000000000
11
308.5848332438
21
157.3377240359
31
0.0000000000
11
309.6081255222
21
158.7279863232
31
0.0000000000
11
310.5283509642
21
160.5317999313
31
0.0000000000
11
311.2396771430
21
162.4435095384
31
0.0000000000
0
SPLINE
5
4C8
100
AcDbEntity
8
0
100
AcDbSpline
62
7
6
CONTINUOUS
70
0
71
3
72
8
73
4
74
2
42
0.0000001000
43
0.0000001000
44
0.0000000001
12
0.0821094288
22
0.2560442943
32
0.0000000000
13
0.0793710742
23
0.2568448895
33
0.0000000000
40
0.0000000000
40
0.0000000000
40
0.0000000000
40
0.0000000000
40
1.0000000000
40
1.0000000000
40
1.0000000000
40
1.0000000000
10
311.2396771430
20
162.4435095384
30
0.0000000000
10
311.2670469526
20
162.5288576364
30
0.0000000000
10
311.2939511937
20
162.6143465639
30
0.0000000000
10
311.3204082184
20
162.6999615271
30
0.0000000000
11
311.2396771430
21
162.4435095384
31
0.0000000000
11
311.3204082184
21
162.6999615271
31
0.0000000000
0
SPLINE
5
4C9
100
AcDbEntity
8
0
100
AcDbSpline
62
7
6
CONTINUOUS
70
0
71
3
72
12
73
8
74
6
42
0.0000001000
43
0.0000001000
44
0.0000000001
12
3.9891344578
22
-3.2216373582
32
0.0000000000
13
5.1193001163
23
-0.1513633043
33
0.0000000000
40
0.0000000000
40
0.0000000000
40
0.0000000000
40
0.0000000000
40
0.0635104811
40
0.2904005375
40
0.5284538532
40
0.7682104332
40
1.0000000000
40
1.0000000000
40
1.0000000000
40
1.0000000000
10
282.9176864276
20
184.5832014869
30
0.0000000000
10
283.0021370438
20
184.5149989074
30
0.0000000000
10
283.3967918108
20
184.2136685957
30
0.0000000000
10
284.1736414281
20
183.7475824651
30
0.0000000000
10
285.2884580909
20
183.2847039517
30
0.0000000000
10
286.4643788709
20
182.9786714782
30
0.0000000000
10
287.2680132960
20
182.8884158407
30
0.0000000000
10
287.6635467480
20
182.8767210291
30
0.0000000000
11
282.9176864276
21
184.5832014869
31
0.0000000000
11
283.1763010503
21
184.3853592903
31
0.0000000000
11
284.1696241029
21
183.7823555710
31
0.0000000000
11
285.2946810221
21
183.3125758509
31
0.0000000000
11
286.4833222738
21
183.0044767071
31
0.0000000000
11
287.6635467480
21
182.8767210291
31
0.0000000000
0
SPLINE
5
4CA
100
AcDbEntity
8
0
100
AcDbSpline
62
7
6
CONTINUOUS
70
0
71
3
72
9
73
5
74
3
42
0.0000001000
43
0.0000001000
44
0.0000000001
12
5.4574597806
22
-0.1647301135
32
0.0000000000
13
5.4574569664
23
-0.1648233190
33
0.0000000000
40
0.0000000000
40
0.0000000000
40
0.0000000000
40
0.0000000000
40
0.3328226886
40
1.0000000000
40
1.0000000000
40
1.0000000000
40
1.0000000000
10
282.7662185743
20
182.7706344950
30
0.0000000000
10
283.3716740532
20
182.7523591886
30
0.0000000000
10
285.1908271606
20
182.6974440864
30
0.0000000000
10
287.0099798022
20
182.6425135598
30
0.0000000000
10
288.2236769576
20
182.6058581002
30
0.0000000000
11
282.7662185743
21
182.7706344950
31
0.0000000000
11
284.5825848578
21
182.7158034961
31
0.0000000000
11
288.2236769576
21
182.6058581002
31
0.0000000000
0
SPLINE
5
4CB
100
AcDbEntity
8
0
100
AcDbSpline
62
7
6
CONTINUOUS
70
0
71
3
72
8
73
4
74
2
42
0.0000001000
43
0.0000001000
44
0.0000000001
12
-0.0323416735
22
-0.1046576937
32
0.0000000000
13
-0.0319307092
23
-0.1047859786
33
0.0000000000
40
0.0000000000
40
0.0000000000
40
0.0000000000
40
0.0000000000
40
1.0000000000
40
1.0000000000
40
1.0000000000
40
1.0000000000
10
289.0653118838
20
185.9972112967
30
0.0000000000
10
289.0545313260
20
185.9623253988
30
0.0000000000
10
289.0438195805
20
185.9274178878
30
0.0000000000
10
289.0331760107
20
185.8924892283
30
0.0000000000
11
289.0653118838
21
185.9972112967
31
0.0000000000
11
289.0331760107
21
185.8924892283
31
0.0000000000
0
SPLINE
5
4CC
100
AcDbEntity
8
0
100
AcDbSpline
62
7
6
CONTINUOUS
70
0
71
3
72
9
73
5
74
3
42
0.0000001000
43
0.0000001000
44
0.0000000001
12
-0.9869845741
22
-3.2389554477
32
0.0000000000
13
-0.6476289836
23
-3.3234188874
33
0.0000000000
40
0.0000000000
40
0.0000000000
40
0.0000000000
40
0.0000000000
40
0.4702312543
40
1.0000000000
40
1.0000000000
40
1.0000000000
40
1.0000000000
10
289.0331760107
20
185.8924892283
30
0.0000000000
10
288.8784723460
20
185.3848032007
30
0.0000000000
10
288.5801073763
20
184.2956497766
30
0.0000000000
10
288.3380414891
20
183.1927392520
30
0.0000000000
10
288.2236769576
20
182.6058581002
30
0.0000000000
11
289.0331760107
21
185.8924892283
31
0.0000000000
11
288.6103199867
21
184.3574533045
31
0.0000000000
11
288.2236769576
21
182.6058581002
31
0.0000000000
0
SPLINE
5
4CD
100
AcDbEntity
8
0
100
AcDbSpline
62
7
6
CONTINUOUS
70
0
71
3
72
27
73
23
74
21
42
0.0000001000
43
0.0000001000
44
0.0000000001
12
-107.3013678480
22
-0.0366285032
32
0.0000000000
13
15.6976296587
23
105.8191462140
33
0.0000000000
40
0.0000000000
40
0.0000000000
40
0.0000000000
40
0.0000000000
40
0.0110044940
40
0.0388279271
40
0.0688149503
40
0.1020915789
40
0.1393660373
40
0.1809959341
40
0.2270752509
40
0.2775043559
40
0.3320394363
40
0.3903267300
40
0.4519270043
40
0.5163340817
40
0.5829897992
40
0.6512968456
40
0.7206303510
40
0.7903487638
40
0.8598043596
40
0.9283536240
40
0.9953677210
40
1.0000000000
40
1.0000000000
40
1.0000000000
40
1.0000000000
10
302.8362061553
20
102.6396240725
30
0.0000000000
10
302.4426070679
20
102.6394897131
30
0.0000000000
10
301.0539858404
20
102.7140130696
30
0.0000000000
10
298.6476451147
20
103.3200209623
30
0.0000000000
10
295.7582763910
20
104.8599981482
30
0.0000000000
10
292.9762832163
20
107.1501863050
30
0.0000000000
10
290.3185439701
20
110.1568936963
30
0.0000000000
10
287.8042632753
20
113.8475790278
30
0.0000000000
10
285.4555683414
20
118.1848041112
30
0.0000000000
10
283.2956275222
20
123.1240337809
30
0.0000000000
10
281.3470241467
20
128.6134915788
30
0.0000000000
10
279.6307330323
20
134.5947376600
30
0.0000000000
10
278.1654975997
20
141.0034616382
30
0.0000000000
10
276.9674355087
20
147.7703325873
30
0.0000000000
10
276.0497729301
20
154.8218688031
30
0.0000000000
10
275.4226584604
20
162.0813212250
30
0.0000000000
10
275.0930332920
20
169.4695697388
30
0.0000000000
10
275.0645473831
20
176.9060321946
30
0.0000000000
10
275.3375156900
20
184.3095774024
30
0.0000000000
10
275.9089174331
20
191.5994566814
30
0.0000000000
10
276.5128890211
20
196.5632095757
30
0.0000000000
10
276.8837299926
20
199.0909926027
30
0.0000000000
10
276.9079685925
20
199.2543872044
30
0.0000000000
11
302.8362061553
21
102.6396240725
31
0.0000000000
11
301.6579694445
21
102.7032117287
31
0.0000000000
11
298.7667874225
21
103.4094393579
31
0.0000000000
11
295.9201908063
21
104.8878551555
31
0.0000000000
11
293.1493675041
21
107.1222612885
31
0.0000000000
11
290.4846752357
21
110.0881771358
31
0.0000000000
11
287.9553089275
21
113.7531075026
31
0.0000000000
11
285.5889808458
21
118.0768986450
31
0.0000000000
11
283.4116169764
21
123.0121782024
31
0.0000000000
11
281.4470729734
21
128.5048742191
31
0.0000000000
11
279.7168727921
21
134.4948075683
31
0.0000000000
11
278.2399728677
21
140.9163512865
31
0.0000000000
11
277.0325544249
21
147.6991495972
31
0.0000000000
11
276.1078461928
21
154.7688887426
31
0.0000000000
11
275.4759794682
21
162.0481111811
31
0.0000000000
11
275.1438771152
21
169.4570642285
31
0.0000000000
11
275.1151777168
21
176.9145738448
31
0.0000000000
11
275.3901957095
21
184.3389339939
31
0.0000000000
11
275.9659179386
21
191.6488018326
31
0.0000000000
11
276.8360366709
21
198.7640889190
31
0.0000000000
11
276.9079685925
21
199.2543872044
31
0.0000000000
0
SPLINE
5
4CE
100
AcDbEntity
8
0
100
AcDbSpline
62
7
6
CONTINUOUS
70
0
71
3
72
8
73
4
74
2
42
0.0000001000
43
0.0000001000
44
0.0000000001
12
0.2290183225
22
1.5438332971
32
0.0000000000
13
0.2447992661
23
1.5414145702
33
0.0000000000
40
0.0000000000
40
0.0000000000
40
0.0000000000
40
0.0000000000
40
1.0000000000
40
1.0000000000
40
1.0000000000
40
1.0000000000
10
276.9079685925
20
199.2543872044
30
0.0000000000
10
276.9843080333
20
199.7689983034
30
0.0000000000
10
277.0632460178
20
200.2832265820
30
0.0000000000
10
277.1448457732
20
200.7970314387
30
0.0000000000
11
276.9079685925
21
199.2543872044
31
0.0000000000
11
277.1448457732
21
200.7970314387
31
0.0000000000
0
SPLINE
5
4CF
100
AcDbEntity
8
0
100
AcDbSpline
62
7
6
CONTINUOUS
70
0
71
3
72
10
73
6
74
4
42
0.0000001000
43
0.0000001000
44
0.0000000001
12
2.7983333512
22
17.6201173675
32
0.0000000000
13
5.2669727743
23
17.0439301441
33
0.0000000000
40
0.0000000000
40
0.0000000000
40
0.0000000000
40
0.0000000000
40
0.2737490375
40
0.6465346034
40
1.0000000000
40
1.0000000000
40
1.0000000000
40
1.0000000000
10
277.1448457732
20
200.7970314387
30
0.0000000000
10
277.4001927937
20
202.4048614954
30
0.0000000000
10
278.0648252133
20
206.1924074654
30
0.0000000000
10
279.3344075671
20
212.0041278568
30
0.0000000000
10
280.4814091841
20
216.1705046860
30
0.0000000000
10
281.1019733909
20
218.1786511952
30
0.0000000000
11
277.1448457732
21
200.7970314387
31
0.0000000000
11
277.9910187036
21
205.6068386788
31
0.0000000000
11
279.4182098117
21
212.1020805138
31
0.0000000000
11
281.1019733909
21
218.1786511952
31
0.0000000000
0
SPLINE
5
4D0
100
AcDbEntity
8
0
100
AcDbSpline
62
7
6
CONTINUOUS
70
0
71
3
72
21
73
17
74
15
42
0.0000001000
43
0.0000001000
44
0.0000000001
12
-9.9844681174
22
-32.3097506692
32
0.0000000000
13
34.0422463199
23
1.5445131711
33
0.0000000000
40
0.0000000000
40
0.0000000000
40
0.0000000000
40
0.0000000000
40
0.0797588325
40
0.1656664187
40
0.2558675524
40
0.3483225489
40
0.4408997963
40
0.5314627819
40
0.6179568538
40
0.6985007973
40
0.7714916573
40
0.8357404567
40
0.8906773921
40
0.9367035818
40
0.9757731325
40
1.0000000000
40
1.0000000000
40
1.0000000000
40
1.0000000000
10
299.1540052008
20
185.6989170138
30
0.0000000000
10
298.8885553607
20
184.8399210162
30
0.0000000000
10
298.4252995015
20
183.0278994544
30
0.0000000000
10
297.9335730113
20
180.1834503978
30
0.0000000000
10
297.6282713734
20
177.1691414991
30
0.0000000000
10
297.5179856566
20
174.0664338717
30
0.0000000000
10
297.6057831663
20
170.9589110612
30
0.0000000000
10
297.8892115269
20
167.9304445379
30
0.0000000000
10
298.3603544779
20
165.0625116278
30
0.0000000000
10
299.0061087051
20
162.4317303854
30
0.0000000000
10
299.8088480937
20
160.1072969013
30
0.0000000000
10
300.7475318266
20
158.1482584983
30
0.0000000000
10
301.8014073950
20
156.6011905028
30
0.0000000000
10
302.9554457048
20
155.5005876456
30
0.0000000000
10
304.0895180131
20
154.9490907915
30
0.0000000000
10
304.8135807590
20
154.8822873241
30
0.0000000000
10
305.0884930890
20
154.8947602294
30
0.0000000000
11
299.1540052008
21
185.6989170138
31
0.0000000000
11
298.4760741653
21
183.0882754863
31
0.0000000000
11
297.9747213029
21
180.2267000936
31
0.0000000000
11
297.6636222129
21
177.1922471530
31
0.0000000000
11
297.5512628674
21
174.0676886304
31
0.0000000000
11
297.6407081365
21
170.9382543372
31
0.0000000000
11
297.9295181864
21
167.8893070831
31
0.0000000000
11
298.4098150318
21
165.0040142011
31
0.0000000000
11
299.0684974269
21
162.3610789598
31
0.0000000000
11
299.8875982328
21
160.0325937428
31
0.0000000000
11
300.8447745150
21
158.0820735570
31
0.0000000000
11
301.9139169995
21
156.5627235084
31
0.0000000000
11
303.0658622665
21
155.5159875057
31
0.0000000000
11
304.2691882520
21
154.9704177784
31
0.0000000000
11
305.0884930890
21
154.8947602294
31
0.0000000000
0
SPLINE
5
4D1
100
AcDbEntity
8
0
100
AcDbSpline
62
7
6
CONTINUOUS
70
0
71
3
72
8
73
4
74
2
42
0.0000001000
43
0.0000001000
44
0.0000000001
12
0.2330034019
22
-0.0070522052
32
0.0000000000
13
0.2326162274
23
0.0104162301
33
0.0000000000
40
0.0000000000
40
0.0000000000
40
0.0000000000
40
0.0000000000
40
1.0000000000
40
1.0000000000
40
1.0000000000
40
1.0000000000
10
284.1238751138
20
153.8916759248
30
0.0000000000
10
284.2015429144
20
153.8893251897
30
0.0000000000
10
284.2792661716
20
153.8898563384
30
0.0000000000
10
284.3568049141
20
153.8933284151
30
0.0000000000
11
284.1238751138
21
153.8916759248
31
0.0000000000
11
284.3568049141
21
153.8933284151
31
0.0000000000
0
SPLINE
5
4D2
100
AcDbEntity
8
0
100
AcDbSpline
62
7
6
CONTINUOUS
70
0
71
3
72
9
73
5
74
3
42
0.0000001000
43
0.0000001000
44
0.0000000001
12
-1.4967347377
22
-0.0005109269
32
0.0000000000
13
-1.4816386939
23
0.2052212138
33
0.0000000000
40
0.0000000000
40
0.0000000000
40
0.0000000000
40
0.0000000000
40
0.7889155189
40
1.0000000000
40
1.0000000000
40
1.0000000000
40
1.0000000000
10
252.1778514852
20
102.6396240725
30
0.0000000000
10
251.7842523977
20
102.6394897131
30
0.0000000000
10
251.2853918326
20
102.6662621425
30
0.0000000000
10
250.7905160183
20
102.7275462527
30
0.0000000000
10
250.6862657066
20
102.7419859238
30
0.0000000000
11
252.1778514852
21
102.6396240725
31
0.0000000000
11
250.9996147743
21
102.7032117287
31
0.0000000000
11
250.6862657066
21
102.7419859238
31
0.0000000000
0
SPLINE
5
4D3
100
AcDbEntity
8
0
100
AcDbSpline
62
7
6
CONTINUOUS
70
0
71
3
72
8
73
4
74
2
42
0.0000001000
43
0.0000001000
44
0.0000000001
12
-0.9348069760
22
0.1294797599
32
0.0000000000
13
-0.9209111379
23
0.2073379214
33
0.0000000000
40
0.0000000000
40
0.0000000000
40
0.0000000000
40
0.0000000000
40
1.0000000000
40
1.0000000000
40
1.0000000000
40
1.0000000000
10
250.6862657066
20
102.7419859238
30
0.0000000000
10
250.3746633813
20
102.7851458438
30
0.0000000000
10
250.0649398153
20
102.8417384704
30
0.0000000000
10
249.7579694360
20
102.9108511109
30
0.0000000000
11
250.6862657066
21
102.7419859238
31
0.0000000000
11
249.7579694360
21
102.9108511109
31
0.0000000000
0
SPLINE
5
4D4
100
AcDbEntity
8
0
100
AcDbSpline
62
7
6
CONTINUOUS
70
0
71
3
72
28
73
24
74
22
42
0.0000001000
43
0.0000001000
44
0.0000000001
12
-121.2374438213
22
27.2959230991
32
0.0000000000
13
36.5909634684
23
118.4084011797
33
0.0000000000
40
0.0000000000
40
0.0000000000
40
0.0000000000
40
0.0000000000
40
0.0138771997
40
0.0397590367
40
0.0684801361
40
0.1006517674
40
0.1365825830
40
0.1763536985
40
0.2198791216
40
0.2669484172
40
0.3172562528
40
0.3704235259
40
0.4260133544
40
0.4835439868
40
0.5424998834
40
0.6023417179
40
0.6625157666
40
0.7224629775
40
0.7816279327
40
0.8394678830
40
0.8954620572
40
0.9491215195
40
1.0000000000
40
1.0000000000
40
1.0000000000
40
1.0000000000
10
249.7579694360
20
102.9108511109
30
0.0000000000
10
249.1971573625
20
103.0371147696
30
0.0000000000
10
247.6167236481
20
103.5185917996
30
0.0000000000
10
245.0999217209
20
104.8599981482
30
0.0000000000
10
242.3179285461
20
107.1501863050
30
0.0000000000
10
239.6601893000
20
110.1568936963
30
0.0000000000
10
237.1459086051
20
113.8475790278
30
0.0000000000
10
234.7972136712
20
118.1848041112
30
0.0000000000
10
232.6372728521
20
123.1240337809
30
0.0000000000
10
230.6886694765
20
128.6134915788
30
0.0000000000
10
228.9723783622
20
134.5947376600
30
0.0000000000
10
227.5071429296
20
141.0034616382
30
0.0000000000
10
226.3090808385
20
147.7703325873
30
0.0000000000
10
225.3914182599
20
154.8218688031
30
0.0000000000
10
224.7643037903
20
162.0813212250
30
0.0000000000
10
224.4346786218
20
169.4695697388
30
0.0000000000
10
224.4061927130
20
176.9060321946
30
0.0000000000
10
224.6791610199
20
184.3095774024
30
0.0000000000
10
225.2505627629
20
191.5994566814
30
0.0000000000
10
226.1140661629
20
198.6961771004
30
0.0000000000
10
227.2601431158
20
205.5225697895
30
0.0000000000
10
228.6760528969
20
212.0041278568
30
0.0000000000
10
229.8230545139
20
216.1705046860
30
0.0000000000
10
230.4436187207
20
218.1786511952
30
0.0000000000
11
249.7579694360
21
102.9108511109
31
0.0000000000
11
248.1084327523
21
103.4094393579
31
0.0000000000
11
245.2618361361
21
104.8878551555
31
0.0000000000
11
242.4910128339
21
107.1222612885
31
0.0000000000
11
239.8263205656
21
110.0881771358
31
0.0000000000
11
237.2969542573
21
113.7531075026
31
0.0000000000
11
234.9306261756
21
118.0768986450
31
0.0000000000
11
232.7532623062
21
123.0121782024
31
0.0000000000
11
230.7887183033
21
128.5048742191
31
0.0000000000
11
229.0585181220
21
134.4948075683
31
0.0000000000
11
227.5816181976
21
140.9163512865
31
0.0000000000
11
226.3741997548
21
147.6991495972
31
0.0000000000
11
225.4494915226
21
154.7688887426
31
0.0000000000
11
224.8176247980
21
162.0481111811
31
0.0000000000
11
224.4855224451
21
169.4570642285
31
0.0000000000
11
224.4568230466
21
176.9145738448
31
0.0000000000
11
224.7318410393
21
184.3389339939
31
0.0000000000
11
225.3075632684
21
191.6488018326
31
0.0000000000
11
226.1776820008
21
198.7640889190
31
0.0000000000
11
227.3326640335
21
205.6068386788
31
0.0000000000
11
228.7598551416
21
212.1020805138
31
0.0000000000
11
230.4436187207
21
218.1786511952
31
0.0000000000
0
SPLINE
5
4D5
100
AcDbEntity
8
0
100
AcDbSpline
62
7
6
CONTINUOUS
70
0
71
3
72
9
73
5
74
3
42
0.0000001000
43
0.0000001000
44
0.0000000001
12
1.3535383390
22
1.8994260942
32
0.0000000000
13
1.0677220828
23
2.0728336109
33
0.0000000000
40
0.0000000000
40
0.0000000000
40
0.0000000000
40
0.0000000000
40
0.5416583542
40
1.0000000000
40
1.0000000000
40
1.0000000000
40
1.0000000000
10
284.4787618908
20
151.9566904955
30
0.0000000000
10
284.7231470071
20
152.2996371662
30
0.0000000000
10
285.1434889771
20
152.9549664760
30
0.0000000000
10
285.5180022116
20
153.6363902078
30
0.0000000000
10
285.6811293771
20
153.9530788641
30
0.0000000000
11
284.4787618908
21
151.9566904955
31
0.0000000000
11
285.1650646208
21
153.0172222979
31
0.0000000000
11
285.6811293771
21
153.9530788641
31
0.0000000000
0
ENDSEC
0
SECTION
2
OBJECTS
0
DICTIONARY
5
C
100
AcDbDictionary
280
0
281
1
3
ACAD_GROUP
350
D
3
ACAD_MLINESTYLE
350
17
3
ACAD_LAYOUT
350
1A
3
ACAD_PLOTSETTINGS
350
19
3
ACAD_PLOTSTYLENAME
350
E
0
DICTIONARY
5
D
102
{ACAD_REACTORS
330
C
102
}
100
AcDbDictionary
280
0
281
1
0
ACDBDICTIONARYWDFLT
5
E
102
{ACAD_REACTORS
330
C
102
}
100
AcDbDictionary
281
1
3
Normal
350
F
100
AcDbDictionaryWithDefault
340
F
0
DICTIONARY
5
17
102
{ACAD_REACTORS
330
C
102
}
100
AcDbDictionary
280
0
281
1
3
Standard
350
18
0
DICTIONARY
5
19
102
{ACAD_REACTORS
330
C
102
}
100
AcDbDictionary
281
1
0
DICTIONARY
5
1A
102
{ACAD_REACTORS
330
C
102
}
100
AcDbDictionary
281
1
3
Layout1
350
1E
3
Model
350
22
0
ACDBPLACEHOLDER
5
F
102
{ACAD_REACTORS
330
E
102
}
0
MLINESTYLE
5
18
102
{ACAD_REACTORS
330
17
102
}
100
AcDbMlineStyle
2
STANDARD
70
0
3

62
256
51
90.0
52
90.0
71
2
49
0.5
62
256
6
BYLAYER
49
-0.5
62
256
6
BYLAYER
0
LAYOUT
5
1E
102
{ACAD_REACTORS
330
1A
102
}
100
AcDbPlotSettings
1

2

4

6

40
0.0
41
0.0
42
0.0
43
0.0
44
0.0
45
0.0
46
0.0
47
0.0
48
0.0
49
0.0
140
0.0
141
0.0
142
1.0
143
1.0
70
0
72
0
73
0
74
0
7

75
0
147
1.0
148
0.0
149
0.0
100
AcDbLayout
1
Layout1
70
0
71
0
10
0.0
20
0.0
11
0.0
21
0.0
12
0.0
22
0.0
32
0.0
14
0.0
24
0.0
34
0.0
15
0.0
25
0.0
35
0.0
146
0.0
13
0.0
23
0.0
33
0.0
16
0.0
26
0.0
36
0.0
17
0.0
27
0.0
37
0.0
76
0
330
1B
331
0
345
0
346
0
0
LAYOUT
5
22
102
{ACAD_REACTORS
330
1A
102
}
100
AcDbPlotSettings
1

2

4

6

40
0.0
41
0.0
42
0.0
43
0.0
44
0.0
45
0.0
46
0.0
47
0.0
48
0.0
49
0.0
140
0.0
141
0.0
142
1.0
143
1.0
70
0
72
0
73
0
74
0
7

75
0
147
1.0
148
0.0
149
0.0
100
AcDbLayout
1
Model
70
0
71
0
10
0.0
20
0.0
11
0.0
21
0.0
12
0.0
22
0.0
32
0.0
14
0.0
24
0.0
34
0.0
15
0.0
25
0.0
35
0.0
146
0.0
13
0.0
23
0.0
33
0.0
16
0.0
26
0.0
36
0.0
17
0.0
27
0.0
37
0.0
76
0
330
1F
331
0
345
0
346
0
0
ENDSEC
0
EOF
