  0
SECTION
  2
HEADER
  9
$ACADVER
  1
AC1009
  9
$INSBASE
 10
0
 20
0
  9
$EXTMIN
 10
-37.1840340228373
 20
810.8514411300291
  9
$EXTMAX
 10
382.8159659771627
 20
1107.851441130029
  9
$LIMMIN
 10
-37.1840340228373
 20
810.8514411300291
  9
$LIMMAX
 10
382.8159659771627
 20
1107.851441130029
  9
$VIEWCTR
 10
10
 20
10
  9
$VIEWSIZE
 40
10
  9
$SNAPMODE
 70
0
  9
$SNAPUNIT
 10
1
 20
1
  9
$SNAPBASE
 10
0
 20
0
  9
$SNAPANG
 50
0
  9
$SNAPSTYLE
 70
0
  9
$SNAPISOPAIR
 70
0
  9
$GRIDMODE
 70
0
  9
$GRIDUNIT
 10
0
 20
0
  9
$ORTHOMODE
 70
0
  9
$REGENMODE
 70
1
  9
$FILLMODE
 70
1
  9
$QTEXTMODE
 70
0
  9
$DRAGMODE
 70
2
  9
$LTSCALE
 40
1
  9
$OSMODE
 70
0
  9
$ATTMODE
 70
1
  9
$TEXTSIZE
 40
3.5
  9
$TRACEWID
 40
0.5
  9
$TEXTSTYLE
  7
STANDARD
  9
$CLAYER
  8
0
  9
$CELTYPE
  6
BYLAYER
  9
$CECOLOR
 62
256
  9
$DIMSCALE
 40
1
  9
$DIMASZ
 40
0.18
  9
$DIMEXO
 40
0.0625
  9
$DIMDLI
 40
0.38
  9
$DIMRND
 40
0
  9
$DIMDLE
 40
0
  9
$DIMEXE
 40
0.18
  9
$DIMTP
 40
0
  9
$DIMTM
 40
0
  9
$DIMTXT
 40
0.18
  9
$DIMCEN
 40
0.09
  9
$DIMTSZ
 40
0
  9
$DIMTOL
 70
0
  9
$DIMLIM
 70
0
  9
$DIMTIH
 70
1
  9
$DIMTOH
 70
1
  9
$DIMSE1
 70
0
  9
$DIMSE2
 70
0
  9
$DIMTAD
 70
0
  9
$DIMZIN
 70
0
  9
$DIMBLK
  1

  9
$DIMASO
 70
1
  9
$DIMSHO
 70
1
  9
$DIMPOST
  1

  9
$DIMAPOST
  1

  9
$DIMALT
 70
0
  9
$DIMALTD
 70
2
  9
$DIMALTF
 40
25.4
  9
$DIMLFAC
 40
1
  9
$DIMTOFL
 70
0
  9
$DIMTVP
 40
0
  9
$DIMTIX
 70
0
  9
$DIMSOXD
 70
0
  9
$DIMSAH
 70
0
  9
$DIMBLK1
  1

  9
$DIMBLK2
  1

  9
$DIMSTYLE
  2
*UNNAMED
  9
$DIMCLRD
 70
0
  9
$DIMCLRE
 70
0
  9
$DIMCLRT
 70
0
  9
$DIMTFAC
 40
1
  9
$DIMGAP
 40
0.09
  9
$LUNITS
 70
2
  9
$LUPREC
 70
4
  9
$AXISMODE
 70
0
  9
$AXISUNIT
 10
0
 20
0
  9
$SKETCHINC
 40
0.1
  9
$FILLETRAD
 40
2
  9
$AUNITS
 70
0
  9
$AUPREC
 70
0
  9
$MENU
  1
ACAD
  9
$ELEVATION
 40
0
  9
$THICKNESS
 40
0
  9
$VIEWDIR
 10
0
 20
0
 30
1
  9
$LIMCHECK
 70
0
  9
$BLIPMODE
 70
1
  9
$CHAMFERA
 40
0
  9
$CHAMFERB
 40
0
  9
$FASTZOOM
 70
1
  9
$SKPOLY
 70
0
  9
$ANGBASE
 50
0
  9
$ANGDIR
 70
0
  9
$PDMODE
 70
0
  9
$PDSIZE
 40
0
  9
$PLINEWID
 40
0
  9
$COORDS
 70
2
  0
ENDSEC
  0
SECTION
  2
TABLES
  0
TABLE
  2
DIMSTYLE
 70
6
  0
DIMSTYLE
  2
DMST_1
 70
0
  3

  4

  5

  6

  7

 40
1
 41
1
 42
0
 43
7
 44
0
 45
0
 46
0
 47
0
 48
0
140
1
141
0
142
0
143
25.4
144
1
145
0
146
1
147
0.09
 71
0
 72
0
 73
0
 74
0
 75
0
 76
0
 77
1
 78
9
170
0
171
2
172
0
173
0
174
0
175
0
176
2
177
2
178
2
  0
DIMSTYLE
  2
DMST_2
 70
0
  3

  4

  5

  6

  7

 40
1
 41
1.066666666666667
 42
0.3333333333333333
 43
7
 44
0.3333333333333333
 45
0
 46
0
 47
0
 48
0
140
1.066666666666667
141
0
142
0
143
25.4
144
1
145
0
146
1
147
0.09
 71
0
 72
0
 73
0
 74
0
 75
0
 76
0
 77
1
 78
9
170
0
171
2
172
0
173
0
174
0
175
0
176
2
177
2
178
2
  0
DIMSTYLE
  2
DMST_3
 70
0
  3

  4

  5

  6

  7

 40
1
 41
1.066666666666667
 42
0.3333333333333333
 43
7
 44
0.3333333333333333
 45
0
 46
0
 47
0
 48
0
140
1.066666666666667
141
0
142
0
143
25.4
144
1
145
0
146
1
147
0.09
 71
0
 72
0
 73
0
 74
0
 75
0
 76
0
 77
1
 78
9
170
0
171
2
172
1
173
0
174
0
175
0
176
2
177
2
178
2
  0
DIMSTYLE
  2
DMST_4
 70
0
  3

  4

  5

  6

  7

 40
1
 41
1
 42
0
 43
7
 44
0
 45
0
 46
0
 47
0
 48
0
140
1
141
0
142
0
143
25.4
144
1
145
0
146
1
147
0.09
 71
0
 72
0
 73
0
 74
0
 75
0
 76
0
 77
1
 78
9
170
0
171
2
172
1
173
0
174
0
175
0
176
2
177
2
178
2
  0
DIMSTYLE
  2
DMST_5
 70
0
  3

  4

  5

  6

  7

 40
1
 41
1.066666666666667
 42
0.3333333333333333
 43
7
 44
0.3333333333333333
 45
0
 46
0
 47
0
 48
0
140
1.066666666666667
141
0
142
0
143
25.4
144
1
145
0
146
1
147
0.09
 71
0
 72
0
 73
0
 74
0
 75
0
 76
0
 77
1
 78
1
170
0
171
2
172
0
173
0
174
0
175
0
176
2
177
2
178
2
  0
DIMSTYLE
  2
DMST_6
 70
0
  3

  4

  5

  6

  7

 40
1
 41
1
 42
0
 43
7
 44
0
 45
0
 46
0
 47
0
 48
0
140
1
141
0
142
0
143
25.4
144
1
145
0
146
1
147
0.09
 71
0
 72
0
 73
0
 74
0
 75
0
 76
0
 77
1
 78
1
170
0
171
2
172
0
173
0
174
0
175
0
176
2
177
2
178
2
  0
ENDTAB
  0
TABLE
  2
LTYPE
 70
9
  0
LTYPE
  2
CONTINUOUS
 70
64
  3
Solid line
 72
65
 73
0
 40
0
  0
LTYPE
  2
BORDER
 70
64
  3
__ __ . __ __ .
 72
65
 73
6
 40
19.34210526315789
 49
5.526315789473684
 49
-2.763157894736842
 49
5.526315789473684
 49
-2.763157894736842
 49
0
 49
-2.763157894736842
  0
LTYPE
  2
CENTER
 70
64
  3
____ _ ____ _
 72
65
 73
4
 40
22.10526315789474
 49
13.81578947368421
 49
-2.763157894736842
 49
2.763157894736842
 49
-2.763157894736842
  0
LTYPE
  2
DASHDOT
 70
64
  3
__ . __ . __ .
 72
65
 73
4
 40
11.05263157894737
 49
5.526315789473684
 49
-2.763157894736842
 49
0
 49
-2.763157894736842
  0
LTYPE
  2
DASHED
 70
64
  3
__ __ __ __ __
 72
65
 73
2
 40
8.289473684210526
 49
5.526315789473684
 49
-2.763157894736842
  0
LTYPE
  2
DIVIDE
 70
64
  3
__ . . __ . . 
 72
65
 73
6
 40
13.81578947368421
 49
5.526315789473684
 49
-2.763157894736842
 49
0
 49
-2.763157894736842
 49
0
 49
-2.763157894736842
  0
LTYPE
  2
DOT
 70
64
  3
..............
 72
65
 73
4
 40
5.526315789473684
 49
0
 49
-2.763157894736842
 49
0
 49
-2.763157894736842
  0
LTYPE
  2
HIDDEN
 70
64
  3
_ _ _ _ _ _ _
 72
65
 73
2
 40
4.144736842105263
 49
2.763157894736842
 49
-1.381578947368421
  0
LTYPE
  2
PHANTOM
 70
64
  3
_____ _ _ _____ _ _ 
 72
65
 73
6
 40
27.63157894736842
 49
13.81578947368421
 49
-2.763157894736842
 49
2.763157894736842
 49
-2.763157894736842
 49
2.763157894736842
 49
-2.763157894736842
  0
ENDTAB
  0
TABLE
  2
LAYER
 70
4
  0
LAYER
  2
1
 70
0
 62
7
  6
CONTINUOUS
  0
LAYER
  2
CONSTRUCTION
 70
0
 62
7
  6
CONTINUOUS
  0
LAYER
  2
0
 70
0
 62
7
  6
CONTINUOUS
  0
ENDTAB
  0
TABLE
  2
STYLE
 70
4
  0
STYLE
  2
STANDARD
 70
0
 40
0
 41
1
 50
0
 71
0
 42
3.5
  3
txt
  4

  0
STYLE
  2
SIMPLEX
 70
0
 40
0
 41
1
 50
0
 71
0
 42
3.5
  3
simplex
  4

  0
STYLE
  2
COMPLEX
 70
0
 40
0
 41
1
 50
0
 71
0
 42
3.5
  3
complex
  4

  0
STYLE
  2
ITALIC
 70
0
 40
0
 41
1
 50
0
 71
0
 42
3.5
  3
italic
  4

  0
ENDTAB
  0
TABLE
  2
VIEW
 70
0
  0
ENDTAB
  0
ENDSEC
  0
SECTION
  2
BLOCKS
  0
BLOCK
  8
0
  2
TOP__S__1
 70
0
 10
-1537.480007588054
 20
1178.678279707898
 30
0
  0
LINE
  8
1
 62
7
 10
-1542.480007588054
 20
1468.625793756966
 30
0
 11
-1542.480007588054
 21
1470.678279707898
 31
0
  0
LINE
  8
1
 62
7
 10
-1952.480007588054
 20
1470.678279707898
 30
0
 11
-1952.480007588054
 21
1183.678279707898
 31
0
  0
LINE
  8
1
 62
7
 10
-1542.480007588054
 20
1470.678279707898
 30
0
 11
-1952.480007588054
 21
1470.678279707898
 31
0
  0
LINE
  8
1
 62
7
 10
-1542.480007588054
 20
1183.678279707898
 30
0
 11
-1542.480007588054
 21
1470.678279707898
 31
0
  0
LINE
  8
1
 62
7
 10
-1952.480007588054
 20
1183.678279707898
 30
0
 11
-1542.480007588054
 21
1183.678279707898
 31
0
  0
LINE
  8
1
 62
2
 10
-1957.480007588054
 20
1475.678279707898
 30
0
 11
-1957.480007588054
 21
1178.678279707898
 31
0
  0
LINE
  8
1
 62
2
 10
-1537.480007588054
 20
1475.678279707898
 30
0
 11
-1957.480007588054
 21
1475.678279707898
 31
0
  0
LINE
  8
1
 62
2
 10
-1537.480007588054
 20
1178.678279707898
 30
0
 11
-1537.480007588054
 21
1475.678279707898
 31
0
  0
LINE
  8
1
 62
2
 10
-1957.480007588054
 20
1178.678279707898
 30
0
 11
-1537.480007588054
 21
1178.678279707898
 31
0
  0
LINE
  8
1
 62
7
 10
-1747.480007588054
 20
1178.678279707898
 30
0
 11
-1747.480007588054
 21
1183.678279707898
 31
0
  0
LINE
  8
1
 62
7
 10
-1747.480007588054
 20
1470.678279707898
 30
0
 11
-1747.480007588054
 21
1475.678279707898
 31
0
  0
LINE
  8
1
 62
2
  6
DOT
 10
-1690.181007457437
 20
1208.378279707851
 30
0
 11
-1592.449547517467
 21
1208.378279707851
 31
0
  0
LINE
  8
1
 62
2
  6
DOT
 10
-1690.181007457437
 20
1202.078279707863
 30
0
 11
-1592.556474716523
 21
1202.078279707863
 31
0
  0
LINE
  8
1
 62
2
  6
DOT
 10
-1592.342620318411
 20
1195.778279707758
 30
0
 11
-1690.287934656493
 21
1195.778279707758
 31
0
  0
LINE
  8
1
 62
7
 10
-1590.144097738206
 20
1193.678279707898
 30
0
 11
-1692.480007588054
 21
1193.678279707898
 31
0
  0
LINE
  8
1
 62
7
 10
-1613.243461924844
 20
1236.678279707898
 30
0
 11
-1613.243461924844
 21
1226.678279707898
 31
0
  0
LINE
  8
1
 62
7
 10
-1742.480007588054
 20
1218.298733335852
 30
0
 11
-1692.480007588054
 21
1218.298733335852
 31
0
  0
LINE
  8
1
 62
2
  6
DOT
 10
-1608.360850889823
 20
1244.678279707898
 30
0
 11
-1567.144097738206
 21
1244.678279707898
 31
0
  0
LINE
  8
1
 62
2
  6
DOT
 10
-1652.980007588054
 20
1240.678279707898
 30
0
 11
-1567.144097738206
 21
1240.678279707898
 31
0
  0
LINE
  8
1
 62
2
 10
-1590.144097738206
 20
1213.678279707898
 30
0
 11
-1565.144097738206
 21
1213.678279707898
 31
0
  0
LINE
  8
1
 62
2
 10
-1590.144097738206
 20
1193.678279707898
 30
0
 11
-1565.144097738206
 21
1193.678279707898
 31
0
  0
LINE
  8
1
 62
7
 10
-1590.144097738206
 20
1203.678279707898
 30
0
 11
-1565.144097738206
 21
1203.678279707898
 31
0
  0
LINE
  8
1
 62
7
 10
-1590.144097738206
 20
1183.678279707898
 30
0
 11
-1590.144097738206
 21
1236.678279707898
 31
0
  0
LINE
  8
1
 62
7
 10
-1654.980007588054
 20
1248.678279707898
 30
0
 11
-1654.980007588054
 21
1236.678279707898
 31
0
  0
LINE
  8
1
 62
7
 10
-1692.480007588054
 20
1214.678279707898
 30
0
 11
-1590.144097738206
 21
1214.678279707898
 31
0
  0
LINE
  8
1
 62
7
 10
-1613.243461924844
 20
1226.678279707898
 30
0
 11
-1613.243461924844
 21
1214.678279707898
 31
0
  0
LINE
  8
1
 62
7
 10
-1633.444756274116
 20
1236.678279707898
 30
0
 11
-1633.444756274116
 21
1226.678279707898
 31
0
  0
LINE
  8
1
 62
7
 10
-1565.144097738206
 20
1236.678279707898
 30
0
 11
-1742.480007588054
 21
1236.678279707898
 31
0
  0
LINE
  8
1
 62
7
 10
-1692.480007588054
 20
1236.678279707898
 30
0
 11
-1692.480007588054
 21
1183.678279707898
 31
0
  0
LINE
  8
1
 62
7
 10
-1565.144097738206
 20
1248.678279707898
 30
0
 11
-1565.144097738206
 21
1183.678279707898
 31
0
  0
LINE
  8
1
 62
7
 10
-1565.144097738206
 20
1248.678279707898
 30
0
 11
-1567.378032328683
 21
1248.678279707898
 31
0
  0
LINE
  8
1
 62
2
  6
DOT
 10
-1740.480007588054
 20
1240.678279707898
 30
0
 11
-1656.980007588054
 21
1240.678279707898
 31
0
  0
LINE
  8
1
 62
2
  6
DOT
 10
-1694.941546049672
 20
1244.678279707898
 30
0
 11
-1656.980007588054
 21
1244.678279707898
 31
0
  0
LINE
  8
1
 62
7
 10
-1742.480007588054
 20
1183.678279707898
 30
0
 11
-1742.480007588054
 21
1248.678279707898
 31
0
  0
LINE
  8
1
 62
7
 10
-1692.480007588054
 20
1208.69385883997
 30
0
 11
-1742.480007588054
 21
1208.69385883997
 31
0
  0
LINE
  8
1
 62
7
 10
-1742.480007588054
 20
1199.088984344088
 30
0
 11
-1692.480007588054
 21
1199.088984344088
 31
0
  0
LINE
  8
1
 62
2
 10
-1550.779349168303
 20
1248.678279707898
 30
0
 11
-1550.779349168303
 21
1356.26333821826
 31
0
  0
LINE
  8
1
 62
7
 10
-1742.480007588054
 20
1248.678279707898
 30
0
 11
-1542.480007588054
 21
1248.678279707898
 31
0
  0
LINE
  8
1
 62
2
 10
-1559.078690748434
 20
1248.678279707898
 30
0
 11
-1559.078690748434
 21
1356.26333821826
 31
0
  0
LINE
  8
1
 62
2
  6
DOT
 10
-1667.339435788808
 20
1222.678279707898
 30
0
 11
-1635.370834030681
 21
1222.678279707898
 31
0
  0
LINE
  8
1
 62
2
  6
DOT
 10
-1635.370834030681
 20
1218.678279707898
 30
0
 11
-1689.673097485914
 21
1218.678279707898
 31
0
  0
LINE
  8
1
 62
7
 10
-1705.426536711054
 20
1199.088984344088
 30
0
 11
-1705.426536711054
 21
1183.678279707898
 31
0
  0
LINE
  8
1
 62
7
 10
-1692.480007588054
 20
1226.678279707898
 30
0
 11
-1590.144097738206
 21
1226.678279707898
 31
0
  0
LINE
  8
1
 62
7
 10
-1658.741180734597
 20
1236.678279707898
 30
0
 11
-1658.741180734597
 21
1226.678279707898
 31
0
  0
LINE
  8
1
 62
2
 10
-1567.378032328683
 20
1255.299385478595
 30
0
 11
-1542.480007588054
 21
1255.299385478595
 31
0
  0
LINE
  8
1
 62
2
 10
-1567.378032328683
 20
1270.896171701947
 30
0
 11
-1542.480007588054
 21
1270.896171701947
 31
0
  0
LINE
  8
1
 62
2
 10
-1567.378032328683
 20
1288.227014495749
 30
0
 11
-1542.480007588054
 21
1288.227014495749
 31
0
  0
LINE
  8
1
 62
2
 10
-1567.378032328683
 20
1366.299385478595
 30
0
 11
-1542.480007588054
 21
1366.299385478595
 31
0
  0
LINE
  8
1
 62
2
 10
-1567.378032328683
 20
1381.896171701947
 30
0
 11
-1542.480007588054
 21
1381.896171701947
 31
0
  0
LINE
  8
1
 62
2
 10
-1567.378032328683
 20
1399.227014495749
 30
0
 11
-1542.480007588054
 21
1399.227014495749
 31
0
  0
LINE
  8
1
 62
2
 10
-1569.779780901392
 20
1359.244579664888
 30
0
 11
-1542.480007588054
 21
1359.244579664888
 31
0
  0
LINE
  8
1
 62
2
 10
-1567.378032328683
 20
1468.625793756966
 30
0
 11
-1567.378032328683
 21
1366.299385478595
 31
0
  0
LINE
  8
1
 62
2
 10
-1546.629678378237
 20
1356.26333821826
 30
0
 11
-1546.629678378237
 21
1248.678279707898
 31
0
  0
LINE
  8
1
 62
2
 10
-1554.929019958369
 20
1356.26333821826
 30
0
 11
-1554.929019958369
 21
1248.678279707898
 31
0
  0
LINE
  8
1
 62
2
 10
-1563.228361538617
 20
1356.26333821826
 30
0
 11
-1563.228361538617
 21
1248.678279707898
 31
0
  0
LINE
  8
1
 62
2
 10
-1567.378032328683
 20
1356.26333821826
 30
0
 11
-1567.378032328683
 21
1248.678279707898
 31
0
  0
LINE
  8
1
 62
2
 10
-1542.480007588054
 20
1356.26333821826
 30
0
 11
-1569.779780901392
 21
1356.26333821826
 31
0
  0
LINE
  8
1
 62
7
 10
-1542.480007588054
 20
1356.26333821826
 30
0
 11
-1542.480007588054
 21
1359.244579664888
 31
0
  0
LINE
  8
1
 62
2
 10
-1559.078690748434
 20
1359.244579664888
 30
0
 11
-1559.078690748434
 21
1468.625793756966
 31
0
  0
LINE
  8
1
 62
2
 10
-1550.779349168303
 20
1359.244579664888
 30
0
 11
-1550.779349168303
 21
1468.625793756966
 31
0
  0
LINE
  8
1
 62
7
 10
-1633.444756274116
 20
1226.678279707898
 30
0
 11
-1633.444756274116
 21
1214.678279707898
 31
0
  0
LINE
  8
1
 62
2
 10
-1546.629678378237
 20
1468.625793756966
 30
0
 11
-1546.629678378237
 21
1359.244579664888
 31
0
  0
LINE
  8
1
 62
2
 10
-1554.929019958369
 20
1468.625793756966
 30
0
 11
-1554.929019958369
 21
1359.244579664888
 31
0
  0
LINE
  8
1
 62
2
 10
-1563.228361538617
 20
1468.625793756966
 30
0
 11
-1563.228361538617
 21
1359.244579664888
 31
0
  0
LINE
  8
1
 62
2
 10
-1567.378032328683
 20
1468.625793756966
 30
0
 11
-1567.378032328683
 21
1359.244579664888
 31
0
  0
LINE
  8
1
 62
2
 10
-1569.679940389008
 20
1468.625793756966
 30
0
 11
-1542.480007588054
 21
1468.625793756966
 31
0
  0
LINE
  8
1
 62
7
 10
-1565.144097738206
 20
1193.678279707898
 30
0
 11
-1542.480007588054
 21
1193.678279707898
 31
0
  0
LINE
  8
1
 62
7
 10
-1590.144097738206
 20
1223.678279707898
 30
0
 11
-1565.144097738206
 21
1223.678279707898
 31
0
  0
TEXT
  8
1
 62
2
 10
-1568.275203600317
 20
1420.902746161401
 30
0
 40
1.3
  1
Modifiche (Modifications)
 50
90
 41
1.08
  0
TEXT
  8
1
 62
2
 10
-1569.628836282298
 20
1389.204270623455
 30
0
 40
1.2
  1
Dis.
 50
90
 41
1.08
  0
TEXT
  8
1
 62
2
 10
-1567.924091520177
 20
1386.217228020517
 30
0
 40
1.2
  1
(Draftsm.)
 50
90
 41
1.08
  7
SIMPLEX
  0
TEXT
  8
1
 62
2
 10
-1568.050368909964
 20
1371.208094062911
 30
0
 40
1.2
  1
(Date)
 50
90
 41
1.08
  7
SIMPLEX
  0
TEXT
  8
1
 62
2
 10
-1569.755113672085
 20
1371.802207041459
 30
0
 40
1.2
  1
Data
 50
90
 41
1.08
  0
TEXT
  8
1
 62
2
 10
-1567.924091520177
 20
1360.749545996479
 30
0
 40
1.2
  1
(Ind.)
 50
90
 41
1.08
  7
SIMPLEX
  0
TEXT
  8
1
 62
2
 10
-1569.628836282298
 20
1360.519779198935
 30
0
 40
1.2
  1
Indic.
 50
90
 41
1.08
  0
TEXT
  8
1
 62
2
 10
-1568.275203600317
 20
1309.281595883105
 30
0
 40
1.3
  1
Modifiche (Modifications)
 50
90
 41
1.08
  0
TEXT
  8
1
 62
2
 10
-1569.628836282298
 20
1277.455037320774
 30
0
 40
1.2
  1
 Dis.
 50
90
 41
1.08
  0
TEXT
  8
1
 62
2
 10
-1567.924091520177
 20
1275.338338890906
 30
0
 40
1.2
  1
(Draftsm.)
 50
90
 41
1.08
  7
SIMPLEX
  0
TEXT
  8
1
 62
2
 10
-1569.755113672085
 20
1260.607966959422
 30
0
 40
1.2
  1
Data
 50
90
 41
1.08
  0
TEXT
  8
1
 62
2
 10
-1568.050368909964
 20
1260.24508650952
 30
0
 40
1.2
  1
(Date)
 50
90
 41
1.08
  7
SIMPLEX
  0
TEXT
  8
1
 62
2
 10
-1567.924091520177
 20
1250.010441325345
 30
0
 40
1.2
  1
(Ind.)
 50
90
 41
1.08
  7
SIMPLEX
  0
TEXT
  8
1
 62
2
 10
-1569.628836282298
 20
1249.79636205253
 30
0
 40
1.2
  1
Indic.
 50
90
 41
1.08
  0
TEXT
  8
1
 62
2
 10
-1611.947379064018
 20
1224.33726021359
 30
0
 40
1.2
  1
Ritiro %%%
 41
1.08
  0
TEXT
  8
1
 62
2
 10
-1611.947379064018
 20
1221.69726021359
 30
0
 40
1.2
  1
(Contraction %%%)
 41
1.08
  0
TEXT
  8
1
 62
2
 10
-1631.889607683918
 20
1224.482071896585
 30
0
 40
1.2
  1
Colore
 41
1.08
  0
TEXT
  8
1
 62
2
 10
-1631.889607683918
 20
1221.842071896585
 30
0
 40
1.2
  1
(Colour)
 41
1.08
  0
TEXT
  8
1
 62
2
 10
-1689.480007588054
 20
1223.472308412253
 30
0
 40
1.2
  1
Materiale (Mat.)
 41
1.08
  0
TEXT
  8
1
 62
2
 10
-1689.486176129678
 20
1209.678279707898
 30
0
 40
1.5
  1
Descrizione (Description)
 41
0.9
  0
TEXT
  8
1
 62
2
 10
-1703.350838173297
 20
1196.259028996056
 30
0
 40
1.3
  1
Modifica
 41
1.08
  0
TEXT
  8
1
 62
2
 10
-1704.230042845138
 20
1194.07506412189
 30
0
 40
1.2
  1
(Modific.)
 41
1.35
  0
TEXT
  8
1
 62
2
 10
-1689.967153059232
 20
1190.519320094775
 30
0
 40
1.5
  1
Progetto (Project)
 41
0.9
  0
TEXT
  8
1
 62
2
 10
-1563.96326228043
 20
1191.337755316216
 30
0
 40
1.2
  1
Foglio
 41
1.08
  0
TEXT
  8
1
 62
2
 10
-1563.96326228043
 20
1188.697755316216
 30
0
 40
1.2
  1
(Sheet)
 41
1.08
  0
TEXT
  8
1
 62
2
 10
-1588.957113514626
 20
1191.094891882732
 30
0
 40
1.2
  1
Data
 41
1.08
  0
TEXT
  8
1
 62
2
 10
-1588.957113514626
 20
1188.454891882732
 30
0
 40
1.2
  1
(Date)
 41
1.08
  0
TEXT
  8
1
 62
2
 10
-1588.84454255511
 20
1201.256908736096
 30
0
 40
1.2
  1
Contr.
 41
1.08
  0
TEXT
  8
1
 62
2
 10
-1588.84454255511
 20
1198.616908736096
 30
0
 40
1.2
  1
(Check)
 41
1.08
  0
TEXT
  8
1
 62
2
 10
-1588.84454255511
 20
1221.29096017749
 30
0
 40
1.2
  1
Dis.
 41
1.08
  0
TEXT
  8
1
 62
2
 10
-1588.84454255511
 20
1218.65096017749
 30
0
 40
1.2
  1
(Draftsm.)
 41
1.08
  0
TEXT
  8
1
 62
2
 10
-1588.84454255511
 20
1233.949444817351
 30
0
 40
1.2
  1
Scala
 41
1.08
  0
TEXT
  8
1
 62
2
 10
-1588.84454255511
 20
1231.309444817351
 30
0
 40
1.2
  1
(Scale)
 41
1.08
  0
TEXT
  8
1
 62
2
 10
-1611.868689532452
 20
1234.230882349133
 30
0
 40
1.2
  1
Toll. Gen.
 41
1.08
  0
TEXT
  8
1
 62
2
 10
-1611.817858810571
 20
1231.539067894238
 30
0
 40
1.2
  1
(Gen. Tol.)
 41
1.08
  0
TEXT
  8
1
 62
2
 10
-1632.142101815444
 20
1234.122429350049
 30
0
 40
1.3
  1
Peso
 41
1.08
  0
TEXT
  8
1
 62
2
 10
-1632.142101815444
 20
1231.522429350049
 30
0
 40
1.3
  1
(Weight)
 41
1.08
  0
TEXT
  8
1
 62
2
 10
-1651.980007588054
 20
1244.678279707898
 30
0
 40
1.3
  1
Tratt. superfic. (Surface treatments)
 41
0.9899999999999999
  0
TEXT
  8
1
 62
2
 10
-1657.458654604909
 20
1234.457262118809
 30
0
 40
1.3
  1
Linea
 41
1.08
  0
TEXT
  8
1
 62
2
 10
-1657.770974468409
 20
1231.694437618663
 30
0
 40
1.2
  1
(Line)
 41
1.08
  0
TEXT
  8
1
 62
2
 10
-1739.480007588052
 20
1244.678279707898
 30
0
 40
1.2
  1
Tratt. termici (Heat treatments)
 41
1.35
  0
TEXT
  8
1
 62
2
 10
-1741.280007588053
 20
1210.854245130528
 30
0
 40
1.2
  1
N%%d
 41
0.9
  0
TEXT
  8
1
 62
2
 10
-1741.299786878165
 20
1215.706761787113
 30
0
 40
1.2
  1
Dis. Cliente
 41
1.35
  0
TEXT
  8
1
 62
2
 10
-1741.299786878165
 20
1213.066761787113
 30
0
 40
1.2
  1
(Customer Drawing)
 41
1.35
  0
TEXT
  8
1
 62
2
 10
-1741.363205147049
 20
1206.523176260965
 30
0
 40
1.2
  1
Dis. Complessivo
 41
1.35
  0
TEXT
  8
1
 62
2
 10
-1741.363205147049
 20
1203.883176260965
 30
0
 40
1.2
  1
(Assembly drawing)
 41
1.35
  0
TEXT
  8
1
 62
2
 10
-1741.280007588053
 20
1200.730659794506
 30
0
 40
1.2
  1
N%%d
 41
0.9
  0
TEXT
  8
1
 62
2
 10
-1741.280007588053
 20
1191.257212966302
 30
0
 40
1.2
  1
N%%d
 41
0.9
  0
TEXT
  8
1
 62
2
 10
-1741.363205147049
 20
1196.452272662647
 30
0
 40
1.2
  1
Disegno o stp.
 41
1.35
  0
TEXT
  8
1
 62
2
 10
-1741.363205147049
 20
1193.812272662647
 30
0
 40
1.2
  1
(Drawing or mould)
 41
1.35
  0
TEXT
  8
1
 62
2
 10
-1555.011802743659
 20
1180.303934639602
 30
0
 40
2
  1
 UNI A/3
 41
0.9
  0
TEXT
  8
1
 62
2
 10
-1689.062794376053
 20
1230.576553153389
 30
0
 40
2.5
  1
UFFICI TECNICI
 41
0.9
  0
TEXT
  8
1
 62
2
 10
-1562.372264391837
 20
1195.813067288625
 30
0
 40
1.180511166170861
  1
Proprieta' della Marbett S.p.A..
 50
90
 41
1.350000000000001
  0
TEXT
  8
1
 62
2
 10
-1559.775139826261
 20
1195.813067288625
 30
0
 40
1.180511166170861
  1
Senza autorizzazione scritta della
 50
90
 41
1.350000000000001
  0
TEXT
  8
1
 62
2
 10
-1557.178015260685
 20
1195.813067288625
 30
0
 40
1.180511166170861
  1
stessa il presente disegno non puo'
 50
90
 41
1.350000000000001
  0
TEXT
  8
1
 62
2
 10
-1554.580890695109
 20
1195.813067288625
 30
0
 40
1.180511166170861
  1
essere comunque utilizzato per la
 50
90
 41
1.350000000000001
  0
TEXT
  8
1
 62
2
 10
-1551.983766129533
 20
1195.813067288625
 30
0
 40
1.180511166170861
  1
costruzione dell'oggetto rappresentato,
 50
90
 41
1.350000000000001
  0
TEXT
  8
1
 62
2
 10
-1549.386641563957
 20
1195.813067288625
 30
0
 40
1.180511166170861
  1
ne' venire comunicato a terzi o
 50
90
 41
1.350000000000001
  0
TEXT
  8
1
 62
2
 10
-1546.789516998381
 20
1195.813067288625
 30
0
 40
1.180511166170861
  1
riprodotto. La Societa' proprietaria
 50
90
 41
1.350000000000001
  0
TEXT
  8
1
 62
2
 10
-1544.192392432805
 20
1195.813067288625
 30
0
 40
1.180511166170861
  1
tutela i propri diritti a rigore di legge.
 50
90
 41
1.350000000000001
  0
TEXT
  8
1
 62
2
 10
-1588.957113514626
 20
1211.094891882732
 30
0
 40
1.2
  1
Data
 41
1.08
  0
TEXT
  8
1
 62
2
 10
-1588.957113514626
 20
1208.454891882732
 30
0
 40
1.2
  1
(Date)
 41
1.08
  0
TEXT
  8
1
 62
2
 10
-1739.428451433949
 20
1225.988506521905
 30
0
 40
4
  1
Rexnord Marbett
 41
0.7785
 51
9.999999999999996
  7
COMPLEX
  0
ENDBLK
  8
0
  0
BLOCK
  8
1
  2
*D0
 70
1
 10
0
 20
0
 30
0
  0
LINE
  8
1
 62
2
 10
-489.4062594802339
 20
639.7844132020728
 30
0
 11
-491.4158033683711
 21
639.7844132020728
 31
0
  0
LINE
  8
1
 62
2
 10
-489.4062594802339
 20
639.7844132020728
 30
0
 11
-488.3218371807764
 21
639.7844132020728
 31
0
  0
LINE
  8
1
 62
2
 10
-486.3218371807764
 20
639.7844132020728
 30
0
 11
-488.3218371807764
 21
639.7844132020728
 31
0
  0
LINE
  8
1
 62
2
 10
-488.3218371807764
 20
634.5460736482057
 30
0
 11
-488.3218371807764
 21
639.7844132020728
 31
0
  0
LINE
  8
1
 62
2
 10
-489.4062594802339
 20
634.5460736482057
 30
0
 11
-489.4062594802339
 21
639.7844132020728
 31
0
  0
SOLID
  8
1
 62
2
 10
-489.4062594802339
 20
639.7844132020728
 30
0
 11
-490.4062594802339
 21
639.6544132020728
 31
0
 12
-490.4062594802339
 22
639.9144132020728
 32
0
 13
-490.4062594802339
 23
639.9144132020728
 33
0
  0
SOLID
  8
1
 62
2
 10
-488.3218371807764
 20
639.7844132020728
 30
0
 11
-487.3218371807764
 21
639.9144132020728
 31
0
 12
-487.3218371807764
 22
639.6544132020728
 32
0
 13
-487.3218371807764
 23
639.6544132020728
 33
0
  0
TEXT
  8
1
 62
2
 10
-491.4158033683711
 20
640.6177465354061
 30
0
 40
1
  1
1
 41
0.9
  0
ENDBLK
  8
0
  0
BLOCK
  8
1
  2
*D1
 70
1
 10
0
 20
0
 30
0
  0
LINE
  8
1
 62
2
 10
-483.0312998033096
 20
637.0155460432376
 30
0
 11
-486.5060953305484
 21
633.75637205251
 31
0
  0
SOLID
  8
1
 62
2
 10
-486.5060953305484
 20
633.75637205251
 30
0
 11
-485.8229597453604
 21
634.5872342519583
 31
0
 12
-485.6332319559247
 22
634.3849543871828
 32
0
 13
-485.6332319559247
 23
634.3849543871828
 33
0
  0
TEXT
  8
1
 62
2
 10
-484.8172169179892
 20
636.0351096021308
 30
0
 40
1.066666666666667
  1
2,5
 50
43.16601717473525
 41
0.9
  0
TEXT
  8
1
 62
2
 10
-485.7508162938761
 20
635.159442881658
 30
0
 40
1.066666666666667
  1
R
 50
43.16601717473525
 41
0.9
  0
ENDBLK
  8
0
  0
BLOCK
  8
1
  2
*D2
 70
1
 10
0
 20
0
 30
0
  0
LINE
  8
1
 62
2
 10
-495.5510019026767
 20
636.4448789520063
 30
0
 11
-491.4322425610542
 21
633.5000991680881
 31
0
  0
SOLID
  8
1
 62
2
 10
-491.4322425610542
 20
633.5000991680881
 30
0
 11
-492.3805942580748
 21
634.0076770251508
 31
0
 12
-492.219295673951
 22
634.23327965044
 32
0
 13
-492.219295673951
 23
634.23327965044
 33
0
  0
TEXT
  8
1
 62
2
 10
-494.2150789111153
 20
636.112582590713
 30
0
 40
1.066666666666667
  1
2,5
 50
324.4364576378757
 41
0.9
  0
TEXT
  8
1
 62
2
 10
-495.2563217970658
 20
636.8570375943617
 30
0
 40
1.066666666666667
  1
R
 50
324.4364576378757
 41
0.9
  0
ENDBLK
  8
0
  0
BLOCK
  8
1
  2
*D3
 70
1
 10
0
 20
0
 30
0
  0
LINE
  8
1
 62
2
 10
-495.2179522978512
 20
626.9223036646454
 30
0
 11
-499.5136342395664
 21
631.1839610229738
 31
0
  0
SOLID
  8
1
 62
2
 10
-495.2179522978512
 20
626.9223036646454
 30
0
 11
-496.0728539917171
 21
627.5751047951954
 31
0
 12
-495.8775309794291
 22
627.7719872440031
 32
0
 13
-495.8775309794291
 23
627.7719872440031
 33
0
  0
TEXT
  8
1
 62
2
 10
-498.248105895697
 20
630.6421592861971
 30
0
 40
1.066666666666667
  1
2,5
 50
315.2278108517589
 41
0.9
  0
TEXT
  8
1
 62
2
 10
-499.1567941209633
 20
631.5436501121417
 30
0
 40
1.066666666666667
  1
R
 50
315.2278108517589
 41
0.9
  0
ENDBLK
  8
0
  0
BLOCK
  8
1
  2
*D4
 70
1
 10
0
 20
0
 30
0
  0
LINE
  8
1
 62
2
 10
-482.1317176077428
 20
626.6093372877242
 30
0
 11
-478.7361440054617
 21
631.6520159389499
 31
0
  0
SOLID
  8
1
 62
2
 10
-482.1317176077428
 20
626.6093372877242
 30
0
 11
-481.6810075475298
 21
627.511424002859
 31
0
 12
-481.4653437203099
 22
627.3662030896651
 32
0
 13
-481.4653437203099
 23
627.3662030896651
 33
0
  0
TEXT
  8
1
 62
2
 10
-480.5436244983361
 20
630.6387907028895
 30
0
 40
1
  1
2,5
 50
56.04497462603947
 41
0.9
  0
TEXT
  8
1
 62
2
 10
-481.2138748669236
 20
629.6434191926441
 30
0
 40
1
  1
R
 50
56.04497462603947
 41
0.9
  0
ENDBLK
  8
0
  0
BLOCK
  8
1
  2
*D5
 70
1
 10
0
 20
0
 30
0
  0
LINE
  8
1
 62
2
 10
-471.0721148808935
 20
635.3772556700758
 30
0
 11
-472.0614966897034
 21
625.5345410161068
 31
0
  0
SOLID
  8
1
 62
2
 10
-472.0614966897034
 20
625.5345410161068
 30
0
 11
-472.0927852017327
 21
626.6097280934274
 31
0
 12
-471.8168424425529
 22
626.5819905478617
 32
0
 13
-471.8168424425529
 23
626.5819905478617
 33
0
  0
TEXT
  8
1
 62
2
 10
-471.7261481272407
 20
632.8700978145205
 30
0
 40
1.066666666666667
  1
336
 50
84.25995491034479
 41
0.9
  0
TEXT
  8
1
 62
2
 10
-471.8434992815574
 20
631.7026476795289
 30
0
 40
1.066666666666667
  1
Ö
 50
84.25995491034479
 41
0.9
  0
ENDBLK
  8
0
  0
BLOCK
  8
1
  2
*D6
 70
1
 10
0
 20
0
 30
0
  0
LINE
  8
1
 62
2
 10
-451.5175963554336
 20
643.6866125449541
 30
0
 11
-454.0593568626429
 21
631.0746276421123
 31
0
  0
SOLID
  8
1
 62
2
 10
-454.0593568626429
 20
631.0746276421123
 30
0
 11
-453.9845564589658
 21
632.1476659088261
 31
0
 12
-453.7126893179477
 22
632.0928750755376
 32
0
 13
-453.7126893179477
 23
632.0928750755376
 33
0
  0
TEXT
  8
1
 62
2
 10
-452.9731162917639
 20
639.0290362148763
 30
0
 40
1.066666666666667
  1
352,34
 50
78.60550814711954
 41
0.9
  0
TEXT
  8
1
 62
2
 10
-453.2049236633688
 20
637.8788290797999
 30
0
 40
1.066666666666667
  1
Ö
 50
78.60550814711954
 41
0.9
  0
ENDBLK
  8
0
  0
BLOCK
  8
1
  2
*D7
 70
1
 10
0
 20
0
 30
0
  0
LINE
  8
1
 62
2
 10
-461.1290423458831
 20
650.4850842769461
 30
0
 11
-463.1766506834956
 21
636.302202774017
 31
0
  0
SOLID
  8
1
 62
2
 10
-463.1766506834956
 20
636.302202774017
 30
0
 11
-463.1614780557568
 21
637.3777379959366
 31
0
 12
-462.8869905713615
 22
637.3381097397531
 32
0
 13
-462.8869905713615
 23
637.3381097397531
 33
0
  0
TEXT
  8
1
 62
2
 10
-463.0876579084475
 20
641.9574453846102
 30
0
 40
1.066666666666667
  1
prim 359,54
 50
81.78486713193495
 41
0.9
  0
TEXT
  8
1
 62
2
 10
-463.2553159153777
 20
640.7961521813995
 30
0
 40
1.066666666666667
  1
Ö
 50
81.78486713193495
 41
0.9
  0
ENDBLK
  8
0
  0
BLOCK
  8
1
  2
*D8
 70
1
 10
0
 20
0
 30
0
  0
LINE
  8
1
 62
2
 10
-488.8640483305051
 20
598.5371427143645
 30
0
 11
-488.8640483305051
 21
592.916722220269
 31
0
  0
LINE
  8
1
 62
2
 10
-457.2151579799477
 20
617.4866243927345
 30
0
 11
-462.6166326603139
 21
590.3315774164129
 31
0
  0
LINE
  8
1
 62
2
 10
-488.8640483305051
 20
592.916722220269
 30
0
 11
-488.8640483305051
 21
592.5833888869356
 31
0
  0
LINE
  8
1
 62
2
 10
-462.6166326603139
 20
590.3315774164129
 30
0
 11
-462.6816627676526
 21
590.0046489896118
 31
0
  0
ARC
  8
1
 62
2
 10
-488.8640483305051
 20
458.3769080514232
 30
0
 40
134.5398141688457
 50
78.74999999999957
 51
90
  0
SOLID
  8
1
 62
2
 10
-462.6166326603139
 20
590.3315774164129
 30
0
 11
-463.6901335079662
 21
590.3994165814424
 31
0
 12
-463.6371071419928
 22
590.6716333742555
 32
0
 13
-463.6371071419928
 23
590.6716333742555
 33
0
  0
SOLID
  8
1
 62
2
 10
-488.8640483305051
 20
592.916722220269
 30
0
 11
-487.7968403535282
 21
593.0511594029945
 31
0
 12
-487.7979397360763
 22
592.7738282487118
 32
0
 13
-487.7979397360763
 23
592.7738282487118
 33
0
  0
TEXT
  8
1
 62
2
 10
-477.4687735261369
 20
592.8473016704484
 30
0
 40
1.066666666666667
  1
11%%d15'
 50
354.3749999999947
 41
0.9
  0
ENDBLK
  8
0
  0
BLOCK
  8
1
  2
*D9
 70
1
 10
0
 20
0
 30
0
  0
LINE
  8
1
 62
2
 10
-482.9197932307745
 20
627.4671894830101
 30
0
 11
-481.2589396530289
 21
624.4832245460985
 31
0
  0
LINE
  8
1
 62
2
 10
-494.8083034302358
 20
627.46718948301
 30
0
 11
-496.4691570079814
 21
624.4832245460985
 31
0
  0
LINE
  8
1
 62
2
 10
-481.2589396530289
 20
624.4832245460985
 30
0
 11
-481.2589396530289
 21
624.4832245460985
 31
0
  0
LINE
  8
1
 62
2
 10
-496.4691570079814
 20
624.4832245460985
 30
0
 11
-496.4691570079814
 21
624.4832245460985
 31
0
  0
ARC
  8
1
 62
2
 10
-488.8640483305051
 20
638.1469080514161
 30
0
 40
15.63758053311672
 50
240.9000000000001
 51
299.0999999999999
  0
SOLID
  8
1
 62
2
 10
-496.4691570079814
 20
624.4832245460985
 30
0
 11
-495.5207239019156
 21
624.1406247163868
 31
0
 12
-495.6398437708409
 22
623.90951769177
 32
0
 13
-495.6398437708409
 23
623.90951769177
 33
0
  0
SOLID
  8
1
 62
2
 10
-481.2589396530289
 20
624.4832245460985
 30
0
 11
-482.0882528901694
 21
623.90951769177
 31
0
 12
-482.2073727590946
 22
624.1406247163868
 32
0
 13
-482.2073727590946
 23
624.1406247163868
 33
0
  0
TEXT
  8
1
 62
2
 10
-486.9340926138245
 20
623.329970746968
 30
0
 40
1
  1
58%%d12'
 50
15.21005657737254
 41
0.9
  0
ENDBLK
  8
0
  0
BLOCK
  8
0
  2
_1__S
 70
0
 10
-936.088533555017
 20
390.203614176697
 30
0
  0
LINE
  8
1
 62
2
  6
DASHDOT
 10
-457.150127872609
 20
617.8135528195355
 30
0
 11
-455.2708861923375
 21
627.2611387340132
 31
0
  0
LINE
  8
1
 62
7
 10
-491.582995607021
 20
633.2619239401454
 30
0
 11
-494.8083034302357
 21
627.46718948301
 31
0
  0
LINE
  8
1
 62
7
 10
-486.1451010539892
 20
633.2619239401455
 30
0
 11
-482.9197932307744
 21
627.4671894830101
 31
0
  0
LINE
  8
1
 62
7
 10
-525.6491258630323
 20
629.3711170984464
 30
0
 11
-527.6819636895701
 21
623.0585004972106
 31
0
  0
LINE
  8
1
 62
7
 10
-520.3157189290338
 20
630.4319976978873
 30
0
 11
-516.0218878800149
 21
625.3778337803158
 31
0
  0
LINE
  8
1
 62
7
 10
-457.4123777319763
 20
630.431997697887
 30
0
 11
-461.7062087809953
 21
625.3778337803158
 31
0
  0
LINE
  8
1
 62
7
 10
-452.078970797978
 20
629.3711170984464
 30
0
 11
-450.04613297144
 21
623.0585004972104
 31
0
  0
LINE
  8
1
 62
7
 10
-487.3640483305051
 20
608.3694078639066
 30
0
 11
-487.3640483305051
 21
598.8704760476978
 31
0
  0
LINE
  8
1
 62
2
  6
DASHDOT
 10
-488.8640483305051
 20
656.123908051416
 30
0
 11
-488.8640483305051
 21
598.8704760476978
 31
0
  0
LINE
  8
1
 62
7
 10
-490.364048330505
 20
608.3694078639066
 30
0
 11
-490.3640483305051
 21
598.8704760476978
 31
0
  0
ARC
  8
1
 62
2
  6
DASHDOT
 10
-488.8640483305051
 20
458.376908051416
 30
0
 40
179.7700000000001
 50
76.30919367223045
 51
104.3017976075974
  0
ARC
  8
1
 62
7
 10
-488.8640483305051
 20
458.376908051416
 30
0
 40
176.17
 50
90
 51
90.17634364268402
  0
ARC
  8
1
 62
7
 10
-488.8640483305051
 20
458.376908051416
 30
0
 40
176.17
 50
89.823656357316
 51
90
  0
ARC
  8
1
 62
7
 10
-488.8640483305051
 20
458.376908051416
 30
0
 40
168.0000000000003
 50
81.48264514016387
 51
87.2673548598361
  0
ARC
  8
1
 62
7
 10
-488.8640483305051
 20
458.376908051416
 30
0
 40
176.1699999999999
 50
101.25
 51
101.426343642684
  0
ARC
  8
1
 62
7
 10
-488.8640483305051
 20
458.376908051416
 30
0
 40
176.1699999999998
 50
101.0736563573159
 51
101.25
  0
ARC
  8
1
 62
7
 10
-488.8640483305051
 20
458.376908051416
 30
0
 40
168
 50
92.73264514016388
 51
98.51735485983609
  0
ARC
  8
1
 62
7
 10
-488.8640483305051
 20
458.376908051416
 30
0
 40
176.1699999999996
 50
78.74999999999999
 51
78.92634364268403
  0
ARC
  8
1
 62
7
 10
-488.8640483305051
 20
458.376908051416
 30
0
 40
176.1699999999997
 50
78.57365635731595
 51
78.74999999999999
  0
ARC
  8
1
 62
7
 10
-488.8640483305051
 20
458.376908051416
 30
0
 40
149.9999999999998
 50
76.30996941630568
 51
103.7704714291341
  0
ARC
  8
1
 62
7
 10
-488.8640483305051
 20
458.376908051416
 30
0
 40
167.9999999999998
 50
74.76571270978833
 51
76.01735485983608
  0
ARC
  8
1
 62
7
 10
-488.8640483305051
 20
458.376908051416
 30
0
 40
167.9999999999999
 50
103.9826451401639
 51
105.0796238251526
  0
POLYLINE
  8
1
 62
2
 66
1
  0
VERTEX
  8
1
 10
-532.5711198254577
 20
620.5918639011622
 30
0
 42
-0.0007668689823871281
  0
VERTEX
  8
1
 10
-528.7575484461094
 20
615.3769250782175
 30
0
 42
-0.05892618788298868
  0
VERTEX
  8
1
 10
-526.0110237122088
 20
610.5010783512676
 30
0
 42
-0.04628345779519711
  0
VERTEX
  8
1
 10
-524.8316377558758
 20
605.8115180465378
 30
0
 42
0.02037114839828825
  0
VERTEX
  8
1
 10
-524.1849120315743
 20
602.0540384020893
 30
0
 42
0.1157719224320279
  0
VERTEX
  8
1
 10
-522.8526711063889
 20
599.1574701297579
 30
0
 42
0.1776219190208296
  0
VERTEX
  8
1
 10
-519.8498422417641
 20
597.8095719646857
 30
0
 42
0.04424532127611735
  0
VERTEX
  8
1
 10
-515.695182279639
 20
597.7144476727624
 30
0
 42
-0.02470171872492356
  0
VERTEX
  8
1
 10
-511.1329547789911
 20
597.7368984537101
 30
0
 42
-0.02715861103127875
  0
VERTEX
  8
1
 10
-507.1412955013421
 20
597.1866153270853
 30
0
 42
0.02833896915237364
  0
VERTEX
  8
1
 10
-503.4514268241996
 20
596.6725906859421
 30
0
 42
0.1010444694341375
  0
VERTEX
  8
1
 10
-500.0829601622505
 20
597.0839360862625
 30
0
 42
0.08295685338962512
  0
VERTEX
  8
1
 10
-497.5469770909028
 20
598.720584006467
 30
0
 42
-0.05054914306784195
  0
VERTEX
  8
1
 10
-495.6156484023671
 20
600.2543849009398
 30
0
 42
-0.2254847814463293
  0
VERTEX
  8
1
 10
-493.6090947135422
 20
600.420299853748
 30
0
 42
-0.03576149632938303
  0
VERTEX
  8
1
 10
-491.4750653028863
 20
599.3555382262413
 30
0
 42
0.1410645159134364
  0
VERTEX
  8
1
 10
-488.8385004070497
 20
598.6282327391773
 30
0
 42
0.04306607794455729
  0
VERTEX
  8
1
 10
-485.740236069629
 20
598.9798986702519
 30
0
 42
-0.04267784468959419
  0
VERTEX
  8
1
 10
-478.1446105728888
 20
599.3967701140263
 30
0
 42
0.0003402963636492487
  0
VERTEX
  8
1
 10
-470.4690905521111
 20
599.1574701297579
 30
0
 42
0.03682028274402838
  0
VERTEX
  8
1
 10
-463.6256811538914
 20
599.4655232955631
 30
0
 42
0.08276236903839083
  0
VERTEX
  8
1
 10
-457.3288025486652
 20
601.2883276438301
 30
0
 42
0.08654365288074792
  0
VERTEX
  8
1
 10
-451.972363371112
 20
605.4929164722749
 30
0
 42
0.02462763613395869
  0
VERTEX
  8
1
 10
-447.384800816327
 20
611.0547579166619
 30
0
 42
0.02852760044879202
  0
VERTEX
  8
1
 10
-445.3337548698914
 20
613.9200135215704
 30
0
 42
0.09916039682001415
  0
VERTEX
  8
1
 10
-444.1535975161376
 20
616.9875776298836
 30
0
 42
0.1531343903710123
  0
VERTEX
  8
1
 10
-444.7192557131391
 20
620.4732907524797
 30
0
  0
SEQEND
  8
1
  0
ARC
  8
1
 62
7
 10
-480.7353626731857
 20
628.6830279340687
 30
0
 40
2.499999999999996
 50
209.0999999999975
 51
267.2673548598353
  0
ARC
  8
1
 62
7
 10
-488.3295316115779
 20
632.0460854890866
 30
0
 40
2.500000000000107
 50
29.10000000000209
 51
89.82365635731865
  0
ARC
  8
1
 62
7
 10
-489.3985650494323
 20
632.0460854890869
 30
0
 40
2.49999999999997
 50
90.17634364268396
 51
150.9000000000048
  0
ARC
  8
1
 62
7
 10
-496.9927339878244
 20
628.6830279340686
 30
0
 40
2.499999999999815
 50
272.7326451401645
 51
330.9000000000025
  0
ARC
  8
1
 62
7
 10
-514.1166288580055
 20
626.9964714973642
 30
0
 40
2.49999999999999
 50
220.3499999999966
 51
278.5173548598355
  0
ARC
  8
1
 62
7
 10
-522.2209779510431
 20
628.8133599808389
 30
0
 40
2.499999999999903
 50
40.34999999999833
 51
101.0736563573166
  0
ARC
  8
1
 62
7
 10
-523.2694702111495
 20
628.6048019032019
 30
0
 40
2.499999999999906
 50
101.4263436426863
 51
162.1500000000084
  0
ARC
  8
1
 62
7
 10
-530.0616193414528
 20
623.8248156924553
 30
0
 40
2.499999999999893
 50
283.9826451401665
 51
342.1500000000027
  0
ARC
  8
1
 62
7
 10
-447.6664773195573
 20
623.8248156924553
 30
0
 40
2.500000000000088
 50
197.8500000000023
 51
256.017354859836
  0
ARC
  8
1
 62
7
 10
-454.4586264498606
 20
628.6048019032016
 30
0
 40
2.499999999999965
 50
17.84999999999776
 51
78.57365635731503
  0
ARC
  8
1
 62
7
 10
-455.507118709967
 20
628.8133599808385
 30
0
 40
2.500000000000145
 50
78.9263436426849
 51
139.6499999999988
  0
ARC
  8
1
 62
7
 10
-463.6114678030046
 20
626.9964714973638
 30
0
 40
2.499999999999484
 50
261.4826451401621
 51
319.6500000000068
  0
TEXT
  8
1
 62
2
 10
-453.227395816984
 20
590.0602656389099
 30
0
 40
1.066666666666667
  1
DISEGNO NON IN SCALA
 41
0.9
  0
TEXT
  8
1
 62
2
 10
-434.1256048205436
 20
571.1793964274693
 30
0
 40
1.066666666666667
  1
31/03/04
 41
0.9
  0
TEXT
  8
1
 62
2
 10
-434.027209343929
 20
574.5127297608026
 30
0
 40
1.066666666666667
  1
Calciolari
 41
0.9
  0
TEXT
  8
1
 62
2
 10
-483.042394915033
 20
565.448747900344
 30
0
 40
1.066666666666667
  1
684051/1
 41
0.9
  0
TEXT
  8
1
 62
2
 10
-467.39925058383
 20
570.8460630941245
 30
0
 40
1.066666666666667
  1
Dettaglio dente ruota N880BO T32
 41
0.9
  0
DIMENSION
  8
1
  6
CONTINUOUS
 62
2
  2
*D0
  3
DMST_1
 10
-489.4062594802339
 20
639.7844132020728
 30
0
 11
-491.2658033683711
 21
641.1177465354061
 31
0
 12
0
 22
0
 32
0
 70
0
  1
1
 13
-488.3218371807764
 23
634.5460736482057
 33
0
 14
-489.4062594802339
 24
634.5460736482057
 34
0
 53
0
  0
DIMENSION
  8
1
  6
CONTINUOUS
 62
2
  2
*D1
  3
DMST_2
 10
-488.3295316115779
 20
632.0460854890866
 30
0
 11
-484.892742107197
 21
636.6223691048831
 31
0
 12
0
 22
0
 32
0
 70
4
 15
-486.5060953305485
 25
633.7563720525099
 35
0
 40
0
 53
0
  0
DIMENSION
  8
1
  6
CONTINUOUS
 62
2
  2
*D2
  3
DMST_2
 10
-489.3985650494323
 20
632.0460854890869
 30
0
 11
-493.6539050031355
 21
636.3014254427897
 31
0
 12
0
 22
0
 32
0
 70
4
 15
-491.4322425610543
 25
633.5000991680882
 35
0
 40
0
 53
0
  0
DIMENSION
  8
1
  6
CONTINUOUS
 62
2
  2
*D3
  3
DMST_3
 10
-496.9927339878244
 20
628.6830279340686
 30
0
 11
-497.6639437749581
 21
630.7387636053119
 31
0
 12
0
 22
0
 32
0
 70
4
 15
-495.2179522978514
 25
626.9223036646455
 35
0
 40
0
 53
0
  0
DIMENSION
  8
1
  6
CONTINUOUS
 62
2
  2
*D4
  3
DMST_4
 10
-480.7353626731857
 20
628.6830279340687
 30
0
 11
-480.7353626731857
 21
631.1597143751346
 31
0
 12
0
 22
0
 32
0
 70
4
 15
-482.1317176077429
 25
626.609337287724
 35
0
 40
0
 53
0
  0
DIMENSION
  8
1
  6
CONTINUOUS
 62
2
  2
*D5
  3
DMST_2
 10
-505.6665999713052
 20
291.2192750867251
 30
0
 11
-472.1874634155951
 21
633.6132961462503
 31
0
 12
0
 22
0
 32
0
 70
3
  1
Ö<>
 15
-472.0614966897034
 25
625.5345410161068
 35
0
 40
0
 53
0
  0
DIMENSION
  8
1
  6
CONTINUOUS
 62
2
  2
*D6
  3
DMST_2
 10
-523.6687397983662
 20
285.6791884607194
 30
0
 11
-453.080139468824
 21
640.92760041963
 31
0
 12
0
 22
0
 32
0
 70
3
  1
Ö<>
 15
-454.0593568626429
 25
631.0746276421124
 35
0
 40
0
 53
0
  0
DIMENSION
  8
1
  6
CONTINUOUS
 62
2
  2
*D7
  3
DMST_2
 10
-514.5514459775147
 20
280.451613328815
 30
0
 11
-462.9179873826371
 21
645.7454044835041
 31
0
 12
0
 22
0
 32
0
 70
3
  1
prim 359,54
 15
-463.1766506834956
 25
636.302202774017
 35
0
 40
0
 53
0
  0
DIMENSION
  8
1
  6
CONTINUOUS
 62
2
  2
*D8
  3
DMST_5
 10
-457.150127872609
 20
617.8135528195355
 30
0
 11
-475.5853578208843
 21
593.1977153198003
 31
0
 12
0
 22
0
 32
0
 70
2
 13
-488.8640483305051
 23
656.123908051416
 33
0
 14
-488.8640483305051
 24
598.8704760476978
 34
0
 15
-455.2708861923375
 25
627.2611387340132
 35
0
 16
-475.6768404852037
 26
592.2688762415739
 36
0
 53
0
  0
DIMENSION
  8
1
  6
CONTINUOUS
 62
2
  2
*D9
  3
DMST_6
 10
-491.582995607021
 20
633.2619239401454
 30
0
 11
-485.1112067095343
 21
624.3437320502046
 31
0
 12
0
 22
0
 32
0
 70
2
 13
-486.1451010539892
 23
633.2619239401455
 33
0
 14
-482.9197932307744
 24
627.4671894830101
 34
0
 15
-494.8083034302357
 25
627.46718948301
 35
0
 16
-488.8640483305051
 26
622.5093275182994
 36
0
 53
0
  0
INSERT
  8
0
  2
TOP__S__1
 10
-417.5709081038261
 20
562.646063094136
 30
0
 41
0.3333333333333333
 42
0.3333333333333333
 43
0.3333333333333333
  0
ENDBLK
  8
0
  0
BLOCK
  8
0
  2
TOP__2
 70
0
 10
-647.711048330505
 20
291.929908051416
 30
0
  0
ENDBLK
  8
0
  0
BLOCK
  8
0
  2
699061
 70
0
 10
-720.536527800195
 20
-264.615797194665
 30
0
  0
ENDBLK
  8
0
  0
ENDSEC
  0
SECTION
  2
ENTITIES
  0
INSERT
  8
0
  2
_1__S
 10
-1172.73691037641
 20
293.5240943777119
 30
0
 41
3
 42
3
 43
3
  0
INSERT
  8
0
  2
TOP__2
 10
-647.711048330505
 20
291.929908051416
 30
0
  0
INSERT
  8
0
  2
699061
 10
-720.536527800195
 20
-264.615797194665
 30
0
  0
ENDSEC
  0
EOF
