  0
SECTION
  2
HEADER
  9
$ACADVER
  1
AC1009
  9
$INSBASE
 10
0
 20
0
  9
$EXTMIN
 10
-182.4323967843843
 20
-207.6948911362431
  9
$EXTMAX
 10
658.5676032156159
 20
386.3051088637569
  9
$LIMMIN
 10
-182.4323967843843
 20
-207.6948911362431
  9
$LIMMAX
 10
658.5676032156159
 20
386.3051088637569
  9
$VIEWCTR
 10
10
 20
10
  9
$VIEWSIZE
 40
10
  9
$SNAPMODE
 70
0
  9
$SNAPUNIT
 10
1
 20
1
  9
$SNAPBASE
 10
0
 20
0
  9
$SNAPANG
 50
0
  9
$SNAPSTYLE
 70
0
  9
$SNAPISOPAIR
 70
0
  9
$GRIDMODE
 70
0
  9
$GRIDUNIT
 10
0
 20
0
  9
$ORTHOMODE
 70
0
  9
$REGENMODE
 70
1
  9
$FILLMODE
 70
1
  9
$QTEXTMODE
 70
0
  9
$DRAGMODE
 70
2
  9
$LTSCALE
 40
1
  9
$OSMODE
 70
0
  9
$ATTMODE
 70
1
  9
$TEXTSIZE
 40
3.5
  9
$TRACEWID
 40
0.5
  9
$TEXTSTYLE
  7
STANDARD
  9
$CLAYER
  8
0
  9
$CELTYPE
  6
BYLAYER
  9
$CECOLOR
 62
256
  9
$DIMSCALE
 40
1
  9
$DIMASZ
 40
0.18
  9
$DIMEXO
 40
0.0625
  9
$DIMDLI
 40
0.38
  9
$DIMRND
 40
0
  9
$DIMDLE
 40
0
  9
$DIMEXE
 40
0.18
  9
$DIMTP
 40
0
  9
$DIMTM
 40
0
  9
$DIMTXT
 40
0.18
  9
$DIMCEN
 40
0.09
  9
$DIMTSZ
 40
0
  9
$DIMTOL
 70
0
  9
$DIMLIM
 70
0
  9
$DIMTIH
 70
1
  9
$DIMTOH
 70
1
  9
$DIMSE1
 70
0
  9
$DIMSE2
 70
0
  9
$DIMTAD
 70
0
  9
$DIMZIN
 70
0
  9
$DIMBLK
  1

  9
$DIMASO
 70
1
  9
$DIMSHO
 70
1
  9
$DIMPOST
  1

  9
$DIMAPOST
  1

  9
$DIMALT
 70
0
  9
$DIMALTD
 70
2
  9
$DIMALTF
 40
25.4
  9
$DIMLFAC
 40
1
  9
$DIMTOFL
 70
0
  9
$DIMTVP
 40
0
  9
$DIMTIX
 70
0
  9
$DIMSOXD
 70
0
  9
$DIMSAH
 70
0
  9
$DIMBLK1
  1

  9
$DIMBLK2
  1

  9
$DIMSTYLE
  2
*UNNAMED
  9
$DIMCLRD
 70
0
  9
$DIMCLRE
 70
0
  9
$DIMCLRT
 70
0
  9
$DIMTFAC
 40
1
  9
$DIMGAP
 40
0.09
  9
$LUNITS
 70
2
  9
$LUPREC
 70
4
  9
$AXISMODE
 70
0
  9
$AXISUNIT
 10
0
 20
0
  9
$SKETCHINC
 40
0.1
  9
$FILLETRAD
 40
2
  9
$AUNITS
 70
0
  9
$AUPREC
 70
0
  9
$MENU
  1
ACAD
  9
$ELEVATION
 40
0
  9
$THICKNESS
 40
0
  9
$VIEWDIR
 10
0
 20
0
 30
1
  9
$LIMCHECK
 70
0
  9
$BLIPMODE
 70
1
  9
$CHAMFERA
 40
0
  9
$CHAMFERB
 40
0
  9
$FASTZOOM
 70
1
  9
$SKPOLY
 70
0
  9
$ANGBASE
 50
0
  9
$ANGDIR
 70
0
  9
$PDMODE
 70
0
  9
$PDSIZE
 40
0
  9
$PLINEWID
 40
0
  9
$COORDS
 70
2
  0
ENDSEC
  0
SECTION
  2
TABLES
  0
TABLE
  2
DIMSTYLE
 70
12
  0
DIMSTYLE
  2
DMST_1
 70
0
  3
)
  4

  5

  6

  7

 40
1
 41
1.75
 42
0.5
 43
7
 44
0.5
 45
0
 46
0
 47
0
 48
0
140
1.75
141
0
142
0
143
25.4
144
1
145
0
146
1
147
0.09
 71
0
 72
0
 73
0
 74
0
 75
0
 76
0
 77
1
 78
1
170
0
171
2
172
0
173
0
174
0
175
0
176
2
177
2
178
2
  0
DIMSTYLE
  2
DMST_2
 70
0
  3

  4

  5

  6

  7

 40
1
 41
1.75
 42
0.5
 43
7
 44
0.5
 45
0
 46
0
 47
0
 48
0
140
1.75
141
0
142
0
143
25.4
144
1
145
0
146
0.7000000000000001
147
0.09
 71
1
 72
0
 73
0
 74
0
 75
0
 76
0
 77
1
 78
1
170
0
171
2
172
0
173
0
174
0
175
0
176
2
177
2
178
2
  0
DIMSTYLE
  2
DMST_3
 70
0
  3

  4

  5

  6

  7

 40
1
 41
1.75
 42
0.5
 43
7
 44
0.5
 45
0
 46
0
 47
0
 48
0
140
1.75
141
0
142
0
143
25.4
144
1
145
0
146
0.7000000000000001
147
0.09
 71
1
 72
0
 73
0
 74
0
 75
0
 76
0
 77
1
 78
1
170
0
171
2
172
1
173
0
174
0
175
0
176
2
177
2
178
2
  0
DIMSTYLE
  2
DMST_4
 70
0
  3

  4

  5

  6

  7

 40
1
 41
3.5
 42
2.6875
 43
7
 44
7.74
 45
0
 46
0
 47
0
 48
0
140
3.2
141
0
142
0
143
25.4
144
1
145
0
146
1
147
0.9
 71
0
 72
0
 73
0
 74
0
 75
0
 76
0
 77
0
 78
1
170
0
171
2
172
0
173
0
174
0
175
0
176
2
177
2
178
2
  0
DIMSTYLE
  2
DMST_5
 70
0
  3

  4

  5

  6

  7

 40
1
 41
3.2
 42
1
 43
7
 44
1
 45
0
 46
0
 47
0
 48
0
140
3.2
141
0
142
0
143
25.4
144
1
145
0
146
1
147
0.09
 71
0
 72
0
 73
0
 74
0
 75
0
 76
0
 77
1
 78
1
170
0
171
2
172
0
173
0
174
0
175
0
176
2
177
2
178
2
  0
DIMSTYLE
  2
DMST_6
 70
0
  3

  4

  5

  6

  7

 40
1
 41
3.2
 42
1
 43
7
 44
1
 45
0
 46
0
 47
0
 48
0
140
3.2
141
0
142
0
143
25.4
144
1
145
0
146
1
147
0.09
 71
1
 72
0
 73
0
 74
0
 75
0
 76
0
 77
1
 78
1
170
0
171
2
172
0
173
0
174
0
175
0
176
2
177
2
178
2
  0
DIMSTYLE
  2
DMST_7
 70
0
  3

  4

  5

  6

  7

 40
1
 41
3.5
 42
2.6875
 43
7
 44
7.74
 45
0
 46
0
 47
0.3
 48
0.3
140
3.2
141
0
142
0
143
25.4
144
1
145
0
146
0.5625
147
0.9
 71
1
 72
0
 73
0
 74
0
 75
0
 76
0
 77
0
 78
1
170
0
171
2
172
0
173
0
174
0
175
0
176
2
177
2
178
2
  0
DIMSTYLE
  2
DMST_8
 70
0
  3

  4

  5

  6

  7

 40
1
 41
3.5
 42
2.6875
 43
7
 44
7.74
 45
0
 46
0
 47
0.5
 48
0
140
3.2
141
0
142
0
143
25.4
144
1
145
0
146
1
147
0.9
 71
1
 72
0
 73
0
 74
0
 75
0
 76
0
 77
0
 78
1
170
0
171
2
172
0
173
0
174
0
175
0
176
2
177
2
178
2
  0
DIMSTYLE
  2
DMST_9
 70
0
  3
x45%%d
  4

  5

  6

  7

 40
1
 41
3.2
 42
1
 43
7
 44
1
 45
0
 46
0
 47
0
 48
0
140
3.2
141
0
142
0
143
25.4
144
1
145
0
146
1
147
0.09
 71
0
 72
0
 73
0
 74
0
 75
0
 76
0
 77
1
 78
1
170
0
171
2
172
0
173
0
174
0
175
0
176
2
177
2
178
2
  0
DIMSTYLE
  2
DMST_10
 70
0
  3

  4

  5

  6

  7

 40
1
 41
3.2
 42
1
 43
7
 44
1
 45
0
 46
0
 47
0
 48
0
140
3.2
141
0
142
0
143
25.4
144
1
145
0
146
1
147
0.09
 71
0
 72
0
 73
0
 74
0
 75
0
 76
0
 77
1
 78
9
170
0
171
2
172
0
173
0
174
0
175
0
176
2
177
2
178
2
  0
DIMSTYLE
  2
DMST_11
 70
0
  3

  4

  5

  6

  7

 40
1
 41
3.2
 42
1
 43
7
 44
1
 45
0
 46
0
 47
0
 48
0
140
3.2
141
0
142
0
143
25.4
144
1
145
0
146
1
147
0.09
 71
0
 72
0
 73
0
 74
0
 75
0
 76
0
 77
1
 78
1
170
0
171
2
172
1
173
0
174
0
175
0
176
2
177
2
178
2
  0
DIMSTYLE
  2
DMST_12
 70
0
  3

  4

  5

  6

  7

 40
1
 41
3.2
 42
1
 43
7
 44
1
 45
0
 46
0
 47
0
 48
0
140
3.2
141
0
142
0
143
25.4
144
1
145
0
146
1
147
0.09
 71
1
 72
0
 73
0
 74
0
 75
0
 76
0
 77
1
 78
1
170
0
171
2
172
1
173
0
174
0
175
0
176
2
177
2
178
2
  0
ENDTAB
  0
TABLE
  2
LTYPE
 70
9
  0
LTYPE
  2
CONTINUOUS
 70
64
  3
Solid line
 72
65
 73
0
 40
0
  0
LTYPE
  2
BORDER
 70
64
  3
__ __ . __ __ .
 72
65
 73
6
 40
38.73026315789475
 49
11.06578947368421
 49
-5.532894736842107
 49
11.06578947368421
 49
-5.532894736842107
 49
0
 49
-5.532894736842107
  0
LTYPE
  2
CENTER
 70
64
  3
____ _ ____ _
 72
65
 73
4
 40
44.26315789473686
 49
27.66447368421054
 49
-5.532894736842107
 49
5.532894736842107
 49
-5.532894736842107
  0
LTYPE
  2
DASHDOT
 70
64
  3
__ . __ . __ .
 72
65
 73
4
 40
22.13157894736843
 49
11.06578947368421
 49
-5.532894736842107
 49
0
 49
-5.532894736842107
  0
LTYPE
  2
DASHED
 70
64
  3
__ __ __ __ __
 72
65
 73
2
 40
16.59868421052632
 49
11.06578947368421
 49
-5.532894736842107
  0
LTYPE
  2
DIVIDE
 70
64
  3
__ . . __ . . 
 72
65
 73
6
 40
27.66447368421054
 49
11.06578947368421
 49
-5.532894736842107
 49
0
 49
-5.532894736842107
 49
0
 49
-5.532894736842107
  0
LTYPE
  2
DOT
 70
64
  3
..............
 72
65
 73
4
 40
11.06578947368421
 49
0
 49
-5.532894736842107
 49
0
 49
-5.532894736842107
  0
LTYPE
  2
HIDDEN
 70
64
  3
_ _ _ _ _ _ _
 72
65
 73
2
 40
8.299342105263161
 49
5.532894736842107
 49
-2.766447368421054
  0
LTYPE
  2
PHANTOM
 70
64
  3
_____ _ _ _____ _ _ 
 72
65
 73
6
 40
55.32894736842107
 49
27.66447368421054
 49
-5.532894736842107
 49
5.532894736842107
 49
-5.532894736842107
 49
5.532894736842107
 49
-5.532894736842107
  0
ENDTAB
  0
TABLE
  2
LAYER
 70
4
  0
LAYER
  2
DEFAULT_1
 70
0
 62
7
  6
CONTINUOUS
  0
LAYER
  2
0
 70
0
 62
7
  6
CONTINUOUS
  0
LAYER
  2
1
 70
0
 62
7
  6
CONTINUOUS
  0
ENDTAB
  0
TABLE
  2
STYLE
 70
4
  0
STYLE
  2
STANDARD
 70
0
 40
0
 41
1
 50
0
 71
0
 42
3.5
  3
txt
  4

  0
STYLE
  2
SIMPLEX
 70
0
 40
0
 41
1
 50
0
 71
0
 42
3.5
  3
simplex
  4

  0
STYLE
  2
COMPLEX
 70
0
 40
0
 41
1
 50
0
 71
0
 42
3.5
  3
complex
  4

  0
STYLE
  2
ITALIC
 70
0
 40
0
 41
1
 50
0
 71
0
 42
3.5
  3
italic
  4

  0
ENDTAB
  0
TABLE
  2
VIEW
 70
0
  0
ENDTAB
  0
ENDSEC
  0
SECTION
  2
BLOCKS
  0
BLOCK
  8
1
  2
*D0
 70
1
 10
0
 20
0
 30
0
  0
LINE
  8
1
 62
2
 10
342.9481845780481
 20
-263.6973869774079
 30
0
 11
342.9481845780481
 21
-250.8973869774078
 31
0
  0
LINE
  8
1
 62
2
 10
333.4473336954124
 20
-263.6973869774079
 30
0
 11
343.4481845780481
 21
-263.6973869774079
 31
0
  0
LINE
  8
1
 62
2
 10
333.4473336954125
 20
-250.8973869774078
 30
0
 11
343.4481845780481
 21
-250.8973869774078
 31
0
  0
SOLID
  8
1
 62
2
 10
342.9481845780481
 20
-263.6973869774079
 30
0
 11
342.7206845780481
 21
-261.9473869774079
 31
0
 12
343.1756845780481
 22
-261.9473869774079
 32
0
 13
343.1756845780481
 23
-261.9473869774079
 33
0
  0
SOLID
  8
1
 62
2
 10
342.9481845780481
 20
-250.8973869774078
 30
0
 11
343.1756845780481
 21
-252.6473869774078
 31
0
 12
342.7206845780481
 22
-252.6473869774078
 32
0
 13
342.7206845780481
 23
-252.6473869774078
 33
0
  0
TEXT
  8
1
 62
2
 10
341.7731845780481
 20
-259.4411369774078
 30
0
 40
1.75
  1
12,8
 50
90
 41
0.8910000000000002
  0
TEXT
  8
1
 62
2
 10
341.7731845780481
 20
-260.5786369774078
 30
0
 40
1.75
  1
(
 50
90
 41
0.8910000000000002
  0
TEXT
  8
1
 62
2
 10
341.7731845780481
 20
-254.4411369774078
 30
0
 40
1.75
  1
)
 50
90
 41
0.8910000000000002
  0
ENDBLK
  8
0
  0
BLOCK
  8
1
  2
*D1
 70
1
 10
0
 20
0
 30
0
  0
LINE
  8
1
 62
2
 10
316.5501225455308
 20
-263.9891487643902
 30
0
 11
322.5605301856165
 21
-269.9995564044758
 31
0
  0
LINE
  8
1
 62
2
 10
331.9039424020484
 20
-260.656144188044
 30
0
 11
322.2069767950232
 21
-270.3531097950691
 31
0
  0
LINE
  8
1
 62
2
 10
325.8935347619628
 20
-254.6457365479583
 30
0
 11
316.1965691549376
 21
-264.3427021549834
 31
0
  0
SOLID
  8
1
 62
2
 10
322.5605301856165
 20
-269.9995564044758
 30
0
 11
321.1622265258201
 21
-268.9229863301193
 31
0
 12
321.48396011126
 22
-268.6012527446794
 32
0
 13
321.48396011126
 23
-268.6012527446794
 33
0
  0
SOLID
  8
1
 62
2
 10
316.5501225455308
 20
-263.9891487643902
 30
0
 11
317.9484262053272
 21
-265.0657188387467
 31
0
 12
317.6266926198874
 22
-265.3874524241866
 32
0
 13
317.6266926198874
 23
-265.3874524241866
 33
0
  0
TEXT
  8
1
 62
2
 10
319.6811663723063
 20
-264.5613499267469
 30
0
 40
1.75
  1
9
 50
314.9999999999998
 41
0.8910000000000002
  0
TEXT
  8
1
 62
2
 10
321.9858925372362
 20
-264.9789848693852
 30
0
 40
1.225
  1
+0,2
 50
314.9999999999998
 41
0.8910000000000001
  0
TEXT
  8
1
 62
2
 10
320.4700323750675
 20
-266.4948450315538
 30
0
 40
1.225
  1
 0
 50
314.9999999999998
 41
0.8910000000000001
  0
TEXT
  8
1
 62
2
 10
318.1962421318146
 20
-263.0764256862551
 30
0
 40
1.75
  1
%%c
 50
314.9999999999998
 41
0.8910000000000002
  0
ENDBLK
  8
0
  0
BLOCK
  8
1
  2
*D2
 70
1
 10
0
 20
0
 30
0
  0
LINE
  8
1
 62
2
 10
323.90062211388
 20
-261.8095516157252
 30
0
 11
345.9020293291749
 21
-243.2594589809302
 31
0
  0
SOLID
  8
1
 62
2
 10
334.6039618313176
 20
-252.7852223390905
 30
0
 11
333.4126897173832
 21
-254.0871927690782
 31
0
 12
333.1193990158926
 22
-253.7393342282615
 32
0
 13
333.1193990158926
 23
-253.7393342282615
 33
0
  0
SOLID
  8
1
 62
2
 10
323.9006221138801
 20
-261.8095516157252
 30
0
 11
325.0918942278145
 21
-260.5075811857375
 31
0
 12
325.3851849293051
 22
-260.8554397265542
 32
0
 13
325.3851849293051
 23
-260.8554397265542
 33
0
  0
TEXT
  8
1
 62
2
 10
339.4174934224367
 20
-246.3601114973125
 30
0
 40
1.75
  1
14
 50
40.13531287784208
 41
0.8910000000000002
  0
TEXT
  8
1
 62
2
 10
340.8318217282129
 20
-243.4222794592093
 30
0
 40
1.225
  1
-0,1
 50
40.13531287784208
 41
0.8910000000000001
  0
TEXT
  8
1
 62
2
 10
342.1347092675271
 20
-244.9675741309144
 30
0
 40
1.225
  1
-0,15
 50
40.13531287784208
 41
0.8910000000000001
  0
TEXT
  8
1
 62
2
 10
337.8119924648211
 20
-247.7137608888077
 30
0
 40
1.75
  1
%%c
 50
40.13531287784208
 41
0.8910000000000002
  0
ENDBLK
  8
0
  0
BLOCK
  8
1
  2
*D3
 70
1
 10
0
 20
0
 30
0
  0
LINE
  8
1
 62
2
 10
335.230190592946
 20
-262.6138452049171
 30
0
 11
316.3147994145561
 21
-245.791397478116
 31
0
  0
SOLID
  8
1
 62
2
 10
335.230190592946
 20
-262.6138452049171
 30
0
 11
333.7713384889002
 21
-261.6208664596655
 31
0
 12
334.0737120505898
 22
-261.2808734756333
 32
0
 13
334.0737120505898
 23
-261.2808734756333
 33
0
  0
SOLID
  8
1
 62
2
 10
323.2743933522516
 20
-251.9809287498986
 30
0
 11
324.7332454562973
 21
-252.9739074951501
 31
0
 12
324.4308718946078
 22
-253.3139004791824
 32
0
 13
324.4308718946078
 23
-253.3139004791824
 33
0
  0
TEXT
  8
1
 62
2
 10
319.0864311280721
 20
-245.8349352233133
 30
0
 40
1.75
  1
16
 50
318.3516300368901
 41
0.8910000000000002
  0
TEXT
  8
1
 62
2
 10
322.1962307959303
 20
-246.8148983177276
 30
0
 40
1.225
  1
+0,2
 50
318.3516300368901
 41
0.8910000000000001
  0
TEXT
  8
1
 62
2
 10
320.7715861302775
 20
-248.4167883386488
 30
0
 40
1.225
  1
 0
 50
318.3516300368901
 41
0.8910000000000001
  0
TEXT
  8
1
 62
2
 10
317.517232740231
 20
-244.4393649385921
 30
0
 40
1.75
  1
%%c
 50
318.3516300368901
 41
0.8910000000000002
  0
ENDBLK
  8
0
  0
BLOCK
  8
0
  2
_2__S__S
 70
0
 10
160.0405545794088
 20
67.1898170089427
 30
0
  0
POLYLINE
  8
1
 62
2
 66
1
 70
1
  0
VERTEX
  8
1
 10
333.8298453835141
 20
-238.7588886373689
 30
0
 42
-0.1217661382986676
  0
VERTEX
  8
1
 10
330.8786861746798
 20
-240.141789928878
 30
0
 42
-0.0733095702569055
  0
VERTEX
  8
1
 10
327.5988990533893
 20
-240.2674323018356
 30
0
 42
-0.02783266072091262
  0
VERTEX
  8
1
 10
324.1713543420669
 20
-239.703967841688
 30
0
 42
0.009890233073968848
  0
VERTEX
  8
1
 10
320.7769223631375
 20
-239.019548633882
 30
0
 42
0.05683449890716977
  0
VERTEX
  8
1
 10
317.5964734390253
 20
-238.7823267638643
 30
0
 42
0.1192551612445962
  0
VERTEX
  8
1
 10
314.8108778921551
 20
-239.5604543170814
 30
0
 42
0.1119383222165203
  0
VERTEX
  8
1
 10
312.4830895454212
 20
-241.9054703577724
 30
0
 42
0.07898609635844517
  0
VERTEX
  8
1
 10
311.0444281584227
 20
-245.291358953225
 30
0
 42
0.08411120871138056
  0
VERTEX
  8
1
 10
310.7301798863462
 20
-248.9606336518908
 30
0
 42
0.04046916810539061
  0
VERTEX
  8
1
 10
311.5523901618692
 20
-252.6887408150315
 30
0
 42
-0.09306180121412497
  0
VERTEX
  8
1
 10
311.9040474886395
 20
-256.2668390257417
 30
0
 42
-0.03101285593956782
  0
VERTEX
  8
1
 10
311.302988411864
 20
-259.8830833255373
 30
0
 42
0.03748608795940305
  0
VERTEX
  8
1
 10
310.7433365671584
 20
-263.5064311038586
 30
0
 42
0.1039305359682185
  0
VERTEX
  8
1
 10
311.2607381350523
 20
-267.0925857702924
 30
0
 42
0.08556198917710742
  0
VERTEX
  8
1
 10
313.263921667272
 20
-270.4255634025956
 30
0
 42
0.06859735470923467
  0
VERTEX
  8
1
 10
316.3471638258202
 20
-273.1379116986051
 30
0
 42
0.06831340465193858
  0
VERTEX
  8
1
 10
320.0660449634095
 20
-274.9414235476159
 30
0
 42
0.08076175675655628
  0
VERTEX
  8
1
 10
324.0228698926967
 20
-275.5610237787579
 30
0
 42
0.06656135513825406
  0
VERTEX
  8
1
 10
327.9073040403849
 20
-274.995878118691
 30
0
 42
0.04876893100184553
  0
VERTEX
  8
1
 10
331.4980179516232
 20
-273.5905609012368
 30
0
 42
0.02014934277524579
  0
VERTEX
  8
1
 10
335.9949363055533
 20
-270.9464037903987
 30
0
 42
-0.05134627878101511
  0
VERTEX
  8
1
 10
340.9710668936791
 20
-268.4896883939757
 30
0
 42
-0.01340856736703695
  0
VERTEX
  8
1
 10
344.2072115238961
 20
-267.5137002778375
 30
0
 42
0.04458599681660298
  0
VERTEX
  8
1
 10
347.1591704331578
 20
-266.4544522160725
 30
0
 42
0.1723070418468862
  0
VERTEX
  8
1
 10
348.9867236908042
 20
-264.8462080316464
 30
0
 42
0.135583273930619
  0
VERTEX
  8
1
 10
349.1896314996097
 20
-262.5311902553526
 30
0
 42
0.02666284835249205
  0
VERTEX
  8
1
 10
348.5299682325801
 20
-259.6680914698808
 30
0
 42
-0.03701158370457248
  0
VERTEX
  8
1
 10
347.8936795821052
 20
-256.6119424127823
 30
0
 42
-0.06577598536527093
  0
VERTEX
  8
1
 10
348.0500801852618
 20
-252.7955183894639
 30
0
 42
0.00601320690991667
  0
VERTEX
  8
1
 10
348.6377646072763
 20
-249.2137520098493
 30
0
 42
0.09137647391159258
  0
VERTEX
  8
1
 10
348.5495060473242
 20
-245.8272405402878
 30
0
 42
0.1004181531707421
  0
VERTEX
  8
1
 10
347.0194901131305
 20
-242.7537210680736
 30
0
 42
0.07387652742912186
  0
VERTEX
  8
1
 10
344.2966548064298
 20
-240.168523689757
 30
0
 42
0.07141514988742118
  0
VERTEX
  8
1
 10
340.866861400445
 20
-238.4132508572557
 30
0
 42
0.09020962074102498
  0
VERTEX
  8
1
 10
337.2159711683988
 20
-237.8295050224872
 30
0
 42
0.1239583630869768
  0
VERTEX
  8
1
 10
333.8298453835141
 20
-238.7588886373689
 30
0
  0
SEQEND
  8
1
  0
LINE
  8
1
 62
7
 10
336.1465773761169
 20
-270.8546805623185
 30
0
 11
336.1465773761169
 21
-262.2973869774078
 31
0
  0
LINE
  8
1
 62
7
 10
336.1465773761169
 20
-252.2973869774078
 30
0
 11
336.1465773761169
 21
-237.9345099608793
 31
0
  0
LINE
  8
1
 62
7
 10
335.4972899709972
 20
-252.2973869774078
 30
0
 11
348.1289856784129
 21
-252.2973869774078
 31
0
  0
LINE
  8
1
 62
7
 10
335.4972899709972
 20
-262.2973869774078
 30
0
 11
349.1535211946574
 21
-262.2973869774078
 31
0
  0
LINE
  8
1
 62
7
 10
310.8623600557866
 20
-262.2973869774078
 30
0
 11
323.0072939742005
 21
-262.2973869774078
 31
0
  0
LINE
  8
1
 62
7
 10
311.450511812794
 20
-252.2973869774078
 30
0
 11
323.0072939742005
 21
-252.2973869774078
 31
0
  0
LINE
  8
1
 62
2
  6
DASHDOT
 10
336.2522919725988
 20
-257.2973869774078
 30
0
 11
337.2522919725988
 21
-257.2973869774078
 31
0
  0
LINE
  8
1
 62
7
 10
336.642375418226
 20
-257.2973869774079
 30
0
 11
336.212599244695
 21
-256.5529928089696
 31
0
  0
LINE
  8
1
 62
7
 10
336.212599244695
 20
-258.0417811458461
 30
0
 11
336.642375418226
 21
-257.2973869774079
 31
0
  0
LINE
  8
1
 62
7
 10
332.0877813483503
 20
-263.6973869774078
 30
0
 11
332.9473336954125
 21
-263.6973869774079
 31
0
  0
LINE
  8
1
 62
7
 10
332.9473336954125
 20
-263.6973869774079
 30
0
 11
333.3771098689434
 21
-262.9529928089696
 31
0
  0
LINE
  8
1
 62
7
 10
325.5572502497853
 20
-263.6973869774078
 30
0
 11
326.4168025968472
 21
-263.6973869774078
 31
0
  0
LINE
  8
1
 62
7
 10
325.1274740762541
 20
-262.9529928089695
 30
0
 11
325.5572502497853
 21
-263.6973869774078
 31
0
  0
LINE
  8
1
 62
7
 10
321.8622085269716
 20
-257.2973869774078
 30
0
 11
322.2919847005026
 21
-258.0417811458461
 31
0
  0
LINE
  8
1
 62
7
 10
322.2919847005026
 20
-256.5529928089695
 30
0
 11
321.8622085269716
 21
-257.2973869774078
 31
0
  0
LINE
  8
1
 62
7
 10
326.4168025968473
 20
-250.8973869774078
 30
0
 11
325.5572502497853
 21
-250.8973869774078
 31
0
  0
LINE
  8
1
 62
7
 10
325.5572502497853
 20
-250.8973869774078
 30
0
 11
325.1274740762542
 21
-251.6417811458461
 31
0
  0
LINE
  8
1
 62
7
 10
333.3771098689435
 20
-251.6417811458461
 30
0
 11
332.9473336954125
 21
-250.8973869774078
 31
0
  0
LINE
  8
1
 62
7
 10
332.9473336954125
 20
-250.8973869774078
 30
0
 11
332.0877813483504
 21
-250.8973869774078
 31
0
  0
LINE
  8
1
 62
2
  6
DASHDOT
 10
333.5022919725988
 20
-257.2973869774078
 30
0
 11
329.2522919725988
 21
-257.2973869774078
 31
0
  0
LINE
  8
1
 62
2
  6
DASHDOT
 10
337.2522919725988
 20
-257.2973869774078
 30
0
 11
339.2522919725988
 21
-257.2973869774078
 31
0
  0
LINE
  8
1
 62
2
  6
DASHDOT
 10
319.2522919725988
 20
-257.2973869774078
 30
0
 11
325.0022919725988
 21
-257.2973869774078
 31
0
  0
LINE
  8
1
 62
2
  6
DASHDOT
 10
329.2522919725988
 20
-257.2973869774078
 30
0
 11
329.2522919725988
 21
-267.2973869774078
 31
0
  0
LINE
  8
1
 62
2
  6
DASHDOT
 10
333.5022919725988
 20
-257.2973869774078
 30
0
 11
336.2522919725988
 21
-257.2973869774078
 31
0
  0
LINE
  8
1
 62
2
  6
DASHDOT
 10
329.2522919725988
 20
-253.0473869774079
 30
0
 11
329.2522919725988
 21
-247.2973869774078
 31
0
  0
ARC
  8
1
 62
7
 10
329.2522919725988
 20
-257.2973869774078
 30
0
 40
4.249999999999995
 50
135
 51
315
  0
ARC
  8
1
 62
7
 10
329.2522919725988
 20
-257.2973869774078
 30
0
 40
4.249999999999914
 50
315
 51
0
  0
ARC
  8
1
 62
7
 10
329.2522919725988
 20
-257.2973869774078
 30
0
 40
4.25
 50
0
 51
135
  0
ARC
  8
1
 62
7
 10
329.2522919726001
 20
-257.2973869774084
 30
0
 40
8.000000000000103
 50
61.67148335275272
 51
71.44128084010698
  0
ARC
  8
1
 62
7
 10
329.2522919725988
 20
-257.2973869774078
 30
0
 40
7.999999999999967
 50
90.85156412702681
 51
44.99999999999913
  0
ARC
  8
1
 62
7
 10
329.2522919725988
 20
-257.2973869774078
 30
0
 40
7.99999999999999
 50
81.87183114645838
 51
90.85156412702681
  0
ARC
  8
1
 62
7
 10
329.2522919725988
 20
-257.2973869774078
 30
0
 40
8.000000000000185
 50
44.99999999999913
 51
61.67148335274256
  0
ARC
  8
1
 62
7
 10
329.2522919725988
 20
-257.2973869774078
 30
0
 40
7.999999999999987
 50
71.4412808400968
 51
81.87183114645838
  0
CIRCLE
  8
1
 62
7
 10
329.2522919725988
 20
-257.2973869774078
 30
0
 40
7
  0
TEXT
  8
1
 62
2
 10
329.9480218232272
 20
-236.0052078273017
 30
0
 40
1.5
  1
scala 2:1
 41
0.8910000000000001
  0
TEXT
  8
1
 62
2
 10
321.1416242961732
 20
-233.6353396697601
 30
0
 40
1.5
  1
Dettaglio lamatura dado
 41
0.8910000000000001
  0
DIMENSION
  8
1
  6
CONTINUOUS
 62
2
  2
*D0
  3
DMST_1
 10
342.9481845780481
 20
-250.8973869774078
 30
0
 11
340.9856845780481
 21
-257.2973869774078
 31
0
 12
0
 22
0
 32
0
 70
0
  1
12,8
 13
332.9473336954125
 23
-263.6973869774079
 33
0
 14
332.9473336954125
 24
-250.8973869774078
 34
0
 50
90
 53
0
  0
DIMENSION
  8
1
  6
CONTINUOUS
 62
2
  2
*D1
  3
DMST_2
 10
316.5501225455308
 20
-263.9891487643902
 30
0
 11
321.3857356567041
 21
-265.0284823440682
 31
0
 12
0
 22
0
 32
0
 70
1
  1
9
 13
332.2574957926416
 23
-260.3025907974506
 33
0
 14
326.247088152556
 24
-254.292183157365
 34
0
 53
0
  0
DIMENSION
  8
1
  6
CONTINUOUS
 62
2
  2
*D2
  3
DMST_3
 10
323.9006221138801
 20
-261.8095516157251
 30
0
 11
340.7098333248901
 21
-244.1259956560563
 31
0
 12
0
 22
0
 32
0
 70
3
 15
334.6039618313176
 25
-252.7852223390905
 35
0
 40
0
 53
0
  0
DIMENSION
  8
1
  6
CONTINUOUS
 62
2
  2
*D3
  3
DMST_3
 10
335.230190592946
 20
-262.6138452049171
 30
0
 11
321.2076946647751
 21
-246.5505059035955
 31
0
 12
0
 22
0
 32
0
 70
3
 15
323.2743933522516
 25
-251.9809287498986
 35
0
 40
0
 53
0
  0
ENDBLK
  8
0
  0
BLOCK
  8
0
  2
TOP__4
 70
0
 10
969.5614593791855
 20
430.0980336638893
 30
0
  0
INSERT
  8
0
  2
_2__S__S
 10
-130.8979636867569
 20
552.9336224792098
 30
0
 41
2
 42
2
 43
2
  0
ENDBLK
  8
0
  0
BLOCK
  8
0
  2
TOP__5
 70
0
 10
7.851417989865467
 20
674.1482212280849
 30
0
  0
INSERT
  8
0
  2
TOP__4
 10
969.5614593791855
 20
430.0980336638893
 30
0
  0
ENDBLK
  8
0
  0
BLOCK
  8
0
  2
TOP__6
 70
0
 10
-545.879095860652
 20
694.5504648666069
 30
0
  0
INSERT
  8
0
  2
TOP__5
 10
7.851417989865467
 20
674.1482212280849
 30
0
  0
ENDBLK
  8
0
  0
BLOCK
  8
0
  2
_X2
 70
0
 10
0
 20
0
 30
0
  0
LINE
  8
1
 62
2
 10
10.03307773352108
 20
305.9022321006285
 30
0
 11
10.0162383564645
 21
305.919071477685
 31
0
  0
LINE
  8
1
 62
2
 10
9.943420186304278
 20
305.850468291608
 30
0
 11
9.874817000227189
 21
305.919071477685
 31
0
  0
LINE
  8
1
 62
2
 10
9.853762639087474
 20
305.7987044825875
 30
0
 11
9.73339564398988
 21
305.919071477685
 31
0
  0
LINE
  8
1
 62
2
 10
9.76410509187067
 20
305.746940673567
 30
0
 11
9.591974287752571
 21
305.919071477685
 31
0
  0
LINE
  8
1
 62
2
 10
9.674447544653866
 20
305.6951768645465
 30
0
 11
9.450552931515261
 21
305.919071477685
 31
0
  0
LINE
  8
1
 62
2
 10
9.584789997437062
 20
305.643413055526
 30
0
 11
9.309131575277952
 21
305.919071477685
 31
0
  0
LINE
  8
1
 62
2
 10
9.495132450220257
 20
305.5916492465055
 30
0
 11
9.167710219040643
 21
305.919071477685
 31
0
  0
LINE
  8
1
 62
2
 10
9.405474903003453
 20
305.5398854374851
 30
0
 11
9.026288862803334
 21
305.919071477685
 31
0
  0
LINE
  8
1
 62
2
 10
9.315817355786649
 20
305.4881216284646
 30
0
 11
8.884867506566025
 21
305.919071477685
 31
0
  0
LINE
  8
1
 62
2
 10
9.226159808569845
 20
305.4363578194441
 30
0
 11
8.743446150328715
 21
305.919071477685
 31
0
  0
LINE
  8
1
 62
2
 10
9.136502261353041
 20
305.3845940104236
 30
0
 11
8.602024794091406
 21
305.919071477685
 31
0
  0
LINE
  8
1
 62
2
 10
9.046844714136237
 20
305.3328302014031
 30
0
 11
8.460603437854097
 21
305.919071477685
 31
0
  0
LINE
  8
1
 62
2
 10
8.957187166919432
 20
305.2810663923826
 30
0
 11
8.319182081616788
 21
305.919071477685
 31
0
  0
LINE
  8
1
 62
2
 10
8.867529619702628
 20
305.2293025833621
 30
0
 11
8.177760725379478
 21
305.919071477685
 31
0
  0
LINE
  8
1
 62
2
 10
8.777872072485824
 20
305.1775387743417
 30
0
 11
8.036339369142169
 21
305.919071477685
 31
0
  0
LINE
  8
1
 62
2
 10
8.68821452526902
 20
305.1257749653212
 30
0
 11
7.89491801290486
 21
305.919071477685
 31
0
  0
LINE
  8
1
 62
2
 10
8.598556978052216
 20
305.0740111563007
 30
0
 11
7.753496656667551
 21
305.919071477685
 31
0
  0
LINE
  8
1
 62
2
 10
8.508899430835411
 20
305.0222473472802
 30
0
 11
7.612075300430241
 21
305.919071477685
 31
0
  0
LINE
  8
1
 62
2
 10
8.419241883618607
 20
304.9704835382597
 30
0
 11
7.470653944192932
 21
305.919071477685
 31
0
  0
LINE
  8
1
 62
2
 10
8.329584336401803
 20
304.9187197292392
 30
0
 11
7.329232587955623
 21
305.919071477685
 31
0
  0
LINE
  8
1
 62
2
 10
8.239926789184999
 20
304.8669559202187
 30
0
 11
7.187811231718314
 21
305.919071477685
 31
0
  0
LINE
  8
1
 62
2
 10
8.150269241968195
 20
304.8151921111983
 30
0
 11
7.046389875481005
 21
305.919071477685
 31
0
  0
LINE
  8
1
 62
2
 10
8.06061169475139
 20
304.7634283021778
 30
0
 11
6.904968519243695
 21
305.919071477685
 31
0
  0
LINE
  8
1
 62
2
 10
7.970954147534585
 20
304.7116644931573
 30
0
 11
6.763547163006386
 21
305.919071477685
 31
0
  0
LINE
  8
1
 62
2
 10
7.88129660031778
 20
304.6599006841368
 30
0
 11
6.622125806769077
 21
305.919071477685
 31
0
  0
LINE
  8
1
 62
2
 10
7.791639053100975
 20
304.6081368751163
 30
0
 11
6.480704450531768
 21
305.919071477685
 31
0
  0
LINE
  8
1
 62
2
 10
7.70198150588417
 20
304.5563730660958
 30
0
 11
6.339283094294458
 21
305.919071477685
 31
0
  0
LINE
  8
1
 62
2
 10
7.612323958667365
 20
304.5046092570753
 30
0
 11
6.197861738057149
 21
305.919071477685
 31
0
  0
LINE
  8
1
 62
2
 10
7.52266641145056
 20
304.4528454480549
 30
0
 11
6.05644038181984
 21
305.919071477685
 31
0
  0
LINE
  8
1
 62
2
 10
7.433008864233755
 20
304.4010816390344
 30
0
 11
5.915019025582531
 21
305.919071477685
 31
0
  0
LINE
  8
1
 62
2
 10
7.34335131701695
 20
304.3493178300139
 30
0
 11
5.773597669345222
 21
305.919071477685
 31
0
  0
LINE
  8
1
 62
2
 10
7.253693769800145
 20
304.2975540209934
 30
0
 11
5.632176313107912
 21
305.919071477685
 31
0
  0
LINE
  8
1
 62
2
 10
7.16403622258334
 20
304.2457902119729
 30
0
 11
5.490754956870603
 21
305.919071477685
 31
0
  0
LINE
  8
1
 62
2
 10
7.074378675366535
 20
304.1940264029524
 30
0
 11
5.349333600633294
 21
305.919071477685
 31
0
  0
LINE
  8
1
 62
2
 10
6.984721128149729
 20
304.1422625939319
 30
0
 11
5.207912244395985
 21
305.919071477685
 31
0
  0
LINE
  8
1
 62
2
 10
6.895063580932924
 20
304.0904987849115
 30
0
 11
5.066490888158675
 21
305.919071477685
 31
0
  0
LINE
  8
1
 62
2
 10
6.805406033716119
 20
304.038734975891
 30
0
 11
4.925069531921366
 21
305.919071477685
 31
0
  0
LINE
  8
1
 62
2
 10
6.715748486499314
 20
303.9869711668705
 30
0
 11
4.783648175684057
 21
305.919071477685
 31
0
  0
LINE
  8
1
 62
2
 10
6.626090939282509
 20
303.93520735785
 30
0
 11
4.642226819446748
 21
305.919071477685
 31
0
  0
LINE
  8
1
 62
2
 10
6.536433392065704
 20
303.8834435488295
 30
0
 11
4.500805463209439
 21
305.919071477685
 31
0
  0
LINE
  8
1
 62
2
 10
6.446775844848899
 20
303.831679739809
 30
0
 11
4.359384106972129
 21
305.919071477685
 31
0
  0
LINE
  8
1
 62
2
 10
6.357118297632094
 20
303.7799159307885
 30
0
 11
4.21796275073482
 21
305.919071477685
 31
0
  0
LINE
  8
1
 62
2
 10
6.267460750415289
 20
303.7281521217681
 30
0
 11
4.076541394497511
 21
305.919071477685
 31
0
  0
LINE
  8
1
 62
2
 10
6.177803203198484
 20
303.6763883127476
 30
0
 11
3.935120038260201
 21
305.919071477685
 31
0
  0
LINE
  8
1
 62
2
 10
6.088145655981679
 20
303.6246245037271
 30
0
 11
3.793698682022892
 21
305.919071477685
 31
0
  0
LINE
  8
1
 62
2
 10
5.998488108764874
 20
303.5728606947066
 30
0
 11
3.652277325785582
 21
305.919071477685
 31
0
  0
LINE
  8
1
 62
2
 10
5.908830561548069
 20
303.5210968856861
 30
0
 11
3.562244390150909
 21
305.8676830570823
 31
0
  0
LINE
  8
1
 62
2
 10
5.819173014331263
 20
303.4693330766656
 30
0
 11
3.562244390150909
 21
305.726261700845
 31
0
  0
LINE
  8
1
 62
2
 10
5.729515467114458
 20
303.4175692676451
 30
0
 11
3.562244390150909
 21
305.5848403446078
 31
0
  0
LINE
  8
1
 62
2
 10
5.639857919897653
 20
303.3658054586247
 30
0
 11
3.562244390150909
 21
305.4434189883705
 31
0
  0
LINE
  8
1
 62
2
 10
5.550200372680848
 20
303.3140416496042
 30
0
 11
3.562244390150909
 21
305.3019976321332
 31
0
  0
LINE
  8
1
 62
2
 10
5.460542825464043
 20
303.2622778405837
 30
0
 11
3.562244390150909
 21
305.1605762758959
 31
0
  0
LINE
  8
1
 62
2
 10
5.370885278247238
 20
303.2105140315632
 30
0
 11
3.562244390150909
 21
305.0191549196586
 31
0
  0
LINE
  8
1
 62
2
 10
5.281227731030433
 20
303.1587502225427
 30
0
 11
3.562244390150909
 21
304.8777335634213
 31
0
  0
LINE
  8
1
 62
2
 10
5.191570183813628
 20
303.1069864135222
 30
0
 11
3.562244390150909
 21
304.736312207184
 31
0
  0
LINE
  8
1
 62
2
 10
5.101912636596823
 20
303.0552226045018
 30
0
 11
3.562244390150909
 21
304.5948908509467
 31
0
  0
LINE
  8
1
 62
2
 10
5.012255089380018
 20
303.0034587954813
 30
0
 11
3.562244390150909
 21
304.4534694947095
 31
0
  0
LINE
  8
1
 62
2
 10
4.922597542163213
 20
302.9516949864608
 30
0
 11
3.562244390150909
 21
304.3120481384722
 31
0
  0
LINE
  8
1
 62
2
 10
4.832939994946408
 20
302.8999311774403
 30
0
 11
3.562244390150909
 21
304.1706267822349
 31
0
  0
LINE
  8
1
 62
2
 10
4.743282447729603
 20
302.8481673684198
 30
0
 11
3.562244390150909
 21
304.0292054259976
 31
0
  0
LINE
  8
1
 62
2
 10
4.653624900512797
 20
302.7964035593993
 30
0
 11
3.562244390150909
 21
303.8877840697603
 31
0
  0
LINE
  8
1
 62
2
 10
4.563967353295992
 20
302.7446397503788
 30
0
 11
3.562244390150909
 21
303.746362713523
 31
0
  0
LINE
  8
1
 62
2
 10
4.474309806079187
 20
302.6928759413584
 30
0
 11
3.562244390150909
 21
303.6049413572857
 31
0
  0
LINE
  8
1
 62
2
 10
4.384652258862382
 20
302.6411121323379
 30
0
 11
3.562244390150909
 21
303.4635200010484
 31
0
  0
LINE
  8
1
 62
2
 10
4.294994711645577
 20
302.5893483233174
 30
0
 11
3.562244390150909
 21
303.3220986448111
 31
0
  0
LINE
  8
1
 62
2
 10
4.205337164428772
 20
302.5375845142969
 30
0
 11
3.562244390150909
 21
303.1806772885739
 31
0
  0
LINE
  8
1
 62
2
 10
4.115679617211967
 20
302.4858207052764
 30
0
 11
3.562244390150909
 21
303.0392559323366
 31
0
  0
LINE
  8
1
 62
2
 10
4.026022069995162
 20
302.4340568962559
 30
0
 11
3.562244390150909
 21
302.8978345760993
 31
0
  0
LINE
  8
1
 62
2
 10
3.936364522778357
 20
302.3822930872354
 30
0
 11
3.562244390150909
 21
302.756413219862
 31
0
  0
LINE
  8
1
 62
2
 10
3.846706975561552
 20
302.330529278215
 30
0
 11
3.562244390150909
 21
302.6149918636247
 31
0
  0
LINE
  8
1
 62
2
 10
3.757049428344747
 20
302.2787654691945
 30
0
 11
3.562244390150909
 21
302.4735705073874
 31
0
  0
LINE
  8
1
 62
2
 10
3.667391881127942
 20
302.227001660174
 30
0
 11
3.562244390150909
 21
302.3321491511501
 31
0
  0
LINE
  8
1
 62
2
 10
3.577734333911136
 20
302.1752378511535
 30
0
 11
3.562244390150909
 21
302.1907277949128
 31
0
  0
ENDBLK
  8
0
  0
BLOCK
  8
0
  2
_FRECCIA__2
 70
0
 10
10.0622443901509
 20
305.919071477685
 30
0
  0
LINE
  8
1
 62
7
 10
10.0622443901509
 20
305.919071477685
 30
0
 11
3.5622443901509
 21
302.1662947279524
 31
0
  0
LINE
  8
1
 62
7
 10
3.5622443901509
 20
302.1662947279524
 30
0
 11
3.5622443901509
 21
305.919071477685
 31
0
  0
LINE
  8
1
 62
7
 10
10.0622443901509
 20
305.919071477685
 30
0
 11
-4.9377556098491
 21
305.919071477685
 31
0
  0
LINE
  8
1
 62
7
 10
3.5622443901509
 20
305.919071477685
 30
0
 11
3.5622443901509
 21
309.6718482274174
 31
0
  0
LINE
  8
1
 62
7
 10
3.5622443901509
 20
309.6718482274174
 30
0
 11
10.0622443901509
 21
305.919071477685
 31
0
  0
TEXT
  8
1
 62
7
 10
-2.26572806002026
 20
307.8316873609397
 30
0
 40
3.5
  1
A
 41
0.8910000000000004
  0
INSERT
  8
0
  2
_X2
 10
0
 20
0
 30
0
  0
ENDBLK
  8
0
  0
BLOCK
  8
0
  2
_X0
 70
0
 10
0
 20
0
 30
0
  0
LINE
  8
1
 62
2
 10
-125.3562740575181
 20
166.0856246538632
 30
0
 11
-125.455638815831
 21
166.1849894121762
 31
0
  0
LINE
  8
1
 62
2
 10
-125.1630888922603
 20
165.7510181323681
 30
0
 11
-125.455638815831
 21
166.0435680559388
 31
0
  0
LINE
  8
1
 62
2
 10
-124.9699037270025
 20
165.416411610873
 30
0
 11
-125.455638815831
 21
165.9021466997015
 31
0
  0
LINE
  8
1
 62
2
 10
-124.7767185617447
 20
165.0818050893779
 30
0
 11
-125.455638815831
 21
165.7607253434642
 31
0
  0
LINE
  8
1
 62
2
 10
-124.5835333964869
 20
164.7471985678827
 30
0
 11
-125.455638815831
 21
165.6193039872269
 31
0
  0
LINE
  8
1
 62
2
 10
-124.3903482312291
 20
164.4125920463876
 30
0
 11
-125.455638815831
 21
165.4778826309896
 31
0
  0
LINE
  8
1
 62
2
 10
-124.1971630659713
 20
164.0779855248925
 30
0
 11
-125.455638815831
 21
165.3364612747523
 31
0
  0
LINE
  8
1
 62
2
 10
-124.0039779007135
 20
163.7433790033974
 30
0
 11
-125.455638815831
 21
165.1950399185149
 31
0
  0
LINE
  8
1
 62
2
 10
-123.8107927354557
 20
163.4087724819023
 30
0
 11
-125.455638815831
 21
165.0536185622776
 31
0
  0
LINE
  8
1
 62
2
 10
-123.6176075701979
 20
163.0741659604072
 30
0
 11
-125.455638815831
 21
164.9121972060403
 31
0
  0
LINE
  8
1
 62
2
 10
-123.4244224049401
 20
162.739559438912
 30
0
 11
-125.455638815831
 21
164.770775849803
 31
0
  0
LINE
  8
1
 62
2
 10
-123.2312372396823
 20
162.4049529174169
 30
0
 11
-125.455638815831
 21
164.6293544935657
 31
0
  0
LINE
  8
1
 62
2
 10
-123.0380520744245
 20
162.0703463959218
 30
0
 11
-125.455638815831
 21
164.4879331373284
 31
0
  0
LINE
  8
1
 62
2
 10
-122.8448669091667
 20
161.7357398744267
 30
0
 11
-125.455638815831
 21
164.346511781091
 31
0
  0
LINE
  8
1
 62
2
 10
-122.6516817439089
 20
161.4011333529316
 30
0
 11
-125.455638815831
 21
164.2050904248537
 31
0
  0
LINE
  8
1
 62
2
 10
-122.4584965786511
 20
161.0665268314364
 30
0
 11
-125.455638815831
 21
164.0636690686164
 31
0
  0
LINE
  8
1
 62
2
 10
-122.2653114133933
 20
160.7319203099413
 30
0
 11
-125.455638815831
 21
163.9222477123791
 31
0
  0
LINE
  8
1
 62
2
 10
-122.0721262481355
 20
160.3973137884462
 30
0
 11
-125.455638815831
 21
163.7808263561418
 31
0
  0
LINE
  8
1
 62
2
 10
-121.8789410828777
 20
160.0627072669511
 30
0
 11
-125.455638815831
 21
163.6394049999045
 31
0
  0
LINE
  8
1
 62
2
 10
-121.7153846359067
 20
159.757729463743
 30
0
 11
-125.455638815831
 21
163.4979836436671
 31
0
  0
LINE
  8
1
 62
2
 10
-121.856805992144
 20
159.757729463743
 30
0
 11
-125.455638815831
 21
163.3565622874298
 31
0
  0
LINE
  8
1
 62
2
 10
-121.9982273483813
 20
159.757729463743
 30
0
 11
-125.455638815831
 21
163.2151409311925
 31
0
  0
LINE
  8
1
 62
2
 10
-122.1396487046187
 20
159.757729463743
 30
0
 11
-125.455638815831
 21
163.0737195749552
 31
0
  0
LINE
  8
1
 62
2
 10
-122.281070060856
 20
159.757729463743
 30
0
 11
-125.455638815831
 21
162.9322982187179
 31
0
  0
LINE
  8
1
 62
2
 10
-122.4224914170933
 20
159.757729463743
 30
0
 11
-125.455638815831
 21
162.7908768624806
 31
0
  0
LINE
  8
1
 62
2
 10
-122.5639127733306
 20
159.757729463743
 30
0
 11
-125.455638815831
 21
162.6494555062432
 31
0
  0
LINE
  8
1
 62
2
 10
-122.7053341295679
 20
159.757729463743
 30
0
 11
-125.455638815831
 21
162.5080341500059
 31
0
  0
LINE
  8
1
 62
2
 10
-122.8467554858052
 20
159.757729463743
 30
0
 11
-125.455638815831
 21
162.3666127937686
 31
0
  0
LINE
  8
1
 62
2
 10
-122.9881768420426
 20
159.757729463743
 30
0
 11
-125.455638815831
 21
162.2251914375313
 31
0
  0
LINE
  8
1
 62
2
 10
-123.1295981982799
 20
159.757729463743
 30
0
 11
-125.455638815831
 21
162.083770081294
 31
0
  0
LINE
  8
1
 62
2
 10
-123.2710195545172
 20
159.757729463743
 30
0
 11
-125.455638815831
 21
161.9423487250567
 31
0
  0
LINE
  8
1
 62
2
 10
-123.4124409107545
 20
159.757729463743
 30
0
 11
-125.455638815831
 21
161.8009273688193
 31
0
  0
LINE
  8
1
 62
2
 10
-123.5538622669918
 20
159.757729463743
 30
0
 11
-125.455638815831
 21
161.659506012582
 31
0
  0
LINE
  8
1
 62
2
 10
-123.6952836232291
 20
159.757729463743
 30
0
 11
-125.455638815831
 21
161.5180846563447
 31
0
  0
LINE
  8
1
 62
2
 10
-123.8367049794665
 20
159.757729463743
 30
0
 11
-125.455638815831
 21
161.3766633001074
 31
0
  0
LINE
  8
1
 62
2
 10
-123.9781263357038
 20
159.757729463743
 30
0
 11
-125.455638815831
 21
161.2352419438701
 31
0
  0
LINE
  8
1
 62
2
 10
-124.1195476919411
 20
159.757729463743
 30
0
 11
-125.455638815831
 21
161.0938205876328
 31
0
  0
LINE
  8
1
 62
2
 10
-124.2609690481784
 20
159.757729463743
 30
0
 11
-125.455638815831
 21
160.9523992313954
 31
0
  0
LINE
  8
1
 62
2
 10
-124.4023904044157
 20
159.757729463743
 30
0
 11
-125.455638815831
 21
160.8109778751581
 31
0
  0
LINE
  8
1
 62
2
 10
-124.543811760653
 20
159.757729463743
 30
0
 11
-125.455638815831
 21
160.6695565189208
 31
0
  0
LINE
  8
1
 62
2
 10
-124.6852331168904
 20
159.757729463743
 30
0
 11
-125.455638815831
 21
160.5281351626835
 31
0
  0
LINE
  8
1
 62
2
 10
-124.8266544731277
 20
159.757729463743
 30
0
 11
-125.455638815831
 21
160.3867138064462
 31
0
  0
LINE
  8
1
 62
2
 10
-124.968075829365
 20
159.757729463743
 30
0
 11
-125.455638815831
 21
160.2452924502089
 31
0
  0
LINE
  8
1
 62
2
 10
-125.1094971856023
 20
159.757729463743
 30
0
 11
-125.455638815831
 21
160.1038710939715
 31
0
  0
LINE
  8
1
 62
2
 10
-125.2509185418396
 20
159.757729463743
 30
0
 11
-125.455638815831
 21
159.9624497377342
 31
0
  0
LINE
  8
1
 62
2
 10
-125.3923398980769
 20
159.757729463743
 30
0
 11
-125.455638815831
 21
159.8210283814969
 31
0
  0
ENDBLK
  8
0
  0
BLOCK
  8
0
  2
_X1
 70
0
 10
0
 20
0
 30
0
  0
LINE
  8
1
 62
2
 10
145.8427963209
 20
166.1327155386048
 30
0
 11
145.770619497569
 21
166.2048923619358
 31
0
  0
LINE
  8
1
 62
2
 10
146.0359814861578
 20
165.7981090171097
 30
0
 11
145.770619497569
 21
166.0634710056985
 31
0
  0
LINE
  8
1
 62
2
 10
146.2291666514156
 20
165.4635024956146
 30
0
 11
145.770619497569
 21
165.9220496494612
 31
0
  0
LINE
  8
1
 62
2
 10
146.4223518166734
 20
165.1288959741195
 30
0
 11
145.770619497569
 21
165.7806282932239
 31
0
  0
LINE
  8
1
 62
2
 10
146.6155369819312
 20
164.7942894526244
 30
0
 11
145.770619497569
 21
165.6392069369865
 31
0
  0
LINE
  8
1
 62
2
 10
146.808722147189
 20
164.4596829311292
 30
0
 11
145.770619497569
 21
165.4977855807492
 31
0
  0
LINE
  8
1
 62
2
 10
147.0019073124468
 20
164.1250764096341
 30
0
 11
145.770619497569
 21
165.3563642245119
 31
0
  0
LINE
  8
1
 62
2
 10
147.1950924777046
 20
163.790469888139
 30
0
 11
145.770619497569
 21
165.2149428682746
 31
0
  0
LINE
  8
1
 62
2
 10
147.3882776429624
 20
163.4558633666439
 30
0
 11
145.770619497569
 21
165.0735215120373
 31
0
  0
LINE
  8
1
 62
2
 10
147.5814628082202
 20
163.1212568451488
 30
0
 11
145.770619497569
 21
164.9321001558
 31
0
  0
LINE
  8
1
 62
2
 10
147.774647973478
 20
162.7866503236536
 30
0
 11
145.770619497569
 21
164.7906787995626
 31
0
  0
LINE
  8
1
 62
2
 10
147.9678331387358
 20
162.4520438021585
 30
0
 11
145.770619497569
 21
164.6492574433253
 31
0
  0
LINE
  8
1
 62
2
 10
148.1610183039936
 20
162.1174372806634
 30
0
 11
145.770619497569
 21
164.507836087088
 31
0
  0
LINE
  8
1
 62
2
 10
148.3542034692514
 20
161.7828307591683
 30
0
 11
145.770619497569
 21
164.3664147308507
 31
0
  0
LINE
  8
1
 62
2
 10
148.5473886345092
 20
161.4482242376732
 30
0
 11
145.770619497569
 21
164.2249933746134
 31
0
  0
LINE
  8
1
 62
2
 10
148.740573799767
 20
161.1136177161781
 30
0
 11
145.770619497569
 21
164.0835720183761
 31
0
  0
LINE
  8
1
 62
2
 10
148.9337589650248
 20
160.7790111946829
 30
0
 11
145.770619497569
 21
163.9421506621387
 31
0
  0
LINE
  8
1
 62
2
 10
149.1269441302826
 20
160.4444046731878
 30
0
 11
145.770619497569
 21
163.8007293059014
 31
0
  0
LINE
  8
1
 62
2
 10
149.3201292955404
 20
160.1097981516927
 30
0
 11
145.770619497569
 21
163.6593079496641
 31
0
  0
LINE
  8
1
 62
2
 10
149.5133144607982
 20
159.7751916301976
 30
0
 11
145.770619497569
 21
163.5178865934268
 31
0
  0
LINE
  8
1
 62
2
 10
149.3893552710156
 20
159.757729463743
 30
0
 11
145.770619497569
 21
163.3764652371895
 31
0
  0
LINE
  8
1
 62
2
 10
149.2479339147783
 20
159.757729463743
 30
0
 11
145.770619497569
 21
163.2350438809522
 31
0
  0
LINE
  8
1
 62
2
 10
149.1065125585409
 20
159.757729463743
 30
0
 11
145.770619497569
 21
163.0936225247148
 31
0
  0
LINE
  8
1
 62
2
 10
148.9650912023036
 20
159.757729463743
 30
0
 11
145.770619497569
 21
162.9522011684775
 31
0
  0
LINE
  8
1
 62
2
 10
148.8236698460663
 20
159.757729463743
 30
0
 11
145.770619497569
 21
162.8107798122402
 31
0
  0
LINE
  8
1
 62
2
 10
148.682248489829
 20
159.757729463743
 30
0
 11
145.770619497569
 21
162.6693584560029
 31
0
  0
LINE
  8
1
 62
2
 10
148.5408271335917
 20
159.757729463743
 30
0
 11
145.770619497569
 21
162.5279370997656
 31
0
  0
LINE
  8
1
 62
2
 10
148.3994057773544
 20
159.757729463743
 30
0
 11
145.770619497569
 21
162.3865157435283
 31
0
  0
LINE
  8
1
 62
2
 10
148.257984421117
 20
159.757729463743
 30
0
 11
145.770619497569
 21
162.2450943872909
 31
0
  0
LINE
  8
1
 62
2
 10
148.1165630648797
 20
159.757729463743
 30
0
 11
145.770619497569
 21
162.1036730310536
 31
0
  0
LINE
  8
1
 62
2
 10
147.9751417086424
 20
159.757729463743
 30
0
 11
145.770619497569
 21
161.9622516748163
 31
0
  0
LINE
  8
1
 62
2
 10
147.8337203524051
 20
159.757729463743
 30
0
 11
145.770619497569
 21
161.820830318579
 31
0
  0
LINE
  8
1
 62
2
 10
147.6922989961678
 20
159.757729463743
 30
0
 11
145.770619497569
 21
161.6794089623417
 31
0
  0
LINE
  8
1
 62
2
 10
147.5508776399305
 20
159.757729463743
 30
0
 11
145.770619497569
 21
161.5379876061044
 31
0
  0
LINE
  8
1
 62
2
 10
147.4094562836931
 20
159.757729463743
 30
0
 11
145.770619497569
 21
161.396566249867
 31
0
  0
LINE
  8
1
 62
2
 10
147.2680349274558
 20
159.757729463743
 30
0
 11
145.770619497569
 21
161.2551448936297
 31
0
  0
LINE
  8
1
 62
2
 10
147.1266135712185
 20
159.757729463743
 30
0
 11
145.770619497569
 21
161.1137235373924
 31
0
  0
LINE
  8
1
 62
2
 10
146.9851922149812
 20
159.757729463743
 30
0
 11
145.770619497569
 21
160.9723021811551
 31
0
  0
LINE
  8
1
 62
2
 10
146.8437708587439
 20
159.757729463743
 30
0
 11
145.770619497569
 21
160.8308808249178
 31
0
  0
LINE
  8
1
 62
2
 10
146.7023495025066
 20
159.757729463743
 30
0
 11
145.770619497569
 21
160.6894594686805
 31
0
  0
LINE
  8
1
 62
2
 10
146.5609281462692
 20
159.757729463743
 30
0
 11
145.770619497569
 21
160.5480381124432
 31
0
  0
LINE
  8
1
 62
2
 10
146.4195067900319
 20
159.757729463743
 30
0
 11
145.770619497569
 21
160.4066167562058
 31
0
  0
LINE
  8
1
 62
2
 10
146.2780854337946
 20
159.757729463743
 30
0
 11
145.770619497569
 21
160.2651953999685
 31
0
  0
LINE
  8
1
 62
2
 10
146.1366640775573
 20
159.757729463743
 30
0
 11
145.770619497569
 21
160.1237740437312
 31
0
  0
LINE
  8
1
 62
2
 10
145.99524272132
 20
159.757729463743
 30
0
 11
145.770619497569
 21
159.9823526874939
 31
0
  0
LINE
  8
1
 62
2
 10
145.8538213650827
 20
159.757729463743
 30
0
 11
145.770619497569
 21
159.8409313312566
 31
0
  0
ENDBLK
  8
0
  0
BLOCK
  8
0
  2
_FRECCIA__1
 70
0
 10
155.9752282895989
 20
144.139852136803
 30
0
  0
LINE
  8
1
 62
7
 10
145.770619497569
 20
166.257729463743
 30
0
 11
149.5233962473015
 21
159.757729463743
 31
0
  0
LINE
  8
1
 62
7
 10
149.5233962473015
 20
159.757729463743
 30
0
 11
145.7706194975689
 21
159.757729463743
 31
0
  0
LINE
  8
1
 62
7
 10
145.770619497569
 20
166.257729463743
 30
0
 11
145.7706194975689
 21
151.257729463743
 31
0
  0
LINE
  8
1
 62
7
 10
145.7706194975689
 20
159.757729463743
 30
0
 11
142.0178427478365
 21
159.757729463743
 31
0
  0
LINE
  8
1
 62
7
 10
142.0178427478365
 20
159.757729463743
 30
0
 11
145.770619497569
 21
166.257729463743
 31
0
  0
LINE
  8
1
 62
7
 10
138.949030829444
 20
166.257729463743
 30
0
 11
151.949030829444
 21
166.257729463743
 31
0
  0
LINE
  8
1
 62
7
 10
138.949030829444
 20
167.257729463743
 30
0
 11
151.949030829444
 21
167.257729463743
 31
0
  0
LINE
  8
1
 62
7
 10
-125.455638815831
 20
166.257729463743
 30
0
 11
-121.7028620660985
 21
159.757729463743
 31
0
  0
LINE
  8
1
 62
7
 10
-121.7028620660985
 20
159.757729463743
 30
0
 11
-125.4556388158311
 21
159.757729463743
 31
0
  0
LINE
  8
1
 62
7
 10
-125.4556388158311
 20
159.757729463743
 30
0
 11
-129.2084155655635
 21
159.757729463743
 31
0
  0
LINE
  8
1
 62
7
 10
-129.2084155655635
 20
159.757729463743
 30
0
 11
-125.455638815831
 21
166.257729463743
 31
0
  0
LINE
  8
1
 62
7
 10
-132.277227483956
 20
166.257729463743
 30
0
 11
-119.277227483956
 21
166.257729463743
 31
0
  0
LINE
  8
1
 62
7
 10
-132.277227483956
 20
167.257729463743
 30
0
 11
-119.277227483956
 21
167.257729463743
 31
0
  0
TEXT
  8
1
 62
7
 10
142.1894545834238
 20
152.9529472925597
 30
0
 40
3.5
  1
B
 41
0.8910000000000004
  0
TEXT
  8
1
 62
7
 10
-129.0368037299762
 20
152.9529472925597
 30
0
 40
3.5
  1
B
 41
0.8910000000000004
  0
INSERT
  8
0
  2
_X0
 10
0
 20
0
 30
0
  0
INSERT
  8
0
  2
_X1
 10
0
 20
0
 30
0
  0
ENDBLK
  8
0
  0
BLOCK
  8
0
  2
_X7
 70
0
 10
-17
 20
0
 30
0
  0
LINE
  8
1
 62
2
 10
-43.37436636019424
 20
166.3815090351307
 30
0
 11
-44.25058678880396
 21
167.2577294637404
 31
0
  0
LINE
  8
1
 62
2
 10
-43.15160707630014
 20
164.0374294076769
 30
0
 11
-44.38821593815601
 21
165.2740382695328
 31
0
  0
LINE
  8
1
 62
2
 10
-43.77945585343842
 20
162.5439578412556
 30
0
 11
-44.38821593815601
 21
163.1527179259731
 31
0
  0
LINE
  8
1
 62
2
 10
-48.38821593815601
 20
167.1527179259731
 30
0
 11
-48.49322747592325
 21
167.2577294637404
 31
0
  0
LINE
  8
1
 62
2
 10
-42.960948111489
 20
159.6041297557465
 30
0
 11
-44.38821593815601
 21
161.0313975824135
 31
0
  0
LINE
  8
1
 62
2
 10
-48.38821593815598
 20
165.0313975824135
 30
0
 11
-50.04158479091413
 21
166.6847664351716
 31
0
  0
LINE
  8
1
 62
2
 10
-44.22065448868086
 20
158.7425157893787
 30
0
 11
-44.73586816304254
 21
159.2577294637404
 31
0
  0
LINE
  8
1
 62
2
 10
-48.38821593815594
 20
162.9100772388538
 30
0
 11
-49.66715896237352
 21
164.1890202630714
 31
0
  0
LINE
  8
1
 62
2
 10
-45.74683987333484
 20
158.1473808304731
 30
0
 11
-46.85718850660216
 21
159.2577294637404
 31
0
  0
LINE
  8
1
 62
2
 10
-48.38821593815591
 20
160.7887568952942
 30
0
 11
-49.30434679581157
 21
161.7048877529498
 31
0
  0
LINE
  8
1
 62
2
 10
-48.11492942671603
 20
158.3941500402946
 30
0
 11
-49.76561524612102
 21
160.0448358596996
 31
0
  0
ENDBLK
  8
0
  0
BLOCK
  8
0
  2
_X6
 70
0
 10
-17
 20
0
 30
0
  0
LINE
  8
1
 62
2
 10
-44.28821593815621
 20
167.8732556693309
 30
0
 11
-43.00628276032424
 21
169.1551888471629
 31
0
  0
LINE
  8
1
 62
2
 10
-44.28821593815621
 20
169.9945760128905
 30
0
 11
-43.30523184133624
 21
170.9775601097105
 31
0
  0
LINE
  8
1
 62
2
 10
-49.146382830866
 20
167.2577294637404
 30
0
 11
-48.48821593815582
 21
167.9158963564506
 31
0
  0
LINE
  8
1
 62
2
 10
-44.28821593815621
 20
172.1158963564502
 30
0
 11
-43.22321571665098
 21
173.1808965779554
 31
0
  0
LINE
  8
1
 62
2
 10
-49.63892496008643
 20
168.8865076780796
 30
0
 11
-48.48821593815588
 21
170.0372167000101
 31
0
  0
LINE
  8
1
 62
2
 10
-44.28821593815621
 20
174.2372167000098
 30
0
 11
-43.1220567389702
 21
175.4033758991959
 31
0
  0
LINE
  8
1
 62
2
 10
-49.46691395006238
 20
171.1798390316633
 30
0
 11
-48.48821593815594
 21
172.1585370435697
 31
0
  0
LINE
  8
1
 62
2
 10
-45.38902351798529
 20
175.2577294637404
 30
0
 11
-44.10305617164349
 21
176.5436968100822
 31
0
  0
LINE
  8
1
 62
2
 10
-49.85687398129259
 20
172.9111993439927
 30
0
 11
-48.488215938156
 21
174.2798573871293
 31
0
  0
LINE
  8
1
 62
2
 10
-47.51034386154494
 20
175.2577294637404
 30
0
 11
-46.55955276836629
 21
176.208520556919
 31
0
  0
LINE
  8
1
 62
2
 10
-49.50998294164246
 20
175.3794107272025
 30
0
 11
-48.13066487259408
 21
176.7587287962509
 31
0
  0
ENDBLK
  8
0
  0
BLOCK
  8
0
  2
TOP__3
 70
0
 10
658.5676032156159
 20
-207.6948911362431
 30
0
  0
LINE
  8
1
 62
7
 10
630.9035130655079
 20
-192.6948911362431
 30
0
 11
653.5676032156159
 21
-192.6948911362431
 31
0
  0
LINE
  8
1
 62
7
 10
605.9035130655079
 20
-162.6948911362431
 30
0
 11
630.9035130655079
 21
-162.6948911362431
 31
0
  0
LINE
  8
1
 62
2
 10
658.5676032156159
 20
386.3051088637569
 30
0
 11
-182.4323967843843
 21
386.3051088637569
 31
0
  0
LINE
  8
1
 62
7
 10
653.5676032156159
 20
381.3051088637569
 30
0
 11
-177.4323967843843
 21
381.3051088637569
 31
0
  0
LINE
  8
1
 62
7
 10
238.5676032156157
 20
381.3051088637569
 30
0
 11
238.5676032156157
 21
386.3051088637569
 31
0
  0
LINE
  8
1
 62
7
 10
448.5676032156159
 20
381.3051088637569
 30
0
 11
448.5676032156159
 21
386.3051088637569
 31
0
  0
LINE
  8
1
 62
7
 10
28.56760321561569
 20
381.3051088637569
 30
0
 11
28.56760321561569
 21
386.3051088637569
 31
0
  0
LINE
  8
1
 62
7
 10
-177.4323967843843
 20
381.3051088637569
 30
0
 11
-177.4323967843843
 21
-202.6948911362431
 31
0
  0
LINE
  8
1
 62
2
 10
-182.4323967843843
 20
386.3051088637569
 30
0
 11
-182.4323967843843
 21
-207.6948911362431
 31
0
  0
LINE
  8
1
 62
7
 10
-182.4323967843843
 20
89.30510886375691
 30
0
 11
-177.4323967843843
 21
89.30510886375691
 31
0
  0
LINE
  8
1
 62
7
 10
653.5676032156159
 20
89.30510886375691
 30
0
 11
658.5676032156159
 21
89.30510886375691
 31
0
  0
LINE
  8
1
 62
7
 10
-177.4323967843843
 20
-202.6948911362431
 30
0
 11
653.5676032156159
 21
-202.6948911362431
 31
0
  0
LINE
  8
1
 62
2
 10
-182.4323967843843
 20
-207.6948911362431
 30
0
 11
658.5676032156159
 21
-207.6948911362431
 31
0
  0
LINE
  8
1
 62
7
 10
238.5676032156157
 20
-207.6948911362431
 30
0
 11
238.5676032156157
 21
-202.6948911362431
 31
0
  0
LINE
  8
1
 62
7
 10
448.5676032156159
 20
-207.6948911362431
 30
0
 11
448.5676032156159
 21
-202.6948911362431
 31
0
  0
LINE
  8
1
 62
7
 10
28.56760321561569
 20
-207.6948911362431
 30
0
 11
28.56760321561569
 21
-202.6948911362431
 31
0
  0
LINE
  8
1
 62
2
 10
658.5676032156159
 20
-207.6948911362431
 30
0
 11
658.5676032156159
 21
386.3051088637569
 31
0
  0
LINE
  8
1
 62
7
 10
653.5676032156159
 20
-202.6948911362431
 30
0
 11
653.5676032156159
 21
381.3051088637569
 31
0
  0
LINE
  8
1
 62
7
 10
453.5676032156239
 20
-202.6948911362431
 30
0
 11
653.5676032156159
 21
-202.6948911362431
 31
0
  0
LINE
  8
1
 62
2
 10
626.3676704146749
 20
82.25262291287982
 30
0
 11
653.5676032156159
 21
82.25262291287982
 31
0
  0
LINE
  8
1
 62
2
 10
628.6695784750018
 20
82.25262291287982
 30
0
 11
628.6695784750018
 21
-20.07378536551209
 31
0
  0
LINE
  8
1
 62
2
 10
628.6695784750018
 20
82.25262291287982
 30
0
 11
628.6695784750018
 21
-27.12859117921607
 31
0
  0
LINE
  8
1
 62
2
 10
632.819249265104
 20
82.25262291287982
 30
0
 11
632.819249265104
 21
-27.12859117921607
 31
0
  0
LINE
  8
1
 62
2
 10
641.1185908453158
 20
82.25262291287982
 30
0
 11
641.1185908453158
 21
-27.12859117921607
 31
0
  0
LINE
  8
1
 62
2
 10
649.4179324255219
 20
82.25262291287982
 30
0
 11
649.4179324255219
 21
-27.12859117921607
 31
0
  0
LINE
  8
1
 62
7
 10
503.5676032156239
 20
-171.6948911362422
 30
0
 11
605.9035130655079
 21
-171.6948911362422
 31
0
  0
LINE
  8
1
 62
7
 10
503.5676032156239
 20
-159.6948911362431
 30
0
 11
605.9035130655079
 21
-159.6948911362431
 31
0
  0
LINE
  8
1
 62
7
 10
562.6028545296258
 20
-159.6948911362422
 30
0
 11
562.6028545296258
 21
-171.6948911362422
 31
0
  0
LINE
  8
1
 62
2
 10
626.2678299023428
 20
-27.12859117921607
 30
0
 11
653.5676032156159
 21
-27.12859117921607
 31
0
  0
LINE
  8
1
 62
2
 10
645.2682616354109
 20
-27.12859117921607
 30
0
 11
645.2682616354109
 21
82.25262291287982
 31
0
  0
LINE
  8
1
 62
2
 10
636.9689200552059
 20
-27.12859117921607
 30
0
 11
636.9689200552059
 21
82.25262291287982
 31
0
  0
LINE
  8
1
 62
7
 10
653.5676032156159
 20
-30.1098326257802
 30
0
 11
653.5676032156159
 21
-27.12859117921607
 31
0
  0
LINE
  8
1
 62
2
 10
653.5676032156159
 20
-30.1098326257802
 30
0
 11
626.2678299023428
 21
-30.1098326257802
 31
0
  0
LINE
  8
1
 62
2
 10
628.6695784750018
 20
-30.1098326257802
 30
0
 11
628.6695784750018
 21
-137.6948911362431
 31
0
  0
LINE
  8
1
 62
2
 10
632.819249265104
 20
-30.1098326257802
 30
0
 11
632.819249265104
 21
-137.6948911362431
 31
0
  0
LINE
  8
1
 62
2
 10
641.1185908453158
 20
-30.1098326257802
 30
0
 11
641.1185908453158
 21
-137.6948911362431
 31
0
  0
LINE
  8
1
 62
2
 10
649.4179324255219
 20
-30.1098326257802
 30
0
 11
649.4179324255219
 21
-137.6948911362431
 31
0
  0
LINE
  8
1
 62
2
 10
628.6695784750018
 20
12.85384365174787
 30
0
 11
653.5676032156159
 21
12.85384365174787
 31
0
  0
LINE
  8
1
 62
2
 10
628.6695784750018
 20
-4.476999142116028
 30
0
 11
653.5676032156159
 21
-4.476999142116028
 31
0
  0
LINE
  8
1
 62
2
 10
628.6695784750018
 20
-20.07378536551209
 30
0
 11
653.5676032156159
 21
-20.07378536551209
 31
0
  0
LINE
  8
1
 62
2
 10
628.6695784750018
 20
-98.14615634825213
 30
0
 11
653.5676032156159
 21
-98.14615634825213
 31
0
  0
LINE
  8
1
 62
2
 10
628.6695784750018
 20
-115.476999142116
 30
0
 11
653.5676032156159
 21
-115.476999142116
 31
0
  0
LINE
  8
1
 62
2
 10
628.6695784750018
 20
-131.0737853655121
 30
0
 11
653.5676032156159
 21
-131.0737853655121
 31
0
  0
LINE
  8
1
 62
7
 10
537.3064300690858
 20
-149.6948911362431
 30
0
 11
537.3064300690858
 21
-159.6948911362422
 31
0
  0
LINE
  8
1
 62
7
 10
453.5676032156239
 20
-187.2841865000412
 30
0
 11
503.5676032156239
 21
-187.2841865000412
 31
0
  0
LINE
  8
1
 62
7
 10
490.6210740926149
 20
-187.2841865000412
 30
0
 11
490.6210740926149
 21
-202.6948911362431
 31
0
  0
LINE
  8
1
 62
2
  6
DOT
 10
560.676776773046
 20
-167.6948911362422
 30
0
 11
506.374513317777
 21
-167.6948911362422
 31
0
  0
LINE
  8
1
 62
2
  6
DOT
 10
528.7081750149059
 20
-163.6948911362431
 30
0
 11
560.676776773046
 21
-163.6948911362431
 31
0
  0
LINE
  8
1
 62
2
 10
636.9689200552059
 20
-137.6948911362431
 30
0
 11
636.9689200552059
 21
-30.1098326257802
 31
0
  0
LINE
  8
1
 62
7
 10
453.5676032156239
 20
-137.6948911362431
 30
0
 11
653.5676032156159
 21
-137.6948911362431
 31
0
  0
LINE
  8
1
 62
2
 10
645.2682616354109
 20
-137.6948911362431
 30
0
 11
645.2682616354109
 21
-30.1098326257802
 31
0
  0
LINE
  8
1
 62
7
 10
503.5676032156239
 20
-177.6793120041341
 30
0
 11
453.5676032156239
 21
-177.6793120041341
 31
0
  0
LINE
  8
1
 62
7
 10
453.5676032156239
 20
-202.6948911362431
 30
0
 11
453.5676032156239
 21
-137.6948911362431
 31
0
  0
LINE
  8
1
 62
2
  6
DOT
 10
501.1060647540849
 20
-141.6948911362431
 30
0
 11
539.0676032156159
 21
-141.6948911362431
 31
0
  0
LINE
  8
1
 62
2
  6
DOT
 10
455.5676032156239
 20
-145.6948911362431
 30
0
 11
539.0676032156159
 21
-145.6948911362431
 31
0
  0
LINE
  8
1
 62
7
 10
630.9035130655079
 20
-137.6948911362431
 30
0
 11
628.6695784750018
 21
-137.6948911362431
 31
0
  0
LINE
  8
1
 62
7
 10
630.9035130655079
 20
-137.6948911362431
 30
0
 11
630.9035130655079
 21
-202.6948911362431
 31
0
  0
LINE
  8
1
 62
7
 10
503.5676032156239
 20
-149.6948911362431
 30
0
 11
503.5676032156239
 21
-202.6948911362431
 31
0
  0
LINE
  8
1
 62
7
 10
630.9035130655079
 20
-149.6948911362431
 30
0
 11
453.5676032156239
 21
-149.6948911362431
 31
0
  0
LINE
  8
1
 62
7
 10
562.6028545296258
 20
-149.6948911362431
 30
0
 11
562.6028545296258
 21
-159.6948911362422
 31
0
  0
LINE
  8
1
 62
7
 10
582.8041488788119
 20
-159.6948911362431
 30
0
 11
582.8041488788119
 21
-171.6948911362422
 31
0
  0
LINE
  8
1
 62
7
 10
541.0676032156159
 20
-137.6948911362431
 30
0
 11
541.0676032156159
 21
-149.6948911362431
 31
0
  0
LINE
  8
1
 62
7
 10
605.9035130655079
 20
-202.6948911362431
 30
0
 11
605.9035130655079
 21
-149.6948911362431
 31
0
  0
LINE
  8
1
 62
7
 10
605.9035130655079
 20
-182.6948911362431
 30
0
 11
630.9035130655079
 21
-182.6948911362431
 31
0
  0
LINE
  8
1
 62
2
 10
605.9035130655079
 20
-192.6948911362431
 30
0
 11
630.9035130655079
 21
-192.6948911362431
 31
0
  0
LINE
  8
1
 62
2
 10
605.9035130655079
 20
-172.6948911362431
 30
0
 11
630.9035130655079
 21
-172.6948911362431
 31
0
  0
LINE
  8
1
 62
2
  6
DOT
 10
543.0676032156159
 20
-145.6948911362431
 30
0
 11
628.9035130655079
 21
-145.6948911362431
 31
0
  0
LINE
  8
1
 62
2
  6
DOT
 10
587.6867599139339
 20
-141.6948911362431
 30
0
 11
628.9035130655079
 21
-141.6948911362431
 31
0
  0
LINE
  8
1
 62
7
 10
453.5676032156239
 20
-168.0744375082281
 30
0
 11
503.5676032156239
 21
-168.0744375082281
 31
0
  0
LINE
  8
1
 62
7
 10
582.8041488788119
 20
-149.6948911362431
 30
0
 11
582.8041488788119
 21
-159.6948911362431
 31
0
  0
LINE
  8
1
 62
7
 10
605.9035130655079
 20
-192.6948911362431
 30
0
 11
503.5676032156239
 21
-192.6948911362431
 31
0
  0
LINE
  8
1
 62
2
  6
DOT
 10
603.7049904852509
 20
-190.5948911362432
 30
0
 11
505.7596761472639
 21
-190.5948911362432
 31
0
  0
LINE
  8
1
 62
2
  6
DOT
 10
505.8666033463198
 20
-184.2948911362421
 30
0
 11
603.4911360871449
 21
-184.2948911362421
 31
0
  0
LINE
  8
1
 62
2
  6
DOT
 10
505.8666033463198
 20
-177.9948911362421
 30
0
 11
603.5980632862029
 21
-177.9948911362421
 31
0
  0
TEXT
  8
1
 62
2
 10
456.6191593697208
 20
-160.3846643222362
 30
0
 40
4
  1
Rexnord Marbett
 41
0.7707149999999999
 51
9.999999999999996
  7
COMPLEX
  0
TEXT
  8
1
 62
2
 10
607.0904972890439
 20
-177.918278961409
 30
0
 40
1.2
  1
(Date)
 41
1.0692
  0
TEXT
  8
1
 62
2
 10
607.0904972890439
 20
-175.278278961409
 30
0
 40
1.2
  1
Data
 41
1.0692
  0
TEXT
  8
1
 62
2
 10
627.7724072033529
 20
34.52957531725997
 30
0
 40
1.3
  1
Modifiche (Modifications)
 50
90
 41
1.0692
  0
TEXT
  8
1
 62
2
 10
628.1235192834929
 20
-0.1559428236241729
 30
0
 40
1.2
  1
(Draftsm.)
 50
90
 41
1.0692
  7
SIMPLEX
  0
TEXT
  8
1
 62
2
 10
626.4187745213719
 20
2.831099779313945
 30
0
 40
1.2
  1
Dis.
 50
90
 41
1.0692
  0
TEXT
  8
1
 62
2
 10
626.4187745213719
 20
-25.8533916452061
 30
0
 40
1.2
  1
Indic.
 50
90
 41
1.0692
  0
TEXT
  8
1
 62
2
 10
627.9972418937059
 20
-15.16507678123003
 30
0
 40
1.2
  1
(Date)
 50
90
 41
1.0692
  7
SIMPLEX
  0
TEXT
  8
1
 62
2
 10
626.2924971315849
 20
-14.57096380268217
 30
0
 40
1.2
  1
Data
 50
90
 41
1.0692
  0
TEXT
  8
1
 62
2
 10
628.1235192834929
 20
-25.62362484766209
 30
0
 40
1.2
  1
(Ind.)
 50
90
 41
1.0692
  7
SIMPLEX
  0
TEXT
  8
1
 62
2
 10
627.7724072033529
 20
-77.09157496103603
 30
0
 40
1.3
  1
Modifiche (Modifications)
 50
90
 41
1.0692
  0
TEXT
  8
1
 62
2
 10
626.4187745213719
 20
-108.918133523367
 30
0
 40
1.2
  1
 Dis.
 50
90
 41
1.0692
  0
TEXT
  8
1
 62
2
 10
628.1235192834929
 20
-111.0348319532352
 30
0
 40
1.2
  1
(Draftsm.)
 50
90
 41
1.0692
  7
SIMPLEX
  0
TEXT
  8
1
 62
2
 10
627.9972418937059
 20
-126.128084334621
 30
0
 40
1.2
  1
(Date)
 50
90
 41
1.0692
  7
SIMPLEX
  0
TEXT
  8
1
 62
2
 10
626.2924971315849
 20
-125.7652038847191
 30
0
 40
1.2
  1
Data
 50
90
 41
1.0692
  0
TEXT
  8
1
 62
2
 10
628.1235192834929
 20
-136.3627295187962
 30
0
 40
1.2
  1
(Ind.)
 50
90
 41
1.0692
  7
SIMPLEX
  0
TEXT
  8
1
 62
2
 10
626.4187745213719
 20
-136.576808791611
 30
0
 40
1.2
  1
Indic.
 50
90
 41
1.0692
  0
TEXT
  8
1
 62
2
 10
632.0843485232399
 20
-197.675415527925
 30
0
 40
1.2
  1
(Sheet)
 41
1.0692
  0
TEXT
  8
1
 62
2
 10
632.0843485232399
 20
-195.035415527925
 30
0
 40
1.2
  1
Foglio
 41
1.0692
  0
TEXT
  8
1
 62
2
 10
607.0904972890439
 20
-197.918278961409
 30
0
 40
1.2
  1
(Date)
 41
1.0692
  0
TEXT
  8
1
 62
2
 10
607.0904972890439
 20
-195.278278961409
 30
0
 40
1.2
  1
Data
 41
1.0692
  0
TEXT
  8
1
 62
2
 10
607.2030682485599
 20
-187.7562621080451
 30
0
 40
1.2
  1
(Check)
 41
1.0692
  0
TEXT
  8
1
 62
2
 10
607.2030682485599
 20
-185.1162621080451
 30
0
 40
1.2
  1
Contr.
 41
1.0692
  0
TEXT
  8
1
 62
2
 10
607.2030682485599
 20
-167.918278961409
 30
0
 40
1.2
  1
(Draftsm.)
 41
1.0692
  0
TEXT
  8
1
 62
2
 10
607.2030682485599
 20
-165.278278961409
 30
0
 40
1.2
  1
Dis.
 41
1.0692
  0
TEXT
  8
1
 62
2
 10
607.2030682485599
 20
-155.0637260267902
 30
0
 40
1.2
  1
(Scale)
 41
1.0692
  0
TEXT
  8
1
 62
2
 10
607.2030682485599
 20
-152.4237260267902
 30
0
 40
1.2
  1
Scala
 41
1.0692
  0
TEXT
  8
1
 62
2
 10
584.1002317396519
 20
-164.675910630551
 30
0
 40
1.2
  1
(Contraction %%%)
 41
1.0692
  0
TEXT
  8
1
 62
2
 10
584.1002317396519
 20
-162.035910630551
 30
0
 40
1.2
  1
Ritiro %%%
 41
1.0692
  0
TEXT
  8
1
 62
2
 10
584.1789212712179
 20
-152.1422884950082
 30
0
 40
1.2
  1
Toll. Gen.
 41
1.0692
  0
TEXT
  8
1
 62
2
 10
584.2297519930989
 20
-154.8341029499031
 30
0
 40
1.2
  1
(Gen. Tol.)
 41
1.0692
  0
TEXT
  8
1
 62
2
 10
564.1580031197518
 20
-164.5310989475561
 30
0
 40
1.2
  1
(Colour)
 41
1.0692
  0
TEXT
  8
1
 62
2
 10
564.1580031197518
 20
-161.8910989475561
 30
0
 40
1.2
  1
Colore
 41
1.0692
  0
TEXT
  8
1
 62
2
 10
563.9055089882259
 20
-154.8507414940912
 30
0
 40
1.3
  1
(Weight)
 41
1.0692
  0
TEXT
  8
1
 62
2
 10
563.9055089882259
 20
-152.2507414940912
 30
0
 40
1.3
  1
Peso
 41
1.0692
  0
TEXT
  8
1
 62
2
 10
544.0676032156159
 20
-141.6948911362431
 30
0
 40
1.3
  1
Tratt. superfic. (Surface treatments)
 41
0.9801
  0
TEXT
  8
1
 62
2
 10
538.276636335261
 20
-154.6787332254771
 30
0
 40
1.2
  1
(Line)
 41
1.0692
  0
TEXT
  8
1
 62
2
 10
538.5889561987599
 20
-151.9159087253322
 30
0
 40
1.3
  1
Linea
 41
1.0692
  0
TEXT
  8
1
 62
2
 10
506.0804577444369
 20
-195.8538507493652
 30
0
 40
1.5
  1
Progetto (Project)
 41
0.8910000000000001
  0
TEXT
  8
1
 62
2
 10
506.5676032156159
 20
-162.9008624318881
 30
0
 40
1.2
  1
Materiale (Mat.)
 41
1.0692
  0
TEXT
  8
1
 62
2
 10
506.5614346739919
 20
-176.6948911362431
 30
0
 40
1.5
  1
Descrizione (Description)
 41
0.8910000000000001
  0
TEXT
  8
1
 62
2
 10
492.6967726303728
 20
-190.1141418480852
 30
0
 40
1.3
  1
Modifica
 41
1.0692
  0
TEXT
  8
1
 62
2
 10
491.8175679585308
 20
-192.2981067222502
 30
0
 40
1.2
  1
(Modific.)
 41
1.3365
  0
TEXT
  8
1
 62
2
 10
454.7676032156169
 20
-195.115957877839
 30
0
 40
1.2
  1
N%%d
 41
0.891
  0
TEXT
  8
1
 62
2
 10
454.6844056566199
 20
-192.560898181493
 30
0
 40
1.2
  1
(Drawing or mould)
 41
1.3365
  0
TEXT
  8
1
 62
2
 10
454.6844056566199
 20
-189.920898181493
 30
0
 40
1.2
  1
Disegno o stp.
 41
1.3365
  0
TEXT
  8
1
 62
2
 10
454.7676032156169
 20
-185.642511049635
 30
0
 40
1.2
  1
N%%d
 41
0.891
  0
TEXT
  8
1
 62
2
 10
454.6844056566199
 20
-182.4899945831762
 30
0
 40
1.2
  1
(Assembly drawing)
 41
1.3365
  0
TEXT
  8
1
 62
2
 10
454.6844056566199
 20
-179.8499945831762
 30
0
 40
1.2
  1
Dis. Complessivo
 41
1.3365
  0
TEXT
  8
1
 62
2
 10
454.7676032156169
 20
-175.5189257136121
 30
0
 40
1.2
  1
N%%d
 41
0.891
  0
TEXT
  8
1
 62
2
 10
456.5676032156168
 20
-141.6948911362431
 30
0
 40
1.2
  1
Tratt. termici (Heat treatments)
 41
1.3365
  0
TEXT
  8
1
 62
2
 10
454.7478239255049
 20
-173.3064090570281
 30
0
 40
1.2
  1
(Customer Drawing)
 41
1.3365
  0
TEXT
  8
1
 62
2
 10
454.7478239255049
 20
-170.6664090570281
 30
0
 40
1.2
  1
Dis. Cliente
 41
1.3365
  0
TEXT
  8
1
 62
2
 10
651.8552183708638
 20
-190.5601035555162
 30
0
 40
1.180511166170861
  1
tutela i propri diritti a rigore di legge.
 50
90
 41
1.336500000000001
  0
TEXT
  8
1
 62
2
 10
649.2580938052879
 20
-190.5601035555162
 30
0
 40
1.180511166170861
  1
riprodotto. La Societa' proprietaria
 50
90
 41
1.336500000000001
  0
TEXT
  8
1
 62
2
 10
646.660969239712
 20
-190.5601035555162
 30
0
 40
1.180511166170861
  1
ne' venire comunicato a terzi o
 50
90
 41
1.336500000000001
  0
TEXT
  8
1
 62
2
 10
644.0638446741361
 20
-190.5601035555162
 30
0
 40
1.180511166170861
  1
costruzione dell'oggetto rappresentato,
 50
90
 41
1.336500000000001
  0
TEXT
  8
1
 62
2
 10
641.4667201085603
 20
-190.5601035555162
 30
0
 40
1.180511166170861
  1
essere comunque utilizzato per la
 50
90
 41
1.336500000000001
  0
TEXT
  8
1
 62
2
 10
638.8695955429844
 20
-190.5601035555162
 30
0
 40
1.180511166170861
  1
stessa il presente disegno non puo'
 50
90
 41
1.336500000000001
  0
TEXT
  8
1
 62
2
 10
636.2724709774085
 20
-190.5601035555162
 30
0
 40
1.180511166170861
  1
Senza autorizzazione scritta della
 50
90
 41
1.336500000000001
  0
TEXT
  8
1
 62
2
 10
633.6753464118326
 20
-190.5601035555162
 30
0
 40
1.180511166170861
  1
Proprieta' della Marbett S.p.A..
 50
90
 41
1.336500000000001
  0
TEXT
  8
1
 62
2
 10
641.2743147221668
 20
-206.3197052352591
 30
0
 40
2
  1
 UNI A/1
 41
0.891
  0
TEXT
  8
1
 62
2
 10
506.9848164276668
 20
-155.7966176907362
 30
0
 40
2.5
  1
UFFICI TECNICI
 41
0.891
  0
ENDBLK
  8
0
  0
BLOCK
  8
0
  2
_D0
 70
0
 10
-224.268826811756
 20
-176.283699852257
 30
0
  0
POLYLINE
  8
0
 62
2
 66
1
 70
1
  0
VERTEX
  8
0
 10
-145.676932992756
 20
47.72344909594301
 30
0
  0
VERTEX
  8
0
 10
-143.676932992756
 20
47.72344909594301
 30
0
  0
VERTEX
  8
0
 10
-144.676932992756
 20
40.72344909594301
 30
0
  0
VERTEX
  8
0
 10
-145.676932992756
 20
47.72344909594301
 30
0
  0
SEQEND
  8
0
  0
POLYLINE
  8
0
 62
2
 66
1
 70
1
  0
VERTEX
  8
0
 10
-143.676932992756
 20
286.792009831743
 30
0
  0
VERTEX
  8
0
 10
-145.676932992756
 20
286.792009831743
 30
0
  0
VERTEX
  8
0
 10
-144.676932992756
 20
293.792009831743
 30
0
  0
VERTEX
  8
0
 10
-143.676932992756
 20
286.792009831743
 30
0
  0
SEQEND
  8
0
  0
ENDBLK
  8
0
  0
BLOCK
  8
1
  2
*X0
 70
1
 10
0
 20
0
 30
0
  0
LINE
  8
1
 62
2
 10
13.661784061842
 20
200.7452245122197
 30
0
 11
13.661784061842
 21
201.5512245122205
 31
0
  0
LINE
  8
1
 62
2
 10
13.761784061842
 20
200.7582245122197
 30
0
 11
13.761784061842
 21
201.5382245122205
 31
0
  0
LINE
  8
1
 62
2
 10
13.861784061842
 20
200.7712245122197
 30
0
 11
13.861784061842
 21
201.5252245122205
 31
0
  0
LINE
  8
1
 62
2
 10
13.961784061842
 20
200.7842245122197
 30
0
 11
13.961784061842
 21
201.5122245122205
 31
0
  0
LINE
  8
1
 62
2
 10
14.061784061842
 20
200.7972245122197
 30
0
 11
14.061784061842
 21
201.4992245122205
 31
0
  0
LINE
  8
1
 62
2
 10
14.161784061842
 20
200.8102245122197
 30
0
 11
14.161784061842
 21
201.4862245122205
 31
0
  0
LINE
  8
1
 62
2
 10
14.261784061842
 20
200.8232245122197
 30
0
 11
14.261784061842
 21
201.4732245122205
 31
0
  0
LINE
  8
1
 62
2
 10
14.361784061842
 20
200.8362245122197
 30
0
 11
14.361784061842
 21
201.4602245122205
 31
0
  0
LINE
  8
1
 62
2
 10
14.461784061842
 20
200.8492245122197
 30
0
 11
14.461784061842
 21
201.4472245122205
 31
0
  0
LINE
  8
1
 62
2
 10
14.561784061842
 20
200.8622245122197
 30
0
 11
14.561784061842
 21
201.4342245122205
 31
0
  0
LINE
  8
1
 62
2
 10
14.661784061842
 20
200.8752245122198
 30
0
 11
14.661784061842
 21
201.4212245122205
 31
0
  0
LINE
  8
1
 62
2
 10
14.761784061842
 20
200.8882245122198
 30
0
 11
14.761784061842
 21
201.4082245122205
 31
0
  0
LINE
  8
1
 62
2
 10
14.861784061842
 20
200.9012245122198
 30
0
 11
14.861784061842
 21
201.3952245122205
 31
0
  0
LINE
  8
1
 62
2
 10
14.96178406184199
 20
200.9142245122198
 30
0
 11
14.96178406184199
 21
201.3822245122205
 31
0
  0
LINE
  8
1
 62
2
 10
15.06178406184199
 20
200.9272245122198
 30
0
 11
15.06178406184199
 21
201.3692245122205
 31
0
  0
LINE
  8
1
 62
2
 10
15.16178406184199
 20
200.9402245122198
 30
0
 11
15.16178406184199
 21
201.3562245122205
 31
0
  0
LINE
  8
1
 62
2
 10
15.26178406184199
 20
200.9532245122198
 30
0
 11
15.26178406184199
 21
201.3432245122204
 31
0
  0
LINE
  8
1
 62
2
 10
15.36178406184199
 20
200.9662245122198
 30
0
 11
15.36178406184199
 21
201.3302245122204
 31
0
  0
LINE
  8
1
 62
2
 10
15.46178406184199
 20
200.9792245122198
 30
0
 11
15.46178406184199
 21
201.3172245122204
 31
0
  0
LINE
  8
1
 62
2
 10
15.56178406184199
 20
200.9922245122198
 30
0
 11
15.56178406184199
 21
201.3042245122204
 31
0
  0
LINE
  8
1
 62
2
 10
15.66178406184199
 20
201.0052245122198
 30
0
 11
15.66178406184199
 21
201.2912245122204
 31
0
  0
LINE
  8
1
 62
2
 10
15.76178406184199
 20
201.0182245122198
 30
0
 11
15.76178406184199
 21
201.2782245122204
 31
0
  0
LINE
  8
1
 62
2
 10
15.86178406184199
 20
201.0312245122198
 30
0
 11
15.86178406184199
 21
201.2652245122204
 31
0
  0
LINE
  8
1
 62
2
 10
15.96178406184199
 20
201.0442245122198
 30
0
 11
15.96178406184199
 21
201.2522245122204
 31
0
  0
LINE
  8
1
 62
2
 10
16.06178406184199
 20
201.0572245122198
 30
0
 11
16.06178406184199
 21
201.2392245122204
 31
0
  0
LINE
  8
1
 62
2
 10
16.16178406184199
 20
201.0702245122198
 30
0
 11
16.16178406184199
 21
201.2262245122204
 31
0
  0
LINE
  8
1
 62
2
 10
16.26178406184199
 20
201.0832245122198
 30
0
 11
16.26178406184199
 21
201.2132245122204
 31
0
  0
LINE
  8
1
 62
2
 10
16.361784061842
 20
201.0962245122198
 30
0
 11
16.361784061842
 21
201.2002245122204
 31
0
  0
LINE
  8
1
 62
2
 10
16.461784061842
 20
201.1092245122198
 30
0
 11
16.461784061842
 21
201.1872245122204
 31
0
  0
LINE
  8
1
 62
2
 10
16.561784061842
 20
201.1222245122198
 30
0
 11
16.561784061842
 21
201.1742245122204
 31
0
  0
LINE
  8
1
 62
2
 10
16.661784061842
 20
201.1352245122199
 30
0
 11
16.661784061842
 21
201.1612245122204
 31
0
  0
ENDBLK
  8
0
  0
BLOCK
  8
1
  2
*X1
 70
1
 10
0
 20
0
 30
0
  0
LINE
  8
1
 62
2
 10
4.561784061843998
 20
201.1352245122202
 30
0
 11
4.561784061843998
 21
201.1612245122198
 31
0
  0
LINE
  8
1
 62
2
 10
4.661784061843997
 20
201.1222245122202
 30
0
 11
4.661784061843997
 21
201.1742245122198
 31
0
  0
LINE
  8
1
 62
2
 10
4.761784061843997
 20
201.1092245122202
 30
0
 11
4.761784061843997
 21
201.1872245122198
 31
0
  0
LINE
  8
1
 62
2
 10
4.861784061843997
 20
201.0962245122202
 30
0
 11
4.861784061843997
 21
201.2002245122199
 31
0
  0
LINE
  8
1
 62
2
 10
4.961784061843996
 20
201.0832245122201
 30
0
 11
4.961784061843996
 21
201.2132245122199
 31
0
  0
LINE
  8
1
 62
2
 10
5.061784061843996
 20
201.0702245122201
 30
0
 11
5.061784061843996
 21
201.2262245122199
 31
0
  0
LINE
  8
1
 62
2
 10
5.161784061843996
 20
201.0572245122201
 30
0
 11
5.161784061843996
 21
201.2392245122199
 31
0
  0
LINE
  8
1
 62
2
 10
5.261784061843995
 20
201.0442245122201
 30
0
 11
5.261784061843995
 21
201.2522245122199
 31
0
  0
LINE
  8
1
 62
2
 10
5.361784061843995
 20
201.0312245122201
 30
0
 11
5.361784061843995
 21
201.2652245122199
 31
0
  0
LINE
  8
1
 62
2
 10
5.461784061843995
 20
201.0182245122201
 30
0
 11
5.461784061843995
 21
201.2782245122199
 31
0
  0
LINE
  8
1
 62
2
 10
5.561784061843994
 20
201.0052245122201
 30
0
 11
5.561784061843994
 21
201.2912245122199
 31
0
  0
LINE
  8
1
 62
2
 10
5.661784061843994
 20
200.9922245122201
 30
0
 11
5.661784061843994
 21
201.3042245122199
 31
0
  0
LINE
  8
1
 62
2
 10
5.761784061843994
 20
200.9792245122201
 30
0
 11
5.761784061843994
 21
201.3172245122199
 31
0
  0
LINE
  8
1
 62
2
 10
5.861784061843993
 20
200.9662245122201
 30
0
 11
5.861784061843993
 21
201.3302245122199
 31
0
  0
LINE
  8
1
 62
2
 10
5.961784061843993
 20
200.9532245122201
 30
0
 11
5.961784061843993
 21
201.3432245122199
 31
0
  0
LINE
  8
1
 62
2
 10
6.061784061843992
 20
200.9402245122201
 30
0
 11
6.061784061843992
 21
201.3562245122199
 31
0
  0
LINE
  8
1
 62
2
 10
6.161784061843992
 20
200.9272245122201
 30
0
 11
6.161784061843992
 21
201.3692245122199
 31
0
  0
LINE
  8
1
 62
2
 10
6.261784061843992
 20
200.9142245122201
 30
0
 11
6.261784061843992
 21
201.3822245122199
 31
0
  0
LINE
  8
1
 62
2
 10
6.361784061843991
 20
200.9012245122201
 30
0
 11
6.361784061843991
 21
201.3952245122199
 31
0
  0
LINE
  8
1
 62
2
 10
6.461784061843991
 20
200.8882245122201
 30
0
 11
6.461784061843991
 21
201.4082245122199
 31
0
  0
LINE
  8
1
 62
2
 10
6.561784061843991
 20
200.8752245122201
 30
0
 11
6.561784061843991
 21
201.4212245122199
 31
0
  0
LINE
  8
1
 62
2
 10
6.66178406184399
 20
200.8622245122201
 30
0
 11
6.66178406184399
 21
201.4342245122199
 31
0
  0
LINE
  8
1
 62
2
 10
6.76178406184399
 20
200.8492245122201
 30
0
 11
6.76178406184399
 21
201.44722451222
 31
0
  0
LINE
  8
1
 62
2
 10
6.86178406184399
 20
200.83622451222
 30
0
 11
6.86178406184399
 21
201.46022451222
 31
0
  0
LINE
  8
1
 62
2
 10
6.961784061843989
 20
200.82322451222
 30
0
 11
6.961784061843989
 21
201.47322451222
 31
0
  0
LINE
  8
1
 62
2
 10
7.061784061843989
 20
200.81022451222
 30
0
 11
7.061784061843989
 21
201.48622451222
 31
0
  0
LINE
  8
1
 62
2
 10
7.161784061843989
 20
200.79722451222
 30
0
 11
7.161784061843989
 21
201.49922451222
 31
0
  0
LINE
  8
1
 62
2
 10
7.261784061843988
 20
200.78422451222
 30
0
 11
7.261784061843988
 21
201.51222451222
 31
0
  0
LINE
  8
1
 62
2
 10
7.361784061843988
 20
200.77122451222
 30
0
 11
7.361784061843988
 21
201.52522451222
 31
0
  0
LINE
  8
1
 62
2
 10
7.461784061843988
 20
200.75822451222
 30
0
 11
7.461784061843988
 21
201.53822451222
 31
0
  0
LINE
  8
1
 62
2
 10
7.561784061843987
 20
200.74522451222
 30
0
 11
7.561784061843987
 21
201.55122451222
 31
0
  0
LINE
  8
1
 62
2
 10
7.661784061843987
 20
200.73222451222
 30
0
 11
7.661784061843987
 21
201.56422451222
 31
0
  0
ENDBLK
  8
0
  0
BLOCK
  8
1
  2
*X2
 70
1
 10
0
 20
0
 30
0
  0
LINE
  8
1
 62
2
 10
58.66882348256078
 20
165.8000206197896
 30
0
 11
60.12653232651428
 21
167.2577294637431
 31
0
  0
LINE
  8
1
 62
2
 10
58.76186092232079
 20
161.6504173724303
 30
0
 11
63.11178406184415
 21
166.0003405119535
 31
0
  0
LINE
  8
1
 62
2
 10
59.12214959286032
 20
157.7680653558505
 30
0
 11
63.11178406184413
 21
161.7576998248342
 31
0
  0
LINE
  8
1
 62
2
 10
59.54192754215613
 20
153.9452026180271
 30
0
 11
63.11178406184411
 21
157.5150591377149
 31
0
  0
LINE
  8
1
 62
2
 10
59.81362715041585
 20
149.9742615391675
 30
0
 11
63.11178406184408
 21
153.2724184505956
 31
0
  0
LINE
  8
1
 62
2
 10
59.62208444507834
 20
145.5400781467107
 30
0
 11
63.11178406184406
 21
149.0297777634764
 31
0
  0
LINE
  8
1
 62
2
 10
58.7164593901996
 20
140.3918124047127
 30
0
 11
63.11178406184404
 21
144.7871370763571
 31
0
  0
LINE
  8
1
 62
2
 10
57.75800426196751
 20
135.1907165893613
 30
0
 11
63.11178406184402
 21
140.5444963892378
 31
0
  0
LINE
  8
1
 62
2
 10
57.49906578620822
 20
130.6891374264827
 30
0
 11
63.111784061844
 21
136.3018557021185
 31
0
  0
LINE
  8
1
 62
2
 10
58.03167910050098
 20
126.9791100536562
 30
0
 11
63.11178406184398
 21
132.0592150149992
 31
0
  0
LINE
  8
1
 62
2
 10
59.04025179320162
 20
123.7450420592376
 30
0
 11
63.11178406184396
 21
127.8165743278799
 31
0
  0
LINE
  8
1
 62
2
 10
60.01163155331061
 20
120.4737811322273
 30
0
 11
63.11178406184394
 21
123.5739336407606
 31
0
  0
LINE
  8
1
 62
2
 10
59.7208820743157
 20
115.9403909661131
 30
0
 11
63.11178406184391
 21
119.3312929536413
 31
0
  0
LINE
  8
1
 62
2
 10
53.31563015211458
 20
105.2924983567927
 30
0
 11
63.11178406184389
 21
115.088652266522
 31
0
  0
LINE
  8
1
 62
2
 10
54.86854442272971
 20
102.6027719402885
 30
0
 11
60.10623056237898
 21
107.8404580799378
 31
0
  0
LINE
  8
1
 62
2
 10
56.42145869334483
 20
99.91304552378435
 30
0
 11
60.10623056237898
 21
103.5978173928185
 31
0
  0
LINE
  8
1
 62
2
 10
57.97437296395996
 20
97.22331910728019
 30
0
 11
60.10623056237898
 21
99.35517670569921
 31
0
  0
ENDBLK
  8
0
  0
BLOCK
  8
1
  2
*X3
 70
1
 10
0
 20
0
 30
0
  0
LINE
  8
1
 62
2
 10
52.10500566973255
 20
78.62602975169494
 30
0
 11
53.8485060849788
 21
80.36953016694116
 31
0
  0
LINE
  8
1
 62
2
 10
51.46628383968792
 20
73.74466723453102
 30
0
 11
55.40142035559392
 21
77.679803750437
 31
0
  0
LINE
  8
1
 62
2
 10
51.9510122467764
 20
69.98675495450023
 30
0
 11
56.95433462620904
 21
74.99007733393285
 31
0
  0
LINE
  8
1
 62
2
 10
52.68996371455764
 20
66.48306573516217
 30
0
 11
58.50724889682416
 21
72.30035091742869
 31
0
  0
LINE
  8
1
 62
2
 10
53.42891518233887
 20
62.97937651582412
 30
0
 11
59.61178406184399
 21
69.16224539532925
 31
0
  0
LINE
  8
1
 62
2
 10
54.1678666501201
 20
59.47568729648607
 30
0
 11
59.61178406184399
 21
64.91960470820996
 31
0
  0
LINE
  8
1
 62
2
 10
59.42820785397813
 20
60.49338781322481
 30
0
 11
59.61178406184399
 21
60.67696402109067
 31
0
  0
ENDBLK
  8
0
  0
BLOCK
  8
1
  2
*X4
 70
1
 10
0
 20
0
 30
0
  0
LINE
  8
1
 62
2
 10
293.8637969651933
 20
290.6863362373206
 30
0
 11
295.8151918644158
 21
292.637731136543
 31
0
  0
LINE
  8
1
 62
2
 10
293.8637985144756
 20
286.4436970994839
 30
0
 11
300.0578325515351
 21
292.637731136543
 31
0
  0
LINE
  8
1
 62
2
 10
293.8637982362675
 20
282.2010561341566
 30
0
 11
304.3004732386543
 21
292.637731136543
 31
0
  0
LINE
  8
1
 62
2
 10
293.8637979580595
 20
277.9584151688293
 30
0
 11
308.5431139257736
 21
292.637731136543
 31
0
  0
LINE
  8
1
 62
2
 10
293.8637976798515
 20
273.715774203502
 30
0
 11
312.7857546128928
 21
292.637731136543
 31
0
  0
LINE
  8
1
 62
2
 10
293.8637974016435
 20
269.4731332381746
 30
0
 11
317.0283953000121
 21
292.637731136543
 31
0
  0
LINE
  8
1
 62
2
 10
293.8637971234355
 20
265.2304922728473
 30
0
 11
319.6002703688189
 21
290.9669655182305
 31
0
  0
LINE
  8
1
 62
2
 10
293.8637968452275
 20
260.98785130752
 30
0
 11
319.8637867136439
 21
286.9878411759362
 31
0
  0
LINE
  8
1
 62
2
 10
293.8637965670195
 20
256.7452103421927
 30
0
 11
320.7429091805722
 21
283.6243229557452
 31
0
  0
LINE
  8
1
 62
2
 10
327.8637787264098
 20
286.5025518144635
 30
0
 11
333.9989527304065
 21
292.6377258184602
 31
0
  0
LINE
  8
1
 62
2
 10
293.8637962888115
 20
252.5025693768653
 30
0
 11
324.8646744868893
 21
283.503447574943
 31
0
  0
LINE
  8
1
 62
2
 10
293.8637960106035
 20
248.259928411538
 30
0
 11
338.2415987356085
 21
292.637731136543
 31
0
  0
LINE
  8
1
 62
2
 10
293.8637957323955
 20
244.0172874462107
 30
0
 11
342.4842394227278
 21
292.637731136543
 31
0
  0
LINE
  8
1
 62
2
 10
293.8637954541875
 20
239.7746464808834
 30
0
 11
346.7268801098471
 21
292.637731136543
 31
0
  0
LINE
  8
1
 62
2
 10
293.8637951759795
 20
235.5320055155561
 30
0
 11
350.9695207969663
 21
292.637731136543
 31
0
  0
LINE
  8
1
 62
2
 10
293.8637948977715
 20
231.2893645502288
 30
0
 11
353.8637793864795
 21
291.2893490389368
 31
0
  0
LINE
  8
1
 62
2
 10
293.8637946195635
 20
227.0467235849015
 30
0
 11
353.8637696614665
 21
287.0466986268045
 31
0
  0
LINE
  8
1
 62
2
 10
293.8637943413555
 20
222.8040826195743
 30
0
 11
353.8637599364535
 21
282.8040482146723
 31
0
  0
LINE
  8
1
 62
2
 10
293.8637940631475
 20
218.561441654247
 30
0
 11
353.8637599756809
 21
278.5614075667806
 31
0
  0
LINE
  8
1
 62
2
 10
293.8637937849395
 20
214.3188006889197
 30
0
 11
353.8637603790295
 21
274.3187672830099
 31
0
  0
LINE
  8
1
 62
2
 10
293.8637935067314
 20
210.0761597235924
 30
0
 11
353.8637607823781
 21
270.0761269992392
 31
0
  0
LINE
  8
1
 62
2
 10
293.8637932285234
 20
205.8335187582651
 30
0
 11
353.8637611857267
 21
265.8334867154685
 31
0
  0
LINE
  8
1
 62
2
 10
293.8637929503154
 20
201.5908777929378
 30
0
 11
353.8637615890754
 21
261.5908464316978
 31
0
  0
LINE
  8
1
 62
2
 10
293.8637926721074
 20
197.3482368276105
 30
0
 11
353.863761992424
 21
257.3482061479271
 31
0
  0
LINE
  8
1
 62
2
 10
293.8637923938994
 20
193.1055958622832
 30
0
 11
353.8637623957726
 21
253.1055658641564
 31
0
  0
LINE
  8
1
 62
2
 10
296.4585666824788
 20
191.457729463743
 30
0
 11
353.8637627991212
 21
248.8629255803858
 31
0
  0
LINE
  8
1
 62
2
 10
300.7012073695981
 20
191.457729463743
 30
0
 11
353.8637632024698
 21
244.6202852966151
 31
0
  0
LINE
  8
1
 62
2
 10
304.9438480567173
 20
191.457729463743
 30
0
 11
353.8637636058185
 21
240.3776450128444
 31
0
  0
LINE
  8
1
 62
2
 10
309.1864887438366
 20
191.457729463743
 30
0
 11
353.8637640091671
 21
236.1350047290738
 31
0
  0
LINE
  8
1
 62
2
 10
313.4291294309559
 20
191.457729463743
 30
0
 11
353.8637644125157
 21
231.8923644453031
 31
0
  0
LINE
  8
1
 62
2
 10
317.6717701180751
 20
191.457729463743
 30
0
 11
353.8637648158643
 21
227.6497241615324
 31
0
  0
LINE
  8
1
 62
2
 10
321.9144108051944
 20
191.457729463743
 30
0
 11
353.863765219213
 21
223.4070838777618
 31
0
  0
LINE
  8
1
 62
2
 10
326.1570514923137
 20
191.457729463743
 30
0
 11
353.8637656225616
 21
219.1644435939911
 31
0
  0
LINE
  8
1
 62
2
 10
330.3996921794329
 20
191.457729463743
 30
0
 11
353.8637660259102
 21
214.9218033102204
 31
0
  0
LINE
  8
1
 62
2
 10
334.6423328665522
 20
191.457729463743
 30
0
 11
353.8637664292588
 21
210.6791630264497
 31
0
  0
LINE
  8
1
 62
2
 10
338.8849735536714
 20
191.457729463743
 30
0
 11
353.8637668326074
 21
206.4365227426791
 31
0
  0
LINE
  8
1
 62
2
 10
343.1276142407907
 20
191.457729463743
 30
0
 11
353.8637672359561
 21
202.1938824589084
 31
0
  0
LINE
  8
1
 62
2
 10
347.37025492791
 20
191.457729463743
 30
0
 11
353.8637676393047
 21
197.9512421751377
 31
0
  0
LINE
  8
1
 62
2
 10
351.6128956150292
 20
191.457729463743
 30
0
 11
353.8637680426533
 21
193.7086018913671
 31
0
  0
ENDBLK
  8
0
  0
BLOCK
  8
1
  2
*X5
 70
1
 10
0
 20
0
 30
0
  0
LINE
  8
1
 62
2
 10
76.02758718220144
 20
69.77238644124159
 30
0
 11
75.61178406184399
 21
70.18818956159899
 31
0
  0
LINE
  8
1
 62
2
 10
78.53547524495662
 20
71.50713906560571
 30
0
 11
75.61178406184399
 21
74.43083024871828
 31
0
  0
LINE
  8
1
 62
2
 10
80.99041717679927
 20
73.29483782088232
 30
0
 11
75.61178406184399
 21
78.67347093583757
 31
0
  0
LINE
  8
1
 62
2
 10
83.38736093852612
 20
75.14053474627471
 30
0
 11
75.61178406184399
 21
82.91611162295686
 31
0
  0
LINE
  8
1
 62
2
 10
85.73047213762851
 20
77.04006423429161
 30
0
 11
75.61178406184399
 21
87.15875231007615
 31
0
  0
LINE
  8
1
 62
2
 10
88.01791192513389
 20
78.99526513390555
 30
0
 11
75.61178406184399
 21
91.40139299719544
 31
0
  0
LINE
  8
1
 62
2
 10
90.25081476994507
 20
81.0050029762136
 30
0
 11
75.48065147684144
 21
95.77516626931728
 31
0
  0
LINE
  8
1
 62
2
 10
92.43024668483253
 20
83.06821174844552
 30
0
 11
75.11733756130911
 21
100.3811208719689
 31
0
  0
LINE
  8
1
 62
2
 10
94.55374643052733
 20
85.18735268986995
 30
0
 11
75.11733756130911
 21
104.6237615590882
 31
0
  0
LINE
  8
1
 62
2
 10
72.72601034377482
 20
111.2577294637418
 30
0
 11
72.09947642242616
 21
111.8842633850904
 31
0
  0
LINE
  8
1
 62
2
 10
96.62567945523148
 20
87.35806035228507
 30
0
 11
75.11733756130911
 21
108.8664022462075
 31
0
  0
LINE
  8
1
 62
2
 10
98.63978807450832
 20
89.58659242012757
 30
0
 11
72.01446395504621
 21
116.2119165395897
 31
0
  0
LINE
  8
1
 62
2
 10
100.6037612638049
 20
91.86525991795014
 30
0
 11
71.92945148766626
 21
120.5395696940889
 31
0
  0
LINE
  8
1
 62
2
 10
102.5076977110757
 20
94.20396415779874
 30
0
 11
71.8444390202863
 21
124.8672228485881
 31
0
  0
LINE
  8
1
 62
2
 10
104.3620688490718
 20
96.59223370692197
 30
0
 11
71.75942655290635
 21
129.1948760030874
 31
0
  0
LINE
  8
1
 62
2
 10
106.154430975666
 20
99.04251226744708
 30
0
 11
71.67441408552639
 21
133.5225291575866
 31
0
  0
LINE
  8
1
 62
2
 10
107.8961134739259
 20
101.5434704563064
 30
0
 11
71.62977327605198
 21
137.8098106541804
 31
0
  0
LINE
  8
1
 62
2
 10
109.5750423516101
 20
104.1071822657414
 30
0
 11
71.69809948326596
 21
141.9841251340857
 31
0
  0
LINE
  8
1
 62
2
 10
111.2011941753509
 20
106.72367112912
 30
0
 11
71.76642569047995
 21
146.158439613991
 31
0
  0
LINE
  8
1
 62
2
 10
112.7625207317377
 20
109.4049852598524
 30
0
 11
71.83475189769393
 21
150.3327540938963
 31
0
  0
LINE
  8
1
 62
2
 10
114.2693202408992
 20
112.1408264378102
 30
0
 11
71.90307810490792
 21
154.5070685738016
 31
0
  0
LINE
  8
1
 62
2
 10
115.7075485075153
 20
114.9452388583135
 30
0
 11
71.97140431212191
 21
158.6813830537068
 31
0
  0
LINE
  8
1
 62
2
 10
117.0876913551098
 20
117.8077366978382
 30
0
 11
72.03973051933589
 21
162.8556975336121
 31
0
  0
LINE
  8
1
 62
2
 10
118.3981676988279
 20
120.7399010412394
 30
0
 11
72.10805672654988
 21
167.0300120135174
 31
0
  0
LINE
  8
1
 62
2
 10
119.6436401865491
 20
123.7370692406375
 30
0
 11
76.12297996344358
 21
167.257729463743
 31
0
  0
LINE
  8
1
 62
2
 10
120.8193290897748
 20
126.8040210245311
 30
0
 11
80.36562065056288
 21
167.257729463743
 31
0
  0
LINE
  8
1
 62
2
 10
121.920100470775
 20
129.9458903306502
 30
0
 11
84.60826133768217
 21
167.257729463743
 31
0
  0
LINE
  8
1
 62
2
 10
122.9490057255431
 20
133.1596257630013
 30
0
 11
88.85090202480146
 21
167.257729463743
 31
0
  0
LINE
  8
1
 62
2
 10
123.8958462524871
 20
136.4554259231766
 30
0
 11
93.09354271192075
 21
167.257729463743
 31
0
  0
LINE
  8
1
 62
2
 10
124.7593989773343
 20
139.8345138854487
 30
0
 11
97.33618339903998
 21
167.257729463743
 31
0
  0
LINE
  8
1
 62
2
 10
125.5378305332133
 20
143.298723016689
 30
0
 11
101.5788240861593
 21
167.257729463743
 31
0
  0
LINE
  8
1
 62
2
 10
126.2250161763245
 20
146.854178060697
 30
0
 11
105.8214647732786
 21
167.257729463743
 31
0
  0
LINE
  8
1
 62
2
 10
126.8086366416828
 20
150.5131982824581
 30
0
 11
110.0641054603979
 21
167.257729463743
 31
0
  0
LINE
  8
1
 62
2
 10
127.2878244719225
 20
154.2766511393376
 30
0
 11
114.3067461475172
 21
167.257729463743
 31
0
  0
LINE
  8
1
 62
2
 10
127.6537918910533
 20
158.1533244073261
 30
0
 11
118.5493868346364
 21
167.257729463743
 31
0
  0
LINE
  8
1
 62
2
 10
127.8962975660347
 20
162.153459419464
 30
0
 11
122.7920275217557
 21
167.257729463743
 31
0
  0
LINE
  8
1
 62
2
 10
128.0033306725894
 20
166.2890670000286
 30
0
 11
127.034668208875
 21
167.257729463743
 31
0
  0
ENDBLK
  8
0
  0
BLOCK
  8
1
  2
*X6
 70
1
 10
0
 20
0
 30
0
  0
LINE
  8
1
 62
2
 10
74.61178406184401
 20
262.3531542543392
 30
0
 11
76.46602901808544
 21
264.2073992105807
 31
0
  0
LINE
  8
1
 62
2
 10
74.61178406184401
 20
258.1105135672199
 30
0
 11
78.83136205017189
 21
262.3300915555478
 31
0
  0
LINE
  8
1
 62
2
 10
74.57049294478212
 20
253.8265817630388
 30
0
 11
81.19669508225834
 21
260.452783900515
 31
0
  0
LINE
  8
1
 62
2
 10
74.50585901250936
 20
249.5193071436467
 30
0
 11
83.5620281143448
 21
258.5754762454822
 31
0
  0
LINE
  8
1
 62
2
 10
74.44122508023661
 20
245.2120325242547
 30
0
 11
85.92736114643125
 21
256.6981685904493
 31
0
  0
LINE
  8
1
 62
2
 10
74.37659114796385
 20
240.9047579048626
 30
0
 11
88.29269417851771
 21
254.8208609354165
 31
0
  0
LINE
  8
1
 62
2
 10
74.3119572156911
 20
236.5974832854706
 30
0
 11
90.65802721060416
 21
252.9435532803836
 31
0
  0
LINE
  8
1
 62
2
 10
74.24732328341834
 20
232.2902086660785
 30
0
 11
92.83382874194868
 21
250.8767141246089
 31
0
  0
LINE
  8
1
 62
2
 10
74.18268935114558
 20
227.9829340466865
 30
0
 11
94.78868836079258
 21
248.5889330563335
 31
0
  0
LINE
  8
1
 62
2
 10
74.11805541887283
 20
223.6756594272944
 30
0
 11
96.74354797963648
 21
246.3011519880581
 31
0
  0
LINE
  8
1
 62
2
 10
71.63026495913159
 20
221.1878689675531
 30
0
 11
73.7001254553214
 21
223.257729463743
 31
0
  0
LINE
  8
1
 62
2
 10
71.66781045193795
 20
216.9827737732402
 30
0
 11
98.69840759848037
 21
244.0133709197827
 31
0
  0
LINE
  8
1
 62
2
 10
71.70535594474431
 20
212.7776785789273
 30
0
 11
100.6532672173243
 21
241.7255898515073
 31
0
  0
LINE
  8
1
 62
2
 10
71.74290143755067
 20
208.5725833846144
 30
0
 11
102.6081268361682
 21
239.4378087832319
 31
0
  0
LINE
  8
1
 62
2
 10
71.78044693035703
 20
204.3674881903014
 30
0
 11
104.5629864550121
 21
237.1500277149565
 31
0
  0
LINE
  8
1
 62
2
 10
71.81799242316339
 20
200.1623929959885
 30
0
 11
106.517846073856
 21
234.8622466466811
 31
0
  0
LINE
  8
1
 62
2
 10
71.85553791596975
 20
195.9572978016756
 30
0
 11
108.1798666111265
 21
232.2816264968324
 31
0
  0
LINE
  8
1
 62
2
 10
71.89308340877611
 20
191.7522026073627
 30
0
 11
109.7624607618608
 21
229.6215799604474
 31
0
  0
LINE
  8
1
 62
2
 10
71.93062890158247
 20
187.5471074130498
 30
0
 11
111.3450549125951
 21
226.9615334240624
 31
0
  0
LINE
  8
1
 62
2
 10
71.96817439438883
 20
183.3420122187368
 30
0
 11
112.9276490633294
 21
224.3014868876774
 31
0
  0
LINE
  8
1
 62
2
 10
72.00571988719518
 20
179.1369170244239
 30
0
 11
114.5102432140637
 21
221.6414403512924
 31
0
  0
LINE
  8
1
 62
2
 10
72.04326538000154
 20
174.931821830111
 30
0
 11
115.9676110301576
 21
218.8561674802671
 31
0
  0
LINE
  8
1
 62
2
 10
72.0808108728079
 20
170.7267266357981
 30
0
 11
117.1815193388594
 21
215.8274351018496
 31
0
  0
LINE
  8
1
 62
2
 10
72.85445438787204
 20
167.257729463743
 30
0
 11
118.3954276475612
 21
212.7987027234321
 31
0
  0
LINE
  8
1
 62
2
 10
77.09709507499133
 20
167.257729463743
 30
0
 11
119.609335956263
 21
209.7699703450146
 31
0
  0
LINE
  8
1
 62
2
 10
81.33973576211062
 20
167.257729463743
 30
0
 11
120.8232442649648
 21
206.7412379665971
 31
0
  0
LINE
  8
1
 62
2
 10
85.58237644922991
 20
167.257729463743
 30
0
 11
122.0371525736666
 21
203.7125055881797
 31
0
  0
LINE
  8
1
 62
2
 10
89.8250171363492
 20
167.257729463743
 30
0
 11
123.0959368097833
 21
200.5286491371771
 31
0
  0
LINE
  8
1
 62
2
 10
94.06765782346849
 20
167.257729463743
 30
0
 11
123.8370781027093
 21
197.0271497429838
 31
0
  0
LINE
  8
1
 62
2
 10
98.31029851058779
 20
167.257729463743
 30
0
 11
124.5782193956353
 21
193.5256503487905
 31
0
  0
LINE
  8
1
 62
2
 10
102.5529391977071
 20
167.257729463743
 30
0
 11
125.3193606885613
 21
190.0241509545972
 31
0
  0
LINE
  8
1
 62
2
 10
106.7955798848264
 20
167.257729463743
 30
0
 11
126.0605019814873
 21
186.5226515604039
 31
0
  0
LINE
  8
1
 62
2
 10
111.0382205719457
 20
167.257729463743
 30
0
 11
126.8016432744132
 21
183.0211521662106
 31
0
  0
LINE
  8
1
 62
2
 10
115.280861259065
 20
167.257729463743
 30
0
 11
127.2925381262773
 21
179.2694063309554
 31
0
  0
LINE
  8
1
 62
2
 10
119.5235019461842
 20
167.257729463743
 30
0
 11
127.5322302615257
 21
175.2664577790845
 31
0
  0
LINE
  8
1
 62
2
 10
123.7661426333035
 20
167.257729463743
 30
0
 11
127.7719223967741
 21
171.2635092272136
 31
0
  0
LINE
  8
1
 62
2
 10
128.0087833204228
 20
167.257729463743
 30
0
 11
128.0116145320225
 21
167.2605606753427
 31
0
  0
ENDBLK
  8
0
  0
BLOCK
  8
1
  2
*X7
 70
1
 10
0
 20
0
 30
0
  0
LINE
  8
1
 62
2
 10
45.46850889174939
 20
275.6362859554374
 30
0
 11
48.21988574784614
 21
278.3876628115341
 31
0
  0
LINE
  8
1
 62
2
 10
44.2043050646705
 20
270.1294414412393
 30
0
 11
51.33722822501477
 21
277.2623646015835
 31
0
  0
LINE
  8
1
 62
2
 10
42.67754301846141
 20
264.3600387079109
 30
0
 11
54.4545707021834
 21
276.1370663916329
 31
0
  0
LINE
  8
1
 62
2
 10
42.28488878070803
 20
259.7247437830382
 30
0
 11
57.57191317935204
 21
275.0117681816822
 31
0
  0
LINE
  8
1
 62
2
 10
42.83258456101185
 20
256.0297988762228
 30
0
 11
60.61178406184399
 21
273.8089983770548
 31
0
  0
LINE
  8
1
 62
2
 10
44.43314715690383
 20
253.3877207849955
 30
0
 11
60.61178406184399
 21
269.5663576899356
 31
0
  0
LINE
  8
1
 62
2
 10
46.03370975279581
 20
250.7456426937682
 30
0
 11
60.61178406184399
 21
265.3237170028163
 31
0
  0
LINE
  8
1
 62
2
 10
47.63427234868779
 20
248.1035646025408
 30
0
 11
60.61178406184399
 21
261.081076315697
 31
0
  0
LINE
  8
1
 62
2
 10
48.67169663934919
 20
244.8983482060829
 30
0
 11
60.61178406184399
 21
256.8384356285778
 31
0
  0
LINE
  8
1
 62
2
 10
49.43486056238697
 20
241.4188714420014
 30
0
 11
60.61178406184399
 21
252.5957949414585
 31
0
  0
LINE
  8
1
 62
2
 10
50.19802448542476
 20
237.93939467792
 30
0
 11
60.61178406184399
 21
248.3531542543392
 31
0
  0
LINE
  8
1
 62
2
 10
50.66228159313933
 20
234.1610110985153
 30
0
 11
60.61178406184399
 21
244.1105135672199
 31
0
  0
LINE
  8
1
 62
2
 10
50.85046268224493
 20
230.1065515005016
 30
0
 11
60.61178406184399
 21
239.8678728801006
 31
0
  0
LINE
  8
1
 62
2
 10
51.03864377135053
 20
226.0520919024879
 30
0
 11
60.61178406184399
 21
235.6252321929813
 31
0
  0
LINE
  8
1
 62
2
 10
51.71364881706887
 20
222.484456261087
 30
0
 11
60.61178406184399
 21
231.3825915058621
 31
0
  0
LINE
  8
1
 62
2
 10
52.81216519440735
 20
219.3403319513062
 30
0
 11
60.61178406184399
 21
227.1399508187428
 31
0
  0
LINE
  8
1
 62
2
 10
53.91068157174583
 20
216.1962076415254
 30
0
 11
60.97220339396348
 21
223.257729463743
 31
0
  0
LINE
  8
1
 62
2
 10
54.99747317761387
 20
213.0403585602741
 30
0
 11
63.11178406184411
 21
221.1546694445044
 31
0
  0
LINE
  8
1
 62
2
 10
55.37821780396569
 20
209.1784624995066
 30
0
 11
63.11178406184411
 21
216.9120287573851
 31
0
  0
LINE
  8
1
 62
2
 10
55.75896243031751
 20
205.3165664387392
 30
0
 11
63.11178406184411
 21
212.6693880702658
 31
0
  0
LINE
  8
1
 62
2
 10
56.13970705666933
 20
201.4546703779717
 30
0
 11
63.11178406184411
 21
208.4267473831465
 31
0
  0
LINE
  8
1
 62
2
 10
56.52045168302115
 20
197.5927743172042
 30
0
 11
63.11178406184411
 21
204.1841066960272
 31
0
  0
LINE
  8
1
 62
2
 10
56.82632810118389
 20
193.6560100482477
 30
0
 11
63.11178406184411
 21
199.941466008908
 31
0
  0
LINE
  8
1
 62
2
 10
57.10780061724348
 20
189.694841877188
 30
0
 11
63.11178406184411
 21
195.6988253217887
 31
0
  0
LINE
  8
1
 62
2
 10
57.38927313330308
 20
185.7336737061283
 30
0
 11
63.11178406184411
 21
191.4561846346694
 31
0
  0
LINE
  8
1
 62
2
 10
57.67074564936267
 20
181.7725055350686
 30
0
 11
63.11178406184411
 21
187.2135439475501
 31
0
  0
LINE
  8
1
 62
2
 10
57.95221816542227
 20
177.8113373640089
 30
0
 11
63.11178406184411
 21
182.9709032604308
 31
0
  0
LINE
  8
1
 62
2
 10
58.23369068148186
 20
173.8501691929492
 30
0
 11
63.11178406184411
 21
178.7282625733115
 31
0
  0
LINE
  8
1
 62
2
 10
58.51516319754146
 20
169.8890010218896
 30
0
 11
63.11178406184411
 21
174.4856218861922
 31
0
  0
LINE
  8
1
 62
2
 10
60.12653232651427
 20
167.2577294637431
 30
0
 11
63.11178406184411
 21
170.2429811990729
 31
0
  0
ENDBLK
  8
0
  0
BLOCK
  8
1
  2
*X8
 70
1
 10
0
 20
0
 30
0
  0
LINE
  8
1
 62
2
 10
-144.9278818911562
 20
295.9410930818473
 30
0
 11
-144.9278818911562
 21
296.7960102040653
 31
0
  0
LINE
  8
1
 62
2
 10
-144.8278818911562
 20
295.0847102629527
 30
0
 11
-144.8278818911562
 21
296.7945445074054
 31
0
  0
LINE
  8
1
 62
2
 10
-144.7278818911562
 20
294.2283274440582
 30
0
 11
-144.7278818911562
 21
296.7930788107454
 31
0
  0
LINE
  8
1
 62
2
 10
-144.6278818911562
 20
294.1266187483868
 30
0
 11
-144.6278818911562
 21
296.7916131140855
 31
0
  0
LINE
  8
1
 62
2
 10
-144.5278818911562
 20
294.8087826666889
 30
0
 11
-144.5278818911562
 21
296.7901474174256
 31
0
  0
LINE
  8
1
 62
2
 10
-144.4278818911562
 20
295.490946584991
 30
0
 11
-144.4278818911562
 21
296.7886817207657
 31
0
  0
LINE
  8
1
 62
2
 10
-144.3278818911562
 20
296.1731105032932
 30
0
 11
-144.3278818911562
 21
296.7872160241058
 31
0
  0
ENDBLK
  8
0
  0
BLOCK
  8
1
  2
*X9
 70
1
 10
0
 20
0
 30
0
  0
LINE
  8
1
 62
2
 10
74.65643616904733
 20
104.098829285623
 30
0
 11
74.65643616904738
 21
104.1825140348615
 31
0
  0
LINE
  8
1
 62
2
 10
74.75643616904732
 20
103.7429666218614
 30
0
 11
74.75643616904738
 21
104.0140663767517
 31
0
  0
LINE
  8
1
 62
2
 10
74.85643616904731
 20
103.3871039580998
 30
0
 11
74.85643616904737
 21
103.845618718642
 31
0
  0
LINE
  8
1
 62
2
 10
74.95643616904731
 20
103.0312412943382
 30
0
 11
74.95643616904737
 21
103.6771710605322
 31
0
  0
LINE
  8
1
 62
2
 10
75.0564361690473
 20
102.6753786305766
 30
0
 11
75.05643616904736
 21
103.5087234024224
 31
0
  0
LINE
  8
1
 62
2
 10
75.1564361690473
 20
102.319515966815
 30
0
 11
75.15643616904735
 21
103.3402757443127
 31
0
  0
LINE
  8
1
 62
2
 10
75.25643616904729
 20
101.9636533030534
 30
0
 11
75.25643616904735
 21
103.1718280862029
 31
0
  0
LINE
  8
1
 62
2
 10
75.35643616904729
 20
101.6077906392918
 30
0
 11
75.35643616904734
 21
103.0033804280931
 31
0
  0
LINE
  8
1
 62
2
 10
75.45643616904734
 20
101.3558402439544
 30
0
 11
75.45643616904734
 21
102.8349327699834
 31
0
  0
LINE
  8
1
 62
2
 10
75.55643616904733
 20
101.3986915181344
 30
0
 11
75.55643616904733
 21
102.6664851118736
 31
0
  0
LINE
  8
1
 62
2
 10
75.65643616904733
 20
101.4415427923145
 30
0
 11
75.65643616904733
 21
102.4980374537638
 31
0
  0
LINE
  8
1
 62
2
 10
75.75643616904732
 20
101.4843940664945
 30
0
 11
75.75643616904732
 21
102.329589795654
 31
0
  0
LINE
  8
1
 62
2
 10
75.85643616904731
 20
101.5272453406746
 30
0
 11
75.85643616904731
 21
102.1611421375443
 31
0
  0
LINE
  8
1
 62
2
 10
75.95643616904731
 20
101.5700966148547
 30
0
 11
75.95643616904731
 21
101.9926944794345
 31
0
  0
LINE
  8
1
 62
2
 10
76.0564361690473
 20
101.6129478890347
 30
0
 11
76.0564361690473
 21
101.8242468213247
 31
0
  0
LINE
  8
1
 62
2
 10
76.1564361690473
 20
101.6557991632148
 30
0
 11
76.1564361690473
 21
101.655799163215
 31
0
  0
ENDBLK
  8
0
  0
BLOCK
  8
1
  2
*X10
 70
1
 10
0
 20
0
 30
0
  0
LINE
  8
1
 62
2
 10
68.50338201217964
 20
223.362246829219
 30
0
 11
68.5033820121796
 21
223.4636994158189
 31
0
  0
LINE
  8
1
 62
2
 10
68.60338201217964
 20
223.5122424635162
 30
0
 11
68.60338201217959
 21
223.7592923392259
 31
0
  0
LINE
  8
1
 62
2
 10
68.70338201217963
 20
223.6622380978134
 30
0
 11
68.70338201217959
 21
224.0548852626329
 31
0
  0
LINE
  8
1
 62
2
 10
68.80338201217963
 20
223.8122337321106
 30
0
 11
68.80338201217958
 21
224.3504781860399
 31
0
  0
LINE
  8
1
 62
2
 10
68.90338201217962
 20
223.9622293664078
 30
0
 11
68.90338201217958
 21
224.6460711094468
 31
0
  0
LINE
  8
1
 62
2
 10
69.00338201217961
 20
224.112225000705
 30
0
 11
69.00338201217957
 21
224.9416640328538
 31
0
  0
LINE
  8
1
 62
2
 10
69.10338201217961
 20
224.2622206350022
 30
0
 11
69.10338201217957
 21
225.2372569562608
 31
0
  0
LINE
  8
1
 62
2
 10
69.2033820121796
 20
224.4122162692994
 30
0
 11
69.20338201217956
 21
225.5328498796678
 31
0
  0
LINE
  8
1
 62
2
 10
69.3033820121796
 20
224.5622119035966
 30
0
 11
69.30338201217955
 21
225.8284428030748
 31
0
  0
LINE
  8
1
 62
2
 10
69.40338201217959
 20
224.7122075378938
 30
0
 11
69.40338201217955
 21
226.1240357264818
 31
0
  0
LINE
  8
1
 62
2
 10
69.50338201217959
 20
224.862203172191
 30
0
 11
69.50338201217959
 21
226.0748494888727
 31
0
  0
LINE
  8
1
 62
2
 10
69.60338201217958
 20
225.0121988064882
 30
0
 11
69.60338201217958
 21
226.0256632512632
 31
0
  0
LINE
  8
1
 62
2
 10
69.70338201217957
 20
225.1621944407854
 30
0
 11
69.70338201217957
 21
225.9764770136536
 31
0
  0
LINE
  8
1
 62
2
 10
69.80338201217957
 20
225.3121900750826
 30
0
 11
69.80338201217957
 21
225.9272907760441
 31
0
  0
LINE
  8
1
 62
2
 10
69.90338201217956
 20
225.4621857093798
 30
0
 11
69.90338201217956
 21
225.8781045384345
 31
0
  0
LINE
  8
1
 62
2
 10
70.00338201217956
 20
225.612181343677
 30
0
 11
70.00338201217956
 21
225.828918300825
 31
0
  0
LINE
  8
1
 62
2
 10
70.10338201217955
 20
225.7621769779742
 30
0
 11
70.10338201217955
 21
225.7797320632154
 31
0
  0
ENDBLK
  8
0
  0
BLOCK
  8
1
  2
*X11
 70
1
 10
0
 20
0
 30
0
  0
LINE
  8
1
 62
2
 10
52.88957246153416
 20
104.8664406662122
 30
0
 11
53.33930167464713
 21
105.3161698793252
 31
0
  0
LINE
  8
1
 62
2
 10
52.05466501083142
 20
99.78889252839019
 30
0
 11
55.08860304879115
 21
102.8228305663499
 31
0
  0
LINE
  8
1
 62
2
 10
52.08758205817948
 20
95.57916888861897
 30
0
 11
56.83790442293517
 21
100.3294912533747
 31
0
  0
LINE
  8
1
 62
2
 10
52.38902763943747
 20
91.63797378275768
 30
0
 11
58.58720579707919
 21
97.83615194039939
 31
0
  0
LINE
  8
1
 62
2
 10
52.68300540956918
 20
87.6893108657701
 30
0
 11
59.61178406184399
 21
94.61808951804495
 31
0
  0
LINE
  8
1
 62
2
 10
52.6877649541606
 20
83.45142972324223
 30
0
 11
59.61178406184399
 21
90.37544883092566
 31
0
  0
LINE
  8
1
 62
2
 10
53.24802376416394
 20
79.76904784612628
 30
0
 11
59.61178406184399
 21
86.13280814380637
 31
0
  0
LINE
  8
1
 62
2
 10
54.04611244334384
 20
76.32449583818691
 30
0
 11
59.61178406184399
 21
81.89016745668708
 31
0
  0
LINE
  8
1
 62
2
 10
54.84420112252375
 20
72.87994383024753
 30
0
 11
59.61178406184399
 21
77.64752676956779
 31
0
  0
LINE
  8
1
 62
2
 10
55.64228980170365
 20
69.43539182230815
 30
0
 11
59.61178406184399
 21
73.4048860824485
 31
0
  0
LINE
  8
1
 62
2
 10
56.44037848088356
 20
65.99083981436877
 30
0
 11
59.61178406184399
 21
69.16224539532921
 31
0
  0
LINE
  8
1
 62
2
 10
57.23846716006347
 20
62.54628780642939
 30
0
 11
59.61178406184399
 21
64.91960470820992
 31
0
  0
LINE
  8
1
 62
2
 10
58.03655583924337
 20
59.10173579849001
 30
0
 11
59.61178406184399
 21
60.67696402109063
 31
0
  0
LINE
  8
1
 62
2
 10
58.83464451842328
 20
55.65718379055063
 30
0
 11
59.61178406184399
 21
56.43432333397135
 31
0
  0
ENDBLK
  8
0
  0
BLOCK
  8
0
  2
*D4
 70
1
 10
0
 20
0
 30
0
  0
LINE
  8
0
 62
2
 10
14.57690406184396
 20
125.258733343852
 30
0
 11
30.78678406184394
 21
125.258733343852
 31
0
  0
LINE
  8
0
 62
2
 10
-9.56321593815602
 20
125.258733343852
 30
0
 11
6.646664061843961
 21
125.258733343852
 31
0
  0
LINE
  8
0
 62
2
 10
30.78678406184394
 20
162.570229463743
 30
0
 11
30.78678406184394
 21
122.571233343852
 31
0
  0
LINE
  8
0
 62
2
 10
-9.56321593815602
 20
162.570229463743
 30
0
 11
-9.56321593815602
 21
122.571233343852
 31
0
  0
SOLID
  8
0
 62
2
 10
-9.56321593815602
 20
125.258733343852
 30
0
 11
-6.06321593815602
 21
125.713733343852
 31
0
 12
-6.06321593815602
 22
124.803733343852
 32
0
 13
-6.06321593815602
 23
124.803733343852
 33
0
  0
SOLID
  8
0
 62
2
 10
30.78678406184394
 20
125.258733343852
 30
0
 11
27.28678406184394
 21
124.803733343852
 31
0
 12
27.28678406184394
 22
125.713733343852
 32
0
 13
27.28678406184394
 23
125.713733343852
 33
0
  0
TEXT
  8
0
 62
2
 10
11.58602406184396
 20
123.658733343852
 30
0
 40
3.2
  1
d
 41
0.9801
  0
TEXT
  8
0
 62
2
 10
7.546664061843959
 20
123.658733343852
 30
0
 40
3.2
  1
%%c
 41
0.9801
  0
ENDBLK
  8
0
  0
BLOCK
  8
1
  2
*D5
 70
1
 10
0
 20
0
 30
0
  0
LINE
  8
1
 62
2
 10
37.70710518720329
 20
147.082729463743
 30
0
 11
37.70710518720329
 21
191.457729463743
 31
0
  0
LINE
  8
1
 62
2
 10
11.61178406184398
 20
147.082729463743
 30
0
 11
38.70710518720329
 21
147.082729463743
 31
0
  0
LINE
  8
1
 62
2
 10
17.76178406184399
 20
191.457729463743
 30
0
 11
38.70710518720329
 21
191.457729463743
 31
0
  0
SOLID
  8
1
 62
2
 10
37.70710518720329
 20
147.082729463743
 30
0
 11
37.29110518720329
 21
150.282729463743
 31
0
 12
38.12310518720329
 22
150.282729463743
 32
0
 13
38.12310518720329
 23
150.282729463743
 33
0
  0
SOLID
  8
1
 62
2
 10
37.70710518720329
 20
191.457729463743
 30
0
 11
38.12310518720329
 21
188.257729463743
 31
0
 12
37.29110518720329
 22
188.257729463743
 32
0
 13
37.29110518720329
 23
188.257729463743
 33
0
  0
TEXT
  8
1
 62
2
 10
36.50710518720329
 20
175.346171619658
 30
0
 40
3.2
  1
b
 50
90
 41
0.8910000000000001
  0
ENDBLK
  8
0
  0
BLOCK
  8
1
  2
*D6
 70
1
 10
0
 20
0
 30
0
  0
LINE
  8
1
 62
2
 10
74.61178406184399
 20
307.872047163188
 30
0
 11
98.48578122342582
 21
307.872047163188
 31
0
  0
LINE
  8
1
 62
2
 10
60.61178406184399
 20
307.872047163188
 30
0
 11
74.61178406184399
 21
307.872047163188
 31
0
  0
LINE
  8
1
 62
2
 10
74.61178406184399
 20
271.1726933080041
 30
0
 11
74.61178406184399
 21
308.872047163188
 31
0
  0
LINE
  8
1
 62
2
 10
60.61178406184399
 20
283.2573872283968
 30
0
 11
60.61178406184399
 21
308.872047163188
 31
0
  0
SOLID
  8
1
 62
2
 10
60.61178406184399
 20
307.872047163188
 30
0
 11
63.81178406184399
 21
308.288047163188
 31
0
 12
63.81178406184399
 22
307.456047163188
 32
0
 13
63.81178406184399
 23
307.456047163188
 33
0
  0
SOLID
  8
1
 62
2
 10
74.61178406184399
 20
307.872047163188
 30
0
 11
71.41178406184399
 21
307.456047163188
 31
0
 12
71.41178406184399
 22
308.288047163188
 32
0
 13
71.41178406184399
 23
308.288047163188
 33
0
  0
TEXT
  8
1
 62
2
 10
84.68898122342581
 20
310.762047163188
 30
0
 40
3.2
  1
14
 41
0.8910000000000001
  0
TEXT
  8
1
 62
2
 10
90.0905812234258
 20
313.242047163188
 30
0
 40
3.2
  1
 0
 41
0.8910000000000001
  0
TEXT
  8
1
 62
2
 10
90.0905812234258
 20
308.282047163188
 30
0
 40
3.2
  1
-0,2
 41
0.8910000000000001
  0
TEXT
  8
1
 62
2
 10
80.8713812234258
 20
310.762047163188
 30
0
 40
3.2
  1
%%c
 41
0.8910000000000001
  0
ENDBLK
  8
0
  0
BLOCK
  8
1
  2
*D7
 70
1
 10
0
 20
0
 30
0
  0
LINE
  8
1
 62
2
 10
162.583332162842
 20
99.25772946374184
 30
0
 11
162.583332162842
 21
111.2577294637418
 31
0
  0
LINE
  8
1
 62
2
 10
162.583332162842
 20
99.25772946374184
 30
0
 11
162.583332162842
 21
81.48407557903809
 31
0
  0
LINE
  8
1
 62
2
 10
76.61178406184399
 20
99.25772946374184
 30
0
 11
163.583332162842
 21
99.25772946374184
 31
0
  0
LINE
  8
1
 62
2
 10
76.11733756130911
 20
111.2577294637418
 30
0
 11
163.583332162842
 21
111.2577294637418
 31
0
  0
SOLID
  8
1
 62
2
 10
162.583332162842
 20
99.25772946374184
 30
0
 11
162.167332162842
 21
102.4577294637418
 31
0
 12
162.999332162842
 22
102.4577294637418
 32
0
 13
162.999332162842
 23
102.4577294637418
 33
0
  0
SOLID
  8
1
 62
2
 10
162.583332162842
 20
111.2577294637418
 30
0
 11
162.999332162842
 21
108.0577294637418
 31
0
 12
162.167332162842
 22
108.0577294637418
 32
0
 13
162.167332162842
 23
108.0577294637418
 33
0
  0
TEXT
  8
1
 62
2
 10
159.693332162842
 20
81.48407557903811
 30
0
 40
3.2
  1
12
 50
90
 41
0.8910000000000001
  0
TEXT
  8
1
 62
2
 10
156.893332162842
 20
86.88567557903809
 30
0
 40
3.2
  1
+0,2
 50
90
 41
0.8910000000000001
  0
TEXT
  8
1
 62
2
 10
162.493332162842
 20
86.88567557903809
 30
0
 40
3.2
  1
 0
 50
90
 41
0.8910000000000001
  0
ENDBLK
  8
0
  0
BLOCK
  8
1
  2
*D8
 70
1
 10
0
 20
0
 30
0
  0
LINE
  8
1
 62
2
 10
-46.38821593815601
 20
336.898002075025
 30
0
 11
67.61178406184399
 21
336.898002075025
 31
0
  0
LINE
  8
1
 62
2
 10
67.61178406184399
 20
263.4309637086246
 30
0
 11
67.61178406184399
 21
337.898002075025
 31
0
  0
LINE
  8
1
 62
2
 10
-46.38821593815601
 20
265.8706165532057
 30
0
 11
-46.38821593815601
 21
337.898002075025
 31
0
  0
SOLID
  8
1
 62
2
 10
-46.38821593815601
 20
336.898002075025
 30
0
 11
-43.18821593815601
 21
337.314002075025
 31
0
 12
-43.18821593815601
 22
336.482002075025
 32
0
 13
-43.18821593815601
 23
336.482002075025
 33
0
  0
SOLID
  8
1
 62
2
 10
67.61178406184399
 20
336.898002075025
 30
0
 11
64.41178406184399
 21
336.482002075025
 31
0
 12
64.41178406184399
 22
337.314002075025
 32
0
 13
64.41178406184399
 23
337.314002075025
 33
0
  0
TEXT
  8
1
 62
2
 10
11.54757226825991
 20
336.988002075025
 30
0
 40
3.2
  1
115
 41
0.8910000000000001
  0
ENDBLK
  8
0
  0
BLOCK
  8
0
  2
*D9
 70
1
 10
0
 20
0
 30
0
  0
LINE
  8
0
 62
2
 10
293.863782477244
 20
332.861212032201
 30
0
 11
315.134255740868
 21
332.861212032201
 31
0
  0
LINE
  8
0
 62
2
 10
328.351455740868
 20
332.861212032201
 30
0
 11
353.863782477244
 21
332.861212032201
 31
0
  0
LINE
  8
0
 62
2
 10
293.863782477244
 20
297.3252279429429
 30
0
 11
293.863782477244
 21
335.548712032201
 31
0
  0
LINE
  8
0
 62
2
 10
353.863782477244
 20
292.729172424943
 30
0
 11
353.863782477244
 21
335.548712032201
 31
0
  0
SOLID
  8
0
 62
2
 10
293.863782477244
 20
332.861212032201
 30
0
 11
297.363782477244
 21
333.316212032201
 31
0
 12
297.363782477244
 22
332.406212032201
 32
0
 13
297.363782477244
 23
332.406212032201
 33
0
  0
SOLID
  8
0
 62
2
 10
353.863782477244
 20
332.861212032201
 30
0
 11
350.363782477244
 21
332.406212032201
 31
0
 12
350.363782477244
 22
333.316212032201
 32
0
 13
350.363782477244
 23
333.316212032201
 33
0
  0
TEXT
  8
0
 62
2
 10
316.034255740868
 20
331.261212032201
 30
0
 40
3.2
  1
60
 41
0.9801
  0
TEXT
  8
0
 62
2
 10
322.861455740868
 20
332.051212032201
 30
0
 40
1.8
  1
%%p0,3
 41
0.9
  0
ENDBLK
  8
0
  0
BLOCK
  8
0
  2
*D10
 70
1
 10
0
 20
0
 30
0
  0
LINE
  8
0
 62
2
 10
383.755987054
 20
180.835447574943
 30
0
 11
383.755987054
 21
283.503447574943
 31
0
  0
LINE
  8
0
 62
2
 10
383.755987054
 20
48.703447574943
 30
0
 11
383.755987054
 21
151.371447574943
 31
0
  0
LINE
  8
0
 62
2
 10
325.551282477244
 20
283.503447574943
 30
0
 11
386.443487054
 21
283.503447574943
 31
0
  0
LINE
  8
0
 62
2
 10
325.551282477244
 20
48.703447574943
 30
0
 11
386.443487054
 21
48.703447574943
 31
0
  0
SOLID
  8
0
 62
2
 10
383.755987054
 20
48.703447574943
 30
0
 11
383.300987054
 21
52.203447574943
 31
0
 12
384.210987054
 22
52.203447574943
 32
0
 13
384.210987054
 23
52.203447574943
 33
0
  0
SOLID
  8
0
 62
2
 10
383.755987054
 20
283.503447574943
 30
0
 11
384.210987054
 21
280.003447574943
 31
0
 12
383.300987054
 22
280.003447574943
 32
0
 13
383.300987054
 23
280.003447574943
 33
0
  0
TEXT
  8
0
 62
2
 10
385.355987054
 20
156.335447574943
 30
0
 40
3.2
  1
234.8
 50
90
 41
0.9801
  0
TEXT
  8
0
 62
2
 10
382.955987054
 20
170.695447574943
 30
0
 40
3.2
  1
+0.5
 50
90
 41
0.9801
  0
TEXT
  8
0
 62
2
 10
387.755987054
 20
170.695447574943
 30
0
 40
3.2
  1
 0
 50
90
 41
0.9801
  0
TEXT
  8
0
 62
2
 10
385.355987054
 20
152.271447574943
 30
0
 40
3.2
  1
%%c
 50
90
 41
0.9801
  0
ENDBLK
  8
0
  0
BLOCK
  8
1
  2
*D11
 70
1
 10
0
 20
0
 30
0
  0
LINE
  8
1
 62
2
 10
87.8994556239974
 20
-104.368165450038
 30
0
 11
87.8994556239974
 21
-92.36816545003796
 31
0
  0
LINE
  8
1
 62
2
 10
47.11178406196038
 20
-92.36816545003796
 30
0
 11
88.8994556239974
 21
-92.36816545003796
 31
0
  0
LINE
  8
1
 62
2
 10
71.01178406184391
 20
-104.368165450038
 30
0
 11
88.8994556239974
 21
-104.368165450038
 31
0
  0
SOLID
  8
1
 62
2
 10
87.8994556239974
 20
-92.36816545003796
 30
0
 11
88.31545562399739
 21
-95.56816545003797
 31
0
 12
87.4834556239974
 22
-95.56816545003797
 32
0
 13
87.4834556239974
 23
-95.56816545003797
 33
0
  0
SOLID
  8
1
 62
2
 10
87.8994556239974
 20
-104.368165450038
 30
0
 11
87.4834556239974
 21
-101.168165450038
 31
0
 12
88.31545562399739
 22
-101.168165450038
 32
0
 13
88.31545562399739
 23
-101.168165450038
 33
0
  0
TEXT
  8
1
 62
2
 10
87.80945562399739
 20
-100.268965450038
 30
0
 40
3.2
  1
12
 50
90
 41
0.8910000000000001
  0
ENDBLK
  8
0
  0
BLOCK
  8
1
  2
*D12
 70
1
 10
0
 20
0
 30
0
  0
LINE
  8
1
 62
2
 10
-63.77506451271134
 20
-92.36816545003796
 30
0
 11
-63.77506451271134
 21
-82.36816545003796
 31
0
  0
LINE
  8
1
 62
2
 10
-49.4882159381559
 20
-82.36816545003796
 30
0
 11
-64.77506451271134
 21
-82.36816545003796
 31
0
  0
LINE
  8
1
 62
2
 10
-34.88821593803961
 20
-92.36816545003796
 30
0
 11
-64.77506451271134
 21
-92.36816545003796
 31
0
  0
SOLID
  8
1
 62
2
 10
-63.77506451271134
 20
-82.36816545003796
 30
0
 11
-63.35906451271134
 21
-85.56816545003797
 31
0
 12
-64.19106451271134
 22
-85.56816545003797
 32
0
 13
-64.19106451271134
 23
-85.56816545003797
 33
0
  0
SOLID
  8
1
 62
2
 10
-63.77506451271134
 20
-92.36816545003796
 30
0
 11
-64.19106451271134
 21
-89.16816545003796
 31
0
 12
-63.35906451271134
 22
-89.16816545003796
 32
0
 13
-63.35906451271134
 23
-89.16816545003796
 33
0
  0
TEXT
  8
1
 62
2
 10
-63.86506451271134
 20
-89.26896545003797
 30
0
 40
3.2
  1
10
 50
90
 41
0.8910000000000001
  0
ENDBLK
  8
0
  0
BLOCK
  8
1
  2
*D13
 70
1
 10
0
 20
0
 30
0
  0
LINE
  8
1
 62
2
 10
-114.768217611156
 20
-156.951039395697
 30
0
 11
135.9917857346441
 21
-156.951039395697
 31
0
  0
LINE
  8
1
 62
2
 10
-114.768217611156
 20
-156.951039395697
 30
0
 11
135.9917857346441
 21
-156.951039395697
 31
0
  0
LINE
  8
1
 62
2
 10
135.9917857346441
 20
-123.368165450038
 30
0
 11
135.9917857346441
 21
-157.951039395697
 31
0
  0
LINE
  8
1
 62
2
 10
-114.768217611156
 20
-123.368165450038
 30
0
 11
-114.768217611156
 21
-157.951039395697
 31
0
  0
SOLID
  8
1
 62
2
 10
135.9917857346441
 20
-156.951039395697
 30
0
 11
132.7917857346441
 21
-157.367039395697
 31
0
 12
132.7917857346441
 22
-156.535039395697
 32
0
 13
132.7917857346441
 23
-156.535039395697
 33
0
  0
SOLID
  8
1
 62
2
 10
-114.768217611156
 20
-156.951039395697
 30
0
 11
-111.568217611156
 21
-156.535039395697
 31
0
 12
-111.568217611156
 22
-157.367039395697
 32
0
 13
-111.568217611156
 23
-157.367039395697
 33
0
  0
TEXT
  8
1
 62
2
 10
3.33178406174403
 20
-155.431039395697
 30
0
 40
3.2
  1
250,76
 41
0.8910000000000001
  0
ENDBLK
  8
0
  0
BLOCK
  8
1
  2
*D14
 70
1
 10
0
 20
0
 30
0
  0
LINE
  8
1
 62
2
 10
59.61178406184398
 20
12.0451909682239
 30
0
 11
36.1629327894286
 21
12.0451909682239
 31
0
  0
LINE
  8
1
 62
2
 10
59.61178406184398
 20
12.0451909682239
 30
0
 11
75.61178406184399
 21
12.0451909682239
 31
0
  0
LINE
  8
1
 62
2
 10
75.61178406184399
 20
65.24470549807789
 30
0
 11
75.61178406184399
 21
11.0451909682239
 31
0
  0
LINE
  8
1
 62
2
 10
59.61178406184398
 20
51.30304828584756
 30
0
 11
59.61178406184398
 21
11.0451909682239
 31
0
  0
SOLID
  8
1
 62
2
 10
75.61178406184399
 20
12.0451909682239
 30
0
 11
72.41178406184399
 21
11.6291909682239
 31
0
 12
72.41178406184399
 22
12.4611909682239
 32
0
 13
72.41178406184399
 23
12.4611909682239
 33
0
  0
SOLID
  8
1
 62
2
 10
59.61178406184398
 20
12.0451909682239
 30
0
 11
62.81178406184399
 21
12.4611909682239
 31
0
 12
62.81178406184399
 22
11.6291909682239
 32
0
 13
62.81178406184399
 23
11.6291909682239
 33
0
  0
TEXT
  8
1
 62
2
 10
39.98053278942859
 20
14.9351909682239
 30
0
 40
3.2
  1
16
 41
0.8910000000000001
  0
TEXT
  8
1
 62
2
 10
45.3821327894286
 20
17.7351909682239
 30
0
 40
3.2
  1
+0,2
 41
0.8910000000000001
  0
TEXT
  8
1
 62
2
 10
45.3821327894286
 20
12.1351909682239
 30
0
 40
3.2
  1
 0
 41
0.8910000000000001
  0
TEXT
  8
1
 62
2
 10
36.1629327894286
 20
14.9351909682239
 30
0
 40
3.2
  1
%%c
 41
0.8910000000000001
  0
ENDBLK
  8
0
  0
BLOCK
  8
1
  2
*D15
 70
1
 10
0
 20
0
 30
0
  0
LINE
  8
1
 62
2
 10
287.5301881095501
 20
187.472518689743
 30
0
 11
287.5301881095501
 21
212.403565722519
 31
0
  0
LINE
  8
1
 62
2
 10
287.5301881095501
 20
186.472518689743
 30
0
 11
287.5301881095501
 21
187.472518689743
 31
0
  0
LINE
  8
1
 62
2
 10
287.5301881095501
 20
180.072518689743
 30
0
 11
287.5301881095501
 21
186.472518689743
 31
0
  0
LINE
  8
1
 62
2
 10
292.8637919589403
 20
187.472518689743
 30
0
 11
286.5301881095501
 21
187.472518689743
 31
0
  0
LINE
  8
1
 62
2
 10
293.8637919589403
 20
186.472518689743
 30
0
 11
286.5301881095501
 21
186.472518689743
 31
0
  0
SOLID
  8
1
 62
2
 10
287.5301881095501
 20
186.472518689743
 30
0
 11
287.9461881095501
 21
183.272518689743
 31
0
 12
287.1141881095501
 22
183.272518689743
 32
0
 13
287.1141881095501
 23
183.272518689743
 33
0
  0
SOLID
  8
1
 62
2
 10
287.5301881095501
 20
187.472518689743
 30
0
 11
287.1141881095501
 21
190.672518689743
 31
0
 12
287.9461881095501
 22
190.672518689743
 32
0
 13
287.9461881095501
 23
190.672518689743
 33
0
  0
TEXT
  8
1
 62
2
 10
287.4401881095502
 20
200.032365722519
 30
0
 40
3.2
  1
1
 50
90
 41
0.8910000000000001
  0
TEXT
  8
1
 62
2
 10
287.4401881095502
 20
193.046765722519
 30
0
 40
3.2
  1
Sm
 50
90
 41
0.8910000000000001
  0
TEXT
  8
1
 62
2
 10
287.4401881095502
 20
202.582765722519
 30
0
 40
3.2
  1
x45%%d
 50
90
 41
0.8910000000000001
  0
ENDBLK
  8
0
  0
BLOCK
  8
1
  2
*D16
 70
1
 10
0
 20
0
 30
0
  0
LINE
  8
1
 62
2
 10
162.594139163328
 20
167.257729463743
 30
0
 11
162.594139163328
 21
223.257729463743
 31
0
  0
LINE
  8
1
 62
2
 10
72.61178406184411
 20
223.257729463743
 30
0
 11
163.594139163328
 21
223.257729463743
 31
0
  0
LINE
  8
1
 62
2
 10
136.991785734644
 20
167.257729463743
 30
0
 11
163.594139163328
 21
167.257729463743
 31
0
  0
SOLID
  8
1
 62
2
 10
162.594139163328
 20
223.257729463743
 30
0
 11
163.010139163328
 21
220.057729463743
 31
0
 12
162.178139163328
 22
220.057729463743
 32
0
 13
162.178139163328
 23
220.057729463743
 33
0
  0
SOLID
  8
1
 62
2
 10
162.594139163328
 20
167.257729463743
 30
0
 11
162.178139163328
 21
170.457729463743
 31
0
 12
163.010139163328
 22
170.457729463743
 32
0
 13
163.010139163328
 23
170.457729463743
 33
0
  0
TEXT
  8
1
 62
2
 10
161.394139163328
 20
195.684527110395
 30
0
 40
3.2
  1
56
 50
90
 41
0.9
  0
ENDBLK
  8
0
  0
BLOCK
  8
1
  2
*D17
 70
1
 10
0
 20
0
 30
0
  0
LINE
  8
1
 62
2
 10
162.594139163328
 20
111.2577294637429
 30
0
 11
162.594139163328
 21
167.257729463743
 31
0
  0
LINE
  8
1
 62
2
 10
136.991785734644
 20
167.257729463743
 30
0
 11
163.594139163328
 21
167.257729463743
 31
0
  0
LINE
  8
1
 62
2
 10
74.24094918644289
 20
111.2577294637429
 30
0
 11
163.594139163328
 21
111.2577294637429
 31
0
  0
SOLID
  8
1
 62
2
 10
162.594139163328
 20
167.257729463743
 30
0
 11
163.010139163328
 21
164.057729463743
 31
0
 12
162.178139163328
 22
164.057729463743
 32
0
 13
162.178139163328
 23
164.057729463743
 33
0
  0
SOLID
  8
1
 62
2
 10
162.594139163328
 20
111.2577294637429
 30
0
 11
162.178139163328
 21
114.4577294637429
 31
0
 12
163.010139163328
 22
114.4577294637429
 32
0
 13
163.010139163328
 23
114.4577294637429
 33
0
  0
TEXT
  8
1
 62
2
 10
161.394139163328
 20
136.8577294637429
 30
0
 40
3.2
  1
56
 50
90
 41
0.9
  0
ENDBLK
  8
0
  0
BLOCK
  8
1
  2
*D18
 70
1
 10
0
 20
0
 30
0
  0
LINE
  8
1
 62
2
 10
357.049733369444
 20
-97.98973190945702
 30
0
 11
390.0527857949787
 21
-146.7419693508611
 31
0
  0
SOLID
  8
1
 62
2
 10
363.776745270691
 20
-107.9269000614247
 30
0
 11
361.6383869344236
 21
-105.5101916334765
 31
0
 12
362.3273639262933
 22
-105.0437854749901
 32
0
 13
362.3273639262933
 23
-105.0437854749901
 33
0
  0
TEXT
  8
1
 62
2
 10
389.970180705976
 20
-144.4793212564216
 30
0
 40
3.2
  1
6
 50
304.0962173537905
 41
0.8910000000000001
  0
TEXT
  8
1
 62
2
 10
387.8175368975769
 20
-141.2994274477919
 30
0
 40
3.2
  1
R
 50
304.0962173537905
 41
0.8910000000000001
  0
ENDBLK
  8
0
  0
BLOCK
  8
1
  2
*D19
 70
1
 10
0
 20
0
 30
0
  0
LINE
  8
1
 62
2
 10
127.8575185784439
 20
-89.36816121363808
 30
0
 11
112.1405461650807
 21
-78.11168081585251
 31
0
  0
SOLID
  8
1
 62
2
 10
127.0445214781166
 20
-88.78589347894953
 30
0
 11
129.8883355767945
 21
-90.31094343621676
 31
0
 12
129.4038888215336
 22
-90.9873570236891
 32
0
 13
129.4038888215336
 23
-90.9873570236891
 33
0
  0
TEXT
  8
1
 62
2
 10
115.961176311964
 20
-79.3719923966637
 30
0
 40
3.2
  1
1
 50
324.3897984040947
 41
0.8910000000000001
  0
TEXT
  8
1
 62
2
 10
112.839267446707
 20
-77.1360842954597
 30
0
 40
3.2
  1
R
 50
324.3897984040947
 41
0.8910000000000001
  0
ENDBLK
  8
0
  0
BLOCK
  8
1
  2
*D20
 70
1
 10
0
 20
0
 30
0
  0
LINE
  8
1
 62
2
 10
63.84260993986411
 20
-98.70836629828384
 30
0
 11
97.43254923622196
 21
-149.1470841140418
 31
0
  0
SOLID
  8
1
 62
2
 10
68.72036468595572
 20
-106.0328122593775
 30
0
 11
66.60038915103438
 21
-103.5999621342496
 31
0
 12
67.2928822237196
 22
-103.1387925946191
 32
0
 13
67.2928822237196
 23
-103.1387925946191
 33
0
  0
SOLID
  8
1
 62
2
 10
66.50320343773227
 20
-102.7035186406985
 30
0
 11
68.62317897265362
 21
-105.1363687658264
 31
0
 12
67.93068589996841
 22
-105.5975383054569
 32
0
 13
67.93068589996841
 23
-105.5975383054569
 33
0
  0
TEXT
  8
1
 62
2
 10
95.30833653353997
 20
-137.2976402286198
 30
0
 40
3.2
  1
4
 50
303.6618471419001
 41
0.8910000000000001
  0
TEXT
  8
1
 62
2
 10
99.32360047555756
 20
-138.8527786391587
 30
0
 40
3.2
  1
 0
 50
303.6618471419001
 41
0.8910000000000001
  0
TEXT
  8
1
 62
2
 10
95.19527638839568
 20
-141.6020585869558
 30
0
 40
3.2
  1
-0,1
 50
303.6618471419001
 41
0.8910000000000001
  0
TEXT
  8
1
 62
2
 10
91.58350563652456
 20
-131.7044269492392
 30
0
 40
3.2
  1
*%%c
 50
303.6618471419001
 41
0.8910000000000001
  0
ENDBLK
  8
0
  0
BLOCK
  8
1
  2
*D21
 70
1
 10
0
 20
0
 30
0
  0
LINE
  8
1
 62
2
 10
-42.56649633986209
 20
-88.11311621675604
 30
0
 11
-78.85370120037351
 21
-33.56484284826649
 31
0
  0
SOLID
  8
1
 62
2
 10
-45.22508388650138
 20
-84.11662872686514
 30
0
 11
-47.34383783338478
 21
-81.68271465431329
 31
0
 12
-46.65111333513703
 22
-81.2218928128958
 32
0
 13
-46.65111333513703
 23
-81.2218928128958
 33
0
  0
SOLID
  8
1
 62
2
 10
-47.55134798981064
 20
-80.61970217321078
 30
0
 11
-45.43259404292723
 21
-83.05361624576264
 31
0
 12
-46.12531854117498
 22
-83.51443808718013
 32
0
 13
-46.12531854117498
 23
-83.51443808718013
 33
0
  0
TEXT
  8
1
 62
2
 10
-71.13519114518758
 20
-36.50133778747445
 30
0
 40
3.2
  1
4
 50
303.6330839495341
 41
0.8910000000000001
  0
TEXT
  8
1
 62
2
 10
-67.12070840787513
 20
-38.05849171429748
 30
0
 40
3.2
  1
 0
 50
303.6330839495341
 41
0.8910000000000001
  0
TEXT
  8
1
 62
2
 10
-71.25041214742907
 20
-40.80569884582475
 30
0
 40
3.2
  1
-0,1
 50
303.6330839495341
 41
0.8910000000000001
  0
TEXT
  8
1
 62
2
 10
-74.8572137104826
 20
-30.9062553016272
 30
0
 40
3.2
  1
*%%c
 50
303.6330839495341
 41
0.8910000000000001
  0
ENDBLK
  8
0
  0
BLOCK
  8
1
  2
*D22
 70
1
 10
0
 20
0
 30
0
  0
LINE
  8
1
 62
2
 10
63.81280373115479
 20
-94.78016637189445
 30
0
 11
95.46856976949158
 21
-74.68168461621505
 31
0
  0
SOLID
  8
1
 62
2
 10
71.4107643925332
 20
-89.95616452818148
 30
0
 11
68.93224335370805
 21
-92.0225598098498
 31
0
 12
68.48629118326703
 22
-91.32017055759793
 32
0
 13
68.48629118326703
 23
-91.32017055759793
 33
0
  0
SOLID
  8
1
 62
2
 10
63.81280373115479
 20
-94.78016637189445
 30
0
 11
66.29132476997994
 21
-92.71377109022613
 31
0
 12
66.73727694042096
 22
-93.41616034247799
 32
0
 13
66.73727694042096
 23
-93.41616034247799
 33
0
  0
TEXT
  8
1
 62
2
 10
83.19395473489237
 20
-77.73681566944197
 30
0
 40
3.2
  1
9
 50
32.41176829700112
 41
0.8910000000000001
  0
TEXT
  8
1
 62
2
 10
84.664800997743
 20
-73.48628496480538
 30
0
 40
3.2
  1
+0,2
 50
32.41176829700112
 41
0.8910000000000001
  0
TEXT
  8
1
 62
2
 10
87.66640214494218
 20
-78.21390493188528
 30
0
 40
3.2
  1
 0
 50
32.41176829700112
 41
0.8910000000000001
  0
TEXT
  8
1
 62
2
 10
79.95215818603759
 20
-79.79505645609284
 30
0
 40
3.2
  1
%%c
 50
32.41176829700112
 41
0.8910000000000001
  0
ENDBLK
  8
0
  0
BLOCK
  8
1
  2
*D23
 70
1
 10
0
 20
0
 30
0
  0
LINE
  8
1
 62
2
 10
386.5191962691204
 20
-64.54959723541538
 30
0
 11
388.3878754971968
 21
-94.020810743792
 31
0
  0
SOLID
  8
1
 62
2
 10
388.3878754971968
 20
-94.020810743792
 30
0
 11
387.7702137054062
 21
-90.85354853314982
 31
0
 12
388.6005462290855
 22
-90.80089969536256
 32
0
 13
388.6005462290855
 23
-90.80089969536256
 33
0
  0
TEXT
  8
1
 62
2
 10
388.5785777669031
 20
-68.24428468904817
 30
0
 40
3.2
  1
252.3
 50
273.6280926168541
 41
0.8910000000000001
  0
TEXT
  8
1
 62
2
 10
388.3370005996716
 20
-64.43433584001195
 30
0
 40
3.2
  1
%%c
 50
273.6280926168541
 41
0.8910000000000001
  0
ENDBLK
  8
0
  0
ENDSEC
  0
SECTION
  2
ENTITIES
  0
INSERT
  8
1
  2
*X0
 10
0
 20
0
 30
0
  0
INSERT
  8
1
  2
*X1
 10
0
 20
0
 30
0
  0
INSERT
  8
1
  2
*X2
 10
0
 20
0
 30
0
  0
INSERT
  8
1
  2
*X3
 10
0
 20
0
 30
0
  0
INSERT
  8
1
  2
*X4
 10
0
 20
0
 30
0
  0
INSERT
  8
1
  2
*X5
 10
0
 20
0
 30
0
  0
INSERT
  8
1
  2
*X6
 10
0
 20
0
 30
0
  0
INSERT
  8
1
  2
*X7
 10
0
 20
0
 30
0
  0
INSERT
  8
1
  2
*X8
 10
0
 20
0
 30
0
  0
INSERT
  8
1
  2
*X9
 10
0
 20
0
 30
0
  0
INSERT
  8
1
  2
*X10
 10
0
 20
0
 30
0
  0
INSERT
  8
1
  2
*X11
 10
0
 20
0
 30
0
  0
POLYLINE
  8
0
 62
2
 66
1
 70
1
  0
VERTEX
  8
0
 10
-13.06321593815602
 20
126.853973607209
 30
0
  0
VERTEX
  8
0
 10
-9.56321593815602
 20
128.874699558209
 30
0
  0
VERTEX
  8
0
 10
-9.56321593815602
 20
124.833247656209
 30
0
  0
VERTEX
  8
0
 10
-13.06321593815602
 20
126.853973607209
 30
0
  0
SEQEND
  8
0
  0
POLYLINE
  8
0
 62
2
 66
1
 70
1
  0
VERTEX
  8
0
 10
374.677479635144
 20
-64.37283966865699
 30
0
  0
VERTEX
  8
0
 10
377.970328841444
 20
-65.66014076175701
 30
0
  0
VERTEX
  8
0
 10
374.448749297344
 20
-65.346329490157
 30
0
  0
VERTEX
  8
0
 10
374.677479635144
 20
-64.37283966865699
 30
0
  0
SEQEND
  8
0
  0
POLYLINE
  8
0
 62
2
 66
1
 70
1
  0
VERTEX
  8
0
 10
324.664941228744
 20
-75.24894461025694
 30
0
  0
VERTEX
  8
0
 10
321.531516340344
 20
-76.88651856845699
 30
0
  0
VERTEX
  8
0
 10
324.081083524844
 20
-74.43708859985701
 30
0
  0
VERTEX
  8
0
 10
324.664941228744
 20
-75.24894461025694
 30
0
  0
SEQEND
  8
0
  0
POLYLINE
  8
0
 62
2
 66
1
 70
1
  0
VERTEX
  8
0
 10
357.556419283544
 20
-82.596605881457
 30
0
  0
VERTEX
  8
0
 10
357.7515096055439
 20
-83.57739116185705
 30
0
  0
VERTEX
  8
0
 10
354.221215963144
 20
-83.76981464875699
 30
0
  0
VERTEX
  8
0
 10
357.556419283544
 20
-82.596605881457
 30
0
  0
SEQEND
  8
0
  0
POLYLINE
  8
0
 62
2
 66
1
 70
1
  0
VERTEX
  8
0
 10
347.067904485544
 20
-85.702492348457
 30
0
  0
VERTEX
  8
0
 10
346.872814163544
 20
-84.721707068057
 30
0
  0
VERTEX
  8
0
 10
350.403107805944
 20
-84.529283581157
 30
0
  0
VERTEX
  8
0
 10
347.067904485544
 20
-85.702492348457
 30
0
  0
SEQEND
  8
0
  0
POLYLINE
  8
0
 62
2
 66
1
 70
1
  0
VERTEX
  8
0
 10
334.863782477244
 20
311.981968927143
 30
0
  0
VERTEX
  8
0
 10
334.863782477244
 20
309.981968927143
 30
0
  0
VERTEX
  8
0
 10
327.863782477244
 20
310.981968927143
 30
0
  0
VERTEX
  8
0
 10
334.863782477244
 20
311.981968927143
 30
0
  0
SEQEND
  8
0
  0
POLYLINE
  8
0
 62
2
 66
1
 70
1
  0
VERTEX
  8
0
 10
312.863782477244
 20
309.981968927143
 30
0
  0
VERTEX
  8
0
 10
312.863782477244
 20
311.981968927143
 30
0
  0
VERTEX
  8
0
 10
319.863782477244
 20
310.981968927143
 30
0
  0
VERTEX
  8
0
 10
312.863782477244
 20
309.981968927143
 30
0
  0
SEQEND
  8
0
  0
POLYLINE
  8
0
 62
2
 66
1
 70
1
  0
VERTEX
  8
0
 10
382.755987054
 20
299.6377279429429
 30
0
  0
VERTEX
  8
0
 10
384.755987054
 20
299.6377279429429
 30
0
  0
VERTEX
  8
0
 10
383.755987054
 20
292.6377279429429
 30
0
  0
VERTEX
  8
0
 10
382.755987054
 20
299.6377279429429
 30
0
  0
SEQEND
  8
0
  0
POLYLINE
  8
0
 62
2
 66
1
 70
1
  0
VERTEX
  8
0
 10
384.755987054
 20
283.703447574943
 30
0
  0
VERTEX
  8
0
 10
382.755987054
 20
283.703447574943
 30
0
  0
VERTEX
  8
0
 10
383.755987054
 20
290.703447574943
 30
0
  0
VERTEX
  8
0
 10
384.755987054
 20
283.703447574943
 30
0
  0
SEQEND
  8
0
  0
POLYLINE
  8
1
 62
2
 66
1
 70
1
  0
VERTEX
  8
1
 10
95.4112968191105
 20
-188.1322936216772
 30
0
  0
VERTEX
  8
1
 10
95.4112968191105
 20
-174.3722936216772
 30
0
  0
VERTEX
  8
1
 10
141.4112968191105
 20
-174.3722936216772
 30
0
  0
VERTEX
  8
1
 10
141.4112968191105
 20
-188.1322936216772
 30
0
  0
VERTEX
  8
1
 10
95.4112968191105
 20
-188.1322936216772
 30
0
  0
SEQEND
  8
1
  0
POLYLINE
  8
0
 62
2
 66
1
 70
1
  0
VERTEX
  8
0
 10
-26.29990644515601
 20
306.3073762585429
 30
0
  0
VERTEX
  8
0
 10
-22.85988209895601
 20
300.129493732943
 30
0
  0
VERTEX
  8
0
 10
-27.89211257835601
 20
305.097054140543
 30
0
  0
VERTEX
  8
0
 10
-26.29990644515601
 20
306.3073762585429
 30
0
  0
SEQEND
  8
0
  0
POLYLINE
  8
1
 62
2
 66
1
  0
VERTEX
  8
1
 10
37.92169892124988
 20
49.49059864452396
 30
0
  0
VERTEX
  8
1
 10
37.35877063741435
 20
49.52075278554349
 30
0
 42
-0.02777064826731045
  0
VERTEX
  8
1
 10
36.35262824656423
 20
49.6498488515455
 30
0
 42
-0.03407356722328176
  0
VERTEX
  8
1
 10
35.49674702130753
 20
49.86553435894062
 30
0
 42
-0.04063928284332623
  0
VERTEX
  8
1
 10
34.7798976774429
 20
50.16165618305979
 30
0
 42
-0.04603075130729843
  0
VERTEX
  8
1
 10
34.19085093076909
 20
50.53206119923406
 30
0
 42
-0.04836804841710276
  0
VERTEX
  8
1
 10
33.71837749708472
 20
50.97059628279442
 30
0
 42
-0.04655026870807996
  0
VERTEX
  8
1
 10
33.35124809218851
 20
51.47110830907186
 30
0
 42
-0.04122720323602432
  0
VERTEX
  8
1
 10
33.07823343187903
 20
52.02744415339738
 30
0
  0
SEQEND
  8
1
  0
POLYLINE
  8
1
 62
2
 66
1
  0
VERTEX
  8
1
 10
-43.08008009976481
 20
167.2577294637404
 30
0
 42
0.005632013252612339
  0
VERTEX
  8
1
 10
-43.21321804449481
 20
166.9088867133084
 30
0
 42
0.01748426166955283
  0
VERTEX
  8
1
 10
-43.32824437307372
 20
166.5603185025024
 30
0
 42
0.03083543245134707
  0
VERTEX
  8
1
 10
-43.40704746935045
 20
166.2122993709486
 30
0
 42
0.04537137113073145
  0
VERTEX
  8
1
 10
-43.43151571717391
 20
165.8651038582729
 30
0
 42
0.05788663827849497
  0
VERTEX
  8
1
 10
-43.383537500393
 20
165.5190065041015
 30
0
 42
0.02904946728763687
  0
VERTEX
  8
1
 10
-43.30608141270922
 20
165.2869171522265
 30
0
 42
0.00700966788507741
  0
VERTEX
  8
1
 10
-43.21040401147892
 20
165.0562628593043
 30
0
 42
-0.02964454809669658
  0
VERTEX
  8
1
 10
-43.11931569651981
 20
164.8278567170846
 30
0
 42
-0.02238140348502015
  0
VERTEX
  8
1
 10
-43.05562686764959
 20
164.6025118173171
 30
0
 42
-0.08515631268133206
  0
VERTEX
  8
1
 10
-43.04214792468593
 20
164.3810412517514
 30
0
 42
-0.08720789283909421
  0
VERTEX
  8
1
 10
-43.12842954099582
 20
164.0844442734296
 30
0
 42
-0.03813600341932941
  0
VERTEX
  8
1
 10
-43.29970157605278
 20
163.7943309184834
 30
0
 42
-0.005055188190796107
  0
VERTEX
  8
1
 10
-43.50369715311185
 20
163.5083737873992
 30
0
 42
0.02801685262347363
  0
VERTEX
  8
1
 10
-43.68814939542812
 20
163.2242454806632
 30
0
 42
0.07493756747627212
  0
VERTEX
  8
1
 10
-43.80079142625664
 20
162.9396185987616
 30
0
 42
0.08509215782138528
  0
VERTEX
  8
1
 10
-43.80817047780713
 20
162.6833704058412
 30
0
 42
0.05601752998778677
  0
VERTEX
  8
1
 10
-43.73976118069
 20
162.4217837720117
 30
0
 42
0.02860308454722853
  0
VERTEX
  8
1
 10
-43.61835053019555
 20
162.1517654043603
 30
0
 42
0.008111299429999304
  0
VERTEX
  8
1
 10
-43.46672552161406
 20
161.8702220099741
 30
0
 42
-0.001956141943108704
  0
VERTEX
  8
1
 10
-43.30767315023581
 20
161.5740602959403
 30
0
 42
-0.0337622378326977
  0
VERTEX
  8
1
 10
-43.09656516903276
 20
161.1031432418883
 30
0
 42
-0.02351450391564015
  0
VERTEX
  8
1
 10
-42.94407514246416
 20
160.621991193583
 30
0
 42
-0.05512374294891501
  0
VERTEX
  8
1
 10
-42.87437980144999
 20
160.160084274356
 30
0
 42
-0.06488784545960802
  0
VERTEX
  8
1
 10
-42.91165587691022
 20
159.7469026075385
 30
0
 42
-0.1237830018328679
  0
VERTEX
  8
1
 10
-43.08008009976481
 20
159.411926316462
 30
0
 42
-0.060350856414286
  0
VERTEX
  8
1
 10
-43.24654130497098
 20
159.2605273920615
 30
0
 42
-0.03265801681470253
  0
VERTEX
  8
1
 10
-43.4531037961483
 20
159.1332571001652
 30
0
 42
-0.01268019751684344
  0
VERTEX
  8
1
 10
-43.68643899245032
 20
159.0172015728351
 30
0
 42
0.00406092231864395
  0
VERTEX
  8
1
 10
-43.93321831303063
 20
158.8994469421334
 30
0
 42
0.01933331036624634
  0
VERTEX
  8
1
 10
-44.18011317704281
 20
158.7670793401221
 30
0
 42
0.02011128113412479
  0
VERTEX
  8
1
 10
-44.44385328339416
 20
158.5932872984068
 30
0
 42
0.0008067252615066438
  0
VERTEX
  8
1
 10
-44.69598538041481
 20
158.4115939450115
 30
0
 42
-0.03695034401630204
  0
VERTEX
  8
1
 10
-44.94142360201889
 20
158.2485186973327
 30
0
 42
-0.03090616182365404
  0
VERTEX
  8
1
 10
-45.18508208212052
 20
158.1305809727669
 30
0
 42
-0.102163601857482
  0
VERTEX
  8
1
 10
-45.43187495463383
 20
158.0843001887105
 30
0
 42
-0.08542658710814631
  0
VERTEX
  8
1
 10
-45.72972701854838
 20
158.1411767707435
 30
0
 42
-0.0349828385489423
  0
VERTEX
  8
1
 10
-46.03639365508146
 20
158.2814720935678
 30
0
 42
-0.002233922088562984
  0
VERTEX
  8
1
 10
-46.34965617747926
 20
158.4540206055019
 30
0
 42
0.02939272536376131
  0
VERTEX
  8
1
 10
-46.66729589898796
 20
158.6076567548638
 30
0
 42
0.07022506150055202
  0
VERTEX
  8
1
 10
-46.98709413285371
 20
158.6912149899719
 30
0
 42
0.0773731478996756
  0
VERTEX
  8
1
 10
-47.31550937601143
 20
158.6681721433378
 30
0
 42
0.03546004543316583
  0
VERTEX
  8
1
 10
-47.64523996859856
 20
158.5682038132737
 30
0
 42
-8.728476328340915e-005
  0
VERTEX
  8
1
 10
-47.97766450995248
 20
158.4418247314476
 30
0
 42
-0.03662795217452188
  0
VERTEX
  8
1
 10
-48.31416159941059
 20
158.3395496295276
 30
0
 42
-0.07068820544732153
  0
VERTEX
  8
1
 10
-48.65610983631029
 20
158.3118932391816
 30
0
 42
-0.082908205551981
  0
VERTEX
  8
1
 10
-48.96480734854681
 20
158.3828312891317
 30
0
 42
-0.04470609124351957
  0
VERTEX
  8
1
 10
-49.25787100622681
 20
158.5356520192715
 30
0
 42
-0.0651882040553054
  0
VERTEX
  8
1
 10
-49.51417565053194
 20
158.7516273796403
 30
0
 42
-0.04466425455020458
  0
VERTEX
  8
1
 10
-49.7125961226438
 20
159.0120293202773
 30
0
 42
-0.08342236576778067
  0
VERTEX
  8
1
 10
-49.832007263744
 20
159.2981297912219
 30
0
 42
-0.1091870257425276
  0
VERTEX
  8
1
 10
-49.83742674303839
 20
159.7725578070587
 30
0
 42
-0.04708469951210996
  0
VERTEX
  8
1
 10
-49.68755332288532
 20
160.2567326263424
 30
0
 42
-0.003063675013807477
  0
VERTEX
  8
1
 10
-49.48186511797515
 20
160.7426661407026
 30
0
 42
0.04209328963704603
  0
VERTEX
  8
1
 10
-49.3198402429982
 20
161.222370241769
 30
0
 42
0.1030443378357715
  0
VERTEX
  8
1
 10
-49.30095681264481
 20
161.6878568211714
 30
0
 42
0.06246260947682462
  0
VERTEX
  8
1
 10
-49.3967454464402
 20
161.9715745461129
 30
0
 42
0.02654176476219903
  0
VERTEX
  8
1
 10
-49.54912017448628
 20
162.2501175636428
 30
0
 42
-0.01858877039055193
  0
VERTEX
  8
1
 10
-49.71808528326819
 20
162.5271507664929
 30
0
 42
-0.01495374137187766
  0
VERTEX
  8
1
 10
-49.86364505927106
 20
162.8063390473949
 30
0
 42
-0.08522098630049101
  0
VERTEX
  8
1
 10
-49.94580378898002
 20
163.0913472990807
 30
0
 42
-0.08302340704244508
  0
VERTEX
  8
1
 10
-49.92659521540191
 20
163.439993740613
 30
0
 42
-0.03633355363227461
  0
VERTEX
  8
1
 10
-49.81867396276311
 20
163.797283758586
 30
0
 42
-0.00192472041895061
  0
VERTEX
  8
1
 10
-49.67863160432696
 20
164.1585317786619
 30
0
 42
0.03256675234254475
  0
VERTEX
  8
1
 10
-49.56305971335676
 20
164.5190522265028
 30
0
 42
0.07575569027435826
  0
VERTEX
  8
1
 10
-49.52854986311581
 20
164.8741595277708
 30
0
 42
0.06502337374450697
  0
VERTEX
  8
1
 10
-49.59159652860366
 20
165.1654156133534
 30
0
 42
0.03070580060582487
  0
VERTEX
  8
1
 10
-49.71387866979101
 20
165.4523747539032
 30
0
 42
-0.006339928218721142
  0
VERTEX
  8
1
 10
-49.85774252334438
 20
165.7378481169597
 30
0
 42
-0.0174765078165176
  0
VERTEX
  8
1
 10
-49.98553432593021
 20
166.0246468700626
 30
0
 42
-0.06757217362969463
  0
VERTEX
  8
1
 10
-50.059600314215
 20
166.3155821807513
 30
0
 42
-0.04373442360253301
  0
VERTEX
  8
1
 10
-50.06458826346091
 20
166.500748356495
 30
0
 42
-0.03249381948274156
  0
VERTEX
  8
1
 10
-50.04096279649058
 20
166.6880900528081
 30
0
 42
-0.02189935603209029
  0
VERTEX
  8
1
 10
-49.9958772673581
 20
166.8770633895483
 30
0
 42
-0.01244115247982832
  0
VERTEX
  8
1
 10
-49.9364850301175
 20
167.0671244865731
 30
0
 42
-0.004070543190074454
  0
VERTEX
  8
1
 10
-49.86993943882283
 20
167.2577294637404
 30
0
  0
SEQEND
  8
1
  0
POLYLINE
  8
1
 62
2
 66
1
  0
VERTEX
  8
1
 10
-43.08008009976481
 20
167.2577294637404
 30
0
 42
-0.01010498672842715
  0
VERTEX
  8
1
 10
-43.14743156296104
 20
167.4181322473763
 30
0
 42
-0.004570655252229945
  0
VERTEX
  8
1
 10
-43.20932481288176
 20
167.5785709736342
 30
0
 42
-0.02576851953099706
  0
VERTEX
  8
1
 10
-43.26030163625147
 20
167.7390815851362
 30
0
 42
-0.02190503609197528
  0
VERTEX
  8
1
 10
-43.29490381979465
 20
167.8997000245044
 30
0
 42
-0.04459024650677393
  0
VERTEX
  8
1
 10
-43.30767315023581
 20
168.0604622343607
 30
0
 42
-0.05559478365491264
  0
VERTEX
  8
1
 10
-43.27552904738524
 20
168.3249657510127
 30
0
 42
-0.02714664764498084
  0
VERTEX
  8
1
 10
-43.19751921392886
 20
168.5899672373777
 30
0
 42
-0.003313860674766559
  0
VERTEX
  8
1
 10
-43.10144247432707
 20
168.8554795781916
 30
0
 42
0.02023759326620921
  0
VERTEX
  8
1
 10
-43.01509765304029
 20
169.1215156581906
 30
0
 42
0.04676116226592045
  0
VERTEX
  8
1
 10
-42.96628357452892
 20
169.3880883621105
 30
0
 42
0.06046086084403465
  0
VERTEX
  8
1
 10
-42.98337865470112
 20
169.7128756694741
 30
0
 42
0.03133367301277432
  0
VERTEX
  8
1
 10
-43.0615412907693
 20
170.038426356932
 30
0
 42
-0.002931786885167195
  0
VERTEX
  8
1
 10
-43.16529534432206
 20
170.3646917435461
 30
0
 42
-0.01121432517160383
  0
VERTEX
  8
1
 10
-43.25916467694804
 20
170.6916231483783
 30
0
 42
-0.05512901823136748
  0
VERTEX
  8
1
 10
-43.30767315023581
 20
171.0191718904907
 30
0
 42
-0.03946503246338656
  0
VERTEX
  8
1
 10
-43.29688510495079
 20
171.2758246552605
 30
0
 42
-0.02108531393934939
  0
VERTEX
  8
1
 10
-43.25457825666249
 20
171.532972911741
 30
0
 42
-0.004115672238251794
  0
VERTEX
  8
1
 10
-43.1986993434775
 20
171.7907641811035
 30
0
 42
0.01257272880473026
  0
VERTEX
  8
1
 10
-43.14719510350238
 20
172.0493459845198
 30
0
 42
0.02987877080891378
  0
VERTEX
  8
1
 10
-43.11801227484369
 20
172.3088658431615
 30
0
 42
0.0388377338999552
  0
VERTEX
  8
1
 10
-43.13052869088682
 20
172.6370654160059
 30
0
 42
0.01898919408869095
  0
VERTEX
  8
1
 10
-43.18134761231916
 20
172.9656305634079
 30
0
 42
-0.005679232956156302
  0
VERTEX
  8
1
 10
-43.24487441326914
 20
173.2932042772258
 30
0
 42
-0.01286468023846784
  0
VERTEX
  8
1
 10
-43.29551446786521
 20
173.6184295493178
 30
0
 42
-0.04550188509941748
  0
VERTEX
  8
1
 10
-43.30767315023581
 20
173.939949371542
 30
0
 42
-0.02769124378561142
  0
VERTEX
  8
1
 10
-43.28412235887343
 20
174.1561326104102
 30
0
 42
-0.01398987575991436
  0
VERTEX
  8
1
 10
-43.24217104165915
 20
174.3721019792742
 30
0
 42
-0.0009989639971921416
  0
VERTEX
  8
1
 10
-43.19302903258685
 20
174.5899830364311
 30
0
 42
0.01153341652138295
  0
VERTEX
  8
1
 10
-43.1479061656504
 20
174.8119013401778
 30
0
 42
0.02347145823529181
  0
VERTEX
  8
1
 10
-43.11801227484369
 20
175.0399824488113
 30
0
 42
0.03336887719200751
  0
VERTEX
  8
1
 10
-43.11449292701526
 20
175.3075918723721
 30
0
 42
0.03614623110081482
  0
VERTEX
  8
1
 10
-43.14797725344053
 20
175.5743692424659
 30
0
 42
0.04200885944314867
  0
VERTEX
  8
1
 10
-43.22115342885856
 20
175.8287248610313
 30
0
 42
0.05088158593638872
  0
VERTEX
  8
1
 10
-43.33670962800837
 20
176.0590690300071
 30
0
 42
0.06154473955602904
  0
VERTEX
  8
1
 10
-43.49733402562902
 20
176.2538120513318
 30
0
 42
0.05223129363531032
  0
VERTEX
  8
1
 10
-43.6674172897277
 20
176.3824849237688
 30
0
 42
0.0457438272951291
  0
VERTEX
  8
1
 10
-43.86303461719817
 20
176.4775154994405
 30
0
 42
0.1178198923201341
  0
VERTEX
  8
1
 10
-44.52150275274892
 20
176.5572694519606
 30
0
 42
0.04713391000335637
  0
VERTEX
  8
1
 10
-44.84213200758627
 20
176.4865795519599
 30
0
 42
0.0218920985134751
  0
VERTEX
  8
1
 10
-45.15065963512698
 20
176.3722765925894
 30
0
 42
-0.01243069108204183
  0
VERTEX
  8
1
 10
-45.45060133556322
 20
176.2477999731241
 30
0
 42
-0.018939721150228
  0
VERTEX
  8
1
 10
-45.74547280908717
 20
176.1465890928396
 30
0
 42
-0.0712092770440147
  0
VERTEX
  8
1
 10
-46.038789755891
 20
176.1020833510111
 30
0
 42
-0.06382390938112054
  0
VERTEX
  8
1
 10
-46.33116889812536
 20
176.1370622481868
 30
0
 42
-0.0362237496523578
  0
VERTEX
  8
1
 10
-46.62538640183826
 20
176.2342234193357
 30
0
 42
-0.01516831939681723
  0
VERTEX
  8
1
 10
-46.92134981724017
 20
176.3670001870068
 30
0
 42
0.003422987007158774
  0
VERTEX
  8
1
 10
-47.21896669454156
 20
176.5088258737489
 30
0
 42
0.02239883408806595
  0
VERTEX
  8
1
 10
-47.5181445839529
 20
176.6331338021109
 30
0
 42
0.08572719412314597
  0
VERTEX
  8
1
 10
-48.24966241666272
 20
176.7624491350906
 30
0
 42
0.02682463750966657
  0
VERTEX
  8
1
 10
-48.50513329331221
 20
176.749657057313
 30
0
 42
0.02422175705536607
  0
VERTEX
  8
1
 10
-48.76990636154471
 20
176.7089981522702
 30
0
 42
0.01852830943533658
  0
VERTEX
  8
1
 10
-48.97203433566364
 20
176.6605211587337
 30
0
 42
0.02387220985629136
  0
VERTEX
  8
1
 10
-49.16850913345929
 20
176.5956018385003
 30
0
 42
0.03330765315043858
  0
VERTEX
  8
1
 10
-49.34737072936831
 20
176.5131956224492
 30
0
 42
0.04955687609946593
  0
VERTEX
  8
1
 10
-49.49665909782733
 20
176.4122579414595
 30
0
 42
0.07554056069403352
  0
VERTEX
  8
1
 10
-49.604414213273
 20
176.2917442264106
 30
0
 42
0.1729894341804958
  0
VERTEX
  8
1
 10
-49.6708498985171
 20
175.934792089832
 30
0
 42
0.05908085480915475
  0
VERTEX
  8
1
 10
-49.55639014427506
 20
175.5022220251263
 30
0
 42
-0.02477885870687576
  0
VERTEX
  8
1
 10
-49.37457358984027
 20
175.0319146307619
 30
0
 42
-0.01924627868292619
  0
VERTEX
  8
1
 10
-49.2389388745061
 20
174.5617505052072
 30
0
 42
-0.1501374867328804
  0
VERTEX
  8
1
 10
-49.26302463756593
 20
174.1296102469303
 30
0
 42
-0.05911732236226759
  0
VERTEX
  8
1
 10
-49.35365805315464
 20
173.9519893194596
 30
0
 42
-0.0275035339553584
  0
VERTEX
  8
1
 10
-49.47917244351845
 20
173.7851287517227
 30
0
 42
-0.001969677490399977
  0
VERTEX
  8
1
 10
-49.61626838870576
 20
173.6236278625482
 30
0
 42
0.02462879871309583
  0
VERTEX
  8
1
 10
-49.74164646876496
 20
173.4620859707651
 30
0
 42
0.05916791981429417
  0
VERTEX
  8
1
 10
-49.8320072637444
 20
173.2951023952018
 30
0
 42
0.1258311924443308
  0
VERTEX
  8
1
 10
-49.86353698810803
 20
172.9542809537306
 30
0
 42
0.05639903784697269
  0
VERTEX
  8
1
 10
-49.76260174722481
 20
172.5864472323959
 30
0
 42
-0.009878479110641608
  0
VERTEX
  8
1
 10
-49.60417625157334
 20
172.2031565739117
 30
0
 42
-0.01154510241898974
  0
VERTEX
  8
1
 10
-49.46323521163218
 20
171.8159643209919
 30
0
 42
-0.09980894956289271
  0
VERTEX
  8
1
 10
-49.41475333787992
 20
171.4364258163504
 30
0
 42
-0.0663682513331189
  0
VERTEX
  8
1
 10
-49.46970742585034
 20
171.1713917543848
 30
0
 42
-0.03263665242807871
  0
VERTEX
  8
1
 10
-49.57956183318335
 20
170.9131775145524
 30
0
 42
-0.00487236185681873
  0
VERTEX
  8
1
 10
-49.71125102413322
 20
170.658510910436
 30
0
 42
0.02280635176131078
  0
VERTEX
  8
1
 10
-49.83170946295422
 20
170.4041197556182
 30
0
 42
0.05555850569384645
  0
VERTEX
  8
1
 10
-49.90787161390062
 20
170.1467318636816
 30
0
 42
0.07340671113197013
  0
VERTEX
  8
1
 10
-49.90987797243883
 20
169.8288154778026
 30
0
 42
0.03916530034848818
  0
VERTEX
  8
1
 10
-49.83797050044917
 20
169.5042583431354
 30
0
 42
0.01018422855140119
  0
VERTEX
  8
1
 10
-49.73092089161976
 20
169.1755510485708
 30
0
 42
-0.008378441864996922
  0
VERTEX
  8
1
 10
-49.62750083963876
 20
168.8451841829994
 30
0
 42
-0.05181310358865592
  0
VERTEX
  8
1
 10
-49.56648203819429
 20
168.5156483353121
 30
0
 42
-0.04366003994097821
  0
VERTEX
  8
1
 10
-49.56843933125261
 20
168.2616611509017
 30
0
 42
-0.03326750924051111
  0
VERTEX
  8
1
 10
-49.60955274902251
 20
168.0092762398887
 30
0
 42
-0.0227878035469077
  0
VERTEX
  8
1
 10
-49.68003326032613
 20
167.7580930339237
 30
0
 42
-0.01307531568179313
  0
VERTEX
  8
1
 10
-49.77009183398553
 20
167.5077109646574
 30
0
 42
-0.004290415518206417
  0
VERTEX
  8
1
 10
-49.86993943882283
 20
167.2577294637404
 30
0
  0
SEQEND
  8
1
  0
POLYLINE
  8
0
 62
7
 66
1
  0
VERTEX
  8
0
 10
317.929521576844
 20
49.20102527794296
 30
0
  0
VERTEX
  8
0
 10
318.795505463644
 20
47.02472767054297
 30
0
  0
VERTEX
  8
0
 10
319.083781830844
 20
44.85808826634295
 30
0
  0
VERTEX
  8
0
 10
318.7955054636438
 20
42.69139637174294
 30
0
  0
VERTEX
  8
0
 10
317.9295215768441
 20
42.82360181434299
 30
0
  0
SEQEND
  8
0
  0
POLYLINE
  8
0
 62
7
 66
1
  0
VERTEX
  8
0
 10
317.929521576844
 20
76.63019092734297
 30
0
  0
VERTEX
  8
0
 10
318.795505463644
 20
71.45740955534296
 30
0
  0
VERTEX
  8
0
 10
319.083781830844
 20
66.30748768034297
 30
0
  0
VERTEX
  8
0
 10
318.795505463644
 20
61.15748706994296
 30
0
  0
VERTEX
  8
0
 10
317.929521576844
 20
55.98457447234296
 30
0
  0
SEQEND
  8
0
  0
POLYLINE
  8
0
 62
7
 66
1
  0
VERTEX
  8
0
 10
317.929521576844
 20
117.6808873385429
 30
0
  0
VERTEX
  8
0
 10
318.795505463644
 20
110.299080697943
 30
0
  0
VERTEX
  8
0
 10
319.083781830844
 20
102.949922983143
 30
0
  0
VERTEX
  8
0
 10
318.795505463644
 20
95.60066028774295
 30
0
  0
VERTEX
  8
0
 10
317.929521576844
 20
88.21869617634295
 30
0
  0
SEQEND
  8
0
  0
POLYLINE
  8
0
 62
7
 66
1
  0
VERTEX
  8
0
 10
329.798088471444
 20
166.103443490943
 30
0
  0
VERTEX
  8
0
 10
328.932052094444
 20
157.636479989943
 30
0
  0
VERTEX
  8
0
 10
328.643775727244
 20
149.2069157809429
 30
0
  0
VERTEX
  8
0
 10
328.932052094444
 20
140.777246591543
 30
0
  0
VERTEX
  8
0
 10
329.798088471444
 20
132.310046884343
 30
0
  0
SEQEND
  8
0
  0
POLYLINE
  8
0
 62
7
 66
1
  0
VERTEX
  8
0
 10
329.798088471444
 20
117.6808873385429
 30
0
  0
VERTEX
  8
0
 10
328.932052094444
 20
110.299080697943
 30
0
  0
VERTEX
  8
0
 10
328.643775727244
 20
102.949922983143
 30
0
  0
VERTEX
  8
0
 10
328.932052094444
 20
95.60066028774295
 30
0
  0
VERTEX
  8
0
 10
329.798088471444
 20
88.21869617634295
 30
0
  0
SEQEND
  8
0
  0
POLYLINE
  8
0
 62
7
 66
1
  0
VERTEX
  8
0
 10
317.929521576844
 20
166.103443490943
 30
0
  0
VERTEX
  8
0
 10
318.795505463644
 20
157.636479989943
 30
0
  0
VERTEX
  8
0
 10
319.083781830844
 20
149.2069157809429
 30
0
  0
VERTEX
  8
0
 10
318.795505463644
 20
140.777246591543
 30
0
  0
VERTEX
  8
0
 10
317.929521576844
 20
132.310046884343
 30
0
  0
SEQEND
  8
0
  0
POLYLINE
  8
0
 62
7
 66
1
  0
VERTEX
  8
0
 10
329.798088471444
 20
76.63019092734297
 30
0
  0
VERTEX
  8
0
 10
328.932052094444
 20
71.45740955534296
 30
0
  0
VERTEX
  8
0
 10
328.643775727244
 20
66.30748768034297
 30
0
  0
VERTEX
  8
0
 10
328.932052094444
 20
61.15748706994296
 30
0
  0
VERTEX
  8
0
 10
329.798088471444
 20
55.98457447234296
 30
0
  0
SEQEND
  8
0
  0
POLYLINE
  8
0
 62
7
 66
1
  0
VERTEX
  8
0
 10
329.798088471444
 20
49.20102527794296
 30
0
  0
VERTEX
  8
0
 10
328.932052094444
 20
47.02472767054297
 30
0
  0
VERTEX
  8
0
 10
328.643775727244
 20
44.85808826634295
 30
0
  0
VERTEX
  8
0
 10
328.932052094444
 20
42.69139637174339
 30
0
  0
VERTEX
  8
0
 10
329.798088471444
 20
42.82360181434299
 30
0
  0
SEQEND
  8
0
  0
POLYLINE
  8
0
 62
2
 66
1
 70
1
  0
VERTEX
  8
0
 10
215.412914055644
 20
285.637731136543
 30
0
  0
VERTEX
  8
0
 10
213.412914055644
 20
285.637731136543
 30
0
  0
VERTEX
  8
0
 10
214.412914055644
 20
292.637731136543
 30
0
  0
VERTEX
  8
0
 10
215.412914055644
 20
285.637731136543
 30
0
  0
SEQEND
  8
0
  0
POLYLINE
  8
0
 62
2
 66
1
 70
1
  0
VERTEX
  8
0
 10
185.262506181244
 20
280.376966102543
 30
0
  0
VERTEX
  8
0
 10
183.262506181244
 20
280.376966102543
 30
0
  0
VERTEX
  8
0
 10
184.262506181244
 20
287.376966102543
 30
0
  0
VERTEX
  8
0
 10
185.262506181244
 20
280.376966102543
 30
0
  0
SEQEND
  8
0
  0
POLYLINE
  8
0
 62
2
 66
1
 70
1
  0
VERTEX
  8
0
 10
213.412914055644
 20
48.877727790943
 30
0
  0
VERTEX
  8
0
 10
215.412914055644
 20
48.877727790943
 30
0
  0
VERTEX
  8
0
 10
214.412914055644
 20
41.877727790943
 30
0
  0
VERTEX
  8
0
 10
213.412914055644
 20
48.877727790943
 30
0
  0
SEQEND
  8
0
  0
POLYLINE
  8
0
 62
2
 66
1
 70
1
  0
VERTEX
  8
0
 10
183.262506181244
 20
54.138492824943
 30
0
  0
VERTEX
  8
0
 10
185.262506181244
 20
54.138492824943
 30
0
  0
VERTEX
  8
0
 10
184.262506181244
 20
47.138492824943
 30
0
  0
VERTEX
  8
0
 10
183.262506181244
 20
54.138492824943
 30
0
  0
SEQEND
  8
0
  0
POINT
  8
0
 62
7
  6
DOT
 10
18.76178406184397
 20
167.257729463743
 30
0
  0
POINT
  8
0
 62
7
  6
DOT
 10
30.78678406184395
 20
165.257729463743
 30
0
  0
POINT
  8
0
 62
7
  6
DOT
 10
-9.56321593815602
 20
165.257729463743
 30
0
  0
POINT
  8
0
 62
7
  6
DOT
 10
353.863782477244
 20
290.041672424943
 30
0
  0
POINT
  8
0
 62
7
  6
DOT
 10
293.863782477244
 20
294.6377279429429
 30
0
  0
POINT
  8
0
 62
7
  6
DOT
 10
322.863782477244
 20
283.503447574943
 30
0
  0
POINT
  8
0
 62
7
  6
DOT
 10
322.863782477244
 20
48.70344757494297
 30
0
  0
POINT
  8
0
 62
7
  6
DOT
 10
27.66403578264399
 20
294.637731136543
 30
0
  0
POINT
  8
0
 62
7
  6
DOT
 10
-6.440467659156013
 20
294.637731136543
 30
0
  0
POINT
  8
0
 62
7
  6
DOT
 10
126.8575185784439
 20
-91.36816121363808
 30
0
  0
POINT
  8
0
 62
7
  6
DOT
 10
-105.633950454756
 20
-91.36816121363808
 30
0
  0
LINE
  8
1
 62
2
 10
-13.06321593815602
 20
126.853973607209
 30
0
 11
-23.06321593815602
 21
126.853973607209
 31
0
  0
LINE
  8
0
 62
7
 10
16.76178406184397
 20
191.457729463743
 30
0
 11
4.461784061844014
 21
191.457729463743
 31
0
  0
LINE
  8
0
 62
7
 10
16.76178406184397
 20
186.472518689743
 30
0
 11
16.76178406184397
 21
191.457729463743
 31
0
  0
LINE
  8
DEFAULT_1
 62
2
  6
CENTER
 10
10.61178406184399
 20
137.507729463743
 30
0
 11
10.61178406184399
 21
198.783202635701
 31
0
  0
LINE
  8
0
 62
2
 10
10.61178406184399
 20
169.407729463743
 30
0
 11
10.61178406184399
 21
165.107729463743
 31
0
  0
LINE
  8
0
 62
2
 10
12.761784061844
 20
167.257729463743
 30
0
 11
8.461784061843986
 21
167.257729463743
 31
0
  0
LINE
  8
0
 62
7
 10
4.461784061844014
 20
191.457729463743
 30
0
 11
4.461784061844014
 21
186.472518689743
 31
0
  0
LINE
  8
1
 62
7
 10
10.61178406184399
 20
167.257729463743
 30
0
 11
4.61178406184399
 21
167.257729463743
 31
0
  0
LINE
  8
1
 62
7
 10
10.61178406184399
 20
167.257729463743
 30
0
 11
10.61178406184399
 21
173.370512514494
 31
0
  0
LINE
  8
1
 62
2
 10
16.76178406184397
 20
192.457729463743
 30
0
 11
16.76178406184397
 21
202.1482245122201
 31
0
  0
LINE
  8
1
 62
2
 10
4.461784061844014
 20
192.457729463743
 30
0
 11
4.461784061844014
 21
202.1482245122201
 31
0
  0
LINE
  8
1
 62
2
 10
4.461784061844014
 20
201.1482245122201
 30
0
 11
16.76178406184397
 21
201.1482245122201
 31
0
  0
LINE
  8
1
 62
2
  6
DASHDOT
 10
10.61178406184399
 20
262.8237856002418
 30
0
 11
10.61178406184399
 21
205.8191880823036
 31
0
  0
LINE
  8
1
 62
7
 10
4.461784061844014
 20
-62.36816545003794
 30
0
 11
4.461784061844014
 21
-122.368165450038
 31
0
  0
LINE
  8
1
 62
7
 10
16.76178406184397
 20
-62.36816545003796
 30
0
 11
16.76178406184397
 21
-122.368165450038
 31
0
  0
LINE
  8
1
 62
7
 10
74.61178406184399
 20
269.7741173831573
 30
0
 11
74.61178406184399
 21
270.1726933080041
 31
0
  0
LINE
  8
1
 62
2
  6
DASHED
 10
-38.388215938156
 20
60.57239776345723
 30
0
 11
-38.38821593815601
 21
99.25772946374184
 31
0
  0
LINE
  8
1
 62
2
  6
DASHED
 10
-39.38821593815602
 20
273.4780664995479
 30
0
 11
-39.38821593815601
 21
223.2577294637429
 31
0
  0
LINE
  8
1
 62
2
  6
DASHED
 10
-53.38821593815601
 20
265.6790686133401
 30
0
 11
-53.38821593815601
 21
223.257729463743
 31
0
  0
LINE
  8
1
 62
2
  6
DASHDOT
 10
30.78678406184395
 20
167.257729463743
 30
0
 11
26.61188406184399
 21
167.257729463743
 31
0
  0
LINE
  8
0
 62
2
 10
383.755987054
 20
292.6377279429429
 30
0
 11
383.755987054
 21
333.1297063715431
 31
0
  0
LINE
  8
0
 62
2
 10
343.047218202944
 20
-85.99246099635705
 30
0
 11
352.312161884544
 21
-84.149549114957
 31
0
  0
LINE
  8
0
 62
2
 10
350.403107805944
 20
-84.529283581157
 30
0
 11
343.047218202944
 21
-85.99246099635705
 31
0
  0
LINE
  8
0
 62
2
 10
361.577105566144
 20
-82.30663723355694
 30
0
 11
352.312161884544
 21
-84.149549114957
 31
0
  0
LINE
  8
0
 62
2
 10
354.221215963144
 20
-83.76981464875699
 30
0
 11
361.577105566144
 21
-82.30663723355694
 31
0
  0
LINE
  8
0
 62
2
 10
353.036534890244
 20
-97.76841556155699
 30
0
 11
350.305562644944
 21
-84.03889094095699
 31
0
  0
LINE
  8
0
 62
2
 10
357.009002560644
 20
-97.784964305857
 30
0
 11
354.123670802144
 21
-83.27942200855701
 31
0
  0
LINE
  8
0
 62
2
 10
343.074307193744
 20
-105.216726695957
 30
0
 11
321.228869346244
 21
-76.48851756725701
 31
0
  0
LINE
  8
0
 62
2
 10
368.420413256044
 20
-101.933261014457
 30
0
 11
378.097629815544
 21
-65.17661779235699
 31
0
  0
LINE
  8
0
 62
2
 10
383.755987054
 20
333.1297063715431
 30
0
 11
383.755987054
 21
291.670587758943
 31
0
  0
LINE
  8
0
 62
2
 10
383.755987054
 20
275.703447574943
 30
0
 11
383.755987054
 21
291.670587758943
 31
0
  0
LINE
  8
0
 62
2
 10
383.755987054
 20
290.703447574943
 30
0
 11
383.755987054
 21
275.703447574943
 31
0
  0
LINE
  8
0
 62
2
 10
329.863782477244
 20
290.703447574943
 30
0
 11
384.755987054
 21
290.703447574943
 31
0
  0
LINE
  8
0
 62
2
 10
355.863782477244
 20
292.6377279429429
 30
0
 11
384.7559870540001
 21
292.6377279429429
 31
0
  0
LINE
  8
0
 62
2
 10
262.914191381044
 20
310.981968927143
 30
0
 11
323.863782477244
 21
310.981968927143
 31
0
  0
LINE
  8
0
 62
2
 10
319.863782477244
 20
310.981968927143
 30
0
 11
262.914191381044
 21
310.981968927143
 31
0
  0
LINE
  8
0
 62
2
 10
342.863782477244
 20
310.981968927143
 30
0
 11
323.863782477244
 21
310.981968927143
 31
0
  0
LINE
  8
0
 62
2
 10
327.863782477244
 20
310.981968927143
 30
0
 11
342.863782477244
 21
310.981968927143
 31
0
  0
LINE
  8
0
 62
2
 10
319.863782477244
 20
297.070863698543
 30
0
 11
319.863782477244
 21
311.981968927143
 31
0
  0
LINE
  8
0
 62
2
 10
327.863782477244
 20
296.822513845943
 30
0
 11
327.863782477244
 21
311.981968927143
 31
0
  0
LINE
  8
1
 62
2
 10
72.10452944908631
 20
221.6326962059848
 30
0
 11
73.72956270684415
 21
223.2577294637429
 31
0
  0
LINE
  8
0
 62
2
 10
8.611784061843991
 20
293.792009831743
 30
0
 11
-145.676932992756
 21
293.792009831743
 31
0
  0
LINE
  8
0
 62
2
 10
8.611784061843991
 20
40.72344909594301
 30
0
 11
-145.676932992756
 21
40.72344909594301
 31
0
  0
LINE
  8
1
 62
7
 10
-125.455638815831
 20
166.257729463743
 30
0
 11
-125.4556388158311
 21
151.257729463743
 31
0
  0
LINE
  8
0
 62
2
 10
-144.676932992756
 20
40.72344909594301
 30
0
 11
-144.676932992756
 21
167.257729463743
 31
0
  0
LINE
  8
0
 62
2
 10
-144.676932992756
 20
293.792009831743
 30
0
 11
-144.676932992756
 21
167.257729463743
 31
0
  0
LINE
  8
1
 62
2
 10
-144.494261808115
 20
306.255106026172
 30
0
 11
-144.676932992756
 21
293.792009831743
 31
0
  0
LINE
  8
1
 62
2
 10
-139.033189316352
 20
306.255106026172
 30
0
 11
-144.494261808115
 21
306.255106026172
 31
0
  0
LINE
  8
1
 62
2
 10
109.1117840619321
 20
7.411134364344427
 30
0
 11
67.61178406184411
 21
104.257729463742
 31
0
  0
LINE
  8
1
 62
2
 10
116.0167838241351
 20
319.9983715542684
 30
0
 11
68.43370174050665
 21
223.257729463743
 31
0
  0
LINE
  8
1
 62
2
 10
-82.09948626793283
 20
69.43028504429231
 30
0
 11
-44.38821593815612
 21
163.2577294637404
 31
0
  0
LINE
  8
1
 62
7
 10
488.1298579665531
 20
126.9413331326223
 30
0
 11
564.4498579665529
 21
126.9413331326223
 31
0
  0
LINE
  8
1
 62
7
 10
488.1298579665531
 20
116.8613331326226
 30
0
 11
488.1298579665531
 21
126.9413331326223
 31
0
  0
LINE
  8
1
 62
7
 10
488.1298579665531
 20
106.7813331326224
 30
0
 11
488.1298579665531
 21
116.8613331326226
 31
0
  0
LINE
  8
1
 62
7
 10
488.1298579665531
 20
96.70133313262249
 30
0
 11
488.1298579665531
 21
106.7813331326224
 31
0
  0
LINE
  8
1
 62
7
 10
506.1298579665531
 20
126.9413331326223
 30
0
 11
506.1298579665531
 21
96.70133313262249
 31
0
  0
LINE
  8
1
 62
7
 10
525.5698579665528
 20
126.9413331326223
 30
0
 11
525.5698579665528
 21
96.70133313262249
 31
0
  0
LINE
  8
1
 62
7
 10
488.1298579665531
 20
86.62133313262234
 30
0
 11
488.1298579665531
 21
96.70133313262249
 31
0
  0
LINE
  8
1
 62
7
 10
488.1298579665531
 20
86.62133313262234
 30
0
 11
564.4498579665529
 21
86.62133313262234
 31
0
  0
LINE
  8
1
 62
7
 10
506.1298579665531
 20
116.8613331326226
 30
0
 11
506.1298579665531
 21
86.62133313262234
 31
0
  0
LINE
  8
1
 62
7
 10
525.5698579665528
 20
116.8613331326226
 30
0
 11
525.5698579665528
 21
86.62133313262234
 31
0
  0
LINE
  8
1
 62
7
 10
545.009857966553
 20
126.9413331326223
 30
0
 11
545.009857966553
 21
96.70133313262249
 31
0
  0
LINE
  8
1
 62
7
 10
545.009857966553
 20
116.8613331326226
 30
0
 11
545.009857966553
 21
86.62133313262234
 31
0
  0
LINE
  8
1
 62
7
 10
564.4498579665529
 20
126.9413331326223
 30
0
 11
564.4498579665529
 21
96.70133313262249
 31
0
  0
LINE
  8
1
 62
7
 10
564.4498579665529
 20
116.8613331326226
 30
0
 11
564.4498579665529
 21
86.62133313262234
 31
0
  0
LINE
  8
1
 62
7
 10
564.4498579665529
 20
116.8613331326226
 30
0
 11
488.1298579665531
 21
116.8613331326226
 31
0
  0
LINE
  8
1
 62
7
 10
564.4498579665529
 20
106.7813331326224
 30
0
 11
488.1298579665531
 21
106.7813331326224
 31
0
  0
LINE
  8
1
 62
7
 10
564.4498579665529
 20
96.70133313262249
 30
0
 11
488.1298579665531
 21
96.70133313262249
 31
0
  0
LINE
  8
1
 62
7
 10
488.1298579665531
 20
86.62133313262234
 30
0
 11
564.4498579665529
 21
86.62133313262234
 31
0
  0
LINE
  8
1
 62
7
 10
488.1298579665531
 20
76.5413331326223
 30
0
 11
488.1298579665531
 21
86.62133313262234
 31
0
  0
LINE
  8
1
 62
7
 10
488.1298579665531
 20
66.4613331326226
 30
0
 11
488.1298579665531
 21
76.5413331326223
 31
0
  0
LINE
  8
1
 62
7
 10
488.1298579665531
 20
56.38133313262233
 30
0
 11
488.1298579665531
 21
66.4613331326226
 31
0
  0
LINE
  8
1
 62
7
 10
506.1298579665531
 20
86.62133313262234
 30
0
 11
506.1298579665531
 21
56.38133313262233
 31
0
  0
LINE
  8
1
 62
7
 10
525.5698579665528
 20
86.62133313262234
 30
0
 11
525.5698579665528
 21
56.38133313262233
 31
0
  0
LINE
  8
1
 62
7
 10
488.1298579665531
 20
46.3013331326224
 30
0
 11
488.1298579665531
 21
56.38133313262233
 31
0
  0
LINE
  8
1
 62
7
 10
488.1298579665531
 20
46.3013331326224
 30
0
 11
564.4498579665529
 21
46.3013331326224
 31
0
  0
LINE
  8
1
 62
7
 10
506.1298579665531
 20
76.5413331326223
 30
0
 11
506.1298579665531
 21
46.3013331326224
 31
0
  0
LINE
  8
1
 62
7
 10
525.5698579665528
 20
76.5413331326223
 30
0
 11
525.5698579665528
 21
46.3013331326224
 31
0
  0
LINE
  8
1
 62
7
 10
545.009857966553
 20
86.62133313262234
 30
0
 11
545.009857966553
 21
56.38133313262233
 31
0
  0
LINE
  8
1
 62
7
 10
545.009857966553
 20
76.5413331326223
 30
0
 11
545.009857966553
 21
46.3013331326224
 31
0
  0
LINE
  8
1
 62
7
 10
564.4498579665529
 20
86.62133313262234
 30
0
 11
564.4498579665529
 21
56.38133313262233
 31
0
  0
LINE
  8
1
 62
7
 10
564.4498579665529
 20
76.5413331326223
 30
0
 11
564.4498579665529
 21
46.3013331326224
 31
0
  0
LINE
  8
1
 62
7
 10
564.4498579665529
 20
76.5413331326223
 30
0
 11
488.1298579665531
 21
76.5413331326223
 31
0
  0
LINE
  8
1
 62
7
 10
564.4498579665529
 20
66.4613331326226
 30
0
 11
488.1298579665531
 21
66.4613331326226
 31
0
  0
LINE
  8
1
 62
7
 10
564.4498579665529
 20
56.38133313262233
 30
0
 11
488.1298579665531
 21
56.38133313262233
 31
0
  0
LINE
  8
1
 62
7
 10
488.1298579665531
 20
46.3013331326224
 30
0
 11
564.4498579665529
 21
46.3013331326224
 31
0
  0
LINE
  8
1
 62
7
 10
488.1298579665531
 20
36.22133313262225
 30
0
 11
488.1298579665531
 21
46.3013331326224
 31
0
  0
LINE
  8
1
 62
7
 10
488.1298579665531
 20
26.14133313262232
 30
0
 11
488.1298579665531
 21
36.22133313262225
 31
0
  0
LINE
  8
1
 62
7
 10
488.1298579665531
 20
16.06133313262239
 30
0
 11
488.1298579665531
 21
26.14133313262232
 31
0
  0
LINE
  8
1
 62
7
 10
506.1298579665531
 20
46.3013331326224
 30
0
 11
506.1298579665531
 21
16.06133313262239
 31
0
  0
LINE
  8
1
 62
7
 10
525.5698579665528
 20
46.3013331326224
 30
0
 11
525.5698579665528
 21
16.06133313262239
 31
0
  0
LINE
  8
1
 62
7
 10
488.1298579665531
 20
5.98133313262224
 30
0
 11
488.1298579665531
 21
16.06133313262239
 31
0
  0
LINE
  8
1
 62
7
 10
488.1298579665531
 20
5.98133313262224
 30
0
 11
564.4498579665529
 21
5.98133313262224
 31
0
  0
LINE
  8
1
 62
7
 10
506.1298579665531
 20
36.22133313262225
 30
0
 11
506.1298579665531
 21
5.98133313262224
 31
0
  0
LINE
  8
1
 62
7
 10
525.5698579665528
 20
36.22133313262225
 30
0
 11
525.5698579665528
 21
5.98133313262224
 31
0
  0
LINE
  8
1
 62
7
 10
545.009857966553
 20
46.3013331326224
 30
0
 11
545.009857966553
 21
16.06133313262239
 31
0
  0
LINE
  8
1
 62
7
 10
545.009857966553
 20
36.22133313262225
 30
0
 11
545.009857966553
 21
5.98133313262224
 31
0
  0
LINE
  8
1
 62
7
 10
564.4498579665529
 20
46.3013331326224
 30
0
 11
564.4498579665529
 21
16.06133313262239
 31
0
  0
LINE
  8
1
 62
7
 10
564.4498579665529
 20
36.22133313262225
 30
0
 11
564.4498579665529
 21
5.98133313262224
 31
0
  0
LINE
  8
1
 62
7
 10
564.4498579665529
 20
36.22133313262225
 30
0
 11
488.1298579665531
 21
36.22133313262225
 31
0
  0
LINE
  8
1
 62
7
 10
564.4498579665529
 20
26.14133313262232
 30
0
 11
488.1298579665531
 21
26.14133313262232
 31
0
  0
LINE
  8
1
 62
7
 10
564.4498579665529
 20
16.06133313262239
 30
0
 11
488.1298579665531
 21
16.06133313262239
 31
0
  0
LINE
  8
1
 62
7
 10
488.1298579665531
 20
5.98133313262224
 30
0
 11
564.4498579665529
 21
5.98133313262224
 31
0
  0
LINE
  8
DEFAULT_1
 62
2
  6
CENTER
 10
10.61178406184399
 20
252.38274927224
 30
0
 11
10.61178406184399
 21
301.606073504143
 31
0
  0
LINE
  8
1
 62
2
  6
DASHDOT
 10
36.84483676060366
 20
299.1401912958742
 30
0
 11
30.53724574952969
 21
267.4297899055706
 31
0
  0
LINE
  8
1
 62
2
  6
DASHDOT
 10
-15.45235665225776
 20
298.2910134035877
 30
0
 11
-9.67347650389269
 21
269.2386210135572
 31
0
  0
LINE
  8
1
 62
2
 10
109.1117840619321
 20
7.411134364344427
 30
0
 11
162.3048307224998
 21
7.411134364344427
 31
0
  0
LINE
  8
1
 62
2
 10
99.01678382413502
 20
319.9983715542684
 30
0
 11
156.3278954745732
 21
319.9983715542684
 31
0
  0
LINE
  8
1
 62
7
 10
60.61178406184399
 20
233.6248297971822
 30
0
 11
60.61178406184399
 21
237.7648213056279
 31
0
  0
LINE
  8
1
 62
7
 10
74.61178406184399
 20
224.4302850442923
 30
0
 11
74.61178406184399
 21
240.6552846216512
 31
0
  0
LINE
  8
1
 62
7
 10
60.61178406184399
 20
237.7648213056279
 30
0
 11
60.61178406184399
 21
273.914435666053
 31
0
  0
LINE
  8
1
 62
7
 10
74.61178406184399
 20
240.6552846216512
 30
0
 11
74.61178406184399
 21
269.7741173831573
 31
0
  0
LINE
  8
1
 62
7
 10
63.11178406184411
 20
167.257729463743
 30
0
 11
63.11178406184387
 21
111.2577294637418
 31
0
  0
LINE
  8
1
 62
7
 10
63.61178406184365
 20
167.257729463743
 30
0
 11
63.61178406184411
 21
111.257729463742
 31
0
  0
LINE
  8
1
 62
7
 10
72.11178406184411
 20
167.257729463743
 30
0
 11
72.11178406184411
 21
111.2577294637418
 31
0
  0
LINE
  8
1
 62
7
 10
63.11178406184411
 20
167.257729463743
 30
0
 11
63.11178406184411
 21
223.257729463743
 31
0
  0
LINE
  8
1
 62
7
 10
63.61178406184411
 20
223.257729463743
 30
0
 11
63.61178406184365
 21
167.257729463743
 31
0
  0
LINE
  8
1
 62
7
 10
71.61178406184411
 20
223.257729463743
 30
0
 11
71.61178406184411
 21
111.257729463742
 31
0
  0
LINE
  8
1
 62
7
 10
72.11178406184411
 20
167.257729463743
 30
0
 11
72.11178406184411
 21
223.2577294637426
 31
0
  0
LINE
  8
1
 62
2
  6
DASHDOT
 10
67.61178406184399
 20
262.4309637086246
 30
0
 11
67.61178406184399
 21
38.47155276768851
 31
0
  0
LINE
  8
1
 62
7
 10
59.61178406184399
 20
96.37578535947898
 30
0
 11
59.61178406184399
 21
52.30304828584756
 31
0
  0
LINE
  8
1
 62
7
 10
75.61178406184399
 20
94.518188502719
 30
0
 11
75.61178406184399
 21
66.24470549807789
 31
0
  0
LINE
  8
1
 62
7
 10
73.76711555890699
 20
104.0698735523732
 30
0
 11
74.41158730510654
 21
105.483116141613
 31
0
  0
LINE
  8
1
 62
7
 10
74.49133921394218
 20
105.6258027027367
 30
0
 11
75.11733756130911
 21
106.5577294637429
 31
0
  0
LINE
  8
1
 62
7
 10
74.45049651457771
 20
105.5577294637429
 30
0
 11
73.24094918644289
 21
105.5577294637429
 31
0
  0
LINE
  8
1
 62
7
 10
61.98261893724521
 20
105.5577294637429
 30
0
 11
60.77307160911038
 21
105.5577294637429
 31
0
  0
LINE
  8
1
 62
7
 10
60.81198081858145
 20
105.483116141613
 30
0
 11
61.4564525647811
 21
104.0698735523732
 31
0
  0
LINE
  8
1
 62
7
 10
60.10623056237898
 20
106.5577294637429
 30
0
 11
60.73222890974581
 21
105.6258027027367
 31
0
  0
LINE
  8
1
 62
7
 10
75.11733756130911
 20
110.2577294637429
 30
0
 11
75.11733756130911
 21
106.5577294637429
 31
0
  0
LINE
  8
1
 62
7
 10
62.4386491624964
 20
103.2577294637431
 30
0
 11
72.78491896119169
 21
103.2577294637429
 31
0
  0
LINE
  8
1
 62
7
 10
73.24094918644289
 20
105.5577294637429
 30
0
 11
61.98261893724521
 21
105.5577294637429
 31
0
  0
LINE
  8
1
 62
7
 10
73.24094918644289
 20
111.2577294637429
 30
0
 11
61.98261893724521
 21
111.2577294637429
 31
0
  0
LINE
  8
1
 62
7
 10
71.36456081157655
 20
110.2577294637429
 30
0
 11
71.36456081157655
 21
106.5577294637429
 31
0
  0
LINE
  8
1
 62
7
 10
63.85900731211144
 20
110.2577294637429
 30
0
 11
63.85900731211144
 21
106.5577294637429
 31
0
  0
LINE
  8
1
 62
7
 10
60.10623056237898
 20
110.2577294637429
 30
0
 11
60.10623056237898
 21
106.5577294637429
 31
0
  0
LINE
  8
1
 62
2
  6
DASHED
 10
64.61178406184411
 20
103.257729463742
 30
0
 11
70.61178406184411
 21
103.257729463742
 31
0
  0
LINE
  8
1
 62
2
  6
DASHED
 10
71.61178406184411
 20
104.257729463742
 30
0
 11
70.61178406184411
 21
103.257729463742
 31
0
  0
LINE
  8
1
 62
2
  6
DASHED
 10
63.61178406184411
 20
104.257729463742
 30
0
 11
64.61178406184411
 21
103.257729463742
 31
0
  0
LINE
  8
1
 62
2
  6
DASHED
 10
71.61178406184411
 20
104.257729463742
 30
0
 11
63.61178406184411
 21
104.257729463742
 31
0
  0
LINE
  8
1
 62
2
  6
DASHED
 10
70.61178406184411
 20
103.257729463742
 30
0
 11
70.61178406184411
 21
111.257729463742
 31
0
  0
LINE
  8
1
 62
2
  6
DASHED
 10
63.61178406184411
 20
111.257729463742
 30
0
 11
63.61178406184411
 21
104.257729463742
 31
0
  0
LINE
  8
1
 62
2
  6
DASHED
 10
64.61178406184411
 20
111.257729463742
 30
0
 11
64.61178406184411
 21
103.257729463742
 31
0
  0
LINE
  8
1
 62
2
  6
DASHED
 10
71.61178406184411
 20
111.257729463742
 30
0
 11
71.61178406184411
 21
104.257729463742
 31
0
  0
LINE
  8
1
 62
7
 10
60.10623056237898
 20
99.25772946374184
 30
0
 11
75.11733756130911
 21
99.25772946374184
 31
0
  0
LINE
  8
1
 62
7
 10
75.61178406184399
 20
99.25772946374184
 30
0
 11
75.61178406184399
 21
94.518188502719
 31
0
  0
LINE
  8
1
 62
2
 10
63.83013979865201
 20
99.25772946374184
 30
0
 11
63.83013979865201
 21
103.257729463742
 31
0
  0
LINE
  8
1
 62
2
 10
71.3934283250361
 20
99.25772946374184
 30
0
 11
71.3934283250361
 21
103.257729463742
 31
0
  0
LINE
  8
1
 62
7
 10
75.11733756130911
 20
111.2577294637418
 30
0
 11
72.11178406184411
 21
111.2577294637418
 31
0
  0
LINE
  8
1
 62
2
 10
60.70466184456939
 20
99.25772946374184
 30
0
 11
60.70466184456939
 21
105.6668419257119
 31
0
  0
LINE
  8
1
 62
2
 10
63.1739734895425
 20
99.25772946374184
 30
0
 11
63.1739734895425
 21
103.257729463742
 31
0
  0
LINE
  8
1
 62
2
 10
72.04959463414548
 20
99.25772946374184
 30
0
 11
72.04959463414548
 21
103.2577294637418
 31
0
  0
LINE
  8
1
 62
7
 10
59.61178406184399
 20
99.25772946374184
 30
0
 11
60.10623056237898
 21
99.25772946374184
 31
0
  0
LINE
  8
1
 62
7
 10
75.11733756130911
 20
111.2577294637418
 30
0
 11
75.11733756130911
 21
100.5293758794036
 31
0
  0
LINE
  8
1
 62
7
 10
60.10623056237898
 20
111.257729463742
 30
0
 11
60.10623056237898
 21
99.25772946374184
 31
0
  0
LINE
  8
1
 62
2
 10
74.51890627911871
 20
105.6668419257118
 30
0
 11
74.51890627911871
 21
99.25772946374184
 31
0
  0
LINE
  8
1
 62
7
 10
60.10623056237898
 20
111.257729463742
 30
0
 11
63.11178406184387
 21
111.2577294637418
 31
0
  0
LINE
  8
1
 62
7
 10
75.11733756130911
 20
100.5293758794036
 30
0
 11
75.11733756130911
 21
99.25772946374184
 31
0
  0
LINE
  8
1
 62
7
 10
75.11733756130911
 20
99.25772946374184
 30
0
 11
75.61178406184399
 21
99.25772946374184
 31
0
  0
LINE
  8
1
 62
7
 10
59.61178406184399
 20
99.25772946374184
 30
0
 11
59.61178406184399
 21
96.37578535947898
 31
0
  0
LINE
  8
1
 62
7
 10
74.11178406184411
 20
230.257729463743
 30
0
 11
74.11178406184411
 21
223.257729463743
 31
0
  0
LINE
  8
1
 62
7
 10
74.11178406184411
 20
223.257729463743
 30
0
 11
71.61178406184411
 21
223.257729463743
 31
0
  0
LINE
  8
1
 62
7
 10
63.61178406184411
 20
223.257729463743
 30
0
 11
61.11178406184411
 21
223.257729463743
 31
0
  0
LINE
  8
1
 62
7
 10
61.11178406184411
 20
223.257729463743
 30
0
 11
61.11178406184411
 21
230.257729463743
 31
0
  0
LINE
  8
1
 62
7
 10
62.11178406184411
 20
231.257729463743
 30
0
 11
64.61178406184411
 21
231.257729463743
 31
0
  0
LINE
  8
1
 62
7
 10
71.61178406184411
 20
223.257729463743
 30
0
 11
63.61178406184411
 21
223.257729463743
 31
0
  0
LINE
  8
1
 62
2
  6
DASHED
 10
70.61178406184411
 20
231.257729463743
 30
0
 11
70.61178406184411
 21
226.757729463743
 31
0
  0
LINE
  8
1
 62
7
 10
70.61178406184411
 20
231.257729463743
 30
0
 11
73.11178406184411
 21
231.257729463743
 31
0
  0
LINE
  8
1
 62
2
  6
DASHED
 10
70.61178406184411
 20
226.757729463743
 30
0
 11
64.61178406184411
 21
226.757729463743
 31
0
  0
LINE
  8
1
 62
2
  6
DASHED
 10
64.61178406184411
 20
226.757729463743
 30
0
 11
64.61178406184411
 21
231.257729463743
 31
0
  0
LINE
  8
1
 62
7
 10
64.61178406184411
 20
231.257729463743
 30
0
 11
70.61178406184411
 21
231.257729463743
 31
0
  0
LINE
  8
1
 62
7
 10
72.11178406184411
 20
223.2577294637426
 30
0
 11
74.61178406184399
 21
223.257729463743
 31
0
  0
LINE
  8
1
 62
7
 10
63.11178406184411
 20
223.257729463743
 30
0
 11
60.61178406184399
 21
223.257729463743
 31
0
  0
LINE
  8
1
 62
7
 10
74.61178406184399
 20
223.257729463743
 30
0
 11
74.61178406184399
 21
224.4302850442923
 31
0
  0
LINE
  8
1
 62
7
 10
60.61178406184399
 20
223.257729463743
 30
0
 11
60.61178406184399
 21
233.6248297971822
 31
0
  0
LINE
  8
1
 62
2
 10
-139.827194907003
 20
69.43028504429231
 30
0
 11
-82.09948626793283
 21
69.43028504429231
 31
0
  0
LINE
  8
1
 62
2
  6
DASHED
 10
-50.38821593815601
 20
104.257729463742
 30
0
 11
-50.38821593815601
 21
223.257729463743
 31
0
  0
LINE
  8
1
 62
2
  6
DASHED
 10
-50.88821593815601
 20
223.2577294637426
 30
0
 11
-50.88821593815601
 21
110.7359524462073
 31
0
  0
LINE
  8
1
 62
2
  6
DASHED
 10
-54.38821593815601
 20
99.25772946374195
 30
0
 11
-54.38821593815601
 21
69.49393248347019
 31
0
  0
LINE
  8
1
 62
2
  6
DASHDOT
 10
-46.38821593815601
 20
264.8706165532057
 30
0
 11
-46.38821593815601
 21
35.91120561226957
 31
0
  0
LINE
  8
1
 62
2
  6
DASHED
 10
-40.23288444109301
 20
104.0698735523732
 30
0
 11
-39.58841269489329
 21
105.483116141613
 31
0
  0
LINE
  8
1
 62
2
  6
DASHED
 10
-39.5086607860577
 20
105.6258027027367
 30
0
 11
-38.882662438691
 21
106.5577294637429
 31
0
  0
LINE
  8
1
 62
2
  6
DASHED
 10
-39.54950348542241
 20
105.5577294637429
 30
0
 11
-40.75905081355711
 21
105.5577294637429
 31
0
  0
LINE
  8
1
 62
2
  6
DASHED
 10
-52.01738106275491
 20
105.5577294637429
 30
0
 11
-53.22692839088961
 21
105.5577294637429
 31
0
  0
LINE
  8
1
 62
2
  6
DASHED
 10
-53.18801918141844
 20
105.483116141613
 30
0
 11
-52.54354743521901
 21
104.0698735523732
 31
0
  0
LINE
  8
1
 62
2
  6
DASHED
 10
-53.89376943762102
 20
106.5577294637429
 30
0
 11
-53.26777109025431
 21
105.6258027027367
 31
0
  0
LINE
  8
1
 62
2
  6
DASHED
 10
-38.882662438691
 20
110.2577294637429
 30
0
 11
-38.882662438691
 21
106.5577294637429
 31
0
  0
LINE
  8
1
 62
2
  6
DASHED
 10
-51.56135083750371
 20
103.2577294637429
 30
0
 11
-41.21508103880831
 21
103.2577294637431
 31
0
  0
LINE
  8
1
 62
2
  6
DASHED
 10
-40.75905081355711
 20
105.5577294637429
 30
0
 11
-52.01738106275491
 21
105.5577294637429
 31
0
  0
LINE
  8
1
 62
2
  6
DASHED
 10
-40.75905081355711
 20
111.2577294637429
 30
0
 11
-52.01738106275491
 21
111.2577294637429
 31
0
  0
LINE
  8
1
 62
2
  6
DASHED
 10
-42.63543918842333
 20
110.2577294637429
 30
0
 11
-42.63543918842333
 21
106.5577294637429
 31
0
  0
LINE
  8
1
 62
2
  6
DASHED
 10
-50.14099268788874
 20
110.2577294637429
 30
0
 11
-50.14099268788874
 21
106.5577294637429
 31
0
  0
LINE
  8
1
 62
2
  6
DASHED
 10
-53.89376943762102
 20
110.2577294637429
 30
0
 11
-53.89376943762102
 21
106.5577294637429
 31
0
  0
LINE
  8
1
 62
2
  6
DASHED
 10
-49.38821593815601
 20
103.257729463742
 30
0
 11
-43.38821593815601
 21
103.257729463742
 31
0
  0
LINE
  8
1
 62
2
  6
DASHED
 10
-42.38821593815601
 20
104.257729463742
 30
0
 11
-43.38821593815601
 21
103.257729463742
 31
0
  0
LINE
  8
1
 62
2
  6
DASHED
 10
-50.38821593815601
 20
104.257729463742
 30
0
 11
-49.38821593815601
 21
103.257729463742
 31
0
  0
LINE
  8
1
 62
2
  6
DASHED
 10
-42.38821593815601
 20
104.257729463742
 30
0
 11
-50.38821593815601
 21
104.257729463742
 31
0
  0
LINE
  8
1
 62
2
  6
DASHED
 10
-43.38821593815601
 20
103.257729463742
 30
0
 11
-43.38821593815601
 21
135.257729463742
 31
0
  0
LINE
  8
1
 62
2
  6
DASHED
 10
-42.38821593815601
 20
135.257729463742
 30
0
 11
-43.38821593815601
 21
135.257729463742
 31
0
  0
LINE
  8
1
 62
2
  6
DASHED
 10
-43.38821593815601
 20
135.257729463742
 30
0
 11
-42.38821593815601
 21
135.8350797329319
 31
0
  0
LINE
  8
1
 62
2
  6
DASHED
 10
-43.38821593815601
 20
135.257729463742
 30
0
 11
-50.38821593815601
 21
135.257729463742
 31
0
  0
LINE
  8
1
 62
2
  6
DASHED
 10
-38.882662438691
 20
99.25772946374184
 30
0
 11
-38.38821593815601
 21
99.25772946374184
 31
0
  0
LINE
  8
1
 62
2
  6
DASHED
 10
-38.882662438691
 20
99.25772946374184
 30
0
 11
-54.38821593815601
 21
99.25772946374195
 31
0
  0
LINE
  8
1
 62
2
  6
DASHED
 10
-41.88821593815601
 20
111.257729463742
 30
0
 11
-38.88266243869111
 21
111.257729463742
 31
0
  0
LINE
  8
1
 62
2
  6
DASHED
 10
-50.88821593815601
 20
111.257729463742
 30
0
 11
-53.89376943762113
 21
111.2577294637418
 31
0
  0
LINE
  8
1
 62
2
  6
DASHED
 10
-53.89376943762113
 20
111.2577294637418
 30
0
 11
-53.89376943762113
 21
99.25772946374195
 31
0
  0
LINE
  8
1
 62
2
  6
DASHED
 10
-38.882662438691
 20
99.25772946374184
 30
0
 11
-38.88266243869111
 21
111.257729463742
 31
0
  0
LINE
  8
1
 62
2
  6
DASHED
 10
-39.4810937208814
 20
105.6668419257119
 30
0
 11
-39.4810937208814
 21
99.25772946374184
 31
0
  0
LINE
  8
1
 62
2
  6
DASHED
 10
-41.95040536585441
 20
103.257729463742
 30
0
 11
-41.95040536585441
 21
99.25772946374184
 31
0
  0
LINE
  8
1
 62
2
  6
DASHED
 10
-42.60657167496402
 20
103.257729463742
 30
0
 11
-42.60657167496402
 21
99.25772946374195
 31
0
  0
LINE
  8
1
 62
2
  6
DASHED
 10
-50.16986020134811
 20
103.257729463742
 30
0
 11
-50.16986020134811
 21
99.25772946374195
 31
0
  0
LINE
  8
1
 62
2
  6
DASHED
 10
-50.82602651045761
 20
103.257729463742
 30
0
 11
-50.82602651045761
 21
99.25772946374195
 31
0
  0
LINE
  8
1
 62
2
  6
DASHED
 10
-53.29533815543061
 20
105.6668419257118
 30
0
 11
-53.29533815543061
 21
99.25772946374195
 31
0
  0
LINE
  8
1
 62
2
  6
DASHED
 10
-49.38821593815601
 20
103.257729463742
 30
0
 11
-49.38821593815601
 21
135.257729463742
 31
0
  0
LINE
  8
1
 62
7
 10
-48.4882159381558
 20
167.2577294637404
 30
0
 11
-49.86993943882283
 21
167.2577294637404
 31
0
  0
LINE
  8
1
 62
7
 10
-48.38821593815601
 20
167.2577294637404
 30
0
 11
-48.4882159381558
 21
167.2577294637404
 31
0
  0
LINE
  8
1
 62
7
 10
-44.38821593815601
 20
167.2577294637404
 30
0
 11
-48.38821593815601
 21
167.2577294637404
 31
0
  0
LINE
  8
1
 62
7
 10
-44.28821593815621
 20
167.2577294637404
 30
0
 11
-44.38821593815601
 21
167.2577294637404
 31
0
  0
LINE
  8
1
 62
7
 10
-43.08008009976481
 20
167.2577294637404
 30
0
 11
-44.28821593815621
 21
167.2577294637404
 31
0
  0
LINE
  8
1
 62
7
 10
-44.88821593815601
 20
159.2577294637404
 30
0
 11
-44.38821593815601
 21
159.2577294637404
 31
0
  0
LINE
  8
1
 62
7
 10
-48.38821593815589
 20
159.2577294637404
 30
0
 11
-47.88821593815601
 21
159.2577294637404
 31
0
  0
LINE
  8
1
 62
2
 10
-45.18821593815625
 20
163.2577294637404
 30
0
 11
-45.18821593815625
 21
160.2577294637404
 31
0
  0
LINE
  8
1
 62
2
 10
-45.98821593815603
 20
163.2577294637404
 30
0
 11
-45.98821593815603
 21
160.2577294637404
 31
0
  0
LINE
  8
1
 62
2
 10
-46.78821593815621
 20
163.2577294637404
 30
0
 11
-46.78821593815621
 21
160.2577294637404
 31
0
  0
LINE
  8
1
 62
7
 10
-48.38821593815663
 20
159.7577294637404
 30
0
 11
-44.38821593815663
 21
159.7577294637404
 31
0
  0
LINE
  8
1
 62
7
 10
-47.88821593815601
 20
159.2577294637404
 30
0
 11
-44.88821593815601
 21
159.2577294637404
 31
0
  0
LINE
  8
1
 62
7
 10
-48.38821593815663
 20
159.7577294637404
 30
0
 11
-47.88821593815601
 21
159.2577294637404
 31
0
  0
LINE
  8
1
 62
7
 10
-44.38821593815663
 20
159.7577294637404
 30
0
 11
-44.88821593815601
 21
159.2577294637404
 31
0
  0
LINE
  8
1
 62
2
 10
-48.38821593815601
 20
160.2577294637404
 30
0
 11
-44.38821593815601
 21
160.2577294637404
 31
0
  0
LINE
  8
1
 62
2
 10
-47.588215938156
 20
163.2577294637404
 30
0
 11
-47.588215938156
 21
160.2577294637404
 31
0
  0
LINE
  8
1
 62
2
 10
-48.38821593815612
 20
163.2577294637404
 30
0
 11
-44.38821593815612
 21
163.2577294637404
 31
0
  0
LINE
  8
1
 62
7
 10
-44.38821593815601
 20
159.2577294637404
 30
0
 11
-44.38821593815601
 21
167.2577294637404
 31
0
  0
LINE
  8
1
 62
7
 10
-48.38821593815589
 20
159.2577294637404
 30
0
 11
-48.38821593815601
 21
167.2577294637404
 31
0
  0
LINE
  8
1
 62
7
 10
-48.38821593815601
 20
167.2577294637404
 30
0
 11
-48.38821593815612
 21
173.2577294637404
 31
0
  0
LINE
  8
1
 62
7
 10
-44.38821593815612
 20
173.2577294637404
 30
0
 11
-44.38821593815601
 21
167.2577294637404
 31
0
  0
LINE
  8
1
 62
7
 10
-48.38821593815612
 20
173.2577294637404
 30
0
 11
-44.38821593815612
 21
173.2577294637404
 31
0
  0
LINE
  8
1
 62
7
 10
-45.3882159381568
 20
174.2577294637404
 30
0
 11
-44.38821593815612
 21
173.2577294637404
 31
0
  0
LINE
  8
1
 62
7
 10
-47.38821593815589
 20
174.2577294637404
 30
0
 11
-45.3882159381568
 21
174.2577294637404
 31
0
  0
LINE
  8
1
 62
7
 10
-48.38821593815612
 20
173.2577294637404
 30
0
 11
-47.38821593815589
 21
174.2577294637404
 31
0
  0
LINE
  8
1
 62
7
 10
-44.28821593815621
 20
175.2577294637404
 30
0
 11
-44.28821593815621
 21
167.2577294637404
 31
0
  0
LINE
  8
1
 62
7
 10
-48.48821593815603
 20
175.2577294637404
 30
0
 11
-48.4882159381558
 21
167.2577294637404
 31
0
  0
LINE
  8
1
 62
7
 10
-48.48821593815603
 20
175.2577294637404
 30
0
 11
-44.28821593815621
 21
175.2577294637404
 31
0
  0
LINE
  8
1
 62
2
  6
DASHED
 10
-41.88821593815601
 20
223.2577294637426
 30
0
 11
-41.88821593815601
 21
110.7359524462073
 31
0
  0
LINE
  8
1
 62
2
  6
DASHED
 10
-42.38821593815601
 20
223.257729463743
 30
0
 11
-42.38821593815601
 21
104.257729463742
 31
0
  0
LINE
  8
1
 62
2
  6
DASHED
 10
-39.88821593815624
 20
230.257729463743
 30
0
 11
-39.88821593815624
 21
223.257729463743
 31
0
  0
LINE
  8
1
 62
2
  6
DASHED
 10
-39.88821593815624
 20
223.257729463743
 30
0
 11
-42.38821593815601
 21
223.257729463743
 31
0
  0
LINE
  8
1
 62
2
  6
DASHED
 10
-50.38821593815601
 20
223.257729463743
 30
0
 11
-52.88821593815601
 21
223.257729463743
 31
0
  0
LINE
  8
1
 62
2
  6
DASHED
 10
-52.88821593815601
 20
223.257729463743
 30
0
 11
-52.88821593815601
 21
230.257729463743
 31
0
  0
LINE
  8
1
 62
2
  6
DASHED
 10
-51.88821593815601
 20
231.257729463743
 30
0
 11
-49.38821593815601
 21
231.257729463743
 31
0
  0
LINE
  8
1
 62
2
  6
DASHED
 10
-42.38821593815601
 20
223.257729463743
 30
0
 11
-50.38821593815601
 21
223.257729463743
 31
0
  0
LINE
  8
1
 62
2
  6
DASHED
 10
-43.38821593815601
 20
231.257729463743
 30
0
 11
-43.38821593815601
 21
226.757729463743
 31
0
  0
LINE
  8
1
 62
2
  6
DASHED
 10
-43.38821593815601
 20
231.257729463743
 30
0
 11
-40.88821593815601
 21
231.257729463743
 31
0
  0
LINE
  8
1
 62
2
  6
DASHED
 10
-43.38821593815601
 20
226.757729463743
 30
0
 11
-49.38821593815601
 21
226.757729463743
 31
0
  0
LINE
  8
1
 62
2
  6
DASHED
 10
-49.38821593815601
 20
226.757729463743
 30
0
 11
-49.38821593815601
 21
231.257729463743
 31
0
  0
LINE
  8
1
 62
2
  6
DASHED
 10
-49.38821593815601
 20
231.257729463743
 30
0
 11
-43.38821593815601
 21
231.257729463743
 31
0
  0
LINE
  8
1
 62
2
  6
DASHED
 10
-41.88821593815601
 20
223.2577294637426
 30
0
 11
-39.38821593815601
 21
223.2577294637429
 31
0
  0
LINE
  8
1
 62
2
  6
DASHED
 10
-50.88821593815601
 20
223.2577294637426
 30
0
 11
-53.38821593815601
 21
223.257729463743
 31
0
  0
LINE
  8
0
 62
7
 10
329.798062872644
 20
292.637731136543
 30
0
 11
353.863782477244
 21
292.637731136543
 31
0
  0
LINE
  8
0
 62
7
 10
293.863782477244
 20
292.637731136543
 30
0
 11
317.929502081644
 21
292.637731136543
 31
0
  0
LINE
  8
0
 62
7
 10
320.8637781686439
 20
283.503469125743
 30
0
 11
326.863779389444
 21
283.503469125743
 31
0
  0
LINE
  8
0
 62
7
 10
319.8637867136439
 20
57.27507312954296
 30
0
 11
317.929521576844
 21
55.98457447234296
 31
0
  0
LINE
  8
0
 62
7
 10
319.8637867136439
 20
290.7034495943429
 30
0
 11
317.929521576844
 21
292.637714731143
 31
0
  0
LINE
  8
0
 62
7
 10
319.8637867136439
 20
44.64808362574303
 30
0
 11
317.9295215768441
 21
42.82360181434299
 31
0
  0
LINE
  8
0
 62
7
 10
317.929521576844
 20
41.877727790943
 30
0
 11
319.8637867136439
 21
43.81459119414299
 31
0
  0
LINE
  8
0
 62
7
 10
319.8637867136439
 20
88.77874073214295
 30
0
 11
317.929521576844
 21
88.21869617634295
 31
0
  0
LINE
  8
0
 62
7
 10
317.929521576844
 20
49.20102527794296
 30
0
 11
319.8637867136439
 21
51.29738025854297
 31
0
  0
LINE
  8
0
 62
7
 10
317.929521576844
 20
76.63019092734297
 30
0
 11
319.8637867136439
 21
78.56692310514296
 31
0
  0
LINE
  8
0
 62
7
 10
317.929521576844
 20
117.6808873385429
 30
0
 11
319.8637867136439
 21
119.1631065767429
 31
0
  0
LINE
  8
0
 62
7
 10
353.863782477244
 20
41.87771955374298
 30
0
 11
353.8637586374439
 21
292.637714731143
 31
0
  0
LINE
  8
0
 62
7
 10
317.929521576844
 20
166.103443490943
 30
0
 11
319.8637867136439
 21
166.9055205173429
 31
0
  0
LINE
  8
0
 62
7
 10
327.863782477244
 20
43.81458767154299
 30
0
 11
327.8637762223685
 21
167.257729463743
 31
0
  0
LINE
  8
0
 62
7
 10
327.863770844444
 20
284.5034605807429
 30
0
 11
327.863770844444
 21
290.7034495943429
 31
0
  0
LINE
  8
0
 62
7
 10
329.798088471444
 20
166.103443490943
 30
0
 11
327.863770844444
 21
166.9055205173429
 31
0
  0
LINE
  8
0
 62
7
 10
317.929521576844
 20
166.103443490943
 30
0
 11
293.863798920644
 21
166.103443490943
 31
0
  0
LINE
  8
0
 62
7
 10
353.8637586374439
 20
166.103443490943
 30
0
 11
329.798088471444
 21
166.103443490943
 31
0
  0
LINE
  8
DEFAULT_1
 62
2
  6
CENTER
 10
323.863782477244
 20
41.90215342394302
 30
0
 11
323.863782477244
 21
292.352002916543
 31
0
  0
LINE
  8
0
 62
7
 10
319.8637867136439
 20
284.5034605807429
 30
0
 11
319.8637867136439
 21
290.7034495943429
 31
0
  0
LINE
  8
0
 62
7
 10
319.863782477244
 20
43.81458767154299
 30
0
 11
319.8637847433185
 21
167.257729463743
 31
0
  0
LINE
  8
0
 62
7
 10
293.863782477244
 20
41.87771955374298
 30
0
 11
293.863798920644
 21
292.637714731143
 31
0
  0
LINE
  8
0
 62
7
 10
329.798088471444
 20
117.6808873385429
 30
0
 11
327.863770844444
 21
119.1631065767429
 31
0
  0
LINE
  8
0
 62
7
 10
319.8637867136439
 20
132.0543931979429
 30
0
 11
317.929521576844
 21
132.310046884343
 31
0
  0
LINE
  8
0
 62
7
 10
317.929521576844
 20
132.310046884343
 30
0
 11
293.863798920644
 21
132.310046884343
 31
0
  0
LINE
  8
0
 62
7
 10
353.8637586374439
 20
132.310046884343
 30
0
 11
329.798088471444
 21
132.310046884343
 31
0
  0
LINE
  8
0
 62
7
 10
319.8637867136439
 20
131.9289677829429
 30
0
 11
293.863798920644
 21
131.9289677829429
 31
0
  0
LINE
  8
0
 62
7
 10
353.8637586374439
 20
131.9289677829429
 30
0
 11
327.863770844444
 21
131.9289677829429
 31
0
  0
LINE
  8
0
 62
7
 10
319.8637867136439
 20
127.926666147143
 30
0
 11
293.863798920644
 21
127.926666147143
 31
0
  0
LINE
  8
0
 62
7
 10
353.8637586374439
 20
127.926666147143
 30
0
 11
327.863770844444
 21
127.926666147143
 31
0
  0
LINE
  8
0
 62
7
 10
327.863770844444
 20
132.0543931979429
 30
0
 11
329.798088471444
 21
132.310046884343
 31
0
  0
LINE
  8
0
 62
7
 10
319.8637867136439
 20
126.086201059143
 30
0
 11
293.863798920644
 21
126.086201059143
 31
0
  0
LINE
  8
0
 62
7
 10
353.8637586374439
 20
126.086201059143
 30
0
 11
327.863770844444
 21
126.086201059143
 31
0
  0
LINE
  8
0
 62
7
 10
319.8637867136439
 20
119.890280038743
 30
0
 11
293.863798920644
 21
119.890280038743
 31
0
  0
LINE
  8
0
 62
7
 10
353.8637586374439
 20
119.890280038743
 30
0
 11
327.863770844444
 21
119.890280038743
 31
0
  0
LINE
  8
0
 62
7
 10
317.929521576844
 20
117.6808873385429
 30
0
 11
293.863798920644
 21
117.6808873385429
 31
0
  0
LINE
  8
0
 62
7
 10
353.8637586374439
 20
117.6808873385429
 30
0
 11
329.798088471444
 21
117.6808873385429
 31
0
  0
LINE
  8
0
 62
7
 10
329.798088471444
 20
76.63019092734297
 30
0
 11
327.863770844444
 21
78.56692310514296
 31
0
  0
LINE
  8
0
 62
7
 10
329.798088471444
 20
49.20102527794296
 30
0
 11
327.863770844444
 21
51.29738025854297
 31
0
  0
LINE
  8
0
 62
7
 10
327.863770844444
 20
88.77874073214295
 30
0
 11
329.798088471444
 21
88.21869617634295
 31
0
  0
LINE
  8
0
 62
7
 10
329.798088471444
 20
41.877727790943
 30
0
 11
327.863770844444
 21
43.81459119414299
 31
0
  0
LINE
  8
0
 62
7
 10
317.929521576844
 20
88.21869617634295
 30
0
 11
293.863798920644
 21
88.21869617634295
 31
0
  0
LINE
  8
0
 62
7
 10
353.8637586374439
 20
88.21869617634295
 30
0
 11
329.798088471444
 21
88.21869617634295
 31
0
  0
LINE
  8
0
 62
7
 10
319.8637867136439
 20
87.24689197714295
 30
0
 11
293.863798920644
 21
87.24689197714295
 31
0
  0
LINE
  8
0
 62
7
 10
353.8637586374439
 20
87.24689197714295
 30
0
 11
327.863770844444
 21
87.24689197714295
 31
0
  0
LINE
  8
0
 62
7
 10
319.8637867136439
 20
85.78897571754297
 30
0
 11
293.863798920644
 21
85.78897571754297
 31
0
  0
LINE
  8
0
 62
7
 10
353.8637586374439
 20
85.78897571754297
 30
0
 11
327.863770844444
 21
85.78897571754297
 31
0
  0
LINE
  8
0
 62
7
 10
329.798088471444
 20
292.637714731143
 30
0
 11
327.863770844444
 21
290.7034495943429
 31
0
  0
LINE
  8
0
 62
7
 10
327.863770844444
 20
44.64808362574303
 30
0
 11
329.798088471444
 21
42.82360181434299
 31
0
  0
LINE
  8
0
 62
7
 10
327.863770844444
 20
57.27507312954296
 30
0
 11
329.798088471444
 21
55.98457447234296
 31
0
  0
LINE
  8
0
 62
7
 10
319.8637867136439
 20
79.51707508274296
 30
0
 11
293.863798920644
 21
79.51707508274296
 31
0
  0
LINE
  8
0
 62
7
 10
353.8637586374439
 20
79.51707508274296
 30
0
 11
327.863770844444
 21
79.51707508274296
 31
0
  0
LINE
  8
0
 62
7
 10
317.929521576844
 20
76.63019092734297
 30
0
 11
293.863798920644
 21
76.63019092734297
 31
0
  0
LINE
  8
0
 62
7
 10
353.8637586374439
 20
76.63019092734297
 30
0
 11
329.798088471444
 21
76.63019092734297
 31
0
  0
LINE
  8
0
 62
7
 10
317.929521576844
 20
55.98457447234296
 30
0
 11
293.863798920644
 21
55.98457447234296
 31
0
  0
LINE
  8
0
 62
7
 10
353.8637586374439
 20
55.98457447234296
 30
0
 11
329.798088471444
 21
55.98457447234296
 31
0
  0
LINE
  8
0
 62
7
 10
319.8637867136439
 20
52.32584766574297
 30
0
 11
293.863798920644
 21
52.32584766574297
 31
0
  0
LINE
  8
0
 62
7
 10
353.8637586374439
 20
52.32584766574297
 30
0
 11
327.863770844444
 21
52.32584766574297
 31
0
  0
LINE
  8
0
 62
7
 10
317.929521576844
 20
49.20102527794296
 30
0
 11
293.863798920644
 21
49.20102527794296
 31
0
  0
LINE
  8
0
 62
7
 10
353.8637586374439
 20
49.20102527794296
 30
0
 11
329.798088471444
 21
49.20102527794296
 31
0
  0
LINE
  8
0
 62
7
 10
326.863779389444
 20
48.70344410114296
 30
0
 11
320.8637781686439
 21
48.70344410114296
 31
0
  0
LINE
  8
0
 62
7
 10
317.9295215768441
 20
42.82360181434299
 30
0
 11
293.863798920644
 21
42.82360181434299
 31
0
  0
LINE
  8
0
 62
7
 10
353.8637586374439
 20
42.82360181434299
 30
0
 11
329.798088471444
 21
42.82360181434299
 31
0
  0
LINE
  8
0
 62
7
 10
317.929521576844
 20
41.877727790943
 30
0
 11
293.863798920644
 21
41.877727790943
 31
0
  0
LINE
  8
0
 62
7
 10
353.8637586374439
 20
41.877727790943
 30
0
 11
329.798088471444
 21
41.877727790943
 31
0
  0
LINE
  8
0
 62
7
 10
376.930255035344
 20
-95.001238352157
 30
0
 11
377.660331427844
 21
-97.19606384485699
 31
0
  0
LINE
  8
0
 62
7
 10
377.660331427844
 20
-97.19606384485699
 30
0
 11
378.008777955444
 21
-102.876128720157
 31
0
  0
LINE
  8
0
 62
7
 10
371.643918418744
 20
-117.023527475157
 30
0
 11
365.463871054144
 21
-121.653537139257
 31
0
  0
LINE
  8
0
 62
7
 10
376.022862707744
 20
-110.440133327757
 30
0
 11
371.643918418744
 21
-117.023527475157
 31
0
  0
LINE
  8
0
 62
7
 10
378.008777955444
 20
-102.876128720157
 30
0
 11
376.022862707744
 21
-110.440133327757
 31
0
  0
LINE
  8
0
 62
7
 10
370.245473420444
 20
-95.001245910157
 30
0
 11
368.654284455644
 21
-101.044945250957
 31
0
  0
LINE
  8
0
 62
7
 10
376.930255035344
 20
-95.001238352157
 30
0
 11
370.245460635844
 21
-95.001238352157
 31
0
  0
LINE
  8
DEFAULT_1
 62
2
  6
CENTER
 10
362.424733369444
 20
-97.98973190945699
 30
0
 11
365.049933369444
 21
-97.98973190945699
 31
0
  0
LINE
  8
DEFAULT_1
 62
2
  6
CENTER
 10
351.674733369444
 20
-97.98973190945699
 30
0
 11
349.0495333694439
 21
-97.98973190945699
 31
0
  0
LINE
  8
0
 62
2
 10
358.124733369444
 20
-97.98973190945699
 30
0
 11
355.974733369444
 21
-97.98973190945699
 31
0
  0
LINE
  8
DEFAULT_1
 62
2
  6
CENTER
 10
358.606625212244
 20
-98.74920084195699
 30
0
 11
361.231825212244
 21
-98.74920084195699
 31
0
  0
LINE
  8
DEFAULT_1
 62
2
  6
CENTER
 10
347.856625212244
 20
-98.74920084195699
 30
0
 11
345.2314252122439
 21
-98.74920084195699
 31
0
  0
LINE
  8
0
 62
2
 10
354.306625212244
 20
-98.74920084195699
 30
0
 11
352.156625212244
 21
-98.74920084195699
 31
0
  0
LINE
  8
DEFAULT_1
 62
2
  6
CENTER
 10
357.049733369444
 20
-92.61473190945699
 30
0
 11
357.049733369444
 21
-89.989531909457
 31
0
  0
LINE
  8
DEFAULT_1
 62
2
  6
CENTER
 10
357.049733369444
 20
-103.364731909457
 30
0
 11
357.049733369444
 21
-105.989931909457
 31
0
  0
LINE
  8
0
 62
2
 10
357.049733369444
 20
-96.91473190945699
 30
0
 11
357.049733369444
 21
-99.064731909457
 31
0
  0
LINE
  8
DEFAULT_1
 62
2
  6
CENTER
 10
353.231625212244
 20
-93.37420084195699
 30
0
 11
353.231625212244
 21
-90.74900084195694
 31
0
  0
LINE
  8
DEFAULT_1
 62
2
  6
CENTER
 10
353.231625212244
 20
-104.124200841957
 30
0
 11
353.231625212244
 21
-106.749400841957
 31
0
  0
LINE
  8
0
 62
2
 10
353.231625212244
 20
-97.674200841957
 30
0
 11
353.231625212244
 21
-99.82420084195699
 31
0
  0
LINE
  8
0
 62
7
 10
339.896717197144
 20
-101.037981516257
 30
0
 11
329.0395850784439
 21
-105.535161248457
 31
0
  0
LINE
  8
0
 62
7
 10
343.679588410644
 20
-106.012726012657
 30
0
 11
339.896722199744
 21
-101.037990294957
 31
0
  0
LINE
  8
0
 62
7
 10
359.390807893144
 20
-109.759164000957
 30
0
 11
355.572720734944
 21
-110.518618957057
 31
0
  0
LINE
  8
0
 62
7
 10
337.018094895844
 20
-116.459785874357
 30
0
 11
332.307257201444
 21
-111.479483934357
 31
0
  0
LINE
  8
0
 62
7
 10
345.920648485144
 20
-121.652559998557
 30
0
 11
337.018094895844
 21
-116.459785874357
 31
0
  0
LINE
  8
0
 62
7
 10
355.9149603457439
 20
-123.651048570257
 30
0
 11
345.920648485144
 21
-121.652559998557
 31
0
  0
LINE
  8
0
 62
7
 10
329.059791670244
 20
-105.619874463357
 30
0
 11
329.0395850784439
 21
-105.535161248457
 31
0
  0
LINE
  8
0
 62
7
 10
332.307257201444
 20
-111.479483934357
 30
0
 11
329.059791670244
 21
-105.619874463357
 31
0
  0
LINE
  8
0
 62
7
 10
365.463871054144
 20
-121.653537139257
 30
0
 11
355.9149603457439
 21
-123.651048570257
 31
0
  0
LINE
  8
0
 62
2
 10
-63.57746057175601
 20
340.6943895715431
 30
0
 11
-73.57746057175601
 21
340.6943895715431
 31
0
  0
LINE
  8
0
 62
7
 10
132.973415611644
 20
199.484352505743
 30
0
 11
119.922187175444
 21
230.992805202143
 31
0
  0
LINE
  8
0
 62
7
 10
111.326596296244
 20
243.857016045343
 30
0
 11
87.21107064344398
 21
267.972541698343
 31
0
  0
LINE
  8
0
 62
7
 10
42.83840710364399
 20
44.89609791394301
 30
0
 11
74.346859800044
 21
57.94732635014299
 31
0
  0
LINE
  8
0
 62
7
 10
76.53724740084397
 20
66.84153821134299
 30
0
 11
78.15566530164398
 21
67.92293047994301
 31
0
  0
LINE
  8
0
 62
7
 10
87.21107064344398
 20
66.542917229343
 30
0
 11
111.326596296244
 21
90.65844288214302
 31
0
  0
LINE
  8
0
 62
7
 10
109.946583045644
 20
99.71384822394302
 30
0
 11
111.027975314244
 21
101.332266124543
 31
0
  0
LINE
  8
0
 62
7
 10
119.922187175444
 20
103.522653725543
 30
0
 11
132.973415611644
 21
135.031106421943
 31
0
  0
LINE
  8
0
 62
7
 10
128.233096017244
 20
142.869101868343
 30
0
 11
128.612830483444
 21
144.778155946943
 31
0
  0
LINE
  8
0
 62
7
 10
135.991785734644
 20
150.205477742743
 30
0
 11
135.991785734644
 21
184.309981184743
 31
0
  0
LINE
  8
0
 62
7
 10
128.612830483444
 20
189.737302980743
 30
0
 11
128.233096017244
 21
191.646357059343
 31
0
  0
LINE
  8
0
 62
7
 10
111.027975314244
 20
233.183192802943
 30
0
 11
109.946583045644
 21
234.801610703743
 31
0
  0
LINE
  8
0
 62
7
 10
78.15566530164398
 20
266.592528447743
 30
0
 11
76.53724740084397
 21
267.673920716143
 31
0
  0
LINE
  8
0
 62
7
 10
74.346859800044
 20
276.568132577343
 30
0
 11
42.83840710364399
 21
289.6193610137429
 31
0
  0
LINE
  8
0
 62
7
 10
35.000411657244
 20
284.879041419343
 30
0
 11
33.09135757864397
 21
285.2587758855429
 31
0
  0
LINE
  8
0
 62
7
 10
27.66403578264399
 20
292.637731136543
 30
0
 11
-6.440467659156013
 21
292.637731136543
 31
0
  0
LINE
  8
0
 62
7
 10
-11.86778945515601
 20
285.2587758855429
 30
0
 11
-13.77684353375602
 21
284.879041419343
 31
0
  0
LINE
  8
0
 62
7
 10
74.346859800044
 20
57.94732635014299
 30
0
 11
73.92547341464399
 21
61.04361495594299
 31
0
  0
LINE
  8
0
 62
7
 10
28.45962387724398
 20
289.6158758787431
 30
0
 11
27.66403578264399
 21
292.637731136543
 31
0
  0
LINE
  8
0
 62
2
 10
-22.85988209895601
 20
300.129493732943
 30
0
 11
-63.57746057175601
 21
340.6943895715431
 31
0
  0
LINE
  8
0
 62
7
 10
-65.98750251995602
 20
66.542917229343
 30
0
 11
-63.28816243855601
 21
68.117125837343
 31
0
  0
LINE
  8
0
 62
7
 10
130.486043771444
 20
197.592911006543
 30
0
 11
132.973415611644
 21
199.484352505743
 31
0
  0
LINE
  8
0
 62
7
 10
-21.61483898015601
 20
44.89609791394301
 30
0
 11
-19.72339748115601
 21
47.38346975414299
 31
0
  0
LINE
  8
0
 62
7
 10
109.752387688244
 20
241.157675964143
 30
0
 11
111.326596296244
 21
243.857016045343
 31
0
  0
LINE
  8
0
 62
7
 10
27.66403578264399
 20
41.877727790943
 30
0
 11
28.45962387724398
 21
44.89958304894299
 31
0
  0
LINE
  8
0
 62
7
 10
73.92547341464399
 20
273.4718439717429
 30
0
 11
74.346859800044
 21
276.568132577343
 31
0
  0
LINE
  8
0
 62
7
 10
111.326596296244
 20
90.65844288214302
 30
0
 11
109.752387688244
 21
93.35778296354297
 31
0
  0
LINE
  8
0
 62
7
 10
-19.72339748115601
 20
287.131989173543
 30
0
 11
-21.61483898015601
 21
289.6193610137429
 31
0
  0
LINE
  8
0
 62
7
 10
132.973415611644
 20
135.031106421943
 30
0
 11
130.486043771444
 21
136.922547920943
 31
0
  0
LINE
  8
0
 62
7
 10
-63.28816243855601
 20
266.398333090343
 30
0
 11
-65.98750251995602
 21
267.972541698343
 31
0
  0
LINE
  8
0
 62
7
 10
135.991785734644
 20
184.309981184743
 30
0
 11
132.969930476644
 21
185.105569279343
 31
0
  0
LINE
  8
0
 62
7
 10
-95.602330446156
 20
230.571418816743
 30
0
 11
-98.69861905175601
 21
230.992805202143
 31
0
  0
LINE
  8
0
 62
7
 10
119.922187175444
 20
230.992805202143
 30
0
 11
116.825898569644
 21
230.571418816743
 31
0
  0
LINE
  8
0
 62
7
 10
-111.746362353156
 20
185.105569279343
 30
0
 11
-114.768217611156
 21
184.309981184743
 31
0
  0
LINE
  8
DEFAULT_1
 62
2
  6
CENTER
 10
10.61178406184399
 20
132.507729463743
 30
0
 11
10.61178406184399
 21
198.783202635701
 31
0
  0
LINE
  8
0
 62
2
 10
10.61178406184399
 20
169.407729463743
 30
0
 11
10.61178406184399
 21
165.107729463743
 31
0
  0
LINE
  8
DEFAULT_1
 62
2
  6
CENTER
 10
26.61188406184399
 20
167.257729463743
 30
0
 11
-119.277227483956
 21
167.257729463743
 31
0
  0
LINE
  8
0
 62
2
 10
12.761784061844
 20
167.257729463743
 30
0
 11
8.461784061843986
 21
167.257729463743
 31
0
  0
LINE
  8
0
 62
7
 10
-53.12329167655602
 20
276.568132577343
 30
0
 11
-52.70190529115601
 21
273.4718439717429
 31
0
  0
LINE
  8
0
 62
7
 10
-7.236055753756006
 20
44.89958304894299
 30
0
 11
-6.440467659156013
 21
41.877727790943
 31
0
  0
LINE
  8
0
 62
7
 10
-90.10302817275601
 20
243.857016045343
 30
0
 11
-88.52881956475602
 21
241.157675964143
 31
0
  0
LINE
  8
0
 62
7
 10
40.94696560464399
 20
47.38346975414299
 30
0
 11
42.83840710364399
 21
44.89609791394301
 31
0
  0
LINE
  8
0
 62
7
 10
87.21107064344398
 20
267.972541698343
 30
0
 11
84.51173056204397
 21
266.398333090343
 31
0
  0
LINE
  8
0
 62
7
 10
-109.262475647956
 20
136.922547920943
 30
0
 11
-111.749847488156
 21
135.031106421943
 31
0
  0
LINE
  8
0
 62
7
 10
42.83840710364399
 20
289.6193610137429
 30
0
 11
40.94696560464399
 21
287.131989173543
 31
0
  0
LINE
  8
0
 62
7
 10
-88.52881956475602
 20
93.35778296354297
 30
0
 11
-90.10302817275601
 21
90.65844288214302
 31
0
  0
LINE
  8
0
 62
7
 10
-6.440467659156013
 20
292.637731136543
 30
0
 11
-7.236055753756006
 21
289.6158758787431
 31
0
  0
LINE
  8
0
 62
7
 10
-52.70190529115601
 20
61.04361495594299
 30
0
 11
-53.12329167655602
 21
57.94732635014299
 31
0
  0
LINE
  8
0
 62
7
 10
-111.749847488156
 20
199.484352505743
 30
0
 11
-109.262475647956
 21
197.592911006543
 31
0
  0
LINE
  8
0
 62
7
 10
84.51173056204397
 20
68.117125837343
 30
0
 11
87.21107064344398
 21
66.542917229343
 31
0
  0
LINE
  8
0
 62
7
 10
-114.768217611156
 20
150.205477742743
 30
0
 11
-111.746362353156
 21
149.409889648343
 31
0
  0
LINE
  8
0
 62
7
 10
116.825898569644
 20
103.944040110943
 30
0
 11
119.922187175444
 21
103.522653725543
 31
0
  0
LINE
  8
0
 62
7
 10
-98.69861905175601
 20
103.522653725543
 30
0
 11
-95.602330446156
 21
103.944040110743
 31
0
  0
LINE
  8
0
 62
7
 10
132.969930476644
 20
149.409889648343
 30
0
 11
135.991785734644
 21
150.205477742743
 31
0
  0
LINE
  8
0
 62
7
 10
-107.389262359956
 20
144.778155946943
 30
0
 11
-107.009527893756
 21
142.869101868343
 31
0
  0
LINE
  8
0
 62
7
 10
-89.80440719075602
 20
101.332266124543
 30
0
 11
-88.72301492215601
 21
99.71384822394302
 31
0
  0
LINE
  8
0
 62
7
 10
-56.93209717815603
 20
67.92293047994301
 30
0
 11
-55.31367927735602
 21
66.84153821134299
 31
0
  0
LINE
  8
0
 62
7
 10
-21.61483898015601
 20
289.6193610137429
 30
0
 11
-53.12329167655602
 21
276.568132577343
 31
0
  0
LINE
  8
0
 62
7
 10
-55.31367927735602
 20
267.673920716143
 30
0
 11
-56.93209717815603
 21
266.592528447743
 31
0
  0
LINE
  8
0
 62
7
 10
-65.98750251995602
 20
267.972541698343
 30
0
 11
-90.10302817275601
 21
243.857016045343
 31
0
  0
LINE
  8
0
 62
7
 10
-88.72301492215601
 20
234.801610703743
 30
0
 11
-89.80440719075602
 21
233.183192802943
 31
0
  0
LINE
  8
0
 62
7
 10
-98.69861905175601
 20
230.992805202143
 30
0
 11
-111.749847488156
 21
199.484352505743
 31
0
  0
LINE
  8
0
 62
7
 10
-107.009527893756
 20
191.646357059343
 30
0
 11
-107.389262359956
 21
189.737302980743
 31
0
  0
LINE
  8
0
 62
7
 10
-111.749847488156
 20
135.031106421943
 30
0
 11
-98.69861905175601
 21
103.522653725543
 31
0
  0
LINE
  8
0
 62
7
 10
-90.10302817275601
 20
90.65844288214302
 30
0
 11
-65.98750251995602
 21
66.542917229343
 31
0
  0
LINE
  8
0
 62
7
 10
-53.12329167655602
 20
57.94732635014299
 30
0
 11
-21.61483898015601
 21
44.89609791394301
 31
0
  0
LINE
  8
0
 62
7
 10
-13.77684353375602
 20
49.63641750834299
 30
0
 11
-11.86778945515601
 21
49.25668304214301
 31
0
  0
LINE
  8
0
 62
7
 10
-6.440467659156013
 20
41.877727790943
 30
0
 11
27.66403578264399
 21
41.877727790943
 31
0
  0
LINE
  8
0
 62
7
 10
33.09135757864397
 20
49.25668304214301
 30
0
 11
35.000411657244
 21
49.63641750834299
 31
0
  0
LINE
  8
0
 62
7
 10
-114.768217611156
 20
184.309981184743
 30
0
 11
-114.768217611156
 21
150.205477742743
 31
0
  0
LINE
  8
1
 62
2
  6
DASHDOT
 10
26.55936956493429
 20
-92.36816545003796
 30
0
 11
-33.88821593803961
 21
-92.36816545003796
 31
0
  0
LINE
  8
1
 62
2
  6
DASHDOT
 10
-48.4882159381559
 20
-82.36816545003796
 30
0
 11
-46.38821593815601
 21
-82.36816545003796
 31
0
  0
LINE
  8
1
 62
2
  6
DASHDOT
 10
-43.35409366432181
 20
-92.36816545003796
 30
0
 11
-33.88821593803961
 21
-92.36816545003796
 31
0
  0
LINE
  8
1
 62
2
  6
DASHDOT
 10
64.57766178807108
 20
-92.36816545003796
 30
0
 11
46.11178406196038
 21
-92.36816545003796
 31
0
  0
LINE
  8
1
 62
2
  6
DASHDOT
 10
-46.38821593815601
 20
-97.46816545003799
 30
0
 11
-46.38821593815601
 21
-87.26816545003794
 31
0
  0
LINE
  8
1
 62
2
  6
DASHDOT
 10
67.61178406184399
 20
-97.46816545003799
 30
0
 11
67.61178406184399
 21
-87.26816545003794
 31
0
  0
LINE
  8
1
 62
2
  6
DASHDOT
 10
-46.38821593815601
 20
-84.76816545003794
 30
0
 11
-46.38821593815601
 21
-79.96816545003799
 31
0
  0
LINE
  8
1
 62
2
  6
DASHDOT
 10
70.01178406184391
 20
-104.368165450038
 30
0
 11
67.61178406184399
 21
-104.368165450038
 31
0
  0
LINE
  8
1
 62
2
  6
DASHDOT
 10
65.2117840618437
 20
-104.368165450038
 30
0
 11
67.61178406184399
 21
-104.368165450038
 31
0
  0
LINE
  8
1
 62
2
  6
DASHDOT
 10
67.61178406184399
 20
-101.968165450038
 30
0
 11
67.61178406184399
 21
-104.368165450038
 31
0
  0
LINE
  8
1
 62
2
  6
DASHDOT
 10
67.61178406184399
 20
-106.7681654500379
 30
0
 11
67.61178406184399
 21
-104.368165450038
 31
0
  0
LINE
  8
1
 62
2
  6
DASHDOT
 10
46.11178406196038
 20
-92.36816545003796
 30
0
 11
26.55936956493429
 21
-92.36816545003796
 31
0
  0
LINE
  8
1
 62
2
  6
DASHDOT
 10
-48.78821593815621
 20
-82.36816545003796
 30
0
 11
-48.4882159381559
 21
-82.36816545003796
 31
0
  0
LINE
  8
1
 62
2
  6
DASHDOT
 10
-43.98821593815612
 20
-82.36816545003796
 30
0
 11
-46.38821593815601
 21
-82.36816545003796
 31
0
  0
LINE
  8
1
 62
7
 10
135.9917857346441
 20
-62.36816545003796
 30
0
 11
135.9917857346439
 21
-86.4339003132381
 31
0
  0
LINE
  8
1
 62
7
 10
-114.768217611156
 20
-122.368165450038
 30
0
 11
-114.768217611156
 21
-98.30246720803807
 31
0
  0
LINE
  8
1
 62
2
  6
DASHDOT
 10
-48.4882159381559
 20
-82.36816545003796
 30
0
 11
-46.38821593815601
 21
-82.36816545003796
 31
0
  0
LINE
  8
1
 62
2
  6
DASHDOT
 10
-46.38821593815601
 20
-84.76816545003794
 30
0
 11
-46.38821593815601
 21
-79.96816545003799
 31
0
  0
LINE
  8
1
 62
2
  6
DASHDOT
 10
-48.78821593815621
 20
-82.36816545003796
 30
0
 11
-48.4882159381559
 21
-82.36816545003796
 31
0
  0
LINE
  8
1
 62
2
  6
DASHDOT
 10
-43.98821593815612
 20
-82.36816545003796
 30
0
 11
-46.38821593815601
 21
-82.36816545003796
 31
0
  0
LINE
  8
1
 62
2
  6
DASHDOT
 10
-48.4882159381559
 20
-82.36816545003796
 30
0
 11
-46.38821593815601
 21
-82.36816545003796
 31
0
  0
LINE
  8
1
 62
2
  6
DASHDOT
 10
-46.38821593815601
 20
-84.76816545003794
 30
0
 11
-46.38821593815601
 21
-79.96816545003799
 31
0
  0
LINE
  8
1
 62
2
  6
DASHDOT
 10
-48.78821593815621
 20
-82.36816545003796
 30
0
 11
-48.4882159381559
 21
-82.36816545003796
 31
0
  0
LINE
  8
1
 62
2
  6
DASHDOT
 10
-43.98821593815612
 20
-82.36816545003796
 30
0
 11
-46.38821593815601
 21
-82.36816545003796
 31
0
  0
LINE
  8
1
 62
7
 10
-114.768217611156
 20
-62.36816545003796
 30
0
 11
1.11178406184399
 21
-62.36816545003796
 31
0
  0
LINE
  8
1
 62
7
 10
135.9917857346441
 20
-122.368165450038
 30
0
 11
20.11178406184399
 21
-122.368165450038
 31
0
  0
LINE
  8
1
 62
7
 10
1.11178406184399
 20
-62.36816545003796
 30
0
 11
20.11178406184399
 21
-62.36816545003796
 31
0
  0
LINE
  8
1
 62
7
 10
1.11178406184399
 20
-122.368165450038
 30
0
 11
-114.768217611156
 21
-122.368165450038
 31
0
  0
LINE
  8
1
 62
7
 10
20.11178406184399
 20
-122.368165450038
 30
0
 11
1.11178406184399
 21
-122.368165450038
 31
0
  0
LINE
  8
1
 62
7
 10
20.11178406184399
 20
-62.36816545003796
 30
0
 11
135.9917857346576
 21
-62.36816545003796
 31
0
  0
LINE
  8
1
 62
2
  6
DASHDOT
 10
10.61178406184399
 20
-59.07459078591569
 30
0
 11
10.61178406184399
 21
-124.6760804478927
 31
0
  0
LINE
  8
1
 62
7
 10
-114.768217611156
 20
-86.43390031303805
 30
0
 11
-114.768217611156
 21
-62.36816545003796
 31
0
  0
LINE
  8
1
 62
7
 10
135.9917857346439
 20
-99.86816545003808
 30
0
 11
135.9917857346441
 21
-122.368165450038
 31
0
  0
LINE
  8
1
 62
7
 10
135.991785734644
 20
-98.30246720783805
 30
0
 11
135.9917857346441
 21
-122.368165450038
 31
0
  0
LINE
  8
1
 62
2
 10
64.61178406184411
 20
125.257729463742
 30
0
 11
64.61178406184411
 21
111.257729463742
 31
0
  0
LINE
  8
1
 62
7
 10
70.61178406184411
 20
125.257729463742
 30
0
 11
63.61178406184411
 21
125.257729463742
 31
0
  0
LINE
  8
1
 62
7
 10
71.61178406184411
 20
125.257729463742
 30
0
 11
70.61178406184411
 21
125.257729463742
 31
0
  0
LINE
  8
1
 62
2
 10
70.61178406184411
 20
125.257729463742
 30
0
 11
71.61178406184411
 21
125.8350797329319
 31
0
  0
LINE
  8
1
 62
2
 10
63.61178406184411
 20
125.8350797329319
 30
0
 11
64.61178406184411
 21
125.257729463742
 31
0
  0
LINE
  8
1
 62
2
 10
70.61178406184411
 20
111.257729463742
 30
0
 11
70.61178406184411
 21
125.257729463742
 31
0
  0
LINE
  8
0
 62
7
 10
126.8575401292439
 20
-89.36815690503795
 30
0
 11
126.857540129244
 21
-95.36815812583808
 31
0
  0
LINE
  8
0
 62
7
 10
134.0575205978439
 20
-88.36816545003796
 30
0
 11
135.9917857346439
 21
-86.4339003132381
 31
0
  0
LINE
  8
0
 62
7
 10
127.8575315842438
 20
-96.36814958083807
 30
0
 11
134.0575205978439
 21
-96.36814958083807
 31
0
  0
LINE
  8
0
 62
7
 10
127.8575315842438
 20
-88.36816545003796
 30
0
 11
134.0575205978439
 21
-88.36816545003796
 31
0
  0
LINE
  8
0
 62
7
 10
135.991785734644
 20
-98.30246720783805
 30
0
 11
134.0575205978439
 21
-96.36814958083807
 31
0
  0
LINE
  8
1
 62
2
  6
DASHDOT
 10
50.61178406196038
 20
-92.36816545003796
 30
0
 11
149.6117840619604
 21
-92.36816545003796
 31
0
  0
LINE
  8
1
 62
2
  6
DASHDOT
 10
-29.38821593803961
 20
-92.36816545003796
 30
0
 11
-126.3882159380396
 21
-92.36816545003796
 31
0
  0
LINE
  8
0
 62
7
 10
-105.633972005556
 20
-95.36815812583808
 30
0
 11
-105.633972005556
 21
-89.36815690503795
 31
0
  0
LINE
  8
0
 62
7
 10
-114.768217611156
 20
-86.43390031303805
 30
0
 11
-112.8339524741559
 21
-88.36816545003796
 31
0
  0
LINE
  8
0
 62
7
 10
-112.833952474156
 20
-96.36814958083807
 30
0
 11
-106.6339634605559
 21
-96.36814958083807
 31
0
  0
LINE
  8
0
 62
7
 10
-112.8339524741559
 20
-88.36816545003796
 30
0
 11
-106.6339634605558
 21
-88.36816545003796
 31
0
  0
LINE
  8
0
 62
7
 10
-112.833952474156
 20
-96.36814958083807
 30
0
 11
-114.768217611156
 21
-98.30246720803807
 31
0
  0
LINE
  8
1
 62
7
 10
30.78678406184395
 20
167.257729463743
 30
0
 11
135.991785734644
 21
167.257729463743
 31
0
  0
LINE
  8
1
 62
7
 10
-114.768217611156
 20
167.257729463743
 30
0
 11
-9.563215938155985
 21
167.257729463743
 31
0
  0
LINE
  8
1
 62
7
 10
60.61178406184399
 20
273.914435666053
 30
0
 11
60.61178406184399
 21
282.2573872283968
 31
0
  0
LINE
  8
DEFAULT_1
 62
2
  6
CENTER
 10
10.61178406184399
 20
209.004398552084
 30
0
 11
10.61178406184399
 21
283.2300635991671
 31
0
  0
LINE
  8
DEFAULT_1
 62
2
  6
CENTER
 10
10.61178406184399
 20
116.102113671189
 30
0
 11
10.61178406184399
 21
29.76336465834299
 31
0
  0
LINE
  8
1
 62
7
 10
557.1780483789895
 20
183.7389500708352
 30
0
 11
489.1380483789897
 21
183.7389500708352
 31
0
  0
LINE
  8
1
 62
7
 10
557.1780483789896
 20
198.8589500708351
 30
0
 11
557.1780483789895
 21
183.7389500708352
 31
0
  0
LINE
  8
1
 62
7
 10
532.3380483789896
 20
229.0989500708352
 30
0
 11
532.3380483789895
 21
183.7389500708352
 31
0
  0
LINE
  8
1
 62
7
 10
507.4980483789895
 20
229.0989500708352
 30
0
 11
507.4980483789895
 21
183.7389500708352
 31
0
  0
LINE
  8
1
 62
7
 10
489.1380483789897
 20
183.7389500708352
 30
0
 11
489.1380483789897
 21
198.8589500708351
 31
0
  0
LINE
  8
1
 62
7
 10
557.1780483789896
 20
198.8589500708351
 30
0
 11
489.1380483789897
 21
198.8589500708351
 31
0
  0
LINE
  8
1
 62
7
 10
557.1780483789896
 20
213.9789500708354
 30
0
 11
557.1780483789896
 21
198.8589500708351
 31
0
  0
LINE
  8
1
 62
7
 10
532.3380483789895
 20
244.2189500708353
 30
0
 11
532.3380483789896
 21
198.8589500708351
 31
0
  0
LINE
  8
1
 62
7
 10
507.4980483789895
 20
244.2189500708353
 30
0
 11
507.4980483789895
 21
198.8589500708351
 31
0
  0
LINE
  8
1
 62
7
 10
489.1380483789897
 20
198.8589500708351
 30
0
 11
489.1380483789897
 21
213.9789500708354
 31
0
  0
LINE
  8
1
 62
7
 10
557.1780483789896
 20
229.0989500708352
 30
0
 11
557.1780483789896
 21
213.9789500708354
 31
0
  0
LINE
  8
1
 62
7
 10
532.3380483789895
 20
259.3389500708352
 30
0
 11
532.3380483789896
 21
213.9789500708354
 31
0
  0
LINE
  8
1
 62
7
 10
557.1780483789896
 20
213.9789500708354
 30
0
 11
489.1380483789897
 21
213.9789500708354
 31
0
  0
LINE
  8
1
 62
7
 10
507.4980483789895
 20
259.3389500708352
 30
0
 11
507.4980483789895
 21
213.9789500708354
 31
0
  0
LINE
  8
1
 62
7
 10
489.1380483789897
 20
213.9789500708354
 30
0
 11
489.1380483789897
 21
229.0989500708352
 31
0
  0
LINE
  8
1
 62
7
 10
557.1780483789896
 20
229.0989500708352
 30
0
 11
489.1380483789897
 21
229.0989500708352
 31
0
  0
LINE
  8
1
 62
7
 10
557.1780483789896
 20
244.2189500708353
 30
0
 11
557.1780483789896
 21
229.0989500708352
 31
0
  0
LINE
  8
1
 62
7
 10
532.3380483789895
 20
274.4589500708352
 30
0
 11
532.3380483789896
 21
229.0989500708352
 31
0
  0
LINE
  8
1
 62
7
 10
507.4980483789895
 20
274.4589500708352
 30
0
 11
507.4980483789895
 21
229.0989500708352
 31
0
  0
LINE
  8
1
 62
7
 10
489.1380483789897
 20
229.0989500708352
 30
0
 11
489.1380483789897
 21
244.2189500708353
 31
0
  0
LINE
  8
1
 62
7
 10
489.1380483789896
 20
289.5789500708354
 30
0
 11
557.1780483789895
 21
289.5789500708354
 31
0
  0
LINE
  8
1
 62
7
 10
532.3380483789896
 20
289.5789500708354
 30
0
 11
532.3380483789895
 21
244.2189500708353
 31
0
  0
LINE
  8
1
 62
7
 10
507.4980483789895
 20
289.5789500708354
 30
0
 11
507.4980483789895
 21
244.2189500708353
 31
0
  0
LINE
  8
1
 62
7
 10
489.1380483789897
 20
244.2189500708353
 30
0
 11
557.1780483789896
 21
244.2189500708353
 31
0
  0
LINE
  8
1
 62
7
 10
557.1780483789896
 20
244.2189500708353
 30
0
 11
489.1380483789897
 21
244.2189500708353
 31
0
  0
LINE
  8
1
 62
7
 10
557.1780483789896
 20
244.2189500708353
 30
0
 11
489.1380483789897
 21
244.2189500708353
 31
0
  0
LINE
  8
1
 62
7
 10
489.1380483789897
 20
244.2189500708353
 30
0
 11
489.1380483789897
 21
259.3389500708352
 31
0
  0
LINE
  8
1
 62
7
 10
557.1780483789896
 20
244.2189500708353
 30
0
 11
489.1380483789897
 21
244.2189500708353
 31
0
  0
LINE
  8
1
 62
7
 10
557.1780483789896
 20
259.3389500708352
 30
0
 11
557.1780483789896
 21
244.2189500708353
 31
0
  0
LINE
  8
1
 62
7
 10
489.1380483789897
 20
259.3389500708352
 30
0
 11
557.1780483789896
 21
259.3389500708352
 31
0
  0
LINE
  8
1
 62
7
 10
557.1780483789896
 20
259.3389500708352
 30
0
 11
489.1380483789897
 21
259.3389500708352
 31
0
  0
LINE
  8
1
 62
7
 10
489.1380483789897
 20
259.3389500708352
 30
0
 11
489.1380483789897
 21
274.4589500708352
 31
0
  0
LINE
  8
1
 62
7
 10
557.1780483789896
 20
259.3389500708352
 30
0
 11
489.1380483789897
 21
259.3389500708352
 31
0
  0
LINE
  8
1
 62
7
 10
557.1780483789896
 20
274.4589500708352
 30
0
 11
557.1780483789896
 21
259.3389500708352
 31
0
  0
LINE
  8
1
 62
7
 10
489.1380483789897
 20
274.4589500708352
 30
0
 11
557.1780483789896
 21
274.4589500708352
 31
0
  0
LINE
  8
1
 62
7
 10
489.1380483789897
 20
274.4589500708352
 30
0
 11
489.1380483789896
 21
289.5789500708354
 31
0
  0
LINE
  8
1
 62
7
 10
557.1780483789895
 20
289.5789500708354
 30
0
 11
557.1780483789896
 21
274.4589500708352
 31
0
  0
LINE
  8
1
 62
2
 10
512.966817843398
 20
262.6186653513636
 30
0
 11
524.966817843398
 21
269.8186653513636
 31
0
  0
LINE
  8
0
 62
7
 10
320.8637781686439
 20
167.299013559343
 30
0
 11
320.8637781686439
 21
48.70344410114296
 31
0
  0
LINE
  8
0
 62
7
 10
326.863779389444
 20
167.299013559343
 30
0
 11
326.863779389444
 21
48.70344410114296
 31
0
  0
LINE
  8
1
 62
7
 10
353.8637705573428
 20
167.257729463743
 30
0
 11
293.8637906989448
 21
167.257729463743
 31
0
  0
LINE
  8
1
 62
7
 10
293.8637922858418
 20
191.457729463743
 30
0
 11
353.8637682566442
 21
191.457729463743
 31
0
  0
LINE
  8
1
 62
7
 10
10.61178406184399
 20
167.257729463743
 30
0
 11
4.61178406184399
 21
167.257729463743
 31
0
  0
LINE
  8
1
 62
7
 10
10.61178406184399
 20
167.257729463743
 30
0
 11
10.61178406184399
 21
173.370512514494
 31
0
  0
LINE
  8
1
 62
7
 10
10.61178406184399
 20
301.606073504143
 30
0
 11
10.61178406184399
 21
309.606073504143
 31
0
  0
LINE
  8
1
 62
7
 10
10.0622443901509
 20
301.606073504143
 30
0
 11
10.0622443901509
 21
309.606073504143
 31
0
  0
LINE
  8
0
 62
2
 10
214.412914055644
 20
292.637731136543
 30
0
 11
214.412914055644
 21
167.257729463743
 31
0
  0
LINE
  8
0
 62
2
 10
29.66403578264399
 20
292.637731136543
 30
0
 11
215.412914055644
 21
292.637731136543
 31
0
  0
LINE
  8
0
 62
2
 10
12.61178406184399
 20
287.376966102543
 30
0
 11
185.262506181244
 21
287.376966102543
 31
0
  0
LINE
  8
0
 62
2
 10
184.262506181244
 20
287.376966102543
 30
0
 11
184.262506181244
 21
167.257729463743
 31
0
  0
LINE
  8
0
 62
2
 10
184.262506181244
 20
47.138492824943
 30
0
 11
184.262506181244
 21
167.257729463743
 31
0
  0
LINE
  8
0
 62
2
 10
214.412914055644
 20
41.877727790943
 30
0
 11
214.412914055644
 21
167.257729463743
 31
0
  0
LINE
  8
0
 62
2
 10
13.01543589444398
 20
47.138492824943
 30
0
 11
185.262506181244
 21
47.138492824943
 31
0
  0
LINE
  8
0
 62
2
 10
29.66403578264399
 20
41.877727790943
 30
0
 11
215.412914055644
 21
41.877727790943
 31
0
  0
LINE
  8
1
 62
7
 10
-9.563215938155985
 20
-62.36816545003796
 30
0
 11
-9.563215938155985
 21
-122.368165450038
 31
0
  0
LINE
  8
1
 62
7
 10
30.78678406184395
 20
-62.36816545003796
 30
0
 11
30.78678406184395
 21
-122.368165450038
 31
0
  0
LINE
  8
1
 62
7
 10
294.8637919589403
 20
186.472518689743
 30
0
 11
293.8637919589403
 21
187.472518689743
 31
0
  0
LINE
  8
1
 62
7
 10
352.8637687305891
 20
186.472518689743
 30
0
 11
353.8637686355189
 21
187.472518689743
 31
0
  0
LINE
  8
1
 62
7
 10
352.8637687305891
 20
186.472518689743
 30
0
 11
352.8637705573428
 21
167.257729463743
 31
0
  0
LINE
  8
1
 62
7
 10
294.8637919589403
 20
186.472518689743
 30
0
 11
294.8637906989448
 21
167.257729463743
 31
0
  0
LINE
  8
1
 62
7
 10
294.8637919589403
 20
186.472518689743
 30
0
 11
352.8637687305891
 21
186.472518689743
 31
0
  0
LINE
  8
1
 62
2
 10
-34.388215938156
 20
92.1743145556092
 30
0
 11
-34.388215938156
 21
91.61348124032941
 31
0
  0
LINE
  8
1
 62
7
 10
557.1780483789895
 20
183.7389500708352
 30
0
 11
489.1380483789897
 21
183.7389500708352
 31
0
  0
LINE
  8
1
 62
7
 10
557.1780483789895
 20
183.7389500708352
 30
0
 11
489.1380483789897
 21
183.7389500708352
 31
0
  0
LINE
  8
1
 62
7
 10
557.1780483789895
 20
183.7389500708352
 30
0
 11
489.1380483789897
 21
183.7389500708352
 31
0
  0
LINE
  8
1
 62
7
 10
557.1780483789895
 20
183.7389500708352
 30
0
 11
489.1380483789897
 21
183.7389500708352
 31
0
  0
ARC
  8
0
 62
7
 10
10.61178406184399
 20
167.257729463743
 30
0
 40
20.17500000000001
 50
270
 51
72.25190014829975
  0
ARC
  8
0
 62
7
 10
10.61178406184399
 20
167.257729463743
 30
0
 40
20.17500000000003
 50
107.7480998517002
 51
270
  0
ARC
  8
1
 62
2
  6
DASHED
 10
9.611784061844105
 20
217.7902065172481
 30
0
 40
66.87500000000023
 50
85.71220225168135
 51
94.28779774831885
  0
ARC
  8
1
 62
7
 10
10.61178406184399
 20
167.257729463743
 30
0
 40
117.4
 50
291.9043650052537
 51
303.6186536200301
  0
ARC
  8
1
 62
2
  6
DASHED
 10
10.61178406184399
 20
167.257729463743
 30
0
 40
117.4
 50
285.8173972719352
 51
291.9043650052537
  0
ARC
  8
1
 62
7
 10
10.61178406184399
 20
167.257729463743
 30
0
 40
117.4
 50
0
 51
72.54758504096233
  0
ARC
  8
0
 62
2
 10
361.259665362944
 20
-129.131686707857
 30
0
 40
65.63446822110009
 50
114.0218744767001
 51
127.25
  0
ARC
  8
0
 62
2
 10
361.259665362944
 20
-129.131686707857
 30
0
 40
65.63446822109999
 50
75.24999999999987
 51
87.35299337460005
  0
ARC
  8
1
 62
7
 10
75.3214465134223
 20
105.0681990161009
 30
0
 40
1.000000000000006
 50
146.1097618310025
 51
155.485902408699
  0
ARC
  8
1
 62
7
 10
59.9021216102659
 20
105.0681990161009
 30
0
 40
0.9999999999999099
 50
24.51409759130609
 51
33.8902381690043
  0
ARC
  8
1
 62
7
 10
72.78491896119169
 20
104.2577294637429
 30
0
 40
1
 50
270
 51
349.1723159931449
  0
ARC
  8
1
 62
7
 10
62.4386491624964
 20
104.2577294637429
 30
0
 40
1.000000000000022
 50
190.8276840068551
 51
270
  0
ARC
  8
1
 62
7
 10
73.11178406184411
 20
230.257729463743
 30
0
 40
1
 50
0
 51
90
  0
ARC
  8
1
 62
7
 10
62.11178406184411
 20
230.257729463743
 30
0
 40
1
 50
90
 51
180
  0
ARC
  8
1
 62
2
  6
DASHED
 10
-38.67855348657781
 20
105.0681990161009
 30
0
 40
0.9999999999998174
 50
146.1097618309952
 51
155.4859024086922
  0
ARC
  8
1
 62
2
  6
DASHED
 10
-54.09787838973338
 20
105.0681990160994
 30
0
 40
0.9999999999999787
 50
24.51409759139915
 51
33.89023816910251
  0
ARC
  8
1
 62
2
  6
DASHED
 10
-41.21508103880831
 20
104.2577294637429
 30
0
 40
0.9999999999998011
 50
270
 51
349.1723159931449
  0
ARC
  8
1
 62
2
  6
DASHED
 10
-51.56135083750371
 20
104.2577294637429
 30
0
 40
1.000000000000029
 50
190.827684006855
 51
270
  0
ARC
  8
1
 62
2
  6
DASHED
 10
-40.88821593815624
 20
230.257729463743
 30
0
 40
1
 50
0
 51
89.99999999998656
  0
ARC
  8
1
 62
2
  6
DASHED
 10
-51.88821593815601
 20
230.257729463743
 30
0
 40
1
 50
90
 51
180
  0
ARC
  8
1
 62
7
 10
73.24094918644289
 20
107.8181461304096
 30
0
 40
2.2604166666667
 50
270
 51
326.1097618309909
  0
ARC
  8
1
 62
7
 10
61.98261893724521
 20
107.8181461304096
 30
0
 40
2.2604166666667
 50
270
 51
326.1097618309909
  0
ARC
  8
1
 62
7
 10
73.24094918644289
 20
108.9973127970763
 30
0
 40
2.260416666666612
 50
61.60936564328355
 51
146.1097618309945
  0
ARC
  8
1
 62
7
 10
73.24094918644289
 20
108.9973127970763
 30
0
 40
2.26041666666658
 50
33.8902381690071
 51
61.60936564328355
  0
ARC
  8
1
 62
7
 10
61.98261893724521
 20
108.9973127970763
 30
0
 40
2.26041666666658
 50
33.8902381690071
 51
146.109761830993
  0
ARC
  8
1
 62
7
 10
67.61178406184411
 20
103.7160627970763
 30
0
 40
7.54166666666655
 50
60.15827583531615
 51
119.8417241646853
  0
ARC
  8
1
 62
7
 10
73.24094918644289
 20
107.8181461304096
 30
0
 40
2.26041666666673
 50
213.8902381690076
 51
270
  0
ARC
  8
1
 62
7
 10
67.61178406184411
 20
113.0993961304097
 30
0
 40
7.541666666666832
 50
240.1582758353154
 51
299.8417241646831
  0
ARC
  8
1
 62
7
 10
61.98261893724521
 20
107.8181461304096
 30
0
 40
2.260416666666641
 50
213.8902381690091
 51
270
  0
ARC
  8
1
 62
2
  6
DASHED
 10
-40.75905081355711
 20
107.8181461304096
 30
0
 40
2.2604166666667
 50
270
 51
326.1097618309892
  0
ARC
  8
1
 62
2
  6
DASHED
 10
-52.01738106275491
 20
107.8181461304096
 30
0
 40
2.2604166666667
 50
270
 51
326.10976183099
  0
ARC
  8
1
 62
2
  6
DASHED
 10
-40.75905081355711
 20
108.9973127970763
 30
0
 40
2.260416666666463
 50
61.60936564328521
 51
146.1097618309928
  0
ARC
  8
1
 62
2
  6
DASHED
 10
-40.75905081355711
 20
108.9973127970763
 30
0
 40
2.260416666666485
 50
33.8902381690087
 51
61.60936564328521
  0
ARC
  8
1
 62
2
  6
DASHED
 10
-52.01738106275491
 20
108.9973127970763
 30
0
 40
2.260416666666533
 50
33.8902381690079
 51
146.1097618309913
  0
ARC
  8
1
 62
2
  6
DASHED
 10
-46.38821593815601
 20
103.7160627970763
 30
0
 40
7.541666666666665
 50
60.15827583531461
 51
119.8417241646857
  0
ARC
  8
1
 62
2
  6
DASHED
 10
-40.75905081355711
 20
107.8181461304096
 30
0
 40
2.26041666666663
 50
213.8902381690093
 51
270
  0
ARC
  8
1
 62
2
  6
DASHED
 10
-46.38821593815601
 20
113.0993961304097
 30
0
 40
7.541666666666863
 50
240.158275835315
 51
299.8417241646847
  0
ARC
  8
1
 62
2
  6
DASHED
 10
-52.01738106275491
 20
107.8181461304096
 30
0
 40
2.260416666666541
 50
213.8902381690108
 51
270
  0
ARC
  8
0
 62
7
 10
320.863782477244
 20
47.70344757494297
 30
0
 40
1
 50
90
 51
180
  0
ARC
  8
0
 62
7
 10
326.863782477244
 20
47.70344757494297
 30
0
 40
1
 50
0
 51
90
  0
ARC
  8
0
 62
7
 10
320.863782477244
 20
284.503447574943
 30
0
 40
1
 50
180
 51
270
  0
ARC
  8
0
 62
7
 10
326.863782477244
 20
284.503447574943
 30
0
 40
1
 50
270
 51
0
  0
ARC
  8
DEFAULT_1
 62
2
  6
CENTER
 10
404.3499642674452
 20
-345.7612481177567
 30
0
 40
253.0685607359001
 50
104.8356264671003
 51
107.3853448923003
  0
ARC
  8
DEFAULT_1
 62
2
  6
CENTER
 10
404.349964267444
 20
-345.761248117757
 30
0
 40
253.0685607359
 50
97.74901860510001
 51
104.7502247554
  0
ARC
  8
DEFAULT_1
 62
2
  6
CENTER
 10
404.349964267444
 20
-345.761248117757
 30
0
 40
240.2384732776
 50
96.56440573939997
 51
106.5111131262
  0
ARC
  8
0
 62
7
 10
357.049733369444
 20
-97.98973190945699
 30
0
 40
12
 50
281.2499999999992
 51
345.2500000000001
  0
ARC
  8
0
 62
7
 10
353.231625212244
 20
-98.74920084195699
 30
0
 40
12.00000000000002
 50
217.2499999999998
 51
281.2500000000002
  0
ARC
  8
DEFAULT_1
 62
2
  6
CENTER
 10
10.61178406184399
 20
167.257729463743
 30
0
 40
126.5342803680001
 50
352.3148109527999
 51
7.685189047199956
  0
ARC
  8
DEFAULT_1
 62
2
  6
CENTER
 10
10.61178406184399
 20
167.257729463743
 30
0
 40
126.5342803679998
 50
345.2475130806
 51
352.2512945379
  0
ARC
  8
DEFAULT_1
 62
2
  6
CENTER
 10
10.61178406184399
 20
167.257729463743
 30
0
 40
126.5342803679999
 50
329.8464924274999
 51
345.1926407972999
  0
ARC
  8
DEFAULT_1
 62
2
  6
CENTER
 10
10.61178406184399
 20
167.257729463743
 30
0
 40
126.5342803680001
 50
322.7501701767
 51
329.7500889042
  0
ARC
  8
DEFAULT_1
 62
2
  6
CENTER
 10
10.61178406184399
 20
167.257729463743
 30
0
 40
126.5342803680001
 50
300.2469397509
 51
322.6534158082
  0
ARC
  8
DEFAULT_1
 62
2
  6
CENTER
 10
10.61178406184399
 20
167.257729463743
 30
0
 40
126.5342803680001
 50
284.8356264671
 51
300.214834733
  0
ARC
  8
DEFAULT_1
 62
2
  6
CENTER
 10
10.61178406184399
 20
167.257729463743
 30
0
 40
126.5342803679999
 50
277.7490186050999
 51
284.7502247553999
  0
ARC
  8
DEFAULT_1
 62
2
  6
CENTER
 10
10.61178406184399
 20
167.257729463743
 30
0
 40
126.534280368
 50
262.3339612088
 51
277.6660387911999
  0
ARC
  8
DEFAULT_1
 62
2
  6
CENTER
 10
10.61178406184399
 20
167.257729463743
 30
0
 40
126.5342803679999
 50
255.2497752445999
 51
262.2509813949
  0
ARC
  8
DEFAULT_1
 62
2
  6
CENTER
 10
10.61178406184399
 20
167.257729463743
 30
0
 40
126.5342803680001
 50
239.785165267
 51
255.1643735329
  0
ARC
  8
DEFAULT_1
 62
2
  6
CENTER
 10
10.61178406184399
 20
167.257729463743
 30
0
 40
126.5342803679999
 50
217.3465841917999
 51
239.7530602491
  0
ARC
  8
DEFAULT_1
 62
2
  6
CENTER
 10
10.61178406184399
 20
167.257729463743
 30
0
 40
126.534280368
 50
210.2499110958
 51
217.2498298233
  0
ARC
  8
DEFAULT_1
 62
2
  6
CENTER
 10
10.61178406184399
 20
167.257729463743
 30
0
 40
126.534280368
 50
194.8073592027
 51
210.1535075725
  0
ARC
  8
DEFAULT_1
 62
2
  6
CENTER
 10
10.61178406184399
 20
167.257729463743
 30
0
 40
126.534280368
 50
187.7487054621
 51
194.7524869194
  0
ARC
  8
DEFAULT_1
 62
2
  6
CENTER
 10
10.61178406184399
 20
167.257729463743
 30
0
 40
126.534280368
 50
172.3148109528001
 51
187.6851890471999
  0
ARC
  8
DEFAULT_1
 62
2
  6
CENTER
 10
10.61178406184399
 20
167.257729463743
 30
0
 40
126.534280368
 50
165.2475130806
 51
172.2512945379
  0
ARC
  8
DEFAULT_1
 62
2
  6
CENTER
 10
10.61178406184399
 20
167.257729463743
 30
0
 40
126.534280368
 50
149.8464924275001
 51
165.1926407973
  0
ARC
  8
DEFAULT_1
 62
2
  6
CENTER
 10
10.61178406184399
 20
167.257729463743
 30
0
 40
126.5342803679999
 50
142.7501701767001
 51
149.7500889042
  0
ARC
  8
DEFAULT_1
 62
2
  6
CENTER
 10
10.61178406184399
 20
167.257729463743
 30
0
 40
126.5342803679999
 50
120.2469397509
 51
142.6534158082
  0
ARC
  8
DEFAULT_1
 62
2
  6
CENTER
 10
10.61178406184399
 20
167.257729463743
 30
0
 40
126.5342803679999
 50
104.8356264671
 51
120.214834733
  0
ARC
  8
DEFAULT_1
 62
2
  6
CENTER
 10
10.61178406184399
 20
167.257729463743
 30
0
 40
126.5342803680002
 50
97.74901860510002
 51
104.7502247554
  0
ARC
  8
DEFAULT_1
 62
2
  6
CENTER
 10
10.61178406184399
 20
167.257729463743
 30
0
 40
126.534280368
 50
82.33396120880001
 51
97.6660387912
  0
ARC
  8
DEFAULT_1
 62
2
  6
CENTER
 10
10.61178406184399
 20
167.257729463743
 30
0
 40
126.534280368
 50
75.24977524459996
 51
82.25098139489998
  0
ARC
  8
DEFAULT_1
 62
2
  6
CENTER
 10
10.61178406184399
 20
167.257729463743
 30
0
 40
126.534280368
 50
59.785165267
 51
75.16437353289996
  0
ARC
  8
DEFAULT_1
 62
2
  6
CENTER
 10
10.61178406184399
 20
167.257729463743
 30
0
 40
126.5342803680001
 50
37.34658419179998
 51
59.75306024910002
  0
ARC
  8
DEFAULT_1
 62
2
  6
CENTER
 10
10.61178406184399
 20
167.257729463743
 30
0
 40
126.534280368
 50
30.24991109580001
 51
37.24982982329999
  0
ARC
  8
DEFAULT_1
 62
2
  6
CENTER
 10
10.61178406184399
 20
167.257729463743
 30
0
 40
126.5342803680001
 50
14.80735920269996
 51
30.15350757249997
  0
ARC
  8
DEFAULT_1
 62
2
  6
CENTER
 10
10.61178406184399
 20
167.257729463743
 30
0
 40
126.5342803679999
 50
7.748705462100003
 51
14.75248691940002
  0
ARC
  8
0
 62
7
 10
34.26189951064401
 20
291.143487567943
 30
0
 40
5.999999999999987
 50
194.7500000000015
 51
258.7499999999993
  0
ARC
  8
0
 62
7
 10
-13.03833138715601
 20
291.143487567943
 30
0
 40
6.000000000000003
 50
281.2500000000003
 51
345.2499999999986
  0
ARC
  8
0
 62
7
 10
-14.94738546575601
 20
290.763753101743
 30
0
 40
6.000000000000115
 50
217.2500000000001
 51
281.2500000000001
  0
ARC
  8
0
 62
7
 10
-58.647100675556
 20
272.662738389943
 30
0
 40
6.0000000000001
 50
303.7499999999994
 51
7.749999999997443
  0
ARC
  8
0
 62
7
 10
-60.26551857635602
 20
271.581346121543
 30
0
 40
6.000000000000002
 50
239.7500000000001
 51
303.7500000000005
  0
ARC
  8
0
 62
7
 10
-93.71183259595603
 20
238.135032101943
 30
0
 40
6.00000000000001
 50
326.2499999999999
 51
30.25000000000026
  0
ARC
  8
0
 62
7
 10
-94.79322486455601
 20
236.516614201143
 30
0
 40
5.999999999999917
 50
262.2499999999999
 51
326.2500000000006
  0
ARC
  8
0
 62
7
 10
-112.894239576156
 20
192.816898991343
 30
0
 40
6.000000000000016
 50
348.7499999999998
 51
52.75000000000005
  0
ARC
  8
0
 62
7
 10
-113.273974042356
 20
190.907844912743
 30
0
 40
5.999999999999941
 50
284.7500000000005
 51
348.7499999999996
  0
ARC
  8
0
 62
7
 10
-113.273974042356
 20
143.607614014743
 30
0
 40
6.000000000000029
 50
11.2500000000002
 51
75.24999999999983
  0
ARC
  8
0
 62
7
 10
-112.894239576156
 20
141.698559936143
 30
0
 40
6.000000000000023
 50
307.249999999999
 51
11.25000000000023
  0
ARC
  8
0
 62
7
 10
-94.79322486455601
 20
97.99884472654301
 30
0
 40
5.999999999999993
 50
33.74999999999982
 51
97.75000000000019
  0
ARC
  8
0
 62
7
 10
-93.71183259595603
 20
96.380426825743
 30
0
 40
6.000000000000019
 50
329.7499999999998
 51
33.74999999999978
  0
ARC
  8
0
 62
7
 10
-60.26551857635602
 20
62.93411280614299
 30
0
 40
5.99999999999997
 50
56.24999999999955
 51
120.2499999999997
  0
ARC
  8
0
 62
7
 10
-58.647100675556
 20
61.85272053754301
 30
0
 40
6.000000000000003
 50
352.2499999999993
 51
56.24999999999958
  0
ARC
  8
0
 62
7
 10
-14.94738546575601
 20
43.75170582594299
 30
0
 40
6.000000000000028
 50
78.74999999999984
 51
142.7500000000001
  0
ARC
  8
0
 62
7
 10
-13.03833138715601
 20
43.37197135974299
 30
0
 40
5.999999999999949
 50
14.75000000000065
 51
78.74999999999973
  0
ARC
  8
0
 62
7
 10
34.26189951064401
 20
43.37197135974299
 30
0
 40
6.000000000000033
 50
101.2500000000007
 51
165.2499999999994
  0
ARC
  8
0
 62
7
 10
36.17095358944397
 20
43.75170582594299
 30
0
 40
6.000000000000096
 50
37.24999999999996
 51
101.2500000000002
  0
ARC
  8
0
 62
7
 10
79.87066879904398
 20
61.85272053754301
 30
0
 40
5.999999999999923
 50
123.7500000000003
 51
187.7500000000007
  0
ARC
  8
0
 62
7
 10
81.489086699844
 20
62.93411280614299
 30
0
 40
6.000000000000044
 50
59.74999999999995
 51
123.7500000000001
  0
ARC
  8
0
 62
7
 10
114.935400719444
 20
96.380426825743
 30
0
 40
5.999999999999934
 50
146.2499999999998
 51
210.2500000000001
  0
ARC
  8
0
 62
7
 10
116.016792988044
 20
97.99884472654301
 30
0
 40
5.99999999999987
 50
82.25000000000118
 51
146.2500000000006
  0
ARC
  8
0
 62
7
 10
134.117807699644
 20
141.698559936143
 30
0
 40
6.000000000000029
 50
168.7499999999998
 51
232.7500000000001
  0
ARC
  8
0
 62
7
 10
134.497542165844
 20
143.607614014743
 30
0
 40
5.999999999999941
 50
104.7500000000005
 51
168.7499999999996
  0
ARC
  8
0
 62
7
 10
134.497542165844
 20
190.907844912743
 30
0
 40
6.000000000000029
 50
191.2500000000002
 51
255.2499999999998
  0
ARC
  8
0
 62
7
 10
134.117807699644
 20
192.816898991343
 30
0
 40
6.000000000000068
 50
127.25
 51
191.2500000000002
  0
ARC
  8
0
 62
7
 10
116.016792988044
 20
236.516614201143
 30
0
 40
6.0000000000001
 50
213.7499999999992
 51
277.7499999999986
  0
ARC
  8
0
 62
7
 10
114.935400719444
 20
238.135032101943
 30
0
 40
6.000000000000044
 50
149.7499999999999
 51
213.7500000000006
  0
ARC
  8
0
 62
7
 10
81.489086699844
 20
271.581346121543
 30
0
 40
5.999999999999947
 50
236.2499999999999
 51
300.2500000000005
  0
ARC
  8
0
 62
7
 10
79.87066879904398
 20
272.662738389943
 30
0
 40
5.999999999999883
 50
172.2500000000023
 51
236.2500000000008
  0
ARC
  8
0
 62
7
 10
36.17095358944397
 20
290.763753101743
 30
0
 40
6.000000000000061
 50
258.7499999999998
 51
322.7499999999997
  0
ARC
  8
1
 62
7
 10
-46.38821593815601
 20
-92.36816545003796
 30
0
 40
4.5
 50
180
 51
270
  0
ARC
  8
1
 62
7
 10
-46.38821593815601
 20
-92.36816545003796
 30
0
 40
4.5
 50
270
 51
180
  0
ARC
  8
0
 62
7
 10
127.8575185784439
 20
-89.36816121363808
 30
0
 40
1
 50
90
 51
180
  0
ARC
  8
0
 62
7
 10
127.857518578444
 20
-95.36816121363808
 30
0
 40
1
 50
180
 51
270
  0
ARC
  8
0
 62
7
 10
-106.633950454756
 20
-89.36816121363808
 30
0
 40
1
 50
0
 51
90
  0
ARC
  8
0
 62
7
 10
-106.633950454756
 20
-95.36816121363808
 30
0
 40
1
 50
270
 51
0
  0
ARC
  8
1
 62
2
  6
DASHED
 10
10.61178406184399
 20
167.257729463743
 30
0
 40
117.4
 50
73.67471262884696
 51
80.1353311998155
  0
ARC
  8
1
 62
7
 10
10.61178406184399
 20
167.257729463743
 30
0
 40
117.4
 50
303.6186536200301
 51
0
  0
ARC
  8
1
 62
2
  6
DASHED
 10
10.61178406184399
 20
167.257729463743
 30
0
 40
117.4
 50
80.1353311998155
 51
281.0325533944622
  0
ARC
  8
1
 62
2
  6
DASHED
 10
10.61178406184399
 20
167.257729463743
 30
0
 40
117.4
 50
281.0325533944622
 51
285.8173972719352
  0
ARC
  8
1
 62
2
  6
DASHDOT
 10
404.349964267444
 20
-345.761248117757
 30
0
 40
252.2459832923895
 50
91.22937690076006
 51
109.1387913390642
  0
CIRCLE
  8
0
 62
2
 10
-15.20618356895602
 20
290.060880128743
 30
0
 40
12.64737447460001
  0
CIRCLE
  8
DEFAULT_1
 62
7
  6
CENTER
 10
10.61178406184399
 20
167.257729463743
 30
0
 40
120.1192366388
  0
CIRCLE
  8
1
 62
7
 10
67.61178406184399
 20
-104.368165450038
 30
0
 40
2
  0
CIRCLE
  8
1
 62
7
 10
-46.38821593815601
 20
-82.36816545003796
 30
0
 40
2.099999999999902
  0
CIRCLE
  8
1
 62
7
 10
67.61178406184399
 20
-92.36816545003796
 30
0
 40
4.5
  0
POLYLINE
  8
1
 62
7
 66
1
  0
VERTEX
  8
1
 10
58.70213597777299
 20
167.2577294637441
 30
0
 42
0.01910804405476228
  0
VERTEX
  8
1
 10
58.70543277840619
 20
162.6550272480749
 30
0
 42
0.01729073107291309
  0
VERTEX
  8
1
 10
59.28516785041919
 20
156.3216166175665
 30
0
 42
-0.02098677307687146
  0
VERTEX
  8
1
 10
59.81541859924037
 20
150.0214422113546
 30
0
 42
-0.04154985462909013
  0
VERTEX
  8
1
 10
59.48021988421229
 20
144.4827417659772
 30
0
 42
-0.01337533353651834
  0
VERTEX
  8
1
 10
58.56842067641129
 20
139.674687635387
 30
0
 42
0.01905719726411811
  0
VERTEX
  8
1
 10
57.70948814457416
 20
134.8413973567928
 30
0
 42
0.05168002273404398
  0
VERTEX
  8
1
 10
57.54205761888238
 20
129.9391928993616
 30
0
 42
0.04563687933398834
  0
VERTEX
  8
1
 10
58.35366059417017
 20
125.8342414542713
 30
0
 42
0.003796722106757749
  0
VERTEX
  8
1
 10
59.4136054229173
 20
122.6224731202022
 30
0
 42
-0.04211735142881286
  0
VERTEX
  8
1
 10
60.18425061241618
 20
119.5308616578221
 30
0
 42
-0.1082009257599541
  0
VERTEX
  8
1
 10
60.01910549404539
 20
116.676482200706
 30
0
 42
-0.09066553894377578
  0
VERTEX
  8
1
 10
58.62492839374281
 20
114.2252804663881
 30
0
 42
-0.01187398709751798
  0
VERTEX
  8
1
 10
56.60356977302646
 20
111.8590582745844
 30
0
 42
0.05576363722593944
  0
VERTEX
  8
1
 10
54.56987853911191
 20
109.0375735407768
 30
0
 42
0.05779508862654071
  0
VERTEX
  8
1
 10
53.12844960671517
 20
105.6167045716129
 30
0
  0
SEQEND
  8
1
  0
POLYLINE
  8
1
 62
7
 66
1
  0
VERTEX
  8
1
 10
52.61312459311332
 20
82.50927367758243
 30
0
 42
0.002450786647940464
  0
VERTEX
  8
1
 10
51.82784777281924
 20
78.44251678792215
 30
0
 42
0.03442216007478342
  0
VERTEX
  8
1
 10
51.34886557082721
 20
74.37622075712632
 30
0
 42
0.04521501831048241
  0
VERTEX
  8
1
 10
51.61617402697114
 20
69.94470376570877
 30
0
 42
0.02471660490833871
  0
VERTEX
  8
1
 10
52.51281447023636
 20
65.50403779866232
 30
0
 42
0.005853737118999788
  0
VERTEX
  8
1
 10
53.68972880643749
 20
61.07354822701752
 30
0
 42
-0.0124025759433146
  0
VERTEX
  8
1
 10
54.79785894138915
 20
56.67256042180487
 30
0
 42
-0.03236758690253877
  0
VERTEX
  8
1
 10
55.48814678090595
 20
52.32039975405487
 30
0
  0
VERTEX
  8
1
 10
55.56751918544333
 20
50.16866877517535
 30
0
  0
SEQEND
  8
1
  0
POLYLINE
  8
1
 62
7
 66
1
  0
VERTEX
  8
1
 10
50.3898319973524
 20
287.376966102543
 30
0
 42
0.1208548277622077
  0
VERTEX
  8
1
 10
47.1898333765923
 20
284.225608891859
 30
0
 42
0.09305137386601621
  0
VERTEX
  8
1
 10
45.96923452062971
 20
280.4211495053247
 30
0
 42
0.01559887359947959
  0
VERTEX
  8
1
 10
45.56518298750169
 20
276.2216815148113
 30
0
 42
-0.0584715516399447
  0
VERTEX
  8
1
 10
44.64112444039673
 20
271.0738430729151
 30
0
 42
-0.004414139187807936
  0
VERTEX
  8
1
 10
42.84539809934756
 20
265.1999376402207
 30
0
 42
0.06545653614179814
  0
VERTEX
  8
1
 10
41.83559684342968
 20
259.606621756324
 30
0
 42
0.1294576872212604
  0
VERTEX
  8
1
 10
43.09467036569264
 20
254.690552990587
 30
0
 42
0.03495721040297873
  0
VERTEX
  8
1
 10
46.09295867167084
 20
250.2647008675855
 30
0
 42
-0.04996531490795406
  0
VERTEX
  8
1
 10
48.9842546826767
 20
245.679142876467
 30
0
 42
-0.08631246953051995
  0
VERTEX
  8
1
 10
50.42477114821894
 20
239.6824115518309
 30
0
 42
-0.02198850835449813
  0
VERTEX
  8
1
 10
50.5606619414437
 20
233.33061934946
 30
0
 42
0.03594436767186961
  0
VERTEX
  8
1
 10
50.99609748690219
 20
224.9906552273544
 30
0
 42
0.06748392710403284
  0
VERTEX
  8
1
 10
53.18481957908524
 20
217.4732278666155
 30
0
 42
-0.03867192941043614
  0
VERTEX
  8
1
 10
55.81535280400019
 20
210.472714097339
 30
0
 42
-0.05713826954325139
  0
VERTEX
  8
1
 10
56.50662033931129
 20
203.7222852267863
 30
0
 42
0.0119803026883615
  0
VERTEX
  8
1
 10
56.6035564333836
 20
196.810517854692
 30
0
 42
0.02646418031829681
  0
VERTEX
  8
1
 10
58.26065774955573
 20
185.5808386742264
 30
0
 42
-0.0448013652625443
  0
VERTEX
  8
1
 10
59.05860806091449
 20
175.7700496864159
 30
0
 42
-0.003866971990175161
  0
VERTEX
  8
1
 10
58.70213597777299
 20
167.2577294637441
 30
0
  0
SEQEND
  8
1
  0
POLYLINE
  8
1
 62
7
 66
1
  0
VERTEX
  8
1
 10
53.12844960671517
 20
105.6167045716129
 30
0
 42
0.04302883123772487
  0
VERTEX
  8
1
 10
52.3232226026225
 20
102.3751663760919
 30
0
 42
0.0325381130012615
  0
VERTEX
  8
1
 10
52.0250449596162
 20
99.09334100119389
 30
0
 42
0.02041066491568792
  0
VERTEX
  8
1
 10
52.07600889004579
 20
95.78349608239135
 30
0
 42
0.008354301778439564
  0
VERTEX
  8
1
 10
52.31820660626079
 20
92.45789925515659
 30
0
 42
-0.003385142784584468
  0
VERTEX
  8
1
 10
52.59373032061069
 20
89.12881815496195
 30
0
 42
-0.01521198044465374
  0
VERTEX
  8
1
 10
52.74467224544505
 20
85.80852041727979
 30
0
 42
-0.02738325843635896
  0
VERTEX
  8
1
 10
52.61312459311332
 20
82.50927367758243
 30
0
  0
SEQEND
  8
1
  0
POLYLINE
  8
1
 62
2
 66
1
 70
1
  0
VERTEX
  8
1
 10
-29.46448156376353
 20
123.7323579132774
 30
0
  0
VERTEX
  8
1
 10
-23.06448156376353
 20
123.7323579132774
 30
0
  0
VERTEX
  8
1
 10
-23.06448156376353
 20
130.1323579132774
 30
0
  0
VERTEX
  8
1
 10
-29.46448156376353
 20
130.1323579132774
 30
0
  0
SEQEND
  8
1
  0
TEXT
  8
1
 62
2
 10
9.651784061844012
 20
202.3482245122201
 30
0
 40
3.2
  1
c
 41
0.8910000000000004
  0
TEXT
  8
0
 62
2
 10
352.331457351544
 20
-83.253568744557
 30
0
 40
3.500000000000001
  1
%%p0.1
 50
11.24999999999999
 41
0.980100000000001
  0
TEXT
  8
0
 62
2
 10
341.346662211044
 20
-85.43858035105698
 30
0
 40
3.500000000000001
  1
1.95
 50
11.24999999999999
 41
0.980100000000001
  0
TEXT
  8
0
 62
2
 10
345.974165714044
 20
-66.32468058955699
 30
0
 40
3.5
  1
%%p0.1%%d
 41
0.9801000000000006
  0
TEXT
  8
0
 62
2
 10
338.0408323806439
 20
-66.32468058955699
 30
0
 40
3.5
  1
52%%d
 41
0.9801000000000006
  0
TEXT
  8
0
 62
2
 10
382.005987054
 20
308.7630397047429
 30
0
 40
3.2
  1
2 x 45%%d
 50
90
 41
0.9801000000000006
  0
TEXT
  8
0
 62
2
 10
268.514191381044
 20
312.731968927143
 30
0
 40
3.2
  1
%%p0.1
 41
0.9801000000000006
  0
TEXT
  8
0
 62
2
 10
262.914191381044
 20
312.731968927143
 30
0
 40
3.2
  1
8
 41
0.9801000000000006
  0
TEXT
  8
1
 62
2
 10
-146.6400705422836
 20
153.3807934281166
 30
0
 40
3.199999999999999
  1
%%c
 50
90
 41
0.891
  0
TEXT
  8
0
 62
2
 10
-146.776932992756
 20
175.962208209743
 30
0
 40
3.2
  1
 0
 50
90
 41
0.9801000000000006
  0
TEXT
  8
0
 62
2
 10
-152.376932992756
 20
175.962208209743
 30
0
 40
3.2
  1
+0.3
 50
90
 41
0.9801000000000006
  0
TEXT
  8
0
 62
2
 10
-148.176932992756
 20
159.962208209743
 30
0
 40
3.2
  1
253.1
 50
90
 41
0.9801000000000006
  0
TEXT
  8
1
 62
2
 10
491.093228311716
 20
10.06299540282021
 30
0
 40
2.304
  1
631662
 41
0.891
  0
TEXT
  8
1
 62
2
 10
491.093228311716
 20
20.14299540282013
 30
0
 40
2.304
  1
631712
 41
0.891
  0
TEXT
  8
1
 62
2
 10
491.093228311716
 20
30.22299540282006
 30
0
 40
2.304
  1
631652
 41
0.891
  0
TEXT
  8
1
 62
2
 10
491.093228311716
 20
40.30299540281999
 30
0
 40
2.304
  1
631702
 41
0.891
  0
TEXT
  8
1
 62
2
 10
491.093228311716
 20
50.38299540281992
 30
0
 40
2.304
  1
631642
 41
0.891
  0
TEXT
  8
1
 62
2
 10
491.093228311716
 20
60.46299540281984
 30
0
 40
2.304
  1
631692
 41
0.891
  0
TEXT
  8
1
 62
2
 10
491.093228311716
 20
70.54299540281977
 30
0
 40
2.304
  1
631632
 41
0.891
  0
TEXT
  8
1
 62
2
 10
491.093228311716
 20
80.6229954028197
 30
0
 40
2.304
  1
631682
 41
0.891
  0
TEXT
  8
1
 62
2
 10
491.093228311716
 20
90.70299540281962
 30
0
 40
2.304
  1
631622
 41
0.891
  0
TEXT
  8
1
 62
2
 10
491.093228311716
 20
100.7829954028196
 30
0
 40
2.304
  1
631672
 41
0.891
  0
TEXT
  8
1
 62
2
 10
517.906915817793
 20
90.51627528138238
 30
0
 40
1.44
  1
%%p0.05
 41
0.891
  0
TEXT
  8
1
 62
2
 10
508.5611968095278
 20
90.35283726485352
 30
0
 40
2.304
  1
25.26
 41
0.891
  0
TEXT
  8
1
 62
2
 10
492.0898579665527
 20
119.9068946299484
 30
0
 40
2.304
  1
Codes
 41
0.891
  0
TEXT
  8
1
 62
2
 10
510.766657966553
 20
132.5730422235313
 30
0
 40
2.304
  1
DIMENSION TABLE
 41
0.891
  0
TEXT
  8
1
 62
2
 10
514.2823207764698
 20
120.6523413970849
 30
0
 40
2.304
  1
d
 41
0.891
  0
TEXT
  8
1
 62
2
 10
533.7223207764699
 20
120.6523413970849
 30
0
 40
2.304
  1
b
 41
0.891
  0
TEXT
  8
1
 62
2
 10
553.16232077647
 20
120.6523413970849
 30
0
 40
2.304
  1
c
 41
0.891
  0
TEXT
  8
1
 62
2
 10
510.0011968095278
 20
110.5128372648536
 30
0
 40
2.304
  1
19 H13
 41
0.891
  0
TEXT
  8
1
 62
2
 10
528.0011968095278
 20
100.4328372648536
 30
0
 40
2.304
  1
28.30
 41
0.891
  0
TEXT
  8
1
 62
2
 10
537.3469158177928
 20
100.5962752813824
 30
0
 40
1.44
  1
%%p0.15
 41
0.891
  0
TEXT
  8
1
 62
2
 10
508.5611968095278
 20
100.4328372648536
 30
0
 40
2.304
  1
24.85
 41
0.891
  0
TEXT
  8
1
 62
2
 10
517.906915817793
 20
100.5962752813824
 30
0
 40
1.44
  1
%%p0.05
 41
0.891
  0
TEXT
  8
1
 62
2
 10
547.4411968095279
 20
100.4328372648536
 30
0
 40
2.304
  1
 8.05
 41
0.891
  0
TEXT
  8
1
 62
2
 10
556.7869158177928
 20
100.5962752813824
 30
0
 40
1.44
  1
%%p0.05
 41
0.891
  0
TEXT
  8
1
 62
2
 10
508.5611968095278
 20
80.27283726485348
 30
0
 40
2.304
  1
29.85
 41
0.891
  0
TEXT
  8
1
 62
2
 10
517.906915817793
 20
80.43627528138245
 30
0
 40
1.44
  1
%%p0.05
 41
0.891
  0
TEXT
  8
1
 62
2
 10
528.0011968095278
 20
80.27283726485348
 30
0
 40
2.304
  1
33.30
 41
0.891
  0
TEXT
  8
1
 62
2
 10
537.3469158177928
 20
80.43627528138245
 30
0
 40
1.44
  1
%%p0.15
 41
0.891
  0
TEXT
  8
1
 62
2
 10
547.4411968095279
 20
80.27283726485348
 30
0
 40
2.304
  1
 8.05
 41
0.891
  0
TEXT
  8
1
 62
2
 10
556.7869158177928
 20
80.43627528138245
 30
0
 40
1.44
  1
%%p0.05
 41
0.891
  0
TEXT
  8
1
 62
2
 10
491.093228311716
 20
110.8629954028195
 30
0
 40
2.304
  1
631612
 41
0.891
  0
TEXT
  8
1
 62
2
 10
508.5611968095278
 20
70.19283726485355
 30
0
 40
2.304
  1
30.26
 41
0.891
  0
TEXT
  8
1
 62
2
 10
517.906915817793
 20
70.35627528138252
 30
0
 40
1.44
  1
%%p0.05
 41
0.891
  0
TEXT
  8
1
 62
2
 10
508.5611968095278
 20
60.11283726485362
 30
0
 40
2.304
  1
34.85
 41
0.891
  0
TEXT
  8
1
 62
2
 10
517.906915817793
 20
60.2762752813826
 30
0
 40
1.44
  1
%%p0.05
 41
0.891
  0
TEXT
  8
1
 62
2
 10
528.0011968095278
 20
60.11283726485362
 30
0
 40
2.304
  1
38.30
 41
0.891
  0
TEXT
  8
1
 62
2
 10
537.3469158177928
 20
60.2762752813826
 30
0
 40
1.44
  1
%%p0.15
 41
0.891
  0
TEXT
  8
1
 62
2
 10
546.0011968095278
 20
60.11283726485362
 30
0
 40
2.304
  1
 10.05
 41
0.891
  0
TEXT
  8
1
 62
2
 10
556.7869158177928
 20
60.2762752813826
 30
0
 40
1.44
  1
%%p0.05
 41
0.891
  0
TEXT
  8
1
 62
2
 10
508.5611968095278
 20
50.03283726485347
 30
0
 40
2.304
  1
35.26
 41
0.891
  0
TEXT
  8
1
 62
2
 10
517.906915817793
 20
50.19627528138244
 30
0
 40
1.44
  1
%%p0.05
 41
0.891
  0
TEXT
  8
1
 62
2
 10
508.5611968095278
 20
39.95283726485354
 30
0
 40
2.304
  1
39.85
 41
0.891
  0
TEXT
  8
1
 62
2
 10
517.906915817793
 20
40.1162752813824
 30
0
 40
1.44
  1
%%p0.05
 41
0.891
  0
TEXT
  8
1
 62
2
 10
528.0011968095278
 20
39.95283726485354
 30
0
 40
2.304
  1
43.30
 41
0.891
  0
TEXT
  8
1
 62
2
 10
537.3469158177928
 20
40.1162752813824
 30
0
 40
1.44
  1
%%p0.15
 41
0.891
  0
TEXT
  8
1
 62
2
 10
546.0011968095278
 20
39.95283726485354
 30
0
 40
2.304
  1
 12.05
 41
0.891
  0
TEXT
  8
1
 62
2
 10
556.7869158177928
 20
40.1162752813824
 30
0
 40
1.44
  1
%%p0.05
 41
0.891
  0
TEXT
  8
1
 62
2
 10
508.5611968095278
 20
29.87283726485362
 30
0
 40
2.304
  1
40.26
 41
0.891
  0
TEXT
  8
1
 62
2
 10
517.906915817793
 20
30.03627528138236
 30
0
 40
1.44
  1
%%p0.05
 41
0.891
  0
TEXT
  8
1
 62
2
 10
508.5611968095278
 20
19.79283726485346
 30
0
 40
2.304
  1
49.85
 41
0.891
  0
TEXT
  8
1
 62
2
 10
517.906915817793
 20
19.95627528138243
 30
0
 40
1.44
  1
%%p0.05
 41
0.891
  0
TEXT
  8
1
 62
2
 10
528.0011968095278
 20
19.79283726485346
 30
0
 40
2.304
  1
53.80
 41
0.891
  0
TEXT
  8
1
 62
2
 10
537.3469158177928
 20
19.95627528138243
 30
0
 40
1.44
  1
%%p0.15
 41
0.891
  0
TEXT
  8
1
 62
2
 10
546.0011968095278
 20
19.79283726485346
 30
0
 40
2.304
  1
 14.05
 41
0.891
  0
TEXT
  8
1
 62
2
 10
556.7869158177928
 20
19.95627528138243
 30
0
 40
1.44
  1
%%p0.05
 41
0.891
  0
TEXT
  8
1
 62
2
 10
508.5611968095278
 20
9.712837264853533
 30
0
 40
2.304
  1
50.26
 41
0.891
  0
TEXT
  8
1
 62
2
 10
517.906915817793
 20
9.876275281382391
 30
0
 40
1.44
  1
%%p0.05
 41
0.891
  0
TEXT
  8
1
 62
2
 10
511.0731371490427
 20
189.5718741350066
 30
0
 40
3.2
  1
631712
 41
0.8910000000000004
  0
TEXT
  8
1
 62
2
 10
511.0731371490427
 20
204.6918741350065
 30
0
 40
3.2
  1
631702
 41
0.8910000000000004
  0
TEXT
  8
1
 62
2
 10
511.0731371490427
 20
234.9318741350064
 30
0
 40
3.2
  1
631682
 41
0.8910000000000004
  0
TEXT
  8
1
 62
2
 10
511.0731371490427
 20
250.0518741350063
 30
0
 40
3.2
  1
631672
 41
0.8910000000000004
  0
TEXT
  8
1
 62
2
 10
535.9131371490427
 20
189.5718741350066
 30
0
 40
3.2
  1
631662
 41
0.8910000000000004
  0
TEXT
  8
1
 62
2
 10
535.9131371490427
 20
204.6918741350065
 30
0
 40
3.2
  1
631652
 41
0.8910000000000004
  0
TEXT
  8
1
 62
2
 10
535.9131371490427
 20
219.8118741350064
 30
0
 40
3.2
  1
631642
 41
0.8910000000000004
  0
TEXT
  8
1
 62
2
 10
535.9131371490427
 20
234.9318741350064
 30
0
 40
3.2
  1
631632
 41
0.8910000000000004
  0
TEXT
  8
1
 62
2
 10
535.9131371490427
 20
250.0518741350063
 30
0
 40
3.2
  1
631622
 41
0.8910000000000004
  0
TEXT
  8
1
 62
2
 10
-138.941899061517
 20
303.083750189781
 30
0
 40
3.2
  1
·     0.3| A}
 41
0.8910000000000004
  0
TEXT
  8
1
 62
2
 10
111.7642455036888
 20
9.496296322646003
 30
0
 40
3.2
  1
acciaio inox AISI 303
 41
0.8910000000000004
  0
TEXT
  8
1
 62
2
 10
111.7321783062977
 20
16.22137445679266
 30
0
 40
3.2
  1
autobloccanti M8 in
 41
0.8910000000000004
  0
TEXT
  8
1
 62
2
 10
115.1353635535266
 20
23.17545571630512
 30
0
 40
3.2
  1
N%%d2 dadi esagonali
 41
0.8910000000000004
  0
TEXT
  8
1
 62
2
 10
119.8306047685426
 20
321.7741092581897
 30
0
 40
3.2
  1
M8X120
 41
0.8910000000000004
  0
TEXT
  8
1
 62
2
 10
112.1745218705122
 20
328.9983715542684
 30
0
 40
3.2
  1
acciaio inox
 41
0.8910000000000004
  0
TEXT
  8
1
 62
2
 10
98.07382664164402
 20
334.8887086522964
 30
0
 40
3.2
  1
N%%d2 viti a testa cilindrica
 41
0.8910000000000004
  0
TEXT
  8
1
 62
2
 10
-142.6926369360395
 20
72.21694394806184
 30
0
 40
3.2
  1
zigrinate %%c4x15
 41
0.8910000000000004
  0
TEXT
  8
1
 62
2
 10
-142.6926369360395
 20
79.25694394806185
 30
0
 40
3.2
  1
 N%%d2 spinette
 41
0.8910000000000004
  0
TEXT
  8
0
 62
2
 10
339.258703552644
 20
18.04694626094295
 30
0
 40
3.2
  1
A-A
 41
0.9801000000000006
  0
TEXT
  8
0
 62
2
 10
288.8587035526439
 20
18.04694626094295
 30
0
 40
3.2
  1
SEZIONE
 41
0.9801000000000006
  0
TEXT
  8
0
 62
2
 10
362.481438045544
 20
-140.125388665657
 30
0
 40
3.2
  1
2:1
 41
0.9801000000000006
  0
TEXT
  8
0
 62
2
 10
336.881438045544
 20
-140.125388665657
 30
0
 40
3.2
  1
SCALA
 41
0.9801000000000006
  0
TEXT
  8
0
 62
2
 10
363.781438045544
 20
-134.875388665657
 30
0
 40
3.2
  1
A
 41
0.9801000000000006
  0
TEXT
  8
0
 62
2
 10
336.881438045544
 20
-134.875388665657
 30
0
 40
3.2
  1
Dettaglio
 41
0.9801000000000006
  0
TEXT
  8
0
 62
2
 10
-79.177460571756
 20
337.1943895715431
 30
0
 40
3.2
  1
A
 41
0.9801000000000006
  0
TEXT
  8
0
 62
2
 10
-103.377460571756
 20
337.1943895715431
 30
0
 40
3.2
  1
Dettaglio
 41
0.9801000000000006
  0
TEXT
  8
0
 62
2
 10
-130.343599659356
 20
304.444149363543
 30
0
 40
3.2
  1
%%c
 41
0.9801000000000006
  0
TEXT
  8
1
 62
2
 10
-47.68751888444861
 20
-177.9812917580271
 30
0
 40
3.2
  1
Sezione B-B
 41
0.8910000000000004
  0
TEXT
  8
1
 62
2
 10
130.6571501908655
 20
-187.8113334969731
 30
0
 40
3.2
  1
0
 41
0.8910000000000004
  0
TEXT
  8
1
 62
2
 10
97.0112968191105
 20
-186.2122936216772
 30
0
 40
3.2
  1
  ruota %%c4,2
 41
0.8910000000000004
  0
TEXT
  8
1
 62
2
 10
97.0112968191105
 20
-179.1722936216772
 30
0
 40
3.2
  1
* Sull'altra mezza
 41
0.8910000000000004
  0
TEXT
  8
1
 62
2
 10
128.0583330652143
 20
-183.8539936892541
 30
0
 40
3.2
  1
+0,1
 41
0.8910000000000004
  0
TEXT
  8
1
 62
2
 10
495.651545705193
 20
204.1526826911561
 30
0
 40
3.2
  1
40
 41
0.8910000000000004
  0
TEXT
  8
1
 62
2
 10
495.651545705193
 20
219.2726826911562
 30
0
 40
3.2
  1
35
 41
0.8910000000000004
  0
TEXT
  8
1
 62
2
 10
506.6772483789894
 20
293.7065137071983
 30
0
 40
3.2
  1
CODE TABLE
 41
0.8910000000000004
  0
TEXT
  8
1
 62
2
 10
535.9131371490427
 20
265.1718741350062
 30
0
 40
3.2
  1
631612
 41
0.8910000000000004
  0
TEXT
  8
1
 62
2
 10
495.651545705193
 20
264.6326826911563
 30
0
 40
3.2
  1
20
 41
0.8910000000000004
  0
TEXT
  8
1
 62
2
 10
538.9260483789896
 20
276.483805685808
 30
0
 40
3.2
  1
Bore
 41
0.8910000000000004
  0
TEXT
  8
1
 62
2
 10
538.9260483789896
 20
282.8838056858079
 30
0
 40
3.2
  1
Idler
 41
0.8910000000000004
  0
TEXT
  8
1
 62
2
 10
510.8824334057271
 20
276.948147931798
 30
0
 40
3.2
  1
Keyway
 41
0.8910000000000004
  0
TEXT
  8
1
 62
2
 10
510.8824334057271
 20
283.3481479317979
 30
0
 40
3.2
  1
 With
 41
0.8910000000000004
  0
TEXT
  8
1
 62
2
 10
490.7580483789894
 20
276.8672923168241
 30
0
 40
3.2
  1
D nom.
 41
0.8910000000000004
  0
TEXT
  8
1
 62
2
 10
490.7580483789894
 20
283.2672923168241
 30
0
 40
3.2
  1
  %%c
 41
0.8910000000000004
  0
TEXT
  8
1
 62
2
 10
511.223759608936
 20
219.4990784130812
 30
0
 40
3.2
  1
631692
 41
0.8910000000000004
  0
TEXT
  8
1
 62
2
 10
495.651545705193
 20
189.0326826911562
 30
0
 40
3.2
  1
50
 41
0.8910000000000004
  0
TEXT
  8
1
 62
2
 10
495.651545705193
 20
234.3926826911561
 30
0
 40
3.2
  1
30
 41
0.8910000000000004
  0
TEXT
  8
1
 62
2
 10
495.651545705193
 20
249.5126826911564
 30
0
 40
3.2
  1
25
 41
0.8910000000000004
  0
TEXT
  8
0
 62
2
 10
207.412914055644
 20
165.257247985343
 30
0
 40
3.2
  1
250.8
 50
90
 41
0.9801000000000006
  0
TEXT
  8
0
 62
2
 10
208.812914055644
 20
180.257247985343
 30
0
 40
3.2
  1
 0
 50
90
 41
0.9801000000000006
  0
TEXT
  8
0
 62
2
 10
203.212914055644
 20
180.257247985343
 30
0
 40
3.2
  1
+0.3
 50
90
 41
0.9801000000000006
  0
TEXT
  8
0
 62
2
 10
176.562506181244
 20
180.964015742543
 30
0
 40
3.2
  1
+0.3
 50
90
 41
0.9801000000000006
  0
TEXT
  8
0
 62
2
 10
182.162506181244
 20
180.964015742543
 30
0
 40
3.2
  1
 0
 50
90
 41
0.9801000000000006
  0
TEXT
  8
0
 62
2
 10
180.762506181244
 20
163.964015742543
 30
0
 40
3.2
  1
240.2
 50
90
 41
0.9801000000000006
  0
TEXT
  8
0
 62
2
 10
180.762506181244
 20
154.630682409143
 30
0
 40
3.2
  1
%%c
 50
90
 41
0.9801000000000006
  0
TEXT
  8
1
 62
2
 10
459.180158056959
 20
-200.256828693636
 30
0
 40
3.2
  1
KUS6390T16
 41
0.8910000000000004
  0
TEXT
  8
1
 62
2
 10
543.349487717197
 20
-158.1948911362431
 30
0
 40
3.2
  1
MatTop
 41
0.8910000000000004
  0
TEXT
  8
1
 62
2
 10
595.609563219697
 20
-156.289029489473
 30
0
 40
3.2
  1
%%p0.2
 41
0.8910000000000004
  0
TEXT
  8
1
 62
2
 10
620.194115816371
 20
-157.250074280821
 30
0
 40
3.2
  1
1:1
 41
0.8910000000000004
  0
TEXT
  8
1
 62
2
 10
616.388891859633
 20
-172.1948911362431
 30
0
 40
3.2
  1
Fiore
 41
0.8910000000000004
  0
TEXT
  8
1
 62
2
 10
609.661578320197
 20
-181.6948911362431
 30
0
 40
3.2
  1
19/06/00
 41
0.8910000000000004
  0
TEXT
  8
1
 62
2
 10
541.187136936665
 20
-167.1948911362422
 30
0
 40
3.2
  1
PE
 41
0.8910000000000004
  0
TEXT
  8
1
 62
2
 10
538.0637413647859
 20
-182.7948911362421
 30
0
 40
3.2
  1
KUS 6390 T16
 41
0.8910000000000004
  0
TEXT
  8
1
 62
2
 10
565.895085105219
 20
-169.6948911362422
 30
0
 40
3.2
  1
Bianco
 41
0.8910000000000004
  0
TEXT
  8
1
 62
2
 10
631.4567340448664
 20
-135.0268272639882
 30
0
 40
2
  1
A
 50
90
 41
0.891
  0
TEXT
  8
1
 62
2
 10
631.4567340448664
 20
-129.6783242699762
 30
0
 40
2
  1
19/06/00
 50
90
 41
0.891
  0
TEXT
  8
1
 62
2
 10
631.5780483025792
 20
-110.856174557425
 30
0
 40
2
  1
Fiore
 50
90
 41
0.891
  0
TEXT
  8
1
 62
2
 10
631.6226919494175
 20
-97.32914956549267
 30
0
 40
2
  1
Modificato profilo dente (M00M003)
 50
90
 41
0.891
  0
TEXT
  8
1
 62
2
 10
495.9023139594181
 20
-198.4505385191628
 30
0
 40
3.2
  1
A
 41
0.8910000000000004
  0
TEXT
  8
1
 62
2
 10
-27.54448156376353
 20
125.3323579132774
 30
0
 40
3.2
  1
A
 41
0.9
  0
DIMENSION
  8
0
  6
CONTINUOUS
 62
2
  2
*D4
  3
DMST_4
 10
30.78678406184394
 20
125.258733343852
 30
0
 11
10.61178406184396
 21
125.258733343852
 31
0
 12
0
 22
0
 32
0
 70
0
  1
d
 13
-9.56321593815602
 23
165.257729463743
 33
0
 14
30.78678406184395
 24
165.257729463743
 34
0
 53
0
  0
DIMENSION
  8
1
  6
CONTINUOUS
 62
2
  2
*D5
  3
DMST_5
 10
37.70710518720329
 20
191.457729463743
 30
0
 11
34.90710518720329
 21
176.296571619658
 31
0
 12
0
 22
0
 32
0
 70
0
  1
b
 13
10.61178406184399
 23
147.082729463743
 33
0
 14
16.76178406184397
 24
191.457729463743
 34
0
 50
90
 53
0
  0
DIMENSION
  8
1
  6
CONTINUOUS
 62
2
  2
*D6
  3
DMST_6
 10
74.61178406184399
 20
307.872047163188
 30
0
 11
89.67858122342581
 21
312.362047163188
 31
0
 12
0
 22
0
 32
0
 70
0
  1
14
 13
60.61178406184399
 23
282.2573872283968
 33
0
 14
74.61178406184399
 24
270.1726933080041
 34
0
 53
0
  0
DIMENSION
  8
1
  6
CONTINUOUS
 62
2
  2
*D7
  3
DMST_6
 10
162.583332162842
 20
99.25772946374184
 30
0
 11
158.093332162842
 21
88.3824755790381
 31
0
 12
0
 22
0
 32
0
 70
0
 13
75.11733756130911
 23
111.2577294637418
 33
0
 14
75.61178406184399
 24
99.25772946374184
 34
0
 50
90
 53
0
  0
DIMENSION
  8
1
  6
CONTINUOUS
 62
2
  2
*D8
  3
DMST_5
 10
67.61178406184399
 20
336.898002075025
 30
0
 11
14.39877226825991
 21
338.588002075025
 31
0
 12
0
 22
0
 32
0
 70
0
  1
115
 13
-46.38821593815601
 23
264.8706165532057
 33
0
 14
67.61178406184399
 24
262.4309637086246
 34
0
 53
0
  0
DIMENSION
  8
0
  6
CONTINUOUS
 62
2
  2
*D9
  3
DMST_7
 10
293.863782477244
 20
332.861212032201
 30
0
 11
321.742855740868
 21
332.861212032201
 31
0
 12
0
 22
0
 32
0
 70
0
 13
353.863782477244
 23
290.041672424943
 33
0
 14
293.863782477244
 24
294.6377279429429
 34
0
 53
0
  0
DIMENSION
  8
0
  6
CONTINUOUS
 62
2
  2
*D10
  3
DMST_8
 10
383.755987054
 20
283.503447574943
 30
0
 11
383.755987054
 21
166.103447574943
 31
0
 12
0
 22
0
 32
0
 70
0
  1
234.8
 13
322.863782477244
 23
48.70344757494297
 33
0
 14
322.863782477244
 24
283.503447574943
 34
0
 50
90
 53
0
  0
DIMENSION
  8
1
  6
CONTINUOUS
 62
2
  2
*D11
  3
DMST_5
 10
87.8994556239974
 20
-92.36816545003796
 30
0
 11
86.2094556239974
 21
-98.36816545003796
 31
0
 12
0
 22
0
 32
0
 70
0
 13
70.01178406184391
 23
-104.368165450038
 33
0
 14
46.11178406196038
 24
-92.36816545003796
 34
0
 50
90
 53
0
  0
DIMENSION
  8
1
  6
CONTINUOUS
 62
2
  2
*D12
  3
DMST_5
 10
-63.77506451271134
 20
-82.36816545003796
 30
0
 11
-65.46506451271134
 21
-87.36816545003796
 31
0
 12
0
 22
0
 32
0
 70
0
 13
-33.88821593803961
 23
-92.36816545003796
 33
0
 14
-48.4882159381559
 24
-82.36816545003796
 34
0
 50
90
 53
0
  0
DIMENSION
  8
1
  6
CONTINUOUS
 62
2
  2
*D13
  3
DMST_5
 10
-114.768217611156
 20
-156.951039395697
 30
0
 11
10.61178406174403
 21
-153.991039395697
 31
0
 12
0
 22
0
 32
0
 70
0
 13
135.9917857346441
 23
-122.368165450038
 33
0
 14
-114.768217611156
 24
-122.368165450038
 34
0
 53
0
  0
DIMENSION
  8
1
  6
CONTINUOUS
 62
2
  2
*D14
  3
DMST_6
 10
59.61178406184398
 20
12.0451909682239
 30
0
 11
44.9701327894286
 21
16.5351909682239
 31
0
 12
0
 22
0
 32
0
 70
0
  1
16
 13
75.61178406184399
 23
66.24470549807789
 33
0
 14
59.61178406184399
 24
52.30304828584756
 34
0
 53
0
  0
DIMENSION
  8
1
  6
CONTINUOUS
 62
2
  2
*D15
  3
DMST_9
 10
287.5301881095501
 20
187.472518689743
 30
0
 11
285.8401881095501
 21
202.725165722519
 31
0
 12
0
 22
0
 32
0
 70
0
  1
1
 13
294.8637919589403
 23
186.472518689743
 33
0
 14
293.8637919589403
 24
187.472518689743
 34
0
 50
90
 53
0
  0
DIMENSION
  8
1
  6
CONTINUOUS
 62
2
  2
*D16
  3
DMST_10
 10
162.594139163328
 20
223.257729463743
 30
0
 11
159.794139163328
 21
198.084527110395
 31
0
 12
0
 22
0
 32
0
 70
0
 13
135.991785734644
 23
167.257729463743
 33
0
 14
71.61178406184411
 24
223.257729463743
 34
0
 50
90
 53
0
  0
DIMENSION
  8
1
  6
CONTINUOUS
 62
2
  2
*D17
  3
DMST_10
 10
162.594139163328
 20
111.2577294637429
 30
0
 11
159.794139163328
 21
139.2577294637429
 31
0
 12
0
 22
0
 32
0
 70
0
 13
135.991785734644
 23
167.257729463743
 33
0
 14
73.24094918644289
 24
111.2577294637429
 34
0
 50
90
 53
0
  0
DIMENSION
  8
1
  6
CONTINUOUS
 62
2
  2
*D18
  3
DMST_11
 10
357.049733369444
 20
-97.98973190945699
 30
0
 11
390.7569755074719
 21
-142.7874128840979
 31
0
 12
0
 22
0
 32
0
 70
4
  1
6
 15
363.776745270691
 25
-107.9269000614247
 35
0
 40
0
 53
0
  0
DIMENSION
  8
1
  6
CONTINUOUS
 62
2
  2
*D19
  3
DMST_11
 10
127.8575185784439
 20
-89.36816121363808
 30
0
 11
115.7220888629943
 21
-77.23273149818844
 31
0
 12
0
 22
0
 32
0
 70
4
 15
127.0445214781166
 25
-88.78589347894953
 35
0
 40
0
 53
0
  0
DIMENSION
  8
1
  6
CONTINUOUS
 62
2
  2
*D20
  3
DMST_12
 10
66.50320343773225
 20
-102.7035186406986
 30
0
 11
97.83732105505222
 21
-138.208594283417
 31
0
 12
0
 22
0
 32
0
 70
3
  1
4
 15
68.72036468595572
 25
-106.0328122593775
 35
0
 40
0
 53
0
  0
DIMENSION
  8
1
  6
CONTINUOUS
 62
2
  2
*D21
  3
DMST_12
 10
-45.22508388650137
 20
-84.11662872686516
 30
0
 11
-68.6066642525696
 21
-37.4135613090456
 31
0
 12
0
 22
0
 32
0
 70
3
  1
4
 15
-47.55134798981065
 25
-80.61970217321078
 35
0
 40
0
 53
0
  0
DIMENSION
  8
1
  6
CONTINUOUS
 62
2
  2
*D22
  3
DMST_12
 10
63.81280373115479
 20
-94.78016637189445
 30
0
 11
85.78076324027938
 21
-74.19918627160259
 31
0
 12
0
 22
0
 32
0
 70
3
 15
71.4107643925332
 25
-89.95616452818148
 35
0
 40
0
 53
0
  0
INSERT
  8
0
  2
TOP__6
 10
-545.879095860652
 20
694.5504648666069
 30
0
  0
INSERT
  8
0
  2
_FRECCIA__2
 10
10.0622443901509
 20
305.919071477685
 30
0
  0
INSERT
  8
0
  2
_FRECCIA__1
 10
155.9752282895989
 20
144.139852136803
 30
0
  0
INSERT
  8
0
  2
_X7
 10
-17
 20
0
 30
0
  0
INSERT
  8
0
  2
_X6
 10
-17
 20
0
 30
0
  0
INSERT
  8
0
  2
TOP__3
 10
658.5676032156159
 20
-207.6948911362431
 30
0
  0
INSERT
  8
0
  2
_D0
 10
-224.268826811756
 20
-176.283699852257
 30
0
  0
INSERT
  8
1
  2
*D23
 10
0
 20
0
 30
0
  0
ENDSEC
  0
EOF
