  0
SECTION
  2
HEADER
  9
$ACADVER
  1
AC1009
  9
$INSBASE
 10
0
 20
0
  9
$EXTMIN
 10
-173.9999999893989
 20
0
  9
$EXTMAX
 10
420.0000000105999
 20
420
  9
$LIMMIN
 10
-173.9999999893989
 20
0
  9
$LIMMAX
 10
420.0000000105999
 20
420
  9
$VIEWCTR
 10
10
 20
10
  9
$VIEWSIZE
 40
10
  9
$SNAPMODE
 70
0
  9
$SNAPUNIT
 10
1
 20
1
  9
$SNAPBASE
 10
0
 20
0
  9
$SNAPANG
 50
0
  9
$SNAPSTYLE
 70
0
  9
$SNAPISOPAIR
 70
0
  9
$GRIDMODE
 70
0
  9
$GRIDUNIT
 10
0
 20
0
  9
$ORTHOMODE
 70
0
  9
$REGENMODE
 70
1
  9
$FILLMODE
 70
1
  9
$QTEXTMODE
 70
0
  9
$DRAGMODE
 70
2
  9
$LTSCALE
 40
1
  9
$OSMODE
 70
0
  9
$ATTMODE
 70
1
  9
$TEXTSIZE
 40
3.5
  9
$TRACEWID
 40
0.5
  9
$TEXTSTYLE
  7
STANDARD
  9
$CLAYER
  8
0
  9
$CELTYPE
  6
BYLAYER
  9
$CECOLOR
 62
256
  9
$DIMSCALE
 40
1
  9
$DIMASZ
 40
0.18
  9
$DIMEXO
 40
0.0625
  9
$DIMDLI
 40
0.38
  9
$DIMRND
 40
0
  9
$DIMDLE
 40
0
  9
$DIMEXE
 40
0.18
  9
$DIMTP
 40
0
  9
$DIMTM
 40
0
  9
$DIMTXT
 40
0.18
  9
$DIMCEN
 40
0.09
  9
$DIMTSZ
 40
0
  9
$DIMTOL
 70
0
  9
$DIMLIM
 70
0
  9
$DIMTIH
 70
1
  9
$DIMTOH
 70
1
  9
$DIMSE1
 70
0
  9
$DIMSE2
 70
0
  9
$DIMTAD
 70
0
  9
$DIMZIN
 70
0
  9
$DIMBLK
  1

  9
$DIMASO
 70
1
  9
$DIMSHO
 70
1
  9
$DIMPOST
  1

  9
$DIMAPOST
  1

  9
$DIMALT
 70
0
  9
$DIMALTD
 70
2
  9
$DIMALTF
 40
25.4
  9
$DIMLFAC
 40
1
  9
$DIMTOFL
 70
0
  9
$DIMTVP
 40
0
  9
$DIMTIX
 70
0
  9
$DIMSOXD
 70
0
  9
$DIMSAH
 70
0
  9
$DIMBLK1
  1

  9
$DIMBLK2
  1

  9
$DIMSTYLE
  2
*UNNAMED
  9
$DIMCLRD
 70
0
  9
$DIMCLRE
 70
0
  9
$DIMCLRT
 70
0
  9
$DIMTFAC
 40
1
  9
$DIMGAP
 40
0.09
  9
$LUNITS
 70
2
  9
$LUPREC
 70
4
  9
$AXISMODE
 70
0
  9
$AXISUNIT
 10
0
 20
0
  9
$SKETCHINC
 40
0.1
  9
$FILLETRAD
 40
2
  9
$AUNITS
 70
0
  9
$AUPREC
 70
0
  9
$MENU
  1
ACAD
  9
$ELEVATION
 40
0
  9
$THICKNESS
 40
0
  9
$VIEWDIR
 10
0
 20
0
 30
1
  9
$LIMCHECK
 70
0
  9
$BLIPMODE
 70
1
  9
$CHAMFERA
 40
0
  9
$CHAMFERB
 40
0
  9
$FASTZOOM
 70
1
  9
$SKPOLY
 70
0
  9
$ANGBASE
 50
0
  9
$ANGDIR
 70
0
  9
$PDMODE
 70
0
  9
$PDSIZE
 40
0
  9
$PLINEWID
 40
0
  9
$COORDS
 70
2
  0
ENDSEC
  0
SECTION
  2
TABLES
  0
TABLE
  2
DIMSTYLE
 70
13
  0
DIMSTYLE
  2
DMST_1
 70
0
  3
)
  4

  5

  6

  7

 40
1
 41
1.75
 42
0.5
 43
7
 44
0.5
 45
0
 46
0
 47
0
 48
0
140
1.75
141
0
142
0
143
25.4
144
1
145
0
146
1
147
0.09
 71
0
 72
0
 73
0
 74
0
 75
0
 76
0
 77
1
 78
1
170
0
171
2
172
0
173
0
174
0
175
0
176
2
177
2
178
2
  0
DIMSTYLE
  2
DMST_2
 70
0
  3

  4

  5

  6

  7

 40
1
 41
1.75
 42
0.5
 43
7
 44
0.5
 45
0
 46
0
 47
0
 48
0
140
1.75
141
0
142
0
143
25.4
144
1
145
0
146
0.7000000000000001
147
0.09
 71
1
 72
0
 73
0
 74
0
 75
0
 76
0
 77
1
 78
1
170
0
171
2
172
0
173
0
174
0
175
0
176
2
177
2
178
2
  0
DIMSTYLE
  2
DMST_3
 70
0
  3

  4

  5

  6

  7

 40
1
 41
1.75
 42
0.5
 43
7
 44
0.5
 45
0
 46
0
 47
0
 48
0
140
1.75
141
0
142
0
143
25.4
144
1
145
0
146
0.7000000000000001
147
0.09
 71
1
 72
0
 73
0
 74
0
 75
0
 76
0
 77
1
 78
1
170
0
171
2
172
1
173
0
174
0
175
0
176
2
177
2
178
2
  0
DIMSTYLE
  2
DMST_4
 70
0
  3

  4

  5

  6

  7

 40
1
 41
3.2
 42
1
 43
7
 44
1
 45
0
 46
0
 47
0
 48
0
140
3.2
141
0
142
0
143
25.4
144
1
145
0
146
1
147
0.09
 71
0
 72
0
 73
0
 74
0
 75
0
 76
0
 77
1
 78
9
170
0
171
2
172
0
173
0
174
0
175
0
176
2
177
2
178
2
  0
DIMSTYLE
  2
DMST_5
 70
0
  3
x45%%d
  4

  5

  6

  7

 40
1
 41
3.2
 42
1
 43
7
 44
1
 45
0
 46
0
 47
0
 48
0
140
3.2
141
0
142
0
143
25.4
144
1
145
0
146
1
147
0.09
 71
0
 72
0
 73
0
 74
0
 75
0
 76
0
 77
1
 78
1
170
0
171
2
172
0
173
0
174
0
175
0
176
2
177
2
178
2
  0
DIMSTYLE
  2
DMST_6
 70
0
  3

  4

  5

  6

  7

 40
1
 41
3.2
 42
1
 43
7
 44
1
 45
0
 46
0
 47
0
 48
0
140
3.2
141
0
142
0
143
25.4
144
1
145
0
146
1
147
0.09
 71
0
 72
0
 73
0
 74
0
 75
0
 76
0
 77
1
 78
1
170
0
171
2
172
0
173
0
174
0
175
0
176
2
177
2
178
2
  0
DIMSTYLE
  2
DMST_7
 70
0
  3

  4

  5

  6

  7

 40
1
 41
3.2
 42
1
 43
7
 44
1
 45
0
 46
0
 47
0
 48
0
140
3.2
141
0
142
0
143
25.4
144
1
145
0
146
0.5625
147
0.09
 71
1
 72
0
 73
0
 74
0
 75
0
 76
0
 77
1
 78
1
170
0
171
2
172
0
173
0
174
0
175
0
176
2
177
2
178
2
  0
DIMSTYLE
  2
DMST_8
 70
0
  3

  4

  5

  6

  7

 40
1
 41
3.2
 42
1
 43
7
 44
1
 45
0
 46
0
 47
0.15
 48
0.15
140
3.2
141
0
142
0
143
25.4
144
1
145
0
146
0.5625
147
0.09
 71
1
 72
0
 73
0
 74
0
 75
0
 76
0
 77
1
 78
1
170
0
171
2
172
0
173
0
174
0
175
0
176
2
177
2
178
2
  0
DIMSTYLE
  2
DMST_9
 70
0
  3

  4

  5

  6

  7

 40
1
 41
3.5
 42
2.6875
 43
7
 44
7.74
 45
0
 46
0
 47
0
 48
0
140
3.2
141
0
142
0
143
25.4
144
1
145
0
146
1
147
0.9
 71
0
 72
0
 73
0
 74
0
 75
0
 76
0
 77
0
 78
1
170
0
171
2
172
0
173
0
174
0
175
0
176
2
177
2
178
2
  0
DIMSTYLE
  2
DMST_10
 70
0
  3

  4

  5

  6

  7

 40
1
 41
3.5
 42
2.6875
 43
7
 44
7.74
 45
0
 46
0
 47
0
 48
0
140
3.5
141
0
142
0
143
25.4
144
1
145
0
146
1
147
0.9
 71
0
 72
0
 73
0
 74
0
 75
0
 76
0
 77
0
 78
1
170
0
171
2
172
0
173
0
174
0
175
0
176
2
177
2
178
2
  0
DIMSTYLE
  2
DMST_11
 70
0
  3

  4

  5

  6

  7

 40
1
 41
3.2
 42
1
 43
7
 44
1
 45
0
 46
0
 47
0
 48
0
140
3.2
141
0
142
0
143
25.4
144
1
145
0
146
1
147
0.09
 71
0
 72
0
 73
0
 74
0
 75
0
 76
0
 77
1
 78
1
170
0
171
2
172
1
173
0
174
0
175
0
176
2
177
2
178
2
  0
DIMSTYLE
  2
DMST_12
 70
0
  3

  4

  5

  6

  7

 40
1
 41
3.2
 42
1
 43
7
 44
1
 45
0
 46
0
 47
0
 48
0
140
3.2
141
0
142
0
143
25.4
144
1
145
0
146
1
147
0.09
 71
0
 72
0
 73
0
 74
0
 75
0
 76
0
 77
1
 78
9
170
0
171
2
172
1
173
0
174
0
175
0
176
2
177
2
178
2
  0
DIMSTYLE
  2
DMST_13
 70
0
  3

  4

  5

  6

  7

 40
1
 41
3.5
 42
1
 43
7
 44
1
 45
0
 46
0
 47
0
 48
0
140
3.5
141
0
142
0
143
25.4
144
1
145
0
146
0.7000000000000001
147
0.09
 71
1
 72
0
 73
0
 74
0
 75
0
 76
0
 77
1
 78
1
170
0
171
2
172
1
173
0
174
0
175
0
176
2
177
2
178
2
  0
ENDTAB
  0
TABLE
  2
LTYPE
 70
9
  0
LTYPE
  2
CONTINUOUS
 70
64
  3
Solid line
 72
65
 73
0
 40
0
  0
LTYPE
  2
BORDER
 70
64
  3
__ __ . __ __ .
 72
65
 73
6
 40
27.35526315789468
 49
7.815789473684194
 49
-3.907894736842097
 49
7.815789473684194
 49
-3.907894736842097
 49
0
 49
-3.907894736842097
  0
LTYPE
  2
CENTER
 70
64
  3
____ _ ____ _
 72
65
 73
4
 40
31.26315789473678
 49
19.53947368421049
 49
-3.907894736842097
 49
3.907894736842097
 49
-3.907894736842097
  0
LTYPE
  2
DASHDOT
 70
64
  3
__ . __ . __ .
 72
65
 73
4
 40
15.63157894736839
 49
7.815789473684194
 49
-3.907894736842097
 49
0
 49
-3.907894736842097
  0
LTYPE
  2
DASHED
 70
64
  3
__ __ __ __ __
 72
65
 73
2
 40
11.72368421052629
 49
7.815789473684194
 49
-3.907894736842097
  0
LTYPE
  2
DIVIDE
 70
64
  3
__ . . __ . . 
 72
65
 73
6
 40
19.53947368421049
 49
7.815789473684194
 49
-3.907894736842097
 49
0
 49
-3.907894736842097
 49
0
 49
-3.907894736842097
  0
LTYPE
  2
DOT
 70
64
  3
..............
 72
65
 73
4
 40
7.815789473684194
 49
0
 49
-3.907894736842097
 49
0
 49
-3.907894736842097
  0
LTYPE
  2
HIDDEN
 70
64
  3
_ _ _ _ _ _ _
 72
65
 73
2
 40
5.861842105263145
 49
3.907894736842097
 49
-1.953947368421048
  0
LTYPE
  2
PHANTOM
 70
64
  3
_____ _ _ _____ _ _ 
 72
65
 73
6
 40
39.07894736842097
 49
19.53947368421049
 49
-3.907894736842097
 49
3.907894736842097
 49
-3.907894736842097
 49
3.907894736842097
 49
-3.907894736842097
  0
ENDTAB
  0
TABLE
  2
LAYER
 70
4
  0
LAYER
  2
DEFAULT_1
 70
0
 62
7
  6
CONTINUOUS
  0
LAYER
  2
0
 70
0
 62
7
  6
CONTINUOUS
  0
LAYER
  2
1
 70
0
 62
7
  6
CONTINUOUS
  0
ENDTAB
  0
TABLE
  2
STYLE
 70
4
  0
STYLE
  2
STANDARD
 70
0
 40
0
 41
1
 50
0
 71
0
 42
3.5
  3
txt
  4

  0
STYLE
  2
SIMPLEX
 70
0
 40
0
 41
1
 50
0
 71
0
 42
3.5
  3
simplex
  4

  0
STYLE
  2
COMPLEX
 70
0
 40
0
 41
1
 50
0
 71
0
 42
3.5
  3
complex
  4

  0
STYLE
  2
ITALIC
 70
0
 40
0
 41
1
 50
0
 71
0
 42
3.5
  3
italic
  4

  0
ENDTAB
  0
TABLE
  2
VIEW
 70
0
  0
ENDTAB
  0
ENDSEC
  0
SECTION
  2
BLOCKS
  0
BLOCK
  8
0
  2
TOP__2
 70
0
 10
420.0000000105999
 20
0
 30
0
  0
LINE
  8
1
 62
7
 10
392.3359098604919
 20
15
 30
0
 11
415.0000000105999
 21
15
 31
0
  0
LINE
  8
1
 62
7
 10
367.3359098604919
 20
45
 30
0
 11
392.3359098604919
 21
45
 31
0
  0
LINE
  8
1
 62
2
 10
387.8000672096609
 20
289.9475140491231
 30
0
 11
415.0000000105999
 21
289.9475140491231
 31
0
  0
LINE
  8
1
 62
2
 10
390.101975269986
 20
289.9475140491231
 30
0
 11
390.101975269986
 21
180.566299957027
 31
0
  0
LINE
  8
1
 62
2
 10
394.2516460600959
 20
289.9475140491231
 30
0
 11
394.2516460600959
 21
180.566299957027
 31
0
  0
LINE
  8
1
 62
2
 10
402.5509876403
 20
289.9475140491231
 30
0
 11
402.5509876403
 21
180.566299957027
 31
0
  0
LINE
  8
1
 62
2
 10
410.850329220506
 20
289.9475140491231
 30
0
 11
410.850329220506
 21
180.566299957027
 31
0
  0
LINE
  8
1
 62
7
 10
324.03525132461
 20
48
 30
0
 11
324.03525132461
 21
36
 31
0
  0
LINE
  8
1
 62
2
 10
406.7006584304011
 20
180.566299957027
 30
0
 11
406.7006584304011
 21
289.9475140491231
 31
0
  0
LINE
  8
1
 62
2
 10
398.4013168502051
 20
180.566299957027
 30
0
 11
398.4013168502051
 21
289.9475140491231
 31
0
  0
LINE
  8
1
 62
7
 10
415.0000000105999
 20
177.5850585104631
 30
0
 11
415.0000000105999
 21
180.566299957027
 31
0
  0
LINE
  8
1
 62
2
 10
415.0000000105999
 20
177.5850585104631
 30
0
 11
387.7002266973211
 21
177.5850585104631
 31
0
  0
LINE
  8
1
 62
2
 10
390.101975269986
 20
177.5850585104631
 30
0
 11
390.101975269986
 21
70
 31
0
  0
LINE
  8
1
 62
2
 10
394.2516460600959
 20
177.5850585104631
 30
0
 11
394.2516460600959
 21
70
 31
0
  0
LINE
  8
1
 62
2
 10
402.5509876403
 20
177.5850585104631
 30
0
 11
402.5509876403
 21
70
 31
0
  0
LINE
  8
1
 62
2
 10
410.850329220506
 20
177.5850585104631
 30
0
 11
410.850329220506
 21
70
 31
0
  0
LINE
  8
1
 62
2
 10
390.101975269986
 20
289.9475140491231
 30
0
 11
390.101975269986
 21
187.6211057707321
 31
0
  0
LINE
  8
1
 62
2
 10
387.7002266973211
 20
180.566299957027
 30
0
 11
415.0000000105999
 21
180.566299957027
 31
0
  0
LINE
  8
1
 62
2
 10
390.101975269986
 20
220.5487347879912
 30
0
 11
415.0000000105999
 21
220.5487347879912
 31
0
  0
LINE
  8
1
 62
2
 10
390.101975269986
 20
203.2178919941271
 30
0
 11
415.0000000105999
 21
203.2178919941271
 31
0
  0
LINE
  8
1
 62
2
 10
390.101975269986
 20
187.6211057707321
 30
0
 11
415.0000000105999
 21
187.6211057707321
 31
0
  0
LINE
  8
1
 62
2
 10
390.101975269986
 20
109.5487347879912
 30
0
 11
415.0000000105999
 21
109.5487347879912
 31
0
  0
LINE
  8
1
 62
2
 10
390.101975269986
 20
92.21789199412706
 30
0
 11
415.0000000105999
 21
92.21789199412706
 31
0
  0
LINE
  8
1
 62
2
 10
390.101975269986
 20
76.62110577073213
 30
0
 11
415.0000000105999
 21
76.62110577073213
 31
0
  0
LINE
  8
1
 62
7
 10
298.7388268640641
 20
58
 30
0
 11
298.7388268640641
 21
48
 31
0
  0
LINE
  8
1
 62
7
 10
265.0000000105999
 20
48
 30
0
 11
367.3359098604919
 21
48
 31
0
  0
LINE
  8
1
 62
7
 10
252.0534708876
 20
20.41070463620213
 30
0
 11
252.0534708876
 21
5
 31
0
  0
LINE
  8
1
 62
2
  6
DOT
 10
322.10917356803
 20
40
 30
0
 11
267.8069101127551
 21
40
 31
0
  0
LINE
  8
1
 62
2
  6
DOT
 10
290.1405718098899
 20
44
 30
0
 11
322.10917356803
 21
44
 31
0
  0
LINE
  8
1
 62
2
 10
398.4013168502051
 20
70
 30
0
 11
398.4013168502051
 21
177.5850585104631
 31
0
  0
LINE
  8
1
 62
7
 10
215.0000000105999
 20
70
 30
0
 11
415.0000000105999
 21
70
 31
0
  0
LINE
  8
1
 62
2
 10
406.7006584304011
 20
70
 30
0
 11
406.7006584304011
 21
177.5850585104631
 31
0
  0
LINE
  8
1
 62
7
 10
215.0000000105999
 20
20.41070463620213
 30
0
 11
265.0000000105999
 21
20.41070463620213
 31
0
  0
LINE
  8
1
 62
7
 10
265.0000000105999
 20
30.01557913210809
 30
0
 11
215.0000000105999
 21
30.01557913210809
 31
0
  0
LINE
  8
1
 62
7
 10
215.0000000105999
 20
5
 30
0
 11
215.0000000105999
 21
70
 31
0
  0
LINE
  8
1
 62
2
  6
DOT
 10
262.538461549075
 20
66
 30
0
 11
300.5000000105999
 21
66
 31
0
  0
LINE
  8
1
 62
2
  6
DOT
 10
217.0000000105999
 20
62
 30
0
 11
300.5000000105999
 21
62
 31
0
  0
LINE
  8
1
 62
7
 10
392.3359098604919
 20
70
 30
0
 11
390.101975269986
 21
70
 31
0
  0
LINE
  8
1
 62
7
 10
392.3359098604919
 20
70
 30
0
 11
392.3359098604919
 21
5
 31
0
  0
LINE
  8
1
 62
7
 10
265.0000000105999
 20
58
 30
0
 11
265.0000000105999
 21
5
 31
0
  0
LINE
  8
1
 62
7
 10
392.3359098604919
 20
58
 30
0
 11
215.0000000105999
 21
58
 31
0
  0
LINE
  8
1
 62
7
 10
324.03525132461
 20
58
 30
0
 11
324.03525132461
 21
48
 31
0
  0
LINE
  8
1
 62
7
 10
344.2365456737959
 20
48
 30
0
 11
344.2365456737959
 21
36
 31
0
  0
LINE
  8
1
 62
7
 10
265.0000000105999
 20
36
 30
0
 11
367.3359098604919
 21
36
 31
0
  0
LINE
  8
1
 62
7
 10
302.5000000105999
 20
70
 30
0
 11
302.5000000105999
 21
58
 31
0
  0
LINE
  8
1
 62
7
 10
367.3359098604919
 20
5
 30
0
 11
367.3359098604919
 21
58
 31
0
  0
LINE
  8
1
 62
7
 10
367.3359098604919
 20
25
 30
0
 11
392.3359098604919
 21
25
 31
0
  0
LINE
  8
1
 62
2
 10
367.3359098604919
 20
15
 30
0
 11
392.3359098604919
 21
15
 31
0
  0
LINE
  8
1
 62
2
 10
367.3359098604919
 20
35
 30
0
 11
392.3359098604919
 21
35
 31
0
  0
LINE
  8
1
 62
2
  6
DOT
 10
304.5000000105999
 20
62
 30
0
 11
390.3359098604919
 21
62
 31
0
  0
LINE
  8
1
 62
2
  6
DOT
 10
349.1191567089261
 20
66
 30
0
 11
390.3359098604919
 21
66
 31
0
  0
LINE
  8
1
 62
7
 10
215.0000000105999
 20
39.62045362801609
 30
0
 11
265.0000000105999
 21
39.62045362801609
 31
0
  0
LINE
  8
1
 62
7
 10
344.2365456737959
 20
58
 30
0
 11
344.2365456737959
 21
48
 31
0
  0
LINE
  8
1
 62
7
 10
367.3359098604919
 20
15
 30
0
 11
265.0000000105999
 21
15
 31
0
  0
LINE
  8
1
 62
2
  6
DOT
 10
365.137387280248
 20
17.10000000000014
 30
0
 11
267.1920729422561
 21
17.10000000000014
 31
0
  0
LINE
  8
1
 62
2
  6
DOT
 10
267.299000141312
 20
23.40000000000009
 30
0
 11
364.923532882128
 21
23.40000000000009
 31
0
  0
LINE
  8
1
 62
2
  6
DOT
 10
267.299000141312
 20
29.70000000000209
 30
0
 11
365.030460081193
 21
29.70000000000209
 31
0
  0
LINE
  8
1
 62
7
 10
415.0000000105999
 20
297
 30
0
 11
420.0000000105999
 21
297
 31
0
  0
LINE
  8
1
 62
7
 10
-173.9999999893989
 20
297
 30
0
 11
-168.9999999893989
 21
297
 31
0
  0
LINE
  8
1
 62
7
 10
1.059993337548804e-008
 20
0
 30
0
 11
1.059993337548804e-008
 21
5
 31
0
  0
LINE
  8
1
 62
7
 10
210.0000000105999
 20
0
 30
0
 11
210.0000000105999
 21
5
 31
0
  0
LINE
  8
1
 62
7
 10
1.059993337548804e-008
 20
415
 30
0
 11
1.059993337548804e-008
 21
420
 31
0
  0
LINE
  8
1
 62
7
 10
-168.9999999893989
 20
415
 30
0
 11
-168.9999999893989
 21
5
 31
0
  0
LINE
  8
1
 62
7
 10
415.0000000105999
 20
415
 30
0
 11
-168.9999999893989
 21
415
 31
0
  0
LINE
  8
1
 62
7
 10
415.0000000105999
 20
5
 30
0
 11
415.0000000105999
 21
415
 31
0
  0
LINE
  8
1
 62
7
 10
-168.9999999893989
 20
5
 30
0
 11
415.0000000105999
 21
5
 31
0
  0
LINE
  8
1
 62
2
 10
-173.9999999893989
 20
420
 30
0
 11
-173.9999999893989
 21
0
 31
0
  0
LINE
  8
1
 62
2
 10
420.0000000105999
 20
420
 30
0
 11
-173.9999999893989
 21
420
 31
0
  0
LINE
  8
1
 62
2
 10
420.0000000105999
 20
0
 30
0
 11
420.0000000105999
 21
420
 31
0
  0
LINE
  8
1
 62
2
 10
-173.9999999893989
 20
0
 30
0
 11
420.0000000105999
 21
0
 31
0
  0
TEXT
  8
1
 62
2
 10
218.0515561647051
 20
47.31022681400714
 30
0
 40
4
  1
Rexnord Marbett
 41
0.7707149999999999
 51
9.999999999999996
  7
COMPLEX
  0
TEXT
  8
1
 62
2
 10
368.5228940840279
 20
32.4166121748341
 30
0
 40
1.2
  1
Data
 41
1.0692
  0
TEXT
  8
1
 62
2
 10
368.5228940840279
 20
29.7766121748341
 30
0
 40
1.2
  1
(Date)
 41
1.0692
  0
TEXT
  8
1
 62
2
 10
389.204803998337
 20
242.2244664535031
 30
0
 40
1.3
  1
Modifiche (Modifications)
 50
90
 41
1.0692
  0
TEXT
  8
1
 62
2
 10
389.5559160784771
 20
207.5389483126191
 30
0
 40
1.2
  1
(Draftsm.)
 50
90
 41
1.0692
  7
SIMPLEX
  0
TEXT
  8
1
 62
2
 10
387.8511713163559
 20
210.525990915557
 30
0
 40
1.2
  1
Dis.
 50
90
 41
1.0692
  0
TEXT
  8
1
 62
2
 10
387.7248939265689
 20
193.1239273335611
 30
0
 40
1.2
  1
Data
 50
90
 41
1.0692
  0
TEXT
  8
1
 62
2
 10
389.4296386886901
 20
192.5298143550121
 30
0
 40
1.2
  1
(Date)
 50
90
 41
1.0692
  7
SIMPLEX
  0
TEXT
  8
1
 62
2
 10
389.5559160784771
 20
182.071266288581
 30
0
 40
1.2
  1
(Ind.)
 50
90
 41
1.0692
  7
SIMPLEX
  0
TEXT
  8
1
 62
2
 10
387.8511713163559
 20
181.8414994910372
 30
0
 40
1.2
  1
Indic.
 50
90
 41
1.0692
  0
TEXT
  8
1
 62
2
 10
389.204803998337
 20
130.6033161752061
 30
0
 40
1.3
  1
Modifiche (Modifications)
 50
90
 41
1.0692
  0
TEXT
  8
1
 62
2
 10
389.5559160784771
 20
71.33216161744713
 30
0
 40
1.2
  1
(Ind.)
 50
90
 41
1.0692
  7
SIMPLEX
  0
TEXT
  8
1
 62
2
 10
387.8511713163559
 20
71.11808234463206
 30
0
 40
1.2
  1
Indic.
 50
90
 41
1.0692
  0
TEXT
  8
1
 62
2
 10
389.4296386886901
 20
81.56680680162208
 30
0
 40
1.2
  1
(Date)
 50
90
 41
1.0692
  7
SIMPLEX
  0
TEXT
  8
1
 62
2
 10
387.7248939265689
 20
81.929687251524
 30
0
 40
1.2
  1
Data
 50
90
 41
1.0692
  0
TEXT
  8
1
 62
2
 10
389.5559160784771
 20
96.66005918300812
 30
0
 40
1.2
  1
(Draftsm.)
 50
90
 41
1.0692
  7
SIMPLEX
  0
TEXT
  8
1
 62
2
 10
387.8511713163559
 20
98.77675761287605
 30
0
 40
1.2
  1
 Dis.
 50
90
 41
1.0692
  0
TEXT
  8
1
 62
2
 10
393.5167453182241
 20
12.65947560831809
 30
0
 40
1.2
  1
Foglio
 41
1.0692
  0
TEXT
  8
1
 62
2
 10
393.5167453182241
 20
10.01947560831809
 30
0
 40
1.2
  1
(Sheet)
 41
1.0692
  0
TEXT
  8
1
 62
2
 10
368.5228940840279
 20
12.4166121748341
 30
0
 40
1.2
  1
Data
 41
1.0692
  0
TEXT
  8
1
 62
2
 10
368.5228940840279
 20
9.776612174834099
 30
0
 40
1.2
  1
(Date)
 41
1.0692
  0
TEXT
  8
1
 62
2
 10
368.6354650435439
 20
22.57862902819819
 30
0
 40
1.2
  1
Contr.
 41
1.0692
  0
TEXT
  8
1
 62
2
 10
368.6354650435439
 20
19.93862902819819
 30
0
 40
1.2
  1
(Check)
 41
1.0692
  0
TEXT
  8
1
 62
2
 10
395.1077432068168
 20
17.13478758072711
 30
0
 40
1.180511166170861
  1
Proprieta' della Marbett S.p.A..
 50
90
 41
1.336500000000001
  0
TEXT
  8
1
 62
2
 10
397.7048677723927
 20
17.13478758072711
 30
0
 40
1.180511166170861
  1
Senza autorizzazione scritta della
 50
90
 41
1.336500000000001
  0
TEXT
  8
1
 62
2
 10
400.3019923379686
 20
17.13478758072711
 30
0
 40
1.180511166170861
  1
stessa il presente disegno non puo'
 50
90
 41
1.336500000000001
  0
TEXT
  8
1
 62
2
 10
402.8991169035444
 20
17.13478758072711
 30
0
 40
1.180511166170861
  1
essere comunque utilizzato per la
 50
90
 41
1.336500000000001
  0
TEXT
  8
1
 62
2
 10
405.4962414691203
 20
17.13478758072711
 30
0
 40
1.180511166170861
  1
costruzione dell'oggetto rappresentato,
 50
90
 41
1.336500000000001
  0
TEXT
  8
1
 62
2
 10
408.0933660346962
 20
17.13478758072711
 30
0
 40
1.180511166170861
  1
ne' venire comunicato a terzi o
 50
90
 41
1.336500000000001
  0
TEXT
  8
1
 62
2
 10
410.6904906002721
 20
17.13478758072711
 30
0
 40
1.180511166170861
  1
riprodotto. La Societa' proprietaria
 50
90
 41
1.336500000000001
  0
TEXT
  8
1
 62
2
 10
413.287615165848
 20
17.13478758072711
 30
0
 40
1.180511166170861
  1
tutela i propri diritti a rigore di legge.
 50
90
 41
1.336500000000001
  0
TEXT
  8
1
 62
2
 10
368.6354650435439
 20
42.61268046959221
 30
0
 40
1.2
  1
Dis.
 41
1.0692
  0
TEXT
  8
1
 62
2
 10
368.6354650435439
 20
39.97268046959221
 30
0
 40
1.2
  1
(Draftsm.)
 41
1.0692
  0
TEXT
  8
1
 62
2
 10
368.6354650435439
 20
55.27116510945315
 30
0
 40
1.2
  1
Scala
 41
1.0692
  0
TEXT
  8
1
 62
2
 10
368.6354650435439
 20
52.63116510945315
 30
0
 40
1.2
  1
(Scale)
 41
1.0692
  0
TEXT
  8
1
 62
2
 10
345.5326285346359
 20
45.65898050569207
 30
0
 40
1.2
  1
Ritiro %%%
 41
1.0692
  0
TEXT
  8
1
 62
2
 10
345.5326285346359
 20
43.01898050569207
 30
0
 40
1.2
  1
(Contraction %%%)
 41
1.0692
  0
TEXT
  8
1
 62
2
 10
325.5903999147361
 20
45.80379218868701
 30
0
 40
1.2
  1
Colore
 41
1.0692
  0
TEXT
  8
1
 62
2
 10
325.5903999147361
 20
43.16379218868701
 30
0
 40
1.2
  1
(Colour)
 41
1.0692
  0
TEXT
  8
1
 62
2
 10
345.6113180662021
 20
55.55260264123513
 30
0
 40
1.2
  1
Toll. Gen.
 41
1.0692
  0
TEXT
  8
1
 62
2
 10
345.662148788082
 20
52.86078818634019
 30
0
 40
1.2
  1
(Gen. Tol.)
 41
1.0692
  0
TEXT
  8
1
 62
2
 10
325.3379057832101
 20
55.44414964215102
 30
0
 40
1.3
  1
Peso
 41
1.0692
  0
TEXT
  8
1
 62
2
 10
325.3379057832101
 20
52.84414964215102
 30
0
 40
1.3
  1
(Weight)
 41
1.0692
  0
TEXT
  8
1
 62
2
 10
305.5000000105999
 20
66
 30
0
 40
1.3
  1
Tratt. superfic. (Surface treatments)
 41
0.9801
  0
TEXT
  8
1
 62
2
 10
300.021352993743
 20
55.77898241091111
 30
0
 40
1.3
  1
Linea
 41
1.0692
  0
TEXT
  8
1
 62
2
 10
299.709033130245
 20
53.01615791076506
 30
0
 40
1.2
  1
(Line)
 41
1.0692
  0
TEXT
  8
1
 62
2
 10
268.0000000105999
 20
44.79402870435501
 30
0
 40
1.2
  1
Materiale (Mat.)
 41
1.0692
  0
TEXT
  8
1
 62
2
 10
267.9938314689759
 20
31
 30
0
 40
1.5
  1
Descrizione (Description)
 41
0.8910000000000001
  0
TEXT
  8
1
 62
2
 10
267.5128545394221
 20
11.84104038687701
 30
0
 40
1.5
  1
Progetto (Project)
 41
0.8910000000000001
  0
TEXT
  8
1
 62
2
 10
253.2499647535151
 20
15.39678441399201
 30
0
 40
1.2
  1
(Modific.)
 41
1.3365
  0
TEXT
  8
1
 62
2
 10
254.1291694253571
 20
17.58074928815813
 30
0
 40
1.3
  1
Modifica
 41
1.0692
  0
TEXT
  8
1
 62
2
 10
216.200000010602
 20
12.57893325840405
 30
0
 40
1.2
  1
N%%d
 41
0.891
  0
TEXT
  8
1
 62
2
 10
216.116802451603
 20
17.77399295474915
 30
0
 40
1.2
  1
Disegno o stp.
 41
1.3365
  0
TEXT
  8
1
 62
2
 10
216.116802451603
 20
15.13399295474915
 30
0
 40
1.2
  1
(Drawing or mould)
 41
1.3365
  0
TEXT
  8
1
 62
2
 10
216.200000010602
 20
22.05238008660808
 30
0
 40
1.2
  1
N%%d
 41
0.891
  0
TEXT
  8
1
 62
2
 10
216.116802451603
 20
27.8448965530671
 30
0
 40
1.2
  1
Dis. Complessivo
 41
1.3365
  0
TEXT
  8
1
 62
2
 10
216.116802451603
 20
25.2048965530671
 30
0
 40
1.2
  1
(Assembly drawing)
 41
1.3365
  0
TEXT
  8
1
 62
2
 10
216.200000010602
 20
32.17596542263004
 30
0
 40
1.2
  1
N%%d
 41
0.891
  0
TEXT
  8
1
 62
2
 10
216.1802207204889
 20
37.02848207921501
 30
0
 40
1.2
  1
Dis. Cliente
 41
1.3365
  0
TEXT
  8
1
 62
2
 10
216.1802207204889
 20
34.38848207921501
 30
0
 40
1.2
  1
(Customer Drawing)
 41
1.3365
  0
TEXT
  8
1
 62
2
 10
218.0000000106011
 20
66
 30
0
 40
1.2
  1
Tratt. termici (Heat treatments)
 41
1.3365
  0
TEXT
  8
1
 62
2
 10
268.4172132226449
 20
51.89827344550713
 30
0
 40
2.5
  1
UFFICI TECNICI
 41
0.891
  0
TEXT
  8
1
 62
2
 10
402.2438731535151
 20
1.290611723640041
 30
0
 40
2
  1
 UNI A/2
 41
0.891
  0
ENDBLK
  8
0
  0
BLOCK
  8
0
  2
_X4
 70
0
 10
-8.500000000000085
 20
0
 30
0
  0
LINE
  8
1
 62
2
 10
-88.41177412048376
 20
266.5879643537323
 30
0
 11
-89.57141187830331
 21
267.7476021115518
 31
0
  0
LINE
  8
1
 62
2
 10
-87.58301860579678
 20
265.7592088390453
 30
0
 11
-88.2420363498652
 21
266.4182265831137
 31
0
  0
LINE
  8
1
 62
2
 10
-88.41177412048378
 20
268.7092846972919
 30
0
 11
-89.97134776076729
 21
270.2688583375755
 31
0
  0
LINE
  8
1
 62
2
 10
-85.05912361962464
 20
265.3566341964328
 30
0
 11
-86.12071600630557
 21
266.4182265831137
 31
0
  0
LINE
  8
1
 62
2
 10
-88.41177412048381
 20
270.8306050408516
 30
0
 11
-89.54984606201806
 21
271.9686769823858
 31
0
  0
LINE
  8
1
 62
2
 10
-83.74318448631517
 20
266.1620154066829
 30
0
 11
-84.41177412048383
 21
266.8306050408515
 31
0
  0
LINE
  8
1
 62
2
 10
-88.41177412048384
 20
272.9519253844113
 30
0
 11
-89.87807531918631
 21
274.4182265831137
 31
0
  0
LINE
  8
1
 62
2
 10
-82.90794328831606
 20
267.4480945522434
 30
0
 11
-84.41177412048383
 21
268.9519253844112
 31
0
  0
LINE
  8
1
 62
2
 10
-83.71579810331156
 20
270.3772697107986
 30
0
 11
-84.41177412048383
 21
271.0732457279709
 31
0
  0
LINE
  8
1
 62
2
 10
-83.11189971510264
 20
271.8946916661493
 30
0
 11
-84.41177412048383
 21
273.1945660715305
 31
0
  0
LINE
  8
1
 62
2
 10
-83.21753220224976
 20
274.1216444968561
 30
0
 11
-83.51411428850734
 21
274.4182265831137
 31
0
  0
ENDBLK
  8
0
  0
BLOCK
  8
0
  2
_X5
 70
0
 10
-8.500000000000085
 20
0
 30
0
  0
LINE
  8
1
 62
2
 10
-89.31144564993727
 20
281.9343330987617
 30
0
 11
-87.47639477555934
 21
283.7693839731396
 31
0
  0
LINE
  8
1
 62
2
 10
-86.7062318220257
 20
282.4182265831136
 30
0
 11
-85.8330664029196
 21
283.2913920022197
 31
0
  0
LINE
  8
1
 62
2
 10
-89.66729777605445
 20
279.4571606290849
 30
0
 11
-88.51177412048381
 21
280.6126842846555
 31
0
  0
LINE
  8
1
 62
2
 10
-84.58491147846605
 20
282.4182265831136
 30
0
 11
-83.55676138227297
 21
283.4463766793067
 31
0
  0
LINE
  8
1
 62
2
 10
-89.94085915833389
 20
277.0622789032458
 30
0
 11
-88.51177412048375
 21
278.4913639410959
 31
0
  0
LINE
  8
1
 62
2
 10
-84.31177412048403
 20
280.570043597536
 30
0
 11
-83.24156439828364
 21
281.6402533197364
 31
0
  0
LINE
  8
1
 62
2
 10
-89.61289468595022
 20
275.2689230320698
 30
0
 11
-88.51177412048369
 21
276.3700435975363
 31
0
  0
LINE
  8
1
 62
2
 10
-84.31177412048403
 20
278.4487232539764
 30
0
 11
-83.14093419596739
 21
279.619563178493
 31
0
  0
LINE
  8
1
 62
2
 10
-84.31177412048403
 20
276.3274029104167
 30
0
 11
-83.17058401438992
 21
277.4685930165108
 31
0
  0
LINE
  8
1
 62
2
 10
-84.09963010422739
 20
274.4182265831137
 30
0
 11
-83.33062659818387
 21
275.1872300891573
 31
0
  0
ENDBLK
  8
0
  0
BLOCK
  8
0
  2
_X0
 70
0
 10
0
 20
0
 30
0
  0
LINE
  8
1
 62
2
 10
-50.89766145879182
 20
359.3376394123654
 30
0
 11
-50.91177412048364
 21
359.3517520740563
 31
0
  0
LINE
  8
1
 62
2
 10
-50.80800391157501
 20
359.3894032213859
 30
0
 11
-50.91177412048364
 21
359.4931734302936
 31
0
  0
LINE
  8
1
 62
2
 10
-50.71834636435821
 20
359.4411670304064
 30
0
 11
-50.91177412048364
 21
359.6345947865308
 31
0
  0
LINE
  8
1
 62
2
 10
-50.62868881714141
 20
359.4929308394269
 30
0
 11
-50.91177412048364
 21
359.7760161427681
 31
0
  0
LINE
  8
1
 62
2
 10
-50.53903126992461
 20
359.5446946484474
 30
0
 11
-50.91177412048364
 21
359.9174374990054
 31
0
  0
LINE
  8
1
 62
2
 10
-50.4493737227078
 20
359.5964584574679
 30
0
 11
-50.91177412048364
 21
360.0588588552427
 31
0
  0
LINE
  8
1
 62
2
 10
-50.359716175491
 20
359.6482222664883
 30
0
 11
-50.91177412048364
 21
360.20028021148
 31
0
  0
LINE
  8
1
 62
2
 10
-50.2700586282742
 20
359.6999860755088
 30
0
 11
-50.91177412048364
 21
360.3417015677173
 31
0
  0
LINE
  8
1
 62
2
 10
-50.1804010810574
 20
359.7517498845293
 30
0
 11
-50.91177412048364
 21
360.4831229239546
 31
0
  0
LINE
  8
1
 62
2
 10
-50.09074353384059
 20
359.8035136935498
 30
0
 11
-50.91177412048364
 21
360.6245442801919
 31
0
  0
LINE
  8
1
 62
2
 10
-50.00108598662379
 20
359.8552775025703
 30
0
 11
-50.91177412048364
 21
360.7659656364291
 31
0
  0
LINE
  8
1
 62
2
 10
-49.91142843940699
 20
359.9070413115908
 30
0
 11
-50.91177412048364
 21
360.9073869926664
 31
0
  0
LINE
  8
1
 62
2
 10
-49.82177089219019
 20
359.9588051206113
 30
0
 11
-50.91177412048364
 21
361.0488083489037
 31
0
  0
LINE
  8
1
 62
2
 10
-49.73211334497338
 20
360.0105689296317
 30
0
 11
-50.91177412048364
 21
361.190229705141
 31
0
  0
LINE
  8
1
 62
2
 10
-49.64245579775658
 20
360.0623327386522
 30
0
 11
-50.91177412048364
 21
361.3316510613783
 31
0
  0
LINE
  8
1
 62
2
 10
-49.55279825053978
 20
360.1140965476727
 30
0
 11
-50.91177412048364
 21
361.4730724176156
 31
0
  0
LINE
  8
1
 62
2
 10
-49.46314070332298
 20
360.1658603566932
 30
0
 11
-50.91177412048364
 21
361.6144937738529
 31
0
  0
LINE
  8
1
 62
2
 10
-49.37348315610618
 20
360.2176241657137
 30
0
 11
-50.91177412048364
 21
361.7559151300902
 31
0
  0
LINE
  8
1
 62
2
 10
-49.28382560888937
 20
360.2693879747342
 30
0
 11
-50.91177412048364
 21
361.8973364863274
 31
0
  0
LINE
  8
1
 62
2
 10
-49.19416806167257
 20
360.3211517837547
 30
0
 11
-50.91177412048364
 21
362.0387578425647
 31
0
  0
LINE
  8
1
 62
2
 10
-49.10451051445577
 20
360.3729155927751
 30
0
 11
-50.91177412048364
 21
362.180179198802
 31
0
  0
LINE
  8
1
 62
2
 10
-49.01485296723897
 20
360.4246794017956
 30
0
 11
-50.91177412048364
 21
362.3216005550393
 31
0
  0
LINE
  8
1
 62
2
 10
-48.92519542002216
 20
360.4764432108161
 30
0
 11
-50.91177412048364
 21
362.4630219112766
 31
0
  0
LINE
  8
1
 62
2
 10
-48.83553787280536
 20
360.5282070198366
 30
0
 11
-50.91177412048364
 21
362.6044432675139
 31
0
  0
LINE
  8
1
 62
2
 10
-48.74588032558856
 20
360.5799708288571
 30
0
 11
-50.91177412048364
 21
362.7458646237512
 31
0
  0
LINE
  8
1
 62
2
 10
-48.65622277837176
 20
360.6317346378776
 30
0
 11
-50.91177412048364
 21
362.8872859799885
 31
0
  0
LINE
  8
1
 62
2
 10
-48.56656523115495
 20
360.6834984468981
 30
0
 11
-50.91177412048364
 21
363.0287073362258
 31
0
  0
LINE
  8
1
 62
2
 10
-48.47690768393815
 20
360.7352622559185
 30
0
 11
-50.82391364109062
 21
363.0822682130701
 31
0
  0
LINE
  8
1
 62
2
 10
-48.38725013672135
 20
360.787026064939
 30
0
 11
-50.68249228485331
 21
363.0822682130701
 31
0
  0
LINE
  8
1
 62
2
 10
-48.29759258950455
 20
360.8387898739595
 30
0
 11
-50.541070928616
 21
363.0822682130701
 31
0
  0
LINE
  8
1
 62
2
 10
-48.20793504228774
 20
360.89055368298
 30
0
 11
-50.39964957237869
 21
363.0822682130701
 31
0
  0
LINE
  8
1
 62
2
 10
-48.11827749507094
 20
360.9423174920005
 30
0
 11
-50.25822821614138
 21
363.0822682130701
 31
0
  0
LINE
  8
1
 62
2
 10
-48.02861994785414
 20
360.994081301021
 30
0
 11
-50.11680685990407
 21
363.0822682130701
 31
0
  0
LINE
  8
1
 62
2
 10
-47.93896240063734
 20
361.0458451100415
 30
0
 11
-49.97538550366676
 21
363.0822682130701
 31
0
  0
LINE
  8
1
 62
2
 10
-47.84930485342053
 20
361.0976089190619
 30
0
 11
-49.83396414742946
 21
363.0822682130701
 31
0
  0
LINE
  8
1
 62
2
 10
-47.75964730620373
 20
361.1493727280824
 30
0
 11
-49.69254279119215
 21
363.0822682130701
 31
0
  0
LINE
  8
1
 62
2
 10
-47.66998975898693
 20
361.2011365371029
 30
0
 11
-49.55112143495484
 21
363.0822682130701
 31
0
  0
LINE
  8
1
 62
2
 10
-47.58033221177013
 20
361.2529003461234
 30
0
 11
-49.40970007871753
 21
363.0822682130701
 31
0
  0
LINE
  8
1
 62
2
 10
-47.49067466455332
 20
361.3046641551439
 30
0
 11
-49.26827872248022
 21
363.0822682130701
 31
0
  0
LINE
  8
1
 62
2
 10
-47.40101711733652
 20
361.3564279641644
 30
0
 11
-49.12685736624291
 21
363.0822682130701
 31
0
  0
LINE
  8
1
 62
2
 10
-47.31135957011972
 20
361.4081917731849
 30
0
 11
-48.9854360100056
 21
363.0822682130701
 31
0
  0
LINE
  8
1
 62
2
 10
-47.22170202290292
 20
361.4599555822053
 30
0
 11
-48.84401465376829
 21
363.0822682130701
 31
0
  0
LINE
  8
1
 62
2
 10
-47.13204447568611
 20
361.5117193912258
 30
0
 11
-48.70259329753098
 21
363.0822682130701
 31
0
  0
LINE
  8
1
 62
2
 10
-47.04238692846931
 20
361.5634832002463
 30
0
 11
-48.56117194129367
 21
363.0822682130701
 31
0
  0
LINE
  8
1
 62
2
 10
-46.95272938125251
 20
361.6152470092668
 30
0
 11
-48.41975058505636
 21
363.0822682130701
 31
0
  0
LINE
  8
1
 62
2
 10
-46.86307183403571
 20
361.6670108182873
 30
0
 11
-48.27832922881905
 21
363.0822682130701
 31
0
  0
LINE
  8
1
 62
2
 10
-46.77341428681891
 20
361.7187746273078
 30
0
 11
-48.13690787258174
 21
363.0822682130701
 31
0
  0
LINE
  8
1
 62
2
 10
-46.6837567396021
 20
361.7705384363283
 30
0
 11
-47.99548651634444
 21
363.0822682130701
 31
0
  0
LINE
  8
1
 62
2
 10
-46.5940991923853
 20
361.8223022453487
 30
0
 11
-47.85406516010713
 21
363.0822682130701
 31
0
  0
LINE
  8
1
 62
2
 10
-46.5044416451685
 20
361.8740660543692
 30
0
 11
-47.71264380386982
 21
363.0822682130701
 31
0
  0
LINE
  8
1
 62
2
 10
-46.4147840979517
 20
361.9258298633897
 30
0
 11
-47.57122244763251
 21
363.0822682130701
 31
0
  0
LINE
  8
1
 62
2
 10
-46.32512655073489
 20
361.9775936724102
 30
0
 11
-47.4298010913952
 21
363.0822682130701
 31
0
  0
LINE
  8
1
 62
2
 10
-46.23546900351809
 20
362.0293574814307
 30
0
 11
-47.28837973515789
 21
363.0822682130701
 31
0
  0
LINE
  8
1
 62
2
 10
-46.14581145630129
 20
362.0811212904512
 30
0
 11
-47.14695837892058
 21
363.0822682130701
 31
0
  0
LINE
  8
1
 62
2
 10
-46.05615390908449
 20
362.1328850994717
 30
0
 11
-47.00553702268327
 21
363.0822682130701
 31
0
  0
LINE
  8
1
 62
2
 10
-45.96649636186768
 20
362.1846489084921
 30
0
 11
-46.86411566644596
 21
363.0822682130701
 31
0
  0
LINE
  8
1
 62
2
 10
-45.87683881465088
 20
362.2364127175126
 30
0
 11
-46.72269431020865
 21
363.0822682130701
 31
0
  0
LINE
  8
1
 62
2
 10
-45.78718126743408
 20
362.2881765265331
 30
0
 11
-46.58127295397134
 21
363.0822682130701
 31
0
  0
LINE
  8
1
 62
2
 10
-45.69752372021728
 20
362.3399403355536
 30
0
 11
-46.43985159773403
 21
363.0822682130701
 31
0
  0
LINE
  8
1
 62
2
 10
-45.60786617300047
 20
362.3917041445741
 30
0
 11
-46.29843024149672
 21
363.0822682130701
 31
0
  0
LINE
  8
1
 62
2
 10
-45.51820862578367
 20
362.4434679535946
 30
0
 11
-46.15700888525942
 21
363.0822682130701
 31
0
  0
LINE
  8
1
 62
2
 10
-45.42855107856687
 20
362.495231762615
 30
0
 11
-46.01558752902211
 21
363.0822682130701
 31
0
  0
LINE
  8
1
 62
2
 10
-45.33889353135007
 20
362.5469955716355
 30
0
 11
-45.8741661727848
 21
363.0822682130701
 31
0
  0
LINE
  8
1
 62
2
 10
-45.24923598413326
 20
362.598759380656
 30
0
 11
-45.73274481654749
 21
363.0822682130701
 31
0
  0
LINE
  8
1
 62
2
 10
-45.15957843691646
 20
362.6505231896765
 30
0
 11
-45.59132346031018
 21
363.0822682130701
 31
0
  0
LINE
  8
1
 62
2
 10
-45.06992088969966
 20
362.702286998697
 30
0
 11
-45.44990210407287
 21
363.0822682130701
 31
0
  0
LINE
  8
1
 62
2
 10
-44.98026334248286
 20
362.7540508077175
 30
0
 11
-45.30848074783556
 21
363.0822682130701
 31
0
  0
LINE
  8
1
 62
2
 10
-44.89060579526605
 20
362.805814616738
 30
0
 11
-45.16705939159825
 21
363.0822682130701
 31
0
  0
LINE
  8
1
 62
2
 10
-44.80094824804925
 20
362.8575784257584
 30
0
 11
-45.02563803536094
 21
363.0822682130701
 31
0
  0
LINE
  8
1
 62
2
 10
-44.71129070083245
 20
362.9093422347789
 30
0
 11
-44.88421667912363
 21
363.0822682130701
 31
0
  0
LINE
  8
1
 62
2
 10
-44.62163315361565
 20
362.9611060437994
 30
0
 11
-44.74279532288632
 21
363.0822682130701
 31
0
  0
LINE
  8
1
 62
2
 10
-44.53197560639885
 20
363.0128698528199
 30
0
 11
-44.60137396664901
 21
363.0822682130701
 31
0
  0
LINE
  8
1
 62
2
 10
-44.44231805918204
 20
363.0646336618404
 30
0
 11
-44.4599526104117
 21
363.0822682130701
 31
0
  0
ENDBLK
  8
0
  0
BLOCK
  8
0
  2
_FRECCIA__3
 70
0
 10
-44.41177412048364
 20
363.0822682130701
 30
0
  0
LINE
  8
1
 62
7
 10
-44.41177412048364
 20
363.0822682130701
 30
0
 11
-50.91177412048364
 21
359.3294914633375
 31
0
  0
LINE
  8
1
 62
7
 10
-50.91177412048364
 20
359.3294914633375
 30
0
 11
-50.91177412048364
 21
363.0822682130701
 31
0
  0
LINE
  8
1
 62
7
 10
-44.41177412048364
 20
363.0822682130701
 30
0
 11
-59.41177412048364
 21
363.0822682130701
 31
0
  0
LINE
  8
1
 62
7
 10
-50.91177412048364
 20
363.0822682130701
 30
0
 11
-50.91177412048364
 21
366.8350449628025
 31
0
  0
LINE
  8
1
 62
7
 10
-50.91177412048364
 20
366.8350449628025
 30
0
 11
-44.41177412048364
 21
363.0822682130701
 31
0
  0
TEXT
  8
1
 62
7
 10
-56.7397465706548
 20
364.9948840963248
 30
0
 40
3.5
  1
A
 41
0.8910000000000004
  0
INSERT
  8
0
  2
_X0
 10
0
 20
0
 30
0
  0
ENDBLK
  8
0
  0
BLOCK
  8
0
  2
_X1
 70
0
 10
0
 20
0
 30
0
  0
LINE
  8
1
 62
2
 10
36.13768932709928
 20
267.9182265831162
 30
0
 11
36.09084587858461
 21
267.9650700316309
 31
0
  0
LINE
  8
1
 62
2
 10
36.27911068333659
 20
267.9182265831162
 30
0
 11
36.14260968760512
 21
268.0547275788477
 31
0
  0
LINE
  8
1
 62
2
 10
36.4205320395739
 20
267.9182265831162
 30
0
 11
36.19437349662562
 21
268.1443851260645
 31
0
  0
LINE
  8
1
 62
2
 10
36.56195339581121
 20
267.9182265831162
 30
0
 11
36.24613730564613
 21
268.2340426732813
 31
0
  0
LINE
  8
1
 62
2
 10
36.70337475204852
 20
267.9182265831162
 30
0
 11
36.29790111466664
 21
268.3237002204981
 31
0
  0
LINE
  8
1
 62
2
 10
36.84479610828583
 20
267.9182265831162
 30
0
 11
36.34966492368714
 21
268.4133577677149
 31
0
  0
LINE
  8
1
 62
2
 10
36.98621746452314
 20
267.9182265831162
 30
0
 11
36.40142873270765
 21
268.5030153149317
 31
0
  0
LINE
  8
1
 62
2
 10
37.12763882076045
 20
267.9182265831162
 30
0
 11
36.45319254172816
 21
268.5926728621485
 31
0
  0
LINE
  8
1
 62
2
 10
37.26906017699775
 20
267.9182265831162
 30
0
 11
36.50495635074866
 21
268.6823304093653
 31
0
  0
LINE
  8
1
 62
2
 10
37.41048153323506
 20
267.9182265831162
 30
0
 11
36.55672015976917
 21
268.7719879565821
 31
0
  0
LINE
  8
1
 62
2
 10
37.55190288947237
 20
267.9182265831162
 30
0
 11
36.60848396878968
 21
268.8616455037989
 31
0
  0
LINE
  8
1
 62
2
 10
37.69332424570968
 20
267.9182265831162
 30
0
 11
36.66024777781018
 21
268.9513030510157
 31
0
  0
LINE
  8
1
 62
2
 10
37.83474560194699
 20
267.9182265831162
 30
0
 11
36.71201158683069
 21
269.0409605982325
 31
0
  0
LINE
  8
1
 62
2
 10
37.9761669581843
 20
267.9182265831162
 30
0
 11
36.7637753958512
 21
269.1306181454493
 31
0
  0
LINE
  8
1
 62
2
 10
38.11758831442161
 20
267.9182265831162
 30
0
 11
36.8155392048717
 21
269.2202756926661
 31
0
  0
LINE
  8
1
 62
2
 10
38.25900967065892
 20
267.9182265831162
 30
0
 11
36.86730301389221
 21
269.3099332398829
 31
0
  0
LINE
  8
1
 62
2
 10
38.40043102689623
 20
267.9182265831162
 30
0
 11
36.91906682291272
 21
269.3995907870997
 31
0
  0
LINE
  8
1
 62
2
 10
38.54185238313354
 20
267.9182265831162
 30
0
 11
36.97083063193323
 21
269.4892483343165
 31
0
  0
LINE
  8
1
 62
2
 10
38.68327373937085
 20
267.9182265831162
 30
0
 11
37.02259444095373
 21
269.5789058815333
 31
0
  0
LINE
  8
1
 62
2
 10
38.82469509560816
 20
267.9182265831162
 30
0
 11
37.07435824997424
 21
269.6685634287501
 31
0
  0
LINE
  8
1
 62
2
 10
38.96611645184547
 20
267.9182265831162
 30
0
 11
37.12612205899475
 21
269.7582209759669
 31
0
  0
LINE
  8
1
 62
2
 10
39.10753780808277
 20
267.9182265831162
 30
0
 11
37.17788586801525
 21
269.8478785231837
 31
0
  0
LINE
  8
1
 62
2
 10
39.24895916432008
 20
267.9182265831162
 30
0
 11
37.22964967703576
 21
269.9375360704005
 31
0
  0
LINE
  8
1
 62
2
 10
39.39038052055739
 20
267.9182265831162
 30
0
 11
37.28141348605627
 21
270.0271936176173
 31
0
  0
LINE
  8
1
 62
2
 10
39.5318018767947
 20
267.9182265831162
 30
0
 11
37.33317729507677
 21
270.1168511648341
 31
0
  0
LINE
  8
1
 62
2
 10
39.67322323303201
 20
267.9182265831162
 30
0
 11
37.38494110409728
 21
270.2065087120509
 31
0
  0
LINE
  8
1
 62
2
 10
39.81464458926932
 20
267.9182265831162
 30
0
 11
37.43670491311779
 21
270.2961662592677
 31
0
  0
LINE
  8
1
 62
2
 10
39.81657755070781
 20
268.057714977916
 30
0
 11
37.48846872213829
 21
270.3858238064846
 31
0
  0
LINE
  8
1
 62
2
 10
39.81657755070781
 20
268.1991363341533
 30
0
 11
37.5402325311588
 21
270.4754813537014
 31
0
  0
LINE
  8
1
 62
2
 10
39.81657755070781
 20
268.3405576903906
 30
0
 11
37.59199634017931
 21
270.5651389009182
 31
0
  0
LINE
  8
1
 62
2
 10
39.81657755070781
 20
268.4819790466279
 30
0
 11
37.64376014919981
 21
270.654796448135
 31
0
  0
LINE
  8
1
 62
2
 10
39.81657755070781
 20
268.6234004028652
 30
0
 11
37.69552395822032
 21
270.7444539953518
 31
0
  0
LINE
  8
1
 62
2
 10
39.81657755070781
 20
268.7648217591025
 30
0
 11
37.74728776724083
 21
270.8341115425686
 31
0
  0
LINE
  8
1
 62
2
 10
39.81657755070781
 20
268.9062431153397
 30
0
 11
37.79905157626133
 21
270.9237690897854
 31
0
  0
LINE
  8
1
 62
2
 10
39.81657755070781
 20
269.047664471577
 30
0
 11
37.85081538528184
 21
271.0134266370022
 31
0
  0
LINE
  8
1
 62
2
 10
39.81657755070781
 20
269.1890858278143
 30
0
 11
37.90257919430235
 21
271.103084184219
 31
0
  0
LINE
  8
1
 62
2
 10
39.81657755070781
 20
269.3305071840516
 30
0
 11
37.95434300332285
 21
271.1927417314358
 31
0
  0
LINE
  8
1
 62
2
 10
39.81657755070781
 20
269.4719285402889
 30
0
 11
38.00610681234336
 21
271.2823992786526
 31
0
  0
LINE
  8
1
 62
2
 10
39.81657755070781
 20
269.6133498965262
 30
0
 11
38.05787062136387
 21
271.3720568258694
 31
0
  0
LINE
  8
1
 62
2
 10
39.81657755070781
 20
269.7547712527635
 30
0
 11
38.10963443038438
 21
271.4617143730862
 31
0
  0
LINE
  8
1
 62
2
 10
39.81657755070781
 20
269.8961926090008
 30
0
 11
38.16139823940488
 21
271.551371920303
 31
0
  0
LINE
  8
1
 62
2
 10
39.81657755070781
 20
270.0376139652381
 30
0
 11
38.21316204842539
 21
271.6410294675198
 31
0
  0
LINE
  8
1
 62
2
 10
39.81657755070781
 20
270.1790353214753
 30
0
 11
38.2649258574459
 21
271.7306870147366
 31
0
  0
LINE
  8
1
 62
2
 10
39.81657755070781
 20
270.3204566777126
 30
0
 11
38.3166896664664
 21
271.8203445619534
 31
0
  0
LINE
  8
1
 62
2
 10
39.81657755070781
 20
270.4618780339499
 30
0
 11
38.36845347548691
 21
271.9100021091702
 31
0
  0
LINE
  8
1
 62
2
 10
39.81657755070781
 20
270.6032993901872
 30
0
 11
38.42021728450742
 21
271.999659656387
 31
0
  0
LINE
  8
1
 62
2
 10
39.81657755070781
 20
270.7447207464245
 30
0
 11
38.47198109352792
 21
272.0893172036038
 31
0
  0
LINE
  8
1
 62
2
 10
39.81657755070781
 20
270.8861421026618
 30
0
 11
38.52374490254843
 21
272.1789747508206
 31
0
  0
LINE
  8
1
 62
2
 10
39.81657755070781
 20
271.0275634588991
 30
0
 11
38.57550871156894
 21
272.2686322980374
 31
0
  0
LINE
  8
1
 62
2
 10
39.81657755070781
 20
271.1689848151364
 30
0
 11
38.62727252058944
 21
272.3582898452542
 31
0
  0
LINE
  8
1
 62
2
 10
39.81657755070781
 20
271.3104061713736
 30
0
 11
38.67903632960995
 21
272.447947392471
 31
0
  0
LINE
  8
1
 62
2
 10
39.81657755070781
 20
271.4518275276109
 30
0
 11
38.73080013863046
 21
272.5376049396878
 31
0
  0
LINE
  8
1
 62
2
 10
39.81657755070781
 20
271.5932488838482
 30
0
 11
38.78256394765096
 21
272.6272624869046
 31
0
  0
LINE
  8
1
 62
2
 10
39.81657755070781
 20
271.7346702400855
 30
0
 11
38.83432775667147
 21
272.7169200341214
 31
0
  0
LINE
  8
1
 62
2
 10
39.81657755070781
 20
271.8760915963228
 30
0
 11
38.88609156569198
 21
272.8065775813382
 31
0
  0
LINE
  8
1
 62
2
 10
39.81657755070781
 20
272.0175129525601
 30
0
 11
38.93785537471248
 21
272.896235128555
 31
0
  0
LINE
  8
1
 62
2
 10
39.81657755070781
 20
272.1589343087974
 30
0
 11
38.98961918373299
 21
272.9858926757718
 31
0
  0
LINE
  8
1
 62
2
 10
39.81657755070781
 20
272.3003556650347
 30
0
 11
39.0413829927535
 21
273.0755502229886
 31
0
  0
LINE
  8
1
 62
2
 10
39.81657755070781
 20
272.4417770212719
 30
0
 11
39.093146801774
 21
273.1652077702054
 31
0
  0
LINE
  8
1
 62
2
 10
39.81657755070781
 20
272.5831983775092
 30
0
 11
39.14491061079451
 21
273.2548653174222
 31
0
  0
LINE
  8
1
 62
2
 10
39.81657755070781
 20
272.7246197337465
 30
0
 11
39.19667441981502
 21
273.344522864639
 31
0
  0
LINE
  8
1
 62
2
 10
39.81657755070781
 20
272.8660410899838
 30
0
 11
39.24843822883552
 21
273.4341804118558
 31
0
  0
LINE
  8
1
 62
2
 10
39.81657755070781
 20
273.0074624462211
 30
0
 11
39.30020203785603
 21
273.5238379590726
 31
0
  0
LINE
  8
1
 62
2
 10
39.81657755070781
 20
273.1488838024584
 30
0
 11
39.35196584687654
 21
273.6134955062894
 31
0
  0
LINE
  8
1
 62
2
 10
39.81657755070781
 20
273.2903051586957
 30
0
 11
39.40372965589705
 21
273.7031530535062
 31
0
  0
LINE
  8
1
 62
2
 10
39.81657755070781
 20
273.431726514933
 30
0
 11
39.45549346491755
 21
273.792810600723
 31
0
  0
LINE
  8
1
 62
2
 10
39.81657755070781
 20
273.5731478711702
 30
0
 11
39.50725727393806
 21
273.8824681479398
 31
0
  0
LINE
  8
1
 62
2
 10
39.81657755070781
 20
273.7145692274075
 30
0
 11
39.55902108295857
 21
273.9721256951566
 31
0
  0
LINE
  8
1
 62
2
 10
39.81657755070781
 20
273.8559905836448
 30
0
 11
39.61078489197907
 21
274.0617832423735
 31
0
  0
LINE
  8
1
 62
2
 10
39.81657755070781
 20
273.9974119398821
 30
0
 11
39.66254870099958
 21
274.1514407895903
 31
0
  0
LINE
  8
1
 62
2
 10
39.81657755070781
 20
274.1388332961194
 30
0
 11
39.71431251002009
 21
274.2410983368071
 31
0
  0
LINE
  8
1
 62
2
 10
39.81657755070781
 20
274.2802546523567
 30
0
 11
39.76607631904059
 21
274.3307558840239
 31
0
  0
ENDBLK
  8
0
  0
BLOCK
  8
0
  2
_X2
 70
0
 10
0
 20
0
 30
0
  0
LINE
  8
1
 62
2
 10
-132.1537245952993
 20
267.9182265831162
 30
0
 11
-132.1871718839253
 21
267.9516738717419
 31
0
  0
LINE
  8
1
 62
2
 10
-132.0123032390619
 20
267.9182265831162
 30
0
 11
-132.1354080749048
 21
268.0413314189587
 31
0
  0
LINE
  8
1
 62
2
 10
-131.8708818828246
 20
267.9182265831162
 30
0
 11
-132.0836442658843
 21
268.1309889661756
 31
0
  0
LINE
  8
1
 62
2
 10
-131.7294605265873
 20
267.9182265831162
 30
0
 11
-132.0318804568638
 21
268.2206465133924
 31
0
  0
LINE
  8
1
 62
2
 10
-131.58803917035
 20
267.9182265831162
 30
0
 11
-131.9801166478433
 21
268.3103040606092
 31
0
  0
LINE
  8
1
 62
2
 10
-131.4466178141127
 20
267.9182265831162
 30
0
 11
-131.9283528388227
 21
268.399961607826
 31
0
  0
LINE
  8
1
 62
2
 10
-131.3051964578754
 20
267.9182265831162
 30
0
 11
-131.8765890298022
 21
268.4896191550428
 31
0
  0
LINE
  8
1
 62
2
 10
-131.163775101638
 20
267.9182265831162
 30
0
 11
-131.8248252207817
 21
268.5792767022596
 31
0
  0
LINE
  8
1
 62
2
 10
-131.0223537454007
 20
267.9182265831162
 30
0
 11
-131.7730614117612
 21
268.6689342494764
 31
0
  0
LINE
  8
1
 62
2
 10
-130.8809323891634
 20
267.9182265831162
 30
0
 11
-131.7212976027407
 21
268.7585917966932
 31
0
  0
LINE
  8
1
 62
2
 10
-130.7395110329261
 20
267.9182265831162
 30
0
 11
-131.6695337937202
 21
268.84824934391
 31
0
  0
LINE
  8
1
 62
2
 10
-130.5980896766888
 20
267.9182265831162
 30
0
 11
-131.6177699846997
 21
268.9379068911268
 31
0
  0
LINE
  8
1
 62
2
 10
-130.4566683204515
 20
267.9182265831162
 30
0
 11
-131.5660061756791
 21
269.0275644383436
 31
0
  0
LINE
  8
1
 62
2
 10
-130.3152469642141
 20
267.9182265831162
 30
0
 11
-131.5142423666586
 21
269.1172219855604
 31
0
  0
LINE
  8
1
 62
2
 10
-130.1738256079768
 20
267.9182265831162
 30
0
 11
-131.4624785576381
 21
269.2068795327772
 31
0
  0
LINE
  8
1
 62
2
 10
-130.0324042517395
 20
267.9182265831162
 30
0
 11
-131.4107147486176
 21
269.296537079994
 31
0
  0
LINE
  8
1
 62
2
 10
-129.8909828955022
 20
267.9182265831162
 30
0
 11
-131.3589509395971
 21
269.3861946272108
 31
0
  0
LINE
  8
1
 62
2
 10
-129.7495615392649
 20
267.9182265831162
 30
0
 11
-131.3071871305766
 21
269.4758521744276
 31
0
  0
LINE
  8
1
 62
2
 10
-129.6081401830276
 20
267.9182265831162
 30
0
 11
-131.2554233215561
 21
269.5655097216444
 31
0
  0
LINE
  8
1
 62
2
 10
-129.4667188267902
 20
267.9182265831162
 30
0
 11
-131.2036595125356
 21
269.6551672688612
 31
0
  0
LINE
  8
1
 62
2
 10
-129.3252974705529
 20
267.9182265831162
 30
0
 11
-131.151895703515
 21
269.744824816078
 31
0
  0
LINE
  8
1
 62
2
 10
-129.1838761143156
 20
267.9182265831162
 30
0
 11
-131.1001318944945
 21
269.8344823632948
 31
0
  0
LINE
  8
1
 62
2
 10
-129.0424547580783
 20
267.9182265831162
 30
0
 11
-131.048368085474
 21
269.9241399105116
 31
0
  0
LINE
  8
1
 62
2
 10
-128.901033401841
 20
267.9182265831162
 30
0
 11
-130.9966042764535
 21
270.0137974577284
 31
0
  0
LINE
  8
1
 62
2
 10
-128.7596120456037
 20
267.9182265831162
 30
0
 11
-130.944840467433
 21
270.1034550049452
 31
0
  0
LINE
  8
1
 62
2
 10
-128.6181906893663
 20
267.9182265831162
 30
0
 11
-130.8930766584125
 21
270.193112552162
 31
0
  0
LINE
  8
1
 62
2
 10
-128.476769333129
 20
267.9182265831162
 30
0
 11
-130.841312849392
 21
270.2827700993788
 31
0
  0
LINE
  8
1
 62
2
 10
-128.4537059352836
 20
268.0365845415091
 30
0
 11
-130.7895490403714
 21
270.3724276465956
 31
0
  0
LINE
  8
1
 62
2
 10
-128.4537059352836
 20
268.1780058977464
 30
0
 11
-130.7377852313509
 21
270.4620851938124
 31
0
  0
LINE
  8
1
 62
2
 10
-128.4537059352836
 20
268.3194272539837
 30
0
 11
-130.6860214223304
 21
270.5517427410292
 31
0
  0
LINE
  8
1
 62
2
 10
-128.4537059352836
 20
268.460848610221
 30
0
 11
-130.6342576133099
 21
270.641400288246
 31
0
  0
LINE
  8
1
 62
2
 10
-128.4537059352836
 20
268.6022699664583
 30
0
 11
-130.5824938042894
 21
270.7310578354628
 31
0
  0
LINE
  8
1
 62
2
 10
-128.4537059352836
 20
268.7436913226956
 30
0
 11
-130.5307299952689
 21
270.8207153826796
 31
0
  0
LINE
  8
1
 62
2
 10
-128.4537059352836
 20
268.8851126789328
 30
0
 11
-130.4789661862484
 21
270.9103729298964
 31
0
  0
LINE
  8
1
 62
2
 10
-128.4537059352836
 20
269.0265340351701
 30
0
 11
-130.4272023772278
 21
271.0000304771132
 31
0
  0
LINE
  8
1
 62
2
 10
-128.4537059352836
 20
269.1679553914074
 30
0
 11
-130.3754385682073
 21
271.08968802433
 31
0
  0
LINE
  8
1
 62
2
 10
-128.4537059352836
 20
269.3093767476447
 30
0
 11
-130.3236747591868
 21
271.1793455715468
 31
0
  0
LINE
  8
1
 62
2
 10
-128.4537059352836
 20
269.450798103882
 30
0
 11
-130.2719109501663
 21
271.2690031187636
 31
0
  0
LINE
  8
1
 62
2
 10
-128.4537059352836
 20
269.5922194601193
 30
0
 11
-130.2201471411458
 21
271.3586606659804
 31
0
  0
LINE
  8
1
 62
2
 10
-128.4537059352836
 20
269.7336408163566
 30
0
 11
-130.1683833321253
 21
271.4483182131972
 31
0
  0
LINE
  8
1
 62
2
 10
-128.4537059352836
 20
269.8750621725939
 30
0
 11
-130.1166195231048
 21
271.537975760414
 31
0
  0
LINE
  8
1
 62
2
 10
-128.4537059352836
 20
270.0164835288311
 30
0
 11
-130.0648557140842
 21
271.6276333076308
 31
0
  0
LINE
  8
1
 62
2
 10
-128.4537059352836
 20
270.1579048850684
 30
0
 11
-130.0130919050637
 21
271.7172908548476
 31
0
  0
LINE
  8
1
 62
2
 10
-128.4537059352836
 20
270.2993262413057
 30
0
 11
-129.9613280960432
 21
271.8069484020644
 31
0
  0
LINE
  8
1
 62
2
 10
-128.4537059352836
 20
270.440747597543
 30
0
 11
-129.9095642870227
 21
271.8966059492813
 31
0
  0
LINE
  8
1
 62
2
 10
-128.4537059352836
 20
270.5821689537803
 30
0
 11
-129.8578004780022
 21
271.9862634964981
 31
0
  0
LINE
  8
1
 62
2
 10
-128.4537059352836
 20
270.7235903100176
 30
0
 11
-129.8060366689817
 21
272.0759210437149
 31
0
  0
LINE
  8
1
 62
2
 10
-128.4537059352836
 20
270.8650116662549
 30
0
 11
-129.7542728599612
 21
272.1655785909317
 31
0
  0
LINE
  8
1
 62
2
 10
-128.4537059352836
 20
271.0064330224922
 30
0
 11
-129.7025090509406
 21
272.2552361381485
 31
0
  0
LINE
  8
1
 62
2
 10
-128.4537059352836
 20
271.1478543787294
 30
0
 11
-129.6507452419201
 21
272.3448936853653
 31
0
  0
LINE
  8
1
 62
2
 10
-128.4537059352836
 20
271.2892757349667
 30
0
 11
-129.5989814328996
 21
272.4345512325821
 31
0
  0
LINE
  8
1
 62
2
 10
-128.4537059352836
 20
271.430697091204
 30
0
 11
-129.5472176238791
 21
272.5242087797989
 31
0
  0
LINE
  8
1
 62
2
 10
-128.4537059352836
 20
271.5721184474413
 30
0
 11
-129.4954538148586
 21
272.6138663270157
 31
0
  0
LINE
  8
1
 62
2
 10
-128.4537059352836
 20
271.7135398036786
 30
0
 11
-129.4436900058381
 21
272.7035238742325
 31
0
  0
LINE
  8
1
 62
2
 10
-128.4537059352836
 20
271.8549611599159
 30
0
 11
-129.3919261968176
 21
272.7931814214493
 31
0
  0
LINE
  8
1
 62
2
 10
-128.4537059352836
 20
271.9963825161532
 30
0
 11
-129.3401623877971
 21
272.8828389686661
 31
0
  0
LINE
  8
1
 62
2
 10
-128.4537059352836
 20
272.1378038723905
 30
0
 11
-129.2883985787765
 21
272.9724965158829
 31
0
  0
LINE
  8
1
 62
2
 10
-128.4537059352836
 20
272.2792252286278
 30
0
 11
-129.236634769756
 21
273.0621540630997
 31
0
  0
LINE
  8
1
 62
2
 10
-128.4537059352836
 20
272.420646584865
 30
0
 11
-129.1848709607355
 21
273.1518116103165
 31
0
  0
LINE
  8
1
 62
2
 10
-128.4537059352836
 20
272.5620679411023
 30
0
 11
-129.133107151715
 21
273.2414691575333
 31
0
  0
LINE
  8
1
 62
2
 10
-128.4537059352836
 20
272.7034892973396
 30
0
 11
-129.0813433426945
 21
273.3311267047501
 31
0
  0
LINE
  8
1
 62
2
 10
-128.4537059352836
 20
272.8449106535769
 30
0
 11
-129.029579533674
 21
273.4207842519669
 31
0
  0
LINE
  8
1
 62
2
 10
-128.4537059352836
 20
272.9863320098142
 30
0
 11
-128.9778157246535
 21
273.5104417991837
 31
0
  0
LINE
  8
1
 62
2
 10
-128.4537059352836
 20
273.1277533660515
 30
0
 11
-128.9260519156329
 21
273.6000993464005
 31
0
  0
LINE
  8
1
 62
2
 10
-128.4537059352836
 20
273.2691747222888
 30
0
 11
-128.8742881066124
 21
273.6897568936173
 31
0
  0
LINE
  8
1
 62
2
 10
-128.4537059352836
 20
273.4105960785261
 30
0
 11
-128.8225242975919
 21
273.7794144408341
 31
0
  0
LINE
  8
1
 62
2
 10
-128.4537059352836
 20
273.5520174347633
 30
0
 11
-128.7707604885714
 21
273.8690719880509
 31
0
  0
LINE
  8
1
 62
2
 10
-128.4537059352836
 20
273.6934387910006
 30
0
 11
-128.7189966795509
 21
273.9587295352677
 31
0
  0
LINE
  8
1
 62
2
 10
-128.4537059352836
 20
273.8348601472379
 30
0
 11
-128.6672328705304
 21
274.0483870824845
 31
0
  0
LINE
  8
1
 62
2
 10
-128.4537059352836
 20
273.9762815034752
 30
0
 11
-128.6154690615099
 21
274.1380446297013
 31
0
  0
LINE
  8
1
 62
2
 10
-128.4537059352836
 20
274.1177028597125
 30
0
 11
-128.5637052524893
 21
274.2277021769181
 31
0
  0
LINE
  8
1
 62
2
 10
-128.4537059352836
 20
274.2591242159498
 30
0
 11
-128.5119414434688
 21
274.3173597241349
 31
0
  0
LINE
  8
1
 62
2
 10
-128.4537059352836
 20
274.4005455721871
 30
0
 11
-128.4601776344483
 21
274.4070172713517
 31
0
  0
ENDBLK
  8
0
  0
BLOCK
  8
0
  2
_FRECCIA__4
 70
0
 10
70.6187165881409
 20
289.4359184068745
 30
0
  0
LINE
  8
1
 62
7
 10
36.06380080097524
 20
267.9182265831162
 30
0
 11
39.8165775507078
 21
274.4182265831163
 31
0
  0
LINE
  8
1
 62
7
 10
39.8165775507078
 20
267.9182265831162
 30
0
 11
36.06380080097524
 21
267.9182265831162
 31
0
  0
LINE
  8
1
 62
7
 10
39.8165775507078
 20
259.4182265831162
 30
0
 11
39.8165775507078
 21
274.4182265831163
 31
0
  0
LINE
  8
1
 62
7
 10
43.56935430044025
 20
267.9182265831162
 30
0
 11
39.8165775507078
 21
267.9182265831162
 31
0
  0
LINE
  8
1
 62
7
 10
39.8165775507078
 20
274.4182265831163
 30
0
 11
43.56935430044025
 21
267.9182265831162
 31
0
  0
LINE
  8
1
 62
7
 10
-132.2064826850162
 20
267.9182265831162
 30
0
 11
-128.4537059352836
 21
274.4182265831163
 31
0
  0
LINE
  8
1
 62
7
 10
-128.4537059352836
 20
267.9182265831162
 30
0
 11
-132.2064826850162
 21
267.9182265831162
 31
0
  0
LINE
  8
1
 62
7
 10
-128.4537059352836
 20
259.4182265831162
 30
0
 11
-128.4537059352836
 21
274.4182265831163
 31
0
  0
LINE
  8
1
 62
7
 10
-124.7009291855512
 20
267.9182265831162
 30
0
 11
-128.4537059352836
 21
267.9182265831162
 31
0
  0
LINE
  8
1
 62
7
 10
-128.4537059352836
 20
274.4182265831163
 30
0
 11
-124.7009291855512
 21
267.9182265831162
 31
0
  0
TEXT
  8
1
 62
7
 10
41.92710777433394
 20
260.8237925180429
 30
0
 40
3.5
  1
B
 41
0.8910000000000004
 73
3
 11
41.92710777433394
 21
264.3237925180429
 31
0
  0
TEXT
  8
1
 62
7
 10
-126.3431757116575
 20
260.8237925180429
 30
0
 40
3.5
  1
B
 41
0.8910000000000004
 73
3
 11
-126.3431757116575
 21
264.3237925180429
 31
0
  0
INSERT
  8
0
  2
_X1
 10
0
 20
0
 30
0
  0
INSERT
  8
0
  2
_X2
 10
0
 20
0
 30
0
  0
ENDBLK
  8
0
  0
BLOCK
  8
1
  2
*D0
 70
1
 10
0
 20
0
 30
0
  0
LINE
  8
1
 62
2
 10
732.9579423489603
 20
22.04234933767536
 30
0
 11
732.9579423489603
 21
34.8423493376754
 31
0
  0
LINE
  8
1
 62
2
 10
723.4570914663246
 20
34.8423493376754
 30
0
 11
733.4579423489603
 21
34.8423493376754
 31
0
  0
LINE
  8
1
 62
2
 10
723.4570914663245
 20
22.04234933767536
 30
0
 11
733.4579423489603
 21
22.04234933767536
 31
0
  0
SOLID
  8
1
 62
2
 10
732.9579423489603
 20
22.04234933767536
 30
0
 11
732.7304423489603
 21
23.79234933767536
 31
0
 12
733.1854423489602
 22
23.79234933767536
 32
0
 13
733.1854423489602
 23
23.79234933767536
 33
0
  0
SOLID
  8
1
 62
2
 10
732.9579423489603
 20
34.8423493376754
 30
0
 11
733.1854423489602
 21
33.0923493376754
 31
0
 12
732.7304423489603
 22
33.0923493376754
 32
0
 13
732.7304423489603
 23
33.0923493376754
 33
0
  0
TEXT
  8
1
 62
2
 10
731.7829423489603
 20
26.2985993376754
 30
0
 40
1.75
  1
12,8
 50
90
 41
0.8910000000000002
  0
TEXT
  8
1
 62
2
 10
731.7829423489603
 20
25.1610993376754
 30
0
 40
1.75
  1
(
 50
90
 41
0.8910000000000002
  0
TEXT
  8
1
 62
2
 10
731.7829423489603
 20
31.2985993376754
 30
0
 40
1.75
  1
)
 50
90
 41
0.8910000000000002
  0
ENDBLK
  8
0
  0
BLOCK
  8
1
  2
*D1
 70
1
 10
0
 20
0
 30
0
  0
LINE
  8
1
 62
2
 10
706.5598803164429
 20
21.75058755069307
 30
0
 11
712.5702879565286
 21
15.74017991060742
 31
0
  0
LINE
  8
1
 62
2
 10
715.9032925328748
 20
31.09399976712491
 30
0
 11
706.2063269258497
 21
21.3970341600998
 31
0
  0
LINE
  8
1
 62
2
 10
721.9137001729605
 20
25.08359212703927
 30
0
 11
712.2167345659352
 21
15.38662652001415
 31
0
  0
SOLID
  8
1
 62
2
 10
712.5702879565286
 20
15.74017991060745
 30
0
 11
711.1719842967322
 21
16.81674998496397
 31
0
 12
711.4937178821721
 22
17.13848357040385
 32
0
 13
711.4937178821721
 23
17.13848357040385
 33
0
  0
SOLID
  8
1
 62
2
 10
706.5598803164429
 20
21.75058755069307
 30
0
 11
707.9581839762393
 21
20.67401747633655
 31
0
 12
707.6364503907994
 22
20.35228389089667
 32
0
 13
707.6364503907994
 23
20.35228389089667
 33
0
  0
TEXT
  8
1
 62
2
 10
709.6909241432184
 20
21.17838638833641
 30
0
 40
1.75
  1
9
 50
314.9999999999998
 41
0.8910000000000002
  0
TEXT
  8
1
 62
2
 10
711.9956503081482
 20
20.7607514456981
 30
0
 40
1.225
  1
+0,2
 50
314.9999999999998
 41
0.8910000000000001
  0
TEXT
  8
1
 62
2
 10
710.4797901459797
 20
19.24489128352944
 30
0
 40
1.225
  1
 0
 50
314.9999999999998
 41
0.8910000000000001
  0
TEXT
  8
1
 62
2
 10
708.2059999027266
 20
22.66331062882816
 30
0
 40
1.75
  1
%%c
 50
314.9999999999998
 41
0.8910000000000002
  0
ENDBLK
  8
0
  0
BLOCK
  8
1
  2
*D2
 70
1
 10
0
 20
0
 30
0
  0
LINE
  8
1
 62
2
 10
713.9103798847922
 20
23.93018469935801
 30
0
 11
735.9117871000871
 21
42.48027733415297
 31
0
  0
SOLID
  8
1
 62
2
 10
724.6137196022297
 20
32.95451397599268
 30
0
 11
723.4224474882954
 21
31.652543546005
 31
0
 12
723.1291567868047
 22
32.00040208682172
 32
0
 13
723.1291567868047
 23
32.00040208682172
 33
0
  0
SOLID
  8
1
 62
2
 10
713.9103798847922
 20
23.93018469935805
 30
0
 11
715.1016519987265
 21
25.23215512934574
 31
0
 12
715.3949427002171
 22
24.88429658852902
 32
0
 13
715.3949427002171
 23
24.88429658852902
 33
0
  0
TEXT
  8
1
 62
2
 10
729.4272511933489
 20
39.37962481777074
 30
0
 40
1.75
  1
14
 50
40.13531287784208
 41
0.8910000000000002
  0
TEXT
  8
1
 62
2
 10
730.841579499125
 20
42.31745685587386
 30
0
 40
1.225
  1
-0,1
 50
40.13531287784208
 41
0.8910000000000001
  0
TEXT
  8
1
 62
2
 10
732.1444670384392
 20
40.77216218416882
 30
0
 40
1.225
  1
-0,15
 50
40.13531287784208
 41
0.8910000000000001
  0
TEXT
  8
1
 62
2
 10
727.8217502357333
 20
38.02597542627555
 30
0
 40
1.75
  1
%%c
 50
40.13531287784208
 41
0.8910000000000002
  0
ENDBLK
  8
0
  0
BLOCK
  8
1
  2
*D3
 70
1
 10
0
 20
0
 30
0
  0
LINE
  8
1
 62
2
 10
725.2399483638583
 20
23.12589111016604
 30
0
 11
706.3245571854683
 21
39.94833883696724
 31
0
  0
SOLID
  8
1
 62
2
 10
725.2399483638582
 20
23.12589111016618
 30
0
 11
723.7810962598124
 21
24.1188698554177
 31
0
 12
724.083469821502
 22
24.45886283944995
 32
0
 13
724.083469821502
 23
24.45886283944995
 33
0
  0
SOLID
  8
1
 62
2
 10
713.2841511231638
 20
33.75880756518465
 30
0
 11
714.7430032272096
 21
32.76582881993311
 31
0
 12
714.44062966552
 22
32.42583583590087
 32
0
 13
714.44062966552
 23
32.42583583590087
 33
0
  0
TEXT
  8
1
 62
2
 10
709.0961888989843
 20
39.90480109176989
 30
0
 40
1.75
  1
16
 50
318.3516300368901
 41
0.8910000000000002
  0
TEXT
  8
1
 62
2
 10
712.2059885668425
 20
38.9248379973556
 30
0
 40
1.225
  1
+0,2
 50
318.3516300368901
 41
0.8910000000000001
  0
TEXT
  8
1
 62
2
 10
710.7813439011896
 20
37.32294797643443
 30
0
 40
1.225
  1
 0
 50
318.3516300368901
 41
0.8910000000000001
  0
TEXT
  8
1
 62
2
 10
707.5269905111431
 20
41.30037137649107
 30
0
 40
1.75
  1
%%c
 50
318.3516300368901
 41
0.8910000000000002
  0
ENDBLK
  8
0
  0
BLOCK
  8
0
  2
_2__S__S
 70
0
 10
160.0405545794088
 20
67.1898170089427
 30
0
  0
POLYLINE
  8
1
 62
2
 66
1
 70
1
  0
VERTEX
  8
1
 10
723.8396031544262
 20
46.98084767771429
 30
0
 42
-0.1239583630870125
  0
VERTEX
  8
1
 10
727.2257289393109
 20
47.91023129259602
 30
0
 42
-0.09020962074102822
  0
VERTEX
  8
1
 10
730.8766191713571
 20
47.32648545782746
 30
0
 42
-0.07141514988741358
  0
VERTEX
  8
1
 10
734.3064125773418
 20
45.57121262532615
 30
0
 42
-0.07387652742915755
  0
VERTEX
  8
1
 10
737.0292478840424
 20
42.98601524700964
 30
0
 42
-0.1004181531707762
  0
VERTEX
  8
1
 10
738.5592638182362
 20
39.91249577479545
 30
0
 42
-0.09137647391160937
  0
VERTEX
  8
1
 10
738.6475223781883
 20
36.52598430523384
 30
0
 42
-0.006013206909930882
  0
VERTEX
  8
1
 10
738.059837956174
 20
32.94421792561931
 30
0
 42
0.06577598536521229
  0
VERTEX
  8
1
 10
737.9034373530171
 20
29.12779390230085
 30
0
 42
0.03701158370448809
  0
VERTEX
  8
1
 10
738.5397260034921
 20
26.0716448452024
 30
0
 42
-0.02666284835252744
  0
VERTEX
  8
1
 10
739.1993892705219
 20
23.20854605973065
 30
0
 42
-0.1355832739305252
  0
VERTEX
  8
1
 10
738.9964814617164
 20
20.89352828343672
 30
0
 42
-0.1723070418469355
  0
VERTEX
  8
1
 10
737.16892820407
 20
19.28528409901064
 30
0
 42
-0.04458599681666616
  0
VERTEX
  8
1
 10
734.2169692948082
 20
18.2260360372457
 30
0
 42
0.01340856736703762
  0
VERTEX
  8
1
 10
730.9808246645913
 20
17.25004792110745
 30
0
 42
0.05134627878102396
  0
VERTEX
  8
1
 10
726.0046940764654
 20
14.79333252468439
 30
0
 42
-0.02014934277525468
  0
VERTEX
  8
1
 10
721.5077757225353
 20
12.14917541384648
 30
0
 42
-0.04876893100185065
  0
VERTEX
  8
1
 10
717.9170618112972
 20
10.74385819639227
 30
0
 42
-0.06656135513823176
  0
VERTEX
  8
1
 10
714.0326276636088
 20
10.17871253632531
 30
0
 42
-0.08076175675656634
  0
VERTEX
  8
1
 10
710.0758027343218
 20
10.79831276746733
 30
0
 42
-0.06831340465197137
  0
VERTEX
  8
1
 10
706.3569215967324
 20
12.60182461647811
 30
0
 42
-0.06859735470917354
  0
VERTEX
  8
1
 10
703.273679438184
 20
15.31417291248765
 30
0
 42
-0.08556198917714912
  0
VERTEX
  8
1
 10
701.2704959059646
 20
18.64715054479085
 30
0
 42
-0.1039305359681958
  0
VERTEX
  8
1
 10
700.7530943380706
 20
22.23330521122461
 30
0
 42
-0.03748608795936848
  0
VERTEX
  8
1
 10
701.3127461827762
 20
25.85665298954589
 30
0
 42
0.0310128559394927
  0
VERTEX
  8
1
 10
701.9138052595517
 20
29.47289728934152
 30
0
 42
0.09306180121414312
  0
VERTEX
  8
1
 10
701.5621479327814
 20
33.05099550005173
 30
0
 42
-0.04046916810536982
  0
VERTEX
  8
1
 10
700.7399376572583
 20
36.77910266319238
 30
0
 42
-0.08411120871134982
  0
VERTEX
  8
1
 10
701.0541859293348
 20
40.44837736185821
 30
0
 42
-0.07898609635842831
  0
VERTEX
  8
1
 10
702.4928473163334
 20
43.83426595731086
 30
0
 42
-0.1119383222165465
  0
VERTEX
  8
1
 10
704.8206356630672
 20
46.17928199800185
 30
0
 42
-0.1192551612446038
  0
VERTEX
  8
1
 10
707.6062312099374
 20
46.95740955121894
 30
0
 42
-0.05683449890714828
  0
VERTEX
  8
1
 10
710.7866801340495
 20
46.72018768120118
 30
0
 42
-0.009890233073982782
  0
VERTEX
  8
1
 10
714.1811121129791
 20
46.03576847339522
 30
0
 42
0.02783266072094707
  0
VERTEX
  8
1
 10
717.6086568243015
 20
45.47230401324767
 30
0
 42
0.0733095702569497
  0
VERTEX
  8
1
 10
720.8884439455919
 20
45.59794638620514
 30
0
 42
0.1217661382986539
  0
VERTEX
  8
1
 10
723.8396031544262
 20
46.98084767771429
 30
0
  0
SEQEND
  8
1
  0
LINE
  8
1
 62
7
 10
726.156335147029
 20
14.88505575276469
 30
0
 11
726.156335147029
 21
23.44234933767537
 31
0
  0
LINE
  8
1
 62
7
 10
726.156335147029
 20
33.4423493376754
 30
0
 11
726.156335147029
 21
47.8052263542039
 31
0
  0
LINE
  8
1
 62
7
 10
725.5070477419093
 20
33.4423493376754
 30
0
 11
738.138743449325
 21
33.4423493376754
 31
0
  0
LINE
  8
1
 62
7
 10
725.5070477419093
 20
23.44234933767537
 30
0
 11
739.1632789655696
 21
23.44234933767537
 31
0
  0
LINE
  8
1
 62
7
 10
700.8721178266987
 20
23.44234933767537
 30
0
 11
713.0170517451127
 21
23.44234933767537
 31
0
  0
LINE
  8
1
 62
7
 10
701.4602695837061
 20
33.4423493376754
 30
0
 11
713.0170517451127
 21
33.4423493376754
 31
0
  0
LINE
  8
1
 62
2
  6
DASHDOT
 10
726.2620497435109
 20
28.4423493376754
 30
0
 11
727.2620497435109
 21
28.4423493376754
 31
0
  0
LINE
  8
1
 62
7
 10
726.6521331891381
 20
28.4423493376753
 30
0
 11
726.2223570156071
 21
29.1867435061136
 31
0
  0
LINE
  8
1
 62
7
 10
726.2223570156071
 20
27.6979551692371
 30
0
 11
726.6521331891381
 21
28.4423493376753
 31
0
  0
LINE
  8
1
 62
7
 10
722.0975391192625
 20
22.04234933767536
 30
0
 11
722.9570914663245
 21
22.04234933767533
 31
0
  0
LINE
  8
1
 62
7
 10
722.9570914663245
 20
22.04234933767533
 30
0
 11
723.3868676398556
 21
22.78674350611361
 31
0
  0
LINE
  8
1
 62
7
 10
715.5670080206975
 20
22.04234933767539
 30
0
 11
716.4265603677593
 21
22.04234933767539
 31
0
  0
LINE
  8
1
 62
7
 10
715.1372318471663
 20
22.78674350611367
 30
0
 11
715.5670080206975
 21
22.04234933767539
 31
0
  0
LINE
  8
1
 62
7
 10
711.8719662978838
 20
28.4423493376754
 30
0
 11
712.3017424714147
 21
27.6979551692371
 31
0
  0
LINE
  8
1
 62
7
 10
712.3017424714147
 20
29.1867435061137
 30
0
 11
711.8719662978838
 21
28.4423493376754
 31
0
  0
LINE
  8
1
 62
7
 10
716.4265603677595
 20
34.8423493376754
 30
0
 11
715.5670080206975
 21
34.8423493376754
 31
0
  0
LINE
  8
1
 62
7
 10
715.5670080206975
 20
34.8423493376754
 30
0
 11
715.1372318471663
 21
34.0979551692371
 31
0
  0
LINE
  8
1
 62
7
 10
723.3868676398556
 20
34.0979551692371
 30
0
 11
722.9570914663245
 21
34.8423493376754
 31
0
  0
LINE
  8
1
 62
7
 10
722.9570914663245
 20
34.8423493376754
 30
0
 11
722.0975391192626
 21
34.8423493376754
 31
0
  0
LINE
  8
1
 62
2
  6
DASHDOT
 10
723.5120497435109
 20
28.4423493376754
 30
0
 11
719.2620497435109
 21
28.4423493376754
 31
0
  0
LINE
  8
1
 62
2
  6
DASHDOT
 10
727.2620497435109
 20
28.4423493376754
 30
0
 11
729.2620497435109
 21
28.4423493376754
 31
0
  0
LINE
  8
1
 62
2
  6
DASHDOT
 10
709.2620497435109
 20
28.4423493376754
 30
0
 11
715.0120497435109
 21
28.4423493376754
 31
0
  0
LINE
  8
1
 62
2
  6
DASHDOT
 10
719.2620497435109
 20
28.4423493376754
 30
0
 11
719.2620497435109
 21
18.44234933767535
 31
0
  0
LINE
  8
1
 62
2
  6
DASHDOT
 10
723.5120497435109
 20
28.4423493376754
 30
0
 11
726.2620497435109
 21
28.4423493376754
 31
0
  0
LINE
  8
1
 62
2
  6
DASHDOT
 10
719.2620497435109
 20
32.6923493376753
 30
0
 11
719.2620497435109
 21
38.4423493376754
 31
0
  0
ARC
  8
1
 62
7
 10
719.2620497435109
 20
28.4423493376754
 30
0
 40
4.249999999999939
 50
134.9999999999997
 51
314.9999999999999
  0
ARC
  8
1
 62
7
 10
719.2620497435109
 20
28.4423493376754
 30
0
 40
4.249999999999917
 50
314.9999999999999
 51
0
  0
ARC
  8
1
 62
7
 10
719.2620497435109
 20
28.4423493376754
 30
0
 40
4.25
 50
0
 51
134.9999999999997
  0
ARC
  8
1
 62
7
 10
719.2620497435109
 20
28.4423493376754
 30
0
 40
7.999999999999988
 50
61.67148335274211
 51
71.44128084009637
  0
ARC
  8
1
 62
7
 10
719.2620497435109
 20
28.4423493376754
 30
0
 40
7.999999999999941
 50
90.85156412702639
 51
44.99999999999923
  0
ARC
  8
1
 62
7
 10
719.2620497435109
 20
28.4423493376754
 30
0
 40
7.999999999999981
 50
81.87183114645795
 51
90.85156412702639
  0
ARC
  8
1
 62
7
 10
719.2620497435109
 20
28.4423493376754
 30
0
 40
7.999999999999957
 50
44.99999999999923
 51
61.67148335274211
  0
ARC
  8
1
 62
7
 10
719.2620497435109
 20
28.4423493376754
 30
0
 40
7.999999999999989
 50
71.44128084009637
 51
81.87183114645795
  0
CIRCLE
  8
1
 62
7
 10
719.2620497435109
 20
28.4423493376754
 30
0
 40
7
  0
TEXT
  8
1
 62
2
 10
716.9529007086833
 20
1.8646603302399
 30
0
 40
1.5
  1
scala 2:1
 41
0.8910000000000001
  0
TEXT
  8
1
 62
2
 10
708.1416242961732
 20
4.3646603302399
 30
0
 40
1.5
  1
Dettaglio lamatura dado
 41
0.8910000000000001
  0
DIMENSION
  8
1
  6
CONTINUOUS
 62
2
  2
*D0
  3
DMST_1
 10
732.9579423489603
 20
34.8423493376754
 30
0
 11
730.9954423489603
 21
28.4423493376754
 31
0
 12
0
 22
0
 32
0
 70
0
  1
12,8
 13
722.9570914663245
 23
22.04234933767533
 33
0
 14
722.9570914663245
 24
34.8423493376754
 34
0
 50
90
 53
0
  0
DIMENSION
  8
1
  6
CONTINUOUS
 62
2
  2
*D1
  3
DMST_2
 10
706.5598803164429
 20
21.75058755069304
 30
0
 11
711.3954934276162
 21
20.71125397101504
 31
0
 12
0
 22
0
 32
0
 70
1
  1
9
 13
722.2672535635537
 23
25.43714551763263
 33
0
 14
716.2568459234682
 24
31.4475531577182
 34
0
 53
0
  0
DIMENSION
  8
1
  6
CONTINUOUS
 62
2
  2
*D2
  3
DMST_3
 10
713.9103798847922
 20
23.93018469935805
 30
0
 11
730.7195910958022
 21
41.6137406590269
 31
0
 12
0
 22
0
 32
0
 70
3
 15
724.6137196022297
 25
32.95451397599268
 35
0
 40
0
 53
0
  0
DIMENSION
  8
1
  6
CONTINUOUS
 62
2
  2
*D3
  3
DMST_3
 10
725.2399483638582
 20
23.12589111016616
 30
0
 11
711.2174524356873
 21
39.1892304114877
 31
0
 12
0
 22
0
 32
0
 70
3
 15
713.2841511231637
 25
33.75880756518468
 35
0
 40
0
 53
0
  0
ENDBLK
  8
0
  0
BLOCK
  8
0
  2
TOP__1
 70
0
 10
98.363636374236
 20
24.8333333333333
 30
0
  0
INSERT
  8
0
  2
_2__S__S
 10
-1002.095786691707
 20
147.6689221486539
 30
0
 41
2
 42
2
 43
2
  0
ENDBLK
  8
0
  0
BLOCK
  8
1
  2
*X0
 70
1
 10
0
 20
0
 30
0
  0
LINE
  8
1
 62
2
 10
6.597238383497029
 20
228.298189669451
 30
0
 11
6.093779378981253
 21
228.8016486739667
 31
0
  0
LINE
  8
1
 62
2
 10
8.576420450888918
 20
230.5616482891784
 30
0
 11
6.093779378981253
 21
233.044289361086
 31
0
  0
LINE
  8
1
 62
2
 10
4.962482844071587
 20
238.418226583115
 30
0
 11
3.088225879516138
 21
240.2924835476705
 31
0
  0
LINE
  8
1
 62
2
 10
10.45948583195155
 20
232.9212235952351
 30
0
 11
6.093779378981253
 21
237.2869300482053
 31
0
  0
LINE
  8
1
 62
2
 10
12.24837841503876
 20
235.3749716992671
 30
0
 11
3.088225879516151
 21
244.5351242347898
 31
0
  0
LINE
  8
1
 62
2
 10
13.93887022232536
 20
237.9271205790998
 30
0
 11
3.088225879516164
 21
248.7777649219091
 31
0
  0
LINE
  8
1
 62
2
 10
15.52889561433454
 20
240.5797358742099
 30
0
 11
3.088225879516178
 21
253.0204056090283
 31
0
  0
LINE
  8
1
 62
2
 10
17.01695551389759
 20
243.3343166617661
 30
0
 11
3.088225879516191
 21
257.2630462961476
 31
0
  0
LINE
  8
1
 62
2
 10
18.3937056719281
 20
246.2002071908549
 30
0
 11
3.088225879516204
 21
261.5056869832669
 31
0
  0
LINE
  8
1
 62
2
 10
19.65845475048354
 20
249.1780987994187
 30
0
 11
3.088225879516218
 21
265.7483276703861
 31
0
  0
LINE
  8
1
 62
2
 10
20.80384893179991
 20
252.2753453052217
 30
0
 11
3.088225879516231
 21
269.9909683575054
 31
0
  0
LINE
  8
1
 62
2
 10
21.81994191135391
 20
255.501893012787
 30
0
 11
3.088225879516244
 21
274.2336090446246
 31
0
  0
LINE
  8
1
 62
2
 10
22.69598527526904
 20
258.8684903359911
 30
0
 11
7.146249028143898
 21
274.4182265831163
 31
0
  0
LINE
  8
1
 62
2
 10
23.42051694430586
 20
262.3865993540736
 30
0
 11
11.38888971526318
 21
274.4182265831163
 31
0
  0
LINE
  8
1
 62
2
 10
23.97710421124748
 20
266.0726527742513
 30
0
 11
15.63153040238247
 21
274.4182265831163
 31
0
  0
LINE
  8
1
 62
2
 10
24.34027606278954
 20
269.9521216098285
 30
0
 11
19.87417108950175
 21
274.4182265831163
 31
0
  0
LINE
  8
1
 62
2
 10
24.48501263926761
 20
274.0500257204698
 30
0
 11
24.11681177662103
 21
274.4182265831163
 31
0
  0
ENDBLK
  8
0
  0
BLOCK
  8
1
  2
*X1
 70
1
 10
0
 20
0
 30
0
  0
LINE
  8
1
 62
2
 10
5.588225879516109
 20
320.6088166855898
 30
0
 11
6.080546346347902
 21
321.1011371524216
 31
0
  0
LINE
  8
1
 62
2
 10
5.588225879516113
 20
316.3661759984706
 30
0
 11
8.08088563464645
 21
318.8588357536009
 31
0
  0
LINE
  8
1
 62
2
 10
5.588225879516116
 20
312.1235353113513
 30
0
 11
9.990766745439643
 21
316.5260761772748
 31
0
  0
LINE
  8
1
 62
2
 10
3.088225879516124
 20
309.6235353113512
 30
0
 11
3.882917151281106
 21
310.4182265831163
 31
0
  0
LINE
  8
1
 62
2
 10
3.088225879516137
 20
305.3808946242319
 30
0
 11
11.80179940369632
 21
314.0944681484122
 31
0
  0
LINE
  8
1
 62
2
 10
3.08822587951615
 20
301.1382539371127
 30
0
 11
13.5187543519627
 21
311.5687824095593
 31
0
  0
LINE
  8
1
 62
2
 10
3.088225879516164
 20
296.8956132499934
 30
0
 11
15.13400456064761
 21
308.9413919311249
 31
0
  0
LINE
  8
1
 62
2
 10
3.088225879516177
 20
292.6529725628741
 30
0
 11
16.64736554522889
 21
306.2121122285869
 31
0
  0
LINE
  8
1
 62
2
 10
3.08822587951619
 20
288.4103318757549
 30
0
 11
18.05498361658326
 21
303.377089612822
 31
0
  0
LINE
  8
1
 62
2
 10
3.088225879516203
 20
284.1676911886356
 30
0
 11
19.34775527204484
 21
300.4272205811643
 31
0
  0
LINE
  8
1
 62
2
 10
3.088225879516217
 20
279.9250505015164
 30
0
 11
20.52334564289674
 21
297.360170264897
 31
0
  0
LINE
  8
1
 62
2
 10
3.08822587951623
 20
275.6824098143971
 30
0
 11
21.57323723797627
 21
294.1674211728571
 31
0
  0
LINE
  8
1
 62
2
 10
6.066683335354691
 20
274.4182265831163
 30
0
 11
22.48698178256957
 21
290.8385250303312
 31
0
  0
LINE
  8
1
 62
2
 10
10.30932402247398
 20
274.4182265831163
 30
0
 11
23.25171657001816
 21
287.3606191306605
 31
0
  0
LINE
  8
1
 62
2
 10
14.55196470959326
 20
274.4182265831163
 30
0
 11
23.8515113105396
 21
283.7177731840626
 31
0
  0
LINE
  8
1
 62
2
 10
18.79460539671255
 20
274.4182265831163
 30
0
 11
24.2664743163223
 21
279.890095502726
 31
0
  0
LINE
  8
1
 62
2
 10
23.03724608383183
 20
274.4182265831163
 30
0
 11
24.47151000806143
 21
275.8524905073459
 31
0
  0
ENDBLK
  8
0
  0
BLOCK
  8
1
  2
*X2
 70
1
 10
0
 20
0
 30
0
  0
LINE
  8
1
 62
2
 10
-15.61165684950079
 20
212.3233187183752
 30
0
 11
-18.35559600482139
 21
215.0672578736958
 31
0
  0
LINE
  8
1
 62
2
 10
-12.76272000480856
 20
213.7170225608023
 30
0
 11
-17.39018468779949
 21
218.3444872437932
 31
0
  0
LINE
  8
1
 62
2
 10
-9.913783160116338
 20
215.1107264032294
 30
0
 11
-16.19862680269392
 21
221.395570045807
 31
0
  0
LINE
  8
1
 62
2
 10
-9.411774120483926
 20
218.8513580507162
 30
0
 11
-15.13104734154177
 21
224.5706312717741
 31
0
  0
LINE
  8
1
 62
2
 10
-9.259138501975031
 20
222.9413631193266
 30
0
 11
-14.55429371465471
 21
228.2365183320063
 31
0
  0
LINE
  8
1
 62
2
 10
-8.917327619948821
 20
226.8421929244197
 30
0
 11
-14.29280966791941
 21
232.2176749723903
 31
0
  0
LINE
  8
1
 62
2
 10
-8.917327619948821
 20
231.084833611539
 30
0
 11
-13.74460065495788
 21
235.912106646548
 31
0
  0
LINE
  8
1
 62
2
 10
-8.917327619948821
 20
235.3274742986583
 30
0
 11
-12.74606905281831
 21
239.1562157315277
 31
0
  0
LINE
  8
1
 62
2
 10
-7.765439217286371
 20
238.4182265831151
 30
0
 11
-11.67836640370769
 21
242.3311537695364
 31
0
  0
LINE
  8
1
 62
2
 10
-5.911774120483813
 20
240.8072021734319
 30
0
 11
-10.91027807217472
 21
245.8057061251227
 31
0
  0
LINE
  8
1
 62
2
 10
-5.911774120483813
 20
245.0498428605511
 30
0
 11
-10.61287175631099
 21
249.7509404963783
 31
0
  0
LINE
  8
1
 62
2
 10
-5.911774120483813
 20
249.2924835476704
 30
0
 11
-10.74056118757153
 21
254.1212706147582
 31
0
  0
LINE
  8
1
 62
2
 10
-5.911774120483813
 20
253.5351242347897
 30
0
 11
-11.12514000783273
 21
258.7484901221386
 31
0
  0
LINE
  8
1
 62
2
 10
-5.911774120483813
 20
257.777764921909
 30
0
 11
-11.52813764523114
 21
263.3941284466563
 31
0
  0
LINE
  8
1
 62
2
 10
-5.911774120483813
 20
262.0204056090283
 30
0
 11
-11.7698064967891
 21
267.8784379853336
 31
0
  0
LINE
  8
1
 62
2
 10
-5.911774120483813
 20
266.2630462961475
 30
0
 11
-11.73569983903519
 21
272.0869720146989
 31
0
  0
LINE
  8
1
 62
2
 10
-5.911774120483813
 20
270.5056869832668
 30
0
 11
-9.82431372033335
 21
274.4182265831163
 31
0
  0
ENDBLK
  8
0
  0
BLOCK
  8
1
  2
*X3
 70
1
 10
0
 20
0
 30
0
  0
LINE
  8
1
 62
2
 10
-19.81554887319636
 20
337.6314488040703
 30
0
 11
-19.29188350311437
 21
338.1551141741522
 31
0
  0
LINE
  8
1
 62
2
 10
-19.28079814467145
 20
333.9235588454758
 30
0
 11
-16.4337754012655
 21
336.7705815888818
 31
0
  0
LINE
  8
1
 62
2
 10
-19.1818651201977
 20
329.7798511828303
 30
0
 11
-13.57566729941663
 21
335.3860490036114
 31
0
  0
LINE
  8
1
 62
2
 10
-19.2688756858869
 20
325.4501999300219
 30
0
 11
-10.71755919756777
 21
334.001516418341
 31
0
  0
LINE
  8
1
 62
2
 10
-19.17924023867229
 20
321.2971946901172
 30
0
 11
-8.411774120483871
 21
332.0646608083056
 31
0
  0
LINE
  8
1
 62
2
 10
-18.64835047304868
 20
317.5854437686215
 30
0
 11
-8.411774120483848
 21
327.8220201211864
 31
0
  0
LINE
  8
1
 62
2
 10
-17.71366460770739
 20
314.2774889468435
 30
0
 11
-8.411774120483825
 21
323.5793794340671
 31
0
  0
LINE
  8
1
 62
2
 10
-16.6459114317413
 20
311.1026014356903
 30
0
 11
-8.411774120483802
 21
319.3367387469478
 31
0
  0
LINE
  8
1
 62
2
 10
-15.69208000656711
 20
307.8137921737452
 30
0
 11
-8.411774120483779
 21
315.0940980598286
 31
0
  0
LINE
  8
1
 62
2
 10
-15.03736707879581
 20
304.2258644143972
 30
0
 11
-8.411774120483756
 21
310.8514573727093
 31
0
  0
LINE
  8
1
 62
2
 10
-14.62269500468509
 20
300.3978958013887
 30
0
 11
-5.411774120483756
 21
309.6088166855898
 31
0
  0
LINE
  8
1
 62
2
 10
-14.26914885194675
 20
296.5088012670077
 30
0
 11
-5.411774120483756
 21
305.3661759984705
 31
0
  0
LINE
  8
1
 62
2
 10
-13.77597058923533
 20
292.7593388425999
 30
0
 11
-5.411774120483756
 21
301.1235353113513
 31
0
  0
LINE
  8
1
 62
2
 10
-13.05378064854511
 20
289.2388880961707
 30
0
 11
-5.411774120483756
 21
296.880894624232
 31
0
  0
LINE
  8
1
 62
2
 10
-12.27682085667646
 20
285.7732072009202
 30
0
 11
-5.411774120483756
 21
292.6382539371127
 31
0
  0
LINE
  8
1
 62
2
 10
-11.66400984745003
 20
282.1433775230273
 30
0
 11
-5.411774120483756
 21
288.3956132499935
 31
0
  0
LINE
  8
1
 62
2
 10
-11.47876390409134
 20
278.0859827792667
 30
0
 11
-5.411774120483756
 21
284.1529725628742
 31
0
  0
LINE
  8
1
 62
2
 10
-10.90387941312238
 20
274.4182265831163
 30
0
 11
-5.411774120483756
 21
279.9103318757549
 31
0
  0
LINE
  8
1
 62
2
 10
-6.66123872600317
 20
274.4182265831163
 30
0
 11
-5.411774120483756
 21
275.6676911886357
 31
0
  0
ENDBLK
  8
0
  0
BLOCK
  8
1
  2
*X4
 70
1
 10
0
 20
0
 30
0
  0
LINE
  8
1
 62
2
 10
114.8082722827556
 20
344.9760493464436
 30
0
 11
117.0982754799764
 21
347.2660525436644
 31
0
  0
LINE
  8
1
 62
2
 10
114.808272022657
 20
340.7334083992258
 30
0
 11
121.3409161670957
 21
347.2660525436644
 31
0
  0
LINE
  8
1
 62
2
 10
114.8082717625584
 20
336.4907674520079
 30
0
 11
125.583556854215
 21
347.2660525436644
 31
0
  0
LINE
  8
1
 62
2
 10
114.8082715024598
 20
332.24812650479
 30
0
 11
129.8261975413342
 21
347.2660525436644
 31
0
  0
LINE
  8
1
 62
2
 10
114.8082712423613
 20
328.0054855575722
 30
0
 11
134.0688382284535
 21
347.2660525436644
 31
0
  0
LINE
  8
1
 62
2
 10
128.9474999817307
 20
337.9020736098224
 30
0
 11
138.3114789155728
 21
347.2660525436644
 31
0
  0
LINE
  8
1
 62
2
 10
114.8082709822627
 20
323.7628446103543
 30
0
 11
123.3243420460719
 21
332.2789156741634
 31
0
  0
LINE
  8
1
 62
2
 10
130.9325966599724
 20
335.6445296009447
 30
0
 11
141.1287269378842
 21
345.8406598788565
 31
0
  0
LINE
  8
1
 62
2
 10
114.8082707221641
 20
319.5202036631364
 30
0
 11
125.3094387243135
 21
330.0213716652858
 31
0
  0
LINE
  8
1
 62
2
 10
114.8082704620655
 20
315.2775627159186
 30
0
 11
142.3489295419632
 21
342.8182217958162
 31
0
  0
LINE
  8
1
 62
2
 10
148.8082678978211
 20
345.0349194645548
 30
0
 11
151.0394009769306
 21
347.2660525436644
 31
0
  0
LINE
  8
1
 62
2
 10
114.808270201967
 20
311.0349217687007
 30
0
 11
146.5915702290825
 21
342.8182217958162
 31
0
  0
LINE
  8
1
 62
2
 10
114.8082699418684
 20
306.7922808214829
 30
0
 11
155.2820416640499
 21
347.2660525436644
 31
0
  0
LINE
  8
1
 62
2
 10
114.8082696817698
 20
302.549639874265
 30
0
 11
159.5246823511692
 21
347.2660525436644
 31
0
  0
LINE
  8
1
 62
2
 10
115.1194970777404
 20
298.6182265831163
 30
0
 11
163.7673230382885
 21
347.2660525436644
 31
0
  0
LINE
  8
1
 62
2
 10
119.3621377648597
 20
298.6182265831163
 30
0
 11
168.0099637254078
 21
347.2660525436644
 31
0
  0
LINE
  8
1
 62
2
 10
123.604778451979
 20
298.6182265831163
 30
0
 11
172.2526044125271
 21
347.2660525436644
 31
0
  0
LINE
  8
1
 62
2
 10
127.8474191390983
 20
298.6182265831163
 30
0
 11
174.808258978405
 21
345.5790664224231
 31
0
  0
LINE
  8
1
 62
2
 10
132.0900598262176
 20
298.6182265831163
 30
0
 11
174.8082591885789
 21
341.3364259454777
 31
0
  0
LINE
  8
1
 62
2
 10
136.3327005133369
 20
298.6182265831163
 30
0
 11
174.8082593987528
 21
337.0937854685323
 31
0
  0
LINE
  8
1
 62
2
 10
140.5753412004561
 20
298.6182265831163
 30
0
 11
174.8082596089267
 21
332.8511449915869
 31
0
  0
LINE
  8
1
 62
2
 10
144.8179818875754
 20
298.6182265831163
 30
0
 11
174.8082598191006
 21
328.6085045146415
 31
0
  0
LINE
  8
1
 62
2
 10
149.0606225746947
 20
298.6182265831163
 30
0
 11
174.8082600292745
 21
324.3658640376962
 31
0
  0
LINE
  8
1
 62
2
 10
153.303263261814
 20
298.6182265831163
 30
0
 11
174.8082602394484
 21
320.1232235607508
 31
0
  0
LINE
  8
1
 62
2
 10
157.5459039489333
 20
298.6182265831163
 30
0
 11
174.8082604496223
 21
315.8805830838054
 31
0
  0
LINE
  8
1
 62
2
 10
161.7885446360526
 20
298.6182265831163
 30
0
 11
174.8082606597963
 21
311.63794260686
 31
0
  0
LINE
  8
1
 62
2
 10
166.0311853231719
 20
298.6182265831163
 30
0
 11
174.8082608699702
 21
307.3953021299146
 31
0
  0
LINE
  8
1
 62
2
 10
170.2738260102912
 20
298.6182265831163
 30
0
 11
174.8082610801441
 21
303.1526616529692
 31
0
  0
LINE
  8
1
 62
2
 10
174.5164666974105
 20
298.6182265831163
 30
0
 11
174.808261290318
 21
298.9100211760239
 31
0
  0
ENDBLK
  8
0
  0
BLOCK
  8
1
  2
*X5
 70
1
 10
0
 20
0
 30
0
  0
LINE
  8
1
 62
2
 10
-89.01856356424925
 20
267.7448605004109
 30
0
 11
-89.01856356424921
 21
267.8281039130191
 31
0
  0
LINE
  8
1
 62
2
 10
-88.91856356424925
 20
267.7064581007023
 30
0
 11
-88.91856356424921
 21
268.0122197863343
 31
0
  0
LINE
  8
1
 62
2
 10
-88.81856356424926
 20
267.6680557009936
 30
0
 11
-88.81856356424922
 21
268.1963356596495
 31
0
  0
LINE
  8
1
 62
2
 10
-88.71856356424927
 20
267.6296533012849
 30
0
 11
-88.71856356424922
 21
268.3804515329647
 31
0
  0
LINE
  8
1
 62
2
 10
-88.61856356424927
 20
267.5912509015763
 30
0
 11
-88.61856356424923
 21
268.5645674062799
 31
0
  0
LINE
  8
1
 62
2
 10
-88.51856356424928
 20
267.5528485018676
 30
0
 11
-88.51856356424923
 21
268.7486832795951
 31
0
  0
LINE
  8
1
 62
2
 10
-88.41856356424928
 20
267.5144461021589
 30
0
 11
-88.41856356424924
 21
268.9327991529103
 31
0
  0
LINE
  8
1
 62
2
 10
-88.31856356424929
 20
267.4760437024502
 30
0
 11
-88.31856356424925
 21
269.1169150262255
 31
0
  0
LINE
  8
1
 62
2
 10
-88.21856356424925
 20
267.8923180125102
 30
0
 11
-88.21856356424925
 21
269.3010308995407
 31
0
  0
LINE
  8
1
 62
2
 10
-88.11856356424926
 20
268.3085923225788
 30
0
 11
-88.11856356424926
 21
269.4851467728558
 31
0
  0
LINE
  8
1
 62
2
 10
-88.01856356424926
 20
268.7248666326474
 30
0
 11
-88.01856356424926
 21
269.669262646171
 31
0
  0
LINE
  8
1
 62
2
 10
-87.91856356424927
 20
269.141140942716
 30
0
 11
-87.91856356424927
 21
269.8533785194862
 31
0
  0
LINE
  8
1
 62
2
 10
-87.81856356424927
 20
269.5574152527846
 30
0
 11
-87.81856356424927
 21
270.0374943928014
 31
0
  0
LINE
  8
1
 62
2
 10
-87.71856356424928
 20
269.9736895628532
 30
0
 11
-87.71856356424928
 21
270.2216102661166
 31
0
  0
LINE
  8
1
 62
2
 10
-87.61856356424929
 20
270.3899638729218
 30
0
 11
-87.61856356424929
 21
270.4057261394318
 31
0
  0
ENDBLK
  8
0
  0
BLOCK
  8
1
  2
*X6
 70
1
 10
0
 20
0
 30
0
  0
LINE
  8
1
 62
2
 10
-2.338724897499671
 20
234.2001156246165
 30
0
 11
-2.338724897499671
 21
234.2454833237781
 31
0
  0
LINE
  8
1
 62
2
 10
-2.238724897499671
 20
234.0501408705175
 30
0
 11
-2.238724897499671
 21
234.1576142257123
 31
0
  0
LINE
  8
1
 62
2
 10
-2.13872489749967
 20
233.9001661164185
 30
0
 11
-2.13872489749967
 21
234.0697451276465
 31
0
  0
LINE
  8
1
 62
2
 10
-2.03872489749967
 20
233.7501913623195
 30
0
 11
-2.03872489749967
 21
233.9818760295806
 31
0
  0
LINE
  8
1
 62
2
 10
-1.93872489749967
 20
233.6002166082205
 30
0
 11
-1.93872489749967
 21
233.8940069315148
 31
0
  0
LINE
  8
1
 62
2
 10
-1.83872489749967
 20
233.4502418541215
 30
0
 11
-1.83872489749967
 21
233.806137833449
 31
0
  0
LINE
  8
1
 62
2
 10
-1.73872489749967
 20
233.3002671000226
 30
0
 11
-1.73872489749967
 21
233.7182687353832
 31
0
  0
LINE
  8
1
 62
2
 10
-1.63872489749967
 20
233.1502923459236
 30
0
 11
-1.63872489749967
 21
233.6303996373173
 31
0
  0
LINE
  8
1
 62
2
 10
-1.53872489749967
 20
233.0003175918246
 30
0
 11
-1.53872489749967
 21
233.5425305392515
 31
0
  0
LINE
  8
1
 62
2
 10
-1.43872489749967
 20
232.8503428377256
 30
0
 11
-1.43872489749967
 21
233.4546614411857
 31
0
  0
LINE
  8
1
 62
2
 10
-1.33872489749967
 20
232.7003680836266
 30
0
 11
-1.33872489749967
 21
233.3667923431199
 31
0
  0
LINE
  8
1
 62
2
 10
-1.23872489749967
 20
232.5503933295276
 30
0
 11
-1.23872489749967
 21
233.2789232450541
 31
0
  0
LINE
  8
1
 62
2
 10
-1.13872489749967
 20
232.4004185754286
 30
0
 11
-1.13872489749967
 21
233.1910541469882
 31
0
  0
LINE
  8
1
 62
2
 10
-1.03872489749967
 20
232.2504438213296
 30
0
 11
-1.03872489749967
 21
233.1031850489224
 31
0
  0
LINE
  8
1
 62
2
 10
-0.9387248974996695
 20
232.1004690672306
 30
0
 11
-0.9387248974996695
 21
233.0153159508566
 31
0
  0
LINE
  8
1
 62
2
 10
-0.8387248974996695
 20
231.9504943131316
 30
0
 11
-0.8387248974996695
 21
232.9274468527908
 31
0
  0
LINE
  8
1
 62
2
 10
-0.7387248974996695
 20
231.8005195590326
 30
0
 11
-0.7387248974996695
 21
232.8395777547249
 31
0
  0
LINE
  8
1
 62
2
 10
-0.6387248974996694
 20
231.874730738928
 30
0
 11
-0.6387248974996695
 21
232.7517086566591
 31
0
  0
LINE
  8
1
 62
2
 10
-0.5387248974996695
 20
231.9622572244084
 30
0
 11
-0.5387248974996696
 21
232.6638395585933
 31
0
  0
LINE
  8
1
 62
2
 10
-0.4387248974996695
 20
232.0497837098888
 30
0
 11
-0.4387248974996695
 21
232.5759704605275
 31
0
  0
LINE
  8
1
 62
2
 10
-0.3387248974996695
 20
232.1373101953692
 30
0
 11
-0.3387248974996695
 21
232.4881013624616
 31
0
  0
LINE
  8
1
 62
2
 10
-0.2387248974996695
 20
232.2248366808496
 30
0
 11
-0.2387248974996695
 21
232.4002322643958
 31
0
  0
LINE
  8
1
 62
2
 10
-0.1387248974996695
 20
232.31236316633
 30
0
 11
-0.1387248974996695
 21
232.31236316633
 31
0
  0
ENDBLK
  8
0
  0
BLOCK
  8
1
  2
*X7
 70
1
 10
0
 20
0
 30
0
  0
LINE
  8
1
 62
2
 10
-51.40357848284845
 20
187.1994166919898
 30
0
 11
-51.40357848284847
 21
187.3556568772115
 31
0
  0
LINE
  8
1
 62
2
 10
-51.30357848284845
 20
187.141387116766
 30
0
 11
-51.30357848284847
 21
187.4853857746566
 31
0
  0
LINE
  8
1
 62
2
 10
-51.20357848284845
 20
187.0833575415422
 30
0
 11
-51.20357848284846
 21
187.6151146721017
 31
0
  0
LINE
  8
1
 62
2
 10
-51.10357848284845
 20
187.0253279663184
 30
0
 11
-51.10357848284846
 21
187.7448435695468
 31
0
  0
LINE
  8
1
 62
2
 10
-51.00357848284845
 20
186.9672983910946
 30
0
 11
-51.00357848284846
 21
187.8745724669919
 31
0
  0
LINE
  8
1
 62
2
 10
-50.90357848284845
 20
186.9092688158708
 30
0
 11
-50.90357848284846
 21
188.0043013644371
 31
0
  0
LINE
  8
1
 62
2
 10
-50.80357848284844
 20
186.851239240647
 30
0
 11
-50.80357848284846
 21
188.1340302618822
 31
0
  0
LINE
  8
1
 62
2
 10
-50.70357848284846
 20
187.0911620242701
 30
0
 11
-50.70357848284846
 21
188.2637591593273
 31
0
  0
LINE
  8
1
 62
2
 10
-50.60357848284846
 20
187.331084807899
 30
0
 11
-50.60357848284846
 21
188.3934880567724
 31
0
  0
LINE
  8
1
 62
2
 10
-50.50357848284845
 20
187.5710075915279
 30
0
 11
-50.50357848284845
 21
188.5232169542175
 31
0
  0
LINE
  8
1
 62
2
 10
-50.40357848284845
 20
187.8109303751569
 30
0
 11
-50.40357848284845
 21
188.6529458516627
 31
0
  0
LINE
  8
1
 62
2
 10
-50.30357848284845
 20
188.0508531587858
 30
0
 11
-50.30357848284845
 21
188.7826747491078
 31
0
  0
LINE
  8
1
 62
2
 10
-50.20357848284845
 20
188.2907759424148
 30
0
 11
-50.20357848284845
 21
188.9124036465529
 31
0
  0
LINE
  8
1
 62
2
 10
-50.10357848284845
 20
188.5306987260437
 30
0
 11
-50.10357848284845
 21
189.042132543998
 31
0
  0
LINE
  8
1
 62
2
 10
-50.00357848284845
 20
188.7706215096727
 30
0
 11
-50.00357848284845
 21
189.1718614414431
 31
0
  0
LINE
  8
1
 62
2
 10
-49.90357848284845
 20
189.0105442933016
 30
0
 11
-49.90357848284845
 21
189.3015903388883
 31
0
  0
LINE
  8
1
 62
2
 10
-49.80357848284844
 20
189.2504670769305
 30
0
 11
-49.80357848284844
 21
189.4313192363334
 31
0
  0
LINE
  8
1
 62
2
 10
-49.70357848284844
 20
189.4903898605595
 30
0
 11
-49.70357848284844
 21
189.5610481337785
 31
0
  0
ENDBLK
  8
0
  0
BLOCK
  8
1
  2
*D4
 70
1
 10
0
 20
0
 30
0
  0
LINE
  8
1
 62
2
 10
59.9280214009751
 20
238.418226583115
 30
0
 11
59.9280214009751
 21
274.4182265831163
 31
0
  0
LINE
  8
1
 62
2
 10
-4.411774120483763
 20
274.4182265831163
 30
0
 11
60.9280214009751
 21
274.4182265831163
 31
0
  0
LINE
  8
1
 62
2
 10
4.088225879516131
 20
238.418226583115
 30
0
 11
60.9280214009751
 21
238.418226583115
 31
0
  0
SOLID
  8
1
 62
2
 10
59.9280214009751
 20
274.4182265831163
 30
0
 11
60.3440214009751
 21
271.2182265831163
 31
0
 12
59.5120214009751
 22
271.2182265831163
 32
0
 13
59.5120214009751
 23
271.2182265831163
 33
0
  0
SOLID
  8
1
 62
2
 10
59.9280214009751
 20
238.418226583115
 30
0
 11
59.51202140097509
 21
241.618226583115
 31
0
 12
60.3440214009751
 22
241.618226583115
 32
0
 13
60.3440214009751
 23
241.618226583115
 33
0
  0
TEXT
  8
1
 62
2
 10
58.7280214009751
 20
254.0182265831157
 30
0
 40
3.2
  1
36
 50
90
 41
0.9
  0
ENDBLK
  8
0
  0
BLOCK
  8
1
  2
*D5
 70
1
 10
0
 20
0
 30
0
  0
LINE
  8
1
 62
2
 10
59.9280214009751
 20
274.4182265831163
 30
0
 11
59.9280214009751
 21
310.4182265831163
 31
0
  0
LINE
  8
1
 62
2
 10
3.588225879516131
 20
310.4182265831163
 30
0
 11
60.9280214009751
 21
310.4182265831163
 31
0
  0
LINE
  8
1
 62
2
 10
33.73559625922589
 20
274.4182265831163
 30
0
 11
60.9280214009751
 21
274.4182265831163
 31
0
  0
SOLID
  8
1
 62
2
 10
59.9280214009751
 20
310.4182265831163
 30
0
 11
60.3440214009751
 21
307.2182265831163
 31
0
 12
59.5120214009751
 22
307.2182265831163
 32
0
 13
59.5120214009751
 23
307.2182265831163
 33
0
  0
SOLID
  8
1
 62
2
 10
59.9280214009751
 20
274.4182265831163
 30
0
 11
59.51202140097509
 21
277.6182265831163
 31
0
 12
60.3440214009751
 22
277.6182265831163
 32
0
 13
60.3440214009751
 23
277.6182265831163
 33
0
  0
TEXT
  8
1
 62
2
 10
58.7280214009751
 20
290.0182265831163
 30
0
 40
3.2
  1
36
 50
90
 41
0.9
  0
ENDBLK
  8
0
  0
BLOCK
  8
1
  2
*D6
 70
1
 10
0
 20
0
 30
0
  0
LINE
  8
1
 62
2
 10
-86.41177412048373
 20
377.290099938575
 30
0
 11
-1.411774120483749
 21
377.290099938575
 31
0
  0
LINE
  8
1
 62
2
 10
-1.411774120483749
 20
340.1827002802851
 30
0
 11
-1.411774120483749
 21
378.290099938575
 31
0
  0
LINE
  8
1
 62
2
 10
-86.41177412048373
 20
340.1827002802851
 30
0
 11
-86.41177412048373
 21
378.290099938575
 31
0
  0
SOLID
  8
1
 62
2
 10
-86.41177412048373
 20
377.290099938575
 30
0
 11
-83.21177412048372
 21
377.706099938575
 31
0
 12
-83.21177412048372
 22
376.874099938575
 32
0
 13
-83.21177412048372
 23
376.874099938575
 33
0
  0
SOLID
  8
1
 62
2
 10
-1.411774120483749
 20
377.290099938575
 30
0
 11
-4.61177412048375
 21
376.874099938575
 31
0
 12
-4.61177412048375
 22
377.706099938575
 32
0
 13
-4.61177412048375
 23
377.706099938575
 33
0
  0
TEXT
  8
1
 62
2
 10
-46.31177412048374
 20
378.490099938575
 30
0
 40
3.2
  1
85
 41
0.9
  0
ENDBLK
  8
0
  0
BLOCK
  8
1
  2
*D7
 70
1
 10
0
 20
0
 30
0
  0
LINE
  8
1
 62
2
 10
105.846791454451
 20
287.2330158091274
 30
0
 11
105.846791454451
 21
293.6330158091274
 31
0
  0
LINE
  8
1
 62
2
 10
105.846791454451
 20
293.6330158091274
 30
0
 11
105.846791454451
 21
294.6330158091274
 31
0
  0
LINE
  8
1
 62
2
 10
105.846791454451
 20
294.6330158091274
 30
0
 11
105.846791454451
 21
319.381181629412
 31
0
  0
LINE
  8
1
 62
2
 10
114.8082692819689
 20
293.6330158091274
 30
0
 11
104.846791454451
 21
293.6330158091274
 31
0
  0
LINE
  8
1
 62
2
 10
113.808269331389
 20
294.6330158091274
 30
0
 11
104.846791454451
 21
294.6330158091274
 31
0
  0
SOLID
  8
1
 62
2
 10
105.846791454451
 20
293.6330158091274
 30
0
 11
106.262791454451
 21
290.4330158091274
 31
0
 12
105.430791454451
 22
290.4330158091274
 32
0
 13
105.430791454451
 23
290.4330158091274
 33
0
  0
SOLID
  8
1
 62
2
 10
105.846791454451
 20
294.6330158091274
 30
0
 11
105.430791454451
 21
297.8330158091274
 31
0
 12
106.262791454451
 22
297.8330158091274
 32
0
 13
106.262791454451
 23
297.8330158091274
 33
0
  0
TEXT
  8
1
 62
2
 10
105.756791454451
 20
307.009981629412
 30
0
 40
3.2
  1
1
 50
90
 41
0.8910000000000001
  0
TEXT
  8
1
 62
2
 10
105.756791454451
 20
300.024381629412
 30
0
 40
3.2
  1
Sm
 50
90
 41
0.8910000000000001
  0
TEXT
  8
1
 62
2
 10
105.756791454451
 20
309.560381629412
 30
0
 40
3.2
  1
x45%%d
 50
90
 41
0.8910000000000001
  0
ENDBLK
  8
0
  0
BLOCK
  8
1
  2
*D8
 70
1
 10
0
 20
0
 30
0
  0
LINE
  8
1
 62
2
 10
-112.3117741203777
 20
46.9372451790636
 30
0
 11
24.48822587961304
 21
46.9372451790636
 31
0
  0
LINE
  8
1
 62
2
 10
-112.3117741203777
 20
46.9372451790636
 30
0
 11
24.48822587961304
 21
46.9372451790636
 31
0
  0
LINE
  8
1
 62
2
 10
-112.3117741203777
 20
86.36714154360608
 30
0
 11
-112.3117741203777
 21
45.9372451790636
 31
0
  0
LINE
  8
1
 62
2
 10
24.48822587961304
 20
86.36714154360608
 30
0
 11
24.48822587961304
 21
45.9372451790636
 31
0
  0
SOLID
  8
1
 62
2
 10
24.48822587961304
 20
46.9372451790636
 30
0
 11
21.28822587961304
 21
46.52124517906361
 31
0
 12
21.28822587961304
 22
47.3532451790636
 32
0
 13
21.28822587961304
 23
47.3532451790636
 33
0
  0
SOLID
  8
1
 62
2
 10
-112.3117741203777
 20
46.9372451790636
 30
0
 11
-109.1117741203777
 21
47.3532451790636
 31
0
 12
-109.1117741203777
 22
46.52124517906361
 32
0
 13
-109.1117741203777
 23
46.52124517906361
 33
0
  0
TEXT
  8
1
 62
2
 10
-49.27177412038233
 20
48.45724517906361
 30
0
 40
3.2
  1
136,8
 41
0.8910000000000001
  0
ENDBLK
  8
0
  0
BLOCK
  8
1
  2
*D9
 70
1
 10
0
 20
0
 30
0
  0
LINE
  8
1
 62
2
 10
5.588225879516131
 20
357.334572192513
 30
0
 11
23.37695321915685
 21
357.334572192513
 31
0
  0
LINE
  8
1
 62
2
 10
-8.411774120483869
 20
357.334572192513
 30
0
 11
5.588225879516131
 21
357.334572192513
 31
0
  0
LINE
  8
1
 62
2
 10
5.588225879516131
 20
332.5708397388
 30
0
 11
5.588225879516131
 21
358.334572192513
 31
0
  0
LINE
  8
1
 62
2
 10
-8.411774120483869
 20
344.4828332780647
 30
0
 11
-8.411774120483869
 21
358.334572192513
 31
0
  0
SOLID
  8
1
 62
2
 10
5.588225879516131
 20
357.334572192513
 30
0
 11
2.38822587951613
 21
356.918572192513
 31
0
 12
2.38822587951613
 22
357.750572192513
 32
0
 13
2.38822587951613
 23
357.750572192513
 33
0
  0
SOLID
  8
1
 62
2
 10
-8.411774120483869
 20
357.334572192513
 30
0
 11
-5.211774120483868
 21
357.750572192513
 31
0
 12
-5.211774120483868
 22
356.918572192513
 32
0
 13
-5.211774120483868
 23
356.918572192513
 33
0
  0
TEXT
  8
1
 62
2
 10
13.25305321915685
 20
358.299572192513
 30
0
 40
3.2
  1
14
 41
0.8910000000000001
  0
TEXT
  8
1
 62
2
 10
18.65465321915685
 20
360.394572192513
 30
0
 40
1.8
  1
 0
 41
0.8910000000000001
  0
TEXT
  8
1
 62
2
 10
18.65465321915685
 20
357.604572192513
 30
0
 40
1.8
  1
-0,2
 41
0.8910000000000001
  0
TEXT
  8
1
 62
2
 10
9.435453219156848
 20
358.299572192513
 30
0
 40
3.2
  1
%%c
 41
0.8910000000000001
  0
ENDBLK
  8
0
  0
BLOCK
  8
1
  2
*D10
 70
1
 10
0
 20
0
 30
0
  0
LINE
  8
1
 62
2
 10
62.1930214009751
 20
226.4182265831151
 30
0
 11
62.1930214009751
 21
238.4182265831151
 31
0
  0
LINE
  8
1
 62
2
 10
7.093779378981253
 20
238.4182265831151
 30
0
 11
63.1930214009751
 21
238.4182265831151
 31
0
  0
LINE
  8
1
 62
2
 10
7.588225879516131
 20
226.4182265831151
 30
0
 11
63.1930214009751
 21
226.4182265831151
 31
0
  0
SOLID
  8
1
 62
2
 10
62.1930214009751
 20
238.4182265831151
 30
0
 11
62.6090214009751
 21
235.2182265831151
 31
0
 12
61.7770214009751
 22
235.2182265831151
 32
0
 13
61.7770214009751
 23
235.2182265831151
 33
0
  0
SOLID
  8
1
 62
2
 10
62.1930214009751
 20
226.4182265831151
 30
0
 11
61.77702140097509
 21
229.6182265831151
 31
0
 12
62.6090214009751
 22
229.6182265831151
 32
0
 13
62.6090214009751
 23
229.6182265831151
 33
0
  0
TEXT
  8
1
 62
2
 10
61.2280214009751
 20
227.3562765831151
 30
0
 40
3.2
  1
12
 50
90
 41
0.8910000000000001
  0
TEXT
  8
1
 62
2
 10
58.9530214009751
 20
232.7578765831151
 30
0
 40
1.8
  1
+0,2
 50
90
 41
0.8910000000000001
  0
TEXT
  8
1
 62
2
 10
62.1030214009751
 20
232.7578765831151
 30
0
 40
1.8
  1
 0
 50
90
 41
0.8910000000000001
  0
ENDBLK
  8
0
  0
BLOCK
  8
1
  2
*D11
 70
1
 10
0
 20
0
 30
0
  0
LINE
  8
1
 62
2
 10
-9.411774120483869
 20
191.6391305036023
 30
0
 11
6.588225879516132
 21
191.6391305036023
 31
0
  0
LINE
  8
1
 62
2
 10
6.588225879516132
 20
213.8839325073413
 30
0
 11
6.588225879516132
 21
190.6391305036023
 31
0
  0
LINE
  8
1
 62
2
 10
-9.411774120483869
 20
200.9666351522796
 30
0
 11
-9.411774120483869
 21
190.6391305036023
 31
0
  0
SOLID
  8
1
 62
2
 10
-9.411774120483869
 20
191.6391305036023
 30
0
 11
-6.211774120483868
 21
192.0551305036023
 31
0
 12
-6.211774120483868
 22
191.2231305036023
 32
0
 13
-6.211774120483868
 23
191.2231305036023
 33
0
  0
SOLID
  8
1
 62
2
 10
6.588225879516132
 20
191.6391305036023
 30
0
 11
3.388225879516132
 21
191.2231305036023
 31
0
 12
3.388225879516132
 22
192.0551305036023
 32
0
 13
3.388225879516132
 23
192.0551305036023
 33
0
  0
TEXT
  8
1
 62
2
 10
-4.56492412048387
 20
192.6041305036023
 30
0
 40
3.2
  1
16
 41
0.8910000000000001
  0
TEXT
  8
1
 62
2
 10
0.8366758795161311
 20
194.8791305036023
 30
0
 40
1.8
  1
+0,2
 41
0.8910000000000001
  0
TEXT
  8
1
 62
2
 10
0.8366758795161311
 20
191.7291305036023
 30
0
 40
1.8
  1
 0
 41
0.8910000000000001
  0
TEXT
  8
1
 62
2
 10
-8.38252412048387
 20
192.6041305036023
 30
0
 40
3.2
  1
%%c
 41
0.8910000000000001
  0
ENDBLK
  8
0
  0
BLOCK
  8
1
  2
*D12
 70
1
 10
0
 20
0
 30
0
  0
LINE
  8
1
 62
2
 10
12.7541873384244
 20
78.36713421940608
 30
0
 11
12.7541873384244
 21
90.36713421940608
 31
0
  0
LINE
  8
1
 62
2
 10
-13.41177412031037
 20
90.36713421940608
 30
0
 11
13.7541873384244
 21
90.36713421940608
 31
0
  0
LINE
  8
1
 62
2
 10
1.988225879516223
 20
78.36713421940608
 30
0
 11
13.7541873384244
 21
78.36713421940608
 31
0
  0
SOLID
  8
1
 62
2
 10
12.7541873384244
 20
90.36713421940608
 30
0
 11
13.1701873384244
 21
87.16713421940608
 31
0
 12
12.3381873384244
 22
87.16713421940608
 32
0
 13
12.3381873384244
 23
87.16713421940608
 33
0
  0
SOLID
  8
1
 62
2
 10
12.7541873384244
 20
78.36713421940608
 30
0
 11
12.3381873384244
 21
81.56713421940609
 31
0
 12
13.1701873384244
 22
81.56713421940609
 32
0
 13
13.1701873384244
 23
81.56713421940609
 33
0
  0
TEXT
  8
1
 62
2
 10
12.6641873384244
 20
82.46633421940608
 30
0
 40
3.2
  1
12
 50
90
 41
0.8910000000000001
  0
ENDBLK
  8
0
  0
BLOCK
  8
1
  2
*D13
 70
1
 10
0
 20
0
 30
0
  0
LINE
  8
1
 62
2
 10
-98.421764695281
 20
90.36713421940608
 30
0
 11
-98.421764695281
 21
100.3671342194061
 31
0
  0
LINE
  8
1
 62
2
 10
-89.51177412048364
 20
100.3671342194061
 30
0
 11
-99.421764695281
 21
100.3671342194061
 31
0
  0
LINE
  8
1
 62
2
 10
-83.41177412031037
 20
90.36713421940608
 30
0
 11
-99.421764695281
 21
90.36713421940608
 31
0
  0
SOLID
  8
1
 62
2
 10
-98.421764695281
 20
90.36713421940608
 30
0
 11
-98.837764695281
 21
93.56713421940609
 31
0
 12
-98.005764695281
 22
93.56713421940609
 32
0
 13
-98.005764695281
 23
93.56713421940609
 33
0
  0
SOLID
  8
1
 62
2
 10
-98.421764695281
 20
100.3671342194061
 30
0
 11
-98.005764695281
 21
97.16713421940609
 31
0
 12
-98.837764695281
 22
97.16713421940609
 32
0
 13
-98.837764695281
 23
97.16713421940609
 33
0
  0
TEXT
  8
1
 62
2
 10
-98.511764695281
 20
93.46633421940609
 30
0
 40
3.2
  1
10
 50
90
 41
0.8910000000000001
  0
ENDBLK
  8
0
  0
BLOCK
  8
1
  2
*D14
 70
1
 10
0
 20
0
 30
0
  0
LINE
  8
1
 62
2
 10
-120.5591445001431
 20
35.8799449035815
 30
0
 11
32.73559625927567
 21
35.8799449035815
 31
0
  0
LINE
  8
1
 62
2
 10
-120.5591445001431
 20
35.8799449035815
 30
0
 11
32.73559625927567
 21
35.8799449035815
 31
0
  0
LINE
  8
1
 62
2
 10
32.73559625927567
 20
59.36713421940608
 30
0
 11
32.73559625927567
 21
34.8799449035815
 31
0
  0
LINE
  8
1
 62
2
 10
-120.5591445001431
 20
59.36713421940608
 30
0
 11
-120.5591445001431
 21
34.8799449035815
 31
0
  0
SOLID
  8
1
 62
2
 10
32.73559625927567
 20
35.8799449035815
 30
0
 11
29.53559625927567
 21
35.46394490358151
 31
0
 12
29.53559625927567
 22
36.2959449035815
 32
0
 13
29.53559625927567
 23
36.2959449035815
 33
0
  0
SOLID
  8
1
 62
2
 10
-120.5591445001431
 20
35.8799449035815
 30
0
 11
-117.3591445001431
 21
36.2959449035815
 31
0
 12
-117.3591445001431
 22
35.46394490358151
 32
0
 13
-117.3591445001431
 23
35.46394490358151
 33
0
  0
TEXT
  8
1
 62
2
 10
-49.27177412043372
 20
37.3999449035815
 30
0
 40
3.2
  1
153,3
 41
0.8910000000000001
  0
ENDBLK
  8
0
  0
BLOCK
  8
1
  2
*D15
 70
1
 10
0
 20
0
 30
0
  0
LINE
  8
1
 62
2
 10
-150.498823518811
 20
195.8651444032162
 30
0
 11
-150.498823518811
 21
352.9713087630163
 31
0
  0
LINE
  8
1
 62
2
 10
-44.91177412048369
 20
352.9713087630163
 30
0
 11
-151.498823518811
 21
352.9713087630163
 31
0
  0
LINE
  8
1
 62
2
 10
-44.91177412048369
 20
195.8651444032162
 30
0
 11
-151.498823518811
 21
195.8651444032162
 31
0
  0
SOLID
  8
1
 62
2
 10
-150.498823518811
 20
195.8651444032162
 30
0
 11
-150.914823518811
 21
199.0651444032162
 31
0
 12
-150.082823518811
 22
199.0651444032162
 32
0
 13
-150.082823518811
 23
199.0651444032162
 33
0
  0
SOLID
  8
1
 62
2
 10
-150.498823518811
 20
352.9713087630163
 30
0
 11
-150.082823518811
 21
349.7713087630163
 31
0
 12
-150.914823518811
 22
349.7713087630163
 32
0
 13
-150.914823518811
 23
349.7713087630163
 33
0
  0
TEXT
  8
1
 62
2
 10
-152.018823518811
 20
277.831336898396
 30
0
 40
3.2
  1
157,1
 50
90
 41
0.8910000000000001
  0
TEXT
  8
1
 62
2
 10
-152.018823518811
 20
273.991336898396
 30
0
 40
3.2
  1
%%c
 50
90
 41
0.8910000000000001
  0
ENDBLK
  8
0
  0
BLOCK
  8
1
  2
*D16
 70
1
 10
0
 20
0
 30
0
  0
LINE
  8
1
 62
2
 10
-120.5493201772837
 20
389.14
 30
0
 11
32.7453708111163
 21
389.14
 31
0
  0
LINE
  8
1
 62
2
 10
-120.5493201772837
 20
389.14
 30
0
 11
32.7453708111163
 21
389.14
 31
0
  0
LINE
  8
1
 62
2
 10
32.7453708111163
 20
344.175721925134
 30
0
 11
32.7453708111163
 21
390.14
 31
0
  0
LINE
  8
1
 62
2
 10
-120.5493201772837
 20
258.1766125532163
 30
0
 11
-120.5493201772837
 21
345.4122994652409
 31
0
  0
LINE
  8
1
 62
2
 10
32.7453708111163
 20
258.2639603236163
 30
0
 11
32.7453708111163
 21
328.048235294118
 31
0
  0
LINE
  8
1
 62
2
 10
-120.5493201772837
 20
358.698930481283
 30
0
 11
-120.5493201772837
 21
390.14
 31
0
  0
SOLID
  8
1
 62
2
 10
32.7453708111163
 20
389.14
 30
0
 11
29.5453708111163
 21
388.724
 31
0
 12
29.5453708111163
 22
389.556
 32
0
 13
29.5453708111163
 23
389.556
 33
0
  0
SOLID
  8
1
 62
2
 10
-120.5493201772837
 20
389.14
 30
0
 11
-117.3493201772837
 21
389.556
 31
0
 12
-117.3493201772837
 22
388.724
 32
0
 13
-117.3493201772837
 23
388.724
 33
0
  0
TEXT
  8
1
 62
2
 10
-52.89697468308371
 20
390.66
 30
0
 40
3.2
  1
153,3
 41
0.8910000000000001
  0
TEXT
  8
1
 62
2
 10
-40.57697468308371
 20
391.29
 30
0
 40
1.8
  1
%%p0.15
 41
0.8910000000000001
  0
ENDBLK
  8
0
  0
BLOCK
  8
1
  2
*D17
 70
1
 10
0
 20
0
 30
0
  0
LINE
  8
1
 62
2
 10
-141.469946513463
 20
201.5703887966163
 30
0
 11
-141.469946513463
 21
347.2660525436644
 31
0
  0
LINE
  8
1
 62
2
 10
-44.95328303143002
 20
347.2660525436644
 30
0
 11
-142.469946513463
 21
347.2660525436644
 31
0
  0
LINE
  8
1
 62
2
 10
-44.91177412048367
 20
201.5703887966163
 30
0
 11
-142.469946513463
 21
201.5703887966163
 31
0
  0
SOLID
  8
1
 62
2
 10
-141.469946513463
 20
201.5703887966163
 30
0
 11
-141.885946513463
 21
204.7703887966163
 31
0
 12
-141.053946513463
 22
204.7703887966163
 32
0
 13
-141.053946513463
 23
204.7703887966163
 33
0
  0
SOLID
  8
1
 62
2
 10
-141.469946513463
 20
347.2660525436644
 30
0
 11
-141.053946513463
 21
344.0660525436644
 31
0
 12
-141.885946513463
 22
344.0660525436644
 32
0
 13
-141.885946513463
 23
344.0660525436644
 33
0
  0
TEXT
  8
1
 62
2
 10
-142.989946513463
 20
275.545561497326
 30
0
 40
3.2
  1
145,7
 50
90
 41
0.8910000000000001
  0
TEXT
  8
1
 62
2
 10
-142.989946513463
 20
271.705561497326
 30
0
 40
3.2
  1
%%c
 50
90
 41
0.8910000000000001
  0
ENDBLK
  8
0
  0
BLOCK
  8
0
  2
*D18
 70
1
 10
0
 20
0
 30
0
  0
LINE
  8
0
 62
2
 10
-64.08677412048371
 20
234.4192304632253
 30
0
 11
-47.87689412048373
 21
234.4192304632253
 31
0
  0
LINE
  8
0
 62
2
 10
-39.94665412048373
 20
234.4192304632253
 30
0
 11
-23.73677412048374
 21
234.4192304632253
 31
0
  0
LINE
  8
0
 62
2
 10
-64.08677412048371
 20
269.7307265831163
 30
0
 11
-64.08677412048371
 21
231.7317304632253
 31
0
  0
LINE
  8
0
 62
2
 10
-23.73677412048374
 20
269.7307265831163
 30
0
 11
-23.73677412048374
 21
231.7317304632253
 31
0
  0
SOLID
  8
0
 62
2
 10
-64.08677412048371
 20
234.4192304632253
 30
0
 11
-60.58677412048371
 21
234.8742304632253
 31
0
 12
-60.58677412048371
 22
233.9642304632253
 32
0
 13
-60.58677412048371
 23
233.9642304632253
 33
0
  0
SOLID
  8
0
 62
2
 10
-23.73677412048374
 20
234.4192304632253
 30
0
 11
-27.23677412048374
 21
233.9642304632253
 31
0
 12
-27.23677412048374
 22
234.8742304632253
 32
0
 13
-27.23677412048374
 23
234.8742304632253
 33
0
  0
TEXT
  8
0
 62
2
 10
-42.93753412048373
 20
232.8192304632253
 30
0
 40
3.2
  1
d
 41
0.9801
  0
TEXT
  8
0
 62
2
 10
-46.97689412048373
 20
232.8192304632253
 30
0
 40
3.2
  1
%%c
 41
0.9801
  0
ENDBLK
  8
0
  0
BLOCK
  8
1
  2
*D19
 70
1
 10
0
 20
0
 30
0
  0
LINE
  8
1
 62
2
 10
-17.5902138931425
 20
254.2432265831163
 30
0
 11
-17.5902138931425
 21
298.6182265831163
 31
0
  0
LINE
  8
1
 62
2
 10
-42.9117741204837
 20
254.2432265831163
 30
0
 11
-16.5902138931425
 21
254.2432265831163
 31
0
  0
LINE
  8
1
 62
2
 10
-36.76177412048372
 20
298.6182265831163
 30
0
 11
-16.5902138931425
 21
298.6182265831163
 31
0
  0
SOLID
  8
1
 62
2
 10
-17.5902138931425
 20
298.6182265831163
 30
0
 11
-17.1742138931425
 21
295.4182265831163
 31
0
 12
-18.0062138931425
 22
295.4182265831163
 32
0
 13
-18.0062138931425
 23
295.4182265831163
 33
0
  0
SOLID
  8
1
 62
2
 10
-17.5902138931425
 20
254.2432265831163
 30
0
 11
-18.0062138931425
 21
257.4432265831163
 31
0
 12
-17.1742138931425
 22
257.4432265831163
 32
0
 13
-17.1742138931425
 23
257.4432265831163
 33
0
  0
TEXT
  8
1
 62
2
 10
-17.6802138931425
 20
281.390027807487
 30
0
 40
3.2
  1
b
 50
90
 41
0.8910000000000001
  0
ENDBLK
  8
0
  0
BLOCK
  8
1
  2
*D20
 70
1
 10
0
 20
0
 30
0
  0
LINE
  8
1
 62
2
 10
-50.06177412048368
 20
281.881818181818
 30
0
 11
-37.76177412048372
 21
281.881818181818
 31
0
  0
LINE
  8
1
 62
2
 10
-37.76177412048372
 20
292.6330158091163
 30
0
 11
-37.76177412048372
 21
280.881818181818
 31
0
  0
LINE
  8
1
 62
2
 10
-50.06177412048368
 20
292.6330158091163
 30
0
 11
-50.06177412048368
 21
280.881818181818
 31
0
  0
SOLID
  8
1
 62
2
 10
-50.06177412048368
 20
281.881818181818
 30
0
 11
-46.86177412048368
 21
282.297818181818
 31
0
 12
-46.86177412048368
 22
281.465818181818
 32
0
 13
-46.86177412048368
 23
281.465818181818
 33
0
  0
SOLID
  8
1
 62
2
 10
-37.76177412048372
 20
281.881818181818
 30
0
 11
-40.96177412048372
 21
281.465818181818
 31
0
 12
-40.96177412048372
 22
282.297818181818
 32
0
 13
-40.96177412048372
 23
282.297818181818
 33
0
  0
TEXT
  8
1
 62
2
 10
-44.8717741204837
 20
283.081818181818
 30
0
 40
3.2
  1
c
 41
0.9
  0
ENDBLK
  8
0
  0
BLOCK
  8
0
  2
*D21
 70
1
 10
0
 20
0
 30
0
  0
LINE
  8
0
 62
2
 10
216.1110107351439
 20
121.9346510470611
 30
0
 11
230.534461734632
 21
99.51095105952471
 31
0
  0
SOLID
  8
0
 62
2
 10
216.1110107351439
 20
121.934651047061
 30
0
 11
213.8349237179671
 21
124.6321411564477
 31
0
 12
214.6002685597618
 22
125.1244289514803
 32
0
 13
214.6002685597618
 23
125.1244289514803
 33
0
  0
TEXT
  8
0
 62
2
 10
231.9541593074987
 20
94.06889411370024
 30
0
 40
3.5
  1
6
 50
302.7500768156664
 41
0.9801
  0
TEXT
  8
0
 62
2
 10
229.5495227702238
 20
97.80730930246706
 30
0
 40
3.5
  1
R
 50
302.7500768156664
 41
0.9801
  0
ENDBLK
  8
0
  0
BLOCK
  8
1
  2
*D22
 70
1
 10
0
 20
0
 30
0
  0
LINE
  8
1
 62
2
 10
141.8082649409
 20
343.8182232123162
 30
0
 11
126.839459890361
 21
330.6558994364692
 31
0
  0
SOLID
  8
1
 62
2
 10
141.057297081106
 20
343.1578844556492
 30
0
 11
143.1856933096732
 21
345.5833711066578
 31
0
 12
143.7350951552201
 22
344.9585658473092
 32
0
 13
143.7350951552201
 23
344.9585658473092
 33
0
  0
TEXT
  8
1
 62
2
 10
128.9307699639695
 20
334.0927616938231
 30
0
 40
3.2
  1
1
 50
41.3257134183517
 41
0.8910000000000001
  0
TEXT
  8
1
 62
2
 10
126.0470533823606
 20
331.557060868222
 30
0
 40
3.2
  1
R
 50
41.3257134183517
 41
0.8910000000000001
  0
ENDBLK
  8
0
  0
BLOCK
  8
1
  2
*D23
 70
1
 10
0
 20
0
 30
0
  0
LINE
  8
1
 62
2
 10
24.65721443884421
 20
93.92338298418578
 30
0
 11
41.94079018784075
 21
82.35431474840512
 31
0
  0
SOLID
  8
1
 62
2
 10
24.65721443884421
 20
93.92338298418578
 30
0
 11
27.54785691649915
 21
92.48907406823464
 31
0
 12
27.08505424770966
 22
91.79767137098699
 32
0
 13
27.08505424770966
 23
91.79767137098699
 33
0
  0
TEXT
  8
1
 62
2
 10
40.5495442768849
 20
83.39387146895892
 30
0
 40
3.2
  1
1
 50
326.2029239386866
 41
0.8910000000000001
  0
TEXT
  8
1
 62
2
 10
37.37706959297548
 20
85.51742371459685
 30
0
 40
3.2
  1
R
 50
326.2029239386866
 41
0.8910000000000001
  0
ENDBLK
  8
0
  0
BLOCK
  8
1
  2
*D24
 70
1
 10
0
 20
0
 30
0
  0
LINE
  8
1
 62
2
 10
-38.26177412048372
 20
298.6182265831163
 30
0
 11
-25.17654041998146
 21
311.8864871959655
 31
0
  0
SOLID
  8
1
 62
2
 10
-37.91068465072899
 20
298.9742268418625
 30
0
 11
-35.95990425957554
 21
301.5447349366739
 31
0
 12
-35.3675198290219
 22
300.9605220590021
 32
0
 13
-35.3675198290219
 23
300.9605220590021
 33
0
  0
TEXT
  8
1
 62
2
 10
-30.41568052846589
 20
308.7387561204653
 30
0
 40
3.2
  1
0,5
 50
45.39791690962218
 41
0.9
  0
TEXT
  8
1
 62
2
 10
-33.11204765618226
 20
306.0046741332948
 30
0
 40
3.2
  1
R
 50
45.39791690962218
 41
0.9
  0
ENDBLK
  8
0
  0
BLOCK
  8
1
  2
*D25
 70
1
 10
0
 20
0
 30
0
  0
LINE
  8
1
 62
2
 10
235.2195558912657
 20
157.0477567500801
 30
0
 11
237.5508728579958
 21
138.0662857683455
 31
0
  0
SOLID
  8
1
 62
2
 10
237.5508728579958
 20
138.0662857683455
 30
0
 11
236.7478805827319
 21
141.1917072448613
 31
0
 12
237.5736753735649
 22
141.2931319136217
 32
0
 13
237.5736753735649
 23
141.2931319136217
 33
0
  0
TEXT
  8
1
 62
2
 10
235.7742678463551
 20
153.2696005321769
 30
0
 40
3.2
  1
157.7
 50
277.0020381123404
 41
0.8910000000000001
  0
TEXT
  8
1
 62
2
 10
235.3088846546972
 20
157.0587281685758
 30
0
 40
3.2
  1
%%c
 50
277.0020381123404
 41
0.8910000000000001
  0
ENDBLK
  8
0
  0
BLOCK
  8
1
  2
*D26
 70
1
 10
0
 20
0
 30
0
  0
LINE
  8
1
 62
2
 10
5.749575074537161
 20
83.75067159146266
 30
0
 11
-16.50649368380632
 21
104.313339766742
 31
0
  0
SOLID
  8
1
 62
2
 10
1.89346396952576
 20
87.31338223727848
 30
0
 11
-0.9860450231191265
 21
89.35432637205464
 31
0
 12
-0.3685085111777364
 22
90.02271896358992
 32
0
 13
-0.3685085111777364
 23
90.02271896358992
 33
0
  0
SOLID
  8
1
 62
2
 10
-4.717012210493259
 20
93.42088620153369
 30
0
 11
-1.837503217848373
 21
91.37994206675752
 31
0
 12
-2.455039729789764
 22
90.71154947522223
 32
0
 13
-2.455039729789764
 23
90.71154947522223
 33
0
  0
TEXT
  8
1
 62
2
 10
-10.96587924750288
 20
104.1211335474722
 30
0
 40
3.5
  1
9
 50
317.2647601690333
 41
0.8910000000000002
  0
TEXT
  8
1
 62
2
 10
-6.32701985887161
 20
103.4686688855881
 30
0
 40
2.45
  1
+0,2
 50
317.2647601690333
 41
0.8910000000000001
  0
TEXT
  8
1
 62
2
 10
-9.236566886287779
 20
100.3195114831622
 30
0
 40
2.45
  1
 0
 50
317.2647601690333
 41
0.8910000000000001
  0
TEXT
  8
1
 62
2
 10
-14.05076813151191
 20
106.9713020641248
 30
0
 40
3.5
  1
%%c
 50
317.2647601690333
 41
0.8910000000000002
  0
ENDBLK
  8
0
  0
BLOCK
  8
1
  2
*D27
 70
1
 10
0
 20
0
 30
0
  0
LINE
  8
1
 62
2
 10
-7.346389958670958
 20
82.53160715762256
 30
0
 11
24.25987087337136
 21
60.35267906824207
 31
0
  0
SOLID
  8
1
 62
2
 10
0.2253612831540792
 20
77.21831409851875
 30
0
 11
-2.900982250714013
 21
78.85630100574394
 31
0
 12
-2.378269095710284
 22
79.60119761439917
 32
0
 13
-2.378269095710284
 23
79.60119761439917
 33
0
  0
SOLID
  8
1
 62
2
 10
-3.048909524121619
 20
79.51595434029338
 30
0
 11
0.07743400974648207
 21
77.87796743306819
 31
0
 12
-0.4452791452572429
 22
77.13307082441297
 32
0
 13
-0.4452791452572429
 23
77.13307082441297
 33
0
  0
TEXT
  8
1
 62
2
 10
18.47412808437654
 20
68.83351559491175
 30
0
 40
3.5
  1
4
 50
324.941671170302
 41
0.8910000000000002
  0
TEXT
  8
1
 62
2
 10
23.01784012037971
 20
68.60604032948729
 30
0
 40
2.45
  1
 0
 50
324.941671170302
 41
0.8910000000000001
  0
TEXT
  8
1
 62
2
 10
20.83651791584493
 20
65.49752948182993
 30
0
 40
2.45
  1
-0,1
 50
324.941671170302
 41
0.8910000000000001
  0
TEXT
  8
1
 62
2
 10
12.45765547600745
 20
73.05542953917262
 30
0
 40
3.5
  1
*%%c
 50
324.941671170302
 41
0.8910000000000002
  0
ENDBLK
  8
0
  0
BLOCK
  8
1
  2
*D28
 70
1
 10
0
 20
0
 30
0
  0
LINE
  8
1
 62
2
 10
-79.50492982293579
 20
97.85357064363808
 30
0
 11
-109.8577997131079
 21
108.8996960359607
 31
0
  0
SOLID
  8
1
 62
2
 10
-84.43839003547004
 20
99.64897319775811
 30
0
 11
-87.88296506518333
 21
100.4183416820852
 31
0
 12
-87.57176195580252
 22
101.2734747855911
 32
0
 13
-87.57176195580252
 23
101.2734747855911
 33
0
  0
SOLID
  8
1
 62
2
 10
-88.38515820549733
 20
101.0852952410541
 30
0
 11
-84.94058317578406
 21
100.315926756727
 31
0
 12
-85.25178628516487
 22
99.46079365322107
 32
0
 13
-85.25178628516487
 23
99.46079365322107
 33
0
  0
TEXT
  8
1
 62
2
 10
-101.7134100836128
 20
109.7866961066895
 30
0
 40
3.5
  1
4
 50
340.0023599044134
 41
0.8910000000000002
  0
TEXT
  8
1
 62
2
 10
-97.2666617486022
 20
110.7476816984548
 30
0
 40
2.45
  1
 0
 50
340.0023599044134
 41
0.8910000000000001
  0
TEXT
  8
1
 62
2
 10
-98.56533626274904
 20
107.1791454780549
 30
0
 40
2.45
  1
-0,1
 50
340.0023599044134
 41
0.8910000000000001
  0
TEXT
  8
1
 62
2
 10
-108.6202543811608
 20
112.3002596824576
 30
0
 40
3.5
  1
*%%c
 50
340.0023599044134
 41
0.8910000000000002
  0
ENDBLK
  8
0
  0
BLOCK
  8
1
  2
*D29
 70
1
 10
0
 20
0
 30
0
  0
LINE
  8
1
 62
2
 10
-80.09617257841015
 20
324.162147954517
 30
0
 11
-66.53466501211415
 21
305.5186829583963
 31
0
  0
LINE
  8
1
 62
2
 10
-43.9117741204837
 20
318.586301245372
 30
0
 11
-43.9117741204837
 21
312.8764321970644
 31
0
  0
LINE
  8
1
 62
2
 10
-43.9117741204837
 20
318.586301245372
 30
0
 11
-43.9117741204837
 21
313.8764321970644
 31
0
  0
ARC
  8
1
 62
2
 10
-43.91177412048376
 20
274.4182265830756
 30
0
 40
39.45820561398881
 50
90
 51
126.0326473018285
  0
SOLID
  8
1
 62
2
 10
-43.9117741204837
 20
313.8764321970644
 30
0
 11
-47.1117741204837
 21
313.4604321970644
 31
0
 12
-47.1117741204837
 22
314.2924321970644
 32
0
 13
-47.1117741204837
 23
314.2924321970644
 33
0
  0
SOLID
  8
1
 62
2
 10
-67.12291114919871
 20
306.3273648997089
 30
0
 11
-70.32291114919872
 21
305.9113648997089
 31
0
 12
-70.32291114919872
 22
306.7433648997089
 32
0
 13
-70.32291114919872
 23
306.7433648997089
 33
0
  0
TEXT
  8
1
 62
2
 10
-59.83427564984449
 20
311.9942033341448
 30
0
 40
3.2
  1
36%%d
 50
18.0163236509155
 41
0.8910000000000001
  0
ENDBLK
  8
0
  0
ENDSEC
  0
SECTION
  2
ENTITIES
  0
INSERT
  8
1
  2
*X0
 10
0
 20
0
 30
0
  0
INSERT
  8
1
  2
*X1
 10
0
 20
0
 30
0
  0
INSERT
  8
1
  2
*X2
 10
0
 20
0
 30
0
  0
INSERT
  8
1
  2
*X3
 10
0
 20
0
 30
0
  0
INSERT
  8
1
  2
*X4
 10
0
 20
0
 30
0
  0
INSERT
  8
1
  2
*X5
 10
0
 20
0
 30
0
  0
INSERT
  8
1
  2
*X6
 10
0
 20
0
 30
0
  0
INSERT
  8
1
  2
*X7
 10
0
 20
0
 30
0
  0
POLYLINE
  8
0
 62
7
 66
1
  0
VERTEX
  8
0
 10
149.5892468262
 20
217.3716448628874
 30
0
  0
VERTEX
  8
0
 10
149.3184759521
 20
217.4698803364874
 30
0
  0
VERTEX
  8
0
 10
149.0580718994
 20
217.5529198872874
 30
0
  0
VERTEX
  8
0
 10
148.808270874
 20
217.6212096821874
 30
0
  0
SEQEND
  8
0
  0
POLYLINE
  8
0
 62
7
 66
1
  0
VERTEX
  8
0
 10
149.318449707
 20
199.5396314028162
 30
0
  0
VERTEX
  8
0
 10
149.0580718994
 20
199.7727405336162
 30
0
  0
VERTEX
  8
0
 10
148.808270874
 20
199.9938950136162
 30
0
  0
SEQEND
  8
0
  0
POLYLINE
  8
0
 62
7
 66
1
  0
VERTEX
  8
0
 10
148.808270874
 20
210.0892809712874
 30
0
  0
VERTEX
  8
0
 10
149.0583081055
 20
209.8003747212874
 30
0
  0
VERTEX
  8
0
 10
149.3185546875
 20
209.5099724995874
 30
0
  0
VERTEX
  8
0
 10
149.5892468262
 20
209.2181661640874
 30
0
  0
SEQEND
  8
0
  0
POLYLINE
  8
0
 62
7
 66
1
  0
VERTEX
  8
0
 10
148.808270874
 20
245.4734049476163
 30
0
  0
VERTEX
  8
0
 10
149.0583081055
 20
245.2584443153162
 30
0
  0
VERTEX
  8
0
 10
149.3185546875
 20
245.0508454384163
 30
0
  0
VERTEX
  8
0
 10
149.5892468262
 20
244.8510019935163
 30
0
  0
SEQEND
  8
0
  0
POLYLINE
  8
0
 62
7
 66
1
  0
VERTEX
  8
0
 10
140.0272845459
 20
256.8922223915163
 30
0
  0
VERTEX
  8
0
 10
140.2980554199
 20
256.8060990394163
 30
0
  0
VERTEX
  8
0
 10
140.5584594727
 20
256.7073517860163
 30
0
  0
VERTEX
  8
0
 10
140.808260498
 20
256.5966761268162
 30
0
  0
SEQEND
  8
0
  0
POLYLINE
  8
0
 62
7
 66
1
  0
VERTEX
  8
0
 10
151.8613391113
 20
216.5013042866874
 30
0
  0
VERTEX
  8
0
 10
150.6403900145999
 20
222.4629745136874
 30
0
  0
VERTEX
  8
0
 10
150.0316870117
 20
232.4097379091162
 30
0
  0
VERTEX
  8
0
 10
150.0317132568
 20
234.2364028584874
 30
0
  0
VERTEX
  8
0
 10
150.64046875
 20
237.2819364418163
 30
0
  0
VERTEX
  8
0
 10
151.8613391113
 20
243.2431473793163
 30
0
  0
SEQEND
  8
0
  0
POLYLINE
  8
0
 62
7
 66
1
  0
VERTEX
  8
0
 10
137.7551922607
 20
216.5013042866874
 30
0
  0
VERTEX
  8
0
 10
138.9761413574
 20
222.4629745136874
 30
0
  0
VERTEX
  8
0
 10
139.5848443604
 20
232.4097379091162
 30
0
  0
VERTEX
  8
0
 10
139.5848181152
 20
234.2364028584874
 30
0
  0
VERTEX
  8
0
 10
138.9760626221
 20
237.2819364418163
 30
0
  0
VERTEX
  8
0
 10
137.7551922607
 20
243.2431473793163
 30
0
  0
SEQEND
  8
0
  0
POLYLINE
  8
0
 62
7
 66
1
  0
VERTEX
  8
0
 10
140.808260498
 20
245.4734049476163
 30
0
  0
VERTEX
  8
0
 10
140.5582232666
 20
245.2584443153162
 30
0
  0
VERTEX
  8
0
 10
140.2979766846
 20
245.0508454384163
 30
0
  0
VERTEX
  8
0
 10
140.0272845459
 20
244.8510019935163
 30
0
  0
SEQEND
  8
0
  0
POLYLINE
  8
0
 62
7
 66
1
  0
VERTEX
  8
0
 10
149.5892468262
 20
256.8922223915163
 30
0
  0
VERTEX
  8
0
 10
149.3184759521
 20
256.8060990394163
 30
0
  0
VERTEX
  8
0
 10
149.0580718994
 20
256.7073517860163
 30
0
  0
VERTEX
  8
0
 10
148.808270874
 20
256.5966761268162
 30
0
  0
SEQEND
  8
0
  0
POLYLINE
  8
0
 62
7
 66
1
  0
VERTEX
  8
0
 10
140.808260498
 20
210.0892809712874
 30
0
  0
VERTEX
  8
0
 10
140.5582232666
 20
209.8003747212874
 30
0
  0
VERTEX
  8
0
 10
140.2979766846
 20
209.5099724995874
 30
0
  0
VERTEX
  8
0
 10
140.0272845459
 20
209.2181661640874
 30
0
  0
SEQEND
  8
0
  0
POLYLINE
  8
0
 62
7
 66
1
  0
VERTEX
  8
0
 10
140.0272845459
 20
217.3716448628874
 30
0
  0
VERTEX
  8
0
 10
140.2980554199
 20
217.4698803364874
 30
0
  0
VERTEX
  8
0
 10
140.5584594727
 20
217.5529198872874
 30
0
  0
VERTEX
  8
0
 10
140.808260498
 20
217.6212096821874
 30
0
  0
SEQEND
  8
0
  0
POLYLINE
  8
0
 62
7
 66
1
  0
VERTEX
  8
0
 10
137.7551922607
 20
197.2327774599162
 30
0
  0
VERTEX
  8
0
 10
140.2980554199
 20
199.5396314028162
 30
0
  0
VERTEX
  8
0
 10
140.5584594727
 20
199.7727405336162
 30
0
  0
VERTEX
  8
0
 10
140.808260498
 20
199.9938950136162
 30
0
  0
SEQEND
  8
0
  0
POLYLINE
  8
1
 62
2
 66
1
  0
VERTEX
  8
1
 10
-89.89349762115066
 20
274.4182265831137
 30
0
 42
0.004070543189948109
  0
VERTEX
  8
1
 10
-89.96004321244533
 20
274.2276216059465
 30
0
 42
0.01244115248002586
  0
VERTEX
  8
1
 10
-90.01943544968592
 20
274.0375605089216
 30
0
 42
0.02189935603178661
  0
VERTEX
  8
1
 10
-90.06452097881842
 20
273.8485871721814
 30
0
 42
0.032493819483139
  0
VERTEX
  8
1
 10
-90.08814644578874
 20
273.6612454758682
 30
0
 42
0.04373442360208273
  0
VERTEX
  8
1
 10
-90.08315849654284
 20
273.4760793001246
 30
0
 42
0.06757217363014588
  0
VERTEX
  8
1
 10
-90.00909250825805
 20
273.1851439894358
 30
0
 42
0.01747650781609914
  0
VERTEX
  8
1
 10
-89.8813007056722
 20
272.8983452363329
 30
0
 42
0.006339928219086642
  0
VERTEX
  8
1
 10
-89.73743685211883
 20
272.6128718732763
 30
0
 42
-0.03070580060600395
  0
VERTEX
  8
1
 10
-89.61515471093148
 20
272.3259127327265
 30
0
 42
-0.0650233737445836
  0
VERTEX
  8
1
 10
-89.55210804544365
 20
272.0346566471439
 30
0
 42
-0.07575569027431427
  0
VERTEX
  8
1
 10
-89.5866178956846
 20
271.679549345876
 30
0
 42
-0.03256675234250763
  0
VERTEX
  8
1
 10
-89.70218978665481
 20
271.3190288980351
 30
0
 42
0.001924720419073845
  0
VERTEX
  8
1
 10
-89.84223214509095
 20
270.9577808779592
 30
0
 42
0.03633355363209073
  0
VERTEX
  8
1
 10
-89.95015339772974
 20
270.6004908599862
 30
0
 42
0.08302340704266284
  0
VERTEX
  8
1
 10
-89.96936197130785
 20
270.2518444184539
 30
0
 42
0.08522098630028301
  0
VERTEX
  8
1
 10
-89.88720324159888
 20
269.9668361667682
 30
0
 42
0.01495374137207832
  0
VERTEX
  8
1
 10
-89.74164346559601
 20
269.6876478858661
 30
0
 42
0.01858877039036535
  0
VERTEX
  8
1
 10
-89.57267835681411
 20
269.410614683016
 30
0
 42
-0.02654176476225639
  0
VERTEX
  8
1
 10
-89.42030362876803
 20
269.1320716654861
 30
0
 42
-0.0624626094767669
  0
VERTEX
  8
1
 10
-89.32451499497265
 20
268.8483539405447
 30
0
 42
-0.1030443378357611
  0
VERTEX
  8
1
 10
-89.34339842532603
 20
268.3828673611423
 30
0
 42
-0.04209328963709497
  0
VERTEX
  8
1
 10
-89.50542330030297
 20
267.9031632600759
 30
0
 42
0.00306367501385766
  0
VERTEX
  8
1
 10
-89.71111150521315
 20
267.4172297457157
 30
0
 42
0.04708469951205655
  0
VERTEX
  8
1
 10
-89.86098492536623
 20
266.9330549264321
 30
0
 42
0.1091870257426081
  0
VERTEX
  8
1
 10
-89.85556544607184
 20
266.4586269105952
 30
0
 42
0.08342236576775708
  0
VERTEX
  8
1
 10
-89.73615430497156
 20
266.1725264396506
 30
0
 42
0.04466425455028489
  0
VERTEX
  8
1
 10
-89.53773383285962
 20
265.9121244990135
 30
0
 42
0.06518820405519457
  0
VERTEX
  8
1
 10
-89.28142918855437
 20
265.6961491386447
 30
0
 42
0.04470609124364194
  0
VERTEX
  8
1
 10
-88.98836553087422
 20
265.5433284085049
 30
0
 42
0.08290820555190141
  0
VERTEX
  8
1
 10
-88.67966801863756
 20
265.4723903585549
 30
0
 42
0.07068820544727801
  0
VERTEX
  8
1
 10
-88.33771978173795
 20
265.5000467489009
 30
0
 42
0.0366279521745221
  0
VERTEX
  8
1
 10
-88.00122269227995
 20
265.6023218508209
 30
0
 42
8.728476344705602e-005
  0
VERTEX
  8
1
 10
-87.66879815092615
 20
265.7287009326469
 30
0
 42
-0.03546004543302399
  0
VERTEX
  8
1
 10
-87.33906755833914
 20
265.8286692627109
 30
0
 42
-0.07737314789919228
  0
VERTEX
  8
1
 10
-87.01065231518155
 20
265.851712109345
 30
0
 42
-0.07022506150037786
  0
VERTEX
  8
1
 10
-86.69085408131581
 20
265.7681538742369
 30
0
 42
-0.02939272536359135
  0
VERTEX
  8
1
 10
-86.37321435980709
 20
265.614517724875
 30
0
 42
0.002233922088634261
  0
VERTEX
  8
1
 10
-86.0599518374093
 20
265.441969212941
 30
0
 42
0.03498283854882447
  0
VERTEX
  8
1
 10
-85.75328520087619
 20
265.3016738901167
 30
0
 42
0.08542658710825077
  0
VERTEX
  8
1
 10
-85.45543313696166
 20
265.2447973080838
 30
0
 42
0.1021636018575064
  0
VERTEX
  8
1
 10
-85.20864026444835
 20
265.2910780921403
 30
0
 42
0.03090616182347468
  0
VERTEX
  8
1
 10
-84.96498178434672
 20
265.4090158167061
 30
0
 42
0.03695034401643344
  0
VERTEX
  8
1
 10
-84.71954356274264
 20
265.5720910643848
 30
0
 42
-0.0008067252614122748
  0
VERTEX
  8
1
 10
-84.467411465722
 20
265.7537844177801
 30
0
 42
-0.02011128113398263
  0
VERTEX
  8
1
 10
-84.20367135937065
 20
265.9275764594954
 30
0
 42
-0.01933331036596557
  0
VERTEX
  8
1
 10
-83.95677649535848
 20
266.0599440615067
 30
0
 42
-0.004060922318712119
  0
VERTEX
  8
1
 10
-83.70999717477817
 20
266.1776986922084
 30
0
 42
0.01268019751703443
  0
VERTEX
  8
1
 10
-83.47666197847613
 20
266.2937542195384
 30
0
 42
0.03265801681467896
  0
VERTEX
  8
1
 10
-83.27009948729882
 20
266.4210245114348
 30
0
 42
0.06035085641424834
  0
VERTEX
  8
1
 10
-83.10363828209265
 20
266.5724234358353
 30
0
 42
0.1237830018329091
  0
VERTEX
  8
1
 10
-82.93521405923805
 20
266.9073997269118
 30
0
 42
0.06488784545957101
  0
VERTEX
  8
1
 10
-82.89793798377782
 20
267.3205813937292
 30
0
 42
0.05512374294894064
  0
VERTEX
  8
1
 10
-82.96763332479199
 20
267.7824883129563
 30
0
 42
0.02351450391564972
  0
VERTEX
  8
1
 10
-83.12012335136059
 20
268.2636403612615
 30
0
 42
0.03376223783264392
  0
VERTEX
  8
1
 10
-83.33123133256365
 20
268.7345574153136
 30
0
 42
0.001956141943157443
  0
VERTEX
  8
1
 10
-83.4902837039419
 20
269.0307191293474
 30
0
 42
-0.008111299430091125
  0
VERTEX
  8
1
 10
-83.64190871252339
 20
269.3122625237336
 30
0
 42
-0.02860308454715142
  0
VERTEX
  8
1
 10
-83.76331936301783
 20
269.582280891385
 30
0
 42
-0.05601752998799291
  0
VERTEX
  8
1
 10
-83.83172866013496
 20
269.8438675252145
 30
0
 42
-0.08509215782141805
  0
VERTEX
  8
1
 10
-83.82434960858447
 20
270.1001157181349
 30
0
 42
-0.07493756747626854
  0
VERTEX
  8
1
 10
-83.71170757775593
 20
270.3847426000364
 30
0
 42
-0.02801685262352863
  0
VERTEX
  8
1
 10
-83.52725533543965
 20
270.6688709067724
 30
0
 42
0.005055188190762355
  0
VERTEX
  8
1
 10
-83.32325975838056
 20
270.9548280378567
 30
0
 42
0.0381360034193025
  0
VERTEX
  8
1
 10
-83.1519877233236
 20
271.2449413928028
 30
0
 42
0.08720789283917341
  0
VERTEX
  8
1
 10
-83.06570610701371
 20
271.5415383711247
 30
0
 42
0.08515631268126966
  0
VERTEX
  8
1
 10
-83.07918504997738
 20
271.7630089366904
 30
0
 42
0.02238140348503726
  0
VERTEX
  8
1
 10
-83.14287387884761
 20
271.9883538364579
 30
0
 42
0.02964454809674685
  0
VERTEX
  8
1
 10
-83.23396219380673
 20
272.2167599786775
 30
0
 42
-0.007009667885011903
  0
VERTEX
  8
1
 10
-83.32963959503705
 20
272.4474142715998
 30
0
 42
-0.02904946728761498
  0
VERTEX
  8
1
 10
-83.40709568272084
 20
272.6795036234748
 30
0
 42
-0.05788663827843615
  0
VERTEX
  8
1
 10
-83.45507389950177
 20
273.0256009776462
 30
0
 42
-0.04537137113066302
  0
VERTEX
  8
1
 10
-83.43060565167832
 20
273.3727964903219
 30
0
 42
-0.03083543245142542
  0
VERTEX
  8
1
 10
-83.35180255540158
 20
273.7208156218757
 30
0
 42
-0.01748426166949697
  0
VERTEX
  8
1
 10
-83.23677622682266
 20
274.0693838326817
 30
0
 42
-0.005632013252621221
  0
VERTEX
  8
1
 10
-83.10363828209265
 20
274.4182265831137
 30
0
  0
SEQEND
  8
1
  0
POLYLINE
  8
1
 62
2
 66
1
  0
VERTEX
  8
1
 10
-89.89349762115066
 20
274.4182265831137
 30
0
 42
0.004290415518278138
  0
VERTEX
  8
1
 10
-89.79365001631319
 20
274.6682080840307
 30
0
 42
0.01307531568172628
  0
VERTEX
  8
1
 10
-89.70359144265363
 20
274.918590153297
 30
0
 42
0.02278780354702678
  0
VERTEX
  8
1
 10
-89.6331109313499
 20
275.169773359262
 30
0
 42
0.03326750924043331
  0
VERTEX
  8
1
 10
-89.5919975135799
 20
275.4221582702751
 30
0
 42
0.04366003994119401
  0
VERTEX
  8
1
 10
-89.59004022052156
 20
275.6761454546854
 30
0
 42
0.05181310358853829
  0
VERTEX
  8
1
 10
-89.65105902196606
 20
276.0056813023726
 30
0
 42
0.008378441865240161
  0
VERTEX
  8
1
 10
-89.75447907394717
 20
276.3360481679439
 30
0
 42
-0.01018422855135755
  0
VERTEX
  8
1
 10
-89.86152868277671
 20
276.6647554625085
 30
0
 42
-0.03916530034852932
  0
VERTEX
  8
1
 10
-89.93343615476653
 20
276.9893125971756
 30
0
 42
-0.07340671113194067
  0
VERTEX
  8
1
 10
-89.93142979622846
 20
277.3072289830546
 30
0
 42
-0.05555850569396394
  0
VERTEX
  8
1
 10
-89.85526764528214
 20
277.5646168749912
 30
0
 42
-0.02280635176140331
  0
VERTEX
  8
1
 10
-89.73480920646114
 20
277.8190080298091
 30
0
 42
0.004872361856639758
  0
VERTEX
  8
1
 10
-89.60312001551125
 20
278.0736746339256
 30
0
 42
0.03263665242821653
  0
VERTEX
  8
1
 10
-89.49326560817819
 20
278.331888873758
 30
0
 42
0.06636825133300024
  0
VERTEX
  8
1
 10
-89.43831152020775
 20
278.5969229357237
 30
0
 42
0.09980894956294002
  0
VERTEX
  8
1
 10
-89.48679339395993
 20
278.9764614403651
 30
0
 42
0.01154510241889504
  0
VERTEX
  8
1
 10
-89.62773443390097
 20
279.363653693285
 30
0
 42
0.009878479110761177
  0
VERTEX
  8
1
 10
-89.78615992955233
 20
279.7469443517692
 30
0
 42
-0.05639903784697336
  0
VERTEX
  8
1
 10
-89.88709517043547
 20
280.1147780731039
 30
0
 42
-0.1258311924442539
  0
VERTEX
  8
1
 10
-89.85556544607184
 20
280.4555995145751
 30
0
 42
-0.05916791981420683
  0
VERTEX
  8
1
 10
-89.76520465109243
 20
280.6225830901384
 30
0
 42
-0.02462879871326302
  0
VERTEX
  8
1
 10
-89.63982657103333
 20
280.7841249819216
 30
0
 42
0.001969677490175711
  0
VERTEX
  8
1
 10
-89.50273062584608
 20
280.945625871096
 30
0
 42
0.02750353395571283
  0
VERTEX
  8
1
 10
-89.37721623548237
 20
281.112486438833
 30
0
 42
0.05911732236174931
  0
VERTEX
  8
1
 10
-89.28658281989371
 20
281.2901073663037
 30
0
 42
0.1501374867333988
  0
VERTEX
  8
1
 10
-89.26249705683397
 20
281.7222476245805
 30
0
 42
0.01924627868234314
  0
VERTEX
  8
1
 10
-89.39813177216814
 20
282.1924117501353
 30
0
 42
0.02477885870743768
  0
VERTEX
  8
1
 10
-89.5799483266029
 20
282.6627191444996
 30
0
 42
-0.05908085480923397
  0
VERTEX
  8
1
 10
-89.69440808084491
 20
283.0952892092052
 30
0
 42
-0.1729894341806174
  0
VERTEX
  8
1
 10
-89.62797239560084
 20
283.4522413457839
 30
0
 42
-0.07554056069446138
  0
VERTEX
  8
1
 10
-89.52021728015517
 20
283.5727550608328
 30
0
 42
-0.0495568760990755
  0
VERTEX
  8
1
 10
-89.37092891169615
 20
283.6736927418225
 30
0
 42
-0.03330765315056395
  0
VERTEX
  8
1
 10
-89.19206731578714
 20
283.7560989578736
 30
0
 42
-0.02387220985615039
  0
VERTEX
  8
1
 10
-88.99559251799148
 20
283.8210182781071
 30
0
 42
-0.01852830943532314
  0
VERTEX
  8
1
 10
-88.79346454387255
 20
283.8694952716436
 30
0
 42
-0.02422175705600076
  0
VERTEX
  8
1
 10
-88.52869147564005
 20
283.9101541766863
 30
0
 42
-0.02682463750977895
  0
VERTEX
  8
1
 10
-88.27322059899056
 20
283.922946254464
 30
0
 42
-0.08572719412322337
  0
VERTEX
  8
1
 10
-87.54170276628074
 20
283.7936309214842
 30
0
 42
-0.02239883408824362
  0
VERTEX
  8
1
 10
-87.2425248768694
 20
283.6693229931221
 30
0
 42
-0.003422987007177037
  0
VERTEX
  8
1
 10
-86.944907999568
 20
283.52749730638
 30
0
 42
0.01516831939658292
  0
VERTEX
  8
1
 10
-86.64894458416609
 20
283.394720538709
 30
0
 42
0.03622374965254011
  0
VERTEX
  8
1
 10
-86.35472708045319
 20
283.29755936756
 30
0
 42
0.0638239093810804
  0
VERTEX
  8
1
 10
-86.06234793821884
 20
283.2625804703843
 30
0
 42
0.07120927704400533
  0
VERTEX
  8
1
 10
-85.76903099141501
 20
283.3070862122128
 30
0
 42
0.01893972115027154
  0
VERTEX
  8
1
 10
-85.47415951789105
 20
283.4082970924974
 30
0
 42
0.01243069108192746
  0
VERTEX
  8
1
 10
-85.17421781745483
 20
283.5327737119626
 30
0
 42
-0.02189209851332565
  0
VERTEX
  8
1
 10
-84.86569018991411
 20
283.6470766713331
 30
0
 42
-0.04713391000335153
  0
VERTEX
  8
1
 10
-84.54506093507675
 20
283.7177665713338
 30
0
 42
-0.1178198923204047
  0
VERTEX
  8
1
 10
-83.886592799526
 20
283.6380126188137
 30
0
 42
-0.04574382729512198
  0
VERTEX
  8
1
 10
-83.69097547205551
 20
283.542982043142
 30
0
 42
-0.0522312936352679
  0
VERTEX
  8
1
 10
-83.52089220795685
 20
283.4143091707051
 30
0
 42
-0.06154473955601823
  0
VERTEX
  8
1
 10
-83.36026781033621
 20
283.2195661493805
 30
0
 42
-0.05088158593644711
  0
VERTEX
  8
1
 10
-83.2447116111864
 20
282.9892219804046
 30
0
 42
-0.04200885944316912
  0
VERTEX
  8
1
 10
-83.17153543576841
 20
282.7348663618392
 30
0
 42
-0.03614623110079855
  0
VERTEX
  8
1
 10
-83.13805110934314
 20
282.4680889917453
 30
0
 42
-0.03336887719190148
  0
VERTEX
  8
1
 10
-83.14157045717158
 20
282.2004795681845
 30
0
 42
-0.02347145823521272
  0
VERTEX
  8
1
 10
-83.17146434797829
 20
281.972398459551
 30
0
 42
-0.0115334165214489
  0
VERTEX
  8
1
 10
-83.21658721491474
 20
281.7504801558042
 30
0
 42
0.0009989639971896992
  0
VERTEX
  8
1
 10
-83.26572922398702
 20
281.5325990986473
 30
0
 42
0.01398987575997999
  0
VERTEX
  8
1
 10
-83.30768054120128
 20
281.3166297297832
 30
0
 42
0.02769124378549953
  0
VERTEX
  8
1
 10
-83.33123133256365
 20
281.1004464909151
 30
0
 42
0.04550188509951883
  0
VERTEX
  8
1
 10
-83.31907265019304
 20
280.7789266686909
 30
0
 42
0.01286468023832637
  0
VERTEX
  8
1
 10
-83.26843259559698
 20
280.4537013965989
 30
0
 42
0.005679232956263886
  0
VERTEX
  8
1
 10
-83.20490579464703
 20
280.1261276827811
 30
0
 42
-0.01898919408863416
  0
VERTEX
  8
1
 10
-83.1540868732147
 20
279.7975625353791
 30
0
 42
-0.03883773389987558
  0
VERTEX
  8
1
 10
-83.14157045717158
 20
279.4693629625347
 30
0
 42
-0.02987877080896511
  0
VERTEX
  8
1
 10
-83.17075328583027
 20
279.209843103893
 30
0
 42
-0.01257272880473958
  0
VERTEX
  8
1
 10
-83.22225752580538
 20
278.9512613004767
 30
0
 42
0.004115672238194284
  0
VERTEX
  8
1
 10
-83.27813643899036
 20
278.6934700311142
 30
0
 42
0.02108531393941704
  0
VERTEX
  8
1
 10
-83.32044328727862
 20
278.4363217746339
 30
0
 42
0.03946503246328226
  0
VERTEX
  8
1
 10
-83.33123133256365
 20
278.179669009864
 30
0
 42
0.0551290182314608
  0
VERTEX
  8
1
 10
-83.28272285927588
 20
277.8521202677516
 30
0
 42
0.01121432517149801
  0
VERTEX
  8
1
 10
-83.18885352664991
 20
277.5251888629193
 30
0
 42
0.002931786885335395
  0
VERTEX
  8
1
 10
-83.08509947309713
 20
277.1989234763053
 30
0
 42
-0.03133367301284103
  0
VERTEX
  8
1
 10
-83.00693683702896
 20
276.8733727888475
 30
0
 42
-0.06046086084407899
  0
VERTEX
  8
1
 10
-82.98984175685675
 20
276.5485854814838
 30
0
 42
-0.04676116226585257
  0
VERTEX
  8
1
 10
-83.03865583536812
 20
276.2820127775639
 30
0
 42
-0.02023759326624986
  0
VERTEX
  8
1
 10
-83.12500065665489
 20
276.015976697565
 30
0
 42
0.003313860674858153
  0
VERTEX
  8
1
 10
-83.2210773962567
 20
275.750464356751
 30
0
 42
0.02714664764488851
  0
VERTEX
  8
1
 10
-83.29908722971308
 20
275.485462870386
 30
0
 42
0.05559478365501466
  0
VERTEX
  8
1
 10
-83.33123133256365
 20
275.220959353734
 30
0
 42
0.04459024650670117
  0
VERTEX
  8
1
 10
-83.31846200212249
 20
275.0601971438777
 30
0
 42
0.02190503609198839
  0
VERTEX
  8
1
 10
-83.2838598185793
 20
274.8995787045095
 30
0
 42
0.02576851953107605
  0
VERTEX
  8
1
 10
-83.23288299520959
 20
274.7390680930075
 30
0
 42
0.004570655252156669
  0
VERTEX
  8
1
 10
-83.17098974528888
 20
274.5786293667496
 30
0
 42
0.01010498672843859
  0
VERTEX
  8
1
 10
-83.10363828209265
 20
274.4182265831137
 30
0
  0
SEQEND
  8
1
  0
POLYLINE
  8
1
 62
2
 66
1
 70
1
  0
VERTEX
  8
1
 10
45.01174713227
 20
117.0230060477669
 30
0
  0
VERTEX
  8
1
 10
80.94924713227002
 20
117.0230060477669
 30
0
  0
VERTEX
  8
1
 10
80.94924713227002
 20
127.7730060477669
 30
0
  0
VERTEX
  8
1
 10
45.01174713227
 20
127.7730060477669
 30
0
  0
VERTEX
  8
1
 10
45.01174713227
 20
117.0230060477669
 30
0
  0
SEQEND
  8
1
  0
POLYLINE
  8
0
 62
2
 66
1
 70
1
  0
VERTEX
  8
0
 10
118.3082649409
 20
376.4620540110162
 30
0
  0
VERTEX
  8
0
 10
114.8082649409
 20
375.9620540110162
 30
0
  0
VERTEX
  8
0
 10
118.3082649409
 20
375.4620540110162
 30
0
  0
VERTEX
  8
0
 10
118.3082649409
 20
376.4620540110162
 30
0
  0
SEQEND
  8
0
  0
POLYLINE
  8
0
 62
2
 66
1
 70
1
  0
VERTEX
  8
0
 10
171.3082649409
 20
375.4620540110162
 30
0
  0
VERTEX
  8
0
 10
174.8082649409
 20
375.9620540110162
 30
0
  0
VERTEX
  8
0
 10
171.3082649409
 20
376.4620540110162
 30
0
  0
VERTEX
  8
0
 10
171.3082649409
 20
375.4620540110162
 30
0
  0
SEQEND
  8
0
  0
POLYLINE
  8
0
 62
2
 66
1
 70
1
  0
VERTEX
  8
0
 10
182.1409284736
 20
346.4182232123162
 30
0
  0
VERTEX
  8
0
 10
181.6409284736
 20
349.9182232123162
 30
0
  0
VERTEX
  8
0
 10
181.1409284736
 20
346.4182232123162
 30
0
  0
VERTEX
  8
0
 10
182.1409284736
 20
346.4182232123162
 30
0
  0
SEQEND
  8
0
  0
POLYLINE
  8
0
 62
2
 66
1
 70
1
  0
VERTEX
  8
0
 10
181.1409284736
 20
356.4713053922162
 30
0
  0
VERTEX
  8
0
 10
181.6409284736
 20
352.9713053922162
 30
0
  0
VERTEX
  8
0
 10
182.1409284736
 20
356.4713053922162
 30
0
  0
VERTEX
  8
0
 10
181.1409284736
 20
356.4713053922162
 30
0
  0
SEQEND
  8
0
  0
POLYLINE
  8
0
 62
2
 66
1
 70
1
  0
VERTEX
  8
0
 10
187.1850099602
 20
339.3182232123162
 30
0
  0
VERTEX
  8
0
 10
186.6850099602
 20
342.8182232123162
 30
0
  0
VERTEX
  8
0
 10
186.1850099602
 20
339.3182232123162
 30
0
  0
VERTEX
  8
0
 10
187.1850099602
 20
339.3182232123162
 30
0
  0
SEQEND
  8
0
  0
POLYLINE
  8
0
 62
2
 66
1
 70
1
  0
VERTEX
  8
0
 10
137.3082649409
 20
362.7206267916163
 30
0
  0
VERTEX
  8
0
 10
140.8082649409
 20
363.2206267916163
 30
0
  0
VERTEX
  8
0
 10
137.3082649409
 20
363.7206267916163
 30
0
  0
VERTEX
  8
0
 10
137.3082649409
 20
362.7206267916163
 30
0
  0
SEQEND
  8
0
  0
POLYLINE
  8
0
 62
2
 66
1
 70
1
  0
VERTEX
  8
0
 10
152.3082649409
 20
363.7206267916163
 30
0
  0
VERTEX
  8
0
 10
148.8082649409
 20
363.2206267916163
 30
0
  0
VERTEX
  8
0
 10
152.3082649409
 20
362.7206267916163
 30
0
  0
VERTEX
  8
0
 10
152.3082649409
 20
363.7206267916163
 30
0
  0
SEQEND
  8
0
  0
POLYLINE
  8
0
 62
2
 66
1
 70
1
  0
VERTEX
  8
0
 10
186.1850099602
 20
205.4673357807874
 30
0
  0
VERTEX
  8
0
 10
186.6850099602
 20
201.9673357807874
 30
0
  0
VERTEX
  8
0
 10
187.1850099602
 20
205.4673357807874
 30
0
  0
VERTEX
  8
0
 10
186.1850099602
 20
205.4673357807874
 30
0
  0
SEQEND
  8
0
  0
POLYLINE
  8
0
 62
2
 66
1
 70
1
  0
VERTEX
  8
0
 10
198.437544117
 20
143.7923759074
 30
0
  0
VERTEX
  8
0
 10
201.6108456785
 20
145.3512720553
 30
0
  0
VERTEX
  8
0
 10
198.127985258
 20
144.7432561905
 30
0
  0
VERTEX
  8
0
 10
198.437544117
 20
143.7923759074
 30
0
  0
SEQEND
  8
0
  0
POLYLINE
  8
0
 62
2
 66
1
 70
1
  0
VERTEX
  8
0
 10
208.1031686606
 20
147.9906748685
 30
0
  0
VERTEX
  8
0
 10
204.9298670991
 20
146.4317787206
 30
0
  0
VERTEX
  8
0
 10
208.4127275195
 20
147.0397945853
 30
0
  0
VERTEX
  8
0
 10
208.1031686606
 20
147.9906748685
 30
0
  0
SEQEND
  8
0
  0
POLYLINE
  8
0
 62
2
 66
1
 70
1
  0
VERTEX
  8
0
 10
174.4828293425
 20
149.8062335945
 30
0
  0
VERTEX
  8
0
 10
173.7826925595
 20
150.5202423375
 30
0
  0
VERTEX
  8
0
 10
171.6337303507
 20
147.7127592253
 30
0
  0
VERTEX
  8
0
 10
174.4828293425
 20
149.8062335945
 30
0
  0
SEQEND
  8
0
  0
POLYLINE
  8
0
 62
2
 66
1
 70
1
  0
VERTEX
  8
0
 10
224.3816526583
 20
166.9927222386
 30
0
  0
VERTEX
  8
0
 10
224.2360412764
 20
166.0033803738
 30
0
  0
VERTEX
  8
0
 10
227.7715434942
 20
165.9884114698
 30
0
  0
VERTEX
  8
0
 10
224.3816526583
 20
166.9927222386
 30
0
  0
SEQEND
  8
0
  0
POLYLINE
  8
0
 62
2
 66
1
 70
1
  0
VERTEX
  8
0
 10
-67.58677412048371
 20
234.0144707265823
 30
0
  0
VERTEX
  8
0
 10
-64.08677412048371
 20
236.0351966775823
 30
0
  0
VERTEX
  8
0
 10
-64.08677412048371
 20
231.9937447755823
 30
0
  0
VERTEX
  8
0
 10
-67.58677412048371
 20
234.0144707265823
 30
0
  0
SEQEND
  8
0
  0
POINT
  8
0
 62
7
  6
DOT
 10
-121.5493201772836
 20
257.1766125532163
 30
0
  0
POINT
  8
0
 62
7
  6
DOT
 10
-121.5689190519835
 20
291.5724928426163
 30
0
  0
POINT
  8
0
 62
7
  6
DOT
 10
-23.73677412048374
 20
272.4182265831163
 30
0
  0
POINT
  8
0
 62
7
  6
DOT
 10
-64.08677412048371
 20
272.4182265831163
 30
0
  0
LINE
  8
1
 62
7
 10
352.868474072733
 20
147.3101780945053
 30
0
 11
352.868474072733
 21
117.0701780945051
 31
0
  0
LINE
  8
1
 62
7
 10
276.5484740727331
 20
117.0701780945051
 30
0
 11
276.5484740727331
 21
127.1501780945052
 31
0
  0
LINE
  8
1
 62
7
 10
294.5484740727331
 20
147.3101780945051
 30
0
 11
294.5484740727331
 21
117.0701780945051
 31
0
  0
LINE
  8
1
 62
7
 10
333.428474072733
 20
147.3101780945051
 30
0
 11
333.428474072733
 21
117.0701780945051
 31
0
  0
LINE
  8
1
 62
7
 10
313.9884740727329
 20
147.3101780945051
 30
0
 11
313.9884740727329
 21
117.0701780945051
 31
0
  0
LINE
  8
1
 62
7
 10
276.5484740727331
 20
117.0701780945051
 30
0
 11
352.868474072733
 21
117.0701780945051
 31
0
  0
LINE
  8
1
 62
7
 10
341.1225771653637
 20
282.6974594609868
 30
0
 11
341.1225771653637
 21
270.0974594609868
 31
0
  0
LINE
  8
1
 62
7
 10
320.4225771653637
 20
307.897459460987
 30
0
 11
320.4225771653637
 21
270.0974594609868
 31
0
  0
LINE
  8
1
 62
7
 10
299.7225771653636
 20
307.897459460987
 30
0
 11
299.7225771653636
 21
270.0974594609868
 31
0
  0
LINE
  8
1
 62
7
 10
284.4225771653637
 20
270.0974594609868
 30
0
 11
284.4225771653637
 21
282.6974594609868
 31
0
  0
LINE
  8
1
 62
7
 10
341.1225771653637
 20
270.0974594609868
 30
0
 11
284.4225771653637
 21
270.0974594609868
 31
0
  0
LINE
  8
DEFAULT_1
 62
2
  6
CENTER
 10
-43.91177412048404
 20
299.1648956714572
 30
0
 11
-43.91177412048404
 21
373.3905607185403
 31
0
  0
LINE
  8
DEFAULT_1
 62
2
  6
CENTER
 10
-43.91177412048386
 20
287.008697363243
 30
0
 11
-43.91177412048387
 21
288.114545454545
 31
0
  0
LINE
  8
DEFAULT_1
 62
2
  6
CENTER
 10
-43.91177412048377
 20
299.81805251026
 30
0
 11
-43.91177412048372
 21
302.843211415825
 31
0
  0
LINE
  8
DEFAULT_1
 62
7
 10
-23.23677412048368
 20
274.4182265831163
 30
0
 11
42.33834858601631
 21
274.4182265831163
 31
0
  0
LINE
  8
1
 62
2
  6
DASHED
 10
-78.41177412048384
 20
204.218605398482
 30
0
 11
-78.41177412048384
 21
226.4182265831151
 31
0
  0
LINE
  8
1
 62
2
  6
DASHED
 10
-94.41177412048384
 20
219.6203482467198
 30
0
 11
-94.41177412048384
 21
217.0337763504664
 31
0
  0
LINE
  8
1
 62
2
  6
DASHED
 10
-79.41177412048384
 20
344.281822211458
 30
0
 11
-79.41177412048374
 21
310.4182265831162
 31
0
  0
LINE
  8
1
 62
2
  6
DASHED
 10
-93.41177412048384
 20
331.6683744894451
 30
0
 11
-93.41177412048384
 21
310.4182265831164
 31
0
  0
LINE
  8
1
 62
2
 10
-150.498823518811
 20
352.9713087630163
 30
0
 11
-150.498823518811
 21
362.9713087630163
 31
0
  0
LINE
  8
DEFAULT_1
 62
2
  6
CENTER
 10
-43.91177412048369
 20
319.586301245372
 30
0
 11
-43.91177412048371
 21
307.417432378429
 31
0
  0
LINE
  8
1
 62
7
 10
148.808270874
 20
347.2660525436644
 30
0
 11
174.8082588948342
 21
347.2660525436644
 31
0
  0
LINE
  8
1
 62
7
 10
140.808260498
 20
347.2660525436644
 30
0
 11
114.8082724231461
 21
347.2660525436644
 31
0
  0
LINE
  8
1
 62
7
 10
-120.5591445001818
 20
97.42020245670609
 30
0
 11
-120.5591445001431
 21
120.3671342194061
 31
0
  0
LINE
  8
0
 62
7
 10
-120.5591445001818
 20
83.3140556061061
 30
0
 11
-117.5060762628817
 21
86.36712384340611
 31
0
  0
LINE
  8
0
 62
7
 10
-117.5060762628817
 20
94.36713421940608
 30
0
 11
-113.3117655754777
 21
94.36713421940608
 31
0
  0
LINE
  8
0
 62
7
 10
-117.5060762628817
 20
86.36712384340611
 30
0
 11
-113.3117655754777
 21
86.36712384340611
 31
0
  0
LINE
  8
0
 62
7
 10
-117.5060762628817
 20
94.36713421940608
 30
0
 11
-120.5591445001818
 21
97.42020245670609
 31
0
  0
LINE
  8
0
 62
7
 10
-112.3117741203777
 20
93.36714276430608
 30
0
 11
-112.3117741203777
 21
87.36714154360608
 31
0
  0
LINE
  8
1
 62
7
 10
32.73559625921438
 20
83.3140556061061
 30
0
 11
32.73559625927567
 21
60.36713421940608
 31
0
  0
LINE
  8
0
 62
7
 10
29.68252802191437
 20
86.36712384340611
 30
0
 11
32.73559625921438
 21
83.3140556061061
 31
0
  0
LINE
  8
0
 62
7
 10
25.48821733471302
 20
94.36713421940608
 30
0
 11
29.68252802191437
 21
94.36713421940608
 31
0
  0
LINE
  8
0
 62
7
 10
25.48821733471302
 20
86.36712384340611
 30
0
 11
29.68252802191437
 21
86.36712384340611
 31
0
  0
LINE
  8
0
 62
7
 10
32.73559625921438
 20
97.42020245670609
 30
0
 11
29.68252802191437
 21
94.36713421940608
 31
0
  0
LINE
  8
0
 62
7
 10
24.48822587961305
 20
87.36714154360608
 30
0
 11
24.48822587961305
 21
93.36714276430608
 31
0
  0
LINE
  8
0
 62
7
 10
32.74537081111629
 20
257.2639603236163
 30
0
 11
32.72577193631636
 21
291.6598406130163
 31
0
  0
LINE
  8
0
 62
7
 10
-83.91481135298363
 20
206.8139091755163
 30
0
 11
-51.19632888458358
 21
196.2036372672164
 31
0
  0
LINE
  8
0
 62
7
 10
-116.0117318315836
 20
243.2383802394163
 30
0
 11
-95.77848483508359
 21
215.4230484784163
 31
0
  0
LINE
  8
0
 62
7
 10
25.11427151811634
 20
251.1164250209163
 30
0
 11
25.6526333122163
 21
252.7765503293163
 31
0
  0
LINE
  8
0
 62
7
 10
8.022134148216338
 20
215.4821943795163
 30
0
 11
28.2236694992163
 21
243.3205659996163
 31
0
  0
LINE
  8
0
 62
7
 10
-1.764985454483565
 20
214.9941814693163
 30
0
 11
-0.3536444405836789
 21
216.0208099336163
 31
0
  0
LINE
  8
0
 62
7
 10
-36.53809030468352
 20
196.2119895751163
 30
0
 11
-3.831720607183684
 21
206.8595407586163
 31
0
  0
LINE
  8
0
 62
7
 10
-44.74288318078374
 20
201.5699034022163
 30
0
 11
-42.99764724478354
 21
201.5708978428164
 31
0
  0
LINE
  8
0
 62
7
 10
-87.40332549438358
 20
215.9712087667163
 30
0
 11
-85.99081544548352
 21
214.9461893412163
 31
0
  0
LINE
  8
0
 62
7
 10
-113.4514734065836
 20
252.6972883960163
 30
0
 11
-112.9112200739837
 21
251.0377776857164
 31
0
  0
LINE
  8
0
 62
7
 10
-3.831720607183684
 20
206.8595407586163
 30
0
 11
-4.176640272483553
 21
209.3036658057163
 31
0
  0
LINE
  8
0
 62
7
 10
-4.25087099078354
 20
339.5780274582163
 30
0
 11
-3.908736887983707
 21
342.0225439906163
 31
0
  0
LINE
  8
0
 62
7
 10
-51.19632888458358
 20
196.2036372672164
 30
0
 11
-50.03875409808359
 21
198.3837146592163
 31
0
  0
LINE
  8
0
 62
7
 10
-120.5493201772837
 20
257.1766125532163
 30
0
 11
-118.1182330862836
 21
256.7493744726163
 31
0
  0
LINE
  8
0
 62
7
 10
5.802986023016331
 20
216.5629803989163
 30
0
 11
8.022134148216338
 21
215.4821943795163
 31
0
  0
LINE
  8
0
 62
7
 10
-116.0472177400836
 20
305.5158871665163
 30
0
 11
-114.3315512116836
 21
303.7412871595163
 31
0
  0
LINE
  8
0
 62
7
 10
-37.69814876788359
 20
198.3907463728164
 30
0
 11
-36.53809030468352
 21
196.2119895751163
 31
0
  0
LINE
  8
0
 62
7
 10
26.47454052041635
 20
303.8215188890163
 30
0
 11
28.18818359071633
 21
305.5980729267163
 31
0
  0
LINE
  8
0
 62
7
 10
-95.77848483508359
 20
215.4230484784163
 30
0
 11
-93.56056982068367
 21
216.5063627496163
 31
0
  0
LINE
  8
0
 62
7
 10
30.31477218171631
 20
256.8339520400163
 30
0
 11
32.74537081111629
 21
257.2639603236163
 31
0
  0
LINE
  8
DEFAULT_1
 62
2
  6
CENTER
 10
-43.91177412048364
 20
353.7014404511164
 30
0
 11
-43.91177412048369
 21
319.586301245372
 31
0
  0
LINE
  8
0
 62
7
 10
-83.9918276337836
 20
341.9769124076163
 30
0
 11
-83.64690796848356
 21
339.5327873605162
 31
0
  0
LINE
  8
0
 62
7
 10
-83.57267725008353
 20
209.2584257079163
 30
0
 11
-83.91481135298363
 21
206.8139091755163
 31
0
  0
LINE
  8
0
 62
7
 10
-36.62721935628366
 20
352.6328158989163
 30
0
 11
-37.78479414278377
 21
350.4527385070163
 31
0
  0
LINE
  8
0
 62
7
 10
-114.2980887613836
 20
245.0149342772163
 30
0
 11
-116.0117318315836
 21
243.2383802394163
 31
0
  0
LINE
  8
0
 62
7
 10
32.72577193631636
 20
291.6598406130163
 30
0
 11
30.29468484541638
 21
292.0870786936163
 31
0
  0
LINE
  8
0
 62
7
 10
-93.62653426398367
 20
332.2734727672163
 30
0
 11
-95.84568238908361
 21
333.3542587867163
 31
0
  0
LINE
  8
0
 62
7
 10
28.2236694992163
 20
243.3205659996163
 30
0
 11
26.50800297081631
 21
245.0951660066163
 31
0
  0
LINE
  8
0
 62
7
 10
-50.12539947298376
 20
350.4457067934163
 30
0
 11
-51.28545793618366
 21
352.6244635910163
 31
0
  0
LINE
  8
0
 62
7
 10
7.954936594216377
 20
333.4134046878164
 30
0
 11
5.737021579816314
 21
332.3300904165163
 31
0
  0
LINE
  8
0
 62
7
 10
-118.1383204225836
 20
292.0025011262163
 30
0
 11
-120.5689190519836
 21
291.5724928426163
 31
0
  0
LINE
  8
0
 62
7
 10
-43.08066506008362
 20
347.2665497640164
 30
0
 11
-44.82590099608359
 21
347.2655553233163
 31
0
  0
LINE
  8
0
 62
7
 10
-0.4202227464837165
 20
332.8652443994163
 30
0
 11
-1.832732795483594
 21
333.8902638250163
 31
0
  0
LINE
  8
0
 62
7
 10
25.62792516571633
 20
296.1391647701163
 30
0
 11
25.08767183311627
 21
297.7986754804163
 31
0
  0
LINE
  8
0
 62
7
 10
-120.5689190519836
 20
291.5724928426163
 30
0
 11
-120.5493201772837
 21
257.1766125532163
 31
0
  0
LINE
  8
0
 62
7
 10
-112.9378197589836
 20
297.7200281453163
 30
0
 11
-113.4761815531836
 21
296.0599028368163
 31
0
  0
LINE
  8
0
 62
7
 10
-95.84568238908361
 20
333.3542587867163
 30
0
 11
-116.0472177400836
 21
305.5158871665163
 31
0
  0
LINE
  8
0
 62
7
 10
-86.05856278638356
 20
333.8422716968163
 30
0
 11
-87.46990380028365
 21
332.8156432325163
 31
0
  0
LINE
  8
0
 62
7
 10
-3.908736887983707
 20
342.0225439906163
 30
0
 11
-36.62721935628366
 21
352.6328158989163
 31
0
  0
LINE
  8
0
 62
7
 10
28.18818359071633
 20
305.5980729267163
 30
0
 11
7.954936594216377
 21
333.4134046878164
 31
0
  0
LINE
  8
0
 62
7
 10
-51.28545793618366
 20
352.6244635910163
 30
0
 11
-83.9918276337836
 21
341.9769124076163
 31
0
  0
LINE
  8
0
 62
7
 10
219.7270615
 20
108.5163265149
 30
0
 11
210.1781507916
 21
106.5188150839
 31
0
  0
LINE
  8
0
 62
7
 10
186.5704476473
 20
118.6903797198
 30
0
 11
186.0413383011
 21
119.6450855068
 31
0
  0
LINE
  8
0
 62
7
 10
210.1781507916
 20
106.5188150839
 30
0
 11
200.183838931
 21
108.5173036556
 31
0
  0
LINE
  8
0
 62
7
 10
200.183838931
 20
108.5173036556
 30
0
 11
191.2812853417
 21
113.7100777798
 31
0
  0
LINE
  8
0
 62
7
 10
191.2812853417
 20
113.7100777798
 30
0
 11
186.5704476473
 21
118.6903797198
 31
0
  0
LINE
  8
0
 62
7
 10
197.969307251
 20
122.309765625
 30
0
 11
194.4161907959
 21
125.7370629883
 31
0
  0
LINE
  8
0
 62
7
 10
194.4161946095
 20
125.7370691837
 30
0
 11
186.0413433827
 21
119.6450892032
 31
0
  0
LINE
  8
0
 62
2
 10
206.3002821272
 20
132.021603834
 30
0
 11
206.3002821272
 21
129.871603834
 31
0
  0
LINE
  8
DEFAULT_1
 62
2
  6
CENTER
 10
206.3002821272
 20
125.571603834
 30
0
 11
206.3002821272
 21
122.946403834
 31
0
  0
LINE
  8
DEFAULT_1
 62
2
  6
CENTER
 10
206.3002821272
 20
136.321603834
 30
0
 11
206.3002821272
 21
138.946803834
 31
0
  0
LINE
  8
0
 62
2
 10
209.6193035479
 20
133.1021104993
 30
0
 11
209.6193035479
 21
130.9521104993
 31
0
  0
LINE
  8
DEFAULT_1
 62
2
  6
CENTER
 10
209.6193035479
 20
126.6521104993
 30
0
 11
209.6193035479
 21
124.0269104993
 31
0
  0
LINE
  8
DEFAULT_1
 62
2
  6
CENTER
 10
209.6193035479
 20
137.4021104993
 30
0
 11
209.6193035479
 21
140.0273104993
 31
0
  0
LINE
  8
0
 62
2
 10
207.3752821272
 20
130.946603834
 30
0
 11
205.2252821272
 21
130.946603834
 31
0
  0
LINE
  8
DEFAULT_1
 62
2
  6
CENTER
 10
200.9252821272
 20
130.946603834
 30
0
 11
198.3000821272
 21
130.946603834
 31
0
  0
LINE
  8
DEFAULT_1
 62
2
  6
CENTER
 10
211.6752821272
 20
130.946603834
 30
0
 11
214.3004821272
 21
130.946603834
 31
0
  0
LINE
  8
0
 62
2
 10
210.6943035479
 20
132.0271104993
 30
0
 11
208.5443035479
 21
132.0271104993
 31
0
  0
LINE
  8
DEFAULT_1
 62
2
  6
CENTER
 10
204.2443035479
 20
132.0271104993
 30
0
 11
201.6191035479
 21
132.0271104993
 31
0
  0
LINE
  8
DEFAULT_1
 62
2
  6
CENTER
 10
214.9943035479
 20
132.0271104993
 30
0
 11
217.6195035479
 21
132.0271104993
 31
0
  0
LINE
  8
0
 62
7
 10
231.3102833278
 20
134.8173761905
 30
0
 11
222.2926594533
 21
134.8122339786
 31
0
  0
LINE
  8
0
 62
7
 10
213.3340124512
 20
120.6165356445
 30
0
 11
210.0149761963
 21
119.536050415
 31
0
  0
LINE
  8
0
 62
7
 10
222.2926519775
 20
134.812230835
 30
0
 11
221.4381896973
 21
129.9500604248
 31
0
  0
LINE
  8
0
 62
7
 10
232.2719684013
 20
127.293734934
 30
0
 11
230.2860531536
 21
119.7297303264
 31
0
  0
LINE
  8
0
 62
7
 10
230.2860531536
 20
119.7297303264
 30
0
 11
225.9071088646
 21
113.1463361789
 31
0
  0
LINE
  8
0
 62
7
 10
225.9071088646
 20
113.1463361789
 30
0
 11
219.7270615
 21
108.5163265149
 31
0
  0
LINE
  8
0
 62
7
 10
231.9235218737
 20
132.9737998093
 30
0
 11
232.2719684013
 21
127.293734934
 31
0
  0
LINE
  8
0
 62
7
 10
231.3102833278
 20
134.8173761905
 30
0
 11
231.9235218737
 21
132.9737998093
 31
0
  0
LINE
  8
0
 62
7
 10
174.808258667
 20
195.8651444032162
 30
0
 11
151.8613391113
 21
195.8651444032162
 31
0
  0
LINE
  8
0
 62
7
 10
137.7551922607
 20
195.8651444032162
 30
0
 11
114.8082727051
 21
195.8651444032162
 31
0
  0
LINE
  8
0
 62
7
 10
174.808258667
 20
197.2327774599162
 30
0
 11
151.8613391113
 21
197.2327774599162
 31
0
  0
LINE
  8
0
 62
7
 10
137.7551922607
 20
197.2327774599162
 30
0
 11
114.8082727051
 21
197.2327774599162
 31
0
  0
LINE
  8
0
 62
7
 10
150.856767863
 20
198.1431709915162
 30
0
 11
149.5892383754
 21
198.1431709915162
 31
0
  0
LINE
  8
0
 62
7
 10
140.0272915065
 20
198.1431709915162
 30
0
 11
138.7597620189
 21
198.1431709915162
 31
0
  0
LINE
  8
0
 62
7
 10
147.8082531738
 20
201.9673357807874
 30
0
 11
141.8082519531
 21
201.9673357807874
 31
0
  0
LINE
  8
0
 62
7
 10
174.808258667
 20
206.8165542256874
 30
0
 11
151.8613391113
 21
206.8165542256874
 31
0
  0
LINE
  8
0
 62
7
 10
137.7551922607
 20
206.8165542256874
 30
0
 11
114.8082727051
 21
206.8165542256874
 31
0
  0
LINE
  8
0
 62
7
 10
174.808258667
 20
209.2181661640874
 30
0
 11
149.5892468262
 21
209.2181661640874
 31
0
  0
LINE
  8
0
 62
7
 10
140.0272845459
 20
209.2181661640874
 30
0
 11
114.8082727051
 21
209.2181661640874
 31
0
  0
LINE
  8
0
 62
2
 10
131.9061748683
 20
352.9713061249162
 30
0
 11
131.8903055123
 21
352.9554367699162
 31
0
  0
LINE
  8
0
 62
7
 10
174.808258667
 20
215.1077935444874
 30
0
 11
148.808270874
 21
215.1077935444874
 31
0
  0
LINE
  8
0
 62
7
 10
140.808260498
 20
215.1077935444874
 30
0
 11
114.8082727051
 21
215.1077935444874
 31
0
  0
LINE
  8
0
 62
7
 10
174.8082649409
 20
216.2608867884874
 30
0
 11
148.8082649409
 21
216.2608867884874
 31
0
  0
LINE
  8
0
 62
7
 10
140.8082649409
 20
216.2608867884874
 30
0
 11
114.8082649409
 21
216.2608867884874
 31
0
  0
LINE
  8
0
 62
7
 10
174.808258667
 20
216.5013042866874
 30
0
 11
151.8613391113
 21
216.5013042866874
 31
0
  0
LINE
  8
0
 62
7
 10
137.7551922607
 20
216.5013042866874
 30
0
 11
114.8082727051
 21
216.5013042866874
 31
0
  0
LINE
  8
0
 62
7
 10
149.318449707
 20
199.5396314028162
 30
0
 11
151.8613391113
 21
197.2327774599162
 31
0
  0
LINE
  8
0
 62
7
 10
148.808270874
 20
198.9302722719162
 30
0
 11
151.8613391113
 21
195.8651444032162
 31
0
  0
LINE
  8
0
 62
7
 10
148.808270874
 20
349.9182346132162
 30
0
 11
151.8613391113
 21
352.9713028505162
 31
0
  0
LINE
  8
0
 62
7
 10
149.5892468262
 20
217.3716448628874
 30
0
 11
151.8613391113
 21
216.5013042866874
 31
0
  0
LINE
  8
0
 62
7
 10
151.8613391113
 20
206.8165542256874
 30
0
 11
149.5892468262
 21
209.2181661640874
 31
0
  0
LINE
  8
0
 62
7
 10
114.8082649409
 20
195.8651402998162
 30
0
 11
114.8082727051
 21
352.9713028505162
 31
0
  0
LINE
  8
0
 62
7
 10
174.808258667
 20
243.2431473793163
 30
0
 11
151.8613391113
 21
243.2431473793163
 31
0
  0
LINE
  8
0
 62
7
 10
137.7551922607
 20
243.2431473793163
 30
0
 11
114.8082727051
 21
243.2431473793163
 31
0
  0
LINE
  8
0
 62
7
 10
174.808258667
 20
244.8510019935163
 30
0
 11
149.5892468262
 21
244.8510019935163
 31
0
  0
LINE
  8
0
 62
7
 10
140.0272845459
 20
244.8510019935163
 30
0
 11
114.8082727051
 21
244.8510019935163
 31
0
  0
LINE
  8
0
 62
7
 10
174.808258667
 20
250.7170743812162
 30
0
 11
148.808270874
 21
250.7170743812162
 31
0
  0
LINE
  8
0
 62
7
 10
140.808260498
 20
250.7170743812162
 30
0
 11
114.8082727051
 21
250.7170743812162
 31
0
  0
LINE
  8
0
 62
7
 10
174.808258667
 20
252.4199625648163
 30
0
 11
148.808270874
 21
252.4199625648163
 31
0
  0
LINE
  8
0
 62
7
 10
140.808260498
 20
252.4199625648163
 30
0
 11
114.8082727051
 21
252.4199625648163
 31
0
  0
LINE
  8
0
 62
7
 10
151.8613391113
 20
243.2431473793163
 30
0
 11
149.5892468262
 21
244.8510019935163
 31
0
  0
LINE
  8
0
 62
7
 10
174.808258667
 20
256.8922223915163
 30
0
 11
149.5892468262
 21
256.8922223915163
 31
0
  0
LINE
  8
0
 62
7
 10
140.0272845459
 20
256.8922223915163
 30
0
 11
114.8082727051
 21
256.8922223915163
 31
0
  0
LINE
  8
0
 62
7
 10
174.808258667
 20
257.5457782997162
 30
0
 11
151.8613391113
 21
257.5457782997162
 31
0
  0
LINE
  8
0
 62
7
 10
137.7551922607
 20
257.5457782997162
 30
0
 11
114.8082727051
 21
257.5457782997162
 31
0
  0
LINE
  8
0
 62
7
 10
140.0272845459
 20
256.8922223915163
 30
0
 11
137.7551922607
 21
257.5457782997162
 31
0
  0
LINE
  8
0
 62
7
 10
140.808260498
 20
198.9302722719162
 30
0
 11
140.808260498
 21
217.3984804951874
 31
0
  0
LINE
  8
0
 62
7
 10
140.808260498
 20
217.6212096821874
 30
0
 11
140.808260498
 21
274.4182265831163
 31
0
  0
LINE
  8
0
 62
7
 10
140.808260498
 20
343.8182132509162
 30
0
 11
140.808260498
 21
349.9182346132162
 31
0
  0
LINE
  8
0
 62
7
 10
141.8082519531
 20
201.9673357807874
 30
0
 11
141.8082519531
 21
274.4182265831163
 31
0
  0
LINE
  8
DEFAULT_1
 62
2
  6
CENTER
 10
144.8082649409
 20
196.0534445646162
 30
0
 11
144.8082649409
 21
352.9152783457163
 31
0
  0
LINE
  8
0
 62
7
 10
147.8082531738
 20
201.9673357807874
 30
0
 11
147.8082531738
 21
274.4182265831163
 31
0
  0
LINE
  8
0
 62
7
 10
148.808270874
 20
198.9302722719162
 30
0
 11
148.808270874
 21
274.4182265831163
 31
0
  0
LINE
  8
0
 62
7
 10
148.808270874
 20
343.8182132509162
 30
0
 11
148.808270874
 21
349.9182346132162
 31
0
  0
LINE
  8
0
 62
7
 10
149.5892468262
 20
256.8922223915163
 30
0
 11
151.8613391113
 21
257.5457782997162
 31
0
  0
LINE
  8
0
 62
7
 10
137.7551922607
 20
243.2431473793163
 30
0
 11
140.0272845459
 21
244.8510019935163
 31
0
  0
LINE
  8
0
 62
7
 10
174.8082649409
 20
195.8651402998162
 30
0
 11
174.808258667
 21
352.9713028505162
 31
0
  0
LINE
  8
0
 62
7
 10
137.7551922607
 20
206.8165542256874
 30
0
 11
140.0272845459
 21
209.2181661640874
 31
0
  0
LINE
  8
0
 62
7
 10
137.7551922607
 20
352.9713028505162
 30
0
 11
140.808260498
 21
349.9182346132162
 31
0
  0
LINE
  8
0
 62
7
 10
137.7551922607
 20
195.8651444032162
 30
0
 11
140.808260498
 21
198.9302722719162
 31
0
  0
LINE
  8
0
 62
7
 10
140.0272845459
 20
217.3716448628874
 30
0
 11
137.7551922607
 21
216.5013042866874
 31
0
  0
LINE
  8
0
 62
7
 10
147.8082531738
 20
342.8182217958162
 30
0
 11
141.8082519531
 21
342.8182217958162
 31
0
  0
LINE
  8
0
 62
7
 10
114.8082649409
 20
352.9713061249162
 30
0
 11
137.7551829516
 21
352.9713061249162
 31
0
  0
LINE
  8
0
 62
7
 10
151.8613469302
 20
352.9713061249162
 30
0
 11
174.8082649409
 21
352.9713061249162
 31
0
  0
LINE
  8
1
 62
2
  6
DASHDOT
 10
-86.41177412048373
 20
209.182700280285
 30
0
 11
-86.41177412048373
 21
339.1827002802851
 31
0
  0
LINE
  8
1
 62
2
  6
DASHED
 10
-83.41177412048384
 20
318.4182265831162
 30
0
 11
-80.91177412048384
 21
318.4182265831162
 31
0
  0
LINE
  8
1
 62
2
  6
DASHED
 10
-83.41177412048384
 20
318.4182265831162
 30
0
 11
-83.41177412048384
 21
313.9182265831162
 31
0
  0
LINE
  8
1
 62
2
  6
DASHED
 10
-79.91177412048396
 20
317.4182265831162
 30
0
 11
-79.91177412048384
 21
310.4182265831162
 31
0
  0
LINE
  8
1
 62
2
  6
DASHED
 10
-79.91177412048384
 20
310.4182265831162
 30
0
 11
-82.41177412048384
 21
310.4182265831162
 31
0
  0
LINE
  8
1
 62
2
  6
DASHED
 10
-81.91177412048374
 20
310.4182265831162
 30
0
 11
-79.41177412048374
 21
310.4182265831162
 31
0
  0
LINE
  8
1
 62
2
  6
DASHED
 10
-82.41177412048384
 20
310.4182265831162
 30
0
 11
-90.41177412048374
 21
310.4182265831159
 31
0
  0
LINE
  8
1
 62
2
  6
DASHED
 10
-83.41177412048384
 20
313.9182265831162
 30
0
 11
-89.41177412048384
 21
313.9182265831162
 31
0
  0
LINE
  8
1
 62
2
  6
DASHED
 10
-89.41177412048384
 20
313.9182265831162
 30
0
 11
-89.41177412048384
 21
318.4182265831162
 31
0
  0
LINE
  8
1
 62
2
  6
DASHED
 10
-89.41177412048384
 20
318.4182265831162
 30
0
 11
-83.41177412048384
 21
318.4182265831162
 31
0
  0
LINE
  8
1
 62
2
  6
DASHED
 10
-91.91177412048384
 20
318.4182265831162
 30
0
 11
-89.41177412048384
 21
318.4182265831162
 31
0
  0
LINE
  8
1
 62
2
  6
DASHED
 10
-92.91177412048374
 20
310.4182265831164
 30
0
 11
-92.91177412048384
 21
317.4182265831162
 31
0
  0
LINE
  8
1
 62
2
  6
DASHED
 10
-81.91177412048374
 20
310.4182265831162
 30
0
 11
-81.91177412048384
 21
237.8964495655806
 31
0
  0
LINE
  8
1
 62
2
  6
DASHED
 10
-82.41177412048384
 20
310.4182265831162
 30
0
 11
-82.41177412048384
 21
231.4182265831151
 31
0
  0
LINE
  8
1
 62
2
  6
DASHED
 10
-90.41177412048384
 20
231.4182265831151
 30
0
 11
-90.41177412048374
 21
310.4182265831159
 31
0
  0
LINE
  8
1
 62
2
  6
DASHED
 10
-90.91177412048384
 20
310.4182265831164
 30
0
 11
-90.91177412048384
 21
237.8964495655806
 31
0
  0
LINE
  8
1
 62
2
  6
DASHED
 10
-90.91177412048384
 20
310.4182265831164
 30
0
 11
-93.41177412048384
 21
310.4182265831164
 31
0
  0
LINE
  8
1
 62
7
 10
-88.51177412048364
 20
274.4182265831137
 30
0
 11
-89.89349762115066
 21
274.4182265831137
 31
0
  0
LINE
  8
1
 62
7
 10
-88.41177412048384
 20
274.4182265831137
 30
0
 11
-88.51177412048364
 21
274.4182265831137
 31
0
  0
LINE
  8
1
 62
7
 10
-84.31177412048405
 20
274.4182265831137
 30
0
 11
-84.41177412048384
 21
274.4182265831137
 31
0
  0
LINE
  8
1
 62
7
 10
-83.10363828209265
 20
274.4182265831137
 30
0
 11
-84.31177412048405
 21
274.4182265831137
 31
0
  0
LINE
  8
1
 62
7
 10
-84.91177412048384
 20
266.4182265831137
 30
0
 11
-84.41177412048374
 21
266.4182265831137
 31
0
  0
LINE
  8
1
 62
7
 10
-88.41177412048373
 20
266.4182265831137
 30
0
 11
-87.91177412048363
 21
266.4182265831137
 31
0
  0
LINE
  8
1
 62
2
 10
-85.21177412048402
 20
270.4182265831137
 30
0
 11
-85.21177412048402
 21
267.4182265831137
 31
0
  0
LINE
  8
1
 62
2
 10
-86.01177412048386
 20
270.4182265831137
 30
0
 11
-86.01177412048386
 21
267.4182265831137
 31
0
  0
LINE
  8
1
 62
2
 10
-86.81177412048405
 20
270.4182265831137
 30
0
 11
-86.81177412048405
 21
267.4182265831137
 31
0
  0
LINE
  8
1
 62
7
 10
-88.41177412048384
 20
266.9182265831137
 30
0
 11
-84.41177412048384
 21
266.9182265831137
 31
0
  0
LINE
  8
1
 62
7
 10
-87.91177412048363
 20
266.4182265831137
 30
0
 11
-84.91177412048384
 21
266.4182265831137
 31
0
  0
LINE
  8
1
 62
7
 10
-88.41177412048384
 20
266.9182265831137
 30
0
 11
-87.91177412048363
 21
266.4182265831137
 31
0
  0
LINE
  8
1
 62
7
 10
-84.41177412048384
 20
266.9182265831137
 30
0
 11
-84.91177412048384
 21
266.4182265831137
 31
0
  0
LINE
  8
1
 62
2
 10
-88.41177412048384
 20
267.4182265831137
 30
0
 11
-84.41177412048384
 21
267.4182265831137
 31
0
  0
LINE
  8
1
 62
2
 10
-87.61177412048389
 20
270.4182265831137
 30
0
 11
-87.61177412048389
 21
267.4182265831137
 31
0
  0
LINE
  8
1
 62
2
 10
-88.41177412048396
 20
270.4182265831137
 30
0
 11
-84.41177412048396
 21
270.4182265831137
 31
0
  0
LINE
  8
1
 62
7
 10
-84.41177412048374
 20
266.4182265831137
 30
0
 11
-84.41177412048384
 21
274.4182265831137
 31
0
  0
LINE
  8
1
 62
7
 10
-88.41177412048373
 20
266.4182265831137
 30
0
 11
-88.41177412048384
 21
274.4182265831137
 31
0
  0
LINE
  8
1
 62
7
 10
-88.41177412048384
 20
274.4182265831137
 30
0
 11
-88.41177412048396
 21
280.4182265831136
 31
0
  0
LINE
  8
1
 62
7
 10
-84.41177412048396
 20
280.4182265831136
 30
0
 11
-84.41177412048384
 21
274.4182265831137
 31
0
  0
LINE
  8
1
 62
7
 10
-88.41177412048396
 20
280.4182265831136
 30
0
 11
-84.41177412048396
 21
280.4182265831136
 31
0
  0
LINE
  8
1
 62
7
 10
-85.41177412048464
 20
281.4182265831136
 30
0
 11
-84.41177412048396
 21
280.4182265831136
 31
0
  0
LINE
  8
1
 62
7
 10
-87.41177412048373
 20
281.4182265831136
 30
0
 11
-85.41177412048464
 21
281.4182265831136
 31
0
  0
LINE
  8
1
 62
7
 10
-88.41177412048396
 20
280.4182265831136
 30
0
 11
-87.41177412048373
 21
281.4182265831136
 31
0
  0
LINE
  8
1
 62
7
 10
-84.31177412048405
 20
282.4182265831136
 30
0
 11
-84.31177412048405
 21
274.4182265831137
 31
0
  0
LINE
  8
1
 62
7
 10
-88.51177412048386
 20
282.4182265831136
 30
0
 11
-88.51177412048364
 21
274.4182265831137
 31
0
  0
LINE
  8
1
 62
7
 10
-88.51177412048386
 20
282.4182265831136
 30
0
 11
-84.31177412048405
 21
282.4182265831136
 31
0
  0
LINE
  8
1
 62
2
 10
-142.3507530893307
 20
206.5907821636656
 30
0
 11
-107.6230444502605
 21
206.5907821636656
 31
0
  0
LINE
  8
1
 62
2
  6
DASHED
 10
-90.41177412048384
 20
252.9955768523051
 30
0
 11
-89.41177412048384
 21
252.4182265831151
 31
0
  0
LINE
  8
1
 62
2
  6
DASHED
 10
-83.41177412048376
 20
252.4182265831151
 30
0
 11
-90.41177412048384
 21
252.4182265831151
 31
0
  0
LINE
  8
1
 62
2
  6
DASHED
 10
-83.41177412048376
 20
252.4182265831151
 30
0
 11
-82.41177412048384
 21
252.9955768523051
 31
0
  0
LINE
  8
1
 62
2
  6
DASHED
 10
-82.41177412048384
 20
252.4182265831151
 30
0
 11
-83.41177412048376
 21
252.4182265831151
 31
0
  0
LINE
  8
1
 62
2
  6
DASHED
 10
-83.41177412048384
 20
230.4182265831151
 30
0
 11
-83.41177412048376
 21
252.4182265831151
 31
0
  0
LINE
  8
1
 62
2
  6
DASHED
 10
-89.41177412048384
 20
230.4182265831151
 30
0
 11
-89.41177412048384
 21
252.4182265831151
 31
0
  0
LINE
  8
1
 62
2
  6
DASHED
 10
-82.41177412048384
 20
231.4182265831151
 30
0
 11
-90.41177412048384
 21
231.4182265831151
 31
0
  0
LINE
  8
1
 62
2
  6
DASHED
 10
-90.41177412048384
 20
231.4182265831151
 30
0
 11
-89.41177412048384
 21
230.4182265831151
 31
0
  0
LINE
  8
1
 62
2
  6
DASHED
 10
-82.41177412048384
 20
231.4182265831151
 30
0
 11
-83.41177412048384
 21
230.4182265831151
 31
0
  0
LINE
  8
1
 62
2
  6
DASHED
 10
-89.41177412048384
 20
230.4182265831151
 30
0
 11
-83.41177412048384
 21
230.4182265831151
 31
0
  0
LINE
  8
1
 62
2
  6
DASHED
 10
-93.91732761994885
 20
237.4182265831162
 30
0
 11
-93.91732761994885
 21
233.7182265831161
 31
0
  0
LINE
  8
1
 62
2
  6
DASHED
 10
-90.16455087021652
 20
237.4182265831162
 30
0
 11
-90.16455087021652
 21
233.7182265831161
 31
0
  0
LINE
  8
1
 62
2
  6
DASHED
 10
-82.65899737075117
 20
237.4182265831162
 30
0
 11
-82.65899737075117
 21
233.7182265831161
 31
0
  0
LINE
  8
1
 62
2
  6
DASHED
 10
-80.78260899588494
 20
238.4182265831162
 30
0
 11
-92.04093924508274
 21
238.4182265831162
 31
0
  0
LINE
  8
1
 62
2
  6
DASHED
 10
-80.78260899588494
 20
232.7182265831161
 30
0
 11
-92.04093924508274
 21
232.7182265831161
 31
0
  0
LINE
  8
1
 62
2
  6
DASHED
 10
-91.58490901983154
 20
230.4182265831161
 30
0
 11
-81.23863922113614
 21
230.4182265831164
 31
0
  0
LINE
  8
1
 62
2
  6
DASHED
 10
-78.90622062101883
 20
237.4182265831162
 30
0
 11
-78.90622062101883
 21
233.7182265831161
 31
0
  0
LINE
  8
1
 62
2
  6
DASHED
 10
-93.91732761994885
 20
233.7182265831161
 30
0
 11
-93.29132927258215
 21
232.7862998221101
 31
0
  0
LINE
  8
1
 62
2
  6
DASHED
 10
-93.21157736374627
 20
232.6436132609864
 30
0
 11
-92.56710561754684
 21
231.2303706717464
 31
0
  0
LINE
  8
1
 62
2
  6
DASHED
 10
-92.04093924508274
 20
232.7182265831161
 30
0
 11
-93.25048657321744
 21
232.7182265831161
 31
0
  0
LINE
  8
1
 62
2
  6
DASHED
 10
-79.57306166775024
 20
232.7182265831161
 30
0
 11
-80.78260899588494
 21
232.7182265831161
 31
0
  0
LINE
  8
1
 62
2
  6
DASHED
 10
-79.53221896838554
 20
232.7862998221101
 30
0
 11
-78.90622062101883
 21
233.7182265831161
 31
0
  0
LINE
  8
1
 62
2
  6
DASHED
 10
-80.25644262342084
 20
231.2303706717464
 30
0
 11
-79.61197087722107
 21
232.6436132609864
 31
0
  0
LINE
  8
1
 62
2
  6
DASHED
 10
-78.90622062101883
 20
226.4182265831151
 30
0
 11
-78.41177412048384
 21
226.4182265831151
 31
0
  0
LINE
  8
1
 62
2
  6
DASHED
 10
-78.90622062101883
 20
226.4182265831151
 30
0
 11
-94.41177412048384
 21
226.4182265831153
 31
0
  0
LINE
  8
1
 62
2
  6
DASHED
 10
-81.91177412048384
 20
238.4182265831153
 30
0
 11
-78.90622062101883
 21
238.4182265831151
 31
0
  0
LINE
  8
1
 62
2
  6
DASHED
 10
-90.91177412048384
 20
238.4182265831153
 30
0
 11
-93.91732761994896
 21
238.4182265831153
 31
0
  0
LINE
  8
1
 62
2
  6
DASHED
 10
-93.91732761994896
 20
238.4182265831153
 30
0
 11
-93.91732761994896
 21
226.4182265831153
 31
0
  0
LINE
  8
1
 62
2
  6
DASHED
 10
-78.90622062101883
 20
226.4182265831151
 30
0
 11
-78.90622062101883
 21
238.4182265831151
 31
0
  0
LINE
  8
1
 62
2
  6
DASHED
 10
-79.50465190320924
 20
232.8273390450853
 30
0
 11
-79.50465190320924
 21
226.4182265831151
 31
0
  0
LINE
  8
1
 62
2
  6
DASHED
 10
-81.97396354818224
 20
230.4182265831153
 30
0
 11
-81.97396354818224
 21
226.4182265831151
 31
0
  0
LINE
  8
1
 62
2
  6
DASHED
 10
-82.63012985729185
 20
230.4182265831153
 30
0
 11
-82.63012985729185
 21
226.4182265831153
 31
0
  0
LINE
  8
1
 62
2
  6
DASHED
 10
-90.19341838367595
 20
230.4182265831153
 30
0
 11
-90.19341838367595
 21
226.4182265831153
 31
0
  0
LINE
  8
1
 62
2
  6
DASHED
 10
-90.84958469278544
 20
230.4182265831153
 30
0
 11
-90.84958469278544
 21
226.4182265831153
 31
0
  0
LINE
  8
1
 62
2
  6
DASHED
 10
-93.31889633775845
 20
232.8273390450851
 30
0
 11
-93.31889633775845
 21
226.4182265831153
 31
0
  0
LINE
  8
1
 62
2
  6
DASHED
 10
-94.41177412048384
 20
226.4182265831153
 30
0
 11
-94.41177412048384
 21
219.6203482467198
 31
0
  0
LINE
  8
1
 62
7
 10
-4.411774120483756
 20
318.4182265831162
 30
0
 11
1.588225879516246
 21
318.4182265831162
 31
0
  0
LINE
  8
1
 62
2
  6
DASHED
 10
-4.411774120483756
 20
313.9182265831162
 30
0
 11
-4.411774120483756
 21
318.4182265831162
 31
0
  0
LINE
  8
1
 62
2
  6
DASHED
 10
1.588225879516246
 20
313.9182265831162
 30
0
 11
-4.411774120483756
 21
313.9182265831162
 31
0
  0
LINE
  8
1
 62
7
 10
1.588225879516246
 20
318.4182265831162
 30
0
 11
4.088225879516246
 21
318.4182265831162
 31
0
  0
LINE
  8
1
 62
2
  6
DASHED
 10
1.588225879516246
 20
318.4182265831162
 30
0
 11
1.588225879516246
 21
313.9182265831162
 31
0
  0
LINE
  8
1
 62
7
 10
2.588225879516133
 20
310.4182265831163
 30
0
 11
-5.411774120483757
 21
310.4182265831162
 31
0
  0
LINE
  8
1
 62
7
 10
-6.911774120483756
 20
318.4182265831162
 30
0
 11
-4.411774120483756
 21
318.4182265831162
 31
0
  0
LINE
  8
1
 62
7
 10
-7.911774120483757
 20
310.4182265831162
 30
0
 11
-7.911774120483759
 21
317.4182265831162
 31
0
  0
LINE
  8
1
 62
7
 10
-5.411774120483757
 20
310.4182265831162
 30
0
 11
-7.911774120483757
 21
310.4182265831162
 31
0
  0
LINE
  8
1
 62
7
 10
5.088225879516132
 20
310.4182265831163
 30
0
 11
2.588225879516133
 21
310.4182265831163
 31
0
  0
LINE
  8
1
 62
7
 10
5.088225879516246
 20
317.4182265831162
 30
0
 11
5.088225879516132
 21
310.4182265831163
 31
0
  0
LINE
  8
1
 62
7
 10
3.088225879516133
 20
310.4182265831163
 30
0
 11
5.588225879516132
 21
310.4182265831163
 31
0
  0
LINE
  8
1
 62
7
 10
-5.911774120483757
 20
310.4182265831162
 30
0
 11
-8.411774120483758
 21
310.4182265831162
 31
0
  0
LINE
  8
1
 62
7
 10
5.588225879516132
 20
310.4182265831163
 30
0
 11
5.588225879516132
 21
321.5907821636655
 31
0
  0
LINE
  8
1
 62
7
 10
5.588225879516132
 20
321.5907821636655
 30
0
 11
5.588225879516132
 21
331.5708397388
 31
0
  0
LINE
  8
1
 62
7
 10
-8.411774120483869
 20
330.7853269165555
 30
0
 11
-8.411774120483869
 21
343.4828332780647
 31
0
  0
LINE
  8
1
 62
7
 10
-8.411774120483758
 20
310.4182265831162
 30
0
 11
-8.411774120483869
 21
330.7853269165555
 31
0
  0
LINE
  8
1
 62
7
 10
2.588225879516133
 20
310.4182265831163
 30
0
 11
2.588225879516132
 21
238.418226583115
 31
0
  0
LINE
  8
1
 62
7
 10
3.088225879516246
 20
274.4182265831163
 30
0
 11
3.088225879516133
 21
310.4182265831163
 31
0
  0
LINE
  8
1
 62
7
 10
-5.911774120483757
 20
274.4182265831163
 30
0
 11
-5.911774120483757
 21
310.4182265831162
 31
0
  0
LINE
  8
1
 62
7
 10
-5.411774120483757
 20
310.4182265831162
 30
0
 11
-5.411774120483757
 21
238.418226583115
 31
0
  0
LINE
  8
1
 62
7
 10
-5.911774120483757
 20
274.4182265831163
 30
0
 11
-5.911774120483757
 21
238.418226583115
 31
0
  0
LINE
  8
1
 62
7
 10
3.088225879516246
 20
274.4182265831163
 30
0
 11
3.088225879516132
 21
238.418226583115
 31
0
  0
LINE
  8
1
 62
2
 10
-5.411774120483757
 20
252.9955768523051
 30
0
 11
-4.411774120483756
 21
252.4182265831151
 31
0
  0
LINE
  8
1
 62
7
 10
1.588225879516246
 20
252.4182265831151
 30
0
 11
-5.411774120483757
 21
252.4182265831151
 31
0
  0
LINE
  8
1
 62
2
 10
1.588225879516246
 20
252.4182265831151
 30
0
 11
2.588225879516246
 21
252.9955768523051
 31
0
  0
LINE
  8
1
 62
7
 10
2.588225879516246
 20
252.4182265831151
 30
0
 11
1.588225879516246
 21
252.4182265831151
 31
0
  0
LINE
  8
1
 62
2
  6
DASHED
 10
2.588225879516132
 20
238.418226583115
 30
0
 11
2.588225879516246
 21
231.4182265831151
 31
0
  0
LINE
  8
1
 62
2
 10
1.588225879516246
 20
238.418226583115
 30
0
 11
1.588225879516246
 21
252.4182265831151
 31
0
  0
LINE
  8
1
 62
2
  6
DASHED
 10
-4.411774120483757
 20
238.418226583115
 30
0
 11
-4.411774120483756
 21
230.4182265831151
 31
0
  0
LINE
  8
1
 62
2
  6
DASHED
 10
-5.411774120483757
 20
238.418226583115
 30
0
 11
-5.411774120483757
 21
231.4182265831151
 31
0
  0
LINE
  8
1
 62
2
 10
-4.411774120483756
 20
252.4182265831151
 30
0
 11
-4.411774120483757
 21
238.418226583115
 31
0
  0
LINE
  8
1
 62
2
  6
DASHED
 10
1.588225879516246
 20
230.4182265831151
 30
0
 11
1.588225879516246
 21
238.418226583115
 31
0
  0
LINE
  8
1
 62
2
  6
DASHED
 10
2.588225879516246
 20
231.4182265831151
 30
0
 11
-5.411774120483757
 21
231.4182265831151
 31
0
  0
LINE
  8
1
 62
2
  6
DASHED
 10
-5.411774120483757
 20
231.4182265831151
 30
0
 11
-4.411774120483756
 21
230.4182265831151
 31
0
  0
LINE
  8
1
 62
2
  6
DASHED
 10
2.588225879516246
 20
231.4182265831151
 30
0
 11
1.588225879516246
 21
230.4182265831151
 31
0
  0
LINE
  8
1
 62
2
  6
DASHED
 10
-4.411774120483756
 20
230.4182265831151
 30
0
 11
1.588225879516246
 21
230.4182265831151
 31
0
  0
LINE
  8
1
 62
7
 10
-8.91732761994888
 20
237.4182265831162
 30
0
 11
-8.91732761994888
 21
233.7182265831161
 31
0
  0
LINE
  8
1
 62
7
 10
-5.164550870216429
 20
237.4182265831162
 30
0
 11
-5.164550870216429
 21
233.7182265831161
 31
0
  0
LINE
  8
1
 62
7
 10
2.341002629248694
 20
237.4182265831162
 30
0
 11
2.341002629248694
 21
233.7182265831161
 31
0
  0
LINE
  8
1
 62
7
 10
4.217391004115031
 20
238.4182265831162
 30
0
 11
-7.040939245082647
 21
238.4182265831162
 31
0
  0
LINE
  8
1
 62
7
 10
4.217391004115031
 20
232.7182265831161
 30
0
 11
-7.040939245082647
 21
232.7182265831161
 31
0
  0
LINE
  8
1
 62
7
 10
-6.584909019831459
 20
230.4182265831164
 30
0
 11
3.761360778863834
 21
230.4182265831161
 31
0
  0
LINE
  8
1
 62
7
 10
6.093779378981255
 20
237.4182265831162
 30
0
 11
6.093779378981255
 21
233.7182265831161
 31
0
  0
LINE
  8
1
 62
7
 10
-8.91732761994888
 20
233.7182265831161
 30
0
 11
-8.291329272582059
 21
232.7862998221101
 31
0
  0
LINE
  8
1
 62
7
 10
-8.211577363746409
 20
232.6436132609864
 30
0
 11
-7.56710561754676
 21
231.2303706717464
 31
0
  0
LINE
  8
1
 62
7
 10
-7.040939245082647
 20
232.7182265831161
 30
0
 11
-8.25048657321747
 21
232.7182265831161
 31
0
  0
LINE
  8
1
 62
7
 10
5.426938332249849
 20
232.7182265831161
 30
0
 11
4.217391004115031
 21
232.7182265831161
 31
0
  0
LINE
  8
1
 62
7
 10
5.467781031614438
 20
232.7862998221101
 30
0
 11
6.093779378981255
 21
233.7182265831161
 31
0
  0
LINE
  8
1
 62
7
 10
4.743557376579135
 20
231.2303706717464
 30
0
 11
5.388029122778791
 21
232.6436132609864
 31
0
  0
LINE
  8
1
 62
7
 10
-8.91732761994888
 20
226.4182265831151
 30
0
 11
6.093779378981255
 21
226.4182265831151
 31
0
  0
LINE
  8
1
 62
2
 10
-5.193418383675859
 20
226.4182265831151
 30
0
 11
-5.193418383675859
 21
230.4182265831153
 31
0
  0
LINE
  8
1
 62
2
 10
2.369870142708239
 20
226.4182265831151
 30
0
 11
2.369870142708239
 21
230.4182265831153
 31
0
  0
LINE
  8
1
 62
7
 10
6.093779378981255
 20
238.4182265831151
 30
0
 11
3.088225879516132
 21
238.418226583115
 31
0
  0
LINE
  8
1
 62
2
 10
-8.318896337758471
 20
226.4182265831151
 30
0
 11
-8.318896337758471
 21
232.8273390450853
 31
0
  0
LINE
  8
1
 62
2
 10
-5.849584692785358
 20
226.4182265831151
 30
0
 11
-5.849584692785358
 21
230.4182265831153
 31
0
  0
LINE
  8
1
 62
2
 10
3.026036451817733
 20
226.4182265831151
 30
0
 11
3.026036451817733
 21
230.4182265831151
 31
0
  0
LINE
  8
1
 62
7
 10
-9.411774120483869
 20
226.4182265831151
 30
0
 11
-8.91732761994888
 21
226.4182265831151
 31
0
  0
LINE
  8
1
 62
7
 10
6.093779378981255
 20
238.4182265831151
 30
0
 11
6.093779378981255
 21
227.7491295357966
 31
0
  0
LINE
  8
1
 62
7
 10
-8.91732761994888
 20
238.4182265831151
 30
0
 11
-8.91732761994888
 21
226.4182265831151
 31
0
  0
LINE
  8
1
 62
2
 10
5.495348096790851
 20
232.8273390450851
 30
0
 11
5.495348096790851
 21
226.4182265831151
 31
0
  0
LINE
  8
1
 62
7
 10
-8.91732761994888
 20
238.4182265831151
 30
0
 11
-5.911774120483757
 21
238.418226583115
 31
0
  0
LINE
  8
1
 62
7
 10
6.093779378981255
 20
227.6898729987768
 30
0
 11
6.093779378981255
 21
226.4182265831151
 31
0
  0
LINE
  8
1
 62
7
 10
6.093779378981255
 20
226.4182265831151
 30
0
 11
6.588225879516132
 21
226.4182265831151
 31
0
  0
LINE
  8
1
 62
7
 10
-9.411774120483869
 20
217.5829382491947
 30
0
 11
-9.411774120483869
 21
201.9666351522796
 31
0
  0
LINE
  8
1
 62
7
 10
-9.411774120483869
 20
226.4182265831151
 30
0
 11
-9.411774120483869
 21
217.5829382491947
 31
0
  0
LINE
  8
1
 62
2
  6
DASHDOT
 10
-1.411774120483754
 20
209.182700280285
 30
0
 11
-1.411774120483754
 21
339.1827002802851
 31
0
  0
LINE
  8
1
 62
7
 10
6.588225879516132
 20
226.4182265831151
 30
0
 11
6.588225879516132
 21
214.8839325073413
 31
0
  0
LINE
  8
1
 62
2
 10
17.99322564180738
 20
327.1588686736417
 30
0
 11
75.30433729224546
 21
327.1588686736417
 31
0
  0
LINE
  8
1
 62
7
 10
-120.5591445001431
 20
274.4182265831163
 30
0
 11
-64.08677412048365
 21
274.4182265831163
 31
0
  0
LINE
  8
1
 62
7
 10
-5.411774120483756
 20
274.4182265831163
 30
0
 11
32.73559625922589
 21
274.4182265831163
 31
0
  0
LINE
  8
1
 62
7
  6
DASHDOT
 10
-23.73677412048374
 20
274.4182265831163
 30
0
 11
-5.411774120483756
 21
274.4182265831163
 31
0
  0
LINE
  8
1
 62
2
 10
28.84655612880202
 20
199.4630759177608
 30
0
 11
81.84655612880201
 21
199.4630759177608
 31
0
  0
LINE
  8
1
 62
2
  6
DASHDOT
 10
-27.96418861733649
 20
90.36713421940608
 30
0
 11
-82.41177412031037
 21
90.36713421940608
 31
0
  0
LINE
  8
1
 62
2
  6
DASHDOT
 10
-88.51177412048364
 20
100.3671342194061
 30
0
 11
-86.41177412048373
 21
100.3671342194061
 31
0
  0
LINE
  8
1
 62
2
  6
DASHDOT
 10
-127.3776518465362
 20
90.36713421940608
 30
0
 11
-82.41177412031037
 21
90.36713421940608
 31
0
  0
LINE
  8
1
 62
2
  6
DASHDOT
 10
39.55410360591578
 20
90.36713421940608
 30
0
 11
-14.41177412031037
 21
90.36713421940608
 31
0
  0
LINE
  8
1
 62
2
  6
DASHDOT
 10
-86.41177412048373
 20
85.26713421940609
 30
0
 11
-86.41177412048373
 21
95.46713421940611
 31
0
  0
LINE
  8
1
 62
2
  6
DASHDOT
 10
-1.411774120483754
 20
85.26713421940609
 30
0
 11
-1.411774120483754
 21
95.46713421940611
 31
0
  0
LINE
  8
1
 62
2
  6
DASHDOT
 10
-86.41177412048373
 20
97.96713421940611
 30
0
 11
-86.41177412048373
 21
102.7671342194061
 31
0
  0
LINE
  8
1
 62
2
  6
DASHDOT
 10
0.9882258795162231
 20
78.36713421940608
 30
0
 11
-1.411774120483754
 21
78.36713421940608
 31
0
  0
LINE
  8
1
 62
2
  6
DASHDOT
 10
-3.811774120483955
 20
78.36713421940608
 30
0
 11
-1.411774120483754
 21
78.36713421940608
 31
0
  0
LINE
  8
1
 62
2
  6
DASHDOT
 10
-1.411774120483754
 20
80.76713421940609
 30
0
 11
-1.411774120483754
 21
78.36713421940608
 31
0
  0
LINE
  8
1
 62
2
  6
DASHDOT
 10
-1.411774120483754
 20
75.96713421940612
 30
0
 11
-1.411774120483754
 21
78.36713421940608
 31
0
  0
LINE
  8
1
 62
2
  6
DASHDOT
 10
-14.41177412031037
 20
90.36713421940608
 30
0
 11
-27.96418861733649
 21
90.36713421940608
 31
0
  0
LINE
  8
1
 62
2
  6
DASHDOT
 10
-88.81177412048382
 20
100.3671342194061
 30
0
 11
-88.51177412048364
 21
100.3671342194061
 31
0
  0
LINE
  8
1
 62
2
  6
DASHDOT
 10
-84.01177412048375
 20
100.3671342194061
 30
0
 11
-86.41177412048373
 21
100.3671342194061
 31
0
  0
LINE
  8
1
 62
7
 10
-120.5591445001431
 20
120.3671342194061
 30
0
 11
32.73559625927565
 21
120.3671342194061
 31
0
  0
LINE
  8
1
 62
7
 10
32.73559625927565
 20
120.3671342194061
 30
0
 11
32.73559625921438
 21
97.42020245670609
 31
0
  0
LINE
  8
1
 62
7
 10
32.73559625927567
 20
60.36713421940608
 30
0
 11
-120.5591445001431
 21
60.36713421940608
 31
0
  0
LINE
  8
1
 62
7
 10
-120.5591445001431
 20
60.36713421940608
 30
0
 11
-120.5591445001818
 21
83.3140556061061
 31
0
  0
LINE
  8
1
 62
2
  6
DASHDOT
 10
-88.51177412048364
 20
100.3671342194061
 30
0
 11
-86.41177412048373
 21
100.3671342194061
 31
0
  0
LINE
  8
1
 62
2
  6
DASHDOT
 10
-86.41177412048373
 20
97.96713421940611
 30
0
 11
-86.41177412048373
 21
102.7671342194061
 31
0
  0
LINE
  8
1
 62
2
  6
DASHDOT
 10
-88.81177412048382
 20
100.3671342194061
 30
0
 11
-88.51177412048364
 21
100.3671342194061
 31
0
  0
LINE
  8
1
 62
2
  6
DASHDOT
 10
-84.01177412048375
 20
100.3671342194061
 30
0
 11
-86.41177412048373
 21
100.3671342194061
 31
0
  0
LINE
  8
1
 62
2
  6
DASHDOT
 10
-88.51177412048364
 20
100.3671342194061
 30
0
 11
-86.41177412048373
 21
100.3671342194061
 31
0
  0
LINE
  8
1
 62
2
  6
DASHDOT
 10
-86.41177412048373
 20
97.96713421940611
 30
0
 11
-86.41177412048373
 21
102.7671342194061
 31
0
  0
LINE
  8
1
 62
2
  6
DASHDOT
 10
-88.81177412048382
 20
100.3671342194061
 30
0
 11
-88.51177412048364
 21
100.3671342194061
 31
0
  0
LINE
  8
1
 62
2
  6
DASHDOT
 10
-84.01177412048375
 20
100.3671342194061
 30
0
 11
-86.41177412048373
 21
100.3671342194061
 31
0
  0
LINE
  8
1
 62
7
 10
-64.08677412048365
 20
120.3671342194061
 30
0
 11
-64.08677412048365
 21
60.36713421940608
 31
0
  0
LINE
  8
1
 62
7
 10
-50.06177412048368
 20
120.3671342194061
 30
0
 11
-50.06177412048368
 21
60.36713421940608
 31
0
  0
LINE
  8
1
 62
7
 10
-37.76177412048372
 20
120.3671342194061
 30
0
 11
-37.76177412048372
 21
60.36713421940608
 31
0
  0
LINE
  8
1
 62
7
 10
-23.73677412048374
 20
120.3671342194061
 30
0
 11
-23.73677412048374
 21
60.3671342194061
 31
0
  0
LINE
  8
1
 62
2
  6
DASHDOT
 10
-43.91177412048795
 20
133.8827231174111
 30
0
 11
-43.91177412031037
 21
57.36713421940608
 31
0
  0
LINE
  8
1
 62
2
  6
DASHDOT
 10
-64.08677412048365
 20
274.4182265831163
 30
0
 11
-23.73677412048374
 21
274.4182265831163
 31
0
  0
LINE
  8
1
 62
2
  6
DASHDOT
 10
-43.91177412048359
 20
260.3688455594506
 30
0
 11
-43.91177412048376
 21
280.3386985169348
 31
0
  0
LINE
  8
1
 62
2
  6
DASHDOT
 10
-43.91177412048359
 20
260.3688455594506
 30
0
 11
-43.91177412048359
 21
240.3688455594506
 31
0
  0
LINE
  8
0
 62
2
 10
-43.9117741204837
 20
275.4932265830754
 30
0
 11
-43.9117741204837
 21
273.3432265830754
 31
0
  0
LINE
  8
0
 62
2
 10
-42.83677412048371
 20
274.4182265830755
 30
0
 11
-44.98677412048372
 21
274.4182265830755
 31
0
  0
LINE
  8
1
 62
2
 10
304.2798850523707
 20
348.4305555280939
 30
0
 11
314.2798850523707
 21
354.4305555280939
 31
0
  0
LINE
  8
1
 62
7
 10
341.1225771653637
 20
370.897459460987
 30
0
 11
341.1225771653637
 21
358.2974594609868
 31
0
  0
LINE
  8
1
 62
7
 10
284.4225771653637
 20
358.2974594609868
 30
0
 11
284.4225771653637
 21
370.897459460987
 31
0
  0
LINE
  8
1
 62
7
 10
284.4225771653637
 20
358.2974594609868
 30
0
 11
341.1225771653637
 21
358.2974594609868
 31
0
  0
LINE
  8
1
 62
7
 10
341.1225771653637
 20
358.2974594609868
 30
0
 11
341.1225771653637
 21
345.6974594609868
 31
0
  0
LINE
  8
1
 62
7
 10
341.1225771653637
 20
345.6974594609868
 30
0
 11
284.4225771653637
 21
345.6974594609868
 31
0
  0
LINE
  8
1
 62
7
 10
284.4225771653637
 20
345.6974594609868
 30
0
 11
284.4225771653637
 21
358.2974594609868
 31
0
  0
LINE
  8
1
 62
7
 10
341.1225771653637
 20
345.6974594609868
 30
0
 11
284.4225771653637
 21
345.6974594609868
 31
0
  0
LINE
  8
1
 62
7
 10
284.4225771653637
 20
345.6974594609868
 30
0
 11
341.1225771653637
 21
345.6974594609868
 31
0
  0
LINE
  8
1
 62
7
 10
341.1225771653637
 20
345.6974594609868
 30
0
 11
341.1225771653637
 21
333.0974594609869
 31
0
  0
LINE
  8
1
 62
7
 10
341.1225771653637
 20
333.0974594609869
 30
0
 11
284.4225771653637
 21
333.0974594609869
 31
0
  0
LINE
  8
1
 62
7
 10
284.4225771653637
 20
333.0974594609869
 30
0
 11
284.4225771653637
 21
345.6974594609868
 31
0
  0
LINE
  8
1
 62
7
 10
341.1225771653637
 20
333.0974594609869
 30
0
 11
284.4225771653637
 21
333.0974594609869
 31
0
  0
LINE
  8
1
 62
7
 10
341.1225771653637
 20
333.0974594609869
 30
0
 11
284.4225771653637
 21
333.0974594609869
 31
0
  0
LINE
  8
1
 62
7
 10
284.4225771653637
 20
333.0974594609869
 30
0
 11
341.1225771653637
 21
333.0974594609869
 31
0
  0
LINE
  8
1
 62
7
 10
299.7225771653636
 20
370.897459460987
 30
0
 11
299.7225771653636
 21
333.0974594609869
 31
0
  0
LINE
  8
1
 62
7
 10
320.4225771653637
 20
370.897459460987
 30
0
 11
320.4225771653637
 21
333.0974594609869
 31
0
  0
LINE
  8
1
 62
7
 10
284.4225771653637
 20
370.897459460987
 30
0
 11
341.1225771653637
 21
370.897459460987
 31
0
  0
LINE
  8
1
 62
7
 10
284.4225771653637
 20
320.4974594609869
 30
0
 11
284.4225771653637
 21
333.0974594609869
 31
0
  0
LINE
  8
1
 62
7
 10
299.7225771653636
 20
358.2974594609868
 30
0
 11
299.7225771653636
 21
320.4974594609869
 31
0
  0
LINE
  8
1
 62
7
 10
320.4225771653637
 20
358.2974594609868
 30
0
 11
320.4225771653637
 21
320.4974594609869
 31
0
  0
LINE
  8
1
 62
7
 10
341.1225771653637
 20
333.0974594609869
 30
0
 11
341.1225771653637
 21
320.4974594609869
 31
0
  0
LINE
  8
1
 62
7
 10
341.1225771653637
 20
320.4974594609869
 30
0
 11
284.4225771653637
 21
320.4974594609869
 31
0
  0
LINE
  8
1
 62
7
 10
284.4225771653637
 20
307.897459460987
 30
0
 11
284.4225771653637
 21
320.4974594609869
 31
0
  0
LINE
  8
1
 62
7
 10
299.7225771653636
 20
345.6974594609868
 30
0
 11
299.7225771653636
 21
307.897459460987
 31
0
  0
LINE
  8
1
 62
7
 10
341.1225771653637
 20
307.897459460987
 30
0
 11
284.4225771653637
 21
307.897459460987
 31
0
  0
LINE
  8
1
 62
7
 10
320.4225771653637
 20
345.6974594609868
 30
0
 11
320.4225771653637
 21
307.897459460987
 31
0
  0
LINE
  8
1
 62
7
 10
341.1225771653637
 20
320.4974594609869
 30
0
 11
341.1225771653637
 21
307.897459460987
 31
0
  0
LINE
  8
1
 62
7
 10
284.4225771653637
 20
295.2974594609868
 30
0
 11
284.4225771653637
 21
307.897459460987
 31
0
  0
LINE
  8
1
 62
7
 10
299.7225771653636
 20
333.0974594609869
 30
0
 11
299.7225771653636
 21
295.2974594609868
 31
0
  0
LINE
  8
1
 62
7
 10
320.4225771653637
 20
333.0974594609869
 30
0
 11
320.4225771653637
 21
295.2974594609868
 31
0
  0
LINE
  8
1
 62
7
 10
341.1225771653637
 20
307.897459460987
 30
0
 11
341.1225771653637
 21
295.2974594609868
 31
0
  0
LINE
  8
1
 62
7
 10
341.1225771653637
 20
295.2974594609868
 30
0
 11
284.4225771653637
 21
295.2974594609868
 31
0
  0
LINE
  8
1
 62
7
 10
284.4225771653637
 20
282.6974594609868
 30
0
 11
284.4225771653637
 21
295.2974594609868
 31
0
  0
LINE
  8
1
 62
7
 10
299.7225771653636
 20
320.4974594609869
 30
0
 11
299.7225771653636
 21
282.6974594609868
 31
0
  0
LINE
  8
1
 62
7
 10
320.4225771653637
 20
320.4974594609869
 30
0
 11
320.4225771653637
 21
282.6974594609868
 31
0
  0
LINE
  8
1
 62
7
 10
341.1225771653637
 20
295.2974594609868
 30
0
 11
341.1225771653637
 21
282.6974594609868
 31
0
  0
LINE
  8
1
 62
7
 10
341.1225771653637
 20
282.6974594609868
 30
0
 11
284.4225771653637
 21
282.6974594609868
 31
0
  0
LINE
  8
DEFAULT_1
 62
2
  6
CENTER
 10
-43.91177412048371
 20
305.598807286453
 30
0
 11
-43.91177412048372
 21
302.843211415825
 31
0
  0
LINE
  8
DEFAULT_1
 62
2
  6
CENTER
 10
-43.91177412048371
 20
228.814357745431
 30
0
 11
-43.91177412048364
 21
189.8481850194163
 31
0
  0
LINE
  8
1
 62
2
  6
DASHDOT
 10
109.130695197766
 20
274.4182265831163
 30
0
 11
179.130695197766
 21
274.4182265831163
 31
0
  0
LINE
  8
1
 62
7
 10
150.3663038848478
 20
274.4182265831163
 30
0
 11
150.6403900146
 21
271.3459045961162
 31
0
  0
LINE
  8
1
 62
7
 10
150.6403900146
 20
271.3459045961162
 30
0
 11
151.8613391113
 21
257.5457782997162
 31
0
  0
LINE
  8
1
 62
7
 10
139.233998452656
 20
274.4182265831163
 30
0
 11
138.9761413574
 21
271.3459045961162
 31
0
  0
LINE
  8
1
 62
7
 10
138.9761413574
 20
271.3459045961162
 30
0
 11
137.7551922607
 21
257.5457782997162
 31
0
  0
LINE
  8
1
 62
7
 10
114.8082688230003
 20
274.4182265831163
 30
0
 11
174.80826180395
 21
274.4182265831163
 31
0
  0
LINE
  8
1
 62
7
 10
114.8082694407513
 20
298.6182265831163
 30
0
 11
174.808261304773
 21
298.6182265831163
 31
0
  0
LINE
  8
1
 62
7
 10
173.8082614330779
 20
293.6330158091273
 30
0
 11
174.8082613931438
 21
294.6330158091273
 31
0
  0
LINE
  8
1
 62
7
 10
115.8082692819689
 20
293.6330158091273
 30
0
 11
114.808269331389
 21
294.6330158091273
 31
0
  0
LINE
  8
1
 62
7
 10
115.8082692819689
 20
293.6330158091273
 30
0
 11
173.8082614330779
 21
293.6330158091273
 31
0
  0
LINE
  8
1
 62
7
 10
115.8082692819689
 20
293.6330158091273
 30
0
 11
115.8082692819689
 21
274.4182265831163
 31
0
  0
LINE
  8
1
 62
7
 10
173.8082614330779
 20
293.6330158091273
 30
0
 11
173.8082614330779
 21
274.4182265831163
 31
0
  0
LINE
  8
1
 62
7
 10
-43.91177412048364
 20
353.7014404511164
 30
0
 11
-43.91177412048364
 21
368.7014404511164
 31
0
  0
LINE
  8
1
 62
7
 10
-44.41177412048364
 20
353.7014404511164
 30
0
 11
-44.41177412048364
 21
368.7014404511164
 31
0
  0
LINE
  8
1
 62
7
 10
-43.91177412048377
 20
277.02449197861
 30
0
 11
-43.9117741204837
 21
274.4182265831163
 31
0
  0
LINE
  8
1
 62
7
 10
-43.9117741204837
 20
274.4182265830755
 30
0
 11
-46.7560427701479
 21
274.4182265831163
 31
0
  0
LINE
  8
1
 62
2
  6
DASHDOT
 10
-95.34898215261305
 20
345.1307032570168
 30
0
 11
-80.68441871549464
 21
324.9708298958296
 31
0
  0
LINE
  8
1
 62
7
 10
276.5484740727331
 20
127.1501780945052
 30
0
 11
352.868474072733
 21
127.1501780945052
 31
0
  0
LINE
  8
1
 62
7
 10
352.868474072733
 20
137.2301780945053
 30
0
 11
276.5484740727331
 21
137.2301780945053
 31
0
  0
LINE
  8
1
 62
7
 10
352.868474072733
 20
147.3101780945053
 30
0
 11
276.5484740727331
 21
147.3101780945053
 31
0
  0
LINE
  8
1
 62
7
 10
352.868474072733
 20
157.3901780945052
 30
0
 11
276.5484740727331
 21
157.3901780945052
 31
0
  0
LINE
  8
1
 62
7
 10
352.868474072733
 20
157.3901780945052
 30
0
 11
352.868474072733
 21
127.1501780945052
 31
0
  0
LINE
  8
1
 62
7
 10
352.868474072733
 20
167.4701780945053
 30
0
 11
352.868474072733
 21
137.2301780945053
 31
0
  0
LINE
  8
1
 62
7
 10
333.428474072733
 20
157.3901780945052
 30
0
 11
333.428474072733
 21
127.1501780945052
 31
0
  0
LINE
  8
1
 62
7
 10
333.428474072733
 20
167.4701780945053
 30
0
 11
333.428474072733
 21
137.2301780945053
 31
0
  0
LINE
  8
1
 62
7
 10
313.9884740727329
 20
157.3901780945052
 30
0
 11
313.9884740727329
 21
127.1501780945052
 31
0
  0
LINE
  8
1
 62
7
 10
294.5484740727331
 20
157.3901780945052
 30
0
 11
294.5484740727331
 21
127.1501780945052
 31
0
  0
LINE
  8
1
 62
7
 10
276.5484740727331
 20
127.1501780945052
 30
0
 11
352.868474072733
 21
127.1501780945052
 31
0
  0
LINE
  8
1
 62
7
 10
276.5484740727331
 20
127.1501780945052
 30
0
 11
276.5484740727331
 21
137.2301780945053
 31
0
  0
LINE
  8
1
 62
7
 10
313.9884740727329
 20
167.4701780945053
 30
0
 11
313.9884740727329
 21
137.2301780945053
 31
0
  0
LINE
  8
1
 62
7
 10
294.5484740727331
 20
167.4701780945053
 30
0
 11
294.5484740727331
 21
137.2301780945053
 31
0
  0
LINE
  8
1
 62
7
 10
276.5484740727331
 20
137.2301780945053
 30
0
 11
276.5484740727331
 21
147.3101780945053
 31
0
  0
LINE
  8
1
 62
7
 10
276.5484740727331
 20
147.3101780945053
 30
0
 11
276.5484740727331
 21
157.3901780945052
 31
0
  0
LINE
  8
1
 62
7
 10
276.5484740727331
 20
157.3901780945052
 30
0
 11
276.5484740727331
 21
167.4701780945053
 31
0
  0
LINE
  8
1
 62
7
 10
276.5484740727331
 20
167.4701780945053
 30
0
 11
352.868474072733
 21
167.4701780945053
 31
0
  0
LINE
  8
1
 62
7
 10
352.868474072733
 20
177.5501780945053
 30
0
 11
276.5484740727331
 21
177.5501780945053
 31
0
  0
LINE
  8
1
 62
7
 10
352.868474072733
 20
187.6301780945055
 30
0
 11
276.5484740727331
 21
187.6301780945055
 31
0
  0
LINE
  8
1
 62
7
 10
352.868474072733
 20
197.7101780945052
 30
0
 11
276.5484740727331
 21
197.7101780945052
 31
0
  0
LINE
  8
1
 62
7
 10
352.868474072733
 20
197.7101780945052
 30
0
 11
352.868474072733
 21
167.4701780945053
 31
0
  0
LINE
  8
1
 62
7
 10
352.868474072733
 20
207.7901780945053
 30
0
 11
352.868474072733
 21
177.5501780945053
 31
0
  0
LINE
  8
1
 62
7
 10
333.428474072733
 20
197.7101780945052
 30
0
 11
333.428474072733
 21
167.4701780945053
 31
0
  0
LINE
  8
1
 62
7
 10
333.428474072733
 20
207.7901780945053
 30
0
 11
333.428474072733
 21
177.5501780945053
 31
0
  0
LINE
  8
1
 62
7
 10
313.9884740727329
 20
197.7101780945052
 30
0
 11
313.9884740727329
 21
167.4701780945053
 31
0
  0
LINE
  8
1
 62
7
 10
294.5484740727331
 20
197.7101780945052
 30
0
 11
294.5484740727331
 21
167.4701780945053
 31
0
  0
LINE
  8
1
 62
7
 10
276.5484740727331
 20
167.4701780945053
 30
0
 11
352.868474072733
 21
167.4701780945053
 31
0
  0
LINE
  8
1
 62
7
 10
276.5484740727331
 20
167.4701780945053
 30
0
 11
276.5484740727331
 21
177.5501780945053
 31
0
  0
LINE
  8
1
 62
7
 10
313.9884740727329
 20
207.7901780945053
 30
0
 11
313.9884740727329
 21
177.5501780945053
 31
0
  0
LINE
  8
1
 62
7
 10
294.5484740727331
 20
207.7901780945053
 30
0
 11
294.5484740727331
 21
177.5501780945053
 31
0
  0
LINE
  8
1
 62
7
 10
276.5484740727331
 20
177.5501780945053
 30
0
 11
276.5484740727331
 21
187.6301780945055
 31
0
  0
LINE
  8
1
 62
7
 10
276.5484740727331
 20
187.6301780945055
 30
0
 11
276.5484740727331
 21
197.7101780945052
 31
0
  0
LINE
  8
1
 62
7
 10
276.5484740727331
 20
197.7101780945052
 30
0
 11
276.5484740727331
 21
207.7901780945053
 31
0
  0
LINE
  8
1
 62
7
 10
276.5484740727331
 20
207.7901780945053
 30
0
 11
352.868474072733
 21
207.7901780945053
 31
0
  0
LINE
  8
1
 62
7
 10
352.868474072733
 20
217.8701780945054
 30
0
 11
276.5484740727331
 21
217.8701780945054
 31
0
  0
LINE
  8
1
 62
7
 10
352.868474072733
 20
227.9501780945054
 30
0
 11
276.5484740727331
 21
227.9501780945054
 31
0
  0
LINE
  8
1
 62
7
 10
352.868474072733
 20
238.0301780945056
 30
0
 11
276.5484740727331
 21
238.0301780945056
 31
0
  0
LINE
  8
1
 62
7
 10
352.868474072733
 20
238.0301780945056
 30
0
 11
352.868474072733
 21
207.7901780945053
 31
0
  0
LINE
  8
1
 62
7
 10
352.868474072733
 20
248.1101780945053
 30
0
 11
352.868474072733
 21
217.8701780945054
 31
0
  0
LINE
  8
1
 62
7
 10
333.428474072733
 20
238.0301780945056
 30
0
 11
333.428474072733
 21
207.7901780945053
 31
0
  0
LINE
  8
1
 62
7
 10
333.428474072733
 20
248.1101780945053
 30
0
 11
333.428474072733
 21
217.8701780945054
 31
0
  0
LINE
  8
1
 62
7
 10
313.9884740727329
 20
238.0301780945056
 30
0
 11
313.9884740727329
 21
207.7901780945053
 31
0
  0
LINE
  8
1
 62
7
 10
294.5484740727331
 20
238.0301780945056
 30
0
 11
294.5484740727331
 21
207.7901780945053
 31
0
  0
LINE
  8
1
 62
7
 10
276.5484740727331
 20
207.7901780945053
 30
0
 11
352.868474072733
 21
207.7901780945053
 31
0
  0
LINE
  8
1
 62
7
 10
276.5484740727331
 20
207.7901780945053
 30
0
 11
276.5484740727331
 21
217.8701780945054
 31
0
  0
LINE
  8
1
 62
7
 10
313.9884740727329
 20
248.1101780945053
 30
0
 11
313.9884740727329
 21
217.8701780945054
 31
0
  0
LINE
  8
1
 62
7
 10
294.5484740727331
 20
248.1101780945053
 30
0
 11
294.5484740727331
 21
217.8701780945054
 31
0
  0
LINE
  8
1
 62
7
 10
276.5484740727331
 20
217.8701780945054
 30
0
 11
276.5484740727331
 21
227.9501780945054
 31
0
  0
LINE
  8
1
 62
7
 10
276.5484740727331
 20
227.9501780945054
 30
0
 11
276.5484740727331
 21
238.0301780945056
 31
0
  0
LINE
  8
1
 62
7
 10
276.5484740727331
 20
238.0301780945056
 30
0
 11
276.5484740727331
 21
248.1101780945053
 31
0
  0
LINE
  8
1
 62
7
 10
276.5484740727331
 20
248.1101780945053
 30
0
 11
352.868474072733
 21
248.1101780945053
 31
0
  0
LINE
  8
1
 62
2
 10
-107.6230444502605
 20
206.5907821636656
 30
0
 11
-87.11177412048379
 21
270.4182265831137
 31
0
  0
LINE
  8
1
 62
2
 10
17.99322564180738
 20
327.1588686736417
 30
0
 11
-1.411774120483868
 21
313.9182265831162
 31
0
  0
LINE
  8
1
 62
2
 10
28.84655612880202
 20
199.4630759177608
 30
0
 11
-1.65344387128598
 21
234.3096710171583
 31
0
  0
LINE
  8
1
 62
2
 10
-87.4796791337842
 20
174.565026737968
 30
0
 11
-58.2908021284367
 21
174.735721925134
 31
0
  0
LINE
  8
1
 62
2
 10
-58.2908021284367
 20
174.735721925134
 30
0
 11
-49.63945671015667
 21
189.6442326025138
 31
0
  0
LINE
  8
0
 62
2
 10
148.8082649409
 20
350.9061687649162
 30
0
 11
148.8082649409
 21
363.7206267916163
 31
0
  0
LINE
  8
0
 62
2
 10
140.8082649409
 20
350.9061687649162
 30
0
 11
140.8082649409
 21
363.7206267916163
 31
0
  0
LINE
  8
0
 62
2
 10
148.8082649409
 20
363.2206267916163
 30
0
 11
156.3082649409
 21
363.2206267916163
 31
0
  0
LINE
  8
0
 62
2
 10
156.3082649409
 20
363.2206267916163
 30
0
 11
144.8082649409
 21
363.2206267916163
 31
0
  0
LINE
  8
0
 62
2
 10
140.8082649409
 20
363.2206267916163
 30
0
 11
91.94676036060002
 21
363.2206267916163
 31
0
  0
LINE
  8
0
 62
2
 10
91.94676036060002
 20
363.2206267916163
 30
0
 11
144.8082649409
 21
363.2206267916163
 31
0
  0
LINE
  8
0
 62
2
 10
148.8082649409
 20
342.8182232123162
 30
0
 11
187.1850099602
 21
342.8182232123162
 31
0
  0
LINE
  8
0
 62
2
 10
186.6850099602
 20
342.8182232123162
 30
0
 11
186.6850099602
 21
274.4182232123162
 31
0
  0
LINE
  8
0
 62
2
 10
152.8613471208
 20
352.9713053922162
 30
0
 11
182.1409284736
 21
352.9713053922162
 31
0
  0
LINE
  8
0
 62
2
 10
149.8082649409
 20
349.9182232123162
 30
0
 11
182.1409284736
 21
349.9182232123162
 31
0
  0
LINE
  8
0
 62
2
 10
181.6409284736
 20
352.9713053922162
 30
0
 11
181.6409284736
 21
384.1507206829162
 31
0
  0
LINE
  8
0
 62
2
 10
181.6409284736
 20
384.1507206829162
 30
0
 11
181.6409284736
 21
351.4447643023162
 31
0
  0
LINE
  8
0
 62
2
 10
181.6409284736
 20
349.9182232123162
 30
0
 11
181.6409284736
 21
342.4182232123162
 31
0
  0
LINE
  8
0
 62
2
 10
181.6409284736
 20
342.4182232123162
 30
0
 11
181.6409284736
 21
351.4447643023162
 31
0
  0
LINE
  8
0
 62
2
 10
174.8082649409
 20
353.9713053922162
 30
0
 11
174.8082649409
 21
376.4620540110162
 31
0
  0
LINE
  8
0
 62
2
 10
114.8082649409
 20
353.9713053922162
 30
0
 11
114.8082649409
 21
376.4620540110162
 31
0
  0
LINE
  8
0
 62
2
 10
174.8082649409
 20
375.9620540110162
 30
0
 11
144.8082649409
 21
375.9620540110162
 31
0
  0
LINE
  8
0
 62
2
 10
114.8082649409
 20
375.9620540110162
 30
0
 11
144.8082649409
 21
375.9620540110162
 31
0
  0
LINE
  8
0
 62
2
 10
148.8082649409
 20
201.9673357807874
 30
0
 11
187.1850099602
 21
201.9673357807874
 31
0
  0
LINE
  8
0
 62
2
 10
186.6850099602
 20
201.9673357807874
 30
0
 11
186.6850099602
 21
274.4182232123162
 31
0
  0
LINE
  8
1
 62
7
 10
210.0000000105999
 20
415
 30
0
 11
210.0000000105999
 21
420
 31
0
  0
LINE
  8
0
 62
2
 10
221.7565066075
 20
131.7614097351
 30
0
 11
227.8580869958
 21
166.480864739
 31
0
  0
LINE
  8
0
 62
2
 10
197.2495661157
 20
123.004026187
 30
0
 11
171.2738625997
 21
148.0598834132
 31
0
  0
LINE
  8
0
 62
2
 10
209.5546740852
 20
132.2256345604
 30
0
 11
204.7750876696
 21
146.9072188621
 31
0
  0
LINE
  8
0
 62
2
 10
205.9907232683
 20
131.8974841171
 30
0
 11
201.456066249
 21
145.8267121968
 31
0
  0
LINE
  8
0
 62
2
 10
204.9298670991
 20
146.4317787206
 30
0
 11
212.0614692226
 21
148.7534701627
 31
0
  0
LINE
  8
0
 62
2
 10
212.0614692226
 20
148.7534701627
 30
0
 11
203.2703563888
 21
145.8915253879
 31
0
  0
LINE
  8
0
 62
2
 10
201.6108456785
 20
145.3512720553
 30
0
 11
194.479243555
 21
143.0295806131
 31
0
  0
LINE
  8
0
 62
2
 10
194.479243555
 20
143.0295806131
 30
0
 11
203.2703563888
 21
145.8915253879
 31
0
  0
LINE
  8
1
 62
2
 10
3.088225879516246
 20
309.6088166855898
 30
0
 11
3.89763577704227
 21
310.418226583116
 31
0
  0
LINE
  8
1
 62
2
 10
8.320212486050631
 20
224.5027081755001
 30
0
 11
9.595136276716028
 21
225.7776319661655
 31
0
  0
LINE
  8
0
 62
7
 10
-37.76177412048372
 20
293.6330158091163
 30
0
 11
-37.76177412048372
 21
298.6182265831163
 31
0
  0
LINE
  8
0
 62
2
 10
-43.9117741204837
 20
276.5682265831164
 30
0
 11
-43.9117741204837
 21
272.2682265831163
 31
0
  0
LINE
  8
0
 62
2
 10
-41.76177412048369
 20
274.4182265831163
 30
0
 11
-46.0617741204837
 21
274.4182265831163
 31
0
  0
LINE
  8
0
 62
7
 10
-50.06177412048368
 20
298.6182265831163
 30
0
 11
-50.06177412048368
 21
293.6330158091163
 31
0
  0
LINE
  8
1
 62
7
 10
-43.9117741204837
 20
274.4182265831163
 30
0
 11
-43.9117741204837
 21
280.5310096338673
 31
0
  0
LINE
  8
1
 62
2
  6
DASHDOT
 10
-23.73677412048374
 20
274.4182265831163
 30
0
 11
-27.9116741204837
 21
274.4182265831163
 31
0
  0
LINE
  8
DEFAULT_1
 62
2
  6
CENTER
 10
-43.9117741204837
 20
239.6682265831163
 30
0
 11
-43.91177412048376
 21
280.3386985169348
 31
0
  0
LINE
  8
0
 62
2
 10
-43.9117741204837
 20
276.5682265831164
 30
0
 11
-43.9117741204837
 21
272.2682265831163
 31
0
  0
LINE
  8
0
 62
2
 10
-41.76177412048369
 20
274.4182265831163
 30
0
 11
-46.0617741204837
 21
274.4182265831163
 31
0
  0
LINE
  8
1
 62
7
 10
-43.9117741204837
 20
274.4182265831163
 30
0
 11
-49.9117741204837
 21
274.4182265831163
 31
0
  0
LINE
  8
1
 62
7
 10
-43.9117741204837
 20
274.4182265831163
 30
0
 11
-43.9117741204837
 21
280.5310096338673
 31
0
  0
LINE
  8
1
 62
2
 10
-67.58677412048371
 20
234.0144707265823
 30
0
 11
-68.58677412048371
 21
234.0144707265823
 31
0
  0
LINE
  8
0
 62
7
 10
-38.76177412048372
 20
298.6182265831163
 30
0
 11
-49.06177412048368
 21
298.6182265831163
 31
0
  0
LINE
  8
DEFAULT_1
 62
2
  6
CENTER
 10
-43.91177412048387
 20
288.114545454545
 30
0
 11
-43.9117741204839
 21
292.3399229498675
 31
0
  0
LINE
  8
DEFAULT_1
 62
2
  6
CENTER
 10
-43.91177412048387
 20
288.114545454545
 30
0
 11
-43.9117741204837
 21
305.9436997550744
 31
0
  0
ARC
  8
1
 62
7
 10
-43.9117741204837
 20
274.4182265831163
 30
0
 40
68.39999999999999
 50
0
 51
43.64050055667608
  0
ARC
  8
1
 62
2
  6
DASHED
 10
-43.9117741204837
 20
274.4182265831163
 30
0
 40
68.40000000000013
 50
286.0199637110495
 51
291.8452885603405
  0
ARC
  8
1
 62
7
 10
-43.9117741204837
 20
274.4182265831163
 30
0
 40
68.39999999999994
 50
58.73441065760893
 51
69.57238242497866
  0
ARC
  8
1
 62
7
 10
-43.9117741204837
 20
274.4182265831163
 30
0
 40
68.39999999999999
 50
291.8452885603405
 51
300.290599826187
  0
ARC
  8
0
 62
7
 10
-113.3117755368776
 20
93.3671297765061
 30
0
 40
1
 50
0
 51
90
  0
ARC
  8
0
 62
7
 10
-113.3117755368776
 20
87.3671297765061
 30
0
 40
1
 50
270
 51
0
  0
ARC
  8
0
 62
7
 10
25.48822729611302
 20
93.3671297765061
 30
0
 40
1
 50
90
 51
180
  0
ARC
  8
0
 62
7
 10
25.48822729611302
 20
87.3671297765061
 30
0
 40
1
 50
180
 51
270
  0
ARC
  8
0
 62
7
 10
-118.6452144030837
 20
299.5708783221163
 30
0
 40
6.000000000000052
 50
342.0326473019004
 51
44.03264730189868
  0
ARC
  8
0
 62
7
 10
-90.99938062278369
 20
337.6677348804163
 30
0
 40
5.999999999999937
 50
244.0326473019006
 51
306.0326473019007
  0
ARC
  8
0
 62
7
 10
-89.58803960898376
 20
338.6943633447163
 30
0
 40
6.000000000000098
 50
306.0326473019005
 51
8.032647301900722
  0
ARC
  8
0
 62
7
 10
-44.82931981338368
 20
353.2655543493163
 30
0
 40
6.000000000000026
 50
208.0326473019005
 51
270.0326473019002
  0
ARC
  8
0
 62
7
 10
-43.08408387738365
 20
353.2665487899163
 30
0
 40
5.999999999999964
 50
270.0326473018998
 51
332.0326473018991
  0
ARC
  8
0
 62
7
 10
1.691212264516281
 20
338.7463745336163
 30
0
 40
5.999999999999907
 50
172.0326473018997
 51
234.0326473019001
  0
ARC
  8
0
 62
7
 10
3.103722313416313
 20
337.7213551080163
 30
0
 40
5.999999999999933
 50
234.0326473019007
 51
296.0326473019006
  0
ARC
  8
0
 62
7
 10
30.79295353181635
 20
299.6560286341163
 30
0
 40
6.000000000000021
 50
136.0326473018997
 51
198.0326473018992
  0
ARC
  8
0
 62
7
 10
31.33320686451634
 20
297.9965179238163
 30
0
 40
6.000000000000045
 50
198.0326473018997
 51
260.0326473019005
  0
ARC
  8
0
 62
7
 10
31.36002795631637
 20
250.9257001525163
 30
0
 40
5.999999999999998
 50
100.0326473019006
 51
162.0326473019
  0
ARC
  8
0
 62
7
 10
30.82166616211632
 20
249.2655748441163
 30
0
 40
5.999999999999971
 50
162.0326473018999
 51
224.0326473018996
  0
ARC
  8
0
 62
7
 10
3.175832381916308
 20
211.1687182857163
 30
0
 40
6.000000000000012
 50
64.03264730189913
 51
126.0326473018998
  0
ARC
  8
0
 62
7
 10
1.764491368016337
 20
210.1420898214163
 30
0
 40
5.999999999999965
 50
126.0326473018992
 51
188.0326473018995
  0
ARC
  8
0
 62
7
 10
-42.99422842748368
 20
195.5708988168163
 30
0
 40
5.999999999999978
 50
28.03264730189952
 51
90.03264730190018
  0
ARC
  8
0
 62
7
 10
-44.73946436348371
 20
195.5699043762164
 30
0
 40
5.999999999999822
 50
90.03264730189956
 51
152.032647301901
  0
ARC
  8
0
 62
7
 10
-89.51476050538366
 20
210.0900786325163
 30
0
 40
6.000000000000048
 50
352.0326473018999
 51
54.03264730189854
  0
ARC
  8
0
 62
7
 10
-90.92727055438371
 20
211.1150980581163
 30
0
 40
6.00000000000002
 50
54.03264730189864
 51
116.0326473018995
  0
ARC
  8
0
 62
7
 10
-118.6165017727836
 20
249.1804245320163
 30
0
 40
5.999999999999925
 50
316.0326473019
 51
18.03264730190066
  0
ARC
  8
0
 62
7
 10
-119.1567551053836
 20
250.8399352423164
 30
0
 40
5.99999999999993
 50
18.03264730190066
 51
80.03264730189898
  0
ARC
  8
0
 62
7
 10
-119.1835761971836
 20
297.9107530136163
 30
0
 40
5.999999999999955
 50
280.0326473019014
 51
342.0326473019011
  0
ARC
  8
DEFAULT_1
 62
2
  6
CENTER
 10
-43.9117741204837
 20
274.4182265831163
 30
0
 40
78.55308217989997
 50
275.4297153286001
 51
300.6388109722
  0
ARC
  8
DEFAULT_1
 62
2
  6
CENTER
 10
-43.9117741204837
 20
274.4182265831163
 30
0
 40
78.55308217990003
 50
300.6825579432001
 51
311.3824278103
  0
ARC
  8
DEFAULT_1
 62
2
  6
CENTER
 10
-43.9117741204837
 20
274.4182265831163
 30
0
 40
78.55308217990012
 50
311.4297153286
 51
336.6388109722
  0
ARC
  8
DEFAULT_1
 62
2
  6
CENTER
 10
-43.9117741204837
 20
274.4182265831163
 30
0
 40
78.55308217990003
 50
336.6825579431999
 51
347.3824278103
  0
ARC
  8
DEFAULT_1
 62
2
  6
CENTER
 10
-43.9117741204837
 20
274.4182265831163
 30
0
 40
78.55308217990005
 50
347.4297153286001
 51
12.63881097219998
  0
ARC
  8
DEFAULT_1
 62
2
  6
CENTER
 10
-43.9117741204837
 20
274.4182265831163
 30
0
 40
78.55308217990009
 50
12.68255794319998
 51
23.38242781029991
  0
ARC
  8
DEFAULT_1
 62
2
  6
CENTER
 10
-43.9117741204837
 20
274.4182265831163
 30
0
 40
78.55308217990009
 50
23.4297153286
 51
48.63881097219995
  0
ARC
  8
DEFAULT_1
 62
2
  6
CENTER
 10
-43.9117741204837
 20
274.4182265831163
 30
0
 40
78.55308217990006
 50
48.68255794319994
 51
59.3824278103
  0
ARC
  8
DEFAULT_1
 62
2
  6
CENTER
 10
-43.9117741204837
 20
274.4182265831163
 30
0
 40
78.55308217990006
 50
59.42971532859999
 51
84.63881097219981
  0
ARC
  8
DEFAULT_1
 62
2
  6
CENTER
 10
-43.9117741204837
 20
274.4182265831163
 30
0
 40
78.5530821799
 50
90
 51
95.38242781029996
  0
ARC
  8
DEFAULT_1
 62
2
  6
CENTER
 10
-43.9117741204837
 20
274.4182265831163
 30
0
 40
78.5530821799001
 50
95.4297153285999
 51
120.6388109721999
  0
ARC
  8
DEFAULT_1
 62
2
  6
CENTER
 10
-43.9117741204837
 20
274.4182265831163
 30
0
 40
78.55308217990007
 50
120.6825579431999
 51
131.3824278103
  0
ARC
  8
DEFAULT_1
 62
2
  6
CENTER
 10
-43.9117741204837
 20
274.4182265831163
 30
0
 40
78.5530821798999
 50
131.4297153285999
 51
156.6388109721999
  0
ARC
  8
DEFAULT_1
 62
2
  6
CENTER
 10
-43.9117741204837
 20
274.4182265831163
 30
0
 40
78.55308217989983
 50
156.6825579432
 51
167.3824278102999
  0
ARC
  8
DEFAULT_1
 62
2
  6
CENTER
 10
-43.9117741204837
 20
274.4182265831163
 30
0
 40
78.5530821799001
 50
167.4297153285999
 51
192.6388109722001
  0
ARC
  8
DEFAULT_1
 62
2
  6
CENTER
 10
-43.9117741204837
 20
274.4182265831163
 30
0
 40
78.55308217989983
 50
192.6825579432
 51
203.3824278103
  0
ARC
  8
DEFAULT_1
 62
2
  6
CENTER
 10
-43.9117741204837
 20
274.4182265831163
 30
0
 40
78.55308217989992
 50
203.4297153286
 51
228.6388109722
  0
ARC
  8
DEFAULT_1
 62
2
  6
CENTER
 10
-43.9117741204837
 20
274.4182265831163
 30
0
 40
78.55308217990002
 50
228.6825579432
 51
239.3824278103
  0
ARC
  8
DEFAULT_1
 62
2
  6
CENTER
 10
-43.9117741204837
 20
274.4182265831163
 30
0
 40
78.5530821799
 50
239.4297153286001
 51
264.6388109722001
  0
ARC
  8
DEFAULT_1
 62
2
  6
CENTER
 10
-43.9117741204837
 20
274.4182265831163
 30
0
 40
78.55308217990009
 50
270
 51
275.3824278103
  0
ARC
  8
0
 62
7
 10
206.3002821272
 20
130.946603834
 30
0
 40
12
 50
226.0326473018999
 51
288.0326473018998
  0
ARC
  8
0
 62
7
 10
209.6193035479
 20
132.0271104993
 30
0
 40
12.00000000000006
 50
288.0326473019003
 51
350.0326473019
  0
ARC
  8
DEFAULT_1
 62
2
  6
CENTER
 10
256.7758862293983
 20
-18.46285147060021
 30
0
 40
157.1061643597998
 50
99.53206313449937
 51
102.6388109721994
  0
ARC
  8
DEFAULT_1
 62
2
  6
CENTER
 10
256.7758862294
 20
-18.46285147059999
 30
0
 40
157.1061643598
 50
102.6825579432
 51
113.3824278103
  0
ARC
  8
DEFAULT_1
 62
2
  6
CENTER
 10
256.7758862294
 20
-18.46285147059999
 30
0
 40
157.1061643598
 50
113.4297153286
 51
117.1429262563
  0
ARC
  8
DEFAULT_1
 62
2
  6
CENTER
 10
256.7758862294
 20
-18.46285147059999
 30
0
 40
145.695675573
 50
99.92211556660001
 51
115.8811165554
  0
ARC
  8
0
 62
7
 10
141.8082649409
 20
343.8182232123162
 30
0
 40
1
 50
180
 51
270
  0
ARC
  8
0
 62
7
 10
147.8082649409
 20
343.8182232123162
 30
0
 40
1
 50
270
 51
0
  0
ARC
  8
0
 62
7
 10
147.8082649409
 20
200.9673335351874
 30
0
 40
1
 50
0
 51
90
  0
ARC
  8
0
 62
7
 10
141.8082649409
 20
200.9673335351874
 30
0
 40
1
 50
90
 51
180
  0
ARC
  8
1
 62
2
  6
DASHDOT
 10
256.7758862294
 20
-18.46285147059999
 30
0
 40
157.7053326425562
 50
94.74947145875646
 51
121.4162162468216
  0
ARC
  8
1
 62
2
  6
DASHED
 10
-92.04093924508274
 20
234.9786432497829
 30
0
 40
2.260416666666597
 50
213.8902381690129
 51
270
  0
ARC
  8
1
 62
2
  6
DASHED
 10
-86.41177412048384
 20
240.2598932497829
 30
0
 40
7.541666666666836
 50
240.1582758353154
 51
299.8417241646847
  0
ARC
  8
1
 62
2
  6
DASHED
 10
-80.78260899588494
 20
234.9786432497829
 30
0
 40
2.260416666666691
 50
213.8902381690113
 51
270
  0
ARC
  8
1
 62
2
  6
DASHED
 10
-86.41177412048384
 20
230.8765599164496
 30
0
 40
7.541666666666663
 50
60.15827583531466
 51
119.8417241646854
  0
ARC
  8
1
 62
2
  6
DASHED
 10
-92.04093924508274
 20
236.1578099164495
 30
0
 40
2.260416666666627
 50
33.8902381690089
 51
146.1097618309895
  0
ARC
  8
1
 62
2
  6
DASHED
 10
-80.78260899588494
 20
236.1578099164495
 30
0
 40
2.260416666666533
 50
33.8902381690105
 51
61.6093656432856
  0
ARC
  8
1
 62
2
  6
DASHED
 10
-80.78260899588494
 20
236.1578099164495
 30
0
 40
2.260416666666552
 50
61.6093656432856
 51
146.1097618309911
  0
ARC
  8
1
 62
2
  6
DASHED
 10
-92.04093924508274
 20
234.9786432497829
 30
0
 40
2.260416666666799
 50
270
 51
326.1097618309888
  0
ARC
  8
1
 62
2
  6
DASHED
 10
-80.78260899588494
 20
234.9786432497829
 30
0
 40
2.260416666666799
 50
270
 51
326.1097618309871
  0
ARC
  8
1
 62
7
 10
-7.040939245082647
 20
234.9786432497829
 30
0
 40
2.260416666666698
 50
213.8902381690112
 51
270
  0
ARC
  8
1
 62
7
 10
-1.411774120483754
 20
240.2598932497829
 30
0
 40
7.541666666666836
 50
240.1582758353154
 51
299.8417241646831
  0
ARC
  8
1
 62
7
 10
4.217391004115031
 20
234.9786432497829
 30
0
 40
2.260416666666785
 50
213.8902381690097
 51
270
  0
ARC
  8
1
 62
7
 10
-1.411774120483754
 20
230.8765599164496
 30
0
 40
7.54166666666655
 50
60.15827583531615
 51
119.8417241646854
  0
ARC
  8
1
 62
7
 10
-7.040939245082647
 20
236.1578099164495
 30
0
 40
2.260416666666623
 50
33.89023816900897
 51
146.1097618309912
  0
ARC
  8
1
 62
7
 10
4.217391004115031
 20
236.1578099164495
 30
0
 40
2.260416666666627
 50
33.8902381690089
 51
61.60936564328262
  0
ARC
  8
1
 62
7
 10
4.217391004115031
 20
236.1578099164495
 30
0
 40
2.260416666666616
 50
61.60936564328262
 51
146.1097618309927
  0
ARC
  8
1
 62
7
 10
-7.040939245082647
 20
234.9786432497829
 30
0
 40
2.260416666666799
 50
270
 51
326.1097618309886
  0
ARC
  8
1
 62
7
 10
4.217391004115031
 20
234.9786432497829
 30
0
 40
2.260416666666799
 50
270
 51
326.1097618309888
  0
ARC
  8
1
 62
7
 10
-43.9117741204837
 20
274.4182265831163
 30
0
 40
68.39999999999995
 50
316.9766198063906
 51
0
  0
ARC
  8
1
 62
2
  6
DASHED
 10
-43.9117741204837
 20
274.4182265831163
 30
0
 40
68.40000000000009
 50
270
 51
286.0199637110495
  0
ARC
  8
DEFAULT_1
 62
2
  6
CENTER
 10
-43.9117741204837
 20
274.4182265831163
 30
0
 40
78.55308217989993
 50
84.68255794319988
 51
90
  0
ARC
  8
DEFAULT_1
 62
2
  6
CENTER
 10
-43.91177412048258
 20
274.4182265831162
 30
0
 40
78.55308217990003
 50
264.6825579431994
 51
269.9999999999992
  0
ARC
  8
1
 62
2
  6
DASHED
 10
-43.9117741204837
 20
274.4182265831163
 30
0
 40
68.40000000000001
 50
72.99264435098593
 51
90
  0
ARC
  8
1
 62
2
  6
DASHED
 10
-43.9117741204837
 20
274.4182265831163
 30
0
 40
68.40000000000003
 50
90
 51
270
  0
ARC
  8
DEFAULT_1
 62
2
  6
CENTER
 10
-43.91177412048258
 20
274.4182265831162
 30
0
 40
72.84783778650007
 50
90.00000000000087
 51
90.03264730444211
  0
ARC
  8
DEFAULT_1
 62
2
  6
CENTER
 10
-43.9117741204837
 20
274.4182265831163
 30
0
 40
72.84783778649998
 50
270
 51
90
  0
ARC
  8
DEFAULT_1
 62
7
  6
CENTER
 10
-43.91177412051008
 20
274.4182265831163
 30
0
 40
72.84783778649846
 50
90.03264730442048
 51
270.0000000000208
  0
ARC
  8
1
 62
7
 10
131.3491165722644
 20
202.0246658428018
 30
0
 40
7.999999999999974
 50
323.2026868640139
 51
36.79731313598634
  0
ARC
  8
1
 62
7
 10
158.2674147997371
 20
202.0246658428018
 30
0
 40
8.000000000001199
 50
143.2026868640201
 51
216.7973131359797
  0
ARC
  8
1
 62
2
  6
DASHED
 10
-43.9117741204837
 20
274.4182265831163
 30
0
 40
68.39999999999994
 50
69.57238242497866
 51
72.99264435098593
  0
ARC
  8
1
 62
2
  6
DASHED
 10
-91.91177412048384
 20
317.4182265831162
 30
0
 40
1
 50
90
 51
180
  0
ARC
  8
1
 62
2
  6
DASHED
 10
-80.91177412048384
 20
317.4182265831162
 30
0
 40
0.9999999999998863
 50
0
 51
90
  0
ARC
  8
1
 62
2
  6
DASHED
 10
-91.58490901983154
 20
231.4182265831161
 30
0
 40
1.000000000000026
 50
190.8276840068542
 51
270
  0
ARC
  8
1
 62
2
  6
DASHED
 10
-81.23863922113614
 20
231.4182265831161
 30
0
 40
0.9999999999997158
 50
270
 51
349.1723159931457
  0
ARC
  8
1
 62
2
  6
DASHED
 10
-94.12143657206126
 20
232.2286961354727
 30
0
 40
1.000000000000065
 50
24.51409759140406
 51
33.8902381691061
  0
ARC
  8
1
 62
2
  6
DASHED
 10
-78.70211166890564
 20
232.2286961354741
 30
0
 40
0.9999999999999204
 50
146.1097618309865
 51
155.4859024086805
  0
ARC
  8
1
 62
7
 10
-6.911774120483757
 20
317.4182265831162
 30
0
 40
1
 50
90
 51
180
  0
ARC
  8
1
 62
7
 10
4.088225879516246
 20
317.4182265831162
 30
0
 40
1
 50
0
 51
90
  0
ARC
  8
1
 62
7
 10
-6.584909019831459
 20
231.4182265831161
 30
0
 40
1.000000000000026
 50
190.8276840068542
 51
270
  0
ARC
  8
1
 62
7
 10
3.761360778863834
 20
231.4182265831161
 30
0
 40
1
 50
270
 51
349.1723159931457
  0
ARC
  8
1
 62
7
 10
-9.121436572061951
 20
232.2286961354741
 30
0
 40
0.9999999999999826
 50
24.51409759131672
 51
33.89023816901354
  0
ARC
  8
1
 62
7
 10
6.297888331094443
 20
232.2286961354741
 30
0
 40
1.000000000000015
 50
146.1097618309901
 51
155.4859024086859
  0
ARC
  8
0
 62
2
 10
216.8883883464
 20
104.0606499047
 30
0
 40
62.87678998200006
 50
80.0326473019
 51
93.30686430319996
  0
ARC
  8
0
 62
2
 10
216.8883883464
 20
104.0606499047
 30
0
 40
62.87678998200001
 50
119.2812268329
 51
136.0326473019
  0
ARC
  8
0
 62
7
 10
-43.9117741204837
 20
274.4182265831163
 30
0
 40
20.17499999999998
 50
270
 51
72.25190014829978
  0
ARC
  8
0
 62
7
 10
-43.9117741204837
 20
274.4182265831163
 30
0
 40
20.17500000000006
 50
107.7480998517002
 51
270
  0
ARC
  8
1
 62
7
 10
-38.26177412048372
 20
298.6182265831163
 30
0
 40
0.5
 50
0
 51
180
  0
ARC
  8
1
 62
7
 10
-49.56177412048368
 20
298.6182265831163
 30
0
 40
0.5
 50
0
 51
180
  0
CIRCLE
  8
1
 62
7
 10
-1.411774120483754
 20
90.36713421940608
 30
0
 40
4.499999999999774
  0
CIRCLE
  8
1
 62
7
 10
-1.411774120483754
 20
78.36713421940608
 30
0
 40
2.000000000000002
  0
CIRCLE
  8
1
 62
7
 10
-86.41177412048373
 20
90.36713421940608
 30
0
 40
4.5
  0
CIRCLE
  8
1
 62
7
 10
-86.41177412048373
 20
100.3671342194061
 30
0
 40
2.099999999999909
  0
CIRCLE
  8
1
 62
2
 10
-43.91177412048371
 20
201.5703887966163
 30
0
 40
13.23025129822463
  0
CIRCLE
  8
1
 62
2
 10
-1.411774120483868
 20
313.9182265831162
 30
0
 40
0.875
  0
POLYLINE
  8
1
 62
7
 66
1
  0
VERTEX
  8
1
 10
-11.61985895351389
 20
274.4182265831176
 30
0
 42
0.008411471627759511
  0
VERTEX
  8
1
 10
-11.7842862658933
 20
270.596711081127
 30
0
 42
0.02647803392612494
  0
VERTEX
  8
1
 10
-11.38876984036644
 20
261.6726344560715
 30
0
 42
-0.003667289320623585
  0
VERTEX
  8
1
 10
-10.75858815828602
 20
254.3961951246738
 30
0
 42
-0.02719703026167682
  0
VERTEX
  8
1
 10
-10.63577846228025
 20
248.8213019212041
 30
0
 42
-0.05203221091314667
  0
VERTEX
  8
1
 10
-11.383993917549
 20
243.376831393715
 30
0
 42
-0.01637521000804647
  0
VERTEX
  8
1
 10
-13.16314893667047
 20
237.9273330804711
 30
0
 42
0.05973393343948356
  0
VERTEX
  8
1
 10
-14.25565160947332
 20
232.6820915484344
 30
0
 42
-0.002468047356727403
  0
VERTEX
  8
1
 10
-14.60615349426485
 20
227.6384951267106
 30
0
 42
-0.0561552770183257
  0
VERTEX
  8
1
 10
-15.55822557354189
 20
223.1447319586524
 30
0
 42
-0.01175587244802716
  0
VERTEX
  8
1
 10
-17.0704729341978
 20
219.1888552762675
 30
0
 42
0.0417468353218006
  0
VERTEX
  8
1
 10
-18.33403679723968
 20
215.1814409274678
 30
0
 42
0.09446872875874544
  0
VERTEX
  8
1
 10
-18.4600228553426
 20
210.9298941311028
 30
0
  0
SEQEND
  8
1
  0
POLYLINE
  8
1
 62
7
 66
1
  0
VERTEX
  8
1
 10
-20.03854666285418
 20
338.5168147949972
 30
0
 42
-0.05784397170145845
  0
VERTEX
  8
1
 10
-19.21331805516874
 20
332.773014725303
 30
0
 42
-0.01600143142589865
  0
VERTEX
  8
1
 10
-19.24185767881937
 20
326.9131065809816
 30
0
 42
0.02497198987397933
  0
VERTEX
  8
1
 10
-19.16595744871718
 20
321.0861001035299
 30
0
 42
0.05337816938753711
  0
VERTEX
  8
1
 10
-18.16248065582285
 20
315.7122993648936
 30
0
 42
0.006845098061745535
  0
VERTEX
  8
1
 10
-16.52380512111825
 20
310.7328012516941
 30
0
 42
-0.04688821781970083
  0
VERTEX
  8
1
 10
-15.1749766385975
 20
305.1888389868417
 30
0
 42
-0.01738050736675713
  0
VERTEX
  8
1
 10
-14.50030608178378
 20
299.0078245511796
 30
0
 42
0.02034855684780997
  0
VERTEX
  8
1
 10
-13.7857480076148
 20
292.8129364142351
 30
0
 42
0.01336427210668401
  0
VERTEX
  8
1
 10
-12.56778496998822
 20
287.1091787034965
 30
0
 42
-0.03328723704003004
  0
VERTEX
  8
1
 10
-11.5841400917212
 20
281.404604486423
 30
0
 42
-0.03533449723186843
  0
VERTEX
  8
1
 10
-11.61985895351389
 20
274.4182265831176
 30
0
  0
SEQEND
  8
1
  0
POLYLINE
  8
1
 62
2
 66
1
 70
1
  0
VERTEX
  8
1
 10
-74.89694525414433
 20
231.017128207635
 30
0
  0
VERTEX
  8
1
 10
-68.49694525414432
 20
231.017128207635
 30
0
  0
VERTEX
  8
1
 10
-68.49694525414432
 20
237.417128207635
 30
0
  0
VERTEX
  8
1
 10
-74.89694525414433
 20
237.417128207635
 30
0
  0
SEQEND
  8
1
  0
TEXT
  8
1
 62
2
 10
306.3255319239731
 20
120.9651202432653
 30
0
 40
1.44
  1
%%p0.05
 41
0.891
  0
TEXT
  8
1
 62
2
 10
296.9798129157078
 20
120.8016822267364
 30
0
 40
2.304
  1
60.26
 41
0.891
  0
TEXT
  8
1
 62
2
 10
279.511844417896
 20
121.151840364702
 30
0
 40
2.304
  1
635112
 41
0.891
  0
TEXT
  8
1
 62
2
 10
323.4018178070745
 20
274.9582295144626
 30
0
 40
2.879999999999998
  1
635112
 41
0.8910000000000004
  0
TEXT
  8
1
 62
2
 10
289.8504916038665
 20
274.5089033112544
 30
0
 40
2.879999999999998
  1
60
 41
0.8910000000000004
  0
TEXT
  8
1
 62
2
 10
257.050964197928
 20
8.379889807162961
 30
0
 40
3.2
  1
A
 41
0.8910000000000004
  0
TEXT
  8
1
 62
2
 10
289.8504916038665
 20
337.5089033112544
 30
0
 40
2.879999999999998
  1
25
 41
0.8910000000000004
  0
TEXT
  8
1
 62
2
 10
289.8504916038665
 20
324.9089033112544
 30
0
 40
2.879999999999998
  1
30
 41
0.8910000000000004
  0
TEXT
  8
1
 62
2
 10
289.8504916038665
 20
287.1089033112544
 30
0
 40
2.879999999999998
  1
50
 41
0.8910000000000004
  0
TEXT
  8
1
 62
2
 10
-152.919786085656
 20
364.7145230574803
 30
0
 40
3.2
  1
%%c
 41
0.8910000000000004
  0
TEXT
  8
1
 62
2
 10
-162.725775390469
 20
362.9763412392983
 30
0
 40
3.2
  1
·      0.3| A}
 41
0.8910000000000004
  0
TEXT
  8
1
 62
2
 10
220.268595051922
 20
7.579889807162771
 30
0
 40
3.2
  1
KUS6390T10
 41
0.8910000000000004
  0
TEXT
  8
0
 62
2
 10
187.1446284913
 20
95.29447498849999
 30
0
 40
3.5
  1
Dettaglio
 41
0.9801000000000006
  0
TEXT
  8
0
 62
2
 10
213.5446284913
 20
95.29447498849999
 30
0
 40
3.5
  1
A
 41
0.9801000000000006
  0
TEXT
  8
0
 62
2
 10
188.1446284913
 20
90.04447498849999
 30
0
 40
3.5
  1
SCALA
 41
0.9801000000000006
  0
TEXT
  8
0
 62
2
 10
210.7446284913
 20
90.04447498849999
 30
0
 40
3.5
  1
2:1
 41
0.9801000000000006
  0
TEXT
  8
0
 62
2
 10
131.5677717729
 20
184.6546813133162
 30
0
 40
3.5
  1
SEZIONE
 41
0.9801000000000006
  0
TEXT
  8
0
 62
2
 10
156.7677717729
 20
184.6546813133162
 30
0
 40
3.5
  1
A-A
 41
0.9801000000000006
  0
TEXT
  8
1
 62
2
 10
306.483958048277
 20
49.7796838912541
 30
0
 40
3.2
  1
MatTop
 41
0.8910000000000004
  0
TEXT
  8
1
 62
2
 10
357.97709882241
 20
51.4563959150736
 30
0
 40
3.2
  1
%%p0.2
 41
0.8910000000000004
  0
TEXT
  8
1
 62
2
 10
381.98394413504
 20
49.9892728942316
 30
0
 40
3.2
  1
1:1
 41
0.8910000000000004
  0
TEXT
  8
1
 62
2
 10
377.97161700701
 20
35
 30
0
 40
3.2
  1
Fiore
 41
0.8910000000000004
  0
TEXT
  8
1
 62
2
 10
369.552439001056
 20
25
 30
0
 40
3.2
  1
16/06/00
 41
0.8910000000000004
  0
TEXT
  8
1
 62
2
 10
304.388068018503
 20
40
 30
0
 40
3.2
  1
PE
 41
0.8910000000000004
  0
TEXT
  8
1
 62
2
 10
327.748337378772
 20
38.4618777304727
 30
0
 40
3.2
  1
Bianco
 41
0.8910000000000004
  0
TEXT
  8
1
 62
2
 10
299.027798658233
 20
23.39999999996508
 30
0
 40
3.2
  1
KUS 6390 T10
 41
0.8910000000000004
  0
TEXT
  8
1
 62
2
 10
392.8891308398504
 20
72.66806387225489
 30
0
 40
2
  1
A
 50
90
 41
0.891
  0
TEXT
  8
1
 62
2
 10
392.8891308398504
 20
78.01656686626689
 30
0
 40
2
  1
16/06/00
 50
90
 41
0.891
  0
TEXT
  8
1
 62
2
 10
393.0104450975633
 20
96.83871657881809
 30
0
 40
2
  1
Fiore
 50
90
 41
0.891
  0
TEXT
  8
1
 62
2
 10
393.0550887444015
 20
110.3657415707504
 30
0
 40
2
  1
Modificato profilo dente (M00M003)
 50
90
 41
0.891
  0
TEXT
  8
1
 62
2
 10
-140.7161951183673
 20
215.9774410674351
 30
0
 40
3
  1
 N%%d2 spinette
 41
0.8910000000000001
  0
TEXT
  8
1
 62
2
 10
-140.7161951183673
 20
209.3774410674351
 30
0
 40
3
  1
zigrinate %%c4x15
 41
0.8910000000000001
  0
TEXT
  8
1
 62
2
 10
34.80704658621494
 20
328.934606377563
 30
0
 40
3
  1
M8X80
 41
0.8910000000000001
  0
TEXT
  8
1
 62
2
 10
27.65096368818433
 20
334.1588686736417
 30
0
 40
3
  1
acciaio inox
 41
0.8910000000000001
  0
TEXT
  8
1
 62
2
 10
13.55026845931627
 20
339.0492057716697
 30
0
 40
3
  1
N%%d2 viti a testa cilindrica
 41
0.8910000000000001
  0
TEXT
  8
1
 62
2
 10
31.46695037316759
 20
207.2733160102091
 30
0
 40
3
  1
autobloccanti M8 in
 41
0.8910000000000001
  0
TEXT
  8
1
 62
2
 10
34.87013562039656
 20
213.2273972697215
 30
0
 40
3
  1
N%%d2 dadi esagonali
 41
0.8910000000000001
  0
TEXT
  8
1
 62
2
 10
31.49901757055873
 20
201.5482378760624
 30
0
 40
3
  1
acciaio inox AISI 303
 41
0.8910000000000001
  0
TEXT
  8
1
 62
2
 10
70.30878337837386
 20
120.8813059801899
 30
0
 40
2
  1
+0,1
 41
0.891
  0
TEXT
  8
1
 62
2
 10
71.90760050402493
 20
117.9239661724709
 30
0
 40
2
  1
0
 41
0.891
  0
TEXT
  8
1
 62
2
 10
46.26174713227
 20
124.0230060477669
 30
0
 40
2.5
  1
* Sull'altra mezza
 41
0.891
  0
TEXT
  8
1
 62
2
 10
46.26174713227
 20
118.5230060477669
 30
0
 40
2.5
  1
  ruota %%c4,2
 41
0.891
  0
TEXT
  8
1
 62
2
 10
302.8273365236525
 20
312.4975664128584
 30
0
 40
2.879999999999998
  1
631472
 41
0.8910000000000004
  0
TEXT
  8
1
 62
2
 10
285.7725771653636
 20
366.0644113326443
 30
0
 40
2.879999999999998
  1
  %%c
 41
0.8910000000000004
  0
TEXT
  8
1
 62
2
 10
285.7725771653636
 20
360.3044113326443
 30
0
 40
2.879999999999998
  1
D nom.
 41
0.8910000000000004
  0
TEXT
  8
1
 62
2
 10
302.5428980209782
 20
366.131791011789
 30
0
 40
2.879999999999998
  1
 With
 41
0.8910000000000004
  0
TEXT
  8
1
 62
2
 10
302.5428980209782
 20
360.371791011789
 30
0
 40
2.879999999999998
  1
Keyway
 41
0.8910000000000004
  0
TEXT
  8
1
 62
2
 10
325.9125771653636
 20
365.7448391401308
 30
0
 40
2.879999999999998
  1
Idler
 41
0.8910000000000004
  0
TEXT
  8
1
 62
2
 10
325.9125771653636
 20
359.9848391401308
 30
0
 40
2.879999999999998
  1
Bore
 41
0.8910000000000004
  0
TEXT
  8
1
 62
2
 10
289.8504916038665
 20
350.1089033112544
 30
0
 40
2.879999999999998
  1
20
 41
0.8910000000000004
  0
TEXT
  8
1
 62
2
 10
323.4018178070745
 20
350.5582295144626
 30
0
 40
2.879999999999998
  1
631392
 41
0.8910000000000004
  0
TEXT
  8
1
 62
2
 10
309.0385771653636
 20
374.3370958246228
 30
0
 40
2.879999999999998
  1
CODE TABLE
 41
0.8910000000000004
  0
TEXT
  8
1
 62
2
 10
289.8504916038665
 20
312.3089033112544
 30
0
 40
2.879999999999998
  1
35
 41
0.8910000000000004
  0
TEXT
  8
1
 62
2
 10
289.8504916038665
 20
299.7089033112543
 30
0
 40
2.879999999999998
  1
40
 41
0.8910000000000004
  0
TEXT
  8
1
 62
2
 10
-86.11411763645801
 20
175.589197860963
 30
0
 40
3.2
  1
Dettaglio A
 41
0.8910000000000004
  0
TEXT
  8
1
 62
2
 10
-107.099999989399
 20
24.9000000000004
 30
0
 40
3.2
  1
SEZIONE B-B
 41
0.8910000000000004
  0
TEXT
  8
1
 62
2
 10
323.4018178070745
 20
337.9582295144627
 30
0
 40
2.879999999999998
  1
631402
 41
0.8910000000000004
  0
TEXT
  8
1
 62
2
 10
323.4018178070745
 20
325.3582295144627
 30
0
 40
2.879999999999998
  1
631412
 41
0.8910000000000004
  0
TEXT
  8
1
 62
2
 10
323.4018178070745
 20
312.7582295144626
 30
0
 40
2.879999999999998
  1
631422
 41
0.8910000000000004
  0
TEXT
  8
1
 62
2
 10
323.4018178070745
 20
300.1582295144626
 30
0
 40
2.879999999999998
  1
631432
 41
0.8910000000000004
  0
TEXT
  8
1
 62
2
 10
323.4018178070745
 20
287.5582295144626
 30
0
 40
2.879999999999998
  1
631442
 41
0.8910000000000004
  0
TEXT
  8
1
 62
2
 10
302.7018178070744
 20
337.9582295144627
 30
0
 40
2.879999999999998
  1
631452
 41
0.8910000000000004
  0
TEXT
  8
1
 62
2
 10
302.7018178070744
 20
325.3582295144627
 30
0
 40
2.879999999999998
  1
631462
 41
0.8910000000000004
  0
TEXT
  8
1
 62
2
 10
302.7018178070744
 20
300.1582295144626
 30
0
 40
2.879999999999998
  1
631482
 41
0.8910000000000004
  0
TEXT
  8
1
 62
2
 10
302.7018178070744
 20
287.5582295144626
 30
0
 40
2.879999999999998
  1
631492
 41
0.8910000000000004
  0
TEXT
  8
1
 62
2
 10
306.3255319239731
 20
131.0451202432654
 30
0
 40
1.44
  1
%%p0.05
 41
0.891
  0
TEXT
  8
1
 62
2
 10
296.9798129157078
 20
130.8816822267365
 30
0
 40
2.304
  1
50.26
 41
0.891
  0
TEXT
  8
1
 62
2
 10
345.2055319239728
 20
141.1251202432654
 30
0
 40
1.44
  1
%%p0.05
 41
0.891
  0
TEXT
  8
1
 62
2
 10
334.4198129157078
 20
140.9616822267365
 30
0
 40
2.304
  1
 14.05
 41
0.891
  0
TEXT
  8
1
 62
2
 10
325.7655319239728
 20
141.1251202432654
 30
0
 40
1.44
  1
%%p0.15
 41
0.891
  0
TEXT
  8
1
 62
2
 10
316.4198129157078
 20
140.9616822267365
 30
0
 40
2.304
  1
53.80
 41
0.891
  0
TEXT
  8
1
 62
2
 10
306.3255319239731
 20
141.1251202432654
 30
0
 40
1.44
  1
%%p0.05
 41
0.891
  0
TEXT
  8
1
 62
2
 10
296.9798129157078
 20
140.9616822267365
 30
0
 40
2.304
  1
49.85
 41
0.891
  0
TEXT
  8
1
 62
2
 10
306.3255319239731
 20
151.2051202432654
 30
0
 40
1.44
  1
%%p0.05
 41
0.891
  0
TEXT
  8
1
 62
2
 10
296.9798129157078
 20
151.0416822267366
 30
0
 40
2.304
  1
40.26
 41
0.891
  0
TEXT
  8
1
 62
2
 10
345.2055319239728
 20
161.2851202432653
 30
0
 40
1.44
  1
%%p0.05
 41
0.891
  0
TEXT
  8
1
 62
2
 10
334.4198129157078
 20
161.1216822267365
 30
0
 40
2.304
  1
 12.05
 41
0.891
  0
TEXT
  8
1
 62
2
 10
325.7655319239728
 20
161.2851202432653
 30
0
 40
1.44
  1
%%p0.15
 41
0.891
  0
TEXT
  8
1
 62
2
 10
316.4198129157078
 20
161.1216822267365
 30
0
 40
2.304
  1
43.30
 41
0.891
  0
TEXT
  8
1
 62
2
 10
306.3255319239731
 20
161.2851202432653
 30
0
 40
1.44
  1
%%p0.05
 41
0.891
  0
TEXT
  8
1
 62
2
 10
296.9798129157078
 20
161.1216822267365
 30
0
 40
2.304
  1
39.85
 41
0.891
  0
TEXT
  8
1
 62
2
 10
306.3255319239731
 20
171.3651202432654
 30
0
 40
1.44
  1
%%p0.05
 41
0.891
  0
TEXT
  8
1
 62
2
 10
296.9798129157078
 20
171.2016822267365
 30
0
 40
2.304
  1
35.26
 41
0.891
  0
TEXT
  8
1
 62
2
 10
345.2055319239728
 20
181.4451202432655
 30
0
 40
1.44
  1
%%p0.05
 41
0.891
  0
TEXT
  8
1
 62
2
 10
334.4198129157078
 20
181.2816822267366
 30
0
 40
2.304
  1
 10.05
 41
0.891
  0
TEXT
  8
1
 62
2
 10
325.7655319239728
 20
181.4451202432655
 30
0
 40
1.44
  1
%%p0.15
 41
0.891
  0
TEXT
  8
1
 62
2
 10
316.4198129157078
 20
181.2816822267366
 30
0
 40
2.304
  1
38.30
 41
0.891
  0
TEXT
  8
1
 62
2
 10
306.3255319239731
 20
181.4451202432655
 30
0
 40
1.44
  1
%%p0.05
 41
0.891
  0
TEXT
  8
1
 62
2
 10
296.9798129157078
 20
181.2816822267366
 30
0
 40
2.304
  1
34.85
 41
0.891
  0
TEXT
  8
1
 62
2
 10
306.3255319239731
 20
191.5251202432655
 30
0
 40
1.44
  1
%%p0.05
 41
0.891
  0
TEXT
  8
1
 62
2
 10
296.9798129157078
 20
191.3616822267365
 30
0
 40
2.304
  1
30.26
 41
0.891
  0
TEXT
  8
1
 62
2
 10
279.511844417896
 20
232.0318403647025
 30
0
 40
2.304
  1
631392
 41
0.891
  0
TEXT
  8
1
 62
2
 10
345.2055319239728
 20
201.6051202432654
 30
0
 40
1.44
  1
%%p0.05
 41
0.891
  0
TEXT
  8
1
 62
2
 10
335.8598129157079
 20
201.4416822267365
 30
0
 40
2.304
  1
 8.05
 41
0.891
  0
TEXT
  8
1
 62
2
 10
325.7655319239728
 20
201.6051202432654
 30
0
 40
1.44
  1
%%p0.15
 41
0.891
  0
TEXT
  8
1
 62
2
 10
316.4198129157078
 20
201.4416822267365
 30
0
 40
2.304
  1
33.30
 41
0.891
  0
TEXT
  8
1
 62
2
 10
306.3255319239731
 20
201.6051202432654
 30
0
 40
1.44
  1
%%p0.05
 41
0.891
  0
TEXT
  8
1
 62
2
 10
296.9798129157078
 20
201.4416822267365
 30
0
 40
2.304
  1
29.85
 41
0.891
  0
TEXT
  8
1
 62
2
 10
345.2055319239728
 20
221.7651202432654
 30
0
 40
1.44
  1
%%p0.05
 41
0.891
  0
TEXT
  8
1
 62
2
 10
335.8598129157079
 20
221.6016822267366
 30
0
 40
2.304
  1
 8.05
 41
0.891
  0
TEXT
  8
1
 62
2
 10
306.3255319239731
 20
221.7651202432654
 30
0
 40
1.44
  1
%%p0.05
 41
0.891
  0
TEXT
  8
1
 62
2
 10
296.9798129157078
 20
221.6016822267366
 30
0
 40
2.304
  1
24.85
 41
0.891
  0
TEXT
  8
1
 62
2
 10
325.7655319239728
 20
221.7651202432654
 30
0
 40
1.44
  1
%%p0.15
 41
0.891
  0
TEXT
  8
1
 62
2
 10
316.4198129157078
 20
221.6016822267366
 30
0
 40
2.304
  1
28.30
 41
0.891
  0
TEXT
  8
1
 62
2
 10
298.4198129157078
 20
231.6816822267365
 30
0
 40
2.304
  1
19 H13
 41
0.891
  0
TEXT
  8
1
 62
2
 10
341.58093688265
 20
241.8211863589679
 30
0
 40
2.304
  1
c
 41
0.891
  0
TEXT
  8
1
 62
2
 10
322.14093688265
 20
241.8211863589679
 30
0
 40
2.304
  1
b
 41
0.891
  0
TEXT
  8
1
 62
2
 10
302.7009368826498
 20
241.8211863589679
 30
0
 40
2.304
  1
d
 41
0.891
  0
TEXT
  8
1
 62
2
 10
299.1852740727331
 20
253.7418871854143
 30
0
 40
2.304
  1
DIMENSION TABLE
 41
0.891
  0
TEXT
  8
1
 62
2
 10
280.5084740727328
 20
241.0757395918313
 30
0
 40
2.304
  1
Codes
 41
0.891
  0
TEXT
  8
1
 62
2
 10
296.9798129157078
 20
211.5216822267365
 30
0
 40
2.304
  1
25.26
 41
0.891
  0
TEXT
  8
1
 62
2
 10
306.3255319239731
 20
211.6851202432654
 30
0
 40
1.44
  1
%%p0.05
 41
0.891
  0
TEXT
  8
1
 62
2
 10
279.511844417896
 20
221.9518403647024
 30
0
 40
2.304
  1
631452
 41
0.891
  0
TEXT
  8
1
 62
2
 10
279.511844417896
 20
211.8718403647024
 30
0
 40
2.304
  1
631402
 41
0.891
  0
TEXT
  8
1
 62
2
 10
279.511844417896
 20
201.7918403647024
 30
0
 40
2.304
  1
631462
 41
0.891
  0
TEXT
  8
1
 62
2
 10
279.511844417896
 20
191.7118403647023
 30
0
 40
2.304
  1
631412
 41
0.891
  0
TEXT
  8
1
 62
2
 10
279.511844417896
 20
181.6318403647023
 30
0
 40
2.304
  1
631472
 41
0.891
  0
TEXT
  8
1
 62
2
 10
279.511844417896
 20
171.5518403647022
 30
0
 40
2.304
  1
631422
 41
0.891
  0
TEXT
  8
1
 62
2
 10
279.511844417896
 20
161.4718403647022
 30
0
 40
2.304
  1
631482
 41
0.891
  0
TEXT
  8
1
 62
2
 10
279.511844417896
 20
151.3918403647021
 30
0
 40
2.304
  1
631432
 41
0.891
  0
TEXT
  8
1
 62
2
 10
279.511844417896
 20
141.3118403647021
 30
0
 40
2.304
  1
631492
 41
0.891
  0
TEXT
  8
1
 62
2
 10
279.511844417896
 20
131.2318403647021
 30
0
 40
2.304
  1
631442
 41
0.891
  0
TEXT
  8
0
 62
2
 10
91.94676036060002
 20
364.0956267916163
 30
0
 40
3.5
  1
8
 41
0.9801000000000006
  0
TEXT
  8
0
 62
2
 10
94.74676036059998
 20
364.0956267916163
 30
0
 40
3.5
  1
%%p0.1
 41
0.9801000000000006
  0
TEXT
  8
0
 62
2
 10
185.8100099602
 20
264.6062833382163
 30
0
 40
3.5
  1
136.8
 50
90
 41
0.9801000000000006
  0
TEXT
  8
0
 62
2
 10
185.8100099602
 20
278.6062833382163
 30
0
 40
3.5
  1
%%p0.1
 50
90
 41
0.9801000000000006
  0
TEXT
  8
0
 62
2
 10
180.7659284736
 20
363.2673873496162
 30
0
 40
3.5
  1
3.1
 50
90
 41
0.9801000000000006
  0
TEXT
  8
0
 62
2
 10
180.7659284736
 20
371.6673873496162
 30
0
 40
3.5
  1
%%p0.1 x 45%%d
 50
90
 41
0.9801000000000006
  0
TEXT
  8
0
 62
2
 10
136.2852944133
 20
376.8370540110162
 30
0
 40
3.5
  1
60
 41
0.9801000000000006
  0
TEXT
  8
0
 62
2
 10
143.8852944133
 20
376.8370540110162
 30
0
 40
3.5
  1
%%p0.3
 41
0.9801000000000006
  0
TEXT
  8
0
 62
2
 10
185.8100099602
 20
259.9396166716162
 30
0
 40
3.5
  1
%%c
 50
90
 41
0.9801000000000006
  0
TEXT
  8
0
 62
2
 10
194.9447600286
 20
162.4036456155
 30
0
 40
3.5
  1
%%p0.1%%d
 41
0.9801000000000006
  0
TEXT
  8
0
 62
2
 10
187.0114266953
 20
162.4036456155
 30
0
 40
3.5
  1
56%%d
 41
0.9801000000000006
  0
TEXT
  8
0
 62
2
 10
192.4517215698
 20
143.2897212556
 30
0
 40
3.5
  1
1.75
 50
18.0326473019
 41
0.9801000000000008
  0
TEXT
  8
0
 62
2
 10
203.1015807409
 20
146.7567804759
 30
0
 40
3.5
  1
%%p0.1
 50
18.0326473019
 41
0.9801000000000008
  0
TEXT
  8
1
 62
2
 10
-72.97694525414433
 20
232.617128207635
 30
0
 40
3.2
  1
A
 41
0.9
  0
DIMENSION
  8
1
  6
CONTINUOUS
 62
2
  2
*D4
  3
DMST_4
 10
59.9280214009751
 20
274.4182265831163
 30
0
 11
57.1280214009751
 21
256.4182265831157
 31
0
 12
0
 22
0
 32
0
 70
0
 13
3.088225879516132
 23
238.418226583115
 33
0
 14
-5.411774120483756
 24
274.4182265831163
 34
0
 50
90
 53
0
  0
DIMENSION
  8
1
  6
CONTINUOUS
 62
2
  2
*D5
  3
DMST_4
 10
59.9280214009751
 20
310.4182265831163
 30
0
 11
57.1280214009751
 21
292.4182265831163
 31
0
 12
0
 22
0
 32
0
 70
0
 13
32.73559625922589
 23
274.4182265831163
 33
0
 14
2.588225879516133
 24
310.4182265831163
 34
0
 50
90
 53
0
  0
DIMENSION
  8
1
  6
CONTINUOUS
 62
2
  2
*D6
  3
DMST_4
 10
-1.411774120483749
 20
377.290099938575
 30
0
 11
-43.91177412048374
 21
380.090099938575
 31
0
 12
0
 22
0
 32
0
 70
0
 13
-86.41177412048373
 23
339.1827002802851
 33
0
 14
-1.411774120483754
 24
339.1827002802851
 34
0
 53
0
  0
DIMENSION
  8
1
  6
CONTINUOUS
 62
2
  2
*D7
  3
DMST_5
 10
105.846791454451
 20
294.6330158091274
 30
0
 11
104.156791454451
 21
309.702781629412
 31
0
 12
0
 22
0
 32
0
 70
0
  1
1
 13
115.8082692819689
 23
293.6330158091273
 33
0
 14
114.808269331389
 24
294.6330158091273
 34
0
 50
90
 53
0
  0
DIMENSION
  8
1
  6
CONTINUOUS
 62
2
  2
*D8
  3
DMST_6
 10
-112.3117741203777
 20
46.9372451790636
 30
0
 11
-43.91177412038233
 21
49.8972451790636
 31
0
 12
0
 22
0
 32
0
 70
0
 13
24.48822587961305
 23
87.36714154360608
 33
0
 14
-112.3117741203777
 24
87.36714154360608
 34
0
 53
0
  0
DIMENSION
  8
1
  6
CONTINUOUS
 62
2
  2
*D9
  3
DMST_7
 10
5.588225879516131
 20
357.334572192513
 30
0
 11
16.40620321915685
 21
359.899572192513
 31
0
 12
0
 22
0
 32
0
 70
0
  1
14
 13
-8.411774120483869
 23
343.4828332780647
 33
0
 14
5.588225879516132
 24
331.5708397388
 34
0
 53
0
  0
DIMENSION
  8
1
  6
CONTINUOUS
 62
2
  2
*D10
  3
DMST_7
 10
62.1930214009751
 20
238.4182265831151
 30
0
 11
59.6280214009751
 21
232.4182265831151
 31
0
 12
0
 22
0
 32
0
 70
0
 13
6.588225879516132
 23
226.4182265831151
 33
0
 14
6.093779378981255
 24
238.4182265831151
 34
0
 50
90
 53
0
  0
DIMENSION
  8
1
  6
CONTINUOUS
 62
2
  2
*D11
  3
DMST_7
 10
6.588225879516131
 20
191.6391305036023
 30
0
 11
-1.411774120483868
 21
194.2041305036023
 31
0
 12
0
 22
0
 32
0
 70
0
  1
16
 13
-9.411774120483869
 23
201.9666351522796
 33
0
 14
6.588225879516132
 24
214.8839325073413
 34
0
 53
0
  0
DIMENSION
  8
1
  6
CONTINUOUS
 62
2
  2
*D12
  3
DMST_6
 10
12.7541873384244
 20
90.36713421940608
 30
0
 11
11.0641873384244
 21
84.36713421940608
 31
0
 12
0
 22
0
 32
0
 70
0
 13
0.9882258795162231
 23
78.36713421940608
 33
0
 14
-14.41177412031037
 24
90.36713421940608
 34
0
 50
90
 53
0
  0
DIMENSION
  8
1
  6
CONTINUOUS
 62
2
  2
*D13
  3
DMST_6
 10
-98.421764695281
 20
100.3671342194061
 30
0
 11
-100.111764695281
 21
95.3671342194061
 31
0
 12
0
 22
0
 32
0
 70
0
 13
-82.41177412031037
 23
90.36713421940608
 33
0
 14
-88.51177412048364
 24
100.3671342194061
 34
0
 50
90
 53
0
  0
DIMENSION
  8
1
  6
CONTINUOUS
 62
2
  2
*D14
  3
DMST_6
 10
32.73559625927567
 20
35.8799449035815
 30
0
 11
-43.91177412043372
 21
38.8399449035815
 31
0
 12
0
 22
0
 32
0
 70
0
  1
153,3
 13
-120.5591445001431
 23
60.36713421940608
 33
0
 14
32.73559625927567
 24
60.36713421940608
 34
0
 53
0
  0
DIMENSION
  8
1
  6
CONTINUOUS
 62
2
  2
*D15
  3
DMST_6
 10
-150.498823518811
 20
352.9713087630163
 30
0
 11
-153.458823518811
 21
280.791336898396
 31
0
 12
0
 22
0
 32
0
 70
0
  1
157,1
 13
-43.91177412048371
 23
195.8651444032162
 33
0
 14
-43.91177412048369
 24
352.9713087630163
 34
0
 50
90
 53
0
  0
DIMENSION
  8
1
  6
CONTINUOUS
 62
2
  2
*D16
  3
DMST_8
 10
-120.5493201772837
 20
389.14
 30
0
 11
-43.90197468308371
 21
392.1
 31
0
 12
0
 22
0
 32
0
 70
0
  1
153,3
 13
32.74537081111629
 23
257.2639603236163
 33
0
 14
-120.5493201772837
 24
257.1766125532163
 34
0
 53
0
  0
DIMENSION
  8
1
  6
CONTINUOUS
 62
2
  2
*D17
  3
DMST_6
 10
-141.469946513463
 20
347.2660525436644
 30
0
 11
-144.429946513463
 21
278.985561497326
 31
0
 12
0
 22
0
 32
0
 70
0
  1
145,7
 13
-43.91177412048371
 23
201.5703887966163
 33
0
 14
-43.95328303143
 24
347.2660525436659
 34
0
 50
90
 53
0
  0
DIMENSION
  8
0
  6
CONTINUOUS
 62
2
  2
*D18
  3
DMST_9
 10
-64.08677412048371
 20
234.4192304632253
 30
0
 11
-43.91177412048373
 21
234.4192304632253
 31
0
 12
0
 22
0
 32
0
 70
0
  1
d
 13
-23.73677412048374
 23
272.4182265831163
 33
0
 14
-64.08677412048371
 24
272.4182265831163
 34
0
 53
0
  0
DIMENSION
  8
1
  6
CONTINUOUS
 62
2
  2
*D19
  3
DMST_6
 10
-17.5902138931425
 20
298.6182265831163
 30
0
 11
-19.2802138931425
 21
282.340427807487
 31
0
 12
0
 22
0
 32
0
 70
0
  1
b
 13
-43.9117741204837
 23
254.2432265831163
 33
0
 14
-37.76177412048372
 24
298.6182265831163
 34
0
 50
90
 53
0
  0
DIMENSION
  8
1
  6
CONTINUOUS
 62
2
  2
*D20
  3
DMST_4
 10
-37.76177412048372
 20
281.881818181818
 30
0
 11
-43.9117741204837
 21
284.201818181818
 31
0
 12
0
 22
0
 32
0
 70
0
  1
c
 13
-50.06177412048368
 23
293.6330158091163
 33
0
 14
-37.76177412048372
 24
293.6330158091163
 34
0
 53
0
  0
DIMENSION
  8
0
  6
CONTINUOUS
 62
2
  2
*D21
  3
DMST_10
 10
209.6193035479
 20
132.0271104993
 30
0
 11
232.848484859085
 21
95.91340978394538
 31
0
 12
0
 22
0
 32
0
 70
4
  1
6
 15
216.1110107351439
 25
121.9346510470611
 35
0
 40
0
 53
0
  0
DIMENSION
  8
1
  6
CONTINUOUS
 62
2
  2
*D22
  3
DMST_11
 10
141.8082649409
 20
343.8182232123162
 30
0
 11
126.792834235199
 21
334.343422459893
 31
0
 12
0
 22
0
 32
0
 70
4
 15
141.057297081106
 25
343.1578844556492
 35
0
 40
0
 53
0
  0
DIMENSION
  8
1
  6
CONTINUOUS
 62
2
  2
*D23
  3
DMST_11
 10
25.48822729611302
 20
93.3671297765061
 30
0
 11
40.2482093769918
 21
85.5209366391186
 31
0
 12
0
 22
0
 32
0
 70
4
 15
24.65721443884421
 25
93.92338298418578
 35
0
 40
0
 53
0
  0
DIMENSION
  8
1
  6
CONTINUOUS
 62
2
  2
*D24
  3
DMST_12
 10
-38.26177412048372
 20
298.6182265831163
 30
0
 11
-30.710695176565
 21
310.490374331551
 31
0
 12
0
 22
0
 32
0
 70
4
 15
-37.91068465072899
 25
298.9742268418625
 35
0
 40
0
 53
0
  0
DIMENSION
  8
1
  6
CONTINUOUS
 62
2
  2
*D26
  3
DMST_13
 10
1.893463969525755
 20
87.31338223727849
 30
0
 11
-7.522484035799369
 21
103.3223181880071
 31
0
 12
0
 22
0
 32
0
 70
3
 15
-4.717012210493255
 25
93.42088620153368
 35
0
 40
0
 53
0
  0
DIMENSION
  8
1
  6
CONTINUOUS
 62
2
  2
*D27
  3
DMST_13
 10
-3.048909524121618
 20
79.51595434029338
 30
0
 11
20.40330398358105
 21
69.61764371736909
 31
0
 12
0
 22
0
 32
0
 70
3
  1
4
 15
0.2253612831540828
 25
77.21831409851875
 35
0
 40
0
 53
0
  0
DIMENSION
  8
1
  6
CONTINUOUS
 62
2
  2
*D28
  3
DMST_13
 10
-84.43839003547008
 20
99.64897319775812
 30
0
 11
-100.0542486198779
 21
111.0451712950651
 31
0
 12
0
 22
0
 32
0
 70
3
  1
4
 15
-88.38515820549736
 25
101.0852952410541
 35
0
 40
0
 53
0
  0
DIMENSION
  8
1
  6
CONTINUOUS
 62
2
  2
*D29
  3
DMST_6
 10
-43.91177412048364
 20
353.7014404511164
 30
0
 11
-56.98172744974696
 21
314.6044463814721
 31
0
 12
0
 22
0
 32
0
 70
2
  1
36ò
 13
-95.34898215261305
 23
345.1307032570168
 33
0
 14
-80.68441871549464
 24
324.9708298958296
 34
0
 15
-43.91177412048369
 25
319.586301245372
 35
0
 16
-31.70782702102266
 26
236.8947184119384
 36
0
 53
0
  0
INSERT
  8
0
  2
TOP__2
 10
420.0000000105999
 20
0
 30
0
  0
INSERT
  8
0
  2
_X4
 10
-8.500000000000085
 20
0
 30
0
  0
INSERT
  8
0
  2
_X5
 10
-8.500000000000085
 20
0
 30
0
  0
INSERT
  8
0
  2
_FRECCIA__3
 10
-44.41177412048364
 20
363.0822682130701
 30
0
  0
INSERT
  8
0
  2
_FRECCIA__4
 10
70.6187165881409
 20
289.4359184068745
 30
0
  0
INSERT
  8
0
  2
TOP__1
 10
98.363636374236
 20
24.8333333333333
 30
0
  0
INSERT
  8
1
  2
*D25
 10
0
 20
0
 30
0
  0
ENDSEC
  0
EOF
