  0
SECTION
  2
HEADER
  9
$ACADVER
  1
AC1009
  9
$INSBASE
 10
0
 20
0
  9
$EXTMIN
 10
-173.9999999893989
 20
0
  9
$EXTMAX
 10
420.0000000105999
 20
420
  9
$LIMMIN
 10
-173.9999999893989
 20
0
  9
$LIMMAX
 10
420.0000000105999
 20
420
  9
$VIEWCTR
 10
10
 20
10
  9
$VIEWSIZE
 40
10
  9
$SNAPMODE
 70
0
  9
$SNAPUNIT
 10
1
 20
1
  9
$SNAPBASE
 10
0
 20
0
  9
$SNAPANG
 50
0
  9
$SNAPSTYLE
 70
0
  9
$SNAPISOPAIR
 70
0
  9
$GRIDMODE
 70
0
  9
$GRIDUNIT
 10
0
 20
0
  9
$ORTHOMODE
 70
0
  9
$REGENMODE
 70
1
  9
$FILLMODE
 70
1
  9
$QTEXTMODE
 70
0
  9
$DRAGMODE
 70
2
  9
$LTSCALE
 40
1
  9
$OSMODE
 70
0
  9
$ATTMODE
 70
1
  9
$TEXTSIZE
 40
3.5
  9
$TRACEWID
 40
0.5
  9
$TEXTSTYLE
  7
STANDARD
  9
$CLAYER
  8
0
  9
$CELTYPE
  6
BYLAYER
  9
$CECOLOR
 62
256
  9
$DIMSCALE
 40
1
  9
$DIMASZ
 40
0.18
  9
$DIMEXO
 40
0.0625
  9
$DIMDLI
 40
0.38
  9
$DIMRND
 40
0
  9
$DIMDLE
 40
0
  9
$DIMEXE
 40
0.18
  9
$DIMTP
 40
0
  9
$DIMTM
 40
0
  9
$DIMTXT
 40
0.18
  9
$DIMCEN
 40
0.09
  9
$DIMTSZ
 40
0
  9
$DIMTOL
 70
0
  9
$DIMLIM
 70
0
  9
$DIMTIH
 70
1
  9
$DIMTOH
 70
1
  9
$DIMSE1
 70
0
  9
$DIMSE2
 70
0
  9
$DIMTAD
 70
0
  9
$DIMZIN
 70
0
  9
$DIMBLK
  1

  9
$DIMASO
 70
1
  9
$DIMSHO
 70
1
  9
$DIMPOST
  1

  9
$DIMAPOST
  1

  9
$DIMALT
 70
0
  9
$DIMALTD
 70
2
  9
$DIMALTF
 40
25.4
  9
$DIMLFAC
 40
1
  9
$DIMTOFL
 70
0
  9
$DIMTVP
 40
0
  9
$DIMTIX
 70
0
  9
$DIMSOXD
 70
0
  9
$DIMSAH
 70
0
  9
$DIMBLK1
  1

  9
$DIMBLK2
  1

  9
$DIMSTYLE
  2
*UNNAMED
  9
$DIMCLRD
 70
0
  9
$DIMCLRE
 70
0
  9
$DIMCLRT
 70
0
  9
$DIMTFAC
 40
1
  9
$DIMGAP
 40
0.09
  9
$LUNITS
 70
2
  9
$LUPREC
 70
4
  9
$AXISMODE
 70
0
  9
$AXISUNIT
 10
0
 20
0
  9
$SKETCHINC
 40
0.1
  9
$FILLETRAD
 40
2
  9
$AUNITS
 70
0
  9
$AUPREC
 70
0
  9
$MENU
  1
ACAD
  9
$ELEVATION
 40
0
  9
$THICKNESS
 40
0
  9
$VIEWDIR
 10
0
 20
0
 30
1
  9
$LIMCHECK
 70
0
  9
$BLIPMODE
 70
1
  9
$CHAMFERA
 40
0
  9
$CHAMFERB
 40
0
  9
$FASTZOOM
 70
1
  9
$SKPOLY
 70
0
  9
$ANGBASE
 50
0
  9
$ANGDIR
 70
0
  9
$PDMODE
 70
0
  9
$PDSIZE
 40
0
  9
$PLINEWID
 40
0
  9
$COORDS
 70
2
  0
ENDSEC
  0
SECTION
  2
TABLES
  0
TABLE
  2
DIMSTYLE
 70
3
  0
DIMSTYLE
  2
DMST_1
 70
0
  3

  4

  5

  6

  7

 40
1
 41
3.2
 42
1
 43
7
 44
1
 45
0
 46
0
 47
0
 48
0
140
3.2
141
0
142
0
143
25.4
144
1
145
0
146
1
147
0.09
 71
0
 72
0
 73
0
 74
0
 75
0
 76
0
 77
1
 78
9
170
0
171
2
172
0
173
0
174
0
175
0
176
2
177
2
178
2
  0
DIMSTYLE
  2
DMST_2
 70
0
  3

  4

  5

  6

  7

 40
1
 41
3.2
 42
1
 43
7
 44
1
 45
0
 46
0
 47
0
 48
0
140
3.2
141
0
142
0
143
25.4
144
1
145
0
146
1
147
0.09
 71
0
 72
0
 73
0
 74
0
 75
0
 76
0
 77
1
 78
1
170
0
171
2
172
0
173
0
174
0
175
0
176
2
177
2
178
2
  0
DIMSTYLE
  2
DMST_3
 70
0
  3

  4

  5

  6

  7

 40
1
 41
3.2
 42
1
 43
7
 44
1
 45
0
 46
0
 47
0
 48
0
140
3.2
141
0
142
0
143
25.4
144
1
145
0
146
1
147
0.09
 71
0
 72
0
 73
0
 74
0
 75
0
 76
0
 77
1
 78
9
170
0
171
2
172
1
173
0
174
0
175
0
176
2
177
2
178
2
  0
ENDTAB
  0
TABLE
  2
LTYPE
 70
9
  0
LTYPE
  2
CONTINUOUS
 70
64
  3
Solid line
 72
65
 73
0
 40
0
  0
LTYPE
  2
BORDER
 70
64
  3
__ __ . __ __ .
 72
65
 73
6
 40
27.35526315789468
 49
7.815789473684194
 49
-3.907894736842097
 49
7.815789473684194
 49
-3.907894736842097
 49
0
 49
-3.907894736842097
  0
LTYPE
  2
CENTER
 70
64
  3
____ _ ____ _
 72
65
 73
4
 40
31.26315789473678
 49
19.53947368421049
 49
-3.907894736842097
 49
3.907894736842097
 49
-3.907894736842097
  0
LTYPE
  2
DASHDOT
 70
64
  3
__ . __ . __ .
 72
65
 73
4
 40
15.63157894736839
 49
7.815789473684194
 49
-3.907894736842097
 49
0
 49
-3.907894736842097
  0
LTYPE
  2
DASHED
 70
64
  3
__ __ __ __ __
 72
65
 73
2
 40
11.72368421052629
 49
7.815789473684194
 49
-3.907894736842097
  0
LTYPE
  2
DIVIDE
 70
64
  3
__ . . __ . . 
 72
65
 73
6
 40
19.53947368421049
 49
7.815789473684194
 49
-3.907894736842097
 49
0
 49
-3.907894736842097
 49
0
 49
-3.907894736842097
  0
LTYPE
  2
DOT
 70
64
  3
..............
 72
65
 73
4
 40
7.815789473684194
 49
0
 49
-3.907894736842097
 49
0
 49
-3.907894736842097
  0
LTYPE
  2
HIDDEN
 70
64
  3
_ _ _ _ _ _ _
 72
65
 73
2
 40
5.861842105263145
 49
3.907894736842097
 49
-1.953947368421048
  0
LTYPE
  2
PHANTOM
 70
64
  3
_____ _ _ _____ _ _ 
 72
65
 73
6
 40
39.07894736842097
 49
19.53947368421049
 49
-3.907894736842097
 49
3.907894736842097
 49
-3.907894736842097
 49
3.907894736842097
 49
-3.907894736842097
  0
ENDTAB
  0
TABLE
  2
LAYER
 70
4
  0
LAYER
  2
DEFAULT_1
 70
0
 62
7
  6
CONTINUOUS
  0
LAYER
  2
0
 70
0
 62
7
  6
CONTINUOUS
  0
LAYER
  2
1
 70
0
 62
7
  6
CONTINUOUS
  0
ENDTAB
  0
TABLE
  2
STYLE
 70
4
  0
STYLE
  2
STANDARD
 70
0
 40
0
 41
1
 50
0
 71
0
 42
3.5
  3
txt
  4

  0
STYLE
  2
SIMPLEX
 70
0
 40
0
 41
1
 50
0
 71
0
 42
3.5
  3
simplex
  4

  0
STYLE
  2
COMPLEX
 70
0
 40
0
 41
1
 50
0
 71
0
 42
3.5
  3
complex
  4

  0
STYLE
  2
ITALIC
 70
0
 40
0
 41
1
 50
0
 71
0
 42
3.5
  3
italic
  4

  0
ENDTAB
  0
TABLE
  2
VIEW
 70
0
  0
ENDTAB
  0
ENDSEC
  0
SECTION
  2
BLOCKS
  0
BLOCK
  8
0
  2
TOP__2
 70
0
 10
420.0000000105999
 20
0
 30
0
  0
LINE
  8
1
 62
7
 10
392.3359098604919
 20
15
 30
0
 11
415.0000000105999
 21
15
 31
0
  0
LINE
  8
1
 62
7
 10
367.3359098604919
 20
45
 30
0
 11
392.3359098604919
 21
45
 31
0
  0
LINE
  8
1
 62
2
 10
387.8000672096609
 20
289.9475140491231
 30
0
 11
415.0000000105999
 21
289.9475140491231
 31
0
  0
LINE
  8
1
 62
2
 10
390.101975269986
 20
289.9475140491231
 30
0
 11
390.101975269986
 21
180.566299957027
 31
0
  0
LINE
  8
1
 62
2
 10
394.2516460600959
 20
289.9475140491231
 30
0
 11
394.2516460600959
 21
180.566299957027
 31
0
  0
LINE
  8
1
 62
2
 10
402.5509876403
 20
289.9475140491231
 30
0
 11
402.5509876403
 21
180.566299957027
 31
0
  0
LINE
  8
1
 62
2
 10
410.850329220506
 20
289.9475140491231
 30
0
 11
410.850329220506
 21
180.566299957027
 31
0
  0
LINE
  8
1
 62
7
 10
324.03525132461
 20
48
 30
0
 11
324.03525132461
 21
36
 31
0
  0
LINE
  8
1
 62
2
 10
406.7006584304011
 20
180.566299957027
 30
0
 11
406.7006584304011
 21
289.9475140491231
 31
0
  0
LINE
  8
1
 62
2
 10
398.4013168502051
 20
180.566299957027
 30
0
 11
398.4013168502051
 21
289.9475140491231
 31
0
  0
LINE
  8
1
 62
7
 10
415.0000000105999
 20
177.5850585104631
 30
0
 11
415.0000000105999
 21
180.566299957027
 31
0
  0
LINE
  8
1
 62
2
 10
415.0000000105999
 20
177.5850585104631
 30
0
 11
387.7002266973211
 21
177.5850585104631
 31
0
  0
LINE
  8
1
 62
2
 10
390.101975269986
 20
177.5850585104631
 30
0
 11
390.101975269986
 21
70
 31
0
  0
LINE
  8
1
 62
2
 10
394.2516460600959
 20
177.5850585104631
 30
0
 11
394.2516460600959
 21
70
 31
0
  0
LINE
  8
1
 62
2
 10
402.5509876403
 20
177.5850585104631
 30
0
 11
402.5509876403
 21
70
 31
0
  0
LINE
  8
1
 62
2
 10
410.850329220506
 20
177.5850585104631
 30
0
 11
410.850329220506
 21
70
 31
0
  0
LINE
  8
1
 62
2
 10
390.101975269986
 20
289.9475140491231
 30
0
 11
390.101975269986
 21
187.6211057707321
 31
0
  0
LINE
  8
1
 62
2
 10
387.7002266973211
 20
180.566299957027
 30
0
 11
415.0000000105999
 21
180.566299957027
 31
0
  0
LINE
  8
1
 62
2
 10
390.101975269986
 20
220.5487347879912
 30
0
 11
415.0000000105999
 21
220.5487347879912
 31
0
  0
LINE
  8
1
 62
2
 10
390.101975269986
 20
203.2178919941271
 30
0
 11
415.0000000105999
 21
203.2178919941271
 31
0
  0
LINE
  8
1
 62
2
 10
390.101975269986
 20
187.6211057707321
 30
0
 11
415.0000000105999
 21
187.6211057707321
 31
0
  0
LINE
  8
1
 62
2
 10
390.101975269986
 20
109.5487347879912
 30
0
 11
415.0000000105999
 21
109.5487347879912
 31
0
  0
LINE
  8
1
 62
2
 10
390.101975269986
 20
92.21789199412706
 30
0
 11
415.0000000105999
 21
92.21789199412706
 31
0
  0
LINE
  8
1
 62
2
 10
390.101975269986
 20
76.62110577073213
 30
0
 11
415.0000000105999
 21
76.62110577073213
 31
0
  0
LINE
  8
1
 62
7
 10
298.7388268640641
 20
58
 30
0
 11
298.7388268640641
 21
48
 31
0
  0
LINE
  8
1
 62
7
 10
265.0000000105999
 20
48
 30
0
 11
367.3359098604919
 21
48
 31
0
  0
LINE
  8
1
 62
7
 10
252.0534708876
 20
20.41070463620213
 30
0
 11
252.0534708876
 21
5
 31
0
  0
LINE
  8
1
 62
2
  6
DOT
 10
322.10917356803
 20
40
 30
0
 11
267.8069101127551
 21
40
 31
0
  0
LINE
  8
1
 62
2
  6
DOT
 10
290.1405718098899
 20
44
 30
0
 11
322.10917356803
 21
44
 31
0
  0
LINE
  8
1
 62
2
 10
398.4013168502051
 20
70
 30
0
 11
398.4013168502051
 21
177.5850585104631
 31
0
  0
LINE
  8
1
 62
7
 10
215.0000000105999
 20
70
 30
0
 11
415.0000000105999
 21
70
 31
0
  0
LINE
  8
1
 62
2
 10
406.7006584304011
 20
70
 30
0
 11
406.7006584304011
 21
177.5850585104631
 31
0
  0
LINE
  8
1
 62
7
 10
215.0000000105999
 20
20.41070463620213
 30
0
 11
265.0000000105999
 21
20.41070463620213
 31
0
  0
LINE
  8
1
 62
7
 10
265.0000000105999
 20
30.01557913210809
 30
0
 11
215.0000000105999
 21
30.01557913210809
 31
0
  0
LINE
  8
1
 62
7
 10
215.0000000105999
 20
5
 30
0
 11
215.0000000105999
 21
70
 31
0
  0
LINE
  8
1
 62
2
  6
DOT
 10
262.538461549075
 20
66
 30
0
 11
300.5000000105999
 21
66
 31
0
  0
LINE
  8
1
 62
2
  6
DOT
 10
217.0000000105999
 20
62
 30
0
 11
300.5000000105999
 21
62
 31
0
  0
LINE
  8
1
 62
7
 10
392.3359098604919
 20
70
 30
0
 11
390.101975269986
 21
70
 31
0
  0
LINE
  8
1
 62
7
 10
392.3359098604919
 20
70
 30
0
 11
392.3359098604919
 21
5
 31
0
  0
LINE
  8
1
 62
7
 10
265.0000000105999
 20
58
 30
0
 11
265.0000000105999
 21
5
 31
0
  0
LINE
  8
1
 62
7
 10
392.3359098604919
 20
58
 30
0
 11
215.0000000105999
 21
58
 31
0
  0
LINE
  8
1
 62
7
 10
324.03525132461
 20
58
 30
0
 11
324.03525132461
 21
48
 31
0
  0
LINE
  8
1
 62
7
 10
344.2365456737959
 20
48
 30
0
 11
344.2365456737959
 21
36
 31
0
  0
LINE
  8
1
 62
7
 10
265.0000000105999
 20
36
 30
0
 11
367.3359098604919
 21
36
 31
0
  0
LINE
  8
1
 62
7
 10
302.5000000105999
 20
70
 30
0
 11
302.5000000105999
 21
58
 31
0
  0
LINE
  8
1
 62
7
 10
367.3359098604919
 20
5
 30
0
 11
367.3359098604919
 21
58
 31
0
  0
LINE
  8
1
 62
7
 10
367.3359098604919
 20
25
 30
0
 11
392.3359098604919
 21
25
 31
0
  0
LINE
  8
1
 62
2
 10
367.3359098604919
 20
15
 30
0
 11
392.3359098604919
 21
15
 31
0
  0
LINE
  8
1
 62
2
 10
367.3359098604919
 20
35
 30
0
 11
392.3359098604919
 21
35
 31
0
  0
LINE
  8
1
 62
2
  6
DOT
 10
304.5000000105999
 20
62
 30
0
 11
390.3359098604919
 21
62
 31
0
  0
LINE
  8
1
 62
2
  6
DOT
 10
349.1191567089261
 20
66
 30
0
 11
390.3359098604919
 21
66
 31
0
  0
LINE
  8
1
 62
7
 10
215.0000000105999
 20
39.62045362801609
 30
0
 11
265.0000000105999
 21
39.62045362801609
 31
0
  0
LINE
  8
1
 62
7
 10
344.2365456737959
 20
58
 30
0
 11
344.2365456737959
 21
48
 31
0
  0
LINE
  8
1
 62
7
 10
367.3359098604919
 20
15
 30
0
 11
265.0000000105999
 21
15
 31
0
  0
LINE
  8
1
 62
2
  6
DOT
 10
365.137387280248
 20
17.10000000000014
 30
0
 11
267.1920729422561
 21
17.10000000000014
 31
0
  0
LINE
  8
1
 62
2
  6
DOT
 10
267.299000141312
 20
23.40000000000009
 30
0
 11
364.923532882128
 21
23.40000000000009
 31
0
  0
LINE
  8
1
 62
2
  6
DOT
 10
267.299000141312
 20
29.70000000000209
 30
0
 11
365.030460081193
 21
29.70000000000209
 31
0
  0
LINE
  8
1
 62
7
 10
415.0000000105999
 20
297
 30
0
 11
420.0000000105999
 21
297
 31
0
  0
LINE
  8
1
 62
7
 10
-173.9999999893989
 20
297
 30
0
 11
-168.9999999893989
 21
297
 31
0
  0
LINE
  8
1
 62
7
 10
1.059993337548804e-008
 20
0
 30
0
 11
1.059993337548804e-008
 21
5
 31
0
  0
LINE
  8
1
 62
7
 10
210.0000000105999
 20
0
 30
0
 11
210.0000000105999
 21
5
 31
0
  0
LINE
  8
1
 62
7
 10
1.059993337548804e-008
 20
415
 30
0
 11
1.059993337548804e-008
 21
420
 31
0
  0
LINE
  8
1
 62
7
 10
-168.9999999893989
 20
415
 30
0
 11
-168.9999999893989
 21
5
 31
0
  0
LINE
  8
1
 62
7
 10
415.0000000105999
 20
415
 30
0
 11
-168.9999999893989
 21
415
 31
0
  0
LINE
  8
1
 62
7
 10
415.0000000105999
 20
5
 30
0
 11
415.0000000105999
 21
415
 31
0
  0
LINE
  8
1
 62
7
 10
-168.9999999893989
 20
5
 30
0
 11
415.0000000105999
 21
5
 31
0
  0
LINE
  8
1
 62
2
 10
-173.9999999893989
 20
420
 30
0
 11
-173.9999999893989
 21
0
 31
0
  0
LINE
  8
1
 62
2
 10
420.0000000105999
 20
420
 30
0
 11
-173.9999999893989
 21
420
 31
0
  0
LINE
  8
1
 62
2
 10
420.0000000105999
 20
0
 30
0
 11
420.0000000105999
 21
420
 31
0
  0
LINE
  8
1
 62
2
 10
-173.9999999893989
 20
0
 30
0
 11
420.0000000105999
 21
0
 31
0
  0
TEXT
  8
1
 62
2
 10
218.0515561647051
 20
47.31022681400714
 30
0
 40
4
  1
Rexnord Marbett
 41
0.7707149999999999
 51
9.999999999999996
  7
COMPLEX
  0
TEXT
  8
1
 62
2
 10
368.5228940840279
 20
32.4166121748341
 30
0
 40
1.2
  1
Data
 41
1.0692
  0
TEXT
  8
1
 62
2
 10
368.5228940840279
 20
29.7766121748341
 30
0
 40
1.2
  1
(Date)
 41
1.0692
  0
TEXT
  8
1
 62
2
 10
389.204803998337
 20
242.2244664535031
 30
0
 40
1.3
  1
Modifiche (Modifications)
 50
90
 41
1.0692
  0
TEXT
  8
1
 62
2
 10
389.5559160784771
 20
207.5389483126191
 30
0
 40
1.2
  1
(Draftsm.)
 50
90
 41
1.0692
  7
SIMPLEX
  0
TEXT
  8
1
 62
2
 10
387.8511713163559
 20
210.525990915557
 30
0
 40
1.2
  1
Dis.
 50
90
 41
1.0692
  0
TEXT
  8
1
 62
2
 10
387.7248939265689
 20
193.1239273335611
 30
0
 40
1.2
  1
Data
 50
90
 41
1.0692
  0
TEXT
  8
1
 62
2
 10
389.4296386886901
 20
192.5298143550121
 30
0
 40
1.2
  1
(Date)
 50
90
 41
1.0692
  7
SIMPLEX
  0
TEXT
  8
1
 62
2
 10
389.5559160784771
 20
182.071266288581
 30
0
 40
1.2
  1
(Ind.)
 50
90
 41
1.0692
  7
SIMPLEX
  0
TEXT
  8
1
 62
2
 10
387.8511713163559
 20
181.8414994910372
 30
0
 40
1.2
  1
Indic.
 50
90
 41
1.0692
  0
TEXT
  8
1
 62
2
 10
389.204803998337
 20
130.6033161752061
 30
0
 40
1.3
  1
Modifiche (Modifications)
 50
90
 41
1.0692
  0
TEXT
  8
1
 62
2
 10
389.5559160784771
 20
71.33216161744713
 30
0
 40
1.2
  1
(Ind.)
 50
90
 41
1.0692
  7
SIMPLEX
  0
TEXT
  8
1
 62
2
 10
387.8511713163559
 20
71.11808234463206
 30
0
 40
1.2
  1
Indic.
 50
90
 41
1.0692
  0
TEXT
  8
1
 62
2
 10
389.4296386886901
 20
81.56680680162208
 30
0
 40
1.2
  1
(Date)
 50
90
 41
1.0692
  7
SIMPLEX
  0
TEXT
  8
1
 62
2
 10
387.7248939265689
 20
81.929687251524
 30
0
 40
1.2
  1
Data
 50
90
 41
1.0692
  0
TEXT
  8
1
 62
2
 10
389.5559160784771
 20
96.66005918300812
 30
0
 40
1.2
  1
(Draftsm.)
 50
90
 41
1.0692
  7
SIMPLEX
  0
TEXT
  8
1
 62
2
 10
387.8511713163559
 20
98.77675761287605
 30
0
 40
1.2
  1
 Dis.
 50
90
 41
1.0692
  0
TEXT
  8
1
 62
2
 10
393.5167453182241
 20
12.65947560831809
 30
0
 40
1.2
  1
Foglio
 41
1.0692
  0
TEXT
  8
1
 62
2
 10
393.5167453182241
 20
10.01947560831809
 30
0
 40
1.2
  1
(Sheet)
 41
1.0692
  0
TEXT
  8
1
 62
2
 10
368.5228940840279
 20
12.4166121748341
 30
0
 40
1.2
  1
Data
 41
1.0692
  0
TEXT
  8
1
 62
2
 10
368.5228940840279
 20
9.776612174834099
 30
0
 40
1.2
  1
(Date)
 41
1.0692
  0
TEXT
  8
1
 62
2
 10
368.6354650435439
 20
22.57862902819819
 30
0
 40
1.2
  1
Contr.
 41
1.0692
  0
TEXT
  8
1
 62
2
 10
368.6354650435439
 20
19.93862902819819
 30
0
 40
1.2
  1
(Check)
 41
1.0692
  0
TEXT
  8
1
 62
2
 10
395.1077432068168
 20
17.13478758072711
 30
0
 40
1.180511166170861
  1
Proprieta' della Marbett S.p.A..
 50
90
 41
1.336500000000001
  0
TEXT
  8
1
 62
2
 10
397.7048677723927
 20
17.13478758072711
 30
0
 40
1.180511166170861
  1
Senza autorizzazione scritta della
 50
90
 41
1.336500000000001
  0
TEXT
  8
1
 62
2
 10
400.3019923379686
 20
17.13478758072711
 30
0
 40
1.180511166170861
  1
stessa il presente disegno non puo'
 50
90
 41
1.336500000000001
  0
TEXT
  8
1
 62
2
 10
402.8991169035444
 20
17.13478758072711
 30
0
 40
1.180511166170861
  1
essere comunque utilizzato per la
 50
90
 41
1.336500000000001
  0
TEXT
  8
1
 62
2
 10
405.4962414691203
 20
17.13478758072711
 30
0
 40
1.180511166170861
  1
costruzione dell'oggetto rappresentato,
 50
90
 41
1.336500000000001
  0
TEXT
  8
1
 62
2
 10
408.0933660346962
 20
17.13478758072711
 30
0
 40
1.180511166170861
  1
ne' venire comunicato a terzi o
 50
90
 41
1.336500000000001
  0
TEXT
  8
1
 62
2
 10
410.6904906002721
 20
17.13478758072711
 30
0
 40
1.180511166170861
  1
riprodotto. La Societa' proprietaria
 50
90
 41
1.336500000000001
  0
TEXT
  8
1
 62
2
 10
413.287615165848
 20
17.13478758072711
 30
0
 40
1.180511166170861
  1
tutela i propri diritti a rigore di legge.
 50
90
 41
1.336500000000001
  0
TEXT
  8
1
 62
2
 10
368.6354650435439
 20
42.61268046959221
 30
0
 40
1.2
  1
Dis.
 41
1.0692
  0
TEXT
  8
1
 62
2
 10
368.6354650435439
 20
39.97268046959221
 30
0
 40
1.2
  1
(Draftsm.)
 41
1.0692
  0
TEXT
  8
1
 62
2
 10
368.6354650435439
 20
55.27116510945315
 30
0
 40
1.2
  1
Scala
 41
1.0692
  0
TEXT
  8
1
 62
2
 10
368.6354650435439
 20
52.63116510945315
 30
0
 40
1.2
  1
(Scale)
 41
1.0692
  0
TEXT
  8
1
 62
2
 10
345.5326285346359
 20
45.65898050569207
 30
0
 40
1.2
  1
Ritiro %%%
 41
1.0692
  0
TEXT
  8
1
 62
2
 10
345.5326285346359
 20
43.01898050569207
 30
0
 40
1.2
  1
(Contraction %%%)
 41
1.0692
  0
TEXT
  8
1
 62
2
 10
325.5903999147361
 20
45.80379218868701
 30
0
 40
1.2
  1
Colore
 41
1.0692
  0
TEXT
  8
1
 62
2
 10
325.5903999147361
 20
43.16379218868701
 30
0
 40
1.2
  1
(Colour)
 41
1.0692
  0
TEXT
  8
1
 62
2
 10
345.6113180662021
 20
55.55260264123513
 30
0
 40
1.2
  1
Toll. Gen.
 41
1.0692
  0
TEXT
  8
1
 62
2
 10
345.662148788082
 20
52.86078818634019
 30
0
 40
1.2
  1
(Gen. Tol.)
 41
1.0692
  0
TEXT
  8
1
 62
2
 10
325.3379057832101
 20
55.44414964215102
 30
0
 40
1.3
  1
Peso
 41
1.0692
  0
TEXT
  8
1
 62
2
 10
325.3379057832101
 20
52.84414964215102
 30
0
 40
1.3
  1
(Weight)
 41
1.0692
  0
TEXT
  8
1
 62
2
 10
305.5000000105999
 20
66
 30
0
 40
1.3
  1
Tratt. superfic. (Surface treatments)
 41
0.9801
  0
TEXT
  8
1
 62
2
 10
300.021352993743
 20
55.77898241091111
 30
0
 40
1.3
  1
Linea
 41
1.0692
  0
TEXT
  8
1
 62
2
 10
299.709033130245
 20
53.01615791076506
 30
0
 40
1.2
  1
(Line)
 41
1.0692
  0
TEXT
  8
1
 62
2
 10
268.0000000105999
 20
44.79402870435501
 30
0
 40
1.2
  1
Materiale (Mat.)
 41
1.0692
  0
TEXT
  8
1
 62
2
 10
267.9938314689759
 20
31
 30
0
 40
1.5
  1
Descrizione (Description)
 41
0.8910000000000001
  0
TEXT
  8
1
 62
2
 10
267.5128545394221
 20
11.84104038687701
 30
0
 40
1.5
  1
Progetto (Project)
 41
0.8910000000000001
  0
TEXT
  8
1
 62
2
 10
253.2499647535151
 20
15.39678441399201
 30
0
 40
1.2
  1
(Modific.)
 41
1.3365
  0
TEXT
  8
1
 62
2
 10
254.1291694253571
 20
17.58074928815813
 30
0
 40
1.3
  1
Modifica
 41
1.0692
  0
TEXT
  8
1
 62
2
 10
216.200000010602
 20
12.57893325840405
 30
0
 40
1.2
  1
N%%d
 41
0.891
  0
TEXT
  8
1
 62
2
 10
216.116802451603
 20
17.77399295474915
 30
0
 40
1.2
  1
Disegno o stp.
 41
1.3365
  0
TEXT
  8
1
 62
2
 10
216.116802451603
 20
15.13399295474915
 30
0
 40
1.2
  1
(Drawing or mould)
 41
1.3365
  0
TEXT
  8
1
 62
2
 10
216.200000010602
 20
22.05238008660808
 30
0
 40
1.2
  1
N%%d
 41
0.891
  0
TEXT
  8
1
 62
2
 10
216.116802451603
 20
27.8448965530671
 30
0
 40
1.2
  1
Dis. Complessivo
 41
1.3365
  0
TEXT
  8
1
 62
2
 10
216.116802451603
 20
25.2048965530671
 30
0
 40
1.2
  1
(Assembly drawing)
 41
1.3365
  0
TEXT
  8
1
 62
2
 10
216.200000010602
 20
32.17596542263004
 30
0
 40
1.2
  1
N%%d
 41
0.891
  0
TEXT
  8
1
 62
2
 10
216.1802207204889
 20
37.02848207921501
 30
0
 40
1.2
  1
Dis. Cliente
 41
1.3365
  0
TEXT
  8
1
 62
2
 10
216.1802207204889
 20
34.38848207921501
 30
0
 40
1.2
  1
(Customer Drawing)
 41
1.3365
  0
TEXT
  8
1
 62
2
 10
218.0000000106011
 20
66
 30
0
 40
1.2
  1
Tratt. termici (Heat treatments)
 41
1.3365
  0
TEXT
  8
1
 62
2
 10
268.4172132226449
 20
51.89827344550713
 30
0
 40
2.5
  1
UFFICI TECNICI
 41
0.891
  0
TEXT
  8
1
 62
2
 10
402.2438731535151
 20
1.290611723640041
 30
0
 40
2
  1
 UNI A/2
 41
0.891
  0
ENDBLK
  8
0
  0
BLOCK
  8
1
  2
*D0
 70
1
 10
0
 20
0
 30
0
  0
LINE
  8
1
 62
2
 10
-17.41177412048373
 20
141.565026195621
 30
0
 11
67.58822587951624
 21
141.565026195621
 31
0
  0
LINE
  8
1
 62
2
 10
67.58822587951624
 20
95.46713421940611
 30
0
 11
67.58822587951624
 21
142.565026195621
 31
0
  0
LINE
  8
1
 62
2
 10
-17.41177412048373
 20
95.46713421940611
 30
0
 11
-17.41177412048373
 21
142.565026195621
 31
0
  0
SOLID
  8
1
 62
2
 10
67.58822587951624
 20
141.565026195621
 30
0
 11
64.38822587951624
 21
141.149026195621
 31
0
 12
64.38822587951624
 22
141.981026195621
 32
0
 13
64.38822587951624
 23
141.981026195621
 33
0
  0
SOLID
  8
1
 62
2
 10
-17.41177412048373
 20
141.565026195621
 30
0
 11
-14.21177412048373
 21
141.981026195621
 31
0
 12
-14.21177412048373
 22
141.149026195621
 32
0
 13
-14.21177412048373
 23
141.149026195621
 33
0
  0
TEXT
  8
1
 62
2
 10
22.68822587951626
 20
142.765026195621
 30
0
 40
3.2
  1
85
 41
0.9
  0
ENDBLK
  8
0
  0
BLOCK
  8
1
  2
*D1
 70
1
 10
0
 20
0
 30
0
  0
LINE
  8
1
 62
2
 10
136.134200545804
 20
93.36713421940608
 30
0
 11
136.134200545804
 21
99.76713421940609
 31
0
  0
LINE
  8
1
 62
2
 10
136.134200545804
 20
85.36712384340611
 30
0
 11
136.134200545804
 21
78.9671238434061
 31
0
  0
LINE
  8
1
 62
2
 10
136.134200545804
 20
85.36712384340611
 30
0
 11
136.134200545804
 21
93.36713421940608
 31
0
  0
LINE
  8
1
 62
2
 10
95.48821733471303
 20
93.36713421940608
 30
0
 11
137.134200545804
 21
93.36713421940608
 31
0
  0
LINE
  8
1
 62
2
 10
95.48821733471303
 20
85.36712384340611
 30
0
 11
137.134200545804
 21
85.36712384340611
 31
0
  0
SOLID
  8
1
 62
2
 10
136.134200545804
 20
93.36713421940608
 30
0
 11
135.718200545804
 21
96.56713421940609
 31
0
 12
136.550200545804
 22
96.56713421940609
 32
0
 13
136.550200545804
 23
96.56713421940609
 33
0
  0
SOLID
  8
1
 62
2
 10
136.134200545804
 20
85.36712384340611
 30
0
 11
136.550200545804
 21
82.1671238434061
 31
0
 12
135.718200545804
 22
82.1671238434061
 32
0
 13
135.718200545804
 23
82.1671238434061
 33
0
  0
TEXT
  8
1
 62
2
 10
134.934200545804
 20
88.4071290314061
 30
0
 40
3.2
  1
8
 50
90
 41
0.9
  0
ENDBLK
  8
0
  0
BLOCK
  8
1
  2
*D2
 70
1
 10
0
 20
0
 30
0
  0
LINE
  8
1
 62
2
 10
217.808270874
 20
362.482935078247
 30
0
 11
224.208270874
 21
362.482935078247
 31
0
  0
LINE
  8
1
 62
2
 10
209.808260498
 20
362.482935078247
 30
0
 11
203.408260498
 21
362.482935078247
 31
0
  0
LINE
  8
1
 62
2
 10
209.808260498
 20
362.482935078247
 30
0
 11
217.808270874
 21
362.482935078247
 31
0
  0
LINE
  8
1
 62
2
 10
217.808270874
 20
349.9061808943163
 30
0
 11
217.808270874
 21
363.482935078247
 31
0
  0
LINE
  8
1
 62
2
 10
209.808260498
 20
349.9061808943163
 30
0
 11
209.808260498
 21
363.482935078247
 31
0
  0
SOLID
  8
1
 62
2
 10
209.808260498
 20
362.482935078247
 30
0
 11
206.608260498
 21
362.066935078247
 31
0
 12
206.608260498
 22
362.898935078247
 32
0
 13
206.608260498
 23
362.898935078247
 33
0
  0
SOLID
  8
1
 62
2
 10
217.808270874
 20
362.482935078247
 30
0
 11
221.008270874
 21
362.898935078247
 31
0
 12
221.008270874
 22
362.066935078247
 32
0
 13
221.008270874
 23
362.066935078247
 33
0
  0
TEXT
  8
1
 62
2
 10
212.848265686
 20
363.682935078247
 30
0
 40
3.2
  1
8
 41
0.9
  0
ENDBLK
  8
0
  0
BLOCK
  8
1
  2
*D3
 70
1
 10
0
 20
0
 30
0
  0
LINE
  8
1
 62
2
 10
-51.86177412036184
 20
31.8493849361514
 30
0
 11
102.0382258796256
 21
31.8493849361514
 31
0
  0
LINE
  8
1
 62
2
 10
102.0382258796256
 20
81.3140556061061
 30
0
 11
102.0382258796256
 21
30.8493849361514
 31
0
  0
LINE
  8
1
 62
2
 10
-51.86177412036184
 20
81.3140556061061
 30
0
 11
-51.86177412036184
 21
30.8493849361514
 31
0
  0
SOLID
  8
1
 62
2
 10
-51.86177412036184
 20
31.8493849361514
 30
0
 11
-48.66177412036183
 21
32.2653849361514
 31
0
 12
-48.66177412036183
 22
31.4333849361514
 32
0
 13
-48.66177412036183
 23
31.4333849361514
 33
0
  0
SOLID
  8
1
 62
2
 10
102.0382258796256
 20
31.8493849361514
 30
0
 11
98.83822587962563
 21
31.4333849361514
 31
0
 12
98.83822587962563
 22
32.2653849361514
 32
0
 13
98.83822587962563
 23
32.2653849361514
 33
0
  0
TEXT
  8
1
 62
2
 10
19.7282258796319
 20
33.36938493615141
 30
0
 40
3.2
  1
153,9
 41
0.9
  0
ENDBLK
  8
0
  0
BLOCK
  8
1
  2
*D4
 70
1
 10
0
 20
0
 30
0
  0
LINE
  8
1
 62
2
 10
183.8082727051
 20
375.261112634081
 30
0
 11
243.808258667
 21
375.261112634081
 31
0
  0
LINE
  8
1
 62
2
 10
243.808258667
 20
352.9713028505162
 30
0
 11
243.808258667
 21
376.261112634081
 31
0
  0
LINE
  8
1
 62
2
 10
183.8082727051
 20
352.9713028505162
 30
0
 11
183.8082727051
 21
376.261112634081
 31
0
  0
SOLID
  8
1
 62
2
 10
183.8082727051
 20
375.261112634081
 30
0
 11
187.0082727051
 21
375.677112634081
 31
0
 12
187.0082727051
 22
374.845112634081
 32
0
 13
187.0082727051
 23
374.845112634081
 33
0
  0
SOLID
  8
1
 62
2
 10
243.808258667
 20
375.261112634081
 30
0
 11
240.608258667
 21
374.845112634081
 31
0
 12
240.608258667
 22
375.677112634081
 32
0
 13
240.608258667
 23
375.677112634081
 33
0
  0
TEXT
  8
1
 62
2
 10
211.40826568605
 20
376.461112634081
 30
0
 40
3.2
  1
60
 41
0.9
  0
ENDBLK
  8
0
  0
BLOCK
  8
1
  2
*D5
 70
1
 10
0
 20
0
 30
0
  0
LINE
  8
1
 62
2
 10
-43.31177412037771
 20
45.33249340614361
 30
0
 11
93.48822587961305
 21
45.33249340614361
 31
0
  0
LINE
  8
1
 62
2
 10
93.48822587961305
 20
85.36714154360608
 30
0
 11
93.48822587961305
 21
44.33249340614361
 31
0
  0
LINE
  8
1
 62
2
 10
-43.31177412037771
 20
85.36714154360608
 30
0
 11
-43.31177412037771
 21
44.33249340614361
 31
0
  0
SOLID
  8
1
 62
2
 10
-43.31177412037771
 20
45.33249340614361
 30
0
 11
-40.11177412037771
 21
45.7484934061436
 31
0
 12
-40.11177412037771
 22
44.91649340614361
 32
0
 13
-40.11177412037771
 23
44.91649340614361
 33
0
  0
SOLID
  8
1
 62
2
 10
93.48822587961305
 20
45.33249340614361
 30
0
 11
90.28822587961305
 21
44.91649340614361
 31
0
 12
90.28822587961305
 22
45.7484934061436
 32
0
 13
90.28822587961305
 23
45.7484934061436
 33
0
  0
TEXT
  8
1
 62
2
 10
21.76182587961766
 20
45.4224934061436
 30
0
 40
3.2
  1
137
 41
0.8910000000000001
  0
ENDBLK
  8
0
  0
BLOCK
  8
1
  2
*D6
 70
1
 10
0
 20
0
 30
0
  0
LINE
  8
1
 62
2
 10
93.47108592073229
 20
230.1909845640275
 30
0
 11
-63.78437921586111
 21
329.5977664123847
 31
0
  0
SOLID
  8
1
 62
2
 10
-43.29463416169972
 20
316.645468602205
 30
0
 11
-40.36746871284989
 21
315.2872497556785
 31
0
 12
-40.81203070740984
 22
314.5839797982704
 32
0
 13
-40.81203070740984
 23
314.5839797982704
 33
0
  0
SOLID
  8
1
 62
2
 10
93.47108592073229
 20
230.1909845640275
 30
0
 11
90.54392047188246
 21
231.549203410554
 31
0
 12
90.98848246644241
 22
232.2524733679622
 32
0
 13
90.98848246644241
 23
232.2524733679622
 33
0
  0
TEXT
  8
1
 62
2
 10
-56.94997053553379
 20
327.8328703842101
 30
0
 40
3.2
  1
161,8
 50
327.7015609996738
 41
0.9
  0
TEXT
  8
1
 62
2
 10
-62.63022788383049
 20
331.4235634171943
 30
0
 40
3.2
  1
Dp
 50
327.7015609996738
 41
0.9
  0
ENDBLK
  8
0
  0
ENDSEC
  0
SECTION
  2
ENTITIES
  0
POLYLINE
  8
0
 62
7
 66
1
  0
VERTEX
  8
0
 10
218.5892468262
 20
330.4648083033452
 30
0
  0
VERTEX
  8
0
 10
218.3184759521
 20
330.3665728297452
 30
0
  0
VERTEX
  8
0
 10
218.0580718994
 20
330.2835332789451
 30
0
  0
VERTEX
  8
0
 10
217.808270874
 20
330.2152434840451
 30
0
  0
SEQEND
  8
0
  0
POLYLINE
  8
0
 62
7
 66
1
  0
VERTEX
  8
0
 10
218.318449707
 20
348.2968217634164
 30
0
  0
VERTEX
  8
0
 10
218.0580718994
 20
348.0637126326163
 30
0
  0
VERTEX
  8
0
 10
217.808270874
 20
347.8425581526163
 30
0
  0
SEQEND
  8
0
  0
POLYLINE
  8
0
 62
7
 66
1
  0
VERTEX
  8
0
 10
217.808270874
 20
337.7471721949452
 30
0
  0
VERTEX
  8
0
 10
218.0583081055
 20
338.0360784449451
 30
0
  0
VERTEX
  8
0
 10
218.3185546875
 20
338.3264806666451
 30
0
  0
VERTEX
  8
0
 10
218.5892468262
 20
338.6182870021452
 30
0
  0
SEQEND
  8
0
  0
POLYLINE
  8
0
 62
7
 66
1
  0
VERTEX
  8
0
 10
217.808270874
 20
302.3630482186163
 30
0
  0
VERTEX
  8
0
 10
218.0583081055
 20
302.5780088509164
 30
0
  0
VERTEX
  8
0
 10
218.3185546875
 20
302.7856077278162
 30
0
  0
VERTEX
  8
0
 10
218.5892468262
 20
302.9854511727162
 30
0
  0
SEQEND
  8
0
  0
POLYLINE
  8
0
 62
7
 66
1
  0
VERTEX
  8
0
 10
209.0272845459
 20
290.9442307747162
 30
0
  0
VERTEX
  8
0
 10
209.2980554199
 20
291.0303541268162
 30
0
  0
VERTEX
  8
0
 10
209.5584594727
 20
291.1291013802162
 30
0
  0
VERTEX
  8
0
 10
209.808260498
 20
291.2397770394164
 30
0
  0
SEQEND
  8
0
  0
POLYLINE
  8
0
 62
7
 66
1
  0
VERTEX
  8
0
 10
220.8613391113
 20
331.3351488795452
 30
0
  0
VERTEX
  8
0
 10
219.6403900145999
 20
325.3734786525452
 30
0
  0
VERTEX
  8
0
 10
219.0316870117
 20
315.4267152571164
 30
0
  0
VERTEX
  8
0
 10
219.0317132568
 20
313.6000503077452
 30
0
  0
VERTEX
  8
0
 10
219.64046875
 20
310.5545167244163
 30
0
  0
VERTEX
  8
0
 10
220.8613391113
 20
304.5933057869163
 30
0
  0
SEQEND
  8
0
  0
POLYLINE
  8
0
 62
7
 66
1
  0
VERTEX
  8
0
 10
206.7551922607
 20
331.3351488795452
 30
0
  0
VERTEX
  8
0
 10
207.9761413574
 20
325.3734786525452
 30
0
  0
VERTEX
  8
0
 10
208.5848443604
 20
315.4267152571164
 30
0
  0
VERTEX
  8
0
 10
208.5848181152
 20
313.6000503077452
 30
0
  0
VERTEX
  8
0
 10
207.9760626221
 20
310.5545167244163
 30
0
  0
VERTEX
  8
0
 10
206.7551922607
 20
304.5933057869163
 30
0
  0
SEQEND
  8
0
  0
POLYLINE
  8
0
 62
7
 66
1
  0
VERTEX
  8
0
 10
209.808260498
 20
302.3630482186163
 30
0
  0
VERTEX
  8
0
 10
209.5582232666
 20
302.5780088509164
 30
0
  0
VERTEX
  8
0
 10
209.2979766846
 20
302.7856077278162
 30
0
  0
VERTEX
  8
0
 10
209.0272845459
 20
302.9854511727162
 30
0
  0
SEQEND
  8
0
  0
POLYLINE
  8
0
 62
7
 66
1
  0
VERTEX
  8
0
 10
218.5892468262
 20
290.9442307747162
 30
0
  0
VERTEX
  8
0
 10
218.3184759521
 20
291.0303541268162
 30
0
  0
VERTEX
  8
0
 10
218.0580718994
 20
291.1291013802162
 30
0
  0
VERTEX
  8
0
 10
217.808270874
 20
291.2397770394164
 30
0
  0
SEQEND
  8
0
  0
POLYLINE
  8
0
 62
7
 66
1
  0
VERTEX
  8
0
 10
209.808260498
 20
337.7471721949452
 30
0
  0
VERTEX
  8
0
 10
209.5582232666
 20
338.0360784449451
 30
0
  0
VERTEX
  8
0
 10
209.2979766846
 20
338.3264806666451
 30
0
  0
VERTEX
  8
0
 10
209.0272845459
 20
338.6182870021452
 30
0
  0
SEQEND
  8
0
  0
POLYLINE
  8
0
 62
7
 66
1
  0
VERTEX
  8
0
 10
209.0272845459
 20
330.4648083033452
 30
0
  0
VERTEX
  8
0
 10
209.2980554199
 20
330.3665728297452
 30
0
  0
VERTEX
  8
0
 10
209.5584594727
 20
330.2835332789451
 30
0
  0
VERTEX
  8
0
 10
209.808260498
 20
330.2152434840451
 30
0
  0
SEQEND
  8
0
  0
POLYLINE
  8
0
 62
7
 66
1
  0
VERTEX
  8
0
 10
206.7551922607
 20
350.6036757063164
 30
0
  0
VERTEX
  8
0
 10
209.2980554199
 20
348.2968217634164
 30
0
  0
VERTEX
  8
0
 10
209.5584594727
 20
348.0637126326163
 30
0
  0
VERTEX
  8
0
 10
209.808260498
 20
347.8425581526163
 30
0
  0
SEQEND
  8
0
  0
POLYLINE
  8
0
 62
7
 66
1
  0
VERTEX
  8
0
 10
218.5892468262
 20
216.3716448628874
 30
0
  0
VERTEX
  8
0
 10
218.3184759521
 20
216.4698803364874
 30
0
  0
VERTEX
  8
0
 10
218.0580718994
 20
216.5529198872874
 30
0
  0
VERTEX
  8
0
 10
217.808270874
 20
216.6212096821874
 30
0
  0
SEQEND
  8
0
  0
POLYLINE
  8
0
 62
7
 66
1
  0
VERTEX
  8
0
 10
218.318449707
 20
198.5396314028162
 30
0
  0
VERTEX
  8
0
 10
218.0580718994
 20
198.7727405336162
 30
0
  0
VERTEX
  8
0
 10
217.808270874
 20
198.9938950136162
 30
0
  0
SEQEND
  8
0
  0
POLYLINE
  8
0
 62
7
 66
1
  0
VERTEX
  8
0
 10
217.808270874
 20
209.0892809712874
 30
0
  0
VERTEX
  8
0
 10
218.0583081055
 20
208.8003747212874
 30
0
  0
VERTEX
  8
0
 10
218.3185546875
 20
208.5099724995874
 30
0
  0
VERTEX
  8
0
 10
218.5892468262
 20
208.2181661640874
 30
0
  0
SEQEND
  8
0
  0
POLYLINE
  8
0
 62
7
 66
1
  0
VERTEX
  8
0
 10
217.808270874
 20
244.4734049476163
 30
0
  0
VERTEX
  8
0
 10
218.0583081055
 20
244.2584443153162
 30
0
  0
VERTEX
  8
0
 10
218.3185546875
 20
244.0508454384163
 30
0
  0
VERTEX
  8
0
 10
218.5892468262
 20
243.8510019935163
 30
0
  0
SEQEND
  8
0
  0
POLYLINE
  8
0
 62
7
 66
1
  0
VERTEX
  8
0
 10
209.0272845459
 20
255.8922223915163
 30
0
  0
VERTEX
  8
0
 10
209.2980554199
 20
255.8060990394163
 30
0
  0
VERTEX
  8
0
 10
209.5584594727
 20
255.7073517860163
 30
0
  0
VERTEX
  8
0
 10
209.808260498
 20
255.5966761268162
 30
0
  0
SEQEND
  8
0
  0
POLYLINE
  8
0
 62
7
 66
1
  0
VERTEX
  8
0
 10
220.8613391113
 20
215.5013042866874
 30
0
  0
VERTEX
  8
0
 10
219.6403900145999
 20
221.4629745136874
 30
0
  0
VERTEX
  8
0
 10
219.0316870117
 20
231.4097379091162
 30
0
  0
VERTEX
  8
0
 10
219.0317132568
 20
233.2364028584874
 30
0
  0
VERTEX
  8
0
 10
219.64046875
 20
236.2819364418163
 30
0
  0
VERTEX
  8
0
 10
220.8613391113
 20
242.2431473793163
 30
0
  0
SEQEND
  8
0
  0
POLYLINE
  8
0
 62
7
 66
1
  0
VERTEX
  8
0
 10
206.7551922607
 20
215.5013042866874
 30
0
  0
VERTEX
  8
0
 10
207.9761413574
 20
221.4629745136874
 30
0
  0
VERTEX
  8
0
 10
208.5848443604
 20
231.4097379091162
 30
0
  0
VERTEX
  8
0
 10
208.5848181152
 20
233.2364028584874
 30
0
  0
VERTEX
  8
0
 10
207.9760626221
 20
236.2819364418163
 30
0
  0
VERTEX
  8
0
 10
206.7551922607
 20
242.2431473793163
 30
0
  0
SEQEND
  8
0
  0
POLYLINE
  8
0
 62
7
 66
1
  0
VERTEX
  8
0
 10
209.808260498
 20
244.4734049476163
 30
0
  0
VERTEX
  8
0
 10
209.5582232666
 20
244.2584443153162
 30
0
  0
VERTEX
  8
0
 10
209.2979766846
 20
244.0508454384163
 30
0
  0
VERTEX
  8
0
 10
209.0272845459
 20
243.8510019935163
 30
0
  0
SEQEND
  8
0
  0
POLYLINE
  8
0
 62
7
 66
1
  0
VERTEX
  8
0
 10
218.5892468262
 20
255.8922223915163
 30
0
  0
VERTEX
  8
0
 10
218.3184759521
 20
255.8060990394163
 30
0
  0
VERTEX
  8
0
 10
218.0580718994
 20
255.7073517860163
 30
0
  0
VERTEX
  8
0
 10
217.808270874
 20
255.5966761268162
 30
0
  0
SEQEND
  8
0
  0
POLYLINE
  8
0
 62
7
 66
1
  0
VERTEX
  8
0
 10
209.808260498
 20
209.0892809712874
 30
0
  0
VERTEX
  8
0
 10
209.5582232666
 20
208.8003747212874
 30
0
  0
VERTEX
  8
0
 10
209.2979766846
 20
208.5099724995874
 30
0
  0
VERTEX
  8
0
 10
209.0272845459
 20
208.2181661640874
 30
0
  0
SEQEND
  8
0
  0
POLYLINE
  8
0
 62
7
 66
1
  0
VERTEX
  8
0
 10
209.0272845459
 20
216.3716448628874
 30
0
  0
VERTEX
  8
0
 10
209.2980554199
 20
216.4698803364874
 30
0
  0
VERTEX
  8
0
 10
209.5584594727
 20
216.5529198872874
 30
0
  0
VERTEX
  8
0
 10
209.808260498
 20
216.6212096821874
 30
0
  0
SEQEND
  8
0
  0
POLYLINE
  8
0
 62
7
 66
1
  0
VERTEX
  8
0
 10
206.7551922607
 20
196.2327774599162
 30
0
  0
VERTEX
  8
0
 10
209.2980554199
 20
198.5396314028162
 30
0
  0
VERTEX
  8
0
 10
209.5584594727
 20
198.7727405336162
 30
0
  0
VERTEX
  8
0
 10
209.808260498
 20
198.9938950136162
 30
0
  0
SEQEND
  8
0
  0
POINT
  8
0
 62
7
  6
DOT
 10
4.91322587951629
 20
271.4182265831163
 30
0
  0
LINE
  8
DEFAULT_1
 62
2
  6
CENTER
 10
91.66218202017704
 20
251.7870369768292
 30
0
 11
119.2165091919528
 21
242.8340933623148
 31
0
  0
LINE
  8
DEFAULT_1
 62
2
  6
CENTER
 10
66.23319353998943
 20
216.7870369768292
 30
0
 11
83.26270426928176
 21
193.3479262946026
 31
0
  0
LINE
  8
DEFAULT_1
 62
2
  6
CENTER
 10
-16.05674178095678
 20
216.7870369768292
 30
0
 11
-33.08625251024864
 21
193.3479262946023
 31
0
  0
LINE
  8
DEFAULT_1
 62
2
  6
CENTER
 10
-41.48573026114444
 20
251.7870369768292
 30
0
 11
-69.04005743291995
 21
242.8340933623142
 31
0
  0
LINE
  8
DEFAULT_1
 62
2
  6
CENTER
 10
-41.48573026114444
 20
295.0494161893219
 30
0
 11
-69.04005743292012
 21
304.0023598039177
 31
0
  0
LINE
  8
DEFAULT_1
 62
2
  6
CENTER
 10
-16.0567417809568
 20
330.0494161893219
 30
0
 11
-33.08625251024915
 21
353.4885268716299
 31
0
  0
LINE
  8
DEFAULT_1
 62
2
  6
CENTER
 10
91.66218202017707
 20
295.0494161893218
 30
0
 11
119.2165091919526
 21
304.0023598039183
 31
0
  0
LINE
  8
DEFAULT_1
 62
2
  6
CENTER
 10
66.23319353998947
 20
330.0494161893218
 30
0
 11
83.26270426928129
 21
353.4885268716303
 31
0
  0
LINE
  8
DEFAULT_1
 62
2
  6
CENTER
 10
25.08822587951659
 20
248.6715574947753
 30
0
 11
25.08822587951661
 21
174.4458924476922
 31
0
  0
LINE
  8
0
 62
7
 10
220.8613391113
 20
351.9713087630164
 30
0
 11
243.808258667
 21
351.9713087630164
 31
0
  0
LINE
  8
0
 62
7
 10
183.8082727051
 20
351.9713087630164
 30
0
 11
206.7551922607
 21
351.9713087630164
 31
0
  0
LINE
  8
0
 62
7
 10
220.8613391113
 20
350.6036757063164
 30
0
 11
243.808258667
 21
350.6036757063164
 31
0
  0
LINE
  8
0
 62
7
 10
183.8082727051
 20
350.6036757063164
 30
0
 11
206.7551922607
 21
350.6036757063164
 31
0
  0
LINE
  8
0
 62
7
 10
218.5892383754
 20
349.6932821747164
 30
0
 11
219.856767863
 21
349.6932821747164
 31
0
  0
LINE
  8
0
 62
7
 10
207.7597620189
 20
349.6932821747164
 30
0
 11
209.0272915065
 21
349.6932821747164
 31
0
  0
LINE
  8
0
 62
7
 10
210.8082519531
 20
345.8691173854452
 30
0
 11
216.8082531738
 21
345.8691173854452
 31
0
  0
LINE
  8
0
 62
7
 10
220.8613391113
 20
341.0198989405452
 30
0
 11
243.808258667
 21
341.0198989405452
 31
0
  0
LINE
  8
0
 62
7
 10
183.8082727051
 20
341.0198989405452
 30
0
 11
206.7551922607
 21
341.0198989405452
 31
0
  0
LINE
  8
0
 62
7
 10
218.5892468262
 20
338.6182870021452
 30
0
 11
243.808258667
 21
338.6182870021452
 31
0
  0
LINE
  8
0
 62
7
 10
183.8082727051
 20
338.6182870021452
 30
0
 11
209.0272845459
 21
338.6182870021452
 31
0
  0
LINE
  8
0
 62
7
 10
217.808270874
 20
332.7286596217451
 30
0
 11
243.808258667
 21
332.7286596217451
 31
0
  0
LINE
  8
0
 62
7
 10
183.8082727051
 20
332.7286596217451
 30
0
 11
209.808260498
 21
332.7286596217451
 31
0
  0
LINE
  8
0
 62
7
 10
217.8082649409
 20
331.5755663777452
 30
0
 11
243.8082649409
 21
331.5755663777452
 31
0
  0
LINE
  8
0
 62
7
 10
183.8082649409
 20
331.5755663777452
 30
0
 11
209.8082649409
 21
331.5755663777452
 31
0
  0
LINE
  8
0
 62
7
 10
220.8613391113
 20
331.3351488795452
 30
0
 11
243.808258667
 21
331.3351488795452
 31
0
  0
LINE
  8
0
 62
7
 10
183.8082727051
 20
331.3351488795452
 30
0
 11
206.7551922607
 21
331.3351488795452
 31
0
  0
LINE
  8
0
 62
7
 10
220.8613391113
 20
350.6036757063164
 30
0
 11
218.318449707
 21
348.2968217634164
 31
0
  0
LINE
  8
0
 62
7
 10
220.8613391113
 20
351.9713087630164
 30
0
 11
217.808270874
 21
348.9061808943163
 31
0
  0
LINE
  8
0
 62
7
 10
220.8613391113
 20
331.3351488795452
 30
0
 11
218.5892468262
 21
330.4648083033452
 31
0
  0
LINE
  8
0
 62
7
 10
218.5892468262
 20
338.6182870021452
 30
0
 11
220.8613391113
 21
341.0198989405452
 31
0
  0
LINE
  8
0
 62
7
 10
220.8613391113
 20
304.5933057869163
 30
0
 11
243.808258667
 21
304.5933057869163
 31
0
  0
LINE
  8
0
 62
7
 10
183.8082727051
 20
304.5933057869163
 30
0
 11
206.7551922607
 21
304.5933057869163
 31
0
  0
LINE
  8
0
 62
7
 10
218.5892468262
 20
302.9854511727162
 30
0
 11
243.808258667
 21
302.9854511727162
 31
0
  0
LINE
  8
0
 62
7
 10
183.8082727051
 20
302.9854511727162
 30
0
 11
209.0272845459
 21
302.9854511727162
 31
0
  0
LINE
  8
0
 62
7
 10
217.808270874
 20
297.1193787850164
 30
0
 11
243.808258667
 21
297.1193787850164
 31
0
  0
LINE
  8
0
 62
7
 10
183.8082727051
 20
297.1193787850164
 30
0
 11
209.808260498
 21
297.1193787850164
 31
0
  0
LINE
  8
0
 62
7
 10
217.808270874
 20
295.4164906014163
 30
0
 11
243.808258667
 21
295.4164906014163
 31
0
  0
LINE
  8
0
 62
7
 10
183.8082727051
 20
295.4164906014163
 30
0
 11
209.808260498
 21
295.4164906014163
 31
0
  0
LINE
  8
0
 62
7
 10
218.5892468262
 20
302.9854511727162
 30
0
 11
220.8613391113
 21
304.5933057869163
 31
0
  0
LINE
  8
0
 62
7
 10
218.5892468262
 20
290.9442307747162
 30
0
 11
243.808258667
 21
290.9442307747162
 31
0
  0
LINE
  8
0
 62
7
 10
183.8082727051
 20
290.9442307747162
 30
0
 11
209.0272845459
 21
290.9442307747162
 31
0
  0
LINE
  8
0
 62
7
 10
220.8613391113
 20
290.2906748665164
 30
0
 11
243.808258667
 21
290.2906748665164
 31
0
  0
LINE
  8
0
 62
7
 10
183.8082727051
 20
290.2906748665164
 30
0
 11
206.7551922607
 21
290.2906748665164
 31
0
  0
LINE
  8
0
 62
7
 10
206.7551922607
 20
290.2906748665164
 30
0
 11
209.0272845459
 21
290.9442307747162
 31
0
  0
LINE
  8
0
 62
7
 10
209.808260498
 20
330.4379726710452
 30
0
 11
209.808260498
 21
348.9061808943163
 31
0
  0
LINE
  8
0
 62
7
 10
209.808260498
 20
273.4182265831163
 30
0
 11
209.808260498
 21
330.2152434840451
 31
0
  0
LINE
  8
0
 62
7
 10
210.8082519531
 20
273.4182265831163
 30
0
 11
210.8082519531
 21
345.8691173854452
 31
0
  0
LINE
  8
0
 62
7
 10
216.8082531738
 20
273.4182265831163
 30
0
 11
216.8082531738
 21
345.8691173854452
 31
0
  0
LINE
  8
0
 62
7
 10
217.808270874
 20
273.4182265831163
 30
0
 11
217.808270874
 21
348.9061808943163
 31
0
  0
LINE
  8
0
 62
7
 10
220.8613391113
 20
290.2906748665164
 30
0
 11
218.5892468262
 21
290.9442307747162
 31
0
  0
LINE
  8
0
 62
7
 10
209.0272845459
 20
302.9854511727162
 30
0
 11
206.7551922607
 21
304.5933057869163
 31
0
  0
LINE
  8
0
 62
7
 10
209.0272845459
 20
338.6182870021452
 30
0
 11
206.7551922607
 21
341.0198989405452
 31
0
  0
LINE
  8
0
 62
7
 10
209.808260498
 20
348.9061808943163
 30
0
 11
206.7551922607
 21
351.9713087630164
 31
0
  0
LINE
  8
0
 62
7
 10
206.7551922607
 20
331.3351488795452
 30
0
 11
209.0272845459
 21
330.4648083033452
 31
0
  0
LINE
  8
1
 62
7
 10
219.6403900146
 20
276.4905485701164
 30
0
 11
219.3663038848478
 21
273.4182265831163
 31
0
  0
LINE
  8
1
 62
7
 10
220.8613391113
 20
290.2906748665164
 30
0
 11
219.6403900146
 21
276.4905485701164
 31
0
  0
LINE
  8
1
 62
7
 10
207.9761413574
 20
276.4905485701164
 30
0
 11
208.233998452656
 21
273.4182265831163
 31
0
  0
LINE
  8
1
 62
7
 10
206.7551922607
 20
290.2906748665164
 30
0
 11
207.9761413574
 21
276.4905485701164
 31
0
  0
LINE
  8
1
 62
7
 10
72.86766516360666
 20
328.7493114969665
 30
0
 11
76.95135389335283
 21
332.416554293167
 31
0
  0
LINE
  8
1
 62
7
 10
62.64097357566405
 20
336.1794378564015
 30
0
 11
72.86766516360666
 21
328.7493114969665
 31
0
  0
LINE
  8
1
 62
7
 10
65.09573285559469
 20
341.0198989405452
 30
0
 11
62.64097357566405
 21
336.1794378564015
 31
0
  0
LINE
  8
1
 62
7
 10
65.09126311200097
 20
341.0225439905585
 30
0
 11
61.94167507376676
 21
336.6875079578003
 31
0
  0
LINE
  8
0
 62
7
 10
68.57977725352794
 20
331.8652443994331
 30
0
 11
67.16726720453229
 21
332.8902638249583
 31
0
  0
LINE
  8
1
 62
7
 10
96.26539994775509
 20
290.0979648216324
 30
0
 11
101.7247247620396
 21
290.66449455596
 31
0
  0
LINE
  8
1
 62
7
 10
92.35915135362365
 20
302.1201618119047
 30
0
 11
96.26539994775509
 21
290.0979648216324
 31
0
  0
LINE
  8
1
 62
7
 10
97.19024496774252
 20
304.5933057869162
 30
0
 11
92.35915135362365
 21
302.1201618119047
 31
0
  0
LINE
  8
1
 62
7
 10
97.188183590604
 20
304.5980729266939
 30
0
 11
92.09204309418081
 21
302.9422365046357
 31
0
  0
LINE
  8
0
 62
7
 10
94.62792516572924
 20
295.1391647700874
 30
0
 11
94.08767183300344
 21
296.7986754804164
 31
0
  0
LINE
  8
1
 62
7
 10
92.47587346100394
 20
245.0755250626365
 30
0
 11
97.22555783639584
 21
242.3249466322154
 31
0
  0
LINE
  8
1
 62
7
 10
96.38212205513537
 20
257.0977220529088
 30
0
 11
92.47587346100394
 21
245.0755250626365
 31
0
  0
LINE
  8
1
 62
7
 10
101.7442364456815
 20
256.2588919794058
 30
0
 11
96.38212205513537
 21
257.0977220529088
 31
0
  0
LINE
  8
1
 62
7
 10
101.7453708110016
 20
256.2639603235818
 30
0
 11
96.6492303145783
 21
257.9197967456397
 31
0
  0
LINE
  8
0
 62
7
 10
94.11427151804402
 20
250.1164250208543
 30
0
 11
94.65263331215392
 21
251.7765503293358
 31
0
  0
LINE
  8
1
 62
7
 10
62.94655602002416
 20
210.8790339514705
 30
0
 11
65.17238196095821
 21
205.8619748279994
 31
0
  0
LINE
  8
1
 62
7
 10
73.17324760796674
 20
218.3091603109055
 30
0
 11
62.94655602002416
 21
210.8790339514705
 31
0
  0
LINE
  8
1
 62
7
 10
77.01823732931655
 20
214.4787607661805
 30
0
 11
73.17324760796674
 21
218.3091603109055
 31
0
  0
LINE
  8
1
 62
7
 10
77.02213414809856
 20
214.4821943795463
 30
0
 11
73.87254610986409
 21
218.8172304123043
 31
0
  0
LINE
  8
0
 62
7
 10
67.23501454544265
 20
213.9941814692999
 30
0
 11
68.64635555928265
 21
215.0208099336778
 31
0
  0
LINE
  8
1
 62
7
 10
18.95664322268496
 20
200.5703887966162
 30
0
 11
17.80842087276564
 21
195.2031950416932
 31
0
  0
LINE
  8
1
 62
7
 10
31.59752921030727
 20
200.5703887966162
 30
0
 11
18.95664322268496
 21
200.5703887966162
 31
0
  0
LINE
  8
1
 62
7
 10
32.45673887529903
 20
195.211502216262
 30
0
 11
31.59752921030727
 21
200.5703887966162
 31
0
  0
LINE
  8
1
 62
7
 10
32.46190969521629
 20
195.2119895752163
 30
0
 11
32.46190969521612
 21
200.5703887966162
 31
0
  0
LINE
  8
0
 62
7
 10
24.25711681911625
 20
200.5699034022162
 30
0
 11
26.00235275511622
 21
200.5708978429163
 31
0
  0
LINE
  8
1
 62
7
 10
-22.691213404574
 20
218.087141669266
 30
0
 11
-26.77490213432009
 21
214.4198988730655
 31
0
  0
LINE
  8
1
 62
7
 10
-12.46452181663142
 20
210.6570153098311
 30
0
 11
-22.691213404574
 21
218.087141669266
 31
0
  0
LINE
  8
1
 62
7
 10
-14.91928109656212
 20
205.8165542256874
 30
0
 11
-12.46452181663142
 21
210.6570153098311
 31
0
  0
LINE
  8
1
 62
7
 10
-14.91481135296834
 20
205.8139091756741
 30
0
 11
-11.76522331473413
 21
210.1489452084322
 31
0
  0
LINE
  8
0
 62
7
 10
-18.40332549449531
 20
214.9712087667995
 30
0
 11
-16.99081544549964
 21
213.9461893412741
 31
0
  0
LINE
  8
1
 62
7
 10
-46.08894818872247
 20
256.7384883446001
 30
0
 11
-51.5482730030068
 21
256.1719586102726
 31
0
  0
LINE
  8
1
 62
7
 10
-42.18269959459101
 20
244.7162913543278
 30
0
 11
-46.08894818872247
 21
256.7384883446001
 31
0
  0
LINE
  8
1
 62
7
 10
-47.0137932087097
 20
242.2431473793164
 30
0
 11
-42.18269959459101
 21
244.7162913543278
 31
0
  0
LINE
  8
1
 62
7
 10
-47.01173183157138
 20
242.2383802395386
 30
0
 11
-41.91559133514815
 21
243.8942166615968
 31
0
  0
LINE
  8
0
 62
7
 10
-44.45147340669664
 20
251.6972883961451
 30
0
 11
-43.91122007397084
 21
250.0377776858161
 31
0
  0
LINE
  8
1
 62
7
 10
-42.29942170197134
 20
301.760928103596
 30
0
 11
-47.04910607736311
 21
304.511506534017
 31
0
  0
LINE
  8
1
 62
7
 10
-46.20567029610274
 20
289.7387311133237
 30
0
 11
-42.29942170197134
 21
301.760928103596
 31
0
  0
LINE
  8
1
 62
7
 10
-51.56778468664869
 20
290.5775611868268
 30
0
 11
-46.20567029610274
 21
289.7387311133237
 31
0
  0
LINE
  8
1
 62
7
 10
-51.568919051969
 20
290.5724928426507
 30
0
 11
-46.47277855554566
 21
288.9166564205927
 31
0
  0
LINE
  8
0
 62
7
 10
-43.93781975901143
 20
296.7200281453783
 30
0
 11
-44.47618155312134
 21
295.0599028368968
 31
0
  0
LINE
  8
1
 62
7
 10
-12.77010426099156
 20
335.957419214762
 30
0
 11
-14.99593020192539
 21
340.9744783382333
 31
0
  0
LINE
  8
1
 62
7
 10
-22.99679584893411
 20
328.527292855327
 30
0
 11
-12.77010426099156
 21
335.957419214762
 31
0
  0
LINE
  8
1
 62
7
 10
-26.8417855702839
 20
332.3576924000521
 30
0
 11
-22.99679584893411
 21
328.527292855327
 31
0
  0
LINE
  8
1
 62
7
 10
-26.84568238906596
 20
332.3542587866862
 30
0
 11
-23.69609435083154
 21
328.0192227539282
 31
0
  0
LINE
  8
0
 62
7
 10
-17.05856278641005
 20
332.8422716969327
 30
0
 11
-18.46990380025008
 21
331.8156432325548
 31
0
  0
LINE
  8
1
 62
7
 10
31.2198085363476
 20
346.2660643696163
 30
0
 11
32.36803088626736
 21
351.6332581245393
 31
0
  0
LINE
  8
1
 62
7
 10
18.5789225487253
 20
346.2660643696163
 30
0
 11
31.2198085363476
 21
346.2660643696163
 31
0
  0
LINE
  8
1
 62
7
 10
17.71971288373357
 20
351.6249509499705
 30
0
 11
18.5789225487253
 21
346.2660643696163
 31
0
  0
LINE
  8
1
 62
7
 10
19.6642205593032
 20
337.72612308827
 30
0
 11
37.6642205593032
 21
332.72612308827
 31
0
  0
LINE
  8
1
 62
7
 10
20.6517218169735
 20
330.221113529975
 30
0
 11
9.651721816973499
 21
335.221113529975
 31
0
  0
LINE
  8
1
 62
7
 10
17.71971288373357
 20
351.6249509499705
 30
0
 11
12.71971288373357
 21
331.6249509499705
 31
0
  0
LINE
  8
1
 62
7
 10
17.71454206381634
 20
351.6244635910163
 30
0
 11
17.71454206381634
 21
346.2660643696163
 31
0
  0
LINE
  8
DEFAULT_1
 62
2
  6
CENTER
 10
25.08822587951596
 20
298.1648956714572
 30
0
 11
25.08822587951596
 21
372.3905607185403
 31
0
  0
LINE
  8
DEFAULT_1
 62
2
  6
CENTER
 10
25.08822587951614
 20
286.008697363243
 30
0
 11
25.08822587951613
 21
287.114545454545
 31
0
  0
LINE
  8
DEFAULT_1
 62
2
  6
CENTER
 10
25.08822587951623
 20
298.81805251026
 30
0
 11
25.08822587951628
 21
301.843211415825
 31
0
  0
LINE
  8
DEFAULT_1
 62
7
 10
45.76322587951632
 20
273.4182265831163
 30
0
 11
101.7355962592259
 21
273.4182265831163
 31
0
  0
LINE
  8
DEFAULT_1
 62
2
  6
CENTER
 10
25.08822587951631
 20
318.586301245372
 30
0
 11
25.08822587951629
 21
306.417432378429
 31
0
  0
LINE
  8
1
 62
7
 10
-51.86177412036183
 20
96.42020245670609
 30
0
 11
-51.86177412032313
 21
119.3671342194061
 31
0
  0
LINE
  8
0
 62
7
 10
-51.86177412036183
 20
82.3140556061061
 30
0
 11
-48.80870588306173
 21
85.36712384340611
 31
0
  0
LINE
  8
0
 62
7
 10
-48.80870588306173
 20
93.36713421940608
 30
0
 11
-44.31176557547769
 21
93.36713421940608
 31
0
  0
LINE
  8
0
 62
7
 10
-48.80870588306173
 20
85.36712384340611
 30
0
 11
-44.31176557547769
 21
85.36712384340611
 31
0
  0
LINE
  8
0
 62
7
 10
-48.80870588306173
 20
93.36713421940608
 30
0
 11
-51.86177412036183
 21
96.42020245670609
 31
0
  0
LINE
  8
0
 62
7
 10
-43.31177412037771
 20
92.36714276430608
 30
0
 11
-43.31177412037771
 21
86.36714154360608
 31
0
  0
LINE
  8
1
 62
7
 10
102.0382258796256
 20
82.3140556061061
 30
0
 11
102.0382258796869
 21
59.36713421940608
 31
0
  0
LINE
  8
0
 62
7
 10
98.98515764232562
 20
85.36712384340611
 30
0
 11
102.0382258796256
 21
82.3140556061061
 31
0
  0
LINE
  8
0
 62
7
 10
94.48821733471303
 20
93.36713421940608
 30
0
 11
98.98515764232562
 21
93.36713421940608
 31
0
  0
LINE
  8
0
 62
7
 10
94.48821733471303
 20
85.36712384340611
 30
0
 11
98.98515764232562
 21
85.36712384340611
 31
0
  0
LINE
  8
0
 62
7
 10
102.0382258796256
 20
96.42020245670609
 30
0
 11
98.98515764232562
 21
93.36713421940608
 31
0
  0
LINE
  8
0
 62
7
 10
93.48822587961305
 20
86.36714154360608
 30
0
 11
93.48822587961305
 21
92.36714276430608
 31
0
  0
LINE
  8
0
 62
7
 10
101.7453708111163
 20
256.2639603236163
 30
0
 11
101.7257719363164
 21
290.6598406130163
 31
0
  0
LINE
  8
0
 62
7
 10
-14.91481135298363
 20
205.8139091755163
 30
0
 11
17.80367111541642
 21
195.2036372672164
 31
0
  0
LINE
  8
0
 62
7
 10
-47.0117318315836
 20
242.2383802394163
 30
0
 11
-26.77848483508359
 21
214.4230484784163
 31
0
  0
LINE
  8
0
 62
7
 10
77.02213414821634
 20
214.4821943795163
 30
0
 11
97.2236694992163
 21
242.3205659996163
 31
0
  0
LINE
  8
0
 62
7
 10
32.46190969531648
 20
195.2119895751163
 30
0
 11
65.16827939281632
 21
205.8595407586163
 31
0
  0
LINE
  8
DEFAULT_1
 62
2
  6
CENTER
 10
25.08822587951636
 20
352.7014404511164
 30
0
 11
25.08822587951631
 21
318.586301245372
 31
0
  0
LINE
  8
0
 62
7
 10
25.91933493991638
 20
346.2665497640164
 30
0
 11
24.17409900391641
 21
346.2655553233163
 31
0
  0
LINE
  8
0
 62
7
 10
-51.5689190519836
 20
290.5724928426163
 30
0
 11
-51.5493201772837
 21
256.1766125532163
 31
0
  0
LINE
  8
0
 62
7
 10
-26.84568238908361
 20
332.3542587867163
 30
0
 11
-47.0472177400836
 21
304.5158871665163
 31
0
  0
LINE
  8
0
 62
7
 10
65.09126311201629
 20
341.0225439906163
 30
0
 11
32.37278064371634
 21
351.6328158989163
 31
0
  0
LINE
  8
0
 62
7
 10
97.18818359071634
 20
304.5980729267163
 30
0
 11
76.95493659421638
 21
332.4134046878164
 31
0
  0
LINE
  8
0
 62
7
 10
17.71454206381634
 20
351.6244635910163
 30
0
 11
-14.9918276337836
 21
340.9769124076163
 31
0
  0
LINE
  8
0
 62
7
 10
243.808258667
 20
194.8651444032162
 30
0
 11
220.8613391113
 21
194.8651444032162
 31
0
  0
LINE
  8
0
 62
7
 10
206.7551922607
 20
194.8651444032162
 30
0
 11
183.8082727051
 21
194.8651444032162
 31
0
  0
LINE
  8
0
 62
7
 10
243.808258667
 20
196.2327774599162
 30
0
 11
220.8613391113
 21
196.2327774599162
 31
0
  0
LINE
  8
0
 62
7
 10
206.7551922607
 20
196.2327774599162
 30
0
 11
183.8082727051
 21
196.2327774599162
 31
0
  0
LINE
  8
0
 62
7
 10
219.856767863
 20
197.1431709915162
 30
0
 11
218.5892383754
 21
197.1431709915162
 31
0
  0
LINE
  8
0
 62
7
 10
209.0272915065
 20
197.1431709915162
 30
0
 11
207.7597620189
 21
197.1431709915162
 31
0
  0
LINE
  8
0
 62
7
 10
216.8082531738
 20
200.9673357807874
 30
0
 11
210.8082519531
 21
200.9673357807874
 31
0
  0
LINE
  8
0
 62
7
 10
243.808258667
 20
205.8165542256874
 30
0
 11
220.8613391113
 21
205.8165542256874
 31
0
  0
LINE
  8
0
 62
7
 10
206.7551922607
 20
205.8165542256874
 30
0
 11
183.8082727051
 21
205.8165542256874
 31
0
  0
LINE
  8
0
 62
7
 10
243.808258667
 20
208.2181661640874
 30
0
 11
218.5892468262
 21
208.2181661640874
 31
0
  0
LINE
  8
0
 62
7
 10
209.0272845459
 20
208.2181661640874
 30
0
 11
183.8082727051
 21
208.2181661640874
 31
0
  0
LINE
  8
0
 62
2
 10
200.9061748683
 20
351.9713061249162
 30
0
 11
200.8903055123
 21
351.9554367699162
 31
0
  0
LINE
  8
0
 62
7
 10
243.808258667
 20
214.1077935444874
 30
0
 11
217.808270874
 21
214.1077935444874
 31
0
  0
LINE
  8
0
 62
7
 10
209.808260498
 20
214.1077935444874
 30
0
 11
183.8082727051
 21
214.1077935444874
 31
0
  0
LINE
  8
0
 62
7
 10
243.8082649409
 20
215.2608867884874
 30
0
 11
217.8082649409
 21
215.2608867884874
 31
0
  0
LINE
  8
0
 62
7
 10
209.8082649409
 20
215.2608867884874
 30
0
 11
183.8082649409
 21
215.2608867884874
 31
0
  0
LINE
  8
0
 62
7
 10
243.808258667
 20
215.5013042866874
 30
0
 11
220.8613391113
 21
215.5013042866874
 31
0
  0
LINE
  8
0
 62
7
 10
206.7551922607
 20
215.5013042866874
 30
0
 11
183.8082727051
 21
215.5013042866874
 31
0
  0
LINE
  8
0
 62
7
 10
218.318449707
 20
198.5396314028162
 30
0
 11
220.8613391113
 21
196.2327774599162
 31
0
  0
LINE
  8
0
 62
7
 10
217.808270874
 20
197.9302722719162
 30
0
 11
220.8613391113
 21
194.8651444032162
 31
0
  0
LINE
  8
0
 62
7
 10
218.5892468262
 20
216.3716448628874
 30
0
 11
220.8613391113
 21
215.5013042866874
 31
0
  0
LINE
  8
0
 62
7
 10
220.8613391113
 20
205.8165542256874
 30
0
 11
218.5892468262
 21
208.2181661640874
 31
0
  0
LINE
  8
0
 62
7
 10
183.8082649409
 20
194.8651402998162
 30
0
 11
183.8082727051
 21
351.9713028505162
 31
0
  0
LINE
  8
0
 62
7
 10
243.808258667
 20
242.2431473793163
 30
0
 11
220.8613391113
 21
242.2431473793163
 31
0
  0
LINE
  8
0
 62
7
 10
206.7551922607
 20
242.2431473793163
 30
0
 11
183.8082727051
 21
242.2431473793163
 31
0
  0
LINE
  8
0
 62
7
 10
243.808258667
 20
243.8510019935163
 30
0
 11
218.5892468262
 21
243.8510019935163
 31
0
  0
LINE
  8
0
 62
7
 10
209.0272845459
 20
243.8510019935163
 30
0
 11
183.8082727051
 21
243.8510019935163
 31
0
  0
LINE
  8
0
 62
7
 10
243.808258667
 20
249.7170743812162
 30
0
 11
217.808270874
 21
249.7170743812162
 31
0
  0
LINE
  8
0
 62
7
 10
209.808260498
 20
249.7170743812162
 30
0
 11
183.8082727051
 21
249.7170743812162
 31
0
  0
LINE
  8
0
 62
7
 10
243.808258667
 20
251.4199625648163
 30
0
 11
217.808270874
 21
251.4199625648163
 31
0
  0
LINE
  8
0
 62
7
 10
209.808260498
 20
251.4199625648163
 30
0
 11
183.8082727051
 21
251.4199625648163
 31
0
  0
LINE
  8
0
 62
7
 10
220.8613391113
 20
242.2431473793163
 30
0
 11
218.5892468262
 21
243.8510019935163
 31
0
  0
LINE
  8
0
 62
7
 10
243.808258667
 20
255.8922223915163
 30
0
 11
218.5892468262
 21
255.8922223915163
 31
0
  0
LINE
  8
0
 62
7
 10
209.0272845459
 20
255.8922223915163
 30
0
 11
183.8082727051
 21
255.8922223915163
 31
0
  0
LINE
  8
0
 62
7
 10
243.808258667
 20
256.5457782997162
 30
0
 11
220.8613391113
 21
256.5457782997162
 31
0
  0
LINE
  8
0
 62
7
 10
206.7551922607
 20
256.5457782997162
 30
0
 11
183.8082727051
 21
256.5457782997162
 31
0
  0
LINE
  8
0
 62
7
 10
209.0272845459
 20
255.8922223915163
 30
0
 11
206.7551922607
 21
256.5457782997162
 31
0
  0
LINE
  8
0
 62
7
 10
209.808260498
 20
197.9302722719162
 30
0
 11
209.808260498
 21
216.3984804951874
 31
0
  0
LINE
  8
0
 62
7
 10
209.808260498
 20
216.6212096821874
 30
0
 11
209.808260498
 21
273.4182265831163
 31
0
  0
LINE
  8
0
 62
7
 10
210.8082519531
 20
200.9673357807874
 30
0
 11
210.8082519531
 21
273.4182265831163
 31
0
  0
LINE
  8
DEFAULT_1
 62
2
  6
CENTER
 10
213.8082649409
 20
195.0534445646162
 30
0
 11
213.8082649409
 21
351.9152783457163
 31
0
  0
LINE
  8
0
 62
7
 10
216.8082531738
 20
200.9673357807874
 30
0
 11
216.8082531738
 21
273.4182265831163
 31
0
  0
LINE
  8
0
 62
7
 10
217.808270874
 20
197.9302722719162
 30
0
 11
217.808270874
 21
273.4182265831163
 31
0
  0
LINE
  8
0
 62
7
 10
218.5892468262
 20
255.8922223915163
 30
0
 11
220.8613391113
 21
256.5457782997162
 31
0
  0
LINE
  8
0
 62
7
 10
206.7551922607
 20
242.2431473793163
 30
0
 11
209.0272845459
 21
243.8510019935163
 31
0
  0
LINE
  8
0
 62
7
 10
243.8082649409
 20
194.8651402998162
 30
0
 11
243.808258667
 21
351.9713028505162
 31
0
  0
LINE
  8
0
 62
7
 10
206.7551922607
 20
205.8165542256874
 30
0
 11
209.0272845459
 21
208.2181661640874
 31
0
  0
LINE
  8
0
 62
7
 10
206.7551922607
 20
194.8651444032162
 30
0
 11
209.808260498
 21
197.9302722719162
 31
0
  0
LINE
  8
0
 62
7
 10
209.0272845459
 20
216.3716448628874
 30
0
 11
206.7551922607
 21
215.5013042866874
 31
0
  0
LINE
  8
0
 62
7
 10
183.8082649409
 20
351.9713061249162
 30
0
 11
206.7551829516
 21
351.9713061249162
 31
0
  0
LINE
  8
0
 62
7
 10
220.8613469302
 20
351.9713061249162
 30
0
 11
243.8082649409
 21
351.9713061249162
 31
0
  0
LINE
  8
1
 62
7
 10
-51.55914450014311
 20
273.4182265831163
 30
0
 11
4.913225879516347
 21
273.4182265831163
 31
0
  0
LINE
  8
1
 62
2
  6
DASHDOT
 10
41.03581138266351
 20
89.36713421940608
 30
0
 11
-13.41177412031037
 21
89.36713421940608
 31
0
  0
LINE
  8
1
 62
2
  6
DASHDOT
 10
-58.68028146671622
 20
89.36713421940608
 30
0
 11
-13.41177412031037
 21
89.36713421940608
 31
0
  0
LINE
  8
1
 62
2
  6
DASHDOT
 10
108.5541036059158
 20
89.36713421940608
 30
0
 11
54.58822587968963
 21
89.36713421940608
 31
0
  0
LINE
  8
1
 62
2
  6
DASHDOT
 10
-17.41177412048373
 20
84.26713421940609
 30
0
 11
-17.41177412048373
 21
94.46713421940611
 31
0
  0
LINE
  8
1
 62
2
  6
DASHDOT
 10
67.58822587951624
 20
84.26713421940609
 30
0
 11
67.58822587951624
 21
94.46713421940611
 31
0
  0
LINE
  8
1
 62
2
  6
DASHDOT
 10
-17.41177412048373
 20
96.96713421940611
 30
0
 11
-17.41177412048373
 21
101.7671342194061
 31
0
  0
LINE
  8
1
 62
2
  6
DASHDOT
 10
54.58822587968963
 20
89.36713421940608
 30
0
 11
41.03581138266351
 21
89.36713421940608
 31
0
  0
LINE
  8
1
 62
7
 10
-51.86177412032313
 20
119.3671342194061
 30
0
 11
102.0382258796869
 21
119.3671342194061
 31
0
  0
LINE
  8
1
 62
7
 10
102.0382258796869
 20
119.3671342194061
 30
0
 11
102.0382258796256
 21
96.42020245670609
 31
0
  0
LINE
  8
1
 62
7
 10
102.0382258796869
 20
59.36713421940608
 30
0
 11
-51.86177412032313
 21
59.36713421940608
 31
0
  0
LINE
  8
1
 62
7
 10
-51.86177412032313
 20
59.36713421940608
 30
0
 11
-51.86177412036183
 21
82.3140556061061
 31
0
  0
LINE
  8
1
 62
2
  6
DASHDOT
 10
-17.41177412048373
 20
96.96713421940611
 30
0
 11
-17.41177412048373
 21
101.7671342194061
 31
0
  0
LINE
  8
1
 62
2
  6
DASHDOT
 10
-17.41177412048373
 20
96.96713421940611
 30
0
 11
-17.41177412048373
 21
101.7671342194061
 31
0
  0
LINE
  8
1
 62
7
 10
4.913225879516347
 20
119.3671342194061
 30
0
 11
4.913225879516347
 21
59.36713421940608
 31
0
  0
LINE
  8
1
 62
7
 10
18.93822587951632
 20
119.3671342194061
 30
0
 11
18.93822587951632
 21
59.36713421940608
 31
0
  0
LINE
  8
1
 62
7
 10
31.23822587951628
 20
119.3671342194061
 30
0
 11
31.23822587951628
 21
59.36713421940608
 31
0
  0
LINE
  8
1
 62
7
 10
45.26322587951626
 20
119.3671342194061
 30
0
 11
45.26322587951626
 21
59.3671342194061
 31
0
  0
LINE
  8
1
 62
2
  6
DASHDOT
 10
25.08822587951205
 20
120.8827231174111
 30
0
 11
25.08822587968963
 21
56.36713421940608
 31
0
  0
LINE
  8
1
 62
2
  6
DASHDOT
 10
4.913225879516347
 20
273.4182265831163
 30
0
 11
45.26322587951626
 21
273.4182265831163
 31
0
  0
LINE
  8
1
 62
2
  6
DASHDOT
 10
25.08822587951641
 20
259.3688455594506
 30
0
 11
25.08822587951624
 21
279.3386985169348
 31
0
  0
LINE
  8
1
 62
2
  6
DASHDOT
 10
25.08822587951641
 20
259.3688455594506
 30
0
 11
25.08822587951641
 21
239.3688455594506
 31
0
  0
LINE
  8
0
 62
2
 10
25.0882258795163
 20
274.4932265830754
 30
0
 11
25.0882258795163
 21
272.3432265830754
 31
0
  0
LINE
  8
0
 62
2
 10
26.16322587951629
 20
273.4182265830755
 30
0
 11
24.01322587951628
 21
273.4182265830755
 31
0
  0
LINE
  8
DEFAULT_1
 62
2
  6
CENTER
 10
25.08822587951629
 20
304.598807286453
 30
0
 11
25.08822587951628
 21
301.843211415825
 31
0
  0
LINE
  8
DEFAULT_1
 62
2
  6
CENTER
 10
25.08822587951629
 20
227.814357745431
 30
0
 11
25.08822587951636
 21
188.8481850194163
 31
0
  0
LINE
  8
1
 62
2
  6
DASHDOT
 10
178.130695197766
 20
273.4182265831163
 30
0
 11
248.130695197766
 21
273.4182265831163
 31
0
  0
LINE
  8
1
 62
7
 10
219.3663038848478
 20
273.4182265831163
 30
0
 11
219.6403900146
 21
270.3459045961162
 31
0
  0
LINE
  8
1
 62
7
 10
219.6403900146
 20
270.3459045961162
 30
0
 11
220.8613391113
 21
256.5457782997162
 31
0
  0
LINE
  8
1
 62
7
 10
208.233998452656
 20
273.4182265831163
 30
0
 11
207.9761413574
 21
270.3459045961162
 31
0
  0
LINE
  8
1
 62
7
 10
207.9761413574
 20
270.3459045961162
 30
0
 11
206.7551922607
 21
256.5457782997162
 31
0
  0
LINE
  8
1
 62
7
 10
183.8082688230003
 20
273.4182265831163
 30
0
 11
243.80826180395
 21
273.4182265831163
 31
0
  0
LINE
  8
1
 62
7
 10
242.8082614330779
 20
292.6330158091273
 30
0
 11
243.8082613931438
 21
293.6330158091273
 31
0
  0
LINE
  8
1
 62
7
 10
184.8082692819689
 20
292.6330158091273
 30
0
 11
183.808269331389
 21
293.6330158091273
 31
0
  0
LINE
  8
1
 62
7
 10
242.8082614330779
 20
292.6330158091273
 30
0
 11
242.8082614330779
 21
273.4182265831163
 31
0
  0
LINE
  8
1
 62
7
 10
25.08822587951623
 20
276.02449197861
 30
0
 11
25.0882258795163
 21
273.4182265831163
 31
0
  0
LINE
  8
1
 62
7
 10
25.0882258795163
 20
273.4182265830755
 30
0
 11
22.2439572298521
 21
273.4182265831163
 31
0
  0
LINE
  8
1
 62
7
 10
279.0000000105999
 20
414
 30
0
 11
279.0000000105999
 21
419
 31
0
  0
LINE
  8
0
 62
7
 10
31.23822587951628
 20
292.6330158091163
 30
0
 11
31.23822587951628
 21
297.6182265831163
 31
0
  0
LINE
  8
0
 62
2
 10
25.0882258795163
 20
275.5682265831164
 30
0
 11
25.0882258795163
 21
271.2682265831163
 31
0
  0
LINE
  8
0
 62
2
 10
27.23822587951631
 20
273.4182265831163
 30
0
 11
22.9382258795163
 21
273.4182265831163
 31
0
  0
LINE
  8
0
 62
7
 10
18.93822587951632
 20
297.6182265831163
 30
0
 11
18.93822587951632
 21
292.6330158091163
 31
0
  0
LINE
  8
1
 62
7
 10
25.0882258795163
 20
273.4182265831163
 30
0
 11
25.0882258795163
 21
279.5310096338673
 31
0
  0
LINE
  8
1
 62
2
  6
DASHDOT
 10
45.26322587951626
 20
273.4182265831163
 30
0
 11
41.0883258795163
 21
273.4182265831163
 31
0
  0
LINE
  8
DEFAULT_1
 62
2
  6
CENTER
 10
25.0882258795163
 20
238.6682265831163
 30
0
 11
25.08822587951624
 21
279.3386985169348
 31
0
  0
LINE
  8
0
 62
2
 10
25.0882258795163
 20
275.5682265831164
 30
0
 11
25.0882258795163
 21
271.2682265831163
 31
0
  0
LINE
  8
0
 62
2
 10
27.23822587951631
 20
273.4182265831163
 30
0
 11
22.9382258795163
 21
273.4182265831163
 31
0
  0
LINE
  8
0
 62
7
 10
30.23822587951628
 20
297.6182265831163
 30
0
 11
19.93822587951632
 21
297.6182265831163
 31
0
  0
LINE
  8
DEFAULT_1
 62
2
  6
CENTER
 10
25.08822587951613
 20
287.114545454545
 30
0
 11
25.0882258795161
 21
291.3399229498675
 31
0
  0
LINE
  8
DEFAULT_1
 62
2
  6
CENTER
 10
25.08822587951613
 20
287.114545454545
 30
0
 11
25.0882258795163
 21
304.9436997550744
 31
0
  0
ARC
  8
0
 62
7
 10
216.8082649409
 20
346.8691196310451
 30
0
 40
1
 50
270
 51
0
  0
ARC
  8
0
 62
7
 10
210.8082649409
 20
346.8691196310451
 30
0
 40
1
 50
180
 51
270
  0
ARC
  8
1
 62
7
 10
200.3491165722644
 20
345.8117873234307
 30
0
 40
7.999999999999906
 50
323.2026868640144
 51
36.79731313598683
  0
ARC
  8
1
 62
7
 10
227.2674147997371
 20
345.8117873234307
 30
0
 40
8.000000000001249
 50
143.2026868640197
 51
216.797313135979
  0
ARC
  8
DEFAULT_1
 62
2
  6
CENTER
 10
25.0882258795163
 20
273.4182265831163
 30
0
 40
72.84783778649997
 50
53.99999999999999
 51
54.03264730444126
  0
ARC
  8
DEFAULT_1
 62
2
  6
CENTER
 10
25.0882258795163
 20
273.4182265831163
 30
0
 40
72.84783778649998
 50
17.99999999999996
 51
18.03264730444123
  0
ARC
  8
DEFAULT_1
 62
2
  6
CENTER
 10
25.0882258795163
 20
273.4182265831163
 30
0
 40
72.84783778649999
 50
341.9999999999999
 51
342.0326473044412
  0
ARC
  8
DEFAULT_1
 62
2
  6
CENTER
 10
25.0882258795163
 20
273.4182265831163
 30
0
 40
72.84783778650001
 50
305.9999999999999
 51
306.0326473044412
  0
ARC
  8
DEFAULT_1
 62
2
  6
CENTER
 10
25.0882258795163
 20
273.4182265831163
 30
0
 40
72.84783778649998
 50
270
 51
270.0326473044412
  0
ARC
  8
DEFAULT_1
 62
2
  6
CENTER
 10
25.0882258795163
 20
273.4182265831163
 30
0
 40
72.84783778650002
 50
234
 51
234.0326473044413
  0
ARC
  8
DEFAULT_1
 62
2
  6
CENTER
 10
25.0882258795163
 20
273.4182265831163
 30
0
 40
72.84783778650002
 50
198
 51
198.0326473044413
  0
ARC
  8
DEFAULT_1
 62
2
  6
CENTER
 10
25.0882258795163
 20
273.4182265831163
 30
0
 40
72.84783778649999
 50
162.0000000000001
 51
162.0326473044413
  0
ARC
  8
DEFAULT_1
 62
2
  6
CENTER
 10
25.0882258795163
 20
273.4182265831163
 30
0
 40
72.84783778649997
 50
126
 51
126.0326473044413
  0
ARC
  8
0
 62
7
 10
-44.31177553687761
 20
92.3671297765061
 30
0
 40
1
 50
0
 51
90
  0
ARC
  8
0
 62
7
 10
-44.31177553687761
 20
86.3671297765061
 30
0
 40
1
 50
270
 51
0
  0
ARC
  8
0
 62
7
 10
94.48822729611302
 20
92.3671297765061
 30
0
 40
1
 50
90
 51
180
  0
ARC
  8
0
 62
7
 10
94.48822729611302
 20
86.3671297765061
 30
0
 40
1
 50
180
 51
270
  0
ARC
  8
0
 62
7
 10
216.8082649409
 20
199.9673335351874
 30
0
 40
1
 50
0
 51
90
  0
ARC
  8
0
 62
7
 10
210.8082649409
 20
199.9673335351874
 30
0
 40
1
 50
90
 51
180
  0
ARC
  8
DEFAULT_1
 62
2
  6
CENTER
 10
25.08822587951742
 20
273.4182265831162
 30
0
 40
72.84783778650007
 50
90.00000000000087
 51
90.03264730444212
  0
ARC
  8
1
 62
7
 10
200.3491165722644
 20
201.0246658428018
 30
0
 40
7.999999999999974
 50
323.2026868640139
 51
36.79731313598634
  0
ARC
  8
1
 62
7
 10
227.2674147997371
 20
201.0246658428018
 30
0
 40
8.000000000001199
 50
143.2026868640201
 51
216.7973131359797
  0
ARC
  8
0
 62
7
 10
25.0882258795163
 20
273.4182265831163
 30
0
 40
20.17499999999998
 50
270
 51
72.25190014829978
  0
ARC
  8
0
 62
7
 10
25.0882258795163
 20
273.4182265831163
 30
0
 40
20.17500000000006
 50
107.7480998517002
 51
270
  0
ARC
  8
1
 62
7
 10
30.73822587951628
 20
297.6182265831163
 30
0
 40
0.5
 50
0
 51
180
  0
ARC
  8
1
 62
7
 10
19.43822587951632
 20
297.6182265831163
 30
0
 40
0.5
 50
0
 51
180
  0
CIRCLE
  8
1
 62
2
  6
DASHDOT
 10
25.0882258795163
 20
273.4182265831163
 30
0
 40
80.89999999995931
  0
CIRCLE
  8
1
 62
7
 10
67.58822587951624
 20
89.36713421940608
 30
0
 40
4.499999999999773
  0
CIRCLE
  8
1
 62
7
 10
-17.41177412048373
 20
89.36713421940608
 30
0
 40
4.5
  0
TEXT
  8
1
 62
2
 10
257.050964197928
 20
8.379889807162961
 30
0
 40
3.2
  1
A
 41
0.8910000000000004
  0
TEXT
  8
1
 62
2
 10
220.268595051922
 20
7.579889807162771
 30
0
 40
3.2
  1
KUS6390T10
 41
0.8910000000000004
  0
TEXT
  8
1
 62
2
 10
306.483958048277
 20
49.7796838912541
 30
0
 40
3.2
  1
MatTop
 41
0.8910000000000004
  0
TEXT
  8
1
 62
2
 10
357.97709882241
 20
51.4563959150736
 30
0
 40
3.2
  1
%%p0.2
 41
0.8910000000000004
  0
TEXT
  8
1
 62
2
 10
381.98394413504
 20
49.9892728942316
 30
0
 40
3.2
  1
1:1
 41
0.8910000000000004
  0
TEXT
  8
1
 62
2
 10
377.97161700701
 20
35
 30
0
 40
3.2
  1
Fiore
 41
0.8910000000000004
  0
TEXT
  8
1
 62
2
 10
369.552439001056
 20
25
 30
0
 40
3.2
  1
16/06/00
 41
0.8910000000000004
  0
TEXT
  8
1
 62
2
 10
304.388068018503
 20
40
 30
0
 40
3.2
  1
PE
 41
0.8910000000000004
  0
TEXT
  8
1
 62
2
 10
327.748337378772
 20
38.4618777304727
 30
0
 40
3.2
  1
Bianco
 41
0.8910000000000004
  0
TEXT
  8
1
 62
2
 10
299.027798658233
 20
23.39999999996508
 30
0
 40
3.2
  1
KUS 6390 T10
 41
0.8910000000000004
  0
TEXT
  8
1
 62
2
 10
392.8891308398504
 20
72.66806387225489
 30
0
 40
2
  1
A
 50
90
 41
0.891
  0
TEXT
  8
1
 62
2
 10
392.8891308398504
 20
78.01656686626689
 30
0
 40
2
  1
16/06/00
 50
90
 41
0.891
  0
TEXT
  8
1
 62
2
 10
393.0104450975633
 20
96.83871657881809
 30
0
 40
2
  1
Fiore
 50
90
 41
0.891
  0
TEXT
  8
1
 62
2
 10
393.0550887444015
 20
110.3657415707504
 30
0
 40
2
  1
Modificato profilo dente (M00M003)
 50
90
 41
0.891
  0
DIMENSION
  8
1
  6
CONTINUOUS
 62
2
  2
*D0
  3
DMST_1
 10
67.58822587951624
 20
141.565026195621
 30
0
 11
25.08822587951626
 21
144.365026195621
 31
0
 12
0
 22
0
 32
0
 70
0
 13
-17.41177412048373
 23
94.46713421940611
 33
0
 14
67.58822587951624
 24
94.46713421940611
 34
0
 53
0
  0
DIMENSION
  8
1
  6
CONTINUOUS
 62
2
  2
*D1
  3
DMST_1
 10
136.134200545804
 20
93.36713421940608
 30
0
 11
133.334200545804
 21
89.36712903140609
 31
0
 12
0
 22
0
 32
0
 70
0
 13
94.48821733471303
 23
85.36712384340611
 33
0
 14
94.48821733471303
 24
93.36713421940608
 34
0
 50
90
 53
0
  0
DIMENSION
  8
1
  6
CONTINUOUS
 62
2
  2
*D2
  3
DMST_1
 10
217.808270874
 20
362.482935078247
 30
0
 11
213.808265686
 21
365.282935078247
 31
0
 12
0
 22
0
 32
0
 70
0
 13
209.808260498
 23
348.9061808943163
 33
0
 14
217.808270874
 24
348.9061808943163
 34
0
 53
0
  0
DIMENSION
  8
1
  6
CONTINUOUS
 62
2
  2
*D3
  3
DMST_1
 10
102.0382258796256
 20
31.8493849361514
 30
0
 11
25.0882258796319
 21
34.8093849361514
 31
0
 12
0
 22
0
 32
0
 70
0
 13
-51.86177412036183
 23
82.3140556061061
 33
0
 14
102.0382258796256
 24
82.3140556061061
 34
0
 53
0
  0
DIMENSION
  8
1
  6
CONTINUOUS
 62
2
  2
*D4
  3
DMST_1
 10
243.808258667
 20
375.261112634081
 30
0
 11
213.80826568605
 21
378.061112634081
 31
0
 12
0
 22
0
 32
0
 70
0
 13
183.8082727051
 23
351.9713028505162
 33
0
 14
243.808258667
 24
351.9713028505162
 34
0
 53
0
  0
DIMENSION
  8
1
  6
CONTINUOUS
 62
2
  2
*D5
  3
DMST_2
 10
93.48822587961303
 20
45.33249340614361
 30
0
 11
25.08822587961766
 21
47.0224934061436
 31
0
 12
0
 22
0
 32
0
 70
0
 13
-43.31177412037771
 23
86.36714154360608
 33
0
 14
93.48822587961305
 24
86.36714154360608
 34
0
 53
0
  0
DIMENSION
  8
1
  6
CONTINUOUS
 62
2
  2
*D6
  3
DMST_3
 10
93.47108592073234
 20
230.1909845640275
 30
0
 11
-55.0667015822074
 21
327.967399375275
 31
0
 12
0
 22
0
 32
0
 70
3
  1
Dp<>
 15
-43.29463416169975
 25
316.6454686022051
 35
0
 40
0
 53
0
  0
INSERT
  8
0
  2
TOP__2
 10
420.0000000105999
 20
0
 30
0
  0
ENDSEC
  0
EOF
