  0
SECTION
  2
HEADER
  9
$ACADVER
  1
AC1015
  9
$ACADMAINTVER
 70
    20
  9
$DWGCODEPAGE
  3
ANSI_1252
  9
$INSBASE
 10
0.0
 20
0.0
 30
0.0
  9
$EXTMIN
 10
170.971489290303
 20
58.4767723563533
 30
0.0
  9
$EXTMAX
 10
380.9714892903114
 20
355.4767723563533
 30
0.0
  9
$LIMMIN
 10
0.0
 20
0.0
  9
$LIMMAX
 10
420.0
 20
297.0
  9
$ORTHOMODE
 70
     1
  9
$REGENMODE
 70
     1
  9
$FILLMODE
 70
     1
  9
$QTEXTMODE
 70
     0
  9
$MIRRTEXT
 70
     1
  9
$LTSCALE
 40
5.0
  9
$ATTMODE
 70
     1
  9
$TEXTSIZE
 40
3.0
  9
$TRACEWID
 40
10.0
  9
$TEXTSTYLE
  7
STANDARD
  9
$CLAYER
  8
0
  9
$CELTYPE
  6
BYLAYER
  9
$CECOLOR
 62
   256
  9
$CELTSCALE
 40
1.0
  9
$DISPSILH
 70
     0
  9
$DIMSCALE
 40
1.0
  9
$DIMASZ
 40
4.0
  9
$DIMEXO
 40
2.5
  9
$DIMDLI
 40
10.0
  9
$DIMRND
 40
0.0
  9
$DIMDLE
 40
1.25
  9
$DIMEXE
 40
2.5
  9
$DIMTP
 40
0.0
  9
$DIMTM
 40
0.0
  9
$DIMTXT
 40
3.0
  9
$DIMCEN
 40
3.0
  9
$DIMTSZ
 40
0.0
  9
$DIMTOL
 70
     0
  9
$DIMLIM
 70
     0
  9
$DIMTIH
 70
     0
  9
$DIMTOH
 70
     0
  9
$DIMSE1
 70
     0
  9
$DIMSE2
 70
     0
  9
$DIMTAD
 70
     1
  9
$DIMZIN
 70
     9
  9
$DIMBLK
  1

  9
$DIMASO
 70
     1
  9
$DIMSHO
 70
     0
  9
$DIMPOST
  1

  9
$DIMAPOST
  1

  9
$DIMALT
 70
     0
  9
$DIMALTD
 70
     2
  9
$DIMALTF
 40
0.039
  9
$DIMLFAC
 40
1.0
  9
$DIMTOFL
 70
     1
  9
$DIMTVP
 40
1.5
  9
$DIMTIX
 70
     0
  9
$DIMSOXD
 70
     0
  9
$DIMSAH
 70
     0
  9
$DIMBLK1
  1

  9
$DIMBLK2
  1

  9
$DIMSTYLE
  2
MCC
  9
$DIMCLRD
 70
     2
  9
$DIMCLRE
 70
     2
  9
$DIMCLRT
 70
     3
  9
$DIMTFAC
 40
0.6666666666666666
  9
$DIMGAP
 40
1.0
  9
$DIMJUST
 70
     0
  9
$DIMSD1
 70
     0
  9
$DIMSD2
 70
     0
  9
$DIMTOLJ
 70
     1
  9
$DIMTZIN
 70
     9
  9
$DIMALTZ
 70
     1
  9
$DIMALTTZ
 70
     1
  9
$DIMUPT
 70
     0
  9
$DIMDEC
 70
     3
  9
$DIMTDEC
 70
     3
  9
$DIMALTU
 70
     2
  9
$DIMALTTD
 70
     2
  9
$DIMTXSTY
  7
STANDARD
  9
$DIMAUNIT
 70
     0
  9
$DIMADEC
 70
     3
  9
$DIMALTRND
 40
0.0
  9
$DIMAZIN
 70
     2
  9
$DIMDSEP
 70
    46
  9
$DIMATFIT
 70
     0
  9
$DIMFRAC
 70
     0
  9
$DIMLDRBLK
  1

  9
$DIMLUNIT
 70
     2
  9
$DIMLWD
 70
    -2
  9
$DIMLWE
 70
    -2
  9
$DIMTMOVE
 70
     0
  9
$LUNITS
 70
     2
  9
$LUPREC
 70
     2
  9
$SKETCHINC
 40
0.0
  9
$FILLETRAD
 40
0.3
  9
$AUNITS
 70
     0
  9
$AUPREC
 70
     2
  9
$MENU
  1
ACAD
  9
$ELEVATION
 40
0.0
  9
$PELEVATION
 40
0.0
  9
$THICKNESS
 40
0.0
  9
$LIMCHECK
 70
     0
  9
$CHAMFERA
 40
0.0
  9
$CHAMFERB
 40
0.0
  9
$CHAMFERC
 40
0.0
  9
$CHAMFERD
 40
0.0
  9
$SKPOLY
 70
     1
  9
$TDCREATE
 40
2453914.555827905
  9
$TDUCREATE
 40
2453914.514161239
  9
$TDUPDATE
 40
2454882.562309907
  9
$TDUUPDATE
 40
2454882.520643241
  9
$TDINDWG
 40
0.0159305787
  9
$TDUSRTIMER
 40
0.0159305787
  9
$USRTIMER
 70
     1
  9
$ANGBASE
 50
0.0
  9
$ANGDIR
 70
     0
  9
$PDMODE
 70
     1
  9
$PDSIZE
 40
0.0
  9
$PLINEWID
 40
0.0
  9
$SPLFRAME
 70
     0
  9
$SPLINETYPE
 70
     6
  9
$SPLINESEGS
 70
     6
  9
$HANDSEED
  5
9AB
  9
$SURFTAB1
 70
    12
  9
$SURFTAB2
 70
    12
  9
$SURFTYPE
 70
     6
  9
$SURFU
 70
    12
  9
$SURFV
 70
    12
  9
$UCSBASE
  2

  9
$UCSNAME
  2

  9
$UCSORG
 10
0.0
 20
0.0
 30
0.0
  9
$UCSXDIR
 10
1.0
 20
0.0
 30
0.0
  9
$UCSYDIR
 10
0.0
 20
1.0
 30
0.0
  9
$UCSORTHOREF
  2

  9
$UCSORTHOVIEW
 70
     0
  9
$UCSORGTOP
 10
0.0
 20
0.0
 30
0.0
  9
$UCSORGBOTTOM
 10
0.0
 20
0.0
 30
0.0
  9
$UCSORGLEFT
 10
0.0
 20
0.0
 30
0.0
  9
$UCSORGRIGHT
 10
0.0
 20
0.0
 30
0.0
  9
$UCSORGFRONT
 10
0.0
 20
0.0
 30
0.0
  9
$UCSORGBACK
 10
0.0
 20
0.0
 30
0.0
  9
$PUCSBASE
  2

  9
$PUCSNAME
  2

  9
$PUCSORG
 10
0.0
 20
0.0
 30
0.0
  9
$PUCSXDIR
 10
1.0
 20
0.0
 30
0.0
  9
$PUCSYDIR
 10
0.0
 20
1.0
 30
0.0
  9
$PUCSORTHOREF
  2

  9
$PUCSORTHOVIEW
 70
     0
  9
$PUCSORGTOP
 10
0.0
 20
0.0
 30
0.0
  9
$PUCSORGBOTTOM
 10
0.0
 20
0.0
 30
0.0
  9
$PUCSORGLEFT
 10
0.0
 20
0.0
 30
0.0
  9
$PUCSORGRIGHT
 10
0.0
 20
0.0
 30
0.0
  9
$PUCSORGFRONT
 10
0.0
 20
0.0
 30
0.0
  9
$PUCSORGBACK
 10
0.0
 20
0.0
 30
0.0
  9
$USERI1
 70
     0
  9
$USERI2
 70
     0
  9
$USERI3
 70
     0
  9
$USERI4
 70
     0
  9
$USERI5
 70
     0
  9
$USERR1
 40
0.0
  9
$USERR2
 40
0.0
  9
$USERR3
 40
0.0
  9
$USERR4
 40
0.0
  9
$USERR5
 40
0.0
  9
$WORLDVIEW
 70
     0
  9
$SHADEDGE
 70
     3
  9
$SHADEDIF
 70
    70
  9
$TILEMODE
 70
     1
  9
$MAXACTVP
 70
    16
  9
$PINSBASE
 10
0.0
 20
0.0
 30
0.0
  9
$PLIMCHECK
 70
     0
  9
$PEXTMIN
 10
1.000000000000000E+20
 20
1.000000000000000E+20
 30
1.000000000000000E+20
  9
$PEXTMAX
 10
-1.000000000000000E+20
 20
-1.000000000000000E+20
 30
-1.000000000000000E+20
  9
$PLIMMIN
 10
0.0
 20
0.0
  9
$PLIMMAX
 10
12.0
 20
9.0
  9
$UNITMODE
 70
     0
  9
$VISRETAIN
 70
     0
  9
$PLINEGEN
 70
     0
  9
$PSLTSCALE
 70
     0
  9
$TREEDEPTH
 70
  3020
  9
$CMLSTYLE
  2
STANDARD
  9
$CMLJUST
 70
     0
  9
$CMLSCALE
 40
1.0
  9
$PROXYGRAPHICS
 70
     1
  9
$MEASUREMENT
 70
     1
  9
$CELWEIGHT
370
    -1
  9
$ENDCAPS
280
     0
  9
$JOINSTYLE
280
     0
  9
$LWDISPLAY
290
     0
  9
$INSUNITS
 70
     0
  9
$HYPERLINKBASE
  1

  9
$STYLESHEET
  1

  9
$XEDIT
290
     1
  9
$CEPSNTYPE
380
     0
  9
$PSTYLEMODE
290
     1
  9
$FINGERPRINTGUID
  2
{1465C249-AE36-4C93-89D1-611F1BB20ACF}
  9
$VERSIONGUID
  2
{02C54F59-C1A8-421A-A595-9EAC48DD097E}
  9
$EXTNAMES
290
     1
  9
$PSVPSCALE
 40
0.0
  9
$OLESTARTUP
290
     0
  0
ENDSEC
  0
SECTION
  2
CLASSES
  0
CLASS
  1
ACDBDICTIONARYWDFLT
  2
AcDbDictionaryWithDefault
  3
ObjectDBX Classes
 90
        0
280
     0
281
     0
  0
CLASS
  1
ACDBPLACEHOLDER
  2
AcDbPlaceHolder
  3
ObjectDBX Classes
 90
        0
280
     0
281
     0
  0
CLASS
  1
LAYOUT
  2
AcDbLayout
  3
ObjectDBX Classes
 90
        0
280
     0
281
     0
  0
CLASS
  1
TABLESTYLE
  2
AcDbTableStyle
  3
ObjectDBX Classes
 90
     2047
280
     0
281
     0
  0
CLASS
  1
SORTENTSTABLE
  2
AcDbSortentsTable
  3
ObjectDBX Classes
 90
        0
280
     0
281
     0
  0
CLASS
  1
DICTIONARYVAR
  2
AcDbDictionaryVar
  3
ObjectDBX Classes
 90
        0
280
     0
281
     0
  0
CLASS
  1
PLOTSETTINGS
  2
AcDbPlotSettings
  3
ObjectDBX Classes
 90
        0
280
     0
281
     0
  0
ENDSEC
  0
SECTION
  2
TABLES
  0
TABLE
  2
VPORT
  5
15
330
0
100
AcDbSymbolTable
 70
     2
  0
VPORT
  5
99B
330
15
100
AcDbSymbolTableRecord
100
AcDbViewportTableRecord
  2
*Active
 70
     0
 10
0.0
 20
0.0
 11
1.0
 21
1.0
 12
275.9774790820404
 22
206.9838158364098
 13
0.0
 23
0.0
 14
1.0
 24
1.0
 15
0.0
 25
0.0
 16
0.0
 26
0.0
 36
1.0
 17
0.0
 27
0.0
 37
0.0
 40
299.3303053238761
 41
1.808236808236808
 42
50.0
 43
0.0
 44
0.0
 50
0.0
 51
0.0
 71
     0
 72
  2000
 73
     1
 74
     0
 75
     0
 76
     0
 77
     0
 78
     2
281
     0
 65
     1
110
0.0
120
0.0
130
0.0
111
1.0
121
0.0
131
0.0
112
0.0
122
1.0
132
0.0
 79
     0
146
0.0
  0
ENDTAB
  0
TABLE
  2
LTYPE
  5
12
330
0
100
AcDbSymbolTable
 70
     3
  0
LTYPE
  5
1F
330
12
100
AcDbSymbolTableRecord
100
AcDbLinetypeTableRecord
  2
BYBLOCK
 70
     0
  3

 72
    65
 73
     0
 40
0.0
  0
LTYPE
  5
20
330
12
100
AcDbSymbolTableRecord
100
AcDbLinetypeTableRecord
  2
BYLAYER
 70
     0
  3

 72
    65
 73
     0
 40
0.0
  0
LTYPE
  5
21
330
12
100
AcDbSymbolTableRecord
100
AcDbLinetypeTableRecord
  2
CONTINUOUS
 70
     0
  3
Solid line
 72
    65
 73
     0
 40
0.0
  0
LTYPE
  5
2C
330
12
100
AcDbSymbolTableRecord
100
AcDbLinetypeTableRecord
  2
CENTER
 70
     0
  3
____ _ ____ _ ____ _ ____ _ ____ _ ____ _ ____
 72
    65
 73
     4
 40
2.0
 49
1.25
 74
     0
 49
-0.25
 74
     0
 49
0.25
 74
     0
 49
-0.25
 74
     0
  0
LTYPE
  5
33
330
12
100
AcDbSymbolTableRecord
100
AcDbLinetypeTableRecord
  2
DOT
 70
     0
  3
...............................................
 72
    65
 73
     2
 40
0.25
 49
0.0
 74
     0
 49
-0.25
 74
     0
  0
ENDTAB
  0
TABLE
  2
LAYER
  5
F
330
0
100
AcDbSymbolTable
 70
     5
  0
LAYER
  5
1C
330
F
100
AcDbSymbolTableRecord
100
AcDbLayerTableRecord
  2
0
 70
     0
 62
     7
  6
CONTINUOUS
370
    -3
390
318
  0
LAYER
  5
3B
330
F
100
AcDbSymbolTableRecord
100
AcDbLayerTableRecord
  2
3
 70
     0
 62
     3
  6
CONTINUOUS
370
    -3
390
318
  0
LAYER
  5
3C
330
F
100
AcDbSymbolTableRecord
100
AcDbLayerTableRecord
  2
HARTLIJN
 70
     0
 62
     1
  6
CENTER
370
    -3
390
318
  0
LAYER
  5
3E
330
F
100
AcDbSymbolTableRecord
100
AcDbLayerTableRecord
  2
DEFPOINTS
 70
     0
 62
     7
  6
DOT
290
     0
370
    -3
390
318
  0
LAYER
  5
45
330
F
100
AcDbSymbolTableRecord
100
AcDbLayerTableRecord
  2
AME_FRZ
 70
     1
 62
     7
  6
CONTINUOUS
370
    -3
390
318
  0
ENDTAB
  0
TABLE
  2
STYLE
  5
10
330
0
100
AcDbSymbolTable
 70
     1
  0
STYLE
  5
1D
330
10
100
AcDbSymbolTableRecord
100
AcDbTextStyleTableRecord
  2
STANDARD
 70
     0
 40
0.0
 41
1.0
 50
0.0
 71
     0
 42
3.0
  3
SIMPLEX
  4

  0
ENDTAB
  0
TABLE
  2
VIEW
  5
13
330
0
100
AcDbSymbolTable
 70
     0
  0
ENDTAB
  0
TABLE
  2
UCS
  5
14
330
0
100
AcDbSymbolTable
 70
     0
  0
ENDTAB
  0
TABLE
  2
APPID
  5
16
330
0
100
AcDbSymbolTable
 70
     5
  0
APPID
  5
1E
330
16
100
AcDbSymbolTableRecord
100
AcDbRegAppTableRecord
  2
ACAD
 70
     0
  0
APPID
  5
38
330
16
100
AcDbSymbolTableRecord
100
AcDbRegAppTableRecord
  2
AME_SOL
 70
     0
  0
APPID
  5
60E
330
16
100
AcDbSymbolTableRecord
100
AcDbRegAppTableRecord
  2
CONTENTTABDATA
 70
     0
  0
APPID
  5
60F
330
16
100
AcDbSymbolTableRecord
100
AcDbRegAppTableRecord
  2
CONTENTCURRENTTAB
 70
     0
  0
APPID
  5
759
330
16
100
AcDbSymbolTableRecord
100
AcDbRegAppTableRecord
  2
ACAD_DSTYLE_DIMTEXT_FILL
 70
     0
  0
ENDTAB
  0
TABLE
  2
DIMSTYLE
  5
17
330
0
100
AcDbSymbolTable
 70
     2
100
AcDbDimStyleTable
 71
     1
340
39
  0
DIMSTYLE
105
39
102
{ACAD_REACTORS
330
7BA
330
7C7
330
7D4
330
7FC
330
816
102
}
330
17
100
AcDbSymbolTableRecord
100
AcDbDimStyleTableRecord
  2
MCC
 70
     0
 41
4.0
 42
2.5
 43
10.0
 44
2.5
 46
1.25
 73
     0
 74
     0
 77
     1
 78
     9
 79
     2
140
3.0
141
3.0
143
0.039
145
1.5
146
0.6666666666666666
147
1.0
172
     1
176
     2
177
     2
178
     3
179
     3
271
     3
272
     3
284
     9
285
     1
286
     1
289
     0
340
1D
  0
DIMSTYLE
105
60B
330
17
100
AcDbSymbolTableRecord
100
AcDbDimStyleTableRecord
  2
STANDARD
 70
     0
340
1D
  0
ENDTAB
  0
TABLE
  2
BLOCK_RECORD
  5
E
330
0
100
AcDbSymbolTable
 70
     9
  0
BLOCK_RECORD
  5
25
102
{ACAD_XDICTIONARY
360
35F
102
}
330
E
100
AcDbSymbolTableRecord
100
AcDbBlockTableRecord
  2
*MODEL_SPACE
340
31B
  0
BLOCK_RECORD
  5
22
102
{ACAD_XDICTIONARY
360
35D
102
}
330
E
100
AcDbSymbolTableRecord
100
AcDbBlockTableRecord
  2
*PAPER_SPACE
340
31C
  0
BLOCK_RECORD
  5
29
330
E
100
AcDbSymbolTableRecord
100
AcDbBlockTableRecord
  2
AME_NIL
340
0
102
{BLKREFS
331
6
102
}
  0
BLOCK_RECORD
  5
2A
330
E
100
AcDbSymbolTableRecord
100
AcDbBlockTableRecord
  2
AME_SOL
340
0
102
{BLKREFS
331
D
102
}
  0
BLOCK_RECORD
  5
602
330
E
100
AcDbSymbolTableRecord
100
AcDbBlockTableRecord
  2
A$C1D384272
340
0
102
{BLKREFS
331
71B
102
}
  0
BLOCK_RECORD
  5
69D
102
{ACAD_XDICTIONARY
360
71C
102
}
330
E
100
AcDbSymbolTableRecord
100
AcDbBlockTableRecord
  2
calca4
340
0
102
{BLKREFS
331
71F
102
}
  0
BLOCK_RECORD
  5
7BB
330
E
100
AcDbSymbolTableRecord
100
AcDbBlockTableRecord
  2
*D4
340
0
  0
BLOCK_RECORD
  5
7C8
330
E
100
AcDbSymbolTableRecord
100
AcDbBlockTableRecord
  2
*D5
340
0
  0
BLOCK_RECORD
  5
7D5
330
E
100
AcDbSymbolTableRecord
100
AcDbBlockTableRecord
  2
*D6
340
0
  0
BLOCK_RECORD
  5
7FD
330
E
100
AcDbSymbolTableRecord
100
AcDbBlockTableRecord
  2
*D7
340
0
  0
BLOCK_RECORD
  5
817
330
E
100
AcDbSymbolTableRecord
100
AcDbBlockTableRecord
  2
*D8
340
0
  0
ENDTAB
  0
ENDSEC
  0
SECTION
  2
BLOCKS
  0
BLOCK
  5
48
330
25
100
AcDbEntity
  8
0
100
AcDbBlockBegin
  2
*MODEL_SPACE
 70
     0
 10
0.0
 20
0.0
 30
0.0
  3
*MODEL_SPACE
  1

  0
ENDBLK
  5
49
330
25
100
AcDbEntity
  8
0
100
AcDbBlockEnd
  0
BLOCK
  5
46
330
22
100
AcDbEntity
 67
     1
  8
0
100
AcDbBlockBegin
  2
*PAPER_SPACE
 70
     0
 10
0.0
 20
0.0
 30
0.0
  3
*PAPER_SPACE
  1

  0
ENDBLK
  5
47
330
22
100
AcDbEntity
 67
     1
  8
0
100
AcDbBlockEnd
  0
BLOCK
  5
4
330
29
100
AcDbEntity
  8
0
100
AcDbBlockBegin
  2
AME_NIL
 70
     0
 10
0.0
 20
0.0
 30
0.0
  3
AME_NIL
  1
AME_NIL
  0
ENDBLK
  5
5
330
29
100
AcDbEntity
  8
0
100
AcDbBlockEnd
  0
BLOCK
  5
7
330
2A
100
AcDbEntity
  8
0
100
AcDbBlockBegin
  2
AME_SOL
 70
     0
 10
0.0
 20
0.0
 30
0.0
  3
AME_SOL
  1
AME_SOL
  0
ENDBLK
  5
8
330
2A
100
AcDbEntity
  8
0
100
AcDbBlockEnd
  0
BLOCK
  5
603
330
602
100
AcDbEntity
  8
0
100
AcDbBlockBegin
  2
A$C1D384272
 70
     0
 10
0.0
 20
0.0
 30
0.0
  3
A$C1D384272
  1

  0
LWPOLYLINE
  5
604
330
602
100
AcDbEntity
  8
3
100
AcDbPolyline
 90
        4
 70
     1
 43
0.0
 10
14.5
 20
4.000000000000028
 10
14.5
 20
6.000000000000028
 10
20.5
 20
7.000000000000028
 10
20.5
 20
3.000000000000028
  0
LINE
  5
605
330
602
100
AcDbEntity
  8
HARTLIJN
 48
0.5
100
AcDbLine
 10
13.5
 20
5.000000000000028
 30
0.0
 11
22.0
 21
5.000000000000028
 31
0.0
  0
CIRCLE
  5
606
330
602
100
AcDbEntity
  8
3
100
AcDbCircle
 10
5.75
 20
5.000000000000028
 30
0.0
 40
2.0
  0
CIRCLE
  5
607
330
602
100
AcDbEntity
  8
3
100
AcDbCircle
 10
5.75
 20
5.000000000000028
 30
0.0
 40
1.0
  0
LWPOLYLINE
  5
608
330
602
100
AcDbEntity
  8
HARTLIJN
 48
0.5
100
AcDbPolyline
 90
        2
 70
     0
 43
0.0
 10
2.000000000000014
 20
5.000000000000028
 10
9.500000000000014
 20
5.000000000000028
  0
LINE
  5
609
330
602
100
AcDbEntity
  8
HARTLIJN
 48
0.5
100
AcDbLine
 10
5.75
 20
1.500000000000028
 30
0.0
 11
5.75
 21
8.500000000000028
 31
0.0
  0
ENDBLK
  5
60A
330
602
100
AcDbEntity
  8
0
100
AcDbBlockEnd
  0
BLOCK
  5
71D
330
69D
100
AcDbEntity
  8
0
100
AcDbBlockBegin
  2
calca4
 70
     2
 10
0.0
 20
0.0
 30
0.0
  3
calca4
  1

  0
ATTDEF
  5
69E
330
69D
100
AcDbEntity
  8
3
100
AcDbText
 10
22.00000045003116
 20
30.50000017354523
 30
0.0
 40
4.0
  1

100
AcDbAttributeDefinition
  3
Name ?
  2
NAME
 70
     0
  0
ATTDEF
  5
69F
330
69D
100
AcDbEntity
  8
3
100
AcDbText
 10
22.00000045003116
 20
26.00000017354523
 30
0.0
 40
2.5
  1

100
AcDbAttributeDefinition
  3
Addtional name ?
  2
ADDITIONAL_NAME
 70
     0
  0
ATTDEF
  5
6A0
330
69D
100
AcDbEntity
  8
3
100
AcDbText
 10
116.0000004500311
 20
12.48000017354536
 30
0.0
 40
4.5
  1
XXX.XX.XX 0_
100
AcDbAttributeDefinition
  3
Number ?
  2
DRAWING_NO.
 70
     0
  0
ATTDEF
  5
6A1
330
69D
100
AcDbEntity
  8
3
100
AcDbText
 10
130.038658596996
 20
31.25000017354526
 30
0.0
 40
2.0
  1

 41
0.8
 11
130.038658596996
 21
32.25000017354526
 31
0.0
100
AcDbAttributeDefinition
  3
Scale ?
  2
SCALE
 70
     0
 74
     2
  0
ATTDEF
  5
6A2
330
69D
100
AcDbEntity
  8
3
100
AcDbText
 10
175.9809528309835
 20
31.25000017354532
 30
0.0
 40
2.0
  1
dd/mm/jj
 41
0.8
 72
     1
 11
182.0000004500311
 21
32.25000017354532
 31
0.0
100
AcDbAttributeDefinition
  3
Date drawn ?
  2
DATE
 70
     0
 74
     2
  0
ATTDEF
  5
6A3
330
69D
100
AcDbEntity
  8
3
100
AcDbText
 10
194.5000004500311
 20
31.25000017354532
 30
0.0
 40
2.0
  1

 72
     1
 11
194.5000004500311
 21
32.25000017354532
 31
0.0
100
AcDbAttributeDefinition
  3
Initials drawn ?
  2
INITIALS
 70
     0
 74
     2
  0
ATTDEF
  5
6A4
330
69D
100
AcDbEntity
  8
3
100
AcDbText
 10
22.00000045003116
 20
62.00000017354523
 30
0.0
 40
2.5
  1

100
AcDbAttributeDefinition
  3
Material ?
  2
MATERIAL
 70
     0
  0
ATTDEF
  5
6A5
330
69D
100
AcDbEntity
  8
3
100
AcDbText
 10
22.00000045003116
 20
52.00000017354525
 30
0.0
 40
2.5
  1

100
AcDbAttributeDefinition
  3
Product treatment ?
  2
PRODUCTTREATMENT
 70
     0
  0
ATTDEF
  5
6A6
330
69D
100
AcDbEntity
  8
3
100
AcDbText
 10
22.00000045003116
 20
42.00000017354523
 30
0.0
 40
2.5
  1

100
AcDbAttributeDefinition
  3
Semifinished product ?
  2
SEMIFINISHED_PRODUCT
 70
     0
  0
ATTDEF
  5
6A7
330
69D
100
AcDbEntity
  8
3
100
AcDbText
 10
130.0000004500311
 20
25.75000017354526
 30
0.0
 40
2.0
  1
mm
 41
0.8
 11
130.0000004500311
 21
26.75000017354526
 31
0.0
100
AcDbAttributeDefinition
  3
Units of dimension ?
  2
UNITS
 70
     0
 74
     2
  0
ATTDEF
  5
6A8
330
69D
100
AcDbEntity
  8
3
100
AcDbText
 10
182.0000004500311
 20
25.75000017354526
 30
0.0
 40
2.0
  1

 41
0.8
 72
     1
 11
182.0000004500311
 21
26.75000017354526
 31
0.0
100
AcDbAttributeDefinition
  3
Date checked ?
  2
DATE
 70
     0
 74
     2
  0
ATTDEF
  5
6A9
330
69D
100
AcDbEntity
  8
3
100
AcDbText
 10
194.5000004500311
 20
25.75000017354526
 30
0.0
 40
2.0
  1

 72
     1
 11
194.5000004500311
 21
26.75000017354526
 31
0.0
100
AcDbAttributeDefinition
  3
Initials checked ?
  2
INITIALS
 70
     0
 74
     2
  0
ATTDEF
  5
6AA
330
69D
100
AcDbEntity
  8
3
100
AcDbText
 10
116.5000004500311
 20
41.50000017354523
 30
0.0
 40
2.0
  1

 72
     1
 11
116.5000004500311
 21
42.50000017354523
 31
0.0
100
AcDbAttributeDefinition
  3
Rev 1
  2
REV1
 70
     0
 74
     2
  0
ATTDEF
  5
6AB
330
69D
100
AcDbEntity
  8
3
100
AcDbText
 10
122.0000004500311
 20
41.50000017354523
 30
0.0
 40
2.0
  1

100
AcDbAttributeDefinition
  3
Change 1
  2
Change 1
 70
     0
  0
ATTDEF
  5
6AC
330
69D
100
AcDbEntity
  8
3
100
AcDbText
 10
182.0000004500311
 20
41.50000017354523
 30
0.0
 40
2.0
  1

 41
0.8
 72
     1
 11
182.0000004500311
 21
42.50000017354523
 31
0.0
100
AcDbAttributeDefinition
  3
Date revision 1
  2
DATE 1
 70
     0
 74
     2
  0
ATTDEF
  5
6AD
330
69D
100
AcDbEntity
  8
3
100
AcDbText
 10
194.5000004500311
 20
41.50000017354523
 30
0.0
 40
2.0
  1

 72
     1
 11
194.5000004500311
 21
42.50000017354523
 31
0.0
100
AcDbAttributeDefinition
  3
Initials 1
  2
Initial1
 70
     0
 74
     2
  0
ATTDEF
  5
6AE
330
69D
100
AcDbEntity
  8
3
100
AcDbText
 10
116.5000004500311
 20
46.50000017354523
 30
0.0
 40
2.0
  1

 72
     1
 11
116.5000004500311
 21
47.50000017354523
 31
0.0
100
AcDbAttributeDefinition
  3
Rev 2
  2
Rev2
 70
     0
 74
     2
  0
ATTDEF
  5
6AF
330
69D
100
AcDbEntity
  8
3
100
AcDbText
 10
122.0000004500311
 20
46.50000017354523
 30
0.0
 40
2.0
  1

100
AcDbAttributeDefinition
  3
Change 2
  2
Change 2
 70
     0
  0
ATTDEF
  5
6B0
330
69D
100
AcDbEntity
  8
3
100
AcDbText
 10
182.0000004500311
 20
46.50000017354523
 30
0.0
 40
2.0
  1

 41
0.8
 72
     1
 11
182.0000004500311
 21
47.50000017354523
 31
0.0
100
AcDbAttributeDefinition
  3
Date revision 2
  2
Date 2
 70
     0
 74
     2
  0
ATTDEF
  5
6B1
330
69D
100
AcDbEntity
  8
3
100
AcDbText
 10
194.5000004500311
 20
46.50000017354523
 30
0.0
 40
2.0
  1

 72
     1
 11
194.5000004500311
 21
47.50000017354523
 31
0.0
100
AcDbAttributeDefinition
  3
Initials 2
  2
Initial2
 70
     0
 74
     2
  0
ATTDEF
  5
6B2
330
69D
100
AcDbEntity
  8
3
100
AcDbText
 10
116.5000004500311
 20
51.50000017354523
 30
0.0
 40
2.0
  1

 72
     1
 11
116.5000004500311
 21
52.50000017354523
 31
0.0
100
AcDbAttributeDefinition
  3
Rev 3
  2
Rev3
 70
     0
 74
     2
  0
ATTDEF
  5
6B3
330
69D
100
AcDbEntity
  8
3
100
AcDbText
 10
122.0000004500311
 20
51.50000017354523
 30
0.0
 40
2.0
  1

100
AcDbAttributeDefinition
  3
Change 3
  2
Change 3
 70
     0
  0
ATTDEF
  5
6B4
330
69D
100
AcDbEntity
  8
3
100
AcDbText
 10
182.0000004500311
 20
51.50000017354523
 30
0.0
 40
2.0
  1

 41
0.8
 72
     1
 11
182.0000004500311
 21
52.50000017354523
 31
0.0
100
AcDbAttributeDefinition
  3
Date revision 3
  2
Date 3
 70
     0
 74
     2
  0
ATTDEF
  5
6B5
330
69D
100
AcDbEntity
  8
3
100
AcDbText
 10
194.5000004500311
 20
51.50000017354523
 30
0.0
 40
2.0
  1

 72
     1
 11
194.5000004500311
 21
52.50000017354523
 31
0.0
100
AcDbAttributeDefinition
  3
Initials 3
  2
Initial3
 70
     0
 74
     2
  0
ATTDEF
  5
6B6
330
69D
100
AcDbEntity
  8
3
100
AcDbText
 10
116.5000004500311
 20
56.50000017354523
 30
0.0
 40
2.0
  1

 72
     1
 11
116.5000004500311
 21
57.50000017354523
 31
0.0
100
AcDbAttributeDefinition
  3
Rev 4
  2
Rev4
 70
     0
 74
     2
  0
ATTDEF
  5
6B7
330
69D
100
AcDbEntity
  8
3
100
AcDbText
 10
122.0000004500311
 20
56.50000017354523
 30
0.0
 40
2.0
  1

100
AcDbAttributeDefinition
  3
Change 4
  2
Change 4
 70
     0
  0
ATTDEF
  5
6B8
330
69D
100
AcDbEntity
  8
3
100
AcDbText
 10
182.0000004500311
 20
56.50000017354523
 30
0.0
 40
2.0
  1

 41
0.8
 72
     1
 11
182.0000004500311
 21
57.50000017354523
 31
0.0
100
AcDbAttributeDefinition
  3
Date revision 4
  2
Date 4
 70
     0
 74
     2
  0
ATTDEF
  5
6B9
330
69D
100
AcDbEntity
  8
3
100
AcDbText
 10
194.5000004500311
 20
56.50000017354523
 30
0.0
 40
2.0
  1

 72
     1
 11
194.5000004500311
 21
57.50000017354523
 31
0.0
100
AcDbAttributeDefinition
  3
Initials 4
  2
Initial4
 70
     0
 74
     2
  0
ATTDEF
  5
6BA
330
69D
100
AcDbEntity
  8
3
100
AcDbText
 10
116.5000004500311
 20
61.50000017354523
 30
0.0
 40
2.0
  1

 72
     1
 11
116.5000004500311
 21
62.50000017354523
 31
0.0
100
AcDbAttributeDefinition
  3
Rev 5
  2
Rev5
 70
     0
 74
     2
  0
ATTDEF
  5
6BB
330
69D
100
AcDbEntity
  8
3
100
AcDbText
 10
122.0000004500311
 20
61.50000017354523
 30
0.0
 40
2.0
  1

100
AcDbAttributeDefinition
  3
Change 5
  2
Change 5
 70
     0
  0
ATTDEF
  5
6BC
330
69D
100
AcDbEntity
  8
3
100
AcDbText
 10
182.0000004500311
 20
61.50000017354523
 30
0.0
 40
2.0
  1

 41
0.8
 72
     1
 11
182.0000004500311
 21
62.50000017354523
 31
0.0
100
AcDbAttributeDefinition
  3
Date revision 5
  2
Date 5
 70
     0
 74
     2
  0
ATTDEF
  5
6BD
330
69D
100
AcDbEntity
  8
3
100
AcDbText
 10
194.5000004500311
 20
61.50000017354523
 30
0.0
 40
2.0
  1

 72
     1
 11
194.5000004500311
 21
62.50000017354523
 31
0.0
100
AcDbAttributeDefinition
  3
Initials 5
  2
Initial5
 70
     0
 74
     2
  0
ATTDEF
  5
6BE
330
69D
100
AcDbEntity
  8
3
100
AcDbText
 10
116.5000004500311
 20
66.50000017354523
 30
0.0
 40
2.0
  1

 72
     1
 11
116.5000004500311
 21
67.50000017354523
 31
0.0
100
AcDbAttributeDefinition
  3
Rev 6
  2
Rev6
 70
     0
 74
     2
  0
ATTDEF
  5
6BF
330
69D
100
AcDbEntity
  8
3
100
AcDbText
 10
122.0000004500311
 20
66.50000017354523
 30
0.0
 40
2.0
  1

100
AcDbAttributeDefinition
  3
Change 6
  2
Change 6
 70
     0
  0
ATTDEF
  5
6C0
330
69D
100
AcDbEntity
  8
3
100
AcDbText
 10
182.0000004500311
 20
66.50000017354523
 30
0.0
 40
2.0
  1

 41
0.8
 72
     1
 11
182.0000004500311
 21
67.50000017354523
 31
0.0
100
AcDbAttributeDefinition
  3
Date revision 6
  2
Date 6
 70
     0
 74
     2
  0
ATTDEF
  5
6C1
330
69D
100
AcDbEntity
  8
3
100
AcDbText
 10
194.5000004500311
 20
66.50000017354523
 30
0.0
 40
2.0
  1

 72
     1
 11
194.5000004500311
 21
67.50000017354523
 31
0.0
100
AcDbAttributeDefinition
  3
Initials 6
  2
Initial6
 70
     0
 74
     2
  0
LINE
  5
6C2
330
69D
100
AcDbEntity
  8
0
100
AcDbLine
 10
210.0000004500396
 20
0.0000001735452315
 30
0.0
 11
200.0000004500396
 21
0.0000001735452315
 31
0.0
  0
LINE
  5
6C3
330
69D
100
AcDbEntity
  8
0
100
AcDbLine
 10
210.0000004500396
 20
297.0000001735452
 30
0.0
 11
200.0000004500396
 21
297.0000001735452
 31
0.0
  0
LWPOLYLINE
  5
6C4
330
69D
100
AcDbEntity
  8
0
100
AcDbPolyline
 90
        4
 70
     1
 43
0.0
 10
20.00000045003117
 20
10.00000017354523
 10
200.0000004500312
 20
10.00000017354523
 10
200.0000004500312
 20
287.0000001735452
 10
20.00000045003117
 20
287.0000001735452
  0
MTEXT
  5
6C5
330
69D
100
AcDbEntity
  8
3
100
AcDbMText
 10
16.00000045003116
 20
24.00000017354523
 30
0.0
 40
2.0
 41
209.12
 71
     1
 72
     5
  1
All rights reserved. Duplication or publication is not permitted, except with written permission of the owner.
 11
0.0000000000000001
 21
1.0
 31
0.0
 73
     1
 44
1.0
1001
ACAD
1000
MTEXTBEGIN
1070
    73
1070
     1
1070
    44
1040
1.0
1070
    74
1070
     0
1000
MTEXTEND
  0
LINE
  5
6C6
330
69D
100
AcDbEntity
  8
0
100
AcDbLine
 10
113.0000004500312
 20
40.00000017354523
 30
0.0
 11
20.00000045003117
 21
40.00000017354523
 31
0.0
  0
LINE
  5
6C7
330
69D
100
AcDbEntity
  8
0
100
AcDbLine
 10
113.0000004500312
 20
50.00000017354523
 30
0.0
 11
20.00000045003117
 21
50.00000017354523
 31
0.0
  0
LINE
  5
6C8
330
69D
100
AcDbEntity
  8
0
100
AcDbLine
 10
113.0000004500312
 20
60.00000017354524
 30
0.0
 11
20.00000045003117
 21
60.00000017354524
 31
0.0
  0
LWPOLYLINE
  5
6C9
330
69D
100
AcDbEntity
  8
0
100
AcDbPolyline
 90
        4
 70
     1
 43
0.0
 10
20.00000045003117
 20
70.00000017354523
 10
200.0000004500312
 20
70.00000017354523
 10
200.0000004500312
 20
10.00000017354523
 10
20.00000045003117
 20
10.00000017354523
  0
LINE
  5
6CA
330
69D
100
AcDbEntity
  8
0
100
AcDbLine
 10
20.00000045003117
 20
10.00000017354523
 30
0.0
 11
200.0000004500312
 21
10.00000017354523
 31
0.0
  0
LINE
  5
6CB
330
69D
100
AcDbEntity
  8
0
100
AcDbLine
 10
20.00000045003117
 20
24.00000017354523
 30
0.0
 11
200.0000004500312
 21
24.00000017354523
 31
0.0
  0
TEXT
  5
6CC
330
69D
100
AcDbEntity
  8
3
100
AcDbText
 10
70.16998461155023
 20
18.26744110702452
 30
0.0
 40
3.0
  1
's-Gravenzande
 72
     1
 11
87.59855604012164
 21
19.76744110702452
 31
0.0
100
AcDbText
 73
     2
  0
LINE
  5
6CD
330
69D
100
AcDbEntity
  8
0
100
AcDbLine
 10
0.0000004500311661
 20
0.0000001735452315
 30
0.0
 11
0.0000004500311661
 21
10.00000017354523
 31
0.0
  0
LINE
  5
6CE
330
69D
100
AcDbEntity
  8
0
100
AcDbLine
 10
0.0000004500311661
 20
0.0000001735452315
 30
0.0
 11
10.00000045003116
 21
0.0000001735452315
 31
0.0
  0
TEXT
  5
6CF
330
69D
100
AcDbEntity
  8
3
100
AcDbText
 10
22.00000045003116
 20
46.50000017354523
 30
0.0
 40
2.0
  1
Semifinished product:
100
AcDbText
  0
LWPOLYLINE
  5
6D0
330
69D
100
AcDbEntity
  8
0
 62
     9
100
AcDbPolyline
 90
       14
 70
     0
 43
0.0
 10
40.79711163021215
 20
13.5674411070245
 10
42.39711163021206
 20
13.5674411070245
 10
42.96377829687878
 20
16.96744110702451
 42
-0.2287936615377291
 10
43.5768639787384
 20
17.36744110702452
 10
43.97757205192852
 20
17.36744110702452
 42
-0.46345457785235
 10
44.37212962146145
 20
16.90168151210236
 10
43.81642288728175
 20
13.5674411070245
 10
45.64125164637118
 20
13.5674411070245
 10
46.31456389587959
 20
17.60731460407498
 42
0.4425157218824108
 10
45.00175929562828
 20
18.96744110702451
 10
44.38897023872414
 20
18.96744110702451
 42
0.2148078971487724
 10
42.89711163021218
 20
18.36744110702452
 10
42.9971116302122
 20
18.96744110702451
 10
41.69711163021213
 20
18.96744110702451
  0
LINE
  5
6D1
330
69D
100
AcDbEntity
  8
0
 62
     9
370
     0
100
AcDbLine
 10
45.64125164637116
 20
13.5674411070245
 30
0.0
 11
46.31456389587959
 21
17.60731460407493
 31
0.0
  0
ARC
  5
6D2
330
69D
100
AcDbEntity
  8
0
 62
     9
370
     0
100
AcDbCircle
 10
45.04022518477484
 20
17.69094086146359
 30
0.0
 40
1.277079677054224
100
AcDbArc
 50
356.2454476813246
 51
91.72602111155631
  0
HATCH
  5
6D3
330
69D
100
AcDbEntity
  8
0
 62
     9
100
AcDbHatch
 10
0.0
 20
0.0
 30
0.0
210
0.0
220
0.0
230
1.0
  2
SOLID
 70
     1
 71
     0
 91
       12
 92
        7
 72
     1
 73
     1
 93
       11
 10
28.79711163021216
 20
16.5674411070245
 42
0.3045868498596067
 10
30.46423183275101
 20
19.37016232225811
 42
0.0
 10
30.46423183275101
 20
19.56744110702451
 42
0.4142135623730958
 10
29.26423183275102
 20
20.7674411070245
 42
0.0
 10
25.19711163021213
 20
20.76744110702453
 42
0.0
 10
23.99711163021217
 20
13.5674411070245
 42
0.0
 10
25.99711163021221
 20
13.5674411070245
 42
0.0
 10
26.46377829687887
 20
16.36744110702452
 42
0.0
 10
26.86377829687876
 20
16.36744110702452
 42
0.0
 10
27.79711163021216
 20
13.5674411070245
 42
0.0
 10
29.79711163021216
 20
13.5674411070245
 42
0.0
 97
        0
 92
       22
 72
     1
 73
     1
 93
        6
 10
27.72216871051569
 20
17.96744110702451
 42
0.0
 10
26.73044496354555
 20
17.96744110702451
 42
0.0
 10
26.9637782968789
 20
19.36744110702452
 42
0.0
 10
27.75550204384899
 20
19.36744110702452
 42
-0.4634545778523126
 10
28.34733839814831
 20
18.66880171464137
 42
0.0
 10
28.31400506481498
 20
18.46880171464134
 42
-0.3666293647016125
 97
        0
 92
        7
 72
     1
 73
     1
 93
       11
 10
31.59711163021211
 20
15.76744110702452
 42
0.0
 10
34.96101954586888
 20
15.76744110702452
 42
0.3666293647014867
 10
35.15829833063524
 20
15.93456130956334
 42
0.0
 10
35.2137782968789
 20
16.26744110702454
 42
0.3833114294885806
 10
33.05544496354548
 20
18.96744110702451
 42
0.0
 10
32.59711163021211
 20
18.96744110702451
 42
0.962962962962962
 10
32.59711163021211
 20
13.5674411070245
 42
0.0
 10
32.99711163021223
 20
13.5674411070245
 42
0.2912609913578226
 10
34.99711163021217
 20
14.96744110702451
 42
0.0
 10
33.19711163021214
 20
14.96744110702451
 42
-0.7766337375662249
 10
31.59711163021211
 20
15.46456910017754
 42
0.0
 97
        0
 92
       22
 72
     1
 73
     1
 93
        2
 10
31.79711163021216
 20
16.76744110702452
 42
-0.8985251634212453
 10
33.59711163021211
 20
16.76744110702452
 42
0.0
 97
        0
 92
        7
 72
     0
 73
     1
 93
       13
 10
41.69711163021216
 20
18.96744110702451
 10
39.29711163021219
 20
18.96744110702451
 10
38.11106511858432
 20
17.71162715353614
 10
37.29711163021216
 20
18.96744110702451
 10
35.09711163021206
 20
18.96744110702451
 10
36.80641395579343
 20
16.33023180469894
 10
34.19711163021216
 20
13.5674411070245
 10
36.59711163021211
 20
13.5674411070245
 10
37.78315814183998
 20
14.8232550605129
 10
38.59711163021211
 20
13.5674411070245
 10
40.79711163021215
 20
13.5674411070245
 10
40.61827057184555
 20
13.84336731136156
 10
39.08780930463081
 20
16.20465040935012
 97
        0
 92
        7
 72
     1
 73
     1
 93
       16
 10
42.96377829687878
 20
16.96744110702453
 42
-0.2287936615377264
 10
43.5768639787384
 20
17.36744110702452
 42
0.0
 10
43.97757205192855
 20
17.36744110702452
 42
-0.4634545778523602
 10
44.37212962146145
 20
16.90168151210232
 42
0.0
 10
43.81642288728182
 20
13.5674411070245
 42
0.0
 10
45.64125164637113
 20
13.5674411070245
 42
0.0
 10
46.31456389587959
 20
17.60731460407486
 42
0.4425157218824506
 10
45.00175929562826
 20
18.96744110702451
 42
0.0
 10
44.38897023872411
 20
18.96744110702451
 42
0.2148078971487695
 10
42.89711163021218
 20
18.36744110702453
 42
0.0
 10
42.99711163021223
 20
18.96744110702451
 42
0.0
 10
41.69711163021216
 20
18.96744110702451
 42
0.0
 10
41.4241052798892
 20
18.67837555962372
 42
0.0
 10
40.61827057184555
 20
13.8433673113615
 42
0.0
 10
40.79711163021218
 20
13.5674411070245
 42
0.0
 10
42.39711163021206
 20
13.5674411070245
 42
0.0
 97
        0
 92
        7
 72
     1
 73
     1
 93
       12
 10
55.40445148883782
 20
17.36744110702449
 42
0.0
 10
55.80515956202782
 20
17.36744110702449
 42
-0.0898531725174386
 10
55.9454888670491
 20
17.34201778295647
 42
-0.0793424769878105
 10
56.58553812496134
 20
18.13769403454512
 42
0.0
 10
56.72382930370779
 20
18.96744110702451
 42
0.0
 10
56.11104024680369
 20
18.96744110702451
 42
0.2148078971487764
 10
54.61918163829159
 20
18.36744110702449
 42
0.0
 10
54.71918163829172
 20
18.96744110702451
 42
0.0
 10
53.09711163021214
 20
18.96744110702451
 42
0.0
 10
52.19711163021213
 20
13.5674411070245
 42
0.0
 10
54.22469914031151
 20
13.5674411070245
 42
0.0
 10
54.7913658069782
 20
16.96744110702453
 42
-0.2287936615377268
 97
        0
 92
        7
 72
     1
 73
     1
 93
        9
 10
62.19711163021216
 20
20.76744110702453
 42
0.0
 10
60.37228287112265
 20
20.76744110702453
 42
0.0
 10
59.93894953778931
 20
18.1674411070245
 42
0.2331806805711706
 10
58.55654016458519
 20
18.96744110702451
 42
0.2526349863601891
 10
55.94548886704879
 20
17.34201778295592
 42
0.5407746774694586
 10
57.82179391671587
 20
13.57628675069761
 42
0.1739556898927926
 10
59.4417082887993
 20
13.96744110702451
 42
0.0
 10
59.37504162213258
 20
13.5674411070245
 42
0.0
 10
60.99711163021217
 20
13.5674411070245
 42
0.0
 97
        0
 92
        5
 93
        2
 72
     3
 10
49.44711163021214
 20
16.26744110702452
 11
-2.761902986729996
 21
0.4603171644549941
 40
0.9775868352265018
 50
90.00000000000012
 51
270.0000000000033
 73
     1
 72
     3
 10
49.44711163021214
 20
16.26744110702452
 11
-2.95918177149643
 21
0.4931969619160654
 40
0.9124143795447333
 50
-89.99999999999992
 51
90.00000000000012
 73
     1
 97
        0
 92
       20
 93
        1
 72
     3
 10
49.44711163021214
 20
16.26744110702452
 11
0.2301585822274944
 21
1.380951493365002
 40
0.7142857142857153
 50
0.0
 51
360.0
 73
     1
 97
        0
 92
       20
 93
        1
 72
     3
 10
58.50015732739461
 20
16.22572662798402
 11
0.2137186834969643
 21
1.282312100981784
 40
0.8461538461538408
 50
0.0
 51
360.0
 73
     1
 97
        0
 92
      137
 93
        4
 72
     1
 10
69.2771274686931
 20
17.37458396416738
 11
105.9199846115502
 21
17.37458396416738
 72
     1
 10
105.9199846115502
 20
17.37458396416738
 11
105.9199846115502
 21
22.73172682131024
 72
     1
 10
105.9199846115502
 20
22.73172682131023
 11
69.2771274686931
 21
22.73172682131023
 72
     1
 10
69.2771274686931
 20
22.73172682131023
 11
69.2771274686931
 21
17.37458396416738
 97
        0
 75
     0
 76
     1
 47
0.0593645620508845
 98
       17
 10
28.20137253102302
 20
16.11622187493742
 10
28.20137253102302
 20
16.11622187493742
 10
30.83773960812187
 20
15.61748340493386
 10
30.83773960812187
 20
15.61748340493386
 10
37.32177752056669
 20
16.54371127404442
 10
41.6682198269716
 20
16.61495950722894
 10
47.79599222358501
 20
16.75745597359798
 10
47.79599222358501
 20
16.75745597359798
 10
47.79599222358501
 20
16.75745597359798
 10
47.79599222358501
 20
16.75745597359798
 10
47.79599222358501
 20
16.75745597359798
 10
53.66446713552136
 20
17.28555624502792
 10
57.20325474664355
 20
16.51887144135128
 10
60.83802229004345
 20
17.63443811207662
 10
51.01742934387335
 20
16.75549489008483
 10
49.16849043995012
 20
16.39179389986259
 10
58.32225349689679
 20
16.48271914741815
  0
LWPOLYLINE
  5
6D4
330
69D
100
AcDbEntity
  8
0
 62
     9
100
AcDbPolyline
 90
       11
 70
     1
 43
0.0
 10
29.79711163021216
 20
13.5674411070245
 10
28.79711163021216
 20
16.5674411070245
 42
0.3045868498596019
 10
30.46423183275101
 20
19.37016232225807
 10
30.46423183275101
 20
19.56744110702446
 42
0.414213562373094
 10
29.26423183275108
 20
20.7674411070245
 10
25.19711163021213
 20
20.76744110702453
 10
23.9971116302122
 20
13.5674411070245
 10
25.99711163021221
 20
13.5674411070245
 10
26.4637782968789
 20
16.36744110702452
 10
26.86377829687876
 20
16.36744110702452
 10
27.79711163021216
 20
13.5674411070245
  0
LWPOLYLINE
  5
6D5
330
69D
100
AcDbEntity
  8
0
 62
     9
100
AcDbPolyline
 90
        6
 70
     1
 43
0.0
 10
27.75550204384899
 20
19.36744110702452
 10
26.9637782968789
 20
19.36744110702452
 10
26.73044496354555
 20
17.96744110702451
 10
27.72216871051569
 20
17.96744110702451
 42
0.3666293647015968
 10
28.31400506481498
 20
18.4688017146413
 10
28.34733839814828
 20
18.66880171464129
 42
0.4634545778523493
  0
LWPOLYLINE
  5
6D6
330
69D
100
AcDbEntity
  8
0
 62
     9
100
AcDbPolyline
 90
       12
 70
     1
 43
0.0
 10
41.69711163021213
 20
18.96744110702451
 10
39.29711163021216
 20
18.96744110702451
 10
38.11106511858429
 20
17.71162715353614
 10
37.29711163021216
 20
18.96744110702451
 10
35.09711163021211
 20
18.96744110702451
 10
36.80641395579346
 20
16.33023180469894
 10
34.19711163021214
 20
13.5674411070245
 10
36.59711163021211
 20
13.5674411070245
 10
37.78315814183998
 20
14.82325506051288
 10
38.59711163021211
 20
13.5674411070245
 10
40.79711163021215
 20
13.5674411070245
 10
39.08780930463081
 20
16.20465040935011
  0
LWPOLYLINE
  5
6D7
330
69D
100
AcDbEntity
  8
0
 62
     9
100
AcDbPolyline
 90
       11
 70
     1
 43
0.0
 10
35.15829833063526
 20
15.93456130956343
 10
35.2137782968789
 20
16.26744110702452
 42
0.3833114294885822
 10
33.05544496354548
 20
18.96744110702451
 10
32.59711163021211
 20
18.96744110702451
 42
0.9629629629629603
 10
32.59711163021211
 20
13.5674411070245
 10
32.9971116302122
 20
13.5674411070245
 42
0.2912609913578292
 10
34.9971116302122
 20
14.96744110702451
 10
33.19711163021214
 20
14.96744110702451
 42
-0.7766337375662489
 10
31.59711163021211
 20
15.46456910017758
 10
31.59711163021211
 20
15.76744110702452
 10
34.96101954586891
 20
15.76744110702452
 42
0.3666293647015975
  0
LWPOLYLINE
  5
6D8
330
69D
100
AcDbEntity
  8
0
 62
     9
100
AcDbPolyline
 90
        2
 70
     1
 43
0.0
 10
33.59711163021211
 20
16.76744110702452
 42
0.8985251634212449
 10
31.79711163021216
 20
16.76744110702452
  0
LINE
  5
6D9
330
69D
100
AcDbEntity
  8
0
 62
     9
100
AcDbLine
 10
41.4241052798892
 20
18.67837555962376
 30
0.0
 11
40.61827057184555
 21
13.84336731136156
 31
0.0
  0
LINE
  5
6DA
330
69D
100
AcDbEntity
  8
0
 62
     9
370
     0
100
AcDbLine
 10
41.42410527988917
 20
18.67837555962374
 30
0.0
 11
40.61827057184558
 21
13.84336731136158
 31
0.0
  0
LINE
  5
6DB
330
69D
100
AcDbEntity
  8
0
 62
     9
370
     0
100
AcDbLine
 10
42.39711163021206
 20
13.5674411070245
 30
0.0
 11
42.96377829687878
 21
16.96744110702453
 31
0.0
  0
LINE
  5
6DC
330
69D
100
AcDbEntity
  8
0
 62
     9
370
     0
100
AcDbLine
 10
44.37212962146145
 20
16.90168151210232
 30
0.0
 11
43.81642288728179
 21
13.5674411070245
 31
0.0
  0
LINE
  5
6DD
330
69D
100
AcDbEntity
  8
0
 62
     9
370
     0
100
AcDbLine
 10
40.79711163021213
 20
13.5674411070245
 30
0.0
 11
42.39711163021206
 21
13.5674411070245
 31
0.0
  0
LINE
  5
6DE
330
69D
100
AcDbEntity
  8
0
 62
     9
100
AcDbLine
 10
40.61827057184555
 20
13.84336731136156
 30
0.0
 11
40.79711163021215
 21
13.5674411070245
 31
0.0
  0
LINE
  5
6DF
330
69D
100
AcDbEntity
  8
0
 62
     9
370
     0
100
AcDbLine
 10
43.81642288728179
 20
13.5674411070245
 30
0.0
 11
45.64125164637116
 21
13.5674411070245
 31
0.0
  0
LINE
  5
6E0
330
69D
100
AcDbEntity
  8
0
 62
     9
370
     0
100
AcDbLine
 10
42.99711163021223
 20
18.96744110702451
 30
0.0
 11
41.69711163021213
 21
18.96744110702451
 31
0.0
  0
LINE
  5
6E1
330
69D
100
AcDbEntity
  8
0
 62
     9
370
     0
100
AcDbLine
 10
41.69711163021213
 20
18.96744110702451
 30
0.0
 11
41.42410527988917
 21
18.67837555962374
 31
0.0
  0
LINE
  5
6E2
330
69D
100
AcDbEntity
  8
0
 62
     9
370
     0
100
AcDbLine
 10
45.0017592956282
 20
18.96744110702451
 30
0.0
 11
44.38897023872416
 21
18.96744110702451
 31
0.0
  0
ARC
  5
6E3
330
69D
100
AcDbEntity
  8
0
 62
     9
370
     0
100
AcDbCircle
 10
44.30911809921631
 20
17.0112861867531
 30
0.0
 40
1.957784062731646
100
AcDbArc
 50
87.66242858508997
 51
136.1558660942529
  0
LINE
  5
6E4
330
69D
100
AcDbEntity
  8
0
 62
     9
370
     0
100
AcDbLine
 10
42.89711163021218
 20
18.36744110702454
 30
0.0
 11
42.99711163021223
 21
18.96744110702451
 31
0.0
  0
ARC
  5
6E5
330
69D
100
AcDbEntity
  8
0
 62
     9
370
     0
100
AcDbCircle
 10
43.68451681703805
 20
16.53259750596525
 30
0.0
 40
0.8417558861235047
100
AcDbArc
 50
97.34772697964107
 51
148.8961341035837
  0
LINE
  5
6E6
330
69D
100
AcDbEntity
  8
0
 62
     9
370
     0
100
AcDbLine
 10
43.5768639787384
 20
17.36744110702452
 30
0.0
 11
43.97757205192855
 21
17.36744110702452
 31
0.0
  0
ARC
  5
6E7
330
69D
100
AcDbEntity
  8
0
 62
     9
370
     0
100
AcDbCircle
 10
43.97757205192855
 20
16.96744110702448
 30
0.0
 40
0.4000000000000422
100
AcDbArc
 50
350.5376777919737
 51
90.0
  0
TEXT
  5
6E8
330
69D
100
AcDbEntity
  8
3
100
AcDbText
 10
22.00000045003116
 20
36.50000017354523
 30
0.0
 40
2.0
  1
Name:
100
AcDbText
  0
LWPOLYLINE
  5
6E9
330
69D
100
AcDbEntity
  8
0
 62
     9
100
AcDbPolyline
 90
       12
 70
     0
 43
0.0
 10
56.58553812496132
 20
18.13769403454503
 10
56.72382930370782
 20
18.96744110702451
 10
56.11104024680367
 20
18.96744110702451
 42
0.2148078971487726
 10
54.61918163829159
 20
18.36744110702449
 10
54.71918163829172
 20
18.96744110702451
 10
53.09711163021211
 20
18.96744110702451
 10
52.19711163021213
 20
13.5674411070245
 10
54.22469914031148
 20
13.5674411070245
 10
54.7913658069782
 20
16.96744110702451
 42
-0.2287936615377289
 10
55.40445148883782
 20
17.36744110702449
 10
55.80515956202794
 20
17.36744110702449
 42
-0.0898531725173674
 10
55.9454888670491
 20
17.34201778295647
  0
ELLIPSE
  5
6EA
330
69D
100
AcDbEntity
  8
0
 62
     9
100
AcDbEllipse
 10
49.44711163021214
 20
16.26744110702452
 30
0.0
 11
-2.95918177149643
 21
0.4931969619160654
 31
0.0
210
0.0
220
0.0
230
1.0
 40
0.9124143795447333
 41
-1.570796326794895
 42
1.570796326794898
  0
ELLIPSE
  5
6EB
330
69D
100
AcDbEntity
  8
0
 62
     9
100
AcDbEllipse
 10
49.44711163021214
 20
16.26744110702452
 30
0.0
 11
-2.761902986729996
 21
0.4603171644549941
 31
0.0
210
0.0
220
0.0
230
1.0
 40
0.9775868352265018
 41
1.570796326794898
 42
4.712388980384746
  0
ELLIPSE
  5
6EC
330
69D
100
AcDbEntity
  8
0
 62
     9
100
AcDbEllipse
 10
49.44711163021214
 20
16.26744110702452
 30
0.0
 11
0.2301585822274944
 21
1.380951493365002
 31
0.0
210
0.0
220
0.0
230
1.0
 40
0.7142857142857153
 41
0.0000000000000057
 42
6.283185307179591
  0
ELLIPSE
  5
6ED
330
69D
100
AcDbEntity
  8
0
 62
     9
100
AcDbEllipse
 10
49.44711163021214
 20
16.26744110702452
 30
0.0
 11
-2.761902986729996
 21
0.4603171644549941
 31
0.0
210
0.0
220
0.0
230
1.0
 40
0.9775868352265018
 41
1.570796326794898
 42
4.712388980384746
  0
ELLIPSE
  5
6EE
330
69D
100
AcDbEntity
  8
0
 62
     9
100
AcDbEllipse
 10
49.44711163021214
 20
16.26744110702452
 30
0.0
 11
-2.95918177149643
 21
0.4931969619160654
 31
0.0
210
0.0
220
0.0
230
1.0
 40
0.9124143795447333
 41
-1.570796326794895
 42
1.570796326794898
  0
LWPOLYLINE
  5
6EF
330
69D
100
AcDbEntity
  8
0
 62
     9
100
AcDbPolyline
 90
        9
 70
     1
 43
0.0
 10
58.55654016458515
 20
18.96744110702451
 42
-0.2331806805711746
 10
59.93894953778931
 20
18.1674411070245
 10
60.3722828711227
 20
20.76744110702453
 10
62.19711163021213
 20
20.76744110702453
 10
60.9971116302122
 20
13.5674411070245
 10
59.37504162213258
 20
13.5674411070245
 10
59.4417082887993
 20
13.96744110702451
 42
-0.1739556898927748
 10
57.82179391671604
 20
13.57628675069759
 42
-0.5407746774695647
 10
55.9454888670491
 20
17.34201778295647
 42
-0.2526349863601347
  0
ELLIPSE
  5
6F0
330
69D
100
AcDbEntity
  8
0
 62
     9
100
AcDbEllipse
 10
58.50015732739461
 20
16.22572662798402
 30
0.0
 11
0.2137186834969643
 21
1.282312100981784
 31
0.0
210
0.0
220
0.0
230
1.0
 40
0.8461538461538408
 41
0.0000000000000129
 42
6.283185307179599
  0
TEXT
  5
6F1
330
69D
100
AcDbEntity
  8
3
100
AcDbText
 10
22.00000045003116
 20
66.50000017354523
 30
0.0
 40
2.0
  1
Material:
100
AcDbText
  0
TEXT
  5
6F2
330
69D
100
AcDbEntity
  8
3
100
AcDbText
 10
22.00000045003116
 20
56.50000017354525
 30
0.0
 40
2.0
  1
Treatment:
100
AcDbText
  0
LINE
  5
6F3
330
69D
100
AcDbEntity
  8
0
100
AcDbLine
 10
175.0000004500311
 20
70.00000017354523
 30
0.0
 11
175.0000004500311
 21
35.00000017354523
 31
0.0
  0
LINE
  5
6F4
330
69D
100
AcDbEntity
  8
0
100
AcDbLine
 10
90.00000045003117
 20
40.00000017354523
 30
0.0
 11
90.00000045003117
 21
50.00000017354523
 31
0.0
  0
LINE
  5
6F5
330
69D
100
AcDbEntity
  8
0
100
AcDbLine
 10
113.0000004500312
 20
35.00000017354529
 30
0.0
 11
113.0000004500312
 21
65.00000017354529
 31
0.0
  0
LINE
  5
6F6
330
69D
100
AcDbEntity
  8
0
100
AcDbLine
 10
120.0000004500311
 20
35.00000017354523
 30
0.0
 11
120.0000004500311
 21
70.00000017354523
 31
0.0
  0
LINE
  5
6F7
330
69D
100
AcDbEntity
  8
0
100
AcDbLine
 10
113.0000004500312
 20
35.00000017354529
 30
0.0
 11
113.0000004500312
 21
65.00000017354529
 31
0.0
  0
LINE
  5
6F8
330
69D
100
AcDbEntity
  8
0
100
AcDbLine
 10
113.0000004500312
 20
35.00000017354523
 30
0.0
 11
113.0000004500312
 21
70.00000017354523
 31
0.0
  0
LINE
  5
6F9
330
69D
100
AcDbEntity
  8
0
100
AcDbLine
 10
189.0000004500311
 20
70.00000017354523
 30
0.0
 11
189.0000004500311
 21
35.00000017354523
 31
0.0
  0
LINE
  5
6FA
330
69D
100
AcDbEntity
  8
0
100
AcDbLine
 10
113.0000004500312
 20
45.00000017354523
 30
0.0
 11
200.0000004500312
 21
45.00000017354523
 31
0.0
  0
LINE
  5
6FB
330
69D
100
AcDbEntity
  8
0
100
AcDbLine
 10
113.0000004500312
 20
35.00000017354523
 30
0.0
 11
200.0000004500312
 21
35.00000017354523
 31
0.0
  0
LINE
  5
6FC
330
69D
100
AcDbEntity
  8
0
100
AcDbLine
 10
113.0000004500312
 20
40.00000017354523
 30
0.0
 11
200.0000004500312
 21
40.00000017354523
 31
0.0
  0
LINE
  5
6FD
330
69D
100
AcDbEntity
  8
0
100
AcDbLine
 10
113.0000004500312
 20
50.00000017354523
 30
0.0
 11
200.0000004500312
 21
50.00000017354523
 31
0.0
  0
LINE
  5
6FE
330
69D
100
AcDbEntity
  8
0
100
AcDbLine
 10
113.0000004500312
 20
55.00000017354523
 30
0.0
 11
200.0000004500312
 21
55.00000017354523
 31
0.0
  0
LINE
  5
6FF
330
69D
100
AcDbEntity
  8
0
100
AcDbLine
 10
113.0000004500312
 20
35.00000017354535
 30
0.0
 11
200.0000004500312
 21
35.00000017354535
 31
0.0
  0
TEXT
  5
700
330
69D
100
AcDbEntity
  8
3
100
AcDbText
 10
143.3095242595549
 20
36.83333350687862
 30
0.0
 40
2.0
  1
Change
 72
     4
 11
148.5000004500311
 21
37.50000017354529
 31
0.0
100
AcDbText
  0
LINE
  5
701
330
69D
100
AcDbEntity
  8
0
100
AcDbLine
 10
113.0000004500312
 20
29.50000017354529
 30
0.0
 11
200.0000004500312
 21
29.50000017354529
 31
0.0
  0
TEXT
  5
702
330
69D
100
AcDbEntity
  8
3
100
AcDbText
 10
79.95569889726451
 20
13.00000017354523
 30
0.0
 40
3.0
  1
Holland
 72
     1
 11
87.59855604012164
 21
14.50000017354523
 31
0.0
100
AcDbText
 73
     2
  0
LINE
  5
703
330
69D
100
AcDbEntity
  8
0
100
AcDbLine
 10
113.0000004500312
 20
35.00000017354535
 30
0.0
 11
113.0000004500312
 21
24.00000017354523
 31
0.0
  0
TEXT
  5
704
330
69D
100
AcDbEntity
  8
3
100
AcDbText
 10
115.9523814024121
 20
31.25000017354526
 30
0.0
 40
2.0
  1
Scale:
 72
     1
 11
120.0000004500311
 21
32.25000017354526
 31
0.0
100
AcDbText
 73
     2
  0
LINE
  5
705
330
69D
100
AcDbEntity
  8
0
100
AcDbLine
 10
127.0000004500311
 20
35.00000017354523
 30
0.0
 11
127.0000004500311
 21
24.00000017354523
 31
0.0
  0
TEXT
  5
706
330
69D
100
AcDbEntity
  8
3
100
AcDbText
 10
116.0000004500311
 20
20.00000017354517
 30
0.0
 40
2.0
  1
Drawing number
100
AcDbText
  0
LINE
  5
707
330
69D
100
AcDbEntity
  8
0
100
AcDbLine
 10
113.0000004500312
 20
10.00000017354523
 30
0.0
 11
113.0000004500312
 21
24.00000017354523
 31
0.0
  0
TEXT
  5
708
330
69D
100
AcDbEntity
  8
3
100
AcDbText
 10
116.0952385452692
 20
25.75000017354526
 30
0.0
 40
2.0
  1
Units:
 72
     1
 11
120.0000004500311
 21
26.75000017354526
 31
0.0
100
AcDbText
 73
     2
  0
TEXT
  5
709
330
69D
100
AcDbEntity
  8
3
100
AcDbText
 10
113.7857147357454
 20
36.50000017354529
 30
0.0
 40
2.0
  1
Rev.
 72
     1
 11
116.5000004500311
 21
37.50000017354529
 31
0.0
100
AcDbText
 73
     2
  0
LINE
  5
70A
330
69D
100
AcDbEntity
  8
0
100
AcDbLine
 10
182.5000004500311
 20
24.00000017354518
 30
0.0
 11
176.0000004500311
 21
24.00000017354518
 31
0.0
  0
LINE
  5
70B
330
69D
100
AcDbEntity
  8
0
100
AcDbLine
 10
175.0000004500311
 20
35.00000017354535
 30
0.0
 11
175.0000004500311
 21
24.00000017354523
 31
0.0
  0
TEXT
  5
70C
330
69D
100
AcDbEntity
  8
3
100
AcDbText
 10
163.9047623547931
 20
31.25000017354526
 30
0.0
 40
2.0
  1
Drawn
 72
     1
 11
168.0000004500311
 21
32.25000017354526
 31
0.0
100
AcDbText
 73
     2
  0
LINE
  5
70D
330
69D
100
AcDbEntity
  8
0
100
AcDbLine
 10
161.0000004500311
 20
35.00000017354535
 30
0.0
 11
161.0000004500311
 21
24.00000017354523
 31
0.0
  0
LINE
  5
70E
330
69D
100
AcDbEntity
  8
0
100
AcDbLine
 10
175.0000004500311
 20
10.00000017354523
 30
0.0
 11
175.0000004500311
 21
24.00000017354518
 31
0.0
  0
TEXT
  5
70F
330
69D
100
AcDbEntity
  8
3
100
AcDbText
 10
162.1428575928883
 20
25.75000017354526
 30
0.0
 40
2.0
  1
Checked
 72
     1
 11
168.0000004500311
 21
26.75000017354526
 31
0.0
100
AcDbText
 73
     2
  0
LINE
  5
710
330
69D
100
AcDbEntity
  8
0
100
AcDbLine
 10
189.000000450031
 20
35.00000017354535
 30
0.0
 11
189.000000450031
 21
24.00000017354523
 31
0.0
  0
TEXT
  5
711
330
69D
100
AcDbEntity
  8
3
100
AcDbText
 10
184.7857147357454
 20
20.00000017354523
 30
0.0
 40
2.0
  1
Size
 72
     1
 11
187.5000004500311
 21
20.00000017354523
 31
0.0
100
AcDbText
  0
TEXT
  5
712
330
69D
100
AcDbEntity
  8
3
100
AcDbText
 10
183.0952385452692
 20
12.4989256031196
 30
0.0
 40
5.0
  1
A4
 72
     1
 11
187.5000004500311
 21
14.9989256031196
 31
0.0
100
AcDbText
 73
     2
  0
TEXT
  5
713
330
69D
100
AcDbEntity
  8
3
100
AcDbText
 10
189.9761909262216
 20
36.50000017354523
 30
0.0
 40
2.0
  1
Initials
 72
     1
 11
194.5000004500311
 21
37.50000017354523
 31
0.0
100
AcDbText
 73
     2
  0
TEXT
  5
714
330
69D
100
AcDbEntity
  8
3
100
AcDbText
 10
178.857143307174
 20
36.50000017354523
 30
0.0
 40
2.0
  1
Date
 72
     1
 11
182.0000004500311
 21
37.50000017354523
 31
0.0
100
AcDbText
 73
     2
  0
LINE
  5
715
330
69D
100
AcDbEntity
  8
0
100
AcDbLine
 10
113.0000004500312
 20
65.00000017354523
 30
0.0
 11
200.0000004500312
 21
65.00000017354523
 31
0.0
  0
LINE
  5
716
330
69D
100
AcDbEntity
  8
0
100
AcDbLine
 10
113.0000004500312
 20
60.00000017354523
 30
0.0
 11
200.0000004500312
 21
60.00000017354523
 31
0.0
  0
LINE
  5
717
330
69D
100
AcDbEntity
  8
0
100
AcDbLine
 10
0.0000004500311661
 20
297.0000001735452
 30
0.0
 11
0.0000004500311661
 21
287.0000001735452
 31
0.0
  0
LINE
  5
718
330
69D
100
AcDbEntity
  8
0
100
AcDbLine
 10
0.0000004500311661
 20
297.0000001735452
 30
0.0
 11
10.00000045003116
 21
297.0000001735452
 31
0.0
  0
LINE
  5
719
330
69D
100
AcDbEntity
  8
0
100
AcDbLine
 10
210.0000004500396
 20
0.0000001735452315
 30
0.0
 11
210.0000004500396
 21
10.00000017354523
 31
0.0
  0
LINE
  5
71A
330
69D
100
AcDbEntity
  8
0
100
AcDbLine
 10
210.0000004500396
 20
297.0000001735452
 30
0.0
 11
210.0000004500396
 21
287.0000001735452
 31
0.0
  0
INSERT
  5
71B
330
69D
100
AcDbEntity
  8
0
100
AcDbBlockReference
  2
A$C1D384272
 10
90.00000045003117
 20
40.00000017354523
 30
0.0
  0
ENDBLK
  5
71E
330
69D
100
AcDbEntity
  8
0
100
AcDbBlockEnd
  0
BLOCK
  5
7C5
330
7BB
100
AcDbEntity
  8
0
100
AcDbBlockBegin
  2
*D4
 70
     1
 10
0.0
 20
0.0
 30
0.0
  3
*D4
  1

  0
LINE
  5
86B
330
7BB
100
AcDbEntity
  8
0
 62
     2
370
    -2
100
AcDbLine
 10
335.1914238462902
 20
219.5321183401065
 30
0.0
 11
335.1914238462902
 21
206.8597800567292
 31
0.0
  0
LINE
  5
86C
330
7BB
100
AcDbEntity
  8
0
 62
     2
370
    -2
100
AcDbLine
 10
321.7014238462902
 20
219.5321183401064
 30
0.0
 11
321.7014238462902
 21
206.8597800567292
 31
0.0
  0
LINE
  5
86D
330
7BB
100
AcDbEntity
  8
0
 62
     2
370
    -2
100
AcDbLine
 10
331.1914238462902
 20
209.3597800567291
 30
0.0
 11
325.7014238462902
 21
209.3597800567291
 31
0.0
  0
SOLID
  5
86E
330
7BB
100
AcDbEntity
  8
0
 62
     2
100
AcDbTrace
 10
331.1914238462902
 20
210.0264467233958
 30
0.0
 11
331.1914238462902
 21
208.6931133900625
 31
0.0
 12
335.1914238462902
 22
209.3597800567291
 32
0.0
 13
335.1914238462902
 23
209.3597800567291
 33
0.0
  0
SOLID
  5
86F
330
7BB
100
AcDbEntity
  8
0
 62
     2
100
AcDbTrace
 10
325.7014238462902
 20
210.0264467233958
 30
0.0
 11
325.7014238462902
 21
208.6931133900625
 31
0.0
 12
321.7014238462902
 22
209.3597800567291
 32
0.0
 13
321.7014238462902
 23
209.3597800567291
 33
0.0
  0
MTEXT
  5
870
330
7BB
100
AcDbEntity
  8
0
 62
     3
100
AcDbMText
 10
328.4464238462902
 20
211.8597800567292
 30
0.0
 40
3.0
 41
0.0
 71
     5
 72
     1
  1
\A1;13.5
 73
     1
 44
1.0
1001
ACAD
1000
MTEXTBEGIN
1070
    73
1070
     1
1070
    44
1040
1.0
1070
    74
1070
     0
1000
MTEXTEND
  0
POINT
  5
871
330
7BB
100
AcDbEntity
  8
DEFPOINTS
 62
     0
100
AcDbPoint
 10
335.1914238462902
 20
222.0321183401065
 30
0.0
  0
POINT
  5
872
330
7BB
100
AcDbEntity
  8
DEFPOINTS
 62
     0
100
AcDbPoint
 10
321.7014238462902
 20
222.0321183401065
 30
0.0
  0
POINT
  5
873
330
7BB
100
AcDbEntity
  8
DEFPOINTS
 62
     0
100
AcDbPoint
 10
321.7014238462902
 20
209.3597800567291
 30
0.0
  0
ENDBLK
  5
7C6
330
7BB
100
AcDbEntity
  8
0
100
AcDbBlockEnd
  0
BLOCK
  5
7D2
330
7C8
100
AcDbEntity
  8
0
100
AcDbBlockBegin
  2
*D5
 70
     1
 10
0.0
 20
0.0
 30
0.0
  3
*D5
  1

  0
LINE
  5
874
330
7C8
100
AcDbEntity
  8
0
 62
     2
370
    -2
100
AcDbLine
 10
312.5714238462902
 20
224.6471183401065
 30
0.0
 11
312.5714238462902
 21
197.2179834591287
 31
0.0
  0
LINE
  5
875
330
7C8
100
AcDbEntity
  8
0
 62
     2
370
    -2
100
AcDbLine
 10
344.3214238462902
 20
224.6471183401065
 30
0.0
 11
344.3214238462902
 21
197.2179834591287
 31
0.0
  0
LINE
  5
876
330
7C8
100
AcDbEntity
  8
0
 62
     2
370
    -2
100
AcDbLine
 10
316.5714238462902
 20
199.7179834591287
 30
0.0
 11
340.3214238462902
 21
199.7179834591287
 31
0.0
  0
SOLID
  5
877
330
7C8
100
AcDbEntity
  8
0
 62
     2
100
AcDbTrace
 10
316.5714238462902
 20
200.3846501257954
 30
0.0
 11
316.5714238462902
 21
199.0513167924621
 31
0.0
 12
312.5714238462902
 22
199.7179834591287
 32
0.0
 13
312.5714238462902
 23
199.7179834591287
 33
0.0
  0
SOLID
  5
878
330
7C8
100
AcDbEntity
  8
0
 62
     2
100
AcDbTrace
 10
340.3214238462902
 20
200.3846501257954
 30
0.0
 11
340.3214238462902
 21
199.0513167924621
 31
0.0
 12
344.3214238462902
 22
199.7179834591287
 32
0.0
 13
344.3214238462902
 23
199.7179834591287
 33
0.0
  0
MTEXT
  5
879
330
7C8
100
AcDbEntity
  8
0
 62
     3
100
AcDbMText
 10
328.4464238462902
 20
202.2179834591287
 30
0.0
 40
3.0
 41
0.0
 71
     5
 72
     1
  1
\A1;31.7
 73
     1
 44
1.0
1001
ACAD
1000
MTEXTBEGIN
1070
    73
1070
     1
1070
    44
1040
1.0
1070
    74
1070
     0
1000
MTEXTEND
  0
POINT
  5
87A
330
7C8
100
AcDbEntity
  8
DEFPOINTS
 62
     0
100
AcDbPoint
 10
312.5714238462902
 20
227.1471183401065
 30
0.0
  0
POINT
  5
87B
330
7C8
100
AcDbEntity
  8
DEFPOINTS
 62
     0
100
AcDbPoint
 10
344.3214238462902
 20
227.1471183401065
 30
0.0
  0
POINT
  5
87C
330
7C8
100
AcDbEntity
  8
DEFPOINTS
 62
     0
100
AcDbPoint
 10
344.3214238462902
 20
199.7179834591287
 30
0.0
  0
ENDBLK
  5
7D3
330
7C8
100
AcDbEntity
  8
0
100
AcDbBlockEnd
  0
BLOCK
  5
7DF
330
7D5
100
AcDbEntity
  8
0
100
AcDbBlockBegin
  2
*D6
 70
     1
 10
0.0
 20
0.0
 30
0.0
  3
*D6
  1

  0
LINE
  5
87D
330
7D5
100
AcDbEntity
  8
0
 62
     2
370
    -2
100
AcDbLine
 10
345.3214238462901
 20
225.6471183401065
 30
0.0
 11
357.4068832955299
 21
225.6471183401065
 31
0.0
  0
LINE
  5
87E
330
7D5
100
AcDbEntity
  8
0
 62
     2
370
    -2
100
AcDbLine
 10
345.3214238462902
 20
290.1371183401066
 30
0.0
 11
357.4068832955299
 21
290.1371183401066
 31
0.0
  0
LINE
  5
87F
330
7D5
100
AcDbEntity
  8
0
 62
     2
370
    -2
100
AcDbLine
 10
354.9068832955299
 20
229.6471183401065
 30
0.0
 11
354.9068832955299
 21
286.1371183401066
 31
0.0
  0
SOLID
  5
880
330
7D5
100
AcDbEntity
  8
0
 62
     2
100
AcDbTrace
 10
354.2402166288633
 20
229.6471183401065
 30
0.0
 11
355.5735499621966
 21
229.6471183401065
 31
0.0
 12
354.9068832955299
 22
225.6471183401065
 32
0.0
 13
354.9068832955299
 23
225.6471183401065
 33
0.0
  0
SOLID
  5
881
330
7D5
100
AcDbEntity
  8
0
 62
     2
100
AcDbTrace
 10
354.2402166288633
 20
286.1371183401066
 30
0.0
 11
355.5735499621966
 21
286.1371183401066
 31
0.0
 12
354.9068832955299
 22
290.1371183401066
 32
0.0
 13
354.9068832955299
 23
290.1371183401066
 33
0.0
  0
MTEXT
  5
882
330
7D5
100
AcDbEntity
  8
0
 62
     3
100
AcDbMText
 10
352.4068832955299
 20
257.8921183401067
 30
0.0
 40
3.0
 41
0.0
 71
     5
 72
     1
  1
\A1;64.5
 11
0.0000000000000001
 21
1.0
 31
0.0
 73
     1
 44
1.0
1001
ACAD
1000
MTEXTBEGIN
1070
    73
1070
     1
1070
    44
1040
1.0
1070
    74
1070
     0
1000
MTEXTEND
  0
POINT
  5
883
330
7D5
100
AcDbEntity
  8
DEFPOINTS
 62
     0
100
AcDbPoint
 10
342.8214238462901
 20
225.6471183401065
 30
0.0
  0
POINT
  5
884
330
7D5
100
AcDbEntity
  8
DEFPOINTS
 62
     0
100
AcDbPoint
 10
342.8214238462902
 20
290.1371183401066
 30
0.0
  0
POINT
  5
885
330
7D5
100
AcDbEntity
  8
DEFPOINTS
 62
     0
100
AcDbPoint
 10
354.9068832955299
 20
290.1371183401066
 30
0.0
  0
ENDBLK
  5
7E0
330
7D5
100
AcDbEntity
  8
0
100
AcDbBlockEnd
  0
BLOCK
  5
807
330
7FD
100
AcDbEntity
  8
0
100
AcDbBlockBegin
  2
*D7
 70
     1
 10
0.0
 20
0.0
 30
0.0
  3
*D7
  1

  0
LINE
  5
8DC
330
7FD
100
AcDbEntity
  8
0
 62
     2
370
    -2
100
AcDbLine
 10
272.7498474060728
 20
255.3921183401065
 30
0.0
 11
272.7498474060728
 21
207.3809580916469
 31
0.0
  0
LINE
  5
8DD
330
7FD
100
AcDbEntity
  8
0
 62
     2
370
    -2
100
AcDbLine
 10
242.5998474060728
 20
255.3921183401065
 30
0.0
 11
242.5998474060728
 21
207.3809580916469
 31
0.0
  0
LINE
  5
8DE
330
7FD
100
AcDbEntity
  8
0
 62
     2
370
    -2
100
AcDbLine
 10
268.7498474060728
 20
209.8809580916469
 30
0.0
 11
246.5998474060728
 21
209.8809580916469
 31
0.0
  0
SOLID
  5
8DF
330
7FD
100
AcDbEntity
  8
0
 62
     2
100
AcDbTrace
 10
268.7498474060728
 20
210.5476247583136
 30
0.0
 11
268.7498474060728
 21
209.2142914249802
 31
0.0
 12
272.7498474060728
 22
209.8809580916469
 32
0.0
 13
272.7498474060728
 23
209.8809580916469
 33
0.0
  0
SOLID
  5
8E0
330
7FD
100
AcDbEntity
  8
0
 62
     2
100
AcDbTrace
 10
246.5998474060728
 20
210.5476247583136
 30
0.0
 11
246.5998474060728
 21
209.2142914249802
 31
0.0
 12
242.5998474060728
 22
209.8809580916469
 32
0.0
 13
242.5998474060728
 23
209.8809580916469
 33
0.0
  0
MTEXT
  5
8E1
330
7FD
100
AcDbEntity
  8
0
 62
     3
100
AcDbMText
 10
257.6748474060728
 20
212.3809580916469
 30
0.0
 40
3.0
 41
0.0
 71
     5
 72
     1
  1
\A1;%%C30.15
 73
     1
 44
1.0
1001
ACAD
1000
MTEXTBEGIN
1070
    73
1070
     1
1070
    44
1040
1.0
1070
    74
1070
     0
1000
MTEXTEND
  0
POINT
  5
8E2
330
7FD
100
AcDbEntity
  8
DEFPOINTS
 62
     0
100
AcDbPoint
 10
272.7498474060728
 20
257.8921183401066
 30
0.0
  0
POINT
  5
8E3
330
7FD
100
AcDbEntity
  8
DEFPOINTS
 62
     0
100
AcDbPoint
 10
242.5998474060728
 20
257.8921183401066
 30
0.0
  0
POINT
  5
8E4
330
7FD
100
AcDbEntity
  8
DEFPOINTS
 62
     0
100
AcDbPoint
 10
242.5998474060728
 20
209.8809580916469
 30
0.0
  0
ENDBLK
  5
808
330
7FD
100
AcDbEntity
  8
0
100
AcDbBlockEnd
  0
BLOCK
  5
821
330
817
100
AcDbEntity
  8
0
100
AcDbBlockBegin
  2
*D8
 70
     1
 10
0.0
 20
0.0
 30
0.0
  3
*D8
  1

  0
LINE
  5
88F
330
817
100
AcDbEntity
  8
0
 62
     2
370
    -2
100
AcDbLine
 10
255.1748474060728
 20
296.7521183401066
 30
0.0
 11
210.3653860328788
 21
296.7521183401066
 31
0.0
  0
LINE
  5
890
330
817
100
AcDbEntity
  8
0
 62
     2
370
    -2
100
AcDbLine
 10
255.1748474060728
 20
219.0321183401065
 30
0.0
 11
210.3653860328788
 21
219.0321183401065
 31
0.0
  0
LINE
  5
891
330
817
100
AcDbEntity
  8
0
 62
     2
370
    -2
100
AcDbLine
 10
212.8653860328789
 20
292.7521183401065
 30
0.0
 11
212.8653860328789
 21
223.0321183401065
 31
0.0
  0
SOLID
  5
892
330
817
100
AcDbEntity
  8
0
 62
     2
100
AcDbTrace
 10
212.1987193662122
 20
292.7521183401065
 30
0.0
 11
213.5320526995455
 21
292.7521183401065
 31
0.0
 12
212.8653860328789
 22
296.7521183401066
 32
0.0
 13
212.8653860328789
 23
296.7521183401066
 33
0.0
  0
SOLID
  5
893
330
817
100
AcDbEntity
  8
0
 62
     2
100
AcDbTrace
 10
212.1987193662122
 20
223.0321183401065
 30
0.0
 11
213.5320526995455
 21
223.0321183401065
 31
0.0
 12
212.8653860328789
 22
219.0321183401065
 32
0.0
 13
212.8653860328789
 23
219.0321183401065
 33
0.0
  0
MTEXT
  5
894
330
817
100
AcDbEntity
  8
0
 62
     3
100
AcDbMText
 10
210.3653860328788
 20
257.8921183401066
 30
0.0
 40
3.0
 41
0.0
 71
     5
 72
     1
  1
\A1;Outside diameter %%c77.7
 11
0.0000000000000001
 21
1.0
 31
0.0
 73
     1
 44
1.0
1001
ACAD
1000
MTEXTBEGIN
1070
    73
1070
     1
1070
    44
1040
1.0
1070
    74
1070
     0
1000
MTEXTEND
  0
POINT
  5
895
330
817
100
AcDbEntity
  8
DEFPOINTS
 62
     0
100
AcDbPoint
 10
257.6748474060728
 20
296.7521183401066
 30
0.0
  0
POINT
  5
896
330
817
100
AcDbEntity
  8
DEFPOINTS
 62
     0
100
AcDbPoint
 10
257.6748474060728
 20
219.0321183401065
 30
0.0
  0
POINT
  5
897
330
817
100
AcDbEntity
  8
DEFPOINTS
 62
     0
100
AcDbPoint
 10
212.8653860328789
 20
219.0321183401065
 30
0.0
  0
ENDBLK
  5
822
330
817
100
AcDbEntity
  8
0
100
AcDbBlockEnd
  0
ENDSEC
  0
SECTION
  2
ENTITIES
  0
INSERT
  5
6
330
25
100
AcDbEntity
  8
AME_FRZ
100
AcDbBlockReference
  2
AME_NIL
 10
0.0
 20
0.0
 30
0.0
  0
INSERT
  5
D
330
25
100
AcDbEntity
  8
AME_FRZ
100
AcDbBlockReference
  2
AME_SOL
 10
0.0
 20
0.0
 30
0.0
1001
AME_SOL
1000
R2.1
1000
AME2
1000
sq mm
1070
     3
1070
     0
1070
     3
1000
wire
1040
45.0
1000
U
1040
2.5
1000
mm
1000
gm
1000
MILD_STEEL
1070
    25
1000
CSG
1070
     1
1070
     3
1070
     3
1070
     3
1070
     0
1000
cu cm
1070
     6
1070
     0
1005
6
  0
ARC
  5
4D5
330
25
100
AcDbEntity
  8
0
100
AcDbCircle
 10
257.6748474060728
 20
257.8921183401066
 30
0.0
 40
33.835
100
AcDbArc
 50
88.57603931266963
 51
91.42396068733038
  0
LINE
  5
4D7
330
25
100
AcDbEntity
  8
HARTLIJN
100
AcDbLine
 10
257.6748474060728
 20
219.0321183401065
 30
0.0
 11
257.6748474060728
 21
297.6840361442029
 31
0.0
  0
LINE
  5
4D8
330
25
100
AcDbEntity
  8
HARTLIJN
100
AcDbLine
 10
218.8148474060728
 20
257.8921183401066
 30
0.0
 11
296.5348474060728
 21
257.8921183401066
 31
0.0
  0
LINE
  5
4DA
330
25
100
AcDbEntity
  8
0
100
AcDbLine
 10
253.896841268373
 20
293.8183859783567
 30
0.0
 11
253.1380391529914
 21
296.2390307281411
 31
0.0
  0
ARC
  5
54A
330
25
100
AcDbEntity
  8
0
100
AcDbCircle
 10
257.6748474060728
 20
257.8921183401066
 30
0.0
 40
38.86
100
AcDbArc
 50
97.18535801942808
 51
105.3146419805719
  0
CIRCLE
  5
563
330
25
100
AcDbEntity
  8
0
100
AcDbCircle
 10
257.6748474060728
 20
257.8921183401066
 30
0.0
 40
32.245
  0
LINE
  5
56B
330
25
100
AcDbEntity
  8
HARTLIJN
100
AcDbLine
 10
328.4464238462902
 20
219.0321183401065
 30
0.0
 11
328.4464238462902
 21
296.7521183401066
 31
0.0
  0
LINE
  5
56C
330
25
100
AcDbEntity
  8
HARTLIJN
100
AcDbLine
 10
310.5825483711333
 20
257.8921183401066
 30
0.0
 11
346.4512914077982
 21
257.8921183401066
 31
0.0
  0
LINE
  5
56D
330
25
100
AcDbEntity
  8
0
100
AcDbLine
 10
325.1964238462907
 20
257.8921183401066
 30
0.0
 11
325.1964238462901
 21
296.7521183401066
 31
0.0
  0
LINE
  5
56E
330
25
100
AcDbEntity
  8
0
100
AcDbLine
 10
331.6964238462906
 20
257.8921183401066
 30
0.0
 11
331.6964238462901
 21
296.7521183401066
 31
0.0
  0
LINE
  5
56F
330
25
100
AcDbEntity
  8
0
100
AcDbLine
 10
331.6964238462901
 20
296.7521183401066
 30
0.0
 11
334.6624429041648
 21
296.7521183401066
 31
0.0
  0
LINE
  5
570
330
25
100
AcDbEntity
  8
0
100
AcDbLine
 10
327.2064238462902
 20
289.9921183401066
 30
0.0
 11
329.6864238462902
 21
289.9921183401065
 31
0.0
  0
ARC
  5
571
330
25
100
AcDbEntity
  8
0
100
AcDbCircle
 10
327.2064238462902
 20
292.0021183401066
 30
0.0
 40
2.009999999999999
100
AcDbArc
 50
180.0
 51
270.0
  0
ARC
  5
572
330
25
100
AcDbEntity
  8
0
100
AcDbCircle
 10
329.6864238462902
 20
292.0021183401065
 30
0.0
 40
2.009999999999999
100
AcDbArc
 50
270.0
 51
0.0
  0
LINE
  5
573
330
25
100
AcDbEntity
  8
0
100
AcDbLine
 10
325.1964238462901
 20
296.7521183401066
 30
0.0
 11
322.2304047884155
 21
296.7521183401066
 31
0.0
  0
LINE
  5
574
330
25
100
AcDbEntity
  8
0
100
AcDbLine
 10
335.1914238462902
 20
222.0321183401065
 30
0.0
 11
335.1914238462902
 21
293.7521183401066
 31
0.0
  0
LINE
  5
575
330
25
100
AcDbEntity
  8
0
100
AcDbLine
 10
321.7014238462902
 20
222.0321183401065
 30
0.0
 11
321.7014238462902
 21
293.7521183401066
 31
0.0
  0
LINE
  5
577
330
25
100
AcDbEntity
  8
0
100
AcDbLine
 10
335.1914238462902
 20
293.7521183401066
 30
0.0
 11
334.6624429041648
 21
296.7521183401066
 31
0.0
  0
LINE
  5
578
330
25
100
AcDbEntity
  8
0
100
AcDbLine
 10
321.7014238462902
 20
293.7521183401066
 30
0.0
 11
322.2304047884155
 21
296.7521183401066
 31
0.0
  0
ARC
  5
57B
330
25
100
AcDbEntity
  8
0
100
AcDbCircle
 10
257.6748474060728
 20
257.8921183401066
 30
0.0
 40
35.86
100
AcDbArc
 50
95.89778130228769
 51
106.6022186977124
  0
LINE
  5
589
330
25
100
AcDbEntity
  8
0
100
AcDbLine
 10
322.2304047884156
 20
295.1939072022589
 30
0.0
 11
325.1964238462901
 21
295.1939072022589
 31
0.0
  0
LINE
  5
58C
330
25
100
AcDbEntity
  8
0
100
AcDbLine
 10
322.2304047884155
 20
296.7521183401066
 30
0.0
 11
322.2304047884155
 21
295.1939072022589
 31
0.0
  0
LINE
  5
58D
330
25
100
AcDbEntity
  8
0
100
AcDbLine
 10
322.2304047884155
 20
295.1939072022588
 30
0.0
 11
321.7014238462902
 21
292.2680124602848
 31
0.0
  0
LINE
  5
58E
330
25
100
AcDbEntity
  8
0
100
AcDbLine
 10
322.2304047884156
 20
291.3448504759263
 30
0.0
 11
325.1964238462902
 21
291.3448504759263
 31
0.0
  0
LINE
  5
58F
330
25
100
AcDbEntity
  8
0
100
AcDbLine
 10
322.2304047884155
 20
288.5443791656394
 30
0.0
 11
325.1964238462903
 21
288.5443791656395
 31
0.0
  0
LINE
  5
592
330
25
100
AcDbEntity
  8
0
100
AcDbLine
 10
322.2304047884156
 20
291.3448504759264
 30
0.0
 11
322.2304047884155
 21
288.5443791656394
 31
0.0
  0
LINE
  5
593
330
25
100
AcDbEntity
  8
0
100
AcDbLine
 10
322.2304047884156
 20
291.3448504759263
 30
0.0
 11
321.7014238462902
 21
289.4188779874214
 31
0.0
  0
LINE
  5
594
330
25
100
AcDbEntity
  8
0
100
AcDbLine
 10
322.2304047884156
 20
288.5443791656393
 30
0.0
 11
321.7014238462902
 21
285.7442291106698
 31
0.0
  0
LINE
  5
595
330
25
100
AcDbEntity
  8
0
100
AcDbLine
 10
322.2304047884155
 20
281.2311993562439
 30
0.0
 11
325.1964238462903
 21
281.2311993562439
 31
0.0
  0
LINE
  5
596
330
25
100
AcDbEntity
  8
0
100
AcDbLine
 10
322.2304047884156
 20
277.4728355103678
 30
0.0
 11
325.1964238462903
 21
277.4728355103677
 31
0.0
  0
LINE
  5
5AD
330
25
100
AcDbEntity
  8
0
100
AcDbLine
 10
322.2304047884156
 20
281.2311993562439
 30
0.0
 11
322.2304047884156
 21
277.4728355103678
 31
0.0
  0
LINE
  5
5AE
330
25
100
AcDbEntity
  8
0
100
AcDbLine
 10
322.2304047884156
 20
281.2311993562439
 30
0.0
 11
321.7014238462902
 21
280.4367060650031
 31
0.0
  0
LINE
  5
5AF
330
25
100
AcDbEntity
  8
0
100
AcDbLine
 10
322.2304047884156
 20
277.4728355103677
 30
0.0
 11
321.7014238462902
 21
274.9802143762493
 31
0.0
  0
LINE
  5
5B0
330
25
100
AcDbEntity
  8
0
100
AcDbLine
 10
322.2304047884156
 20
267.564384721151
 30
0.0
 11
325.1964238462905
 21
267.564384721151
 31
0.0
  0
LINE
  5
5B1
330
25
100
AcDbEntity
  8
0
100
AcDbLine
 10
322.2304047884156
 20
263.3057207407881
 30
0.0
 11
325.1964238462906
 21
263.3057207407881
 31
0.0
  0
LINE
  5
5B4
330
25
100
AcDbEntity
  8
0
100
AcDbLine
 10
322.2304047884155
 20
267.5643847211509
 30
0.0
 11
322.2304047884156
 21
263.3057207407881
 31
0.0
  0
LINE
  5
5B5
330
25
100
AcDbEntity
  8
0
100
AcDbLine
 10
322.2304047884156
 20
267.5643847211509
 30
0.0
 11
321.7014238462902
 21
268.1017952908377
 31
0.0
  0
LINE
  5
5B6
330
25
100
AcDbEntity
  8
0
100
AcDbLine
 10
322.2304047884156
 20
263.3057207407881
 30
0.0
 11
321.7014238462902
 21
261.6146919243024
 31
0.0
  0
LINE
  5
5B7
330
25
100
AcDbEntity
  8
0
100
AcDbLine
 10
334.6624429041647
 20
295.1939072022589
 30
0.0
 11
331.6964238462901
 21
295.1939072022589
 31
0.0
  0
LINE
  5
5B8
330
25
100
AcDbEntity
  8
0
100
AcDbLine
 10
334.6624429041648
 20
296.7521183401066
 30
0.0
 11
334.6624429041648
 21
295.1939072022589
 31
0.0
  0
LINE
  5
5B9
330
25
100
AcDbEntity
  8
0
100
AcDbLine
 10
334.6624429041648
 20
295.1939072022588
 30
0.0
 11
335.1914238462902
 21
292.2680124602848
 31
0.0
  0
LINE
  5
5BA
330
25
100
AcDbEntity
  8
0
100
AcDbLine
 10
334.6624429041647
 20
291.3448504759263
 30
0.0
 11
331.6964238462901
 21
291.3448504759263
 31
0.0
  0
LINE
  5
5BB
330
25
100
AcDbEntity
  8
0
100
AcDbLine
 10
334.6624429041648
 20
288.5443791656394
 30
0.0
 11
331.6964238462901
 21
288.5443791656395
 31
0.0
  0
LINE
  5
5BC
330
25
100
AcDbEntity
  8
0
100
AcDbLine
 10
334.6624429041647
 20
291.3448504759264
 30
0.0
 11
334.6624429041648
 21
288.5443791656394
 31
0.0
  0
LINE
  5
5BD
330
25
100
AcDbEntity
  8
0
100
AcDbLine
 10
334.6624429041647
 20
291.3448504759263
 30
0.0
 11
335.1914238462902
 21
289.4188779874214
 31
0.0
  0
LINE
  5
5BE
330
25
100
AcDbEntity
  8
0
100
AcDbLine
 10
334.6624429041647
 20
288.5443791656393
 30
0.0
 11
335.1914238462902
 21
285.7442291106698
 31
0.0
  0
LINE
  5
5BF
330
25
100
AcDbEntity
  8
0
100
AcDbLine
 10
334.6624429041648
 20
281.2311993562439
 30
0.0
 11
331.69642384629
 21
281.2311993562439
 31
0.0
  0
LINE
  5
5C0
330
25
100
AcDbEntity
  8
0
100
AcDbLine
 10
334.6624429041647
 20
277.4728355103678
 30
0.0
 11
331.69642384629
 21
277.4728355103677
 31
0.0
  0
LINE
  5
5C1
330
25
100
AcDbEntity
  8
0
100
AcDbLine
 10
334.6624429041647
 20
281.2311993562439
 30
0.0
 11
334.6624429041647
 21
277.4728355103678
 31
0.0
  0
LINE
  5
5C2
330
25
100
AcDbEntity
  8
0
100
AcDbLine
 10
334.6624429041647
 20
281.2311993562439
 30
0.0
 11
335.1914238462902
 21
280.4367060650031
 31
0.0
  0
LINE
  5
5C3
330
25
100
AcDbEntity
  8
0
100
AcDbLine
 10
334.6624429041647
 20
277.4728355103677
 30
0.0
 11
335.1914238462902
 21
274.9802143762493
 31
0.0
  0
LINE
  5
5C4
330
25
100
AcDbEntity
  8
0
100
AcDbLine
 10
334.6624429041647
 20
267.564384721151
 30
0.0
 11
331.6964238462897
 21
267.564384721151
 31
0.0
  0
LINE
  5
5C5
330
25
100
AcDbEntity
  8
0
100
AcDbLine
 10
334.6624429041647
 20
263.3057207407881
 30
0.0
 11
331.6964238462897
 21
263.3057207407881
 31
0.0
  0
LINE
  5
5C6
330
25
100
AcDbEntity
  8
0
100
AcDbLine
 10
334.6624429041648
 20
267.5643847211509
 30
0.0
 11
334.6624429041647
 21
263.3057207407881
 31
0.0
  0
LINE
  5
5C7
330
25
100
AcDbEntity
  8
0
100
AcDbLine
 10
334.6624429041647
 20
267.5643847211509
 30
0.0
 11
335.1914238462902
 21
268.1017952908377
 31
0.0
  0
LINE
  5
5C8
330
25
100
AcDbEntity
  8
0
100
AcDbLine
 10
334.6624429041647
 20
263.3057207407881
 30
0.0
 11
335.1914238462902
 21
261.6146919243024
 31
0.0
  0
LINE
  5
5C9
330
25
100
AcDbEntity
  8
0
100
AcDbLine
 10
331.6964238462906
 20
257.8921183401066
 30
0.0
 11
331.6964238462901
 21
219.0321183401065
 31
0.0
  0
ARC
  5
5CA
330
25
100
AcDbEntity
  8
0
100
AcDbCircle
 10
329.6864238462902
 20
223.7821183401066
 30
0.0
 40
2.009999999999999
100
AcDbArc
 50
0.0
 51
90.00000000000003
  0
LINE
  5
5CB
330
25
100
AcDbEntity
  8
0
100
AcDbLine
 10
325.1964238462907
 20
257.8921183401066
 30
0.0
 11
325.1964238462901
 21
219.0321183401065
 31
0.0
  0
ARC
  5
5CC
330
25
100
AcDbEntity
  8
0
100
AcDbCircle
 10
327.2064238462902
 20
223.7821183401065
 30
0.0
 40
2.009999999999999
100
AcDbArc
 50
90.00000000000003
 51
180.0
  0
LINE
  5
5CD
330
25
100
AcDbEntity
  8
0
100
AcDbLine
 10
331.6964238462901
 20
219.0321183401065
 30
0.0
 11
334.6624429041648
 21
219.0321183401065
 31
0.0
  0
LINE
  5
5CE
330
25
100
AcDbEntity
  8
0
100
AcDbLine
 10
327.2064238462902
 20
225.7921183401065
 30
0.0
 11
329.6864238462902
 21
225.7921183401066
 31
0.0
  0
LINE
  5
5CF
330
25
100
AcDbEntity
  8
0
100
AcDbLine
 10
325.1964238462901
 20
219.0321183401065
 30
0.0
 11
322.2304047884155
 21
219.0321183401065
 31
0.0
  0
LINE
  5
5D0
330
25
100
AcDbEntity
  8
0
100
AcDbLine
 10
335.1914238462902
 20
222.0321183401065
 30
0.0
 11
334.6624429041648
 21
219.0321183401065
 31
0.0
  0
LINE
  5
5D1
330
25
100
AcDbEntity
  8
0
100
AcDbLine
 10
321.7014238462902
 20
222.0321183401065
 30
0.0
 11
322.2304047884155
 21
219.0321183401065
 31
0.0
  0
LINE
  5
5D2
330
25
100
AcDbEntity
  8
0
100
AcDbLine
 10
322.2304047884156
 20
220.5903294779542
 30
0.0
 11
325.1964238462901
 21
220.5903294779542
 31
0.0
  0
LINE
  5
5D3
330
25
100
AcDbEntity
  8
0
100
AcDbLine
 10
322.2304047884155
 20
219.0321183401065
 30
0.0
 11
322.2304047884155
 21
220.5903294779542
 31
0.0
  0
LINE
  5
5D4
330
25
100
AcDbEntity
  8
0
100
AcDbLine
 10
322.2304047884155
 20
220.5903294779543
 30
0.0
 11
321.7014238462902
 21
223.5162242199283
 31
0.0
  0
LINE
  5
5D5
330
25
100
AcDbEntity
  8
0
100
AcDbLine
 10
322.2304047884156
 20
224.4393862042868
 30
0.0
 11
325.1964238462902
 21
224.4393862042869
 31
0.0
  0
LINE
  5
5D6
330
25
100
AcDbEntity
  8
0
100
AcDbLine
 10
322.2304047884155
 20
227.2398575145737
 30
0.0
 11
325.1964238462903
 21
227.2398575145737
 31
0.0
  0
LINE
  5
5D7
330
25
100
AcDbEntity
  8
0
100
AcDbLine
 10
322.2304047884156
 20
224.4393862042867
 30
0.0
 11
322.2304047884155
 21
227.2398575145737
 31
0.0
  0
LINE
  5
5D8
330
25
100
AcDbEntity
  8
0
100
AcDbLine
 10
322.2304047884156
 20
224.4393862042868
 30
0.0
 11
321.7014238462902
 21
226.3653586927917
 31
0.0
  0
LINE
  5
5D9
330
25
100
AcDbEntity
  8
0
100
AcDbLine
 10
322.2304047884156
 20
227.2398575145738
 30
0.0
 11
321.7014238462902
 21
230.0400075695433
 31
0.0
  0
LINE
  5
5DA
330
25
100
AcDbEntity
  8
0
100
AcDbLine
 10
322.2304047884155
 20
234.5530373239692
 30
0.0
 11
325.1964238462903
 21
234.5530373239692
 31
0.0
  0
LINE
  5
5DB
330
25
100
AcDbEntity
  8
0
100
AcDbLine
 10
322.2304047884156
 20
238.3114011698454
 30
0.0
 11
325.1964238462903
 21
238.3114011698454
 31
0.0
  0
LINE
  5
5DC
330
25
100
AcDbEntity
  8
0
100
AcDbLine
 10
322.2304047884156
 20
234.5530373239692
 30
0.0
 11
322.2304047884156
 21
238.3114011698454
 31
0.0
  0
LINE
  5
5DD
330
25
100
AcDbEntity
  8
0
100
AcDbLine
 10
322.2304047884156
 20
234.5530373239692
 30
0.0
 11
321.7014238462902
 21
235.34753061521
 31
0.0
  0
LINE
  5
5DE
330
25
100
AcDbEntity
  8
0
100
AcDbLine
 10
322.2304047884156
 20
238.3114011698454
 30
0.0
 11
321.7014238462902
 21
240.8040223039638
 31
0.0
  0
LINE
  5
5DF
330
25
100
AcDbEntity
  8
0
100
AcDbLine
 10
322.2304047884156
 20
248.2198519590621
 30
0.0
 11
325.1964238462905
 21
248.2198519590621
 31
0.0
  0
LINE
  5
5E0
330
25
100
AcDbEntity
  8
0
100
AcDbLine
 10
322.2304047884156
 20
252.478515939425
 30
0.0
 11
325.1964238462906
 21
252.4785159394251
 31
0.0
  0
LINE
  5
5E1
330
25
100
AcDbEntity
  8
0
100
AcDbLine
 10
322.2304047884155
 20
248.2198519590622
 30
0.0
 11
322.2304047884156
 21
252.478515939425
 31
0.0
  0
LINE
  5
5E2
330
25
100
AcDbEntity
  8
0
100
AcDbLine
 10
322.2304047884156
 20
248.2198519590622
 30
0.0
 11
321.7014238462902
 21
247.6824413893754
 31
0.0
  0
LINE
  5
5E3
330
25
100
AcDbEntity
  8
0
100
AcDbLine
 10
322.2304047884156
 20
252.4785159394251
 30
0.0
 11
321.7014238462902
 21
254.1695447559107
 31
0.0
  0
LINE
  5
5E4
330
25
100
AcDbEntity
  8
0
100
AcDbLine
 10
334.6624429041647
 20
220.5903294779542
 30
0.0
 11
331.6964238462901
 21
220.5903294779542
 31
0.0
  0
LINE
  5
5E5
330
25
100
AcDbEntity
  8
0
100
AcDbLine
 10
334.6624429041648
 20
219.0321183401065
 30
0.0
 11
334.6624429041648
 21
220.5903294779542
 31
0.0
  0
LINE
  5
5E6
330
25
100
AcDbEntity
  8
0
100
AcDbLine
 10
334.6624429041648
 20
220.5903294779543
 30
0.0
 11
335.1914238462902
 21
223.5162242199283
 31
0.0
  0
LINE
  5
5E7
330
25
100
AcDbEntity
  8
0
100
AcDbLine
 10
334.6624429041647
 20
224.4393862042868
 30
0.0
 11
331.6964238462901
 21
224.4393862042869
 31
0.0
  0
LINE
  5
5E8
330
25
100
AcDbEntity
  8
0
100
AcDbLine
 10
334.6624429041648
 20
227.2398575145737
 30
0.0
 11
331.6964238462901
 21
227.2398575145737
 31
0.0
  0
LINE
  5
5E9
330
25
100
AcDbEntity
  8
0
100
AcDbLine
 10
334.6624429041647
 20
224.4393862042867
 30
0.0
 11
334.6624429041648
 21
227.2398575145737
 31
0.0
  0
LINE
  5
5EA
330
25
100
AcDbEntity
  8
0
100
AcDbLine
 10
334.6624429041647
 20
224.4393862042868
 30
0.0
 11
335.1914238462902
 21
226.3653586927917
 31
0.0
  0
LINE
  5
5EB
330
25
100
AcDbEntity
  8
0
100
AcDbLine
 10
334.6624429041647
 20
227.2398575145738
 30
0.0
 11
335.1914238462902
 21
230.0400075695433
 31
0.0
  0
LINE
  5
5EC
330
25
100
AcDbEntity
  8
0
100
AcDbLine
 10
334.6624429041648
 20
234.5530373239692
 30
0.0
 11
331.69642384629
 21
234.5530373239692
 31
0.0
  0
LINE
  5
5ED
330
25
100
AcDbEntity
  8
0
100
AcDbLine
 10
334.6624429041647
 20
238.3114011698454
 30
0.0
 11
331.69642384629
 21
238.3114011698454
 31
0.0
  0
LINE
  5
5EE
330
25
100
AcDbEntity
  8
0
100
AcDbLine
 10
334.6624429041647
 20
234.5530373239692
 30
0.0
 11
334.6624429041647
 21
238.3114011698454
 31
0.0
  0
LINE
  5
5EF
330
25
100
AcDbEntity
  8
0
100
AcDbLine
 10
334.6624429041647
 20
234.5530373239692
 30
0.0
 11
335.1914238462902
 21
235.34753061521
 31
0.0
  0
LINE
  5
5F0
330
25
100
AcDbEntity
  8
0
100
AcDbLine
 10
334.6624429041647
 20
238.3114011698454
 30
0.0
 11
335.1914238462902
 21
240.8040223039638
 31
0.0
  0
LINE
  5
5F1
330
25
100
AcDbEntity
  8
0
100
AcDbLine
 10
334.6624429041647
 20
248.2198519590621
 30
0.0
 11
331.6964238462897
 21
248.2198519590621
 31
0.0
  0
LINE
  5
5F2
330
25
100
AcDbEntity
  8
0
100
AcDbLine
 10
334.6624429041647
 20
252.478515939425
 30
0.0
 11
331.6964238462897
 21
252.4785159394251
 31
0.0
  0
LINE
  5
5F3
330
25
100
AcDbEntity
  8
0
100
AcDbLine
 10
334.6624429041648
 20
248.2198519590622
 30
0.0
 11
334.6624429041647
 21
252.478515939425
 31
0.0
  0
LINE
  5
5F4
330
25
100
AcDbEntity
  8
0
100
AcDbLine
 10
334.6624429041647
 20
248.2198519590622
 30
0.0
 11
335.1914238462902
 21
247.6824413893754
 31
0.0
  0
LINE
  5
5F5
330
25
100
AcDbEntity
  8
0
100
AcDbLine
 10
334.6624429041647
 20
252.4785159394251
 30
0.0
 11
335.1914238462902
 21
254.1695447559107
 31
0.0
  0
LINE
  5
5F6
330
25
100
AcDbEntity
  8
0
100
AcDbLine
 10
344.3214238462902
 20
227.1471183401065
 30
0.0
 11
344.3214238462902
 21
288.6371183401066
 31
0.0
  0
LINE
  5
5F7
330
25
100
AcDbEntity
  8
0
100
AcDbLine
 10
312.5714238462902
 20
227.1471183401065
 30
0.0
 11
312.5714238462901
 21
288.6371183401065
 31
0.0
  0
LINE
  5
5F8
330
25
100
AcDbEntity
  8
0
100
AcDbLine
 10
314.0714238462901
 20
290.1371183401066
 30
0.0
 11
321.7014238462902
 21
290.1371183401066
 31
0.0
  0
LINE
  5
5F9
330
25
100
AcDbEntity
  8
0
100
AcDbLine
 10
335.1914238462902
 20
290.1371183401066
 30
0.0
 11
342.8214238462902
 21
290.1371183401066
 31
0.0
  0
LINE
  5
5FA
330
25
100
AcDbEntity
  8
0
100
AcDbLine
 10
314.0714238462902
 20
225.6471183401065
 30
0.0
 11
321.7014238462902
 21
225.6471183401065
 31
0.0
  0
LINE
  5
5FB
330
25
100
AcDbEntity
  8
0
100
AcDbLine
 10
335.1914238462902
 20
225.6471183401065
 30
0.0
 11
342.8214238462901
 21
225.6471183401065
 31
0.0
  0
ARC
  5
5FC
330
25
100
AcDbEntity
  8
0
100
AcDbCircle
 10
314.0714238462901
 20
288.6371183401065
 30
0.0
 40
1.5
100
AcDbArc
 50
90.0
 51
180.0
  0
ARC
  5
5FD
330
25
100
AcDbEntity
  8
0
100
AcDbCircle
 10
342.8214238462902
 20
288.6371183401066
 30
0.0
 40
1.5
100
AcDbArc
 50
0.0
 51
90.0
  0
ARC
  5
5FE
330
25
100
AcDbEntity
  8
0
100
AcDbCircle
 10
342.8214238462901
 20
227.1471183401065
 30
0.0
 40
1.5
100
AcDbArc
 50
270.0000000000002
 51
360.0
  0
ARC
  5
5FF
330
25
100
AcDbEntity
  8
0
100
AcDbCircle
 10
314.0714238462902
 20
227.1471183401065
 30
0.0
 40
1.5
100
AcDbArc
 50
180.0
 51
269.9999999999998
  0
LINE
  5
600
330
25
100
AcDbEntity
  8
0
100
AcDbLine
 10
314.0714238462902
 20
225.6471183401065
 30
0.0
 11
314.0714238462901
 21
290.1371183401066
 31
0.0
  0
LINE
  5
601
330
25
100
AcDbEntity
  8
0
100
AcDbLine
 10
342.8214238462902
 20
290.1371183401066
 30
0.0
 11
342.8214238462901
 21
225.6471183401065
 31
0.0
  0
INSERT
  5
71F
330
25
100
AcDbEntity
  8
0
100
AcDbBlockReference
 66
     1
  2
calca4
 10
170.9714888402718
 20
58.47677218280807
 30
0.0
  0
ATTRIB
  5
720
330
71F
100
AcDbEntity
  8
3
100
AcDbText
 10
192.971489290303
 20
88.97677235635331
 30
0.0
 40
4.0
  1
KU1500T16R30 drive
100
AcDbAttribute
  2
NAME
 70
     0
  0
ATTRIB
  5
721
330
71F
100
AcDbEntity
  8
3
100
AcDbText
 10
192.971489290303
 20
84.4767723563533
 30
0.0
 40
2.5
  1

100
AcDbAttribute
  2
ADDITIONAL_NAME
 70
     0
  0
ATTRIB
  5
722
330
71F
100
AcDbEntity
  8
3
100
AcDbText
 10
286.971489290303
 20
70.95677235635344
 30
0.0
 40
4.5
  1
K4588
100
AcDbAttribute
  2
DRAWING_NO.
 70
     0
  0
ATTRIB
  5
723
330
71F
100
AcDbEntity
  8
3
100
AcDbText
 10
301.0101474372679
 20
89.72677235635334
 30
0.0
 40
2.0
  1
1:1
 41
0.8
 11
301.0101474372679
 21
90.72677235635334
 31
0.0
100
AcDbAttribute
  2
SCALE
 70
     0
 74
     2
  0
ATTRIB
  5
724
330
71F
100
AcDbEntity
  8
3
100
AcDbText
 10
347.6000607188745
 20
89.72677235635339
 30
0.0
 40
2.0
  1
10-2-09
 41
0.8
 72
     1
 11
352.971489290303
 21
90.72677235635339
 31
0.0
100
AcDbAttribute
  2
DATE
 70
     0
 74
     2
  0
ATTRIB
  5
725
330
71F
100
AcDbEntity
  8
3
100
AcDbText
 10
363.6619654807792
 20
89.72677235635339
 30
0.0
 40
2.0
  1
WP
 72
     1
 11
365.471489290303
 21
90.72677235635339
 31
0.0
100
AcDbAttribute
  2
INITIALS
 70
     0
 74
     2
  0
ATTRIB
  5
726
330
71F
100
AcDbEntity
  8
3
100
AcDbText
 10
192.971489290303
 20
120.4767723563533
 30
0.0
 40
2.5
  1

100
AcDbAttribute
  2
MATERIAL
 70
     0
  0
ATTRIB
  5
727
330
71F
100
AcDbEntity
  8
3
100
AcDbText
 10
192.971489290303
 20
110.4767723563533
 30
0.0
 40
2.5
  1

100
AcDbAttribute
  2
PRODUCTTREATMENT
 70
     0
  0
ATTRIB
  5
728
330
71F
100
AcDbEntity
  8
3
100
AcDbText
 10
192.971489290303
 20
100.4767723563533
 30
0.0
 40
2.5
  1

100
AcDbAttribute
  2
SEMIFINISHED_PRODUCT
 70
     0
  0
ATTRIB
  5
729
330
71F
100
AcDbEntity
  8
3
100
AcDbText
 10
300.971489290303
 20
84.22677235635333
 30
0.0
 40
2.0
  1
mm
 41
0.8
 11
300.971489290303
 21
85.22677235635333
 31
0.0
100
AcDbAttribute
  2
UNITS
 70
     0
 74
     2
  0
ATTRIB
  5
72A
330
71F
100
AcDbEntity
  8
3
100
AcDbText
 10
352.971489290303
 20
84.22677235635333
 30
0.0
 40
2.0
  1

 41
0.8
 72
     1
 11
352.971489290303
 21
85.22677235635333
 31
0.0
100
AcDbAttribute
  2
DATE
 70
     0
 74
     2
  0
ATTRIB
  5
72B
330
71F
100
AcDbEntity
  8
3
100
AcDbText
 10
365.471489290303
 20
84.22677235635333
 30
0.0
 40
2.0
  1

 72
     1
 11
365.471489290303
 21
85.22677235635333
 31
0.0
100
AcDbAttribute
  2
INITIALS
 70
     0
 74
     2
  0
ATTRIB
  5
72C
330
71F
100
AcDbEntity
  8
3
100
AcDbText
 10
287.471489290303
 20
99.97677235635331
 30
0.0
 40
2.0
  1

 72
     1
 11
287.471489290303
 21
100.9767723563533
 31
0.0
100
AcDbAttribute
  2
REV1
 70
     0
 74
     2
  0
ATTRIB
  5
72D
330
71F
100
AcDbEntity
  8
3
100
AcDbText
 10
292.971489290303
 20
99.97677235635331
 30
0.0
 40
2.0
  1

100
AcDbAttribute
  2
Change 1
 70
     0
  0
ATTRIB
  5
72E
330
71F
100
AcDbEntity
  8
3
100
AcDbText
 10
352.971489290303
 20
99.97677235635331
 30
0.0
 40
2.0
  1

 41
0.8
 72
     1
 11
352.971489290303
 21
100.9767723563533
 31
0.0
100
AcDbAttribute
  2
DATE 1
 70
     0
 74
     2
  0
ATTRIB
  5
72F
330
71F
100
AcDbEntity
  8
3
100
AcDbText
 10
365.471489290303
 20
99.97677235635331
 30
0.0
 40
2.0
  1

 72
     1
 11
365.471489290303
 21
100.9767723563533
 31
0.0
100
AcDbAttribute
  2
Initial1
 70
     0
 74
     2
  0
ATTRIB
  5
730
330
71F
100
AcDbEntity
  8
3
100
AcDbText
 10
287.471489290303
 20
104.9767723563533
 30
0.0
 40
2.0
  1

 72
     1
 11
287.471489290303
 21
105.9767723563533
 31
0.0
100
AcDbAttribute
  2
Rev2
 70
     0
 74
     2
  0
ATTRIB
  5
731
330
71F
100
AcDbEntity
  8
3
100
AcDbText
 10
292.971489290303
 20
104.9767723563533
 30
0.0
 40
2.0
  1

100
AcDbAttribute
  2
Change 2
 70
     0
  0
ATTRIB
  5
732
330
71F
100
AcDbEntity
  8
3
100
AcDbText
 10
352.971489290303
 20
104.9767723563533
 30
0.0
 40
2.0
  1

 41
0.8
 72
     1
 11
352.971489290303
 21
105.9767723563533
 31
0.0
100
AcDbAttribute
  2
Date 2
 70
     0
 74
     2
  0
ATTRIB
  5
733
330
71F
100
AcDbEntity
  8
3
100
AcDbText
 10
365.471489290303
 20
104.9767723563533
 30
0.0
 40
2.0
  1

 72
     1
 11
365.471489290303
 21
105.9767723563533
 31
0.0
100
AcDbAttribute
  2
Initial2
 70
     0
 74
     2
  0
ATTRIB
  5
734
330
71F
100
AcDbEntity
  8
3
100
AcDbText
 10
287.471489290303
 20
109.9767723563533
 30
0.0
 40
2.0
  1

 72
     1
 11
287.471489290303
 21
110.9767723563533
 31
0.0
100
AcDbAttribute
  2
Rev3
 70
     0
 74
     2
  0
ATTRIB
  5
735
330
71F
100
AcDbEntity
  8
3
100
AcDbText
 10
292.971489290303
 20
109.9767723563533
 30
0.0
 40
2.0
  1

100
AcDbAttribute
  2
Change 3
 70
     0
  0
ATTRIB
  5
736
330
71F
100
AcDbEntity
  8
3
100
AcDbText
 10
352.971489290303
 20
109.9767723563533
 30
0.0
 40
2.0
  1

 41
0.8
 72
     1
 11
352.971489290303
 21
110.9767723563533
 31
0.0
100
AcDbAttribute
  2
Date 3
 70
     0
 74
     2
  0
ATTRIB
  5
737
330
71F
100
AcDbEntity
  8
3
100
AcDbText
 10
365.471489290303
 20
109.9767723563533
 30
0.0
 40
2.0
  1

 72
     1
 11
365.471489290303
 21
110.9767723563533
 31
0.0
100
AcDbAttribute
  2
Initial3
 70
     0
 74
     2
  0
ATTRIB
  5
738
330
71F
100
AcDbEntity
  8
3
100
AcDbText
 10
287.471489290303
 20
114.9767723563533
 30
0.0
 40
2.0
  1

 72
     1
 11
287.471489290303
 21
115.9767723563533
 31
0.0
100
AcDbAttribute
  2
Rev4
 70
     0
 74
     2
  0
ATTRIB
  5
739
330
71F
100
AcDbEntity
  8
3
100
AcDbText
 10
292.971489290303
 20
114.9767723563533
 30
0.0
 40
2.0
  1

100
AcDbAttribute
  2
Change 4
 70
     0
  0
ATTRIB
  5
73A
330
71F
100
AcDbEntity
  8
3
100
AcDbText
 10
352.971489290303
 20
114.9767723563533
 30
0.0
 40
2.0
  1

 41
0.8
 72
     1
 11
352.971489290303
 21
115.9767723563533
 31
0.0
100
AcDbAttribute
  2
Date 4
 70
     0
 74
     2
  0
ATTRIB
  5
73B
330
71F
100
AcDbEntity
  8
3
100
AcDbText
 10
365.471489290303
 20
114.9767723563533
 30
0.0
 40
2.0
  1

 72
     1
 11
365.471489290303
 21
115.9767723563533
 31
0.0
100
AcDbAttribute
  2
Initial4
 70
     0
 74
     2
  0
ATTRIB
  5
73C
330
71F
100
AcDbEntity
  8
3
100
AcDbText
 10
287.471489290303
 20
119.9767723563533
 30
0.0
 40
2.0
  1

 72
     1
 11
287.471489290303
 21
120.9767723563533
 31
0.0
100
AcDbAttribute
  2
Rev5
 70
     0
 74
     2
  0
ATTRIB
  5
73D
330
71F
100
AcDbEntity
  8
3
100
AcDbText
 10
292.971489290303
 20
119.9767723563533
 30
0.0
 40
2.0
  1

100
AcDbAttribute
  2
Change 5
 70
     0
  0
ATTRIB
  5
73E
330
71F
100
AcDbEntity
  8
3
100
AcDbText
 10
352.971489290303
 20
119.9767723563533
 30
0.0
 40
2.0
  1

 41
0.8
 72
     1
 11
352.971489290303
 21
120.9767723563533
 31
0.0
100
AcDbAttribute
  2
Date 5
 70
     0
 74
     2
  0
ATTRIB
  5
73F
330
71F
100
AcDbEntity
  8
3
100
AcDbText
 10
365.471489290303
 20
119.9767723563533
 30
0.0
 40
2.0
  1

 72
     1
 11
365.471489290303
 21
120.9767723563533
 31
0.0
100
AcDbAttribute
  2
Initial5
 70
     0
 74
     2
  0
ATTRIB
  5
740
330
71F
100
AcDbEntity
  8
3
100
AcDbText
 10
287.471489290303
 20
124.9767723563533
 30
0.0
 40
2.0
  1

 72
     1
 11
287.471489290303
 21
125.9767723563533
 31
0.0
100
AcDbAttribute
  2
Rev6
 70
     0
 74
     2
  0
ATTRIB
  5
741
330
71F
100
AcDbEntity
  8
3
100
AcDbText
 10
292.971489290303
 20
124.9767723563533
 30
0.0
 40
2.0
  1

100
AcDbAttribute
  2
Change 6
 70
     0
  0
ATTRIB
  5
742
330
71F
100
AcDbEntity
  8
3
100
AcDbText
 10
352.971489290303
 20
124.9767723563533
 30
0.0
 40
2.0
  1

 41
0.8
 72
     1
 11
352.971489290303
 21
125.9767723563533
 31
0.0
100
AcDbAttribute
  2
Date 6
 70
     0
 74
     2
  0
ATTRIB
  5
743
330
71F
100
AcDbEntity
  8
3
100
AcDbText
 10
365.471489290303
 20
124.9767723563533
 30
0.0
 40
2.0
  1

 72
     1
 11
365.471489290303
 21
125.9767723563533
 31
0.0
100
AcDbAttribute
  2
Initial6
 70
     0
 74
     2
  0
SEQEND
  5
744
330
71F
100
AcDbEntity
  8
0
  0
DIMENSION
  5
7BA
330
25
100
AcDbEntity
  8
0
100
AcDbDimension
  2
*D4
 10
321.7014238462902
 20
209.3597800567291
 30
0.0
 11
328.4464238462902
 21
211.8597800567292
 31
0.0
 70
    32
 71
     5
 42
13.48999999999995
  3
MCC
100
AcDbAlignedDimension
 13
335.1914238462902
 23
222.0321183401065
 33
0.0
 14
321.7014238462902
 24
222.0321183401065
 34
0.0
100
AcDbRotatedDimension
1001
ACAD
1000
DSTYLE
1002
{
1070
   271
1070
     1
1002
}
  0
DIMENSION
  5
7C7
330
25
100
AcDbEntity
  8
0
100
AcDbDimension
  2
*D5
 10
344.3214238462902
 20
199.7179834591287
 30
0.0
 11
328.4464238462902
 21
202.2179834591287
 31
0.0
 70
    32
 71
     5
 42
31.74999999999994
  3
MCC
100
AcDbAlignedDimension
 13
312.5714238462902
 23
227.1471183401065
 33
0.0
 14
344.3214238462902
 24
227.1471183401065
 34
0.0
100
AcDbRotatedDimension
1001
ACAD
1000
DSTYLE
1002
{
1070
   271
1070
     1
1002
}
  0
DIMENSION
  5
7D4
330
25
100
AcDbEntity
  8
0
100
AcDbDimension
  2
*D6
 10
354.9068832955299
 20
290.1371183401066
 30
0.0
 11
352.4068832955299
 21
257.8921183401067
 31
0.0
 70
    32
 71
     5
 42
64.49000000000006
  3
MCC
100
AcDbAlignedDimension
 13
342.8214238462901
 23
225.6471183401065
 33
0.0
 14
342.8214238462902
 24
290.1371183401066
 34
0.0
 50
90.0
100
AcDbRotatedDimension
1001
ACAD
1000
DSTYLE
1002
{
1070
   271
1070
     1
1002
}
  0
DIMENSION
  5
7FC
330
25
100
AcDbEntity
  8
0
100
AcDbDimension
  2
*D7
 10
242.5998474060728
 20
209.8809580916469
 30
0.0
 11
257.6748474060728
 21
212.3809580916469
 31
0.0
 70
    32
 71
     5
 42
30.14999999999998
  3
MCC
100
AcDbAlignedDimension
 13
272.7498474060728
 23
257.8921183401066
 33
0.0
 14
242.5998474060728
 24
257.8921183401066
 34
0.0
100
AcDbRotatedDimension
1001
ACAD
1000
DSTYLE
1002
{
1070
     3
1000
%%C<>
1002
}
  0
ARC
  5
812
330
25
100
AcDbEntity
  8
HARTLIJN
100
AcDbCircle
 10
257.6748474060728
 20
257.8921183401066
 30
0.0
 40
38.86000000000001
100
AcDbArc
 50
83.36948256567326
 51
96.28472215867251
  0
ARC
  5
815
330
25
100
AcDbEntity
  8
HARTLIJN
100
AcDbCircle
 10
257.6748474060728
 20
257.8921183401066
 30
0.0
 40
38.86000000000001
100
AcDbArc
 50
263.7152778413275
 51
276.6305174343267
  0
DIMENSION
  5
816
330
25
100
AcDbEntity
  8
0
100
AcDbDimension
  2
*D8
 10
212.8653860328789
 20
219.0321183401065
 30
0.0
 11
210.3653860328788
 21
257.8921183401066
 31
0.0
 70
    32
 71
     5
 42
77.72000000000002
  3
MCC
100
AcDbAlignedDimension
 13
257.6748474060728
 23
296.7521183401066
 33
0.0
 14
257.6748474060728
 24
219.0321183401065
 34
0.0
 50
90.0
100
AcDbRotatedDimension
1001
ACAD
1000
DSTYLE
1002
{
1070
     3
1000
Outside diameter %%c<>
1070
   271
1070
     1
1070
    78
1070
    13
1002
}
  0
ARC
  5
8D2
330
25
100
AcDbEntity
  8
0
100
AcDbCircle
 10
257.6748474060728
 20
257.8921183401066
 30
0.0
 40
15.075
100
AcDbArc
 50
105.4857284644746
 51
74.51427153552517
  0
LINE
  5
8E6
330
25
100
AcDbEntity
  8
0
100
AcDbLine
 10
253.6498474060728
 20
276.2671183401066
 30
0.0
 11
261.6998474060728
 21
276.2671183401066
 31
0.0
  0
LINE
  5
8E9
330
25
100
AcDbEntity
  8
0
100
AcDbLine
 10
261.6998474060728
 20
272.4198504411607
 30
0.0
 11
261.6998474060728
 21
276.2671183401066
 31
0.0
  0
LINE
  5
8EA
330
25
100
AcDbEntity
  8
0
100
AcDbLine
 10
253.6498474060728
 20
272.4198504411607
 30
0.0
 11
253.6498474060728
 21
276.2671183401066
 31
0.0
  0
ARC
  5
8EB
330
25
100
AcDbEntity
  8
0
100
AcDbCircle
 10
257.6748474060728
 20
257.8921183401066
 30
0.0
 40
16.075
100
AcDbArc
 50
104.5005206992193
 51
75.49947930078056
  0
ARC
  5
8EC
330
25
100
AcDbEntity
  8
0
100
AcDbCircle
 10
256.7594886663378
 20
294.7157431396506
 30
0.0
 40
3.0
100
AcDbArc
 50
197.4046991430084
 51
271.4239606873306
  0
ARC
  5
8EE
330
25
100
AcDbEntity
  8
0
100
AcDbCircle
 10
252.8517744131948
 20
296.1492950120117
 30
0.0
 40
0.3
100
AcDbArc
 50
17.40469914300434
 51
97.18535801943032
  0
ARC
  5
8EF
330
25
100
AcDbEntity
  8
0
100
AcDbCircle
 10
258.5902061458078
 20
294.7157431396506
 30
0.0
 40
3.0
100
AcDbArc
 50
268.5760393126694
 51
342.5953008569916
  0
LINE
  5
8F0
330
25
100
AcDbEntity
  8
0
100
AcDbLine
 10
261.4528535437726
 20
293.8183859783567
 30
0.0
 11
262.2116556591542
 21
296.2390307281411
 31
0.0
  0
ARC
  5
8F1
330
25
100
AcDbEntity
  8
0
100
AcDbCircle
 10
262.4979203989508
 20
296.1492950120117
 30
0.0
 40
0.3
100
AcDbArc
 50
82.81464198056971
 51
162.5953008569956
  0
ARC
  5
8F2
330
25
100
AcDbEntity
  8
0
100
AcDbCircle
 10
257.6748474060728
 20
257.8921183401066
 30
0.0
 40
33.835
100
AcDbArc
 50
111.0760393126696
 51
113.9239606873303
  0
ARC
  5
8F3
330
25
100
AcDbEntity
  8
0
100
AcDbCircle
 10
242.7373750711125
 20
291.5624189809132
 30
0.0
 40
3.0
100
AcDbArc
 50
219.9046991430085
 51
293.9239606873306
  0
LINE
  5
8F4
330
25
100
AcDbEntity
  8
0
100
AcDbLine
 10
240.4360374498775
 20
289.6378813343371
 30
0.0
 11
238.8086550648661
 21
291.5838844761436
 31
0.0
  0
ARC
  5
8F5
330
25
100
AcDbEntity
  8
0
100
AcDbCircle
 10
238.5785213027425
 20
291.391430711486
 30
0.0
 40
0.3
100
AcDbArc
 50
39.90469914300433
 51
119.6853580194303
  0
ARC
  5
8F6
330
25
100
AcDbEntity
  8
0
100
AcDbCircle
 10
244.4287374802054
 20
292.2630042296475
 30
0.0
 40
3.0
100
AcDbArc
 50
291.0760393126694
 51
5.095300856991604
  0
LINE
  5
8F7
330
25
100
AcDbEntity
  8
0
100
AcDbLine
 10
247.4168825385232
 20
292.5294420468798
 30
0.0
 11
247.1915836407665
 21
295.0562071846866
 31
0.0
  0
ARC
  5
8F8
330
25
100
AcDbEntity
  8
0
100
AcDbCircle
 10
247.4903981465984
 20
295.0828509664098
 30
0.0
 40
0.3
100
AcDbArc
 50
105.3146419805697
 51
185.0953008569956
  0
ARC
  5
8F9
330
25
100
AcDbEntity
  8
0
100
AcDbCircle
 10
257.6748474060727
 20
257.8921183401066
 30
0.0
 40
33.835
100
AcDbArc
 50
133.5760393126696
 51
136.4239606873304
  0
ARC
  5
8FA
330
25
100
AcDbEntity
  8
0
100
AcDbCircle
 10
230.9893562303611
 20
283.2830967716483
 30
0.0
 40
3.0
100
AcDbArc
 50
242.4046991430085
 51
316.4239606873306
  0
LINE
  5
8FB
330
25
100
AcDbEntity
  8
0
100
AcDbLine
 10
229.5996861770114
 20
280.6243720505042
 30
0.0
 11
227.3514777382302
 21
281.7994722465552
 31
0.0
  0
ARC
  5
8FC
330
25
100
AcDbEntity
  8
0
100
AcDbCircle
 10
227.2125107328951
 20
281.5335997744408
 30
0.0
 40
0.3
100
AcDbArc
 50
62.40469914300434
 51
142.1853580194303
  0
ARC
  5
8FD
330
25
100
AcDbEntity
  8
0
100
AcDbCircle
 10
232.283868974531
 20
284.5776095158182
 30
0.0
 40
3.0
100
AcDbArc
 50
313.5760393126694
 51
27.59530085699152
  0
LINE
  5
8FE
330
25
100
AcDbEntity
  8
0
100
AcDbLine
 10
234.9425936956752
 20
285.9672795691679
 30
0.0
 11
233.7674934996241
 21
288.2154880079491
 31
0.0
  0
ARC
  5
8FF
330
25
100
AcDbEntity
  8
0
100
AcDbCircle
 10
234.0333659717386
 20
288.3544550132842
 30
0.0
 40
0.3
100
AcDbArc
 50
127.8146419805697
 51
207.5953008569956
  0
ARC
  5
900
330
25
100
AcDbEntity
  8
0
100
AcDbCircle
 10
257.6748474060729
 20
257.8921183401066
 30
0.0
 40
33.835
100
AcDbArc
 50
156.0760393126696
 51
158.9239606873303
  0
ARC
  5
901
330
25
100
AcDbEntity
  8
0
100
AcDbCircle
 10
223.303961516532
 20
271.1382282659739
 30
0.0
 40
3.0
100
AcDbArc
 50
264.9046991430085
 51
338.9239606873306
  0
LINE
  5
902
330
25
100
AcDbEntity
  8
0
100
AcDbLine
 10
223.0375236992995
 20
268.1500832076561
 30
0.0
 11
220.5107585614927
 21
268.3753821054128
 31
0.0
  0
ARC
  5
903
330
25
100
AcDbEntity
  8
0
100
AcDbCircle
 10
220.4841147797695
 20
268.0765675995809
 30
0.0
 40
0.3
100
AcDbArc
 50
84.90469914300431
 51
164.6853580194303
  0
ARC
  5
904
330
25
100
AcDbEntity
  8
0
100
AcDbCircle
 10
224.0045467652663
 20
272.8295906750668
 30
0.0
 40
3.0
100
AcDbArc
 50
336.0760393126694
 51
50.09530085699153
  0
LINE
  5
905
330
25
100
AcDbEntity
  8
0
100
AcDbLine
 10
225.9290844118422
 20
275.1309282963019
 30
0.0
 11
223.9830812700357
 21
276.7583106813132
 31
0.0
  0
ARC
  5
906
330
25
100
AcDbEntity
  8
0
100
AcDbCircle
 10
224.1755350346934
 20
276.9884444434368
 30
0.0
 40
0.3
100
AcDbArc
 50
150.3146419805697
 51
230.0953008569956
  0
ARC
  5
907
330
25
100
AcDbEntity
  8
0
100
AcDbCircle
 10
257.6748474060727
 20
257.8921183401066
 30
0.0
 40
33.835
100
AcDbArc
 50
178.5760393126696
 51
181.4239606873304
  0
ARC
  5
908
330
25
100
AcDbEntity
  8
0
100
AcDbCircle
 10
220.8512226065287
 20
256.9767596003716
 30
0.0
 40
3.0
100
AcDbArc
 50
287.4046991430084
 51
1.423960687330616
  0
LINE
  5
909
330
25
100
AcDbEntity
  8
0
100
AcDbLine
 10
221.7485797678226
 20
254.1141122024068
 30
0.0
 11
219.3279350180382
 21
253.3553100870252
 31
0.0
  0
ARC
  5
90A
330
25
100
AcDbEntity
  8
0
100
AcDbCircle
 10
219.4176707341676
 20
253.0690453472286
 30
0.0
 40
0.3
100
AcDbArc
 50
107.4046991430043
 51
187.1853580194303
  0
ARC
  5
90B
330
25
100
AcDbEntity
  8
0
100
AcDbCircle
 10
220.8512226065287
 20
258.8074770798416
 30
0.0
 40
3.0
100
AcDbArc
 50
358.5760393126694
 51
72.59530085699151
  0
LINE
  5
90C
330
25
100
AcDbEntity
  8
0
100
AcDbLine
 10
221.7485797678226
 20
261.6701244778063
 30
0.0
 11
219.3279350180382
 21
262.428926593188
 31
0.0
  0
ARC
  5
90D
330
25
100
AcDbEntity
  8
0
100
AcDbCircle
 10
219.4176707341676
 20
262.7151913329846
 30
0.0
 40
0.3
100
AcDbArc
 50
172.8146419805697
 51
252.5953008569956
  0
ARC
  5
90E
330
25
100
AcDbEntity
  8
0
100
AcDbCircle
 10
257.6748474060728
 20
257.8921183401066
 30
0.0
 40
33.835
100
AcDbArc
 50
201.0760393126696
 51
203.9239606873304
  0
ARC
  5
90F
330
25
100
AcDbEntity
  8
0
100
AcDbCircle
 10
224.0045467652662
 20
242.9546460051463
 30
0.0
 40
3.0
100
AcDbArc
 50
309.9046991430085
 51
23.92396068733054
  0
LINE
  5
910
330
25
100
AcDbEntity
  8
0
100
AcDbLine
 10
225.9290844118423
 20
240.6533083839113
 30
0.0
 11
223.9830812700357
 21
239.0259259988999
 31
0.0
  0
ARC
  5
911
330
25
100
AcDbEntity
  8
0
100
AcDbCircle
 10
224.1755350346933
 20
238.7957922367763
 30
0.0
 40
0.3
100
AcDbArc
 50
129.9046991430043
 51
209.6853580194303
  0
ARC
  5
912
330
25
100
AcDbEntity
  8
0
100
AcDbCircle
 10
223.3039615165318
 20
244.6460084142393
 30
0.0
 40
3.0
100
AcDbArc
 50
21.07603931266938
 51
95.09530085699152
  0
LINE
  5
913
330
25
100
AcDbEntity
  8
0
100
AcDbLine
 10
223.0375236992996
 20
247.634153472557
 30
0.0
 11
220.5107585614928
 21
247.4088545748003
 31
0.0
  0
ARC
  5
914
330
25
100
AcDbEntity
  8
0
100
AcDbCircle
 10
220.4841147797695
 20
247.7076690806322
 30
0.0
 40
0.3
100
AcDbArc
 50
195.3146419805696
 51
275.0953008569957
  0
ARC
  5
915
330
25
100
AcDbEntity
  8
0
100
AcDbCircle
 10
257.6748474060727
 20
257.8921183401066
 30
0.0
 40
33.835
100
AcDbArc
 50
223.5760393126696
 51
226.4239606873304
  0
ARC
  5
916
330
25
100
AcDbEntity
  8
0
100
AcDbCircle
 10
232.2838689745309
 20
231.2066271643949
 30
0.0
 40
3.0
100
AcDbArc
 50
332.4046991430084
 51
46.42396068733053
  0
LINE
  5
917
330
25
100
AcDbEntity
  8
0
100
AcDbLine
 10
234.9425936956751
 20
229.8169571110451
 30
0.0
 11
233.767493499624
 21
227.568748672264
 31
0.0
  0
ARC
  5
918
330
25
100
AcDbEntity
  8
0
100
AcDbCircle
 10
234.0333659717384
 20
227.4297816669289
 30
0.0
 40
0.3
100
AcDbArc
 50
152.4046991430043
 51
232.1853580194303
  0
ARC
  5
919
330
25
100
AcDbEntity
  8
0
100
AcDbCircle
 10
230.989356230361
 20
232.5011399085648
 30
0.0
 40
3.0
100
AcDbArc
 50
43.57603931266938
 51
117.5953008569915
  0
LINE
  5
91A
330
25
100
AcDbEntity
  8
0
100
AcDbLine
 10
229.5996861770113
 20
235.159864629709
 30
0.0
 11
227.3514777382301
 21
233.9847644336579
 31
0.0
  0
ARC
  5
91B
330
25
100
AcDbEntity
  8
0
100
AcDbCircle
 10
227.212510732895
 20
234.2506369057724
 30
0.0
 40
0.3
100
AcDbArc
 50
217.8146419805697
 51
297.5953008569956
  0
ARC
  5
91C
330
25
100
AcDbEntity
  8
0
100
AcDbCircle
 10
257.6748474060728
 20
257.8921183401067
 30
0.0
 40
33.835
100
AcDbArc
 50
246.0760393126696
 51
248.9239606873304
  0
ARC
  5
91D
330
25
100
AcDbEntity
  8
0
100
AcDbCircle
 10
244.4287374802055
 20
223.5212324505658
 30
0.0
 40
3.0
100
AcDbArc
 50
354.9046991430084
 51
68.92396068733053
  0
LINE
  5
91E
330
25
100
AcDbEntity
  8
0
100
AcDbLine
 10
247.4168825385232
 20
223.2547946333333
 30
0.0
 11
247.1915836407666
 21
220.7280294955265
 31
0.0
  0
ARC
  5
91F
330
25
100
AcDbEntity
  8
0
100
AcDbCircle
 10
247.4903981465984
 20
220.7013857138034
 30
0.0
 40
0.3
100
AcDbArc
 50
174.9046991430043
 51
254.6853580194303
  0
ARC
  5
920
330
25
100
AcDbEntity
  8
0
100
AcDbCircle
 10
242.7373750711126
 20
224.2218176993001
 30
0.0
 40
3.0
100
AcDbArc
 50
66.0760393126694
 51
140.0953008569915
  0
LINE
  5
921
330
25
100
AcDbEntity
  8
0
100
AcDbLine
 10
240.4360374498775
 20
226.146355345876
 30
0.0
 11
238.8086550648661
 21
224.2003522040694
 31
0.0
  0
ARC
  5
922
330
25
100
AcDbEntity
  8
0
100
AcDbCircle
 10
238.5785213027426
 20
224.3928059687272
 30
0.0
 40
0.3
100
AcDbArc
 50
240.3146419805697
 51
320.0953008569956
  0
ARC
  5
923
330
25
100
AcDbEntity
  8
0
100
AcDbCircle
 10
257.6748474060728
 20
257.8921183401065
 30
0.0
 40
33.835
100
AcDbArc
 50
268.5760393126696
 51
271.4239606873304
  0
ARC
  5
924
330
25
100
AcDbEntity
  8
0
100
AcDbCircle
 10
258.5902061458078
 20
221.0684935405625
 30
0.0
 40
3.0
100
AcDbArc
 50
17.40469914300847
 51
91.42396068733061
  0
LINE
  5
925
330
25
100
AcDbEntity
  8
0
100
AcDbLine
 10
261.4528535437727
 20
221.9658507018563
 30
0.0
 11
262.2116556591543
 21
219.545205952072
 31
0.0
  0
ARC
  5
926
330
25
100
AcDbEntity
  8
0
100
AcDbCircle
 10
262.4979203989508
 20
219.6349416682014
 30
0.0
 40
0.3
100
AcDbArc
 50
197.4046991430043
 51
277.1853580194303
  0
ARC
  5
927
330
25
100
AcDbEntity
  8
0
100
AcDbCircle
 10
256.7594886663378
 20
221.0684935405625
 30
0.0
 40
3.0
100
AcDbArc
 50
88.5760393126694
 51
162.5953008569915
  0
LINE
  5
928
330
25
100
AcDbEntity
  8
0
100
AcDbLine
 10
253.8968412683731
 20
221.9658507018563
 30
0.0
 11
253.1380391529914
 21
219.545205952072
 31
0.0
  0
ARC
  5
929
330
25
100
AcDbEntity
  8
0
100
AcDbCircle
 10
252.8517744131948
 20
219.6349416682014
 30
0.0
 40
0.3
100
AcDbArc
 50
262.8146419805696
 51
342.5953008569956
  0
ARC
  5
92A
330
25
100
AcDbEntity
  8
0
100
AcDbCircle
 10
257.6748474060727
 20
257.8921183401064
 30
0.0
 40
33.835
100
AcDbArc
 50
291.0760393126696
 51
293.9239606873304
  0
ARC
  5
92B
330
25
100
AcDbEntity
  8
0
100
AcDbCircle
 10
272.612319741033
 20
224.2218176992998
 30
0.0
 40
3.0
100
AcDbArc
 50
39.90469914300844
 51
113.9239606873305
  0
LINE
  5
92C
330
25
100
AcDbEntity
  8
0
100
AcDbLine
 10
274.913657362268
 20
226.1463553458759
 30
0.0
 11
276.5410397472795
 21
224.2003522040694
 31
0.0
  0
ARC
  5
92D
330
25
100
AcDbEntity
  8
0
100
AcDbCircle
 10
276.7711735094029
 20
224.392805968727
 30
0.0
 40
0.3
100
AcDbArc
 50
219.9046991430043
 51
299.6853580194303
  0
ARC
  5
92E
330
25
100
AcDbEntity
  8
0
100
AcDbCircle
 10
270.92095733194
 20
223.5212324505655
 30
0.0
 40
3.0
100
AcDbArc
 50
111.0760393126694
 51
185.0953008569915
  0
LINE
  5
92F
330
25
100
AcDbEntity
  8
0
100
AcDbLine
 10
267.9328122736223
 20
223.2547946333332
 30
0.0
 11
268.158111171379
 21
220.7280294955265
 31
0.0
  0
ARC
  5
930
330
25
100
AcDbEntity
  8
0
100
AcDbCircle
 10
267.8592966655471
 20
220.7013857138031
 30
0.0
 40
0.3
100
AcDbArc
 50
285.3146419805696
 51
5.095300856995629
  0
ARC
  5
931
330
25
100
AcDbEntity
  8
0
100
AcDbCircle
 10
257.6748474060727
 20
257.8921183401066
 30
0.0
 40
33.835
100
AcDbArc
 50
313.5760393126696
 51
316.4239606873303
  0
ARC
  5
932
330
25
100
AcDbEntity
  8
0
100
AcDbCircle
 10
284.3603385817843
 20
232.5011399085648
 30
0.0
 40
3.0
100
AcDbArc
 50
62.40469914300844
 51
136.4239606873305
  0
LINE
  5
933
330
25
100
AcDbEntity
  8
0
100
AcDbLine
 10
285.7500086351342
 20
235.159864629709
 30
0.0
 11
287.9982170739154
 21
233.9847644336579
 31
0.0
  0
ARC
  5
934
330
25
100
AcDbEntity
  8
0
100
AcDbCircle
 10
288.1371840792503
 20
234.2506369057723
 30
0.0
 40
0.3
100
AcDbArc
 50
242.4046991430043
 51
322.1853580194303
  0
ARC
  5
935
330
25
100
AcDbEntity
  8
0
100
AcDbCircle
 10
283.0658258376144
 20
231.2066271643948
 30
0.0
 40
3.0
100
AcDbArc
 50
133.5760393126694
 51
207.5953008569916
  0
LINE
  5
936
330
25
100
AcDbEntity
  8
0
100
AcDbLine
 10
280.4071011164704
 20
229.8169571110452
 30
0.0
 11
281.5822013125214
 21
227.568748672264
 31
0.0
  0
ARC
  5
937
330
25
100
AcDbEntity
  8
0
100
AcDbCircle
 10
281.3163288404069
 20
227.4297816669289
 30
0.0
 40
0.3
100
AcDbArc
 50
307.8146419805697
 51
27.59530085699563
  0
ARC
  5
938
330
25
100
AcDbEntity
  8
0
100
AcDbCircle
 10
257.6748474060728
 20
257.8921183401064
 30
0.0
 40
33.835
100
AcDbArc
 50
336.0760393126696
 51
338.9239606873303
  0
ARC
  5
939
330
25
100
AcDbEntity
  8
0
100
AcDbCircle
 10
292.0457332956137
 20
244.6460084142392
 30
0.0
 40
3.0
100
AcDbArc
 50
84.90469914300843
 51
158.9239606873305
  0
LINE
  5
93A
330
25
100
AcDbEntity
  8
0
100
AcDbLine
 10
292.3121711128461
 20
247.6341534725569
 30
0.0
 11
294.8389362506528
 21
247.4088545748003
 31
0.0
  0
ARC
  5
93B
330
25
100
AcDbEntity
  8
0
100
AcDbCircle
 10
294.8655800323761
 20
247.7076690806321
 30
0.0
 40
0.3
100
AcDbArc
 50
264.9046991430043
 51
344.6853580194303
  0
ARC
  5
93C
330
25
100
AcDbEntity
  8
0
100
AcDbCircle
 10
291.3451480468793
 20
242.9546460051462
 30
0.0
 40
3.0
100
AcDbArc
 50
156.0760393126694
 51
230.0953008569916
  0
LINE
  5
93D
330
25
100
AcDbEntity
  8
0
100
AcDbLine
 10
289.4206104003034
 20
240.6533083839112
 30
0.0
 11
291.3666135421099
 21
239.0259259988999
 31
0.0
  0
ARC
  5
93E
330
25
100
AcDbEntity
  8
0
100
AcDbCircle
 10
291.1741597774522
 20
238.7957922367762
 30
0.0
 40
0.3
100
AcDbArc
 50
330.3146419805697
 51
50.09530085699561
  0
ARC
  5
93F
330
25
100
AcDbEntity
  8
0
100
AcDbCircle
 10
257.6748474060728
 20
257.8921183401066
 30
0.0
 40
33.835
100
AcDbArc
 50
358.5760393126696
 51
1.423960687330319
  0
ARC
  5
940
330
25
100
AcDbEntity
  8
0
100
AcDbCircle
 10
294.4984722056168
 20
258.8074770798415
 30
0.0
 40
3.0
100
AcDbArc
 50
107.4046991430084
 51
181.4239606873305
  0
LINE
  5
941
330
25
100
AcDbEntity
  8
0
100
AcDbLine
 10
293.601115044323
 20
261.6701244778064
 30
0.0
 11
296.0217597941073
 21
262.428926593188
 31
0.0
  0
ARC
  5
942
330
25
100
AcDbEntity
  8
0
100
AcDbCircle
 10
295.9320240779779
 20
262.7151913329845
 30
0.0
 40
0.3
100
AcDbArc
 50
287.4046991430043
 51
7.185358019430251
  0
ARC
  5
943
330
25
100
AcDbEntity
  8
0
100
AcDbCircle
 10
294.4984722056168
 20
256.9767596003716
 30
0.0
 40
3.0
100
AcDbArc
 50
178.5760393126693
 51
252.5953008569915
  0
LINE
  5
944
330
25
100
AcDbEntity
  8
0
100
AcDbLine
 10
293.601115044323
 20
254.1141122024068
 30
0.0
 11
296.0217597941073
 21
253.3553100870252
 31
0.0
  0
ARC
  5
945
330
25
100
AcDbEntity
  8
0
100
AcDbCircle
 10
295.9320240779779
 20
253.0690453472286
 30
0.0
 40
0.3
100
AcDbArc
 50
352.8146419805696
 51
72.59530085699559
  0
ARC
  5
946
330
25
100
AcDbEntity
  8
0
100
AcDbCircle
 10
257.6748474060728
 20
257.8921183401064
 30
0.0
 40
33.835
100
AcDbArc
 50
21.07603931266954
 51
23.92396068733029
  0
ARC
  5
947
330
25
100
AcDbEntity
  8
0
100
AcDbCircle
 10
291.3451480468794
 20
272.8295906750667
 30
0.0
 40
3.0
100
AcDbArc
 50
129.9046991430083
 51
203.9239606873305
  0
LINE
  5
948
330
25
100
AcDbEntity
  8
0
100
AcDbLine
 10
289.4206104003034
 20
275.1309282963017
 30
0.0
 11
291.3666135421099
 21
276.7583106813131
 31
0.0
  0
ARC
  5
949
330
25
100
AcDbEntity
  8
0
100
AcDbCircle
 10
291.1741597774524
 20
276.9884444434366
 30
0.0
 40
0.3
100
AcDbArc
 50
309.9046991430042
 51
29.68535801943023
  0
ARC
  5
94A
330
25
100
AcDbEntity
  8
0
100
AcDbCircle
 10
292.0457332956138
 20
271.1382282659737
 30
0.0
 40
3.0
100
AcDbArc
 50
201.0760393126693
 51
275.0953008569914
  0
LINE
  5
94B
330
25
100
AcDbEntity
  8
0
100
AcDbLine
 10
292.3121711128461
 20
268.1500832076561
 30
0.0
 11
294.8389362506528
 21
268.3753821054127
 31
0.0
  0
ARC
  5
94C
330
25
100
AcDbEntity
  8
0
100
AcDbCircle
 10
294.8655800323761
 20
268.0765675995807
 30
0.0
 40
0.3
100
AcDbArc
 50
15.3146419805696
 51
95.09530085699557
  0
ARC
  5
94D
330
25
100
AcDbEntity
  8
0
100
AcDbCircle
 10
257.6748474060728
 20
257.8921183401066
 30
0.0
 40
33.835
100
AcDbArc
 50
43.57603931266951
 51
46.42396068733027
  0
ARC
  5
94E
330
25
100
AcDbEntity
  8
0
100
AcDbCircle
 10
283.0658258376146
 20
284.5776095158182
 30
0.0
 40
3.0
100
AcDbArc
 50
152.4046991430083
 51
226.4239606873305
  0
LINE
  5
94F
330
25
100
AcDbEntity
  8
0
100
AcDbLine
 10
280.4071011164704
 20
285.967279569168
 30
0.0
 11
281.5822013125215
 21
288.2154880079491
 31
0.0
  0
ARC
  5
950
330
25
100
AcDbEntity
  8
0
100
AcDbCircle
 10
281.316328840407
 20
288.3544550132842
 30
0.0
 40
0.3
100
AcDbArc
 50
332.4046991430042
 51
52.1853580194302
  0
ARC
  5
951
330
25
100
AcDbEntity
  8
0
100
AcDbCircle
 10
284.3603385817845
 20
283.2830967716483
 30
0.0
 40
3.0
100
AcDbArc
 50
223.5760393126693
 51
297.5953008569915
  0
LINE
  5
952
330
25
100
AcDbEntity
  8
0
100
AcDbLine
 10
285.7500086351343
 20
280.6243720505041
 30
0.0
 11
287.9982170739154
 21
281.7994722465552
 31
0.0
  0
ARC
  5
953
330
25
100
AcDbEntity
  8
0
100
AcDbCircle
 10
288.1371840792505
 20
281.5335997744407
 30
0.0
 40
0.3
100
AcDbArc
 50
37.81464198056958
 51
117.5953008569955
  0
ARC
  5
954
330
25
100
AcDbEntity
  8
0
100
AcDbCircle
 10
257.6748474060728
 20
257.8921183401066
 30
0.0
 40
33.835
100
AcDbArc
 50
66.07603931266949
 51
68.92396068733024
  0
ARC
  5
955
330
25
100
AcDbEntity
  8
0
100
AcDbCircle
 10
270.9209573319402
 20
292.2630042296475
 30
0.0
 40
3.0
100
AcDbArc
 50
174.9046991430083
 51
248.9239606873304
  0
LINE
  5
956
330
25
100
AcDbEntity
  8
0
100
AcDbLine
 10
267.9328122736225
 20
292.5294420468798
 30
0.0
 11
268.1581111713791
 21
295.0562071846866
 31
0.0
  0
ARC
  5
957
330
25
100
AcDbEntity
  8
0
100
AcDbCircle
 10
267.8592966655473
 20
295.0828509664098
 30
0.0
 40
0.3
100
AcDbArc
 50
354.9046991430042
 51
74.68535801943017
  0
ARC
  5
958
330
25
100
AcDbEntity
  8
0
100
AcDbCircle
 10
272.6123197410331
 20
291.5624189809132
 30
0.0
 40
3.0
100
AcDbArc
 50
246.0760393126693
 51
320.0953008569915
  0
LINE
  5
959
330
25
100
AcDbEntity
  8
0
100
AcDbLine
 10
274.9136573622681
 20
289.6378813343371
 30
0.0
 11
276.5410397472795
 21
291.5838844761437
 31
0.0
  0
ARC
  5
95A
330
25
100
AcDbEntity
  8
0
100
AcDbCircle
 10
276.7711735094031
 20
291.3914307114859
 30
0.0
 40
0.3
100
AcDbArc
 50
60.31464198056955
 51
140.0953008569955
  0
ARC
  5
95B
330
25
100
AcDbEntity
  8
0
100
AcDbCircle
 10
257.6748474060728
 20
257.8921183401066
 30
0.0
 40
38.86
100
AcDbArc
 50
119.6853580194281
 51
127.8146419805719
  0
ARC
  5
95C
330
25
100
AcDbEntity
  8
0
100
AcDbCircle
 10
257.6748474060728
 20
257.8921183401066
 30
0.0
 40
35.86
100
AcDbArc
 50
118.3977813022876
 51
129.1022186977124
  0
ARC
  5
95D
330
25
100
AcDbEntity
  8
0
100
AcDbCircle
 10
257.6748474060727
 20
257.8921183401066
 30
0.0
 40
38.86
100
AcDbArc
 50
142.185358019428
 51
150.3146419805719
  0
ARC
  5
95E
330
25
100
AcDbEntity
  8
0
100
AcDbCircle
 10
257.6748474060727
 20
257.8921183401066
 30
0.0
 40
35.86
100
AcDbArc
 50
140.8977813022877
 51
151.6022186977124
  0
ARC
  5
95F
330
25
100
AcDbEntity
  8
0
100
AcDbCircle
 10
257.6748474060729
 20
257.8921183401066
 30
0.0
 40
38.86
100
AcDbArc
 50
164.685358019428
 51
172.8146419805719
  0
ARC
  5
960
330
25
100
AcDbEntity
  8
0
100
AcDbCircle
 10
257.6748474060729
 20
257.8921183401066
 30
0.0
 40
35.86
100
AcDbArc
 50
163.3977813022877
 51
174.1022186977124
  0
ARC
  5
961
330
25
100
AcDbEntity
  8
0
100
AcDbCircle
 10
257.6748474060727
 20
257.8921183401066
 30
0.0
 40
38.86
100
AcDbArc
 50
187.1853580194281
 51
195.3146419805719
  0
ARC
  5
962
330
25
100
AcDbEntity
  8
0
100
AcDbCircle
 10
257.6748474060727
 20
257.8921183401066
 30
0.0
 40
35.86
100
AcDbArc
 50
185.8977813022877
 51
196.6022186977123
  0
ARC
  5
963
330
25
100
AcDbEntity
  8
0
100
AcDbCircle
 10
257.6748474060728
 20
257.8921183401066
 30
0.0
 40
38.86
100
AcDbArc
 50
209.685358019428
 51
217.8146419805719
  0
ARC
  5
964
330
25
100
AcDbEntity
  8
0
100
AcDbCircle
 10
257.6748474060728
 20
257.8921183401066
 30
0.0
 40
35.86
100
AcDbArc
 50
208.3977813022877
 51
219.1022186977124
  0
ARC
  5
965
330
25
100
AcDbEntity
  8
0
100
AcDbCircle
 10
257.6748474060727
 20
257.8921183401066
 30
0.0
 40
38.86
100
AcDbArc
 50
232.1853580194281
 51
240.3146419805719
  0
ARC
  5
966
330
25
100
AcDbEntity
  8
0
100
AcDbCircle
 10
257.6748474060727
 20
257.8921183401066
 30
0.0
 40
35.86
100
AcDbArc
 50
230.8977813022877
 51
241.6022186977124
  0
ARC
  5
967
330
25
100
AcDbEntity
  8
0
100
AcDbCircle
 10
257.6748474060728
 20
257.8921183401067
 30
0.0
 40
38.86
100
AcDbArc
 50
254.685358019428
 51
262.814641980572
  0
ARC
  5
968
330
25
100
AcDbEntity
  8
0
100
AcDbCircle
 10
257.6748474060728
 20
257.8921183401067
 30
0.0
 40
35.86
100
AcDbArc
 50
253.3977813022877
 51
264.1022186977124
  0
ARC
  5
969
330
25
100
AcDbEntity
  8
0
100
AcDbCircle
 10
257.6748474060728
 20
257.8921183401065
 30
0.0
 40
38.86
100
AcDbArc
 50
277.1853580194281
 51
285.3146419805719
  0
ARC
  5
96A
330
25
100
AcDbEntity
  8
0
100
AcDbCircle
 10
257.6748474060728
 20
257.8921183401065
 30
0.0
 40
35.86
100
AcDbArc
 50
275.8977813022876
 51
286.6022186977124
  0
ARC
  5
96B
330
25
100
AcDbEntity
  8
0
100
AcDbCircle
 10
257.6748474060727
 20
257.8921183401064
 30
0.0
 40
38.86
100
AcDbArc
 50
299.6853580194281
 51
307.8146419805719
  0
ARC
  5
96C
330
25
100
AcDbEntity
  8
0
100
AcDbCircle
 10
257.6748474060727
 20
257.8921183401064
 30
0.0
 40
35.86
100
AcDbArc
 50
298.3977813022877
 51
309.1022186977124
  0
ARC
  5
96D
330
25
100
AcDbEntity
  8
0
100
AcDbCircle
 10
257.6748474060727
 20
257.8921183401066
 30
0.0
 40
38.86
100
AcDbArc
 50
322.185358019428
 51
330.3146419805719
  0
ARC
  5
96E
330
25
100
AcDbEntity
  8
0
100
AcDbCircle
 10
257.6748474060727
 20
257.8921183401066
 30
0.0
 40
35.86
100
AcDbArc
 50
320.8977813022876
 51
331.6022186977124
  0
ARC
  5
96F
330
25
100
AcDbEntity
  8
0
100
AcDbCircle
 10
257.6748474060728
 20
257.8921183401064
 30
0.0
 40
38.86
100
AcDbArc
 50
344.6853580194281
 51
352.8146419805719
  0
ARC
  5
970
330
25
100
AcDbEntity
  8
0
100
AcDbCircle
 10
257.6748474060728
 20
257.8921183401064
 30
0.0
 40
35.86
100
AcDbArc
 50
343.3977813022876
 51
354.1022186977124
  0
ARC
  5
971
330
25
100
AcDbEntity
  8
0
100
AcDbCircle
 10
257.6748474060728
 20
257.8921183401066
 30
0.0
 40
38.86
100
AcDbArc
 50
7.185358019428012
 51
15.31464198057186
  0
ARC
  5
972
330
25
100
AcDbEntity
  8
0
100
AcDbCircle
 10
257.6748474060728
 20
257.8921183401066
 30
0.0
 40
35.86
100
AcDbArc
 50
5.897781302287619
 51
16.60221869771234
  0
ARC
  5
973
330
25
100
AcDbEntity
  8
0
100
AcDbCircle
 10
257.6748474060728
 20
257.8921183401064
 30
0.0
 40
38.86
100
AcDbArc
 50
29.68535801942799
 51
37.81464198057184
  0
ARC
  5
974
330
25
100
AcDbEntity
  8
0
100
AcDbCircle
 10
257.6748474060728
 20
257.8921183401064
 30
0.0
 40
35.86
100
AcDbArc
 50
28.3977813022876
 51
39.10221869771232
  0
ARC
  5
975
330
25
100
AcDbEntity
  8
0
100
AcDbCircle
 10
257.6748474060728
 20
257.8921183401066
 30
0.0
 40
38.86
100
AcDbArc
 50
52.18535801942795
 51
60.31464198057181
  0
ARC
  5
976
330
25
100
AcDbEntity
  8
0
100
AcDbCircle
 10
257.6748474060728
 20
257.8921183401066
 30
0.0
 40
35.86
100
AcDbArc
 50
50.89778130228757
 51
61.60221869771229
  0
ARC
  5
977
330
25
100
AcDbEntity
  8
0
100
AcDbCircle
 10
257.6748474060728
 20
257.8921183401066
 30
0.0
 40
38.86
100
AcDbArc
 50
74.68535801942794
 51
82.81464198057177
  0
ARC
  5
978
330
25
100
AcDbEntity
  8
0
100
AcDbCircle
 10
257.6748474060728
 20
257.8921183401066
 30
0.0
 40
35.86
100
AcDbArc
 50
73.39778130228754
 51
84.10221869771225
  0
ENDSEC
  0
SECTION
  2
OBJECTS
  0
DICTIONARY
  5
19
330
0
100
AcDbDictionary
281
     1
  3
ACAD_COLOR
350
4D1
  3
ACAD_GROUP
350
1A
  3
ACAD_LAYOUT
350
319
  3
ACAD_MATERIAL
350
4D0
  3
ACAD_MLINESTYLE
350
1B
  3
ACAD_PLOTSETTINGS
350
31A
  3
ACAD_PLOTSTYLENAME
350
317
  3
ACAD_TABLESTYLE
350
4D2
  3
ACDBHEADERROUNDTRIPXREC
350
99C
  3
AcDbVariableDictionary
350
8BC
  0
DICTIONARY
  5
35F
330
25
100
AcDbDictionary
280
     1
281
     1
  3
ACAD_LAYOUTSELFREF
360
46A
  3
ACAD_SORTENTS
360
4DD
  0
DICTIONARY
  5
35D
330
22
100
AcDbDictionary
280
     1
281
     1
  3
ACAD_LAYOUTSELFREF
360
469
  0
DICTIONARY
  5
71C
330
69D
100
AcDbDictionary
280
     1
281
     1
  0
DICTIONARY
  5
4D1
102
{ACAD_REACTORS
330
19
102
}
330
19
100
AcDbDictionary
281
     1
  0
DICTIONARY
  5
1A
102
{ACAD_REACTORS
330
19
102
}
330
19
100
AcDbDictionary
281
     1
  0
DICTIONARY
  5
319
102
{ACAD_REACTORS
330
19
102
}
330
19
100
AcDbDictionary
281
     1
  3
Layout1
350
31C
  3
Model
350
31B
  0
DICTIONARY
  5
4D0
102
{ACAD_REACTORS
330
19
102
}
330
19
100
AcDbDictionary
281
     1
  0
DICTIONARY
  5
1B
102
{ACAD_REACTORS
330
19
102
}
330
19
100
AcDbDictionary
281
     1
  3
STANDARD
350
28
  0
DICTIONARY
  5
31A
102
{ACAD_REACTORS
330
19
102
}
330
19
100
AcDbDictionary
281
     1
  3
A3
350
610
  3
A3 op A4
350
611
  3
A3-PDF
350
612
  3
A4
350
613
  3
A4-PDF
350
614
  0
ACDBDICTIONARYWDFLT
  5
317
102
{ACAD_REACTORS
330
19
102
}
330
19
100
AcDbDictionary
281
     1
  3
Normal
350
318
100
AcDbDictionaryWithDefault
340
318
  0
DICTIONARY
  5
4D2
102
{ACAD_REACTORS
330
19
102
}
330
19
100
AcDbDictionary
281
     1
  3
Standard
350
4D3
  0
DICTIONARY
  5
99C
102
{ACAD_REACTORS
330
19
102
}
330
19
100
AcDbDictionary
281
     1
  0
DICTIONARY
  5
8BC
102
{ACAD_REACTORS
330
19
102
}
330
19
100
AcDbDictionary
281
     1
  3
CTABLESTYLE
350
8BD
  3
DIMASSOC
350
8BE
  3
PROJECTNAME
350
8BF
  0
XRECORD
  5
46A
102
{ACAD_REACTORS
330
35F
102
}
330
35F
100
AcDbXrecord
280
     1
340
25
  0
SORTENTSTABLE
  5
4DD
102
{ACAD_REACTORS
330
35F
102
}
330
35F
100
AcDbSortentsTable
330
25
331
5B0
  5
5BC
331
5E7
  5
5F1
331
5B8
  5
5C2
331
5EF
  5
5F9
331
812
  5
8E8
331
5C0
  5
5CA
331
5F7
  5
573
331
5FF
  5
575
331
D
  5
D
331
5C8
  5
5D2
331
571
  5
57D
331
5D0
  5
5DA
331
5D8
  5
5E2
331
589
  5
5AD
331
8E9
  5
4E5
331
5E0
  5
5EA
331
4DA
  5
4E8
331
5B1
  5
5BD
331
5E8
  5
5F2
331
54A
  5
56F
331
5B9
  5
5C3
331
5F0
  5
5FA
331
5C1
  5
5CB
331
5F8
  5
600
331
8D2
  5
8EB
331
7D4
  5
8E6
331
6
  5
6
331
5C9
  5
5D3
331
600
  5
7FC
331
572
  5
57B
331
5D1
  5
5DB
331
5D9
  5
5E3
331
8EA
  5
4E6
331
592
  5
5B4
331
7FC
  5
8E7
331
4D5
  5
4D5
331
5E1
  5
5EB
331
5E9
  5
5F3
331
5BA
  5
5C4
331
5F1
  5
5FB
331
563
  5
571
331
5C2
  5
5CC
331
5F9
  5
71F
331
56B
  5
572
331
5CA
  5
5D4
331
601
  5
812
331
573
  5
581
331
5D2
  5
5DC
331
57B
  5
596
331
5DA
  5
5E4
331
593
  5
5B5
331
8EB
  5
8EC
331
5E2
  5
5EC
331
5EA
  5
5F4
331
71F
  5
815
331
5BB
  5
5C5
331
5F2
  5
5FC
331
815
  5
8E9
331
5C3
  5
5CD
331
5FA
  5
7BA
331
56C
  5
57E
331
5CB
  5
5D5
331
574
  5
579
331
5D3
  5
5DD
331
5DB
  5
5E5
331
58C
  5
5AE
331
8EC
  5
4D6
331
594
  5
5B6
331
4D7
  5
4E3
331
5E3
  5
5ED
331
5B4
  5
5BE
331
5EB
  5
5F5
331
7C7
  5
8D2
331
816
  5
8EA
331
5BC
  5
5C6
331
5F3
  5
5FD
331
5C4
  5
5CE
331
5FB
  5
7C7
331
56D
  5
57C
331
5CC
  5
5D6
331
575
  5
578
331
5D4
  5
5DE
331
5DC
  5
5E6
331
58D
  5
5AF
331
595
  5
5B7
331
5AD
  5
5B9
331
5E4
  5
5EE
331
5B5
  5
5BF
331
5EC
  5
5F6
331
5BD
  5
5C7
331
5F4
  5
5FE
331
5C5
  5
5CF
331
5FC
  5
601
331
56E
  5
57A
331
5CD
  5
5D7
331
5D5
  5
5DF
331
5DD
  5
5E7
331
58E
  5
5B0
331
8E6
  5
8EE
331
596
  5
5B8
331
8EE
  5
570
331
5AE
  5
5BA
331
5E5
  5
5EF
331
5B6
  5
5C0
331
5ED
  5
5F7
331
5BE
  5
5C8
331
5F5
  5
5FF
331
5FD
  5
577
331
5C6
  5
5D0
331
56F
  5
57F
331
5CE
  5
5D8
331
577
  5
582
331
5D6
  5
5E0
331
5DE
  5
5E8
331
58F
  5
5B1
331
4D8
  5
4E7
331
5AF
  5
5BB
331
5E6
  5
5F0
331
7BA
  5
816
331
5B7
  5
5C1
331
5EE
  5
5F8
331
5F6
  5
576
331
5BF
  5
5C9
331
5C7
  5
5D1
331
5FE
  5
7D4
331
570
  5
580
331
5CF
  5
5D9
331
578
  5
583
331
5D7
  5
5E1
331
5DF
  5
5E9
  0
XRECORD
  5
469
102
{ACAD_REACTORS
330
35D
102
}
330
35D
100
AcDbXrecord
280
     1
340
22
  0
LAYOUT
  5
31C
102
{ACAD_XDICTIONARY
360
99F
102
}
102
{ACAD_REACTORS
330
319
102
}
330
319
100
AcDbPlotSettings
  1

  2
C:\PROGRAM FILES\AUTOCAD LT 2000I\plotters\A3 LaserJet 4V.pc3
  4

  6

 40
0.0
 41
0.0
 42
0.0
 43
0.0
 44
0.0
 45
0.0
 46
0.0
 47
0.0
 48
0.0
 49
0.0
140
0.0
141
0.0
142
1.0
143
1.0
 70
   688
 72
     0
 73
     0
 74
     5
  7
MCC.ctb
 75
    16
147
1.0
148
0.0
149
0.0
100
AcDbLayout
  1
Layout1
 70
     0
 71
     1
 10
0.0
 20
0.0
 11
12.0
 21
9.0
 12
0.0
 22
0.0
 32
0.0
 14
1.000000000000000E+20
 24
1.000000000000000E+20
 34
1.000000000000000E+20
 15
-1.000000000000000E+20
 25
-1.000000000000000E+20
 35
-1.000000000000000E+20
146
0.0
 13
0.0
 23
0.0
 33
0.0
 16
1.0
 26
0.0
 36
0.0
 17
0.0
 27
1.0
 37
0.0
 76
     0
330
22
  0
LAYOUT
  5
31B
102
{ACAD_XDICTIONARY
360
99D
102
}
102
{ACAD_REACTORS
330
319
102
}
330
319
100
AcDbPlotSettings
  1

  2
C:\PROGRAM FILES\AUTOCAD LT 2000I\plotters\A3 LaserJet 4V.pc3
  4

  6

 40
0.0
 41
0.0
 42
0.0
 43
0.0
 44
0.0
 45
0.0
 46
0.0
 47
0.0
 48
0.0
 49
0.0
140
0.0
141
0.0
142
1.0
143
1.0
 70
  1712
 72
     0
 73
     0
 74
     0
  7
MCC.ctb
 75
     0
147
1.0
148
0.0
149
0.0
100
AcDbLayout
  1
Model
 70
     1
 71
     0
 10
0.0
 20
0.0
 11
12.0
 21
9.0
 12
0.0
 22
0.0
 32
0.0
 14
0.0
 24
0.0
 34
0.0
 15
0.0
 25
0.0
 35
0.0
146
0.0
 13
0.0
 23
0.0
 33
0.0
 16
1.0
 26
0.0
 36
0.0
 17
0.0
 27
1.0
 37
0.0
 76
     0
330
25
  0
MLINESTYLE
  5
28
102
{ACAD_REACTORS
330
1B
102
}
330
1B
100
AcDbMlineStyle
  2
STANDARD
 70
     0
  3

 62
     0
 51
90.0
 52
90.0
 71
     2
 49
0.5
 62
   256
  6
BYLAYER
 49
-0.5
 62
   256
  6
BYLAYER
  0
PLOTSETTINGS
  5
610
102
{ACAD_XDICTIONARY
360
9A1
102
}
102
{ACAD_REACTORS
330
31A
102
}
330
31A
100
AcDbPlotSettings
  1
A3
  2
HP5000TN_PO.pc3
  4
A3
  6

 40
5.746749877929687
 41
5.704421997070312
 42
5.746734619140625
 43
5.74676513671875
 44
297.0530090332031
 45
420.1583251953125
 46
-5.74
 47
-5.669999999999999
 48
0.0
 49
0.0
140
0.0
141
0.0
142
1.0
143
1.0
 70
  1700
 72
     1
 73
     1
 74
     1
  7
MCC.ctb
 75
     0
147
1.0
148
0.028068474278939
149
0.0197497114437511
  0
PLOTSETTINGS
  5
611
102
{ACAD_XDICTIONARY
360
9A3
102
}
102
{ACAD_REACTORS
330
31A
102
}
330
31A
100
AcDbPlotSettings
  1
A3 op A4
  2
HP5000TN_PO.pc3
  4
A4
  6

 40
5.746749877929687
 41
5.365768432617187
 42
5.70440673828125
 43
5.746734619140625
 44
209.8886566162109
 45
297.0530090332031
 46
-5.37
 47
-4.929999999999999
 48
0.0
 49
0.0
140
0.0
141
0.0
142
1.0
143
1.419999999999999
 70
  1700
 72
     1
 73
     1
 74
     1
  7
MCC.ctb
 75
     0
147
0.7042253521126761
148
0.028068474278939
149
0.0197497114437511
  0
PLOTSETTINGS
  5
612
102
{ACAD_XDICTIONARY
360
9A5
102
}
102
{ACAD_REACTORS
330
31A
102
}
330
31A
100
AcDbPlotSettings
  1
A3-PDF
  2
Acrobat PDFWriter A3.pc3
  4
A3
  6

 40
5.699999809265136
 41
5.699999809265136
 42
5.731353759765625
 43
5.753021240234375
 44
420.0313415527343
 45
297.0530090332031
 46
-5.709999999999999
 47
-5.209999999999999
 48
0.0
 49
0.0
140
0.0
141
0.0
142
1.0
143
1.0
 70
  1716
 72
     1
 73
     0
 74
     1
  7
MCC.ctb
 75
    16
147
1.0
148
0.0128164049386896
149
0.0090630292066862
  0
PLOTSETTINGS
  5
613
102
{ACAD_XDICTIONARY
360
9A7
102
}
102
{ACAD_REACTORS
330
31A
102
}
330
31A
100
AcDbPlotSettings
  1
A4
  2
HP5000TN_PO.pc3
  4
A4
  6

 40
5.746749877929687
 41
5.365768432617187
 42
5.70440673828125
 43
5.746734619140625
 44
209.8886566162109
 45
297.0530090332031
 46
-5.809999999999999
 47
-5.549999999999999
 48
0.0
 49
0.0
140
0.0
141
0.0
142
1.0
143
1.0
 70
  1700
 72
     1
 73
     0
 74
     1
  7
MCC.ctb
 75
     0
147
1.0
148
0.028068474278939
149
0.0197497114437511
  0
PLOTSETTINGS
  5
614
102
{ACAD_XDICTIONARY
360
9A9
102
}
102
{ACAD_REACTORS
330
31A
102
}
330
31A
100
AcDbPlotSettings
  1
A4-PDF
  2
Acrobat PDFWriter.pc3
  4
A4
  6

 40
7.143749713897705
 41
7.143756389617919
 42
7.14373779296875
 43
7.14373779296875
 44
209.9733276367187
 45
297.0530090332031
 46
-9.0
 47
-6.629999999999999
 48
0.0
 49
0.0
140
0.0
141
0.0
142
1.0
143
1.0
 70
  1712
 72
     1
 73
     0
 74
     1
  7
MCC.ctb
 75
    16
147
1.0
148
0.006405366526451
149
0.0045292325963828
  0
ACDBPLACEHOLDER
  5
318
102
{ACAD_REACTORS
330
317
102
}
330
317
  0
TABLESTYLE
  5
4D3
102
{ACAD_REACTORS
330
4D2
102
}
330
4D2
100
AcDbTableStyle
  3
Standard
 70
     0
 71
     0
 40
1.5
 41
1.5
280
     0
281
     0
  7
STANDARD
140
4.5
170
     2
 62
     0
 63
     7
283
     0
274
    -2
284
     1
 64
     0
275
    -2
285
     1
 65
     0
276
    -2
286
     1
 66
     0
277
    -2
287
     1
 67
     0
278
    -2
288
     1
 68
     0
279
    -2
289
     1
 69
     0
  7
STANDARD
140
6.0
170
     5
 62
     0
 63
     7
283
     0
274
    -2
284
     1
 64
     0
275
    -2
285
     1
 65
     0
276
    -2
286
     1
 66
     0
277
    -2
287
     1
 67
     0
278
    -2
288
     1
 68
     0
279
    -2
289
     1
 69
     0
  7
STANDARD
140
4.5
170
     5
 62
     0
 63
     7
283
     0
274
    -2
284
     1
 64
     0
275
    -2
285
     1
 65
     0
276
    -2
286
     1
 66
     0
277
    -2
287
     1
 67
     0
278
    -2
288
     1
 68
     0
279
    -2
289
     1
 69
     0
  0
DICTIONARYVAR
  5
8BD
102
{ACAD_REACTORS
330
8BC
102
}
330
8BC
100
DictionaryVariables
280
     0
  1
STANDARD
  0
DICTIONARYVAR
  5
8BE
102
{ACAD_REACTORS
330
8BC
102
}
330
8BC
100
DictionaryVariables
280
     0
  1
1
  0
DICTIONARYVAR
  5
8BF
102
{ACAD_REACTORS
330
8BC
102
}
330
8BC
100
DictionaryVariables
280
     0
  1

  0
DICTIONARY
  5
99F
330
31C
100
AcDbDictionary
280
     1
281
     1
  3
ACAD_XREC_ROUNDTRIP
360
9A0
  0
DICTIONARY
  5
99D
330
31B
100
AcDbDictionary
280
     1
281
     1
  3
ACAD_XREC_ROUNDTRIP
360
99E
  0
DICTIONARY
  5
9A1
330
610
100
AcDbDictionary
280
     1
281
     1
  3
ACAD_XREC_ROUNDTRIP
360
9A2
  0
DICTIONARY
  5
9A3
330
611
100
AcDbDictionary
280
     1
281
     1
  3
ACAD_XREC_ROUNDTRIP
360
9A4
  0
DICTIONARY
  5
9A5
330
612
100
AcDbDictionary
280
     1
281
     1
  3
ACAD_XREC_ROUNDTRIP
360
9A6
  0
DICTIONARY
  5
9A7
330
613
100
AcDbDictionary
280
     1
281
     1
  3
ACAD_XREC_ROUNDTRIP
360
9A8
  0
DICTIONARY
  5
9A9
330
614
100
AcDbDictionary
280
     1
281
     1
  3
ACAD_XREC_ROUNDTRIP
360
9AA
  0
XRECORD
  5
9A0
102
{ACAD_REACTORS
330
99F
102
}
330
99F
100
AcDbXrecord
280
     1
102
SHADEPLOT
 70
     0
102
SHADEPLOTRESLEVEL
 70
     2
102
SHADEPLOTCUSTOMDPI
 70
   300
  0
XRECORD
  5
99E
102
{ACAD_REACTORS
330
99D
102
}
330
99D
100
AcDbXrecord
280
     1
102
SHADEPLOT
 70
     0
102
SHADEPLOTRESLEVEL
 70
     2
102
SHADEPLOTCUSTOMDPI
 70
   300
  0
XRECORD
  5
9A2
102
{ACAD_REACTORS
330
9A1
102
}
330
9A1
100
AcDbXrecord
280
     1
102
SHADEPLOT
 70
     0
102
SHADEPLOTRESLEVEL
 70
     2
102
SHADEPLOTCUSTOMDPI
 70
   300
  0
XRECORD
  5
9A4
102
{ACAD_REACTORS
330
9A3
102
}
330
9A3
100
AcDbXrecord
280
     1
102
SHADEPLOT
 70
     0
102
SHADEPLOTRESLEVEL
 70
     2
102
SHADEPLOTCUSTOMDPI
 70
   300
  0
XRECORD
  5
9A6
102
{ACAD_REACTORS
330
9A5
102
}
330
9A5
100
AcDbXrecord
280
     1
102
SHADEPLOT
 70
     0
102
SHADEPLOTRESLEVEL
 70
     2
102
SHADEPLOTCUSTOMDPI
 70
   300
  0
XRECORD
  5
9A8
102
{ACAD_REACTORS
330
9A7
102
}
330
9A7
100
AcDbXrecord
280
     1
102
SHADEPLOT
 70
     0
102
SHADEPLOTRESLEVEL
 70
     2
102
SHADEPLOTCUSTOMDPI
 70
   300
  0
XRECORD
  5
9AA
102
{ACAD_REACTORS
330
9A9
102
}
330
9A9
100
AcDbXrecord
280
     1
102
SHADEPLOT
 70
     0
102
SHADEPLOTRESLEVEL
 70
     2
102
SHADEPLOTCUSTOMDPI
 70
   300
  0
ENDSEC
  0
EOF
