  0
SECTION
  2
HEADER
  9
$ACADVER
  1
AC1015
  9
$ACADMAINTVER
 70
    20
  9
$DWGCODEPAGE
  3
ANSI_1252
  9
$INSBASE
 10
0.0
 20
0.0
 30
0.0
  9
$EXTMIN
 10
324.8760803392565
 20
302.2807647698191
 30
-0.0000000000000058
  9
$EXTMAX
 10
534.9277314885005
 20
450.8312294507707
 30
0.0000000000000104
  9
$LIMMIN
 10
0.0
 20
0.0
  9
$LIMMAX
 10
420.0
 20
297.0
  9
$ORTHOMODE
 70
     1
  9
$REGENMODE
 70
     1
  9
$FILLMODE
 70
     1
  9
$QTEXTMODE
 70
     0
  9
$MIRRTEXT
 70
     1
  9
$LTSCALE
 40
3.0
  9
$ATTMODE
 70
     1
  9
$TEXTSIZE
 40
3.0
  9
$TRACEWID
 40
10.0
  9
$TEXTSTYLE
  7
STANDARD
  9
$CLAYER
  8
0
  9
$CELTYPE
  6
BYLAYER
  9
$CECOLOR
 62
   256
  9
$CELTSCALE
 40
1.0
  9
$DISPSILH
 70
     0
  9
$DIMSCALE
 40
0.5
  9
$DIMASZ
 40
4.0
  9
$DIMEXO
 40
2.5
  9
$DIMDLI
 40
10.0
  9
$DIMRND
 40
0.0
  9
$DIMDLE
 40
1.25
  9
$DIMEXE
 40
2.5
  9
$DIMTP
 40
0.0
  9
$DIMTM
 40
0.0
  9
$DIMTXT
 40
3.0
  9
$DIMCEN
 40
3.0
  9
$DIMTSZ
 40
0.0
  9
$DIMTOL
 70
     0
  9
$DIMLIM
 70
     0
  9
$DIMTIH
 70
     0
  9
$DIMTOH
 70
     0
  9
$DIMSE1
 70
     0
  9
$DIMSE2
 70
     0
  9
$DIMTAD
 70
     1
  9
$DIMZIN
 70
     9
  9
$DIMBLK
  1

  9
$DIMASO
 70
     1
  9
$DIMSHO
 70
     0
  9
$DIMPOST
  1

  9
$DIMAPOST
  1

  9
$DIMALT
 70
     0
  9
$DIMALTD
 70
     2
  9
$DIMALTF
 40
0.039
  9
$DIMLFAC
 40
1.0
  9
$DIMTOFL
 70
     1
  9
$DIMTVP
 40
1.5
  9
$DIMTIX
 70
     0
  9
$DIMSOXD
 70
     0
  9
$DIMSAH
 70
     0
  9
$DIMBLK1
  1

  9
$DIMBLK2
  1

  9
$DIMSTYLE
  2
MCC
  9
$DIMCLRD
 70
     2
  9
$DIMCLRE
 70
     2
  9
$DIMCLRT
 70
     3
  9
$DIMTFAC
 40
0.6666666666666666
  9
$DIMGAP
 40
1.0
  9
$DIMJUST
 70
     0
  9
$DIMSD1
 70
     0
  9
$DIMSD2
 70
     0
  9
$DIMTOLJ
 70
     1
  9
$DIMTZIN
 70
     9
  9
$DIMALTZ
 70
     1
  9
$DIMALTTZ
 70
     1
  9
$DIMUPT
 70
     0
  9
$DIMDEC
 70
     3
  9
$DIMTDEC
 70
     3
  9
$DIMALTU
 70
     2
  9
$DIMALTTD
 70
     2
  9
$DIMTXSTY
  7
STANDARD
  9
$DIMAUNIT
 70
     0
  9
$DIMADEC
 70
     4
  9
$DIMALTRND
 40
0.0
  9
$DIMAZIN
 70
     2
  9
$DIMDSEP
 70
    46
  9
$DIMATFIT
 70
     0
  9
$DIMFRAC
 70
     0
  9
$DIMLDRBLK
  1

  9
$DIMLUNIT
 70
     2
  9
$DIMLWD
 70
    -2
  9
$DIMLWE
 70
    -2
  9
$DIMTMOVE
 70
     0
  9
$LUNITS
 70
     2
  9
$LUPREC
 70
     2
  9
$SKETCHINC
 40
0.0
  9
$FILLETRAD
 40
0.9
  9
$AUNITS
 70
     0
  9
$AUPREC
 70
     2
  9
$MENU
  1
ACAD
  9
$ELEVATION
 40
0.0
  9
$PELEVATION
 40
0.0
  9
$THICKNESS
 40
0.0
  9
$LIMCHECK
 70
     0
  9
$CHAMFERA
 40
0.0
  9
$CHAMFERB
 40
0.0
  9
$CHAMFERC
 40
0.0
  9
$CHAMFERD
 40
0.0
  9
$SKPOLY
 70
     1
  9
$TDCREATE
 40
2453640.573788877
  9
$TDUCREATE
 40
2453640.532122211
  9
$TDUPDATE
 40
2454882.561900093
  9
$TDUUPDATE
 40
2454882.520233426
  9
$TDINDWG
 40
0.2074163542
  9
$TDUSRTIMER
 40
0.2074163542
  9
$USRTIMER
 70
     1
  9
$ANGBASE
 50
0.0
  9
$ANGDIR
 70
     0
  9
$PDMODE
 70
     1
  9
$PDSIZE
 40
0.0
  9
$PLINEWID
 40
0.0
  9
$SPLFRAME
 70
     0
  9
$SPLINETYPE
 70
     6
  9
$SPLINESEGS
 70
     6
  9
$HANDSEED
  5
1A5C
  9
$SURFTAB1
 70
    12
  9
$SURFTAB2
 70
    12
  9
$SURFTYPE
 70
     6
  9
$SURFU
 70
    12
  9
$SURFV
 70
    12
  9
$UCSBASE
  2

  9
$UCSNAME
  2

  9
$UCSORG
 10
0.0
 20
0.0
 30
0.0
  9
$UCSXDIR
 10
1.0
 20
0.0
 30
0.0
  9
$UCSYDIR
 10
0.0
 20
1.0
 30
0.0
  9
$UCSORTHOREF
  2

  9
$UCSORTHOVIEW
 70
     0
  9
$UCSORGTOP
 10
0.0
 20
0.0
 30
0.0
  9
$UCSORGBOTTOM
 10
0.0
 20
0.0
 30
0.0
  9
$UCSORGLEFT
 10
0.0
 20
0.0
 30
0.0
  9
$UCSORGRIGHT
 10
0.0
 20
0.0
 30
0.0
  9
$UCSORGFRONT
 10
0.0
 20
0.0
 30
0.0
  9
$UCSORGBACK
 10
0.0
 20
0.0
 30
0.0
  9
$PUCSBASE
  2

  9
$PUCSNAME
  2

  9
$PUCSORG
 10
0.0
 20
0.0
 30
0.0
  9
$PUCSXDIR
 10
1.0
 20
0.0
 30
0.0
  9
$PUCSYDIR
 10
0.0
 20
1.0
 30
0.0
  9
$PUCSORTHOREF
  2

  9
$PUCSORTHOVIEW
 70
     0
  9
$PUCSORGTOP
 10
0.0
 20
0.0
 30
0.0
  9
$PUCSORGBOTTOM
 10
0.0
 20
0.0
 30
0.0
  9
$PUCSORGLEFT
 10
0.0
 20
0.0
 30
0.0
  9
$PUCSORGRIGHT
 10
0.0
 20
0.0
 30
0.0
  9
$PUCSORGFRONT
 10
0.0
 20
0.0
 30
0.0
  9
$PUCSORGBACK
 10
0.0
 20
0.0
 30
0.0
  9
$USERI1
 70
     0
  9
$USERI2
 70
     0
  9
$USERI3
 70
     0
  9
$USERI4
 70
     0
  9
$USERI5
 70
     0
  9
$USERR1
 40
0.0
  9
$USERR2
 40
0.0
  9
$USERR3
 40
0.0
  9
$USERR4
 40
0.0
  9
$USERR5
 40
0.0
  9
$WORLDVIEW
 70
     0
  9
$SHADEDGE
 70
     3
  9
$SHADEDIF
 70
    70
  9
$TILEMODE
 70
     1
  9
$MAXACTVP
 70
    16
  9
$PINSBASE
 10
0.0
 20
0.0
 30
0.0
  9
$PLIMCHECK
 70
     0
  9
$PEXTMIN
 10
1.000000000000000E+20
 20
1.000000000000000E+20
 30
1.000000000000000E+20
  9
$PEXTMAX
 10
-1.000000000000000E+20
 20
-1.000000000000000E+20
 30
-1.000000000000000E+20
  9
$PLIMMIN
 10
0.0
 20
0.0
  9
$PLIMMAX
 10
12.0
 20
9.0
  9
$UNITMODE
 70
     0
  9
$VISRETAIN
 70
     0
  9
$PLINEGEN
 70
     0
  9
$PSLTSCALE
 70
     0
  9
$TREEDEPTH
 70
  3020
  9
$CMLSTYLE
  2
STANDARD
  9
$CMLJUST
 70
     0
  9
$CMLSCALE
 40
1.0
  9
$PROXYGRAPHICS
 70
     1
  9
$MEASUREMENT
 70
     1
  9
$CELWEIGHT
370
    -1
  9
$ENDCAPS
280
     0
  9
$JOINSTYLE
280
     0
  9
$LWDISPLAY
290
     0
  9
$INSUNITS
 70
     0
  9
$HYPERLINKBASE
  1

  9
$STYLESHEET
  1
MCC.ctb
  9
$XEDIT
290
     1
  9
$CEPSNTYPE
380
     0
  9
$PSTYLEMODE
290
     1
  9
$FINGERPRINTGUID
  2
{B0AAC3B9-9196-4437-8F2C-AF1BF00EF657}
  9
$VERSIONGUID
  2
{98255554-82B7-4771-A9B9-E240F7759983}
  9
$EXTNAMES
290
     1
  9
$PSVPSCALE
 40
0.0
  9
$OLESTARTUP
290
     0
  0
ENDSEC
  0
SECTION
  2
CLASSES
  0
CLASS
  1
ACDBDICTIONARYWDFLT
  2
AcDbDictionaryWithDefault
  3
ObjectDBX Classes
 90
        0
280
     0
281
     0
  0
CLASS
  1
ACDBPLACEHOLDER
  2
AcDbPlaceHolder
  3
ObjectDBX Classes
 90
        0
280
     0
281
     0
  0
CLASS
  1
LAYOUT
  2
AcDbLayout
  3
ObjectDBX Classes
 90
        0
280
     0
281
     0
  0
CLASS
  1
TABLESTYLE
  2
AcDbTableStyle
  3
ObjectDBX Classes
 90
     2047
280
     0
281
     0
  0
CLASS
  1
DICTIONARYVAR
  2
AcDbDictionaryVar
  3
ObjectDBX Classes
 90
        0
280
     0
281
     0
  0
CLASS
  1
SORTENTSTABLE
  2
AcDbSortentsTable
  3
ObjectDBX Classes
 90
        0
280
     0
281
     0
  0
CLASS
  1
PLOTSETTINGS
  2
AcDbPlotSettings
  3
ObjectDBX Classes
 90
        0
280
     0
281
     0
  0
ENDSEC
  0
SECTION
  2
TABLES
  0
TABLE
  2
VPORT
  5
15
330
0
100
AcDbSymbolTable
 70
     2
  0
VPORT
  5
1A4C
330
15
100
AcDbSymbolTableRecord
100
AcDbViewportTableRecord
  2
*Active
 70
     0
 10
0.0
 20
0.0
 11
1.0
 21
1.0
 12
429.9011789763792
 22
376.5560362792189
 13
0.0
 23
0.0
 14
1.0
 24
1.0
 15
0.0
 25
0.0
 16
0.0
 26
0.0
 36
1.0
 17
0.0
 27
0.0
 37
0.0
 40
149.6682891089499
 41
1.808236808236808
 42
50.0
 43
0.0
 44
0.0
 50
0.0
 51
0.0
 71
     0
 72
  2000
 73
     1
 74
     0
 75
     0
 76
     0
 77
     0
 78
     2
281
     0
 65
     1
110
0.0
120
0.0
130
0.0
111
1.0
121
0.0
131
0.0
112
0.0
122
1.0
132
0.0
 79
     0
146
0.0
  0
ENDTAB
  0
TABLE
  2
LTYPE
  5
12
330
0
100
AcDbSymbolTable
 70
     3
  0
LTYPE
  5
1F
330
12
100
AcDbSymbolTableRecord
100
AcDbLinetypeTableRecord
  2
BYBLOCK
 70
     0
  3

 72
    65
 73
     0
 40
0.0
  0
LTYPE
  5
20
330
12
100
AcDbSymbolTableRecord
100
AcDbLinetypeTableRecord
  2
BYLAYER
 70
     0
  3

 72
    65
 73
     0
 40
0.0
  0
LTYPE
  5
21
330
12
100
AcDbSymbolTableRecord
100
AcDbLinetypeTableRecord
  2
CONTINUOUS
 70
     0
  3
Solid line
 72
    65
 73
     0
 40
0.0
  0
LTYPE
  5
2C
330
12
100
AcDbSymbolTableRecord
100
AcDbLinetypeTableRecord
  2
CENTER
 70
     0
  3
____ _ ____ _ ____ _ ____ _ ____ _ ____ _ ____
 72
    65
 73
     4
 40
2.0
 49
1.25
 74
     0
 49
-0.25
 74
     0
 49
0.25
 74
     0
 49
-0.25
 74
     0
  0
LTYPE
  5
33
330
12
100
AcDbSymbolTableRecord
100
AcDbLinetypeTableRecord
  2
DOT
 70
     0
  3
...............................................
 72
    65
 73
     2
 40
0.25
 49
0.0
 74
     0
 49
-0.25
 74
     0
  0
ENDTAB
  0
TABLE
  2
LAYER
  5
F
102
{ACAD_XDICTIONARY
360
DFD
102
}
330
0
100
AcDbSymbolTable
 70
     5
  0
LAYER
  5
1C
330
F
100
AcDbSymbolTableRecord
100
AcDbLayerTableRecord
  2
0
 70
     0
 62
     7
  6
CONTINUOUS
370
    -3
390
318
  0
LAYER
  5
3B
330
F
100
AcDbSymbolTableRecord
100
AcDbLayerTableRecord
  2
3
 70
     0
 62
     3
  6
CONTINUOUS
370
    -3
390
318
  0
LAYER
  5
3C
330
F
100
AcDbSymbolTableRecord
100
AcDbLayerTableRecord
  2
HARTLIJN
 70
     0
 62
     2
  6
CENTER
370
    -3
390
318
  0
LAYER
  5
3E
330
F
100
AcDbSymbolTableRecord
100
AcDbLayerTableRecord
  2
DEFPOINTS
 70
     0
 62
     7
  6
DOT
290
     0
370
    -3
390
318
  0
LAYER
  5
45
330
F
100
AcDbSymbolTableRecord
100
AcDbLayerTableRecord
  2
AME_FRZ
 70
     1
 62
     7
  6
CONTINUOUS
370
    -3
390
318
  0
ENDTAB
  0
TABLE
  2
STYLE
  5
10
330
0
100
AcDbSymbolTable
 70
     2
  0
STYLE
  5
1D
330
10
100
AcDbSymbolTableRecord
100
AcDbTextStyleTableRecord
  2
STANDARD
 70
     0
 40
0.0
 41
1.0
 50
0.0
 71
     0
 42
3.0
  3
SIMPLEX
  4

  0
ENDTAB
  0
TABLE
  2
VIEW
  5
13
330
0
100
AcDbSymbolTable
 70
     0
  0
ENDTAB
  0
TABLE
  2
UCS
  5
14
330
0
100
AcDbSymbolTable
 70
     0
  0
ENDTAB
  0
TABLE
  2
APPID
  5
16
330
0
100
AcDbSymbolTable
 70
     6
  0
APPID
  5
1E
330
16
100
AcDbSymbolTableRecord
100
AcDbRegAppTableRecord
  2
ACAD
 70
     0
  0
APPID
  5
38
330
16
100
AcDbSymbolTableRecord
100
AcDbRegAppTableRecord
  2
AME_SOL
 70
     0
  0
APPID
  5
894
330
16
100
AcDbSymbolTableRecord
100
AcDbRegAppTableRecord
  2
ACAD_PSEXT
 70
     0
  0
APPID
  5
D9C
330
16
100
AcDbSymbolTableRecord
100
AcDbRegAppTableRecord
  2
ACAD_DSTYLE_DIMTEXT_FILL
 70
     0
  0
APPID
  5
1067
330
16
100
AcDbSymbolTableRecord
100
AcDbRegAppTableRecord
  2
CONTENTTABDATA
 70
     0
  0
APPID
  5
1068
330
16
100
AcDbSymbolTableRecord
100
AcDbRegAppTableRecord
  2
CONTENTCURRENTTAB
 70
     0
  0
ENDTAB
  0
TABLE
  2
DIMSTYLE
  5
17
330
0
100
AcDbSymbolTable
 70
     2
100
AcDbDimStyleTable
 71
     1
340
39
  0
DIMSTYLE
105
39
102
{ACAD_REACTORS
330
1881
330
188E
330
18B4
330
18C1
330
190B
330
194B
102
}
330
17
100
AcDbSymbolTableRecord
100
AcDbDimStyleTableRecord
  2
MCC
 70
     0
 41
4.0
 42
2.5
 43
10.0
 44
2.5
 46
1.25
 73
     0
 74
     0
 77
     1
 78
     9
 79
     2
140
3.0
141
3.0
143
0.039
145
1.5
146
0.6666666666666666
147
1.0
172
     1
176
     2
177
     2
178
     3
179
     4
271
     3
272
     3
284
     9
285
     1
286
     1
289
     0
340
1D
  0
ENDTAB
  0
TABLE
  2
BLOCK_RECORD
  5
E
330
0
100
AcDbSymbolTable
 70
    11
  0
BLOCK_RECORD
  5
25
102
{ACAD_XDICTIONARY
360
35F
102
}
330
E
100
AcDbSymbolTableRecord
100
AcDbBlockTableRecord
  2
*MODEL_SPACE
340
31B
  0
BLOCK_RECORD
  5
22
102
{ACAD_XDICTIONARY
360
35D
102
}
330
E
100
AcDbSymbolTableRecord
100
AcDbBlockTableRecord
  2
*PAPER_SPACE
340
31C
  0
BLOCK_RECORD
  5
29
330
E
100
AcDbSymbolTableRecord
100
AcDbBlockTableRecord
  2
AME_NIL
340
0
102
{BLKREFS
331
6
331
9AB
331
A7F
331
A81
331
A83
331
A42
102
}
  0
BLOCK_RECORD
  5
2A
330
E
100
AcDbSymbolTableRecord
100
AcDbBlockTableRecord
  2
AME_SOL
340
0
102
{BLKREFS
331
D
331
9AC
331
A80
331
A82
331
A84
331
A43
102
}
  0
BLOCK_RECORD
  5
105C
330
E
100
AcDbSymbolTableRecord
100
AcDbBlockTableRecord
  2
A$C1D384272
340
0
102
{BLKREFS
331
10F2
102
}
  0
BLOCK_RECORD
  5
106E
102
{ACAD_XDICTIONARY
360
10F3
102
}
330
E
100
AcDbSymbolTableRecord
100
AcDbBlockTableRecord
  2
calca3
340
0
102
{BLKREFS
331
1826
102
}
  0
BLOCK_RECORD
  5
1882
330
E
100
AcDbSymbolTableRecord
100
AcDbBlockTableRecord
  2
*D4
340
0
  0
BLOCK_RECORD
  5
188F
330
E
100
AcDbSymbolTableRecord
100
AcDbBlockTableRecord
  2
*D5
340
0
  0
BLOCK_RECORD
  5
18B5
330
E
100
AcDbSymbolTableRecord
100
AcDbBlockTableRecord
  2
*D6
340
0
  0
BLOCK_RECORD
  5
18C2
330
E
100
AcDbSymbolTableRecord
100
AcDbBlockTableRecord
  2
*D7
340
0
  0
BLOCK_RECORD
  5
190C
330
E
100
AcDbSymbolTableRecord
100
AcDbBlockTableRecord
  2
*D8
340
0
  0
BLOCK_RECORD
  5
194C
330
E
100
AcDbSymbolTableRecord
100
AcDbBlockTableRecord
  2
*D9
340
0
  0
ENDTAB
  0
ENDSEC
  0
SECTION
  2
BLOCKS
  0
BLOCK
  5
48
330
25
100
AcDbEntity
  8
0
100
AcDbBlockBegin
  2
*MODEL_SPACE
 70
     0
 10
0.0
 20
0.0
 30
0.0
  3
*MODEL_SPACE
  1

  0
ENDBLK
  5
49
330
25
100
AcDbEntity
  8
0
100
AcDbBlockEnd
  0
BLOCK
  5
46
330
22
100
AcDbEntity
 67
     1
  8
0
100
AcDbBlockBegin
  2
*PAPER_SPACE
 70
     0
 10
0.0
 20
0.0
 30
0.0
  3
*PAPER_SPACE
  1

  0
ENDBLK
  5
47
330
22
100
AcDbEntity
 67
     1
  8
0
100
AcDbBlockEnd
  0
BLOCK
  5
4
330
29
100
AcDbEntity
  8
0
100
AcDbBlockBegin
  2
AME_NIL
 70
     0
 10
0.0
 20
0.0
 30
0.0
  3
AME_NIL
  1
AME_NIL
  0
ENDBLK
  5
5
330
29
100
AcDbEntity
  8
0
100
AcDbBlockEnd
  0
BLOCK
  5
7
330
2A
100
AcDbEntity
  8
0
100
AcDbBlockBegin
  2
AME_SOL
 70
     0
 10
0.0
 20
0.0
 30
0.0
  3
AME_SOL
  1
AME_SOL
  0
ENDBLK
  5
8
330
2A
100
AcDbEntity
  8
0
100
AcDbBlockEnd
  0
BLOCK
  5
105D
330
105C
100
AcDbEntity
  8
0
100
AcDbBlockBegin
  2
A$C1D384272
 70
     0
 10
0.0
 20
0.0
 30
0.0
  3
A$C1D384272
  1

  0
LWPOLYLINE
  5
105E
330
105C
100
AcDbEntity
  8
3
100
AcDbPolyline
 90
        4
 70
     1
 43
0.0
 10
14.5
 20
4.000000000000028
 10
14.5
 20
6.000000000000028
 10
20.5
 20
7.000000000000028
 10
20.5
 20
3.000000000000028
  0
LINE
  5
105F
330
105C
100
AcDbEntity
  8
HARTLIJN
 48
0.5
100
AcDbLine
 10
13.5
 20
5.000000000000028
 30
0.0
 11
22.0
 21
5.000000000000028
 31
0.0
  0
CIRCLE
  5
1060
330
105C
100
AcDbEntity
  8
3
100
AcDbCircle
 10
5.75
 20
5.000000000000028
 30
0.0
 40
2.0
  0
CIRCLE
  5
1061
330
105C
100
AcDbEntity
  8
3
100
AcDbCircle
 10
5.75
 20
5.000000000000028
 30
0.0
 40
1.0
  0
LWPOLYLINE
  5
1062
330
105C
100
AcDbEntity
  8
HARTLIJN
 48
0.5
100
AcDbPolyline
 90
        2
 70
     0
 43
0.0
 10
2.000000000000014
 20
5.000000000000028
 10
9.500000000000014
 20
5.000000000000028
  0
LINE
  5
1063
330
105C
100
AcDbEntity
  8
HARTLIJN
 48
0.5
100
AcDbLine
 10
5.75
 20
1.500000000000028
 30
0.0
 11
5.75
 21
8.500000000000028
 31
0.0
  0
ENDBLK
  5
1064
330
105C
100
AcDbEntity
  8
0
100
AcDbBlockEnd
  0
BLOCK
  5
10F4
330
106E
100
AcDbEntity
  8
0
100
AcDbBlockBegin
  2
calca3
 70
     2
 10
0.0
 20
0.0
 30
0.0
  3
calca3
  1

  0
ATTDEF
  5
106F
330
106E
100
AcDbEntity
  8
3
100
AcDbText
 10
232.0000004500311
 20
30.50000017354523
 30
0.0
 40
4.0
  1

100
AcDbAttributeDefinition
  3
Name ?
  2
NAME
 70
     0
  0
ATTDEF
  5
1070
330
106E
100
AcDbEntity
  8
3
100
AcDbText
 10
232.0000004500311
 20
26.00000017354523
 30
0.0
 40
2.5
  1

100
AcDbAttributeDefinition
  3
Addtional name ?
  2
ADDITIONAL_NAME
 70
     0
  0
ATTDEF
  5
1071
330
106E
100
AcDbEntity
  8
3
100
AcDbText
 10
326.0000004500312
 20
12.48000017354536
 30
0.0
 40
4.5
  1
XXX.XX.XX 0_
100
AcDbAttributeDefinition
  3
Number ?
  2
DRAWING_NO.
 70
     0
  0
ATTDEF
  5
1072
330
106E
100
AcDbEntity
  8
3
100
AcDbText
 10
340.038658596996
 20
31.25000017354526
 30
0.0
 40
2.0
  1

 41
0.8
 11
340.038658596996
 21
32.25000017354526
 31
0.0
100
AcDbAttributeDefinition
  3
Scale ?
  2
SCALE
 70
     0
 74
     2
  0
ATTDEF
  5
1073
330
106E
100
AcDbEntity
  8
3
100
AcDbText
 10
385.9809528309836
 20
31.25000017354532
 30
0.0
 40
2.0
  1
dd/mm/jj
 41
0.8
 72
     1
 11
392.0000004500312
 21
32.25000017354532
 31
0.0
100
AcDbAttributeDefinition
  3
Date drawn ?
  2
DATE
 70
     0
 74
     2
  0
ATTDEF
  5
1074
330
106E
100
AcDbEntity
  8
3
100
AcDbText
 10
404.5000004500312
 20
31.25000017354532
 30
0.0
 40
2.0
  1

 72
     1
 11
404.5000004500312
 21
32.25000017354532
 31
0.0
100
AcDbAttributeDefinition
  3
Initials drawn ?
  2
INITIALS
 70
     0
 74
     2
  0
ATTDEF
  5
1075
330
106E
100
AcDbEntity
  8
3
100
AcDbText
 10
232.0000004500311
 20
62.00000017354523
 30
0.0
 40
2.5
  1

100
AcDbAttributeDefinition
  3
Material ?
  2
MATERIAL
 70
     0
  0
ATTDEF
  5
1076
330
106E
100
AcDbEntity
  8
3
100
AcDbText
 10
232.0000004500311
 20
52.00000017354525
 30
0.0
 40
2.5
  1

100
AcDbAttributeDefinition
  3
Product treatment ?
  2
PRODUCTTREATMENT
 70
     0
  0
ATTDEF
  5
1077
330
106E
100
AcDbEntity
  8
3
100
AcDbText
 10
232.0000004500311
 20
42.00000017354523
 30
0.0
 40
2.5
  1

100
AcDbAttributeDefinition
  3
Semifinished product ?
  2
SEMIFINISHED_PRODUCT
 70
     0
  0
ATTDEF
  5
1078
330
106E
100
AcDbEntity
  8
3
100
AcDbText
 10
340.0000004500312
 20
25.75000017354526
 30
0.0
 40
2.0
  1
mm
 41
0.8
 11
340.0000004500312
 21
26.75000017354526
 31
0.0
100
AcDbAttributeDefinition
  3
Units of dimension ?
  2
UNITS
 70
     0
 74
     2
  0
ATTDEF
  5
1079
330
106E
100
AcDbEntity
  8
3
100
AcDbText
 10
392.0000004500312
 20
25.75000017354526
 30
0.0
 40
2.0
  1

 41
0.8
 72
     1
 11
392.0000004500312
 21
26.75000017354526
 31
0.0
100
AcDbAttributeDefinition
  3
Date checked ?
  2
DATE
 70
     0
 74
     2
  0
ATTDEF
  5
107A
330
106E
100
AcDbEntity
  8
3
100
AcDbText
 10
404.5000004500312
 20
25.75000017354526
 30
0.0
 40
2.0
  1

 72
     1
 11
404.5000004500312
 21
26.75000017354526
 31
0.0
100
AcDbAttributeDefinition
  3
Initials checked ?
  2
INITIALS
 70
     0
 74
     2
  0
ATTDEF
  5
107B
330
106E
100
AcDbEntity
  8
3
100
AcDbText
 10
326.5000004500312
 20
41.50000017354523
 30
0.0
 40
2.0
  1

 72
     1
 11
326.5000004500312
 21
42.50000017354523
 31
0.0
100
AcDbAttributeDefinition
  3
Rev 1
  2
REV1
 70
     0
 74
     2
  0
ATTDEF
  5
107C
330
106E
100
AcDbEntity
  8
3
100
AcDbText
 10
332.0000004500311
 20
41.50000017354523
 30
0.0
 40
2.0
  1

100
AcDbAttributeDefinition
  3
Change 1
  2
Change 1
 70
     0
  0
ATTDEF
  5
107D
330
106E
100
AcDbEntity
  8
3
100
AcDbText
 10
392.0000004500312
 20
41.50000017354523
 30
0.0
 40
2.0
  1

 41
0.8
 72
     1
 11
392.0000004500312
 21
42.50000017354523
 31
0.0
100
AcDbAttributeDefinition
  3
Date revision 1
  2
DATE 1
 70
     0
 74
     2
  0
ATTDEF
  5
107E
330
106E
100
AcDbEntity
  8
3
100
AcDbText
 10
404.5000004500312
 20
41.50000017354523
 30
0.0
 40
2.0
  1

 72
     1
 11
404.5000004500312
 21
42.50000017354523
 31
0.0
100
AcDbAttributeDefinition
  3
Initials 1
  2
Initial1
 70
     0
 74
     2
  0
ATTDEF
  5
107F
330
106E
100
AcDbEntity
  8
3
100
AcDbText
 10
326.5000004500312
 20
46.50000017354523
 30
0.0
 40
2.0
  1

 72
     1
 11
326.5000004500312
 21
47.50000017354523
 31
0.0
100
AcDbAttributeDefinition
  3
Rev 2
  2
Rev2
 70
     0
 74
     2
  0
ATTDEF
  5
1080
330
106E
100
AcDbEntity
  8
3
100
AcDbText
 10
332.0000004500311
 20
46.50000017354523
 30
0.0
 40
2.0
  1

100
AcDbAttributeDefinition
  3
Change 2
  2
Change 2
 70
     0
  0
ATTDEF
  5
1081
330
106E
100
AcDbEntity
  8
3
100
AcDbText
 10
392.0000004500312
 20
46.50000017354523
 30
0.0
 40
2.0
  1

 41
0.8
 72
     1
 11
392.0000004500312
 21
47.50000017354523
 31
0.0
100
AcDbAttributeDefinition
  3
Date revision 2
  2
Date 2
 70
     0
 74
     2
  0
ATTDEF
  5
1082
330
106E
100
AcDbEntity
  8
3
100
AcDbText
 10
404.5000004500312
 20
46.50000017354523
 30
0.0
 40
2.0
  1

 72
     1
 11
404.5000004500312
 21
47.50000017354523
 31
0.0
100
AcDbAttributeDefinition
  3
Initials 2
  2
Initial2
 70
     0
 74
     2
  0
ATTDEF
  5
1083
330
106E
100
AcDbEntity
  8
3
100
AcDbText
 10
326.5000004500312
 20
51.50000017354523
 30
0.0
 40
2.0
  1

 72
     1
 11
326.5000004500312
 21
52.50000017354523
 31
0.0
100
AcDbAttributeDefinition
  3
Rev 3
  2
Rev3
 70
     0
 74
     2
  0
ATTDEF
  5
1084
330
106E
100
AcDbEntity
  8
3
100
AcDbText
 10
332.0000004500311
 20
51.50000017354523
 30
0.0
 40
2.0
  1

100
AcDbAttributeDefinition
  3
Change 3
  2
Change 3
 70
     0
  0
ATTDEF
  5
1085
330
106E
100
AcDbEntity
  8
3
100
AcDbText
 10
392.0000004500312
 20
51.50000017354523
 30
0.0
 40
2.0
  1

 41
0.8
 72
     1
 11
392.0000004500312
 21
52.50000017354523
 31
0.0
100
AcDbAttributeDefinition
  3
Date revision 3
  2
Date 3
 70
     0
 74
     2
  0
ATTDEF
  5
1086
330
106E
100
AcDbEntity
  8
3
100
AcDbText
 10
404.5000004500312
 20
51.50000017354523
 30
0.0
 40
2.0
  1

 72
     1
 11
404.5000004500312
 21
52.50000017354523
 31
0.0
100
AcDbAttributeDefinition
  3
Initials 3
  2
Initial3
 70
     0
 74
     2
  0
ATTDEF
  5
1087
330
106E
100
AcDbEntity
  8
3
100
AcDbText
 10
326.5000004500312
 20
56.50000017354523
 30
0.0
 40
2.0
  1

 72
     1
 11
326.5000004500312
 21
57.50000017354523
 31
0.0
100
AcDbAttributeDefinition
  3
Rev 4
  2
Rev4
 70
     0
 74
     2
  0
ATTDEF
  5
1088
330
106E
100
AcDbEntity
  8
3
100
AcDbText
 10
332.0000004500311
 20
56.50000017354523
 30
0.0
 40
2.0
  1

100
AcDbAttributeDefinition
  3
Change 4
  2
Change 4
 70
     0
  0
ATTDEF
  5
1089
330
106E
100
AcDbEntity
  8
3
100
AcDbText
 10
392.0000004500312
 20
56.50000017354523
 30
0.0
 40
2.0
  1

 41
0.8
 72
     1
 11
392.0000004500312
 21
57.50000017354523
 31
0.0
100
AcDbAttributeDefinition
  3
Date revision 4
  2
Date 4
 70
     0
 74
     2
  0
ATTDEF
  5
108A
330
106E
100
AcDbEntity
  8
3
100
AcDbText
 10
404.5000004500312
 20
56.50000017354523
 30
0.0
 40
2.0
  1

 72
     1
 11
404.5000004500312
 21
57.50000017354523
 31
0.0
100
AcDbAttributeDefinition
  3
Initials 4
  2
Initial4
 70
     0
 74
     2
  0
ATTDEF
  5
108B
330
106E
100
AcDbEntity
  8
3
100
AcDbText
 10
326.5000004500312
 20
61.50000017354523
 30
0.0
 40
2.0
  1

 72
     1
 11
326.5000004500312
 21
62.50000017354523
 31
0.0
100
AcDbAttributeDefinition
  3
Rev 5
  2
Rev5
 70
     0
 74
     2
  0
ATTDEF
  5
108C
330
106E
100
AcDbEntity
  8
3
100
AcDbText
 10
332.0000004500311
 20
61.50000017354523
 30
0.0
 40
2.0
  1

100
AcDbAttributeDefinition
  3
Change 5
  2
Change 5
 70
     0
  0
ATTDEF
  5
108D
330
106E
100
AcDbEntity
  8
3
100
AcDbText
 10
392.0000004500312
 20
61.50000017354523
 30
0.0
 40
2.0
  1

 41
0.8
 72
     1
 11
392.0000004500312
 21
62.50000017354523
 31
0.0
100
AcDbAttributeDefinition
  3
Date revision 5
  2
Date 5
 70
     0
 74
     2
  0
ATTDEF
  5
108E
330
106E
100
AcDbEntity
  8
3
100
AcDbText
 10
404.5000004500312
 20
61.50000017354523
 30
0.0
 40
2.0
  1

 72
     1
 11
404.5000004500312
 21
62.50000017354523
 31
0.0
100
AcDbAttributeDefinition
  3
Initials 5
  2
Initial5
 70
     0
 74
     2
  0
ATTDEF
  5
108F
330
106E
100
AcDbEntity
  8
3
100
AcDbText
 10
326.5000004500312
 20
66.50000017354523
 30
0.0
 40
2.0
  1

 72
     1
 11
326.5000004500312
 21
67.50000017354523
 31
0.0
100
AcDbAttributeDefinition
  3
Rev 6
  2
Rev6
 70
     0
 74
     2
  0
ATTDEF
  5
1090
330
106E
100
AcDbEntity
  8
3
100
AcDbText
 10
332.0000004500311
 20
66.50000017354523
 30
0.0
 40
2.0
  1

100
AcDbAttributeDefinition
  3
Change 6
  2
Change 6
 70
     0
  0
ATTDEF
  5
1091
330
106E
100
AcDbEntity
  8
3
100
AcDbText
 10
392.0000004500312
 20
66.50000017354523
 30
0.0
 40
2.0
  1

 41
0.8
 72
     1
 11
392.0000004500312
 21
67.50000017354523
 31
0.0
100
AcDbAttributeDefinition
  3
Date revision 6
  2
Date 6
 70
     0
 74
     2
  0
ATTDEF
  5
1092
330
106E
100
AcDbEntity
  8
3
100
AcDbText
 10
404.5000004500312
 20
66.50000017354523
 30
0.0
 40
2.0
  1

 72
     1
 11
404.5000004500312
 21
67.50000017354523
 31
0.0
100
AcDbAttributeDefinition
  3
Initials 6
  2
Initial6
 70
     0
 74
     2
  0
LINE
  5
1093
330
106E
100
AcDbEntity
  8
0
100
AcDbLine
 10
420.0000004500395
 20
0.0000001735452315
 30
0.0
 11
410.0000004500396
 21
0.0000001735452315
 31
0.0
  0
LINE
  5
1094
330
106E
100
AcDbEntity
  8
0
100
AcDbLine
 10
420.0000004500395
 20
297.0000001735452
 30
0.0
 11
410.0000004500396
 21
297.0000001735452
 31
0.0
  0
LWPOLYLINE
  5
1095
330
106E
100
AcDbEntity
  8
0
100
AcDbPolyline
 90
        4
 70
     1
 43
0.0
 10
20.00000045003117
 20
10.00000017354523
 10
410.0000004500311
 20
10.00000017354523
 10
410.0000004500311
 20
287.0000001735452
 10
20.00000045003117
 20
287.0000001735452
  0
MTEXT
  5
1096
330
106E
100
AcDbEntity
  8
3
100
AcDbMText
 10
16.00000045003116
 20
24.00000017354523
 30
0.0
 40
2.0
 41
209.12
 71
     1
 72
     5
  1
All rights reserved. Duplication or publication is not permitted, except with written permission of the owner.
 11
0.0000000000000001
 21
1.0
 31
0.0
 73
     1
 44
1.0
1001
ACAD
1000
MTEXTBEGIN
1070
    73
1070
     1
1070
    44
1040
1.0
1070
    74
1070
     0
1000
MTEXTEND
  0
LINE
  5
1097
330
106E
100
AcDbEntity
  8
0
100
AcDbLine
 10
323.0000004500312
 20
40.00000017354523
 30
0.0
 11
230.0000004500311
 21
40.00000017354523
 31
0.0
  0
LINE
  5
1098
330
106E
100
AcDbEntity
  8
0
100
AcDbLine
 10
323.0000004500312
 20
50.00000017354523
 30
0.0
 11
230.0000004500311
 21
50.00000017354523
 31
0.0
  0
LINE
  5
1099
330
106E
100
AcDbEntity
  8
0
100
AcDbLine
 10
323.0000004500312
 20
60.00000017354523
 30
0.0
 11
230.0000004500311
 21
60.00000017354524
 31
0.0
  0
LWPOLYLINE
  5
109A
330
106E
100
AcDbEntity
  8
0
100
AcDbPolyline
 90
        4
 70
     1
 43
0.0
 10
230.0000004500311
 20
70.00000017354523
 10
410.0000004500311
 20
70.00000017354523
 10
410.0000004500311
 20
10.00000017354523
 10
230.0000004500311
 20
10.00000017354523
  0
LINE
  5
109B
330
106E
100
AcDbEntity
  8
0
100
AcDbLine
 10
230.0000004500311
 20
10.00000017354523
 30
0.0
 11
410.0000004500311
 21
10.00000017354523
 31
0.0
  0
LINE
  5
109C
330
106E
100
AcDbEntity
  8
0
100
AcDbLine
 10
230.0000004500311
 20
24.00000017354523
 30
0.0
 11
410.0000004500311
 21
24.00000017354523
 31
0.0
  0
TEXT
  5
109D
330
106E
100
AcDbEntity
  8
3
100
AcDbText
 10
280.1699846115502
 20
18.26744110702452
 30
0.0
 40
3.0
  1
's-Gravenzande
 72
     1
 11
297.5985560401217
 21
19.76744110702452
 31
0.0
100
AcDbText
 73
     2
  0
LINE
  5
109E
330
106E
100
AcDbEntity
  8
0
100
AcDbLine
 10
0.0000004500311661
 20
0.0000001735452315
 30
0.0
 11
0.0000004500311661
 21
10.00000017354523
 31
0.0
  0
LINE
  5
109F
330
106E
100
AcDbEntity
  8
0
100
AcDbLine
 10
0.0000004500311661
 20
0.0000001735452315
 30
0.0
 11
10.00000045003116
 21
0.0000001735452315
 31
0.0
  0
TEXT
  5
10A0
330
106E
100
AcDbEntity
  8
3
100
AcDbText
 10
232.0000004500311
 20
46.50000017354523
 30
0.0
 40
2.0
  1
Semifinished product:
100
AcDbText
  0
LWPOLYLINE
  5
10A1
330
106E
100
AcDbEntity
  8
0
 62
     9
100
AcDbPolyline
 90
       14
 70
     0
 43
0.0
 10
250.7971116302122
 20
13.5674411070245
 10
252.3971116302121
 20
13.5674411070245
 10
252.9637782968788
 20
16.96744110702451
 42
-0.2287936615377291
 10
253.5768639787384
 20
17.36744110702452
 10
253.9775720519285
 20
17.36744110702452
 42
-0.46345457785235
 10
254.3721296214615
 20
16.90168151210236
 10
253.8164228872818
 20
13.5674411070245
 10
255.6412516463712
 20
13.5674411070245
 10
256.3145638958796
 20
17.60731460407498
 42
0.4425157218824108
 10
255.0017592956283
 20
18.96744110702451
 10
254.3889702387241
 20
18.96744110702451
 42
0.2148078971487724
 10
252.8971116302122
 20
18.36744110702452
 10
252.9971116302122
 20
18.96744110702451
 10
251.6971116302122
 20
18.96744110702451
  0
LINE
  5
10A2
330
106E
100
AcDbEntity
  8
0
 62
     9
370
     0
100
AcDbLine
 10
255.6412516463712
 20
13.5674411070245
 30
0.0
 11
256.3145638958796
 21
17.60731460407493
 31
0.0
  0
ARC
  5
10A3
330
106E
100
AcDbEntity
  8
0
 62
     9
370
     0
100
AcDbCircle
 10
255.0402251847748
 20
17.69094086146359
 30
0.0
 40
1.277079677054224
100
AcDbArc
 50
356.2454476813246
 51
91.72602111155631
  0
HATCH
  5
10A4
330
106E
100
AcDbEntity
  8
0
 62
     9
100
AcDbHatch
 10
0.0
 20
0.0
 30
0.0
210
0.0
220
0.0
230
1.0
  2
SOLID
 70
     1
 71
     0
 91
       12
 92
        7
 72
     1
 73
     1
 93
       11
 10
238.7971116302121
 20
16.5674411070245
 42
0.3045868498596067
 10
240.464231832751
 20
19.37016232225811
 42
0.0
 10
240.464231832751
 20
19.56744110702451
 42
0.4142135623730958
 10
239.264231832751
 20
20.7674411070245
 42
0.0
 10
235.1971116302121
 20
20.76744110702453
 42
0.0
 10
233.9971116302122
 20
13.5674411070245
 42
0.0
 10
235.9971116302122
 20
13.5674411070245
 42
0.0
 10
236.4637782968789
 20
16.36744110702452
 42
0.0
 10
236.8637782968788
 20
16.36744110702452
 42
0.0
 10
237.7971116302122
 20
13.5674411070245
 42
0.0
 10
239.7971116302122
 20
13.5674411070245
 42
0.0
 97
        0
 92
       22
 72
     1
 73
     1
 93
        6
 10
237.7221687105157
 20
17.96744110702451
 42
0.0
 10
236.7304449635455
 20
17.96744110702451
 42
0.0
 10
236.9637782968789
 20
19.36744110702452
 42
0.0
 10
237.755502043849
 20
19.36744110702452
 42
-0.4634545778523126
 10
238.3473383981483
 20
18.66880171464137
 42
0.0
 10
238.314005064815
 20
18.46880171464134
 42
-0.3666293647016125
 97
        0
 92
        7
 72
     1
 73
     1
 93
       11
 10
241.5971116302121
 20
15.76744110702452
 42
0.0
 10
244.9610195458689
 20
15.76744110702452
 42
0.3666293647014867
 10
245.1582983306352
 20
15.93456130956334
 42
0.0
 10
245.2137782968789
 20
16.26744110702454
 42
0.3833114294885806
 10
243.0554449635455
 20
18.96744110702451
 42
0.0
 10
242.5971116302121
 20
18.96744110702451
 42
0.962962962962962
 10
242.5971116302121
 20
13.5674411070245
 42
0.0
 10
242.9971116302122
 20
13.5674411070245
 42
0.2912609913578226
 10
244.9971116302122
 20
14.96744110702451
 42
0.0
 10
243.1971116302122
 20
14.96744110702451
 42
-0.7766337375662249
 10
241.5971116302121
 20
15.46456910017754
 42
0.0
 97
        0
 92
       22
 72
     1
 73
     1
 93
        2
 10
241.7971116302122
 20
16.76744110702452
 42
-0.8985251634212453
 10
243.5971116302121
 20
16.76744110702452
 42
0.0
 97
        0
 92
        7
 72
     0
 73
     1
 93
       13
 10
251.6971116302122
 20
18.96744110702451
 10
249.2971116302122
 20
18.96744110702451
 10
248.1110651185843
 20
17.71162715353614
 10
247.2971116302121
 20
18.96744110702451
 10
245.097111630212
 20
18.96744110702451
 10
246.8064139557935
 20
16.33023180469894
 10
244.1971116302122
 20
13.5674411070245
 10
246.5971116302121
 20
13.5674411070245
 10
247.78315814184
 20
14.8232550605129
 10
248.5971116302121
 20
13.5674411070245
 10
250.7971116302122
 20
13.5674411070245
 10
250.6182705718456
 20
13.84336731136156
 10
249.0878093046308
 20
16.20465040935012
 97
        0
 92
        7
 72
     1
 73
     1
 93
       16
 10
252.9637782968788
 20
16.96744110702453
 42
-0.2287936615377264
 10
253.5768639787384
 20
17.36744110702452
 42
0.0
 10
253.9775720519286
 20
17.36744110702452
 42
-0.4634545778523602
 10
254.3721296214615
 20
16.90168151210232
 42
0.0
 10
253.8164228872818
 20
13.5674411070245
 42
0.0
 10
255.6412516463711
 20
13.5674411070245
 42
0.0
 10
256.3145638958796
 20
17.60731460407486
 42
0.4425157218824506
 10
255.0017592956283
 20
18.96744110702451
 42
0.0
 10
254.3889702387241
 20
18.96744110702451
 42
0.2148078971487695
 10
252.8971116302122
 20
18.36744110702453
 42
0.0
 10
252.9971116302122
 20
18.96744110702451
 42
0.0
 10
251.6971116302122
 20
18.96744110702451
 42
0.0
 10
251.4241052798892
 20
18.67837555962372
 42
0.0
 10
250.6182705718456
 20
13.8433673113615
 42
0.0
 10
250.7971116302122
 20
13.5674411070245
 42
0.0
 10
252.3971116302121
 20
13.5674411070245
 42
0.0
 97
        0
 92
        7
 72
     1
 73
     1
 93
       12
 10
265.4044514888378
 20
17.36744110702449
 42
0.0
 10
265.8051595620278
 20
17.36744110702449
 42
-0.0898531725174386
 10
265.9454888670491
 20
17.34201778295647
 42
-0.0793424769878105
 10
266.5855381249613
 20
18.13769403454512
 42
0.0
 10
266.7238293037078
 20
18.96744110702451
 42
0.0
 10
266.1110402468036
 20
18.96744110702451
 42
0.2148078971487764
 10
264.6191816382916
 20
18.36744110702449
 42
0.0
 10
264.7191816382918
 20
18.96744110702451
 42
0.0
 10
263.0971116302121
 20
18.96744110702451
 42
0.0
 10
262.1971116302121
 20
13.5674411070245
 42
0.0
 10
264.2246991403115
 20
13.5674411070245
 42
0.0
 10
264.7913658069782
 20
16.96744110702453
 42
-0.2287936615377268
 97
        0
 92
        7
 72
     1
 73
     1
 93
        9
 10
272.1971116302121
 20
20.76744110702453
 42
0.0
 10
270.3722828711227
 20
20.76744110702453
 42
0.0
 10
269.9389495377893
 20
18.1674411070245
 42
0.2331806805711706
 10
268.5565401645852
 20
18.96744110702451
 42
0.2526349863601891
 10
265.9454888670488
 20
17.34201778295592
 42
0.5407746774694586
 10
267.8217939167159
 20
13.57628675069761
 42
0.1739556898927926
 10
269.4417082887993
 20
13.96744110702451
 42
0.0
 10
269.3750416221326
 20
13.5674411070245
 42
0.0
 10
270.9971116302122
 20
13.5674411070245
 42
0.0
 97
        0
 92
        5
 93
        2
 72
     3
 10
259.4471116302121
 20
16.26744110702452
 11
-2.761902986729996
 21
0.4603171644549941
 40
0.9775868352265018
 50
90.00000000000012
 51
270.0000000000033
 73
     1
 72
     3
 10
259.4471116302121
 20
16.26744110702452
 11
-2.95918177149643
 21
0.4931969619160654
 40
0.9124143795447333
 50
-89.99999999999992
 51
90.00000000000012
 73
     1
 97
        0
 92
       20
 93
        1
 72
     3
 10
259.4471116302121
 20
16.26744110702452
 11
0.2301585822274944
 21
1.380951493365002
 40
0.7142857142857153
 50
0.0
 51
360.0
 73
     1
 97
        0
 92
       20
 93
        1
 72
     3
 10
268.5001573273946
 20
16.22572662798402
 11
0.2137186834969643
 21
1.282312100981784
 40
0.8461538461538408
 50
0.0
 51
360.0
 73
     1
 97
        0
 92
      137
 93
        4
 72
     1
 10
279.2771274686931
 20
17.37458396416738
 11
315.9199846115503
 21
17.37458396416738
 72
     1
 10
315.9199846115503
 20
17.37458396416738
 11
315.9199846115503
 21
22.73172682131024
 72
     1
 10
315.9199846115503
 20
22.73172682131023
 11
279.2771274686931
 21
22.73172682131023
 72
     1
 10
279.2771274686931
 20
22.73172682131023
 11
279.2771274686931
 21
17.37458396416738
 97
        0
 75
     0
 76
     1
 47
0.0593645620508845
 98
       17
 10
238.201372531023
 20
16.11622187493742
 10
238.201372531023
 20
16.11622187493742
 10
240.8377396081219
 20
15.61748340493386
 10
240.8377396081219
 20
15.61748340493386
 10
247.3217775205667
 20
16.54371127404442
 10
251.6682198269716
 20
16.61495950722894
 10
257.795992223585
 20
16.75745597359798
 10
257.795992223585
 20
16.75745597359798
 10
257.795992223585
 20
16.75745597359798
 10
257.795992223585
 20
16.75745597359798
 10
257.795992223585
 20
16.75745597359798
 10
263.6644671355214
 20
17.28555624502792
 10
267.2032547466435
 20
16.51887144135128
 10
270.8380222900435
 20
17.63443811207662
 10
261.0174293438733
 20
16.75549489008483
 10
259.1684904399501
 20
16.39179389986259
 10
268.3222534968968
 20
16.48271914741815
  0
LWPOLYLINE
  5
10A5
330
106E
100
AcDbEntity
  8
0
 62
     9
100
AcDbPolyline
 90
       11
 70
     1
 43
0.0
 10
239.7971116302122
 20
13.5674411070245
 10
238.7971116302121
 20
16.5674411070245
 42
0.3045868498596019
 10
240.464231832751
 20
19.37016232225807
 10
240.464231832751
 20
19.56744110702446
 42
0.414213562373094
 10
239.2642318327511
 20
20.7674411070245
 10
235.1971116302121
 20
20.76744110702453
 10
233.9971116302122
 20
13.5674411070245
 10
235.9971116302122
 20
13.5674411070245
 10
236.4637782968789
 20
16.36744110702452
 10
236.8637782968788
 20
16.36744110702452
 10
237.7971116302122
 20
13.5674411070245
  0
LWPOLYLINE
  5
10A6
330
106E
100
AcDbEntity
  8
0
 62
     9
100
AcDbPolyline
 90
        6
 70
     1
 43
0.0
 10
237.755502043849
 20
19.36744110702452
 10
236.9637782968789
 20
19.36744110702452
 10
236.7304449635455
 20
17.96744110702451
 10
237.7221687105157
 20
17.96744110702451
 42
0.3666293647015968
 10
238.314005064815
 20
18.4688017146413
 10
238.3473383981483
 20
18.66880171464129
 42
0.4634545778523493
  0
LWPOLYLINE
  5
10A7
330
106E
100
AcDbEntity
  8
0
 62
     9
100
AcDbPolyline
 90
       12
 70
     1
 43
0.0
 10
251.6971116302122
 20
18.96744110702451
 10
249.2971116302121
 20
18.96744110702451
 10
248.1110651185843
 20
17.71162715353614
 10
247.2971116302121
 20
18.96744110702451
 10
245.0971116302121
 20
18.96744110702451
 10
246.8064139557935
 20
16.33023180469894
 10
244.1971116302121
 20
13.5674411070245
 10
246.5971116302121
 20
13.5674411070245
 10
247.78315814184
 20
14.82325506051288
 10
248.5971116302121
 20
13.5674411070245
 10
250.7971116302122
 20
13.5674411070245
 10
249.0878093046308
 20
16.20465040935011
  0
LWPOLYLINE
  5
10A8
330
106E
100
AcDbEntity
  8
0
 62
     9
100
AcDbPolyline
 90
       11
 70
     1
 43
0.0
 10
245.1582983306352
 20
15.93456130956343
 10
245.2137782968789
 20
16.26744110702452
 42
0.3833114294885822
 10
243.0554449635455
 20
18.96744110702451
 10
242.5971116302121
 20
18.96744110702451
 42
0.9629629629629603
 10
242.5971116302121
 20
13.5674411070245
 10
242.9971116302122
 20
13.5674411070245
 42
0.2912609913578292
 10
244.9971116302122
 20
14.96744110702451
 10
243.1971116302122
 20
14.96744110702451
 42
-0.7766337375662489
 10
241.5971116302121
 20
15.46456910017758
 10
241.5971116302121
 20
15.76744110702452
 10
244.9610195458689
 20
15.76744110702452
 42
0.3666293647015975
  0
LWPOLYLINE
  5
10A9
330
106E
100
AcDbEntity
  8
0
 62
     9
100
AcDbPolyline
 90
        2
 70
     1
 43
0.0
 10
243.5971116302121
 20
16.76744110702452
 42
0.8985251634212449
 10
241.7971116302122
 20
16.76744110702452
  0
LINE
  5
10AA
330
106E
100
AcDbEntity
  8
0
 62
     9
100
AcDbLine
 10
251.4241052798892
 20
18.67837555962376
 30
0.0
 11
250.6182705718456
 21
13.84336731136156
 31
0.0
  0
LINE
  5
10AB
330
106E
100
AcDbEntity
  8
0
 62
     9
370
     0
100
AcDbLine
 10
251.4241052798892
 20
18.67837555962374
 30
0.0
 11
250.6182705718456
 21
13.84336731136158
 31
0.0
  0
LINE
  5
10AC
330
106E
100
AcDbEntity
  8
0
 62
     9
370
     0
100
AcDbLine
 10
252.3971116302121
 20
13.5674411070245
 30
0.0
 11
252.9637782968788
 21
16.96744110702453
 31
0.0
  0
LINE
  5
10AD
330
106E
100
AcDbEntity
  8
0
 62
     9
370
     0
100
AcDbLine
 10
254.3721296214615
 20
16.90168151210232
 30
0.0
 11
253.8164228872818
 21
13.5674411070245
 31
0.0
  0
LINE
  5
10AE
330
106E
100
AcDbEntity
  8
0
 62
     9
370
     0
100
AcDbLine
 10
250.7971116302121
 20
13.5674411070245
 30
0.0
 11
252.3971116302121
 21
13.5674411070245
 31
0.0
  0
LINE
  5
10AF
330
106E
100
AcDbEntity
  8
0
 62
     9
100
AcDbLine
 10
250.6182705718456
 20
13.84336731136156
 30
0.0
 11
250.7971116302122
 21
13.5674411070245
 31
0.0
  0
LINE
  5
10B0
330
106E
100
AcDbEntity
  8
0
 62
     9
370
     0
100
AcDbLine
 10
253.8164228872818
 20
13.5674411070245
 30
0.0
 11
255.6412516463712
 21
13.5674411070245
 31
0.0
  0
LINE
  5
10B1
330
106E
100
AcDbEntity
  8
0
 62
     9
370
     0
100
AcDbLine
 10
252.9971116302122
 20
18.96744110702451
 30
0.0
 11
251.6971116302122
 21
18.96744110702451
 31
0.0
  0
LINE
  5
10B2
330
106E
100
AcDbEntity
  8
0
 62
     9
370
     0
100
AcDbLine
 10
251.6971116302122
 20
18.96744110702451
 30
0.0
 11
251.4241052798892
 21
18.67837555962374
 31
0.0
  0
LINE
  5
10B3
330
106E
100
AcDbEntity
  8
0
 62
     9
370
     0
100
AcDbLine
 10
255.0017592956282
 20
18.96744110702451
 30
0.0
 11
254.3889702387242
 21
18.96744110702451
 31
0.0
  0
ARC
  5
10B4
330
106E
100
AcDbEntity
  8
0
 62
     9
370
     0
100
AcDbCircle
 10
254.3091180992163
 20
17.0112861867531
 30
0.0
 40
1.957784062731646
100
AcDbArc
 50
87.66242858508997
 51
136.1558660942529
  0
LINE
  5
10B5
330
106E
100
AcDbEntity
  8
0
 62
     9
370
     0
100
AcDbLine
 10
252.8971116302122
 20
18.36744110702454
 30
0.0
 11
252.9971116302122
 21
18.96744110702451
 31
0.0
  0
ARC
  5
10B6
330
106E
100
AcDbEntity
  8
0
 62
     9
370
     0
100
AcDbCircle
 10
253.6845168170381
 20
16.53259750596525
 30
0.0
 40
0.8417558861235047
100
AcDbArc
 50
97.34772697964107
 51
148.8961341035837
  0
LINE
  5
10B7
330
106E
100
AcDbEntity
  8
0
 62
     9
370
     0
100
AcDbLine
 10
253.5768639787384
 20
17.36744110702452
 30
0.0
 11
253.9775720519286
 21
17.36744110702452
 31
0.0
  0
ARC
  5
10B8
330
106E
100
AcDbEntity
  8
0
 62
     9
370
     0
100
AcDbCircle
 10
253.9775720519286
 20
16.96744110702448
 30
0.0
 40
0.4000000000000422
100
AcDbArc
 50
350.5376777919737
 51
90.0
  0
TEXT
  5
10B9
330
106E
100
AcDbEntity
  8
3
100
AcDbText
 10
232.0000004500311
 20
36.50000017354523
 30
0.0
 40
2.0
  1
Name:
100
AcDbText
  0
LWPOLYLINE
  5
10BA
330
106E
100
AcDbEntity
  8
0
 62
     9
100
AcDbPolyline
 90
       12
 70
     0
 43
0.0
 10
266.5855381249613
 20
18.13769403454503
 10
266.7238293037078
 20
18.96744110702451
 10
266.1110402468036
 20
18.96744110702451
 42
0.2148078971487726
 10
264.6191816382916
 20
18.36744110702449
 10
264.7191816382918
 20
18.96744110702451
 10
263.0971116302121
 20
18.96744110702451
 10
262.1971116302121
 20
13.5674411070245
 10
264.2246991403115
 20
13.5674411070245
 10
264.7913658069782
 20
16.96744110702451
 42
-0.2287936615377289
 10
265.4044514888378
 20
17.36744110702449
 10
265.8051595620279
 20
17.36744110702449
 42
-0.0898531725173674
 10
265.9454888670491
 20
17.34201778295647
  0
ELLIPSE
  5
10BB
330
106E
100
AcDbEntity
  8
0
 62
     9
100
AcDbEllipse
 10
259.4471116302121
 20
16.26744110702452
 30
0.0
 11
-2.95918177149643
 21
0.4931969619160654
 31
0.0
210
0.0
220
0.0
230
1.0
 40
0.9124143795447333
 41
-1.570796326794895
 42
1.570796326794898
  0
ELLIPSE
  5
10BC
330
106E
100
AcDbEntity
  8
0
 62
     9
100
AcDbEllipse
 10
259.4471116302121
 20
16.26744110702452
 30
0.0
 11
-2.761902986729996
 21
0.4603171644549941
 31
0.0
210
0.0
220
0.0
230
1.0
 40
0.9775868352265018
 41
1.570796326794898
 42
4.712388980384746
  0
ELLIPSE
  5
10BD
330
106E
100
AcDbEntity
  8
0
 62
     9
100
AcDbEllipse
 10
259.4471116302121
 20
16.26744110702452
 30
0.0
 11
0.2301585822274944
 21
1.380951493365002
 31
0.0
210
0.0
220
0.0
230
1.0
 40
0.7142857142857153
 41
0.0000000000000057
 42
6.283185307179591
  0
ELLIPSE
  5
10BE
330
106E
100
AcDbEntity
  8
0
 62
     9
100
AcDbEllipse
 10
259.4471116302121
 20
16.26744110702452
 30
0.0
 11
-2.761902986729996
 21
0.4603171644549941
 31
0.0
210
0.0
220
0.0
230
1.0
 40
0.9775868352265018
 41
1.570796326794898
 42
4.712388980384746
  0
ELLIPSE
  5
10BF
330
106E
100
AcDbEntity
  8
0
 62
     9
100
AcDbEllipse
 10
259.4471116302121
 20
16.26744110702452
 30
0.0
 11
-2.95918177149643
 21
0.4931969619160654
 31
0.0
210
0.0
220
0.0
230
1.0
 40
0.9124143795447333
 41
-1.570796326794895
 42
1.570796326794898
  0
LWPOLYLINE
  5
10C0
330
106E
100
AcDbEntity
  8
0
 62
     9
100
AcDbPolyline
 90
        9
 70
     1
 43
0.0
 10
268.5565401645852
 20
18.96744110702451
 42
-0.2331806805711746
 10
269.9389495377893
 20
18.1674411070245
 10
270.3722828711227
 20
20.76744110702453
 10
272.1971116302121
 20
20.76744110702453
 10
270.9971116302122
 20
13.5674411070245
 10
269.3750416221326
 20
13.5674411070245
 10
269.4417082887993
 20
13.96744110702451
 42
-0.1739556898927748
 10
267.821793916716
 20
13.57628675069759
 42
-0.5407746774695647
 10
265.9454888670491
 20
17.34201778295647
 42
-0.2526349863601347
  0
ELLIPSE
  5
10C1
330
106E
100
AcDbEntity
  8
0
 62
     9
100
AcDbEllipse
 10
268.5001573273946
 20
16.22572662798402
 30
0.0
 11
0.2137186834969643
 21
1.282312100981784
 31
0.0
210
0.0
220
0.0
230
1.0
 40
0.8461538461538408
 41
0.0000000000000129
 42
6.283185307179599
  0
TEXT
  5
10C2
330
106E
100
AcDbEntity
  8
3
100
AcDbText
 10
232.0000004500311
 20
66.50000017354523
 30
0.0
 40
2.0
  1
Material:
100
AcDbText
  0
TEXT
  5
10C3
330
106E
100
AcDbEntity
  8
3
100
AcDbText
 10
232.0000004500311
 20
56.50000017354525
 30
0.0
 40
2.0
  1
Treatment:
100
AcDbText
  0
LINE
  5
10C4
330
106E
100
AcDbEntity
  8
0
100
AcDbLine
 10
385.0000004500312
 20
70.00000017354523
 30
0.0
 11
385.0000004500312
 21
35.00000017354523
 31
0.0
  0
LINE
  5
10C5
330
106E
100
AcDbEntity
  8
0
100
AcDbLine
 10
300.0000004500312
 20
40.00000017354523
 30
0.0
 11
300.0000004500312
 21
50.00000017354523
 31
0.0
  0
LINE
  5
10C6
330
106E
100
AcDbEntity
  8
0
100
AcDbLine
 10
323.0000004500312
 20
35.00000017354529
 30
0.0
 11
323.0000004500312
 21
65.00000017354529
 31
0.0
  0
LINE
  5
10C7
330
106E
100
AcDbEntity
  8
0
100
AcDbLine
 10
330.0000004500312
 20
35.00000017354523
 30
0.0
 11
330.0000004500312
 21
70.00000017354523
 31
0.0
  0
LINE
  5
10C8
330
106E
100
AcDbEntity
  8
0
100
AcDbLine
 10
323.0000004500312
 20
35.00000017354529
 30
0.0
 11
323.0000004500312
 21
65.00000017354529
 31
0.0
  0
LINE
  5
10C9
330
106E
100
AcDbEntity
  8
0
100
AcDbLine
 10
323.0000004500312
 20
35.00000017354523
 30
0.0
 11
323.0000004500312
 21
70.00000017354523
 31
0.0
  0
LINE
  5
10CA
330
106E
100
AcDbEntity
  8
0
100
AcDbLine
 10
399.0000004500312
 20
70.00000017354523
 30
0.0
 11
399.0000004500312
 21
35.00000017354523
 31
0.0
  0
LINE
  5
10CB
330
106E
100
AcDbEntity
  8
0
100
AcDbLine
 10
323.0000004500312
 20
45.00000017354523
 30
0.0
 11
410.0000004500311
 21
45.00000017354523
 31
0.0
  0
LINE
  5
10CC
330
106E
100
AcDbEntity
  8
0
100
AcDbLine
 10
323.0000004500312
 20
35.00000017354523
 30
0.0
 11
410.0000004500311
 21
35.00000017354523
 31
0.0
  0
LINE
  5
10CD
330
106E
100
AcDbEntity
  8
0
100
AcDbLine
 10
323.0000004500312
 20
40.00000017354523
 30
0.0
 11
410.0000004500311
 21
40.00000017354523
 31
0.0
  0
LINE
  5
10CE
330
106E
100
AcDbEntity
  8
0
100
AcDbLine
 10
323.0000004500312
 20
50.00000017354523
 30
0.0
 11
410.0000004500311
 21
50.00000017354523
 31
0.0
  0
LINE
  5
10CF
330
106E
100
AcDbEntity
  8
0
100
AcDbLine
 10
323.0000004500312
 20
55.00000017354523
 30
0.0
 11
410.0000004500311
 21
55.00000017354523
 31
0.0
  0
LINE
  5
10D0
330
106E
100
AcDbEntity
  8
0
100
AcDbLine
 10
323.0000004500312
 20
35.00000017354535
 30
0.0
 11
410.0000004500311
 21
35.00000017354535
 31
0.0
  0
TEXT
  5
10D1
330
106E
100
AcDbEntity
  8
3
100
AcDbText
 10
353.309524259555
 20
36.83333350687862
 30
0.0
 40
2.0
  1
Change
 72
     4
 11
358.5000004500312
 21
37.50000017354529
 31
0.0
100
AcDbText
  0
LINE
  5
10D2
330
106E
100
AcDbEntity
  8
0
100
AcDbLine
 10
323.0000004500312
 20
29.50000017354529
 30
0.0
 11
410.0000004500311
 21
29.50000017354529
 31
0.0
  0
TEXT
  5
10D3
330
106E
100
AcDbEntity
  8
3
100
AcDbText
 10
289.9556988972645
 20
13.00000017354523
 30
0.0
 40
3.0
  1
Holland
 72
     1
 11
297.5985560401217
 21
14.50000017354523
 31
0.0
100
AcDbText
 73
     2
  0
LINE
  5
10D4
330
106E
100
AcDbEntity
  8
0
100
AcDbLine
 10
323.0000004500312
 20
35.00000017354535
 30
0.0
 11
323.0000004500312
 21
24.00000017354523
 31
0.0
  0
TEXT
  5
10D5
330
106E
100
AcDbEntity
  8
3
100
AcDbText
 10
325.9523814024121
 20
31.25000017354526
 30
0.0
 40
2.0
  1
Scale:
 72
     1
 11
330.0000004500312
 21
32.25000017354526
 31
0.0
100
AcDbText
 73
     2
  0
LINE
  5
10D6
330
106E
100
AcDbEntity
  8
0
100
AcDbLine
 10
337.0000004500312
 20
35.00000017354523
 30
0.0
 11
337.0000004500312
 21
24.00000017354523
 31
0.0
  0
TEXT
  5
10D7
330
106E
100
AcDbEntity
  8
3
100
AcDbText
 10
326.0000004500312
 20
20.00000017354517
 30
0.0
 40
2.0
  1
Drawing number
100
AcDbText
  0
LINE
  5
10D8
330
106E
100
AcDbEntity
  8
0
100
AcDbLine
 10
323.0000004500312
 20
10.00000017354523
 30
0.0
 11
323.0000004500312
 21
24.00000017354523
 31
0.0
  0
TEXT
  5
10D9
330
106E
100
AcDbEntity
  8
3
100
AcDbText
 10
326.0952385452692
 20
25.75000017354526
 30
0.0
 40
2.0
  1
Units:
 72
     1
 11
330.0000004500312
 21
26.75000017354526
 31
0.0
100
AcDbText
 73
     2
  0
TEXT
  5
10DA
330
106E
100
AcDbEntity
  8
3
100
AcDbText
 10
323.7857147357455
 20
36.50000017354529
 30
0.0
 40
2.0
  1
Rev.
 72
     1
 11
326.5000004500312
 21
37.50000017354529
 31
0.0
100
AcDbText
 73
     2
  0
LINE
  5
10DB
330
106E
100
AcDbEntity
  8
0
100
AcDbLine
 10
392.5000004500312
 20
24.00000017354518
 30
0.0
 11
386.0000004500312
 21
24.00000017354518
 31
0.0
  0
LINE
  5
10DC
330
106E
100
AcDbEntity
  8
0
100
AcDbLine
 10
385.0000004500312
 20
35.00000017354535
 30
0.0
 11
385.0000004500312
 21
24.00000017354523
 31
0.0
  0
TEXT
  5
10DD
330
106E
100
AcDbEntity
  8
3
100
AcDbText
 10
373.9047623547931
 20
31.25000017354526
 30
0.0
 40
2.0
  1
Drawn
 72
     1
 11
378.0000004500312
 21
32.25000017354526
 31
0.0
100
AcDbText
 73
     2
  0
LINE
  5
10DE
330
106E
100
AcDbEntity
  8
0
100
AcDbLine
 10
371.0000004500312
 20
35.00000017354535
 30
0.0
 11
371.0000004500312
 21
24.00000017354523
 31
0.0
  0
LINE
  5
10DF
330
106E
100
AcDbEntity
  8
0
100
AcDbLine
 10
385.0000004500312
 20
10.00000017354523
 30
0.0
 11
385.0000004500312
 21
24.00000017354518
 31
0.0
  0
TEXT
  5
10E0
330
106E
100
AcDbEntity
  8
3
100
AcDbText
 10
372.1428575928883
 20
25.75000017354526
 30
0.0
 40
2.0
  1
Checked
 72
     1
 11
378.0000004500312
 21
26.75000017354526
 31
0.0
100
AcDbText
 73
     2
  0
LINE
  5
10E1
330
106E
100
AcDbEntity
  8
0
100
AcDbLine
 10
399.0000004500311
 20
35.00000017354535
 30
0.0
 11
399.0000004500311
 21
24.00000017354523
 31
0.0
  0
TEXT
  5
10E2
330
106E
100
AcDbEntity
  8
3
100
AcDbText
 10
394.7857147357455
 20
20.00000017354523
 30
0.0
 40
2.0
  1
Size
 72
     1
 11
397.5000004500312
 21
20.00000017354523
 31
0.0
100
AcDbText
  0
TEXT
  5
10E3
330
106E
100
AcDbEntity
  8
3
100
AcDbText
 10
393.2142861643169
 20
12.4989256031196
 30
0.0
 40
5.0
  1
A3
 72
     1
 11
397.5000004500312
 21
14.9989256031196
 31
0.0
100
AcDbText
 73
     2
  0
TEXT
  5
10E4
330
106E
100
AcDbEntity
  8
3
100
AcDbText
 10
399.9761909262216
 20
36.50000017354523
 30
0.0
 40
2.0
  1
Initials
 72
     1
 11
404.5000004500312
 21
37.50000017354523
 31
0.0
100
AcDbText
 73
     2
  0
TEXT
  5
10E5
330
106E
100
AcDbEntity
  8
3
100
AcDbText
 10
388.857143307174
 20
36.50000017354523
 30
0.0
 40
2.0
  1
Date
 72
     1
 11
392.0000004500312
 21
37.50000017354523
 31
0.0
100
AcDbText
 73
     2
  0
LINE
  5
10E6
330
106E
100
AcDbEntity
  8
0
100
AcDbLine
 10
323.0000004500312
 20
65.00000017354523
 30
0.0
 11
410.0000004500311
 21
65.00000017354523
 31
0.0
  0
LINE
  5
10E7
330
106E
100
AcDbEntity
  8
0
100
AcDbLine
 10
323.0000004500312
 20
60.00000017354523
 30
0.0
 11
410.0000004500311
 21
60.00000017354523
 31
0.0
  0
LINE
  5
10E8
330
106E
100
AcDbEntity
  8
0
100
AcDbLine
 10
0.0000004500311661
 20
297.0000001735452
 30
0.0
 11
0.0000004500311661
 21
287.0000001735452
 31
0.0
  0
LINE
  5
10E9
330
106E
100
AcDbEntity
  8
0
100
AcDbLine
 10
0.0000004500311661
 20
297.0000001735452
 30
0.0
 11
10.00000045003116
 21
297.0000001735452
 31
0.0
  0
LINE
  5
10EA
330
106E
100
AcDbEntity
  8
0
100
AcDbLine
 10
420.0000004500395
 20
0.0000001735452315
 30
0.0
 11
420.0000004500395
 21
10.00000017354523
 31
0.0
  0
LINE
  5
10EB
330
106E
100
AcDbEntity
  8
0
100
AcDbLine
 10
420.0000004500395
 20
297.0000001735452
 30
0.0
 11
420.0000004500395
 21
287.0000001735452
 31
0.0
  0
SOLID
  5
10EC
330
106E
100
AcDbEntity
  8
3
100
AcDbTrace
 10
-125.5000004500312
 20
288.0000001735453
 30
0.0
 11
-125.0000004500312
 21
291.0000001735454
 31
0.0
 12
-124.5000004500312
 22
288.0000001735453
 32
0.0
 13
-124.5000004500312
 23
288.0000001735453
 33
0.0
210
0.0
220
0.0
230
-1.0
1001
ACAD
1000
DSTYLE
1002
{
1070
   176
1070
   256
1070
    41
1040
3.0
1070
   147
1040
1.0
1070
    77
1070
     1
1002
}
  0
SOLID
  5
10ED
330
106E
100
AcDbEntity
  8
3
100
AcDbTrace
 10
-229.5000004500312
 20
291.0000001735453
 30
0.0
 11
-230.0000004500312
 21
288.0000001735453
 31
0.0
 12
-230.5000004500312
 22
291.0000001735453
 32
0.0
 13
-230.5000004500312
 23
291.0000001735453
 33
0.0
210
0.0
220
0.0
230
-1.0
1001
ACAD
1000
DSTYLE
1002
{
1070
   176
1070
   256
1070
    41
1040
3.0
1070
   147
1040
1.0
1070
    77
1070
     1
1002
}
  0
SOLID
  5
10EE
330
106E
100
AcDbEntity
  8
3
100
AcDbTrace
 10
-19.50000045003125
 20
291.0000001735454
 30
0.0
 11
-20.00000045003125
 21
288.0000001735453
 31
0.0
 12
-20.50000045003125
 22
291.0000001735454
 32
0.0
 13
-20.50000045003125
 23
291.0000001735454
 33
0.0
210
0.0
220
0.0
230
-1.0
1001
ACAD
1000
DSTYLE
1002
{
1070
   176
1070
   256
1070
    41
1040
3.0
1070
   147
1040
1.0
1070
    77
1070
     1
1002
}
  0
SOLID
  5
10EF
330
106E
100
AcDbEntity
  8
3
100
AcDbTrace
 10
19.50000045003119
 20
6.000000173545256
 30
0.0
 11
20.00000045003119
 21
9.000000173545256
 31
0.0
 12
20.5000004500312
 22
6.000000173545256
 32
0.0
 13
20.5000004500312
 23
6.000000173545256
 33
0.0
1001
ACAD
1000
DSTYLE
1002
{
1070
   176
1070
   256
1070
    41
1040
3.0
1070
   147
1040
1.0
1070
    77
1070
     1
1002
}
  0
SOLID
  5
10F0
330
106E
100
AcDbEntity
  8
3
100
AcDbTrace
 10
229.5000004500312
 20
6.000000173545231
 30
0.0
 11
230.0000004500311
 21
9.000000173545231
 31
0.0
 12
230.5000004500312
 22
6.000000173545231
 32
0.0
 13
230.5000004500312
 23
6.000000173545231
 33
0.0
1001
ACAD
1000
DSTYLE
1002
{
1070
   176
1070
   256
1070
    41
1040
3.0
1070
   147
1040
1.0
1070
    77
1070
     1
1002
}
  0
SOLID
  5
10F1
330
106E
100
AcDbEntity
  8
3
100
AcDbTrace
 10
125.5000004500312
 20
9.000000173545231
 30
0.0
 11
125.0000004500311
 21
6.000000173545232
 31
0.0
 12
124.5000004500312
 22
9.000000173545231
 32
0.0
 13
124.5000004500312
 23
9.000000173545231
 33
0.0
1001
ACAD
1000
DSTYLE
1002
{
1070
   176
1070
   256
1070
    41
1040
3.0
1070
   147
1040
1.0
1070
    77
1070
     1
1002
}
  0
INSERT
  5
10F2
330
106E
100
AcDbEntity
  8
0
100
AcDbBlockReference
  2
A$C1D384272
 10
300.0000004500312
 20
40.00000017354523
 30
0.0
  0
ENDBLK
  5
10F5
330
106E
100
AcDbEntity
  8
0
100
AcDbBlockEnd
  0
BLOCK
  5
188C
330
1882
100
AcDbEntity
  8
0
100
AcDbBlockBegin
  2
*D4
 70
     1
 10
0.0
 20
0.0
 30
0.0
  3
*D4
  1

  0
LINE
  5
1883
330
1882
100
AcDbEntity
  8
0
 62
     2
370
    -2
100
AcDbLine
 10
447.9178371945114
 20
365.6817750851999
 30
0.0
 11
447.9178371945114
 21
357.5603924477955
 31
0.0
  0
LINE
  5
1884
330
1882
100
AcDbEntity
  8
0
 62
     2
370
    -2
100
AcDbLine
 10
461.3978371945115
 20
365.6817750851999
 30
0.0
 11
461.3978371945115
 21
357.5603924477955
 31
0.0
  0
LINE
  5
1885
330
1882
100
AcDbEntity
  8
0
 62
     2
370
    -2
100
AcDbLine
 10
449.9178371945115
 20
358.8103924477955
 30
0.0
 11
459.3978371945114
 21
358.8103924477955
 31
0.0
  0
SOLID
  5
1886
330
1882
100
AcDbEntity
  8
0
 62
     2
100
AcDbTrace
 10
449.9178371945115
 20
359.1437257811288
 30
0.0
 11
449.9178371945115
 21
358.4770591144622
 31
0.0
 12
447.9178371945114
 22
358.8103924477955
 32
0.0
 13
447.9178371945114
 23
358.8103924477955
 33
0.0
  0
SOLID
  5
1887
330
1882
100
AcDbEntity
  8
0
 62
     2
100
AcDbTrace
 10
459.3978371945114
 20
359.1437257811288
 30
0.0
 11
459.3978371945114
 21
358.4770591144622
 31
0.0
 12
461.3978371945115
 22
358.8103924477955
 32
0.0
 13
461.3978371945115
 23
358.8103924477955
 33
0.0
  0
MTEXT
  5
1888
330
1882
100
AcDbEntity
  8
0
 62
     3
100
AcDbMText
 10
454.6578371945114
 20
360.0603924477955
 30
0.0
 40
1.5
 41
0.0
 71
     5
 72
     1
  1
\A1;13.48
 73
     1
 44
1.0
1001
ACAD
1000
MTEXTBEGIN
1070
    73
1070
     1
1070
    44
1040
1.0
1070
    74
1070
     0
1000
MTEXTEND
  0
POINT
  5
1889
330
1882
100
AcDbEntity
  8
DEFPOINTS
 62
     0
100
AcDbPoint
 10
447.9178371945114
 20
366.9317750851999
 30
0.0
  0
POINT
  5
188A
330
1882
100
AcDbEntity
  8
DEFPOINTS
 62
     0
100
AcDbPoint
 10
461.3978371945115
 20
366.9317750851998
 30
0.0
  0
POINT
  5
188B
330
1882
100
AcDbEntity
  8
DEFPOINTS
 62
     0
100
AcDbPoint
 10
461.3978371945115
 20
358.8103924477955
 30
0.0
  0
ENDBLK
  5
188D
330
1882
100
AcDbEntity
  8
0
100
AcDbBlockEnd
  0
BLOCK
  5
1899
330
188F
100
AcDbEntity
  8
0
100
AcDbBlockBegin
  2
*D5
 70
     1
 10
0.0
 20
0.0
 30
0.0
  3
*D5
  1

  0
LINE
  5
18A6
330
188F
100
AcDbEntity
  8
0
 62
     2
370
    -2
100
AcDbLine
 10
442.5928371945115
 20
368.7226557603665
 30
0.0
 11
442.5928371945115
 21
353.3906861748752
 31
0.0
  0
LINE
  5
18A7
330
188F
100
AcDbEntity
  8
0
 62
     2
370
    -2
100
AcDbLine
 10
466.7228371945113
 20
368.7226557603666
 30
0.0
 11
466.7228371945113
 21
353.3906861748752
 31
0.0
  0
LINE
  5
18A8
330
188F
100
AcDbEntity
  8
0
 62
     2
370
    -2
100
AcDbLine
 10
444.5928371945115
 20
354.6406861748752
 30
0.0
 11
464.7228371945113
 21
354.6406861748752
 31
0.0
  0
SOLID
  5
18A9
330
188F
100
AcDbEntity
  8
0
 62
     2
100
AcDbTrace
 10
444.5928371945115
 20
354.9740195082085
 30
0.0
 11
444.5928371945115
 21
354.3073528415419
 31
0.0
 12
442.5928371945115
 22
354.6406861748752
 32
0.0
 13
442.5928371945115
 23
354.6406861748752
 33
0.0
  0
SOLID
  5
18AA
330
188F
100
AcDbEntity
  8
0
 62
     2
100
AcDbTrace
 10
464.7228371945113
 20
354.9740195082085
 30
0.0
 11
464.7228371945113
 21
354.3073528415419
 31
0.0
 12
466.7228371945113
 22
354.6406861748752
 32
0.0
 13
466.7228371945113
 23
354.6406861748752
 33
0.0
  0
MTEXT
  5
18AB
330
188F
100
AcDbEntity
  8
0
 62
     3
100
AcDbMText
 10
454.6578371945114
 20
355.8906861748752
 30
0.0
 40
1.5
 41
0.0
 71
     5
 72
     1
  1
\A1;24.13
 73
     1
 44
1.0
1001
ACAD
1000
MTEXTBEGIN
1070
    73
1070
     1
1070
    44
1040
1.0
1070
    74
1070
     0
1000
MTEXTEND
  0
POINT
  5
18AC
330
188F
100
AcDbEntity
  8
DEFPOINTS
 62
     0
100
AcDbPoint
 10
442.5928371945115
 20
369.9726557603665
 30
0.0
  0
POINT
  5
18AD
330
188F
100
AcDbEntity
  8
DEFPOINTS
 62
     0
100
AcDbPoint
 10
466.7228371945113
 20
369.9726557603666
 30
0.0
  0
POINT
  5
18AE
330
188F
100
AcDbEntity
  8
DEFPOINTS
 62
     0
100
AcDbPoint
 10
466.7228371945113
 20
354.6406861748752
 30
0.0
  0
ENDBLK
  5
189A
330
188F
100
AcDbEntity
  8
0
100
AcDbBlockEnd
  0
BLOCK
  5
18BF
330
18B5
100
AcDbEntity
  8
0
100
AcDbBlockBegin
  2
*D6
 70
     1
 10
0.0
 20
0.0
 30
0.0
  3
*D6
  1

  0
LINE
  5
18E9
330
18B5
100
AcDbEntity
  8
0
 62
     2
370
    -2
100
AcDbLine
 10
400.7679536583778
 20
421.4976557603666
 30
0.0
 11
367.1086244114154
 21
421.4976557603667
 31
0.0
  0
LINE
  5
18EA
330
18B5
100
AcDbEntity
  8
0
 62
     2
370
    -2
100
AcDbLine
 10
400.7679536583778
 20
363.4076557603666
 30
0.0
 11
367.1086244114153
 21
363.4076557603667
 31
0.0
  0
LINE
  5
18EB
330
18B5
100
AcDbEntity
  8
0
 62
     2
370
    -2
100
AcDbLine
 10
368.3586244114153
 20
419.4976557603666
 30
0.0
 11
368.3586244114153
 21
365.4076557603667
 31
0.0
  0
SOLID
  5
18EC
330
18B5
100
AcDbEntity
  8
0
 62
     2
100
AcDbTrace
 10
368.025291078082
 20
419.4976557603666
 30
0.0
 11
368.6919577447487
 21
419.4976557603666
 31
0.0
 12
368.3586244114153
 22
421.4976557603667
 32
0.0
 13
368.3586244114153
 23
421.4976557603667
 33
0.0
  0
SOLID
  5
18ED
330
18B5
100
AcDbEntity
  8
0
 62
     2
100
AcDbTrace
 10
368.025291078082
 20
365.4076557603667
 30
0.0
 11
368.6919577447486
 21
365.4076557603667
 31
0.0
 12
368.3586244114153
 22
363.4076557603667
 32
0.0
 13
368.3586244114153
 23
363.4076557603667
 33
0.0
  0
MTEXT
  5
18EE
330
18B5
100
AcDbEntity
  8
0
 62
     3
100
AcDbMText
 10
367.1086244114152
 20
392.4526557603667
 30
0.0
 40
1.5
 41
0.0
 71
     5
 72
     1
  1
\A1;Pitch diameter %%C58.1
 11
0.0000000000000001
 21
1.0
 31
0.0
 73
     1
 44
1.0
1001
ACAD
1000
MTEXTBEGIN
1070
    73
1070
     1
1070
    44
1040
1.0
1070
    74
1070
     0
1000
MTEXTEND
  0
POINT
  5
18EF
330
18B5
100
AcDbEntity
  8
DEFPOINTS
 62
     0
100
AcDbPoint
 10
402.0179536583778
 20
421.4976557603666
 30
0.0
  0
POINT
  5
18F0
330
18B5
100
AcDbEntity
  8
DEFPOINTS
 62
     0
100
AcDbPoint
 10
402.0179536583778
 20
363.4076557603666
 30
0.0
  0
POINT
  5
18F1
330
18B5
100
AcDbEntity
  8
DEFPOINTS
 62
     0
100
AcDbPoint
 10
368.3586244114153
 20
363.4076557603667
 30
0.0
  0
ENDBLK
  5
18C0
330
18B5
100
AcDbEntity
  8
0
100
AcDbBlockEnd
  0
BLOCK
  5
18CC
330
18C2
100
AcDbEntity
  8
0
100
AcDbBlockBegin
  2
*D7
 70
     1
 10
0.0
 20
0.0
 30
0.0
  3
*D7
  1

  0
LINE
  5
18E0
330
18C2
100
AcDbEntity
  8
0
 62
     2
370
    -2
100
AcDbLine
 10
400.7679536583778
 20
363.3576557603664
 30
0.0
 11
362.2848270477913
 21
363.3576557603664
 31
0.0
  0
LINE
  5
18E1
330
18C2
100
AcDbEntity
  8
0
 62
     2
370
    -2
100
AcDbLine
 10
400.7679536583778
 20
421.5476557603668
 30
0.0
 11
362.2848270477914
 21
421.5476557603669
 31
0.0
  0
LINE
  5
18E2
330
18C2
100
AcDbEntity
  8
0
 62
     2
370
    -2
100
AcDbLine
 10
363.5348270477913
 20
365.3576557603664
 30
0.0
 11
363.5348270477914
 21
419.5476557603669
 31
0.0
  0
SOLID
  5
18E3
330
18C2
100
AcDbEntity
  8
0
 62
     2
100
AcDbTrace
 10
363.201493714458
 20
365.3576557603664
 30
0.0
 11
363.8681603811246
 21
365.3576557603664
 31
0.0
 12
363.5348270477913
 22
363.3576557603664
 32
0.0
 13
363.5348270477913
 23
363.3576557603664
 33
0.0
  0
SOLID
  5
18E4
330
18C2
100
AcDbEntity
  8
0
 62
     2
100
AcDbTrace
 10
363.2014937144581
 20
419.5476557603669
 30
0.0
 11
363.8681603811247
 21
419.5476557603669
 31
0.0
 12
363.5348270477914
 22
421.5476557603669
 32
0.0
 13
363.5348270477914
 23
421.5476557603669
 33
0.0
  0
MTEXT
  5
18E5
330
18C2
100
AcDbEntity
  8
0
 62
     3
100
AcDbMText
 10
362.2848270477913
 20
392.4526557603667
 30
0.0
 40
1.5
 41
0.0
 71
     5
 72
     1
  1
\A1;Outside diameter %%C58.2
 11
0.0000000000000001
 21
1.0
 31
0.0
 73
     1
 44
1.0
1001
ACAD
1000
MTEXTBEGIN
1070
    73
1070
     1
1070
    44
1040
1.0
1070
    74
1070
     0
1000
MTEXTEND
  0
POINT
  5
18E6
330
18C2
100
AcDbEntity
  8
DEFPOINTS
 62
     0
100
AcDbPoint
 10
402.0179536583778
 20
363.3576557603664
 30
0.0
  0
POINT
  5
18E7
330
18C2
100
AcDbEntity
  8
DEFPOINTS
 62
     0
100
AcDbPoint
 10
402.0179536583778
 20
421.5476557603668
 30
0.0
  0
POINT
  5
18E8
330
18C2
100
AcDbEntity
  8
DEFPOINTS
 62
     0
100
AcDbPoint
 10
363.5348270477914
 20
421.5476557603669
 30
0.0
  0
ENDBLK
  5
18CD
330
18C2
100
AcDbEntity
  8
0
100
AcDbBlockEnd
  0
BLOCK
  5
1916
330
190C
100
AcDbEntity
  8
0
100
AcDbBlockBegin
  2
*D8
 70
     1
 10
0.0
 20
0.0
 30
0.0
  3
*D8
  1

  0
LINE
  5
1918
330
190C
100
AcDbEntity
  8
0
 62
     2
370
    -2
100
AcDbLine
 10
467.2228371945114
 20
415.6826557603667
 30
0.0
 11
474.0278125005455
 21
415.6826557603667
 31
0.0
  0
LINE
  5
1919
330
190C
100
AcDbEntity
  8
0
 62
     2
370
    -2
100
AcDbLine
 10
467.2228371945114
 20
369.2226557603665
 30
0.0
 11
474.0278125005454
 21
369.2226557603665
 31
0.0
  0
LINE
  5
191A
330
190C
100
AcDbEntity
  8
0
 62
     2
370
    -2
100
AcDbLine
 10
472.7778125005455
 20
413.6826557603668
 30
0.0
 11
472.7778125005455
 21
371.2226557603665
 31
0.0
  0
SOLID
  5
191B
330
190C
100
AcDbEntity
  8
0
 62
     2
100
AcDbTrace
 10
472.4444791672122
 20
413.6826557603668
 30
0.0
 11
473.1111458338788
 21
413.6826557603668
 31
0.0
 12
472.7778125005455
 22
415.6826557603667
 32
0.0
 13
472.7778125005455
 23
415.6826557603667
 33
0.0
  0
SOLID
  5
191C
330
190C
100
AcDbEntity
  8
0
 62
     2
100
AcDbTrace
 10
472.4444791672121
 20
371.2226557603665
 30
0.0
 11
473.1111458338788
 21
371.2226557603665
 31
0.0
 12
472.7778125005455
 22
369.2226557603665
 32
0.0
 13
472.7778125005455
 23
369.2226557603665
 33
0.0
  0
MTEXT
  5
191D
330
190C
100
AcDbEntity
  8
0
 62
     3
100
AcDbMText
 10
471.5278125005454
 20
392.4526557603667
 30
0.0
 40
1.5
 41
0.0
 71
     5
 72
     1
  1
\A1;46.5
 11
0.0000000000000001
 21
1.0
 31
0.0
 73
     1
 44
1.0
1001
ACAD
1000
MTEXTBEGIN
1070
    73
1070
     1
1070
    44
1040
1.0
1070
    74
1070
     0
1000
MTEXTEND
  0
POINT
  5
191E
330
190C
100
AcDbEntity
  8
DEFPOINTS
 62
     0
100
AcDbPoint
 10
465.9728371945114
 20
415.6826557603667
 30
0.0
  0
POINT
  5
191F
330
190C
100
AcDbEntity
  8
DEFPOINTS
 62
     0
100
AcDbPoint
 10
465.9728371945114
 20
369.2226557603665
 30
0.0
  0
POINT
  5
1920
330
190C
100
AcDbEntity
  8
DEFPOINTS
 62
     0
100
AcDbPoint
 10
472.7778125005455
 20
369.2226557603665
 30
0.0
  0
ENDBLK
  5
1917
330
190C
100
AcDbEntity
  8
0
100
AcDbBlockEnd
  0
BLOCK
  5
1956
330
194C
100
AcDbEntity
  8
0
100
AcDbBlockBegin
  2
*D9
 70
     1
 10
0.0
 20
0.0
 30
0.0
  3
*D9
  1

  0
LINE
  5
19AE
330
194C
100
AcDbEntity
  8
0
 62
     2
370
    -2
100
AcDbLine
 10
417.0929536583779
 20
391.2026557603666
 30
0.0
 11
417.0929536583779
 21
357.4977423033372
 31
0.0
  0
LINE
  5
19AF
330
194C
100
AcDbEntity
  8
0
 62
     2
370
    -2
100
AcDbLine
 10
386.9429536583779
 20
391.2026557603666
 30
0.0
 11
386.9429536583779
 21
357.4977423033372
 31
0.0
  0
LINE
  5
19B0
330
194C
100
AcDbEntity
  8
0
 62
     2
370
    -2
100
AcDbLine
 10
415.0929536583778
 20
358.7477423033373
 30
0.0
 11
388.9429536583779
 21
358.7477423033373
 31
0.0
  0
SOLID
  5
19B1
330
194C
100
AcDbEntity
  8
0
 62
     2
100
AcDbTrace
 10
415.0929536583778
 20
359.0810756366705
 30
0.0
 11
415.0929536583778
 21
358.414408970004
 31
0.0
 12
417.0929536583779
 22
358.7477423033373
 32
0.0
 13
417.0929536583779
 23
358.7477423033373
 33
0.0
  0
SOLID
  5
19B2
330
194C
100
AcDbEntity
  8
0
 62
     2
100
AcDbTrace
 10
388.9429536583779
 20
359.0810756366705
 30
0.0
 11
388.9429536583779
 21
358.414408970004
 31
0.0
 12
386.9429536583779
 22
358.7477423033373
 32
0.0
 13
386.9429536583779
 23
358.7477423033373
 33
0.0
  0
MTEXT
  5
19B3
330
194C
100
AcDbEntity
  8
0
 62
     3
100
AcDbMText
 10
402.0179536583778
 20
359.9977423033373
 30
0.0
 40
1.5
 41
0.0
 71
     5
 72
     1
  1
\A1;%%C30.15
 73
     1
 44
1.0
1001
ACAD
1000
MTEXTBEGIN
1070
    73
1070
     1
1070
    44
1040
1.0
1070
    74
1070
     0
1000
MTEXTEND
  0
POINT
  5
19B4
330
194C
100
AcDbEntity
  8
DEFPOINTS
 62
     0
100
AcDbPoint
 10
417.0929536583779
 20
392.4526557603666
 30
0.0
  0
POINT
  5
19B5
330
194C
100
AcDbEntity
  8
DEFPOINTS
 62
     0
100
AcDbPoint
 10
386.9429536583779
 20
392.4526557603666
 30
0.0
  0
POINT
  5
19B6
330
194C
100
AcDbEntity
  8
DEFPOINTS
 62
     0
100
AcDbPoint
 10
386.9429536583779
 20
358.7477423033373
 30
0.0
  0
ENDBLK
  5
1957
330
194C
100
AcDbEntity
  8
0
100
AcDbBlockEnd
  0
ENDSEC
  0
SECTION
  2
ENTITIES
  0
INSERT
  5
6
330
25
100
AcDbEntity
  8
AME_FRZ
100
AcDbBlockReference
  2
AME_NIL
 10
0.0
 20
0.0
 30
0.0
  0
INSERT
  5
D
330
25
100
AcDbEntity
  8
AME_FRZ
100
AcDbBlockReference
  2
AME_SOL
 10
0.0
 20
0.0
 30
0.0
1001
AME_SOL
1000
R2.1
1000
AME2
1000
sq mm
1070
     3
1070
     0
1070
     3
1000
wire
1040
45.0
1000
U
1040
2.5
1000
mm
1000
gm
1000
MILD_STEEL
1070
    25
1000
CSG
1070
     1
1070
     3
1070
     3
1070
     3
1070
     0
1000
cu cm
1070
     6
1070
     0
1005
6
  0
INSERT
  5
9AB
330
25
100
AcDbEntity
  8
AME_FRZ
100
AcDbBlockReference
  2
AME_NIL
 10
284.686376688501
 20
223.7481959850745
 30
0.0
  0
INSERT
  5
9AC
330
25
100
AcDbEntity
  8
AME_FRZ
100
AcDbBlockReference
  2
AME_SOL
 10
284.686376688501
 20
223.7481959850745
 30
0.0
1001
AME_SOL
1000
R2.1
1000
AME2
1000
sq mm
1070
     3
1070
     0
1070
     3
1000
wire
1040
45.0
1000
U
1040
2.5
1000
mm
1000
gm
1000
MILD_STEEL
1070
    25
1000
CSG
1070
     1
1070
     3
1070
     3
1070
     3
1070
     0
1000
cu cm
1070
     6
1070
     0
1005
9AB
  0
INSERT
  5
A42
330
25
100
AcDbEntity
  8
AME_FRZ
100
AcDbBlockReference
  2
AME_NIL
 10
1027.379618407852
 20
397.8407799362813
 30
0.0
 41
2.0
 42
2.0
 43
2.0
 50
90.0
  0
INSERT
  5
A43
330
25
100
AcDbEntity
  8
AME_FRZ
100
AcDbBlockReference
  2
AME_SOL
 10
1027.379618407852
 20
397.8407799362813
 30
0.0
 41
2.0
 42
2.0
 43
2.0
 50
90.0
1001
AME_SOL
1000
R2.1
1000
AME2
1000
sq mm
1070
     3
1070
     0
1070
     3
1000
wire
1040
45.0
1000
U
1040
2.5
1000
mm
1000
gm
1000
MILD_STEEL
1070
    25
1000
CSG
1070
     1
1070
     3
1070
     3
1070
     3
1070
     0
1000
cu cm
1070
     6
1070
     0
1005
A42
  0
INSERT
  5
A7F
330
25
100
AcDbEntity
  8
AME_FRZ
100
AcDbBlockReference
  2
AME_NIL
 10
-476.2411714577426
 20
713.5176827542955
 30
0.0
  0
INSERT
  5
A80
330
25
100
AcDbEntity
  8
AME_FRZ
100
AcDbBlockReference
  2
AME_SOL
 10
-476.2411714577426
 20
713.5176827542955
 30
0.0
1001
AME_SOL
1000
R2.1
1000
AME2
1000
sq mm
1070
     3
1070
     0
1070
     3
1000
wire
1040
45.0
1000
U
1040
2.5
1000
mm
1000
gm
1000
MILD_STEEL
1070
    25
1000
CSG
1070
     1
1070
     3
1070
     3
1070
     3
1070
     0
1000
cu cm
1070
     6
1070
     0
1005
A7F
  0
INSERT
  5
A81
330
25
100
AcDbEntity
  8
AME_FRZ
100
AcDbBlockReference
  2
AME_NIL
 10
1631.972580548846
 20
760.115208687765
 30
0.0
  0
INSERT
  5
A82
330
25
100
AcDbEntity
  8
AME_FRZ
100
AcDbBlockReference
  2
AME_SOL
 10
1631.972580548846
 20
760.115208687765
 30
0.0
1001
AME_SOL
1000
R2.1
1000
AME2
1000
sq mm
1070
     3
1070
     0
1070
     3
1000
wire
1040
45.0
1000
U
1040
2.5
1000
mm
1000
gm
1000
MILD_STEEL
1070
    25
1000
CSG
1070
     1
1070
     3
1070
     3
1070
     3
1070
     0
1000
cu cm
1070
     6
1070
     0
1005
A81
  0
INSERT
  5
A83
330
25
100
AcDbEntity
  8
AME_FRZ
100
AcDbBlockReference
  2
AME_NIL
 10
-155.7984314560082
 20
901.9651274961487
 30
0.0
  0
INSERT
  5
A84
330
25
100
AcDbEntity
  8
AME_FRZ
100
AcDbBlockReference
  2
AME_SOL
 10
-155.7984314560082
 20
901.9651274961487
 30
0.0
1001
AME_SOL
1000
R2.1
1000
AME2
1000
sq mm
1070
     3
1070
     0
1070
     3
1000
wire
1040
45.0
1000
U
1040
2.5
1000
mm
1000
gm
1000
MILD_STEEL
1070
    25
1000
CSG
1070
     1
1070
     3
1070
     3
1070
     3
1070
     0
1000
cu cm
1070
     6
1070
     0
1005
A83
  0
ARC
  5
1650
330
25
100
AcDbEntity
  8
0
100
AcDbCircle
 10
402.0179536583778
 20
392.4526557603666
 30
0.0
 40
24.22
100
AcDbArc
 50
88.73547414548283
 51
91.26452585451716
  0
LINE
  5
1652
330
25
100
AcDbEntity
  8
HARTLIJN
100
AcDbLine
 10
402.0179536583778
 20
362.4553668173044
 30
0.0
 11
402.0179536583778
 21
422.2701368956733
 31
0.0
  0
LINE
  5
1653
330
25
100
AcDbEntity
  8
HARTLIJN
100
AcDbLine
 10
372.9229536583779
 20
392.4526557603666
 30
0.0
 11
431.1129536583779
 21
392.4526557603666
 31
0.0
  0
LINE
  5
1656
330
25
100
AcDbEntity
  8
0
100
AcDbLine
 10
398.7302771524565
 20
418.3318005101431
 30
0.0
 11
397.6219400983649
 21
420.5638621529057
 31
0.0
  0
ARC
  5
16A8
330
25
100
AcDbEntity
  8
0
100
AcDbCircle
 10
402.0179536583779
 20
392.4526557603666
 30
0.0
 40
29.095
100
AcDbArc
 50
100.6322491913583
 51
109.3677508086419
  0
ARC
  5
16B6
330
25
100
AcDbEntity
  8
0
100
AcDbCircle
 10
402.0179536583779
 20
392.4526557603666
 30
0.0
 40
26.095
100
AcDbArc
 50
97.24604800248471
 51
112.3370359686763
  0
LINE
  5
16C1
330
25
100
AcDbEntity
  8
HARTLIJN
100
AcDbLine
 10
454.6578371945114
 20
363.3576557603666
 30
0.0
 11
454.6578371945114
 21
421.5476557603666
 31
0.0
  0
LINE
  5
16C2
330
25
100
AcDbEntity
  8
HARTLIJN
100
AcDbLine
 10
441.3030363015406
 20
392.4526557603667
 30
0.0
 11
467.9003375679994
 21
392.4526557603667
 31
0.0
  0
CIRCLE
  5
16C3
330
25
100
AcDbEntity
  8
0
100
AcDbCircle
 10
402.0179536583778
 20
392.4526557603666
 30
0.0
 40
23.23
  0
LINE
  5
16C4
330
25
100
AcDbEntity
  8
0
100
AcDbLine
 10
457.9078371945113
 20
392.4526557603666
 30
0.0
 11
457.9078371945114
 21
420.9735364355333
 31
0.0
  0
LINE
  5
16C5
330
25
100
AcDbEntity
  8
0
100
AcDbLine
 10
451.4078371945114
 20
392.4526557603666
 30
0.0
 11
451.4078371945115
 21
420.9735364355333
 31
0.0
  0
LINE
  5
16C7
330
25
100
AcDbEntity
  8
0
100
AcDbLine
 10
453.4178371945115
 20
415.6826557603666
 30
0.0
 11
455.8978371945114
 21
415.6826557603666
 31
0.0
  0
LINE
  5
16C8
330
25
100
AcDbEntity
  8
0
100
AcDbLine
 10
448.4468181366368
 20
420.9735364355333
 30
0.0
 11
451.4078371945115
 21
420.9735364355333
 31
0.0
  0
LINE
  5
16CA
330
25
100
AcDbEntity
  8
0
100
AcDbLine
 10
447.9178371945114
 20
392.4526557603666
 30
0.0
 11
447.9178371945114
 21
417.9735364355333
 31
0.0
  0
LINE
  5
16CB
330
25
100
AcDbEntity
  8
0
100
AcDbLine
 10
461.3978371945115
 20
392.4526557603666
 30
0.0
 11
461.3978371945115
 21
417.9735364355334
 31
0.0
  0
LINE
  5
16CC
330
25
100
AcDbEntity
  8
0
100
AcDbLine
 10
457.9078371945114
 20
420.9735364355333
 30
0.0
 11
460.868856252386
 21
420.9735364355333
 31
0.0
  0
LINE
  5
16CE
330
25
100
AcDbEntity
  8
0
100
AcDbLine
 10
447.9178371945114
 20
417.9735364355334
 30
0.0
 11
448.4468181366368
 21
420.9735364355333
 31
0.0
  0
LINE
  5
16CF
330
25
100
AcDbEntity
  8
0
100
AcDbLine
 10
461.3978371945115
 20
417.9735364355334
 30
0.0
 11
460.868856252386
 21
420.9735364355333
 31
0.0
  0
ARC
  5
16D0
330
25
100
AcDbEntity
  8
0
100
AcDbCircle
 10
453.4178371945115
 20
417.6926557603666
 30
0.0
 40
2.009999999999999
100
AcDbArc
 50
179.9999999999999
 51
270.0000000000005
  0
ARC
  5
16D1
330
25
100
AcDbEntity
  8
0
100
AcDbCircle
 10
455.8978371945114
 20
417.6926557603666
 30
0.0
 40
2.009999999999999
100
AcDbArc
 50
270.0
 51
0.0
  0
LINE
  5
16D2
330
25
100
AcDbEntity
  8
0
100
AcDbLine
 10
443.3428371945114
 20
415.6826557603667
 30
0.0
 11
447.9178371945114
 21
415.6826557603666
 31
0.0
  0
LINE
  5
16D3
330
25
100
AcDbEntity
  8
0
100
AcDbLine
 10
466.7228371945114
 20
392.4526557603667
 30
0.0
 11
466.7228371945114
 21
414.9326557603667
 31
0.0
  0
LINE
  5
16D4
330
25
100
AcDbEntity
  8
0
100
AcDbLine
 10
442.5928371945114
 20
392.4526557603667
 30
0.0
 11
442.5928371945115
 21
414.9326557603668
 31
0.0
  0
LINE
  5
16D5
330
25
100
AcDbEntity
  8
0
100
AcDbLine
 10
461.3978371945114
 20
415.6826557603666
 30
0.0
 11
465.9728371945114
 21
415.6826557603667
 31
0.0
  0
ARC
  5
16D6
330
25
100
AcDbEntity
  8
0
100
AcDbCircle
 10
443.3428371945114
 20
414.9326557603668
 30
0.0
 40
0.75
100
AcDbArc
 50
90.0
 51
180.0
  0
ARC
  5
16D7
330
25
100
AcDbEntity
  8
0
100
AcDbCircle
 10
465.9728371945114
 20
414.9326557603667
 30
0.0
 40
0.75
100
AcDbArc
 50
0.0
 51
90.0
  0
LINE
  5
16D8
330
25
100
AcDbEntity
  8
0
100
AcDbLine
 10
465.9728371945114
 20
415.6826557603667
 30
0.0
 11
465.9728371945115
 21
392.4526557603666
 31
0.0
  0
LINE
  5
16D9
330
25
100
AcDbEntity
  8
0
100
AcDbLine
 10
443.3428371945114
 20
415.6826557603667
 30
0.0
 11
443.3428371945114
 21
392.4526557603667
 31
0.0
  0
LINE
  5
16DA
330
25
100
AcDbEntity
  8
0
100
AcDbLine
 10
453.4178371945115
 20
415.6826557603666
 30
0.0
 11
453.4178371945115
 21
392.4526557603666
 31
0.0
  0
LINE
  5
16DB
330
25
100
AcDbEntity
  8
0
100
AcDbLine
 10
455.8978371945114
 20
415.6826557603666
 30
0.0
 11
455.8978371945114
 21
392.4526557603666
 31
0.0
  0
LINE
  5
16EC
330
25
100
AcDbEntity
  8
0
100
AcDbLine
 10
448.4468181366367
 20
419.2514427536588
 30
0.0
 11
451.4078371945114
 21
419.2514427536588
 31
0.0
  0
LINE
  5
16EF
330
25
100
AcDbEntity
  8
0
100
AcDbLine
 10
448.4468181366368
 20
420.9735364355333
 30
0.0
 11
448.4468181366368
 21
419.2514427536589
 31
0.0
  0
LINE
  5
16F0
330
25
100
AcDbEntity
  8
0
100
AcDbLine
 10
448.4468181366368
 20
419.2514427536589
 30
0.0
 11
447.9178371945114
 21
416.5895977285187
 31
0.0
  0
LINE
  5
16F1
330
25
100
AcDbEntity
  8
0
100
AcDbLine
 10
448.4468181366368
 20
414.4407792090911
 30
0.0
 11
451.4078371945115
 21
414.4407792090911
 31
0.0
  0
LINE
  5
16F2
330
25
100
AcDbEntity
  8
0
100
AcDbLine
 10
448.4468181366367
 20
411.1713953531488
 30
0.0
 11
451.4078371945114
 21
411.1713953531487
 31
0.0
  0
LINE
  5
16F5
330
25
100
AcDbEntity
  8
0
100
AcDbLine
 10
448.4468181366368
 20
414.4407792090911
 30
0.0
 11
448.4468181366368
 21
411.1713953531488
 31
0.0
  0
LINE
  5
16F6
330
25
100
AcDbEntity
  8
0
100
AcDbLine
 10
448.4468181366368
 20
414.4407792090911
 30
0.0
 11
447.9178371945114
 21
413.1099446531852
 31
0.0
  0
LINE
  5
16F7
330
25
100
AcDbEntity
  8
0
100
AcDbLine
 10
448.4468181366368
 20
411.1713953531488
 30
0.0
 11
447.9178371945114
 21
408.3971043428238
 31
0.0
  0
LINE
  5
1708
330
25
100
AcDbEntity
  8
0
100
AcDbLine
 10
448.4468181366367
 20
402.0156994927061
 30
0.0
 11
451.4078371945114
 21
402.0156994927061
 31
0.0
  0
LINE
  5
1709
330
25
100
AcDbEntity
  8
0
100
AcDbLine
 10
448.4468181366369
 20
397.575583207034
 30
0.0
 11
451.4078371945114
 21
397.575583207034
 31
0.0
  0
LINE
  5
170C
330
25
100
AcDbEntity
  8
0
100
AcDbLine
 10
448.4468181366368
 20
402.0156994927061
 30
0.0
 11
448.4468181366368
 21
397.575583207034
 31
0.0
  0
LINE
  5
170D
330
25
100
AcDbEntity
  8
0
100
AcDbLine
 10
448.4468181366368
 20
402.0156994927061
 30
0.0
 11
447.9178371945114
 21
402.3701684236328
 31
0.0
  0
LINE
  5
170E
330
25
100
AcDbEntity
  8
0
100
AcDbLine
 10
448.4468181366368
 20
397.5755832070339
 30
0.0
 11
447.9178371945114
 21
395.9323088357
 31
0.0
  0
LINE
  5
170F
330
25
100
AcDbEntity
  8
0
100
AcDbLine
 10
460.8688562523861
 20
419.2514427536588
 30
0.0
 11
457.9078371945114
 21
419.2514427536588
 31
0.0
  0
LINE
  5
1710
330
25
100
AcDbEntity
  8
0
100
AcDbLine
 10
460.868856252386
 20
420.9735364355333
 30
0.0
 11
460.868856252386
 21
419.2514427536589
 31
0.0
  0
LINE
  5
1711
330
25
100
AcDbEntity
  8
0
100
AcDbLine
 10
460.868856252386
 20
419.2514427536589
 30
0.0
 11
461.3978371945114
 21
416.5895977285187
 31
0.0
  0
LINE
  5
1712
330
25
100
AcDbEntity
  8
0
100
AcDbLine
 10
460.868856252386
 20
414.4407792090911
 30
0.0
 11
457.9078371945113
 21
414.4407792090911
 31
0.0
  0
LINE
  5
1713
330
25
100
AcDbEntity
  8
0
100
AcDbLine
 10
460.8688562523861
 20
411.1713953531488
 30
0.0
 11
457.9078371945114
 21
411.1713953531487
 31
0.0
  0
LINE
  5
1714
330
25
100
AcDbEntity
  8
0
100
AcDbLine
 10
460.868856252386
 20
414.4407792090911
 30
0.0
 11
460.868856252386
 21
411.1713953531488
 31
0.0
  0
LINE
  5
1715
330
25
100
AcDbEntity
  8
0
100
AcDbLine
 10
460.868856252386
 20
414.4407792090911
 30
0.0
 11
461.3978371945114
 21
413.1099446531852
 31
0.0
  0
LINE
  5
1716
330
25
100
AcDbEntity
  8
0
100
AcDbLine
 10
460.868856252386
 20
411.1713953531488
 30
0.0
 11
461.3978371945114
 21
408.3971043428238
 31
0.0
  0
LINE
  5
1717
330
25
100
AcDbEntity
  8
0
100
AcDbLine
 10
460.8688562523861
 20
402.0156994927061
 30
0.0
 11
457.9078371945114
 21
402.0156994927061
 31
0.0
  0
LINE
  5
1718
330
25
100
AcDbEntity
  8
0
100
AcDbLine
 10
460.8688562523859
 20
397.575583207034
 30
0.0
 11
457.9078371945114
 21
397.575583207034
 31
0.0
  0
LINE
  5
1719
330
25
100
AcDbEntity
  8
0
100
AcDbLine
 10
460.868856252386
 20
402.0156994927061
 30
0.0
 11
460.868856252386
 21
397.575583207034
 31
0.0
  0
LINE
  5
171A
330
25
100
AcDbEntity
  8
0
100
AcDbLine
 10
460.868856252386
 20
402.0156994927061
 30
0.0
 11
461.3978371945114
 21
402.3701684236328
 31
0.0
  0
LINE
  5
171B
330
25
100
AcDbEntity
  8
0
100
AcDbLine
 10
460.868856252386
 20
397.5755832070339
 30
0.0
 11
461.3978371945114
 21
395.9323088357
 31
0.0
  0
LINE
  5
171C
330
25
100
AcDbEntity
  8
0
100
AcDbLine
 10
442.5928371945114
 20
392.4526557603667
 30
0.0
 11
442.5928371945115
 21
369.9726557603665
 31
0.0
  0
LINE
  5
171D
330
25
100
AcDbEntity
  8
0
100
AcDbLine
 10
466.7228371945114
 20
392.4526557603667
 30
0.0
 11
466.7228371945114
 21
369.9726557603666
 31
0.0
  0
ARC
  5
171E
330
25
100
AcDbEntity
  8
0
100
AcDbCircle
 10
465.9728371945114
 20
369.9726557603666
 30
0.0
 40
0.75
100
AcDbArc
 50
270.0
 51
0.0
  0
LINE
  5
171F
330
25
100
AcDbEntity
  8
0
100
AcDbLine
 10
451.4078371945114
 20
392.4526557603667
 30
0.0
 11
451.4078371945115
 21
363.9317750851998
 31
0.0
  0
ARC
  5
1720
330
25
100
AcDbEntity
  8
0
100
AcDbCircle
 10
453.4178371945115
 20
367.2126557603666
 30
0.0
 40
2.009999999999999
100
AcDbArc
 50
89.9999999999995
 51
180.0
  0
LINE
  5
1721
330
25
100
AcDbEntity
  8
0
100
AcDbLine
 10
447.9178371945114
 20
392.4526557603666
 30
0.0
 11
447.9178371945114
 21
366.9317750851999
 31
0.0
  0
LINE
  5
1722
330
25
100
AcDbEntity
  8
0
100
AcDbLine
 10
457.9078371945113
 20
392.4526557603667
 30
0.0
 11
457.9078371945114
 21
363.9317750851998
 31
0.0
  0
ARC
  5
1723
330
25
100
AcDbEntity
  8
0
100
AcDbCircle
 10
455.8978371945114
 20
367.2126557603666
 30
0.0
 40
2.009999999999999
100
AcDbArc
 50
0.0
 51
90.00000000000003
  0
LINE
  5
1724
330
25
100
AcDbEntity
  8
0
100
AcDbLine
 10
461.3978371945115
 20
392.4526557603666
 30
0.0
 11
461.3978371945115
 21
366.9317750851998
 31
0.0
  0
LINE
  5
1725
330
25
100
AcDbEntity
  8
0
100
AcDbLine
 10
453.4178371945115
 20
369.2226557603666
 30
0.0
 11
455.8978371945114
 21
369.2226557603666
 31
0.0
  0
LINE
  5
1726
330
25
100
AcDbEntity
  8
0
100
AcDbLine
 10
448.4468181366368
 20
363.9317750851999
 30
0.0
 11
451.4078371945115
 21
363.9317750851999
 31
0.0
  0
LINE
  5
1727
330
25
100
AcDbEntity
  8
0
100
AcDbLine
 10
457.9078371945114
 20
363.9317750851999
 30
0.0
 11
460.868856252386
 21
363.9317750851998
 31
0.0
  0
LINE
  5
1728
330
25
100
AcDbEntity
  8
0
100
AcDbLine
 10
447.9178371945114
 20
366.9317750851998
 30
0.0
 11
448.4468181366368
 21
363.9317750851999
 31
0.0
  0
LINE
  5
1729
330
25
100
AcDbEntity
  8
0
100
AcDbLine
 10
461.3978371945115
 20
366.9317750851998
 30
0.0
 11
460.868856252386
 21
363.9317750851999
 31
0.0
  0
LINE
  5
172A
330
25
100
AcDbEntity
  8
0
100
AcDbLine
 10
443.3428371945114
 20
369.2226557603665
 30
0.0
 11
447.9178371945114
 21
369.2226557603665
 31
0.0
  0
ARC
  5
172B
330
25
100
AcDbEntity
  8
0
100
AcDbCircle
 10
443.3428371945114
 20
369.9726557603665
 30
0.0
 40
0.75
100
AcDbArc
 50
180.0
 51
270.0
  0
LINE
  5
172C
330
25
100
AcDbEntity
  8
0
100
AcDbLine
 10
461.3978371945114
 20
369.2226557603665
 30
0.0
 11
465.9728371945114
 21
369.2226557603666
 31
0.0
  0
LINE
  5
172D
330
25
100
AcDbEntity
  8
0
100
AcDbLine
 10
465.9728371945114
 20
369.2226557603665
 30
0.0
 11
465.9728371945115
 21
392.4526557603667
 31
0.0
  0
LINE
  5
172E
330
25
100
AcDbEntity
  8
0
100
AcDbLine
 10
443.3428371945114
 20
369.2226557603665
 30
0.0
 11
443.3428371945114
 21
392.4526557603667
 31
0.0
  0
LINE
  5
172F
330
25
100
AcDbEntity
  8
0
100
AcDbLine
 10
453.4178371945115
 20
369.2226557603666
 30
0.0
 11
453.4178371945115
 21
392.4526557603666
 31
0.0
  0
LINE
  5
1730
330
25
100
AcDbEntity
  8
0
100
AcDbLine
 10
455.8978371945114
 20
369.2226557603666
 30
0.0
 11
455.8978371945114
 21
392.4526557603667
 31
0.0
  0
LINE
  5
1731
330
25
100
AcDbEntity
  8
0
100
AcDbLine
 10
448.4468181366367
 20
365.6538687670744
 30
0.0
 11
451.4078371945114
 21
365.6538687670744
 31
0.0
  0
LINE
  5
1732
330
25
100
AcDbEntity
  8
0
100
AcDbLine
 10
448.4468181366368
 20
363.9317750851999
 30
0.0
 11
448.4468181366368
 21
365.6538687670743
 31
0.0
  0
LINE
  5
1733
330
25
100
AcDbEntity
  8
0
100
AcDbLine
 10
448.4468181366368
 20
365.6538687670743
 30
0.0
 11
447.9178371945114
 21
368.3157137922144
 31
0.0
  0
LINE
  5
1734
330
25
100
AcDbEntity
  8
0
100
AcDbLine
 10
448.4468181366368
 20
370.4645323116421
 30
0.0
 11
451.4078371945115
 21
370.4645323116421
 31
0.0
  0
LINE
  5
1735
330
25
100
AcDbEntity
  8
0
100
AcDbLine
 10
448.4468181366367
 20
373.7339161675844
 30
0.0
 11
451.4078371945114
 21
373.7339161675845
 31
0.0
  0
LINE
  5
1736
330
25
100
AcDbEntity
  8
0
100
AcDbLine
 10
448.4468181366368
 20
370.4645323116421
 30
0.0
 11
448.4468181366368
 21
373.7339161675844
 31
0.0
  0
LINE
  5
1737
330
25
100
AcDbEntity
  8
0
100
AcDbLine
 10
448.4468181366368
 20
370.4645323116421
 30
0.0
 11
447.9178371945114
 21
371.795366867548
 31
0.0
  0
LINE
  5
1738
330
25
100
AcDbEntity
  8
0
100
AcDbLine
 10
448.4468181366368
 20
373.7339161675844
 30
0.0
 11
447.9178371945114
 21
376.5082071779094
 31
0.0
  0
LINE
  5
1739
330
25
100
AcDbEntity
  8
0
100
AcDbLine
 10
448.4468181366367
 20
382.8896120280271
 30
0.0
 11
451.4078371945114
 21
382.8896120280271
 31
0.0
  0
LINE
  5
173A
330
25
100
AcDbEntity
  8
0
100
AcDbLine
 10
448.4468181366369
 20
387.3297283136992
 30
0.0
 11
451.4078371945114
 21
387.3297283136992
 31
0.0
  0
LINE
  5
173B
330
25
100
AcDbEntity
  8
0
100
AcDbLine
 10
448.4468181366368
 20
382.8896120280271
 30
0.0
 11
448.4468181366368
 21
387.3297283136992
 31
0.0
  0
LINE
  5
173C
330
25
100
AcDbEntity
  8
0
100
AcDbLine
 10
448.4468181366368
 20
382.8896120280271
 30
0.0
 11
447.9178371945114
 21
382.5351430971003
 31
0.0
  0
LINE
  5
173D
330
25
100
AcDbEntity
  8
0
100
AcDbLine
 10
448.4468181366368
 20
387.3297283136993
 30
0.0
 11
447.9178371945114
 21
388.9730026850332
 31
0.0
  0
LINE
  5
173E
330
25
100
AcDbEntity
  8
0
100
AcDbLine
 10
460.8688562523861
 20
365.6538687670744
 30
0.0
 11
457.9078371945114
 21
365.6538687670744
 31
0.0
  0
LINE
  5
173F
330
25
100
AcDbEntity
  8
0
100
AcDbLine
 10
460.868856252386
 20
363.9317750851999
 30
0.0
 11
460.868856252386
 21
365.6538687670743
 31
0.0
  0
LINE
  5
1740
330
25
100
AcDbEntity
  8
0
100
AcDbLine
 10
460.868856252386
 20
365.6538687670743
 30
0.0
 11
461.3978371945114
 21
368.3157137922144
 31
0.0
  0
LINE
  5
1741
330
25
100
AcDbEntity
  8
0
100
AcDbLine
 10
460.868856252386
 20
370.4645323116421
 30
0.0
 11
457.9078371945113
 21
370.4645323116421
 31
0.0
  0
LINE
  5
1742
330
25
100
AcDbEntity
  8
0
100
AcDbLine
 10
460.8688562523861
 20
373.7339161675844
 30
0.0
 11
457.9078371945114
 21
373.7339161675845
 31
0.0
  0
LINE
  5
1743
330
25
100
AcDbEntity
  8
0
100
AcDbLine
 10
460.868856252386
 20
370.4645323116421
 30
0.0
 11
460.868856252386
 21
373.7339161675844
 31
0.0
  0
LINE
  5
1744
330
25
100
AcDbEntity
  8
0
100
AcDbLine
 10
460.868856252386
 20
370.4645323116421
 30
0.0
 11
461.3978371945114
 21
371.795366867548
 31
0.0
  0
LINE
  5
1745
330
25
100
AcDbEntity
  8
0
100
AcDbLine
 10
460.868856252386
 20
373.7339161675844
 30
0.0
 11
461.3978371945114
 21
376.5082071779094
 31
0.0
  0
LINE
  5
1746
330
25
100
AcDbEntity
  8
0
100
AcDbLine
 10
460.8688562523861
 20
382.8896120280271
 30
0.0
 11
457.9078371945114
 21
382.8896120280271
 31
0.0
  0
LINE
  5
1747
330
25
100
AcDbEntity
  8
0
100
AcDbLine
 10
460.8688562523859
 20
387.3297283136992
 30
0.0
 11
457.9078371945114
 21
387.3297283136992
 31
0.0
  0
LINE
  5
1748
330
25
100
AcDbEntity
  8
0
100
AcDbLine
 10
460.868856252386
 20
382.8896120280271
 30
0.0
 11
460.868856252386
 21
387.3297283136992
 31
0.0
  0
LINE
  5
1749
330
25
100
AcDbEntity
  8
0
100
AcDbLine
 10
460.868856252386
 20
382.8896120280271
 30
0.0
 11
461.3978371945114
 21
382.5351430971003
 31
0.0
  0
LINE
  5
174A
330
25
100
AcDbEntity
  8
0
100
AcDbLine
 10
460.868856252386
 20
387.3297283136993
 30
0.0
 11
461.3978371945114
 21
388.9730026850332
 31
0.0
  0
CIRCLE
  5
175B
330
25
100
AcDbEntity
  8
0
100
AcDbCircle
 10
402.0179536583778
 20
392.4526557603666
 30
0.0
 40
22.23
  0
INSERT
  5
1826
330
25
100
AcDbEntity
  8
0
100
AcDbBlockReference
 66
     1
  2
calca3
 10
324.9032411017262
 20
302.3105893240761
 30
0.0
 41
0.5
 42
0.5
 43
0.5
  0
ATTRIB
  5
1827
330
1826
100
AcDbEntity
  8
3
100
AcDbText
 10
440.9032413267417
 20
317.5605894108488
 30
0.0
 40
2.0
  1
KU1500T12R30 drive
100
AcDbAttribute
  2
NAME
 70
     0
  0
ATTRIB
  5
1828
330
1826
100
AcDbEntity
  8
3
100
AcDbText
 10
440.9032413267417
 20
315.3105894108488
 30
0.0
 40
1.25
  1
Code: 114-3625-22
100
AcDbAttribute
  2
ADDITIONAL_NAME
 70
     0
  0
ATTRIB
  5
1829
330
1826
100
AcDbEntity
  8
3
100
AcDbText
 10
487.9032413267417
 20
308.5505894108488
 30
0.0
 40
2.25
  1
K4587
100
AcDbAttribute
  2
DRAWING_NO.
 70
     0
  0
ATTRIB
  5
182A
330
1826
100
AcDbEntity
  8
3
100
AcDbText
 10
494.9225704002242
 20
317.9355894108488
 30
0.0
 40
1.0
  1
2:1
 41
0.8
 11
494.9225704002242
 21
318.4355894108488
 31
0.0
100
AcDbAttribute
  2
SCALE
 70
     0
 74
     2
  0
ATTRIB
  5
182B
330
1826
100
AcDbEntity
  8
3
100
AcDbText
 10
518.2175270410274
 20
317.9355894108488
 30
0.0
 40
1.0
  1
10-2-09
 41
0.8
 72
     1
 11
520.9032413267417
 21
318.4355894108488
 31
0.0
100
AcDbAttribute
  2
DATE
 70
     0
 74
     2
  0
ATTRIB
  5
182C
330
1826
100
AcDbEntity
  8
3
100
AcDbText
 10
526.2484794219798
 20
317.9355894108488
 30
0.0
 40
1.0
  1
WP
 72
     1
 11
527.1532413267417
 21
318.4355894108488
 31
0.0
100
AcDbAttribute
  2
INITIALS
 70
     0
 74
     2
  0
ATTRIB
  5
182D
330
1826
100
AcDbEntity
  8
3
100
AcDbText
 10
440.9032413267417
 20
333.3105894108488
 30
0.0
 40
1.25
  1

100
AcDbAttribute
  2
MATERIAL
 70
     0
  0
ATTRIB
  5
182E
330
1826
100
AcDbEntity
  8
3
100
AcDbText
 10
440.9032413267417
 20
328.3105894108488
 30
0.0
 40
1.25
  1

100
AcDbAttribute
  2
PRODUCTTREATMENT
 70
     0
  0
ATTRIB
  5
182F
330
1826
100
AcDbEntity
  8
3
100
AcDbText
 10
440.9032413267417
 20
323.3105894108488
 30
0.0
 40
1.25
  1

100
AcDbAttribute
  2
SEMIFINISHED_PRODUCT
 70
     0
  0
ATTRIB
  5
1830
330
1826
100
AcDbEntity
  8
3
100
AcDbText
 10
494.9032413267417
 20
315.1855894108487
 30
0.0
 40
1.0
  1
mm
 41
0.8
 11
494.9032413267417
 21
315.6855894108488
 31
0.0
100
AcDbAttribute
  2
UNITS
 70
     0
 74
     2
  0
ATTRIB
  5
1831
330
1826
100
AcDbEntity
  8
3
100
AcDbText
 10
520.9032413267417
 20
315.1855894108487
 30
0.0
 40
1.0
  1

 41
0.8
 72
     1
 11
520.9032413267417
 21
315.6855894108488
 31
0.0
100
AcDbAttribute
  2
DATE
 70
     0
 74
     2
  0
ATTRIB
  5
1832
330
1826
100
AcDbEntity
  8
3
100
AcDbText
 10
527.1532413267417
 20
315.1855894108487
 30
0.0
 40
1.0
  1

 72
     1
 11
527.1532413267417
 21
315.6855894108488
 31
0.0
100
AcDbAttribute
  2
INITIALS
 70
     0
 74
     2
  0
ATTRIB
  5
1833
330
1826
100
AcDbEntity
  8
3
100
AcDbText
 10
488.1532413267417
 20
323.0605894108488
 30
0.0
 40
1.0
  1

 72
     1
 11
488.1532413267417
 21
323.5605894108488
 31
0.0
100
AcDbAttribute
  2
REV1
 70
     0
 74
     2
  0
ATTRIB
  5
1834
330
1826
100
AcDbEntity
  8
3
100
AcDbText
 10
490.9032413267417
 20
323.0605894108488
 30
0.0
 40
1.0
  1

100
AcDbAttribute
  2
Change 1
 70
     0
  0
ATTRIB
  5
1835
330
1826
100
AcDbEntity
  8
3
100
AcDbText
 10
520.9032413267417
 20
323.0605894108488
 30
0.0
 40
1.0
  1

 41
0.8
 72
     1
 11
520.9032413267417
 21
323.5605894108488
 31
0.0
100
AcDbAttribute
  2
DATE 1
 70
     0
 74
     2
  0
ATTRIB
  5
1836
330
1826
100
AcDbEntity
  8
3
100
AcDbText
 10
527.1532413267417
 20
323.0605894108488
 30
0.0
 40
1.0
  1

 72
     1
 11
527.1532413267417
 21
323.5605894108488
 31
0.0
100
AcDbAttribute
  2
Initial1
 70
     0
 74
     2
  0
ATTRIB
  5
1837
330
1826
100
AcDbEntity
  8
3
100
AcDbText
 10
488.1532413267417
 20
325.5605894108488
 30
0.0
 40
1.0
  1

 72
     1
 11
488.1532413267417
 21
326.0605894108488
 31
0.0
100
AcDbAttribute
  2
Rev2
 70
     0
 74
     2
  0
ATTRIB
  5
1838
330
1826
100
AcDbEntity
  8
3
100
AcDbText
 10
490.9032413267417
 20
325.5605894108488
 30
0.0
 40
1.0
  1

100
AcDbAttribute
  2
Change 2
 70
     0
  0
ATTRIB
  5
1839
330
1826
100
AcDbEntity
  8
3
100
AcDbText
 10
520.9032413267417
 20
325.5605894108488
 30
0.0
 40
1.0
  1

 41
0.8
 72
     1
 11
520.9032413267417
 21
326.0605894108488
 31
0.0
100
AcDbAttribute
  2
Date 2
 70
     0
 74
     2
  0
ATTRIB
  5
183A
330
1826
100
AcDbEntity
  8
3
100
AcDbText
 10
527.1532413267417
 20
325.5605894108488
 30
0.0
 40
1.0
  1

 72
     1
 11
527.1532413267417
 21
326.0605894108488
 31
0.0
100
AcDbAttribute
  2
Initial2
 70
     0
 74
     2
  0
ATTRIB
  5
183B
330
1826
100
AcDbEntity
  8
3
100
AcDbText
 10
488.1532413267417
 20
328.0605894108488
 30
0.0
 40
1.0
  1

 72
     1
 11
488.1532413267417
 21
328.5605894108488
 31
0.0
100
AcDbAttribute
  2
Rev3
 70
     0
 74
     2
  0
ATTRIB
  5
183C
330
1826
100
AcDbEntity
  8
3
100
AcDbText
 10
490.9032413267417
 20
328.0605894108488
 30
0.0
 40
1.0
  1

100
AcDbAttribute
  2
Change 3
 70
     0
  0
ATTRIB
  5
183D
330
1826
100
AcDbEntity
  8
3
100
AcDbText
 10
520.9032413267417
 20
328.0605894108488
 30
0.0
 40
1.0
  1

 41
0.8
 72
     1
 11
520.9032413267417
 21
328.5605894108488
 31
0.0
100
AcDbAttribute
  2
Date 3
 70
     0
 74
     2
  0
ATTRIB
  5
183E
330
1826
100
AcDbEntity
  8
3
100
AcDbText
 10
527.1532413267417
 20
328.0605894108488
 30
0.0
 40
1.0
  1

 72
     1
 11
527.1532413267417
 21
328.5605894108488
 31
0.0
100
AcDbAttribute
  2
Initial3
 70
     0
 74
     2
  0
ATTRIB
  5
183F
330
1826
100
AcDbEntity
  8
3
100
AcDbText
 10
488.1532413267417
 20
330.5605894108488
 30
0.0
 40
1.0
  1

 72
     1
 11
488.1532413267417
 21
331.0605894108487
 31
0.0
100
AcDbAttribute
  2
Rev4
 70
     0
 74
     2
  0
ATTRIB
  5
1840
330
1826
100
AcDbEntity
  8
3
100
AcDbText
 10
490.9032413267417
 20
330.5605894108488
 30
0.0
 40
1.0
  1

100
AcDbAttribute
  2
Change 4
 70
     0
  0
ATTRIB
  5
1841
330
1826
100
AcDbEntity
  8
3
100
AcDbText
 10
520.9032413267417
 20
330.5605894108488
 30
0.0
 40
1.0
  1

 41
0.8
 72
     1
 11
520.9032413267417
 21
331.0605894108487
 31
0.0
100
AcDbAttribute
  2
Date 4
 70
     0
 74
     2
  0
ATTRIB
  5
1842
330
1826
100
AcDbEntity
  8
3
100
AcDbText
 10
527.1532413267417
 20
330.5605894108488
 30
0.0
 40
1.0
  1

 72
     1
 11
527.1532413267417
 21
331.0605894108487
 31
0.0
100
AcDbAttribute
  2
Initial4
 70
     0
 74
     2
  0
ATTRIB
  5
1843
330
1826
100
AcDbEntity
  8
3
100
AcDbText
 10
488.1532413267417
 20
333.0605894108487
 30
0.0
 40
1.0
  1

 72
     1
 11
488.1532413267417
 21
333.5605894108488
 31
0.0
100
AcDbAttribute
  2
Rev5
 70
     0
 74
     2
  0
ATTRIB
  5
1844
330
1826
100
AcDbEntity
  8
3
100
AcDbText
 10
490.9032413267417
 20
333.0605894108487
 30
0.0
 40
1.0
  1

100
AcDbAttribute
  2
Change 5
 70
     0
  0
ATTRIB
  5
1845
330
1826
100
AcDbEntity
  8
3
100
AcDbText
 10
520.9032413267417
 20
333.0605894108487
 30
0.0
 40
1.0
  1

 41
0.8
 72
     1
 11
520.9032413267417
 21
333.5605894108488
 31
0.0
100
AcDbAttribute
  2
Date 5
 70
     0
 74
     2
  0
ATTRIB
  5
1846
330
1826
100
AcDbEntity
  8
3
100
AcDbText
 10
527.1532413267417
 20
333.0605894108487
 30
0.0
 40
1.0
  1

 72
     1
 11
527.1532413267417
 21
333.5605894108488
 31
0.0
100
AcDbAttribute
  2
Initial5
 70
     0
 74
     2
  0
ATTRIB
  5
1847
330
1826
100
AcDbEntity
  8
3
100
AcDbText
 10
488.1532413267417
 20
335.5605894108488
 30
0.0
 40
1.0
  1

 72
     1
 11
488.1532413267417
 21
336.0605894108488
 31
0.0
100
AcDbAttribute
  2
Rev6
 70
     0
 74
     2
  0
ATTRIB
  5
1848
330
1826
100
AcDbEntity
  8
3
100
AcDbText
 10
490.9032413267417
 20
335.5605894108488
 30
0.0
 40
1.0
  1

100
AcDbAttribute
  2
Change 6
 70
     0
  0
ATTRIB
  5
1849
330
1826
100
AcDbEntity
  8
3
100
AcDbText
 10
520.9032413267417
 20
335.5605894108488
 30
0.0
 40
1.0
  1

 41
0.8
 72
     1
 11
520.9032413267417
 21
336.0605894108488
 31
0.0
100
AcDbAttribute
  2
Date 6
 70
     0
 74
     2
  0
ATTRIB
  5
184A
330
1826
100
AcDbEntity
  8
3
100
AcDbText
 10
527.1532413267417
 20
335.5605894108488
 30
0.0
 40
1.0
  1

 72
     1
 11
527.1532413267417
 21
336.0605894108488
 31
0.0
100
AcDbAttribute
  2
Initial6
 70
     0
 74
     2
  0
SEQEND
  5
184B
330
1826
100
AcDbEntity
  8
0
  0
DIMENSION
  5
1881
330
25
100
AcDbEntity
  8
0
100
AcDbDimension
  2
*D4
 10
461.3978371945115
 20
358.8103924477955
 30
0.0
 11
454.6578371945114
 21
360.0603924477955
 31
0.0
 70
    32
 71
     5
 42
13.47999999999996
  3
MCC
100
AcDbAlignedDimension
 13
447.9178371945114
 23
366.9317750851999
 33
0.0
 14
461.3978371945115
 24
366.9317750851998
 34
0.0
100
AcDbRotatedDimension
1001
ACAD
1000
DSTYLE
1002
{
1070
    40
1040
0.5
1002
}
  0
DIMENSION
  5
188E
330
25
100
AcDbEntity
  8
0
100
AcDbDimension
  2
*D5
 10
466.7228371945113
 20
354.6406861748752
 30
0.0
 11
454.6578371945114
 21
355.8906861748752
 31
0.0
 70
    32
 71
     5
 42
24.12999999999988
  3
MCC
100
AcDbAlignedDimension
 13
442.5928371945115
 23
369.9726557603665
 33
0.0
 14
466.7228371945113
 24
369.9726557603666
 34
0.0
100
AcDbRotatedDimension
1001
ACAD
1000
DSTYLE
1002
{
1070
    40
1040
0.5
1002
}
  0
ARC
  5
18AF
330
25
100
AcDbEntity
  8
HARTLIJN
100
AcDbCircle
 10
402.0179536583778
 20
392.4526557603666
 30
0.0
 40
29.09500000000026
100
AcDbArc
 50
80.84450821971872
 51
98.99470121146107
  0
ARC
  5
18B2
330
25
100
AcDbEntity
  8
HARTLIJN
100
AcDbCircle
 10
402.0179536583778
 20
392.4526557603666
 30
0.0
 40
29.09500000000026
100
AcDbArc
 50
261.0052987885389
 51
279.1554917802813
  0
DIMENSION
  5
18B4
330
25
100
AcDbEntity
  8
0
100
AcDbDimension
  2
*D6
 10
368.3586244114153
 20
363.4076557603667
 30
0.0
 11
367.1086244114152
 21
392.4526557603667
 31
0.0
 70
    32
 71
     5
 42
58.09000000000003
  3
MCC
100
AcDbAlignedDimension
 13
402.0179536583778
 23
421.4976557603666
 33
0.0
 14
402.0179536583778
 24
363.4076557603666
 34
0.0
 50
90.0
100
AcDbRotatedDimension
1001
ACAD
1000
DSTYLE
1002
{
1070
   271
1070
     1
1070
     3
1000
Pitch diameter %%C<>
1070
    40
1040
0.5
1002
}
  0
DIMENSION
  5
18C1
330
25
100
AcDbEntity
  8
0
100
AcDbDimension
  2
*D7
 10
363.5348270477914
 20
421.5476557603669
 30
0.0
 11
362.2848270477913
 21
392.4526557603667
 31
0.0
 70
    32
 71
     5
 42
58.19000000000051
  3
MCC
100
AcDbAlignedDimension
 13
402.0179536583778
 23
363.3576557603664
 33
0.0
 14
402.0179536583778
 24
421.5476557603668
 34
0.0
 50
90.0
100
AcDbRotatedDimension
1001
ACAD
1000
DSTYLE
1002
{
1070
   271
1070
     1
1070
     3
1000
Outside diameter %%C<>
1070
    40
1040
0.5
1002
}
  0
DIMENSION
  5
190B
330
25
100
AcDbEntity
  8
0
100
AcDbDimension
  2
*D8
 10
472.7778125005455
 20
369.2226557603665
 30
0.0
 11
471.5278125005454
 21
392.4526557603667
 31
0.0
 70
    32
 71
     5
 42
46.46000000000026
  3
MCC
100
AcDbAlignedDimension
 13
465.9728371945114
 23
415.6826557603667
 33
0.0
 14
465.9728371945114
 24
369.2226557603665
 34
0.0
 50
90.0
100
AcDbRotatedDimension
1001
ACAD
1000
DSTYLE
1002
{
1070
   271
1070
     1
1070
    40
1040
0.5
1002
}
  0
DIMENSION
  5
194B
330
25
100
AcDbEntity
  8
0
100
AcDbDimension
  2
*D9
 10
386.9429536583779
 20
358.7477423033373
 30
0.0
 11
402.0179536583778
 21
359.9977423033373
 31
0.0
 70
    32
 71
     5
 42
30.14999999999998
  3
MCC
100
AcDbAlignedDimension
 13
417.0929536583779
 23
392.4526557603666
 33
0.0
 14
386.9429536583779
 24
392.4526557603666
 34
0.0
100
AcDbRotatedDimension
1001
ACAD
1000
DSTYLE
1002
{
1070
     3
1000
%%C<>
1070
    40
1040
0.5
1002
}
  0
ARC
  5
1994
330
25
100
AcDbEntity
  8
0
100
AcDbCircle
 10
402.0179536583778
 20
392.4526557603666
 30
0.0
 40
15.075
100
AcDbArc
 50
105.4857284644743
 51
74.51427153552543
  0
LINE
  5
1996
330
25
100
AcDbEntity
  8
0
100
AcDbLine
 10
397.9929536583779
 20
410.8276557603666
 30
0.0
 11
406.0429536583779
 21
410.8276557603666
 31
0.0
  0
LINE
  5
1999
330
25
100
AcDbEntity
  8
0
100
AcDbLine
 10
406.0429536583779
 20
406.9803878614208
 30
0.0
 11
406.0429536583779
 21
410.8276557603666
 31
0.0
  0
LINE
  5
199A
330
25
100
AcDbEntity
  8
0
100
AcDbLine
 10
397.9929536583779
 20
406.9803878614208
 30
0.0
 11
397.9929536583779
 21
410.8276557603666
 31
0.0
  0
ARC
  5
199B
330
25
100
AcDbEntity
  8
0
100
AcDbCircle
 10
402.0179536583778
 20
392.4526557603666
 30
0.0
 40
16.075
100
AcDbArc
 50
104.500520699219
 51
75.4994793007808
  0
ARC
  5
19C8
330
25
100
AcDbEntity
  8
0
100
AcDbCircle
 10
401.4172532261738
 20
419.6660267200754
 30
0.0
 40
3.0
100
AcDbArc
 50
206.4068376602597
 51
271.2645258545178
  0
LINE
  5
19CA
330
25
100
AcDbEntity
  8
0
100
AcDbLine
 10
405.3056301642993
 20
418.3318005101431
 30
0.0
 11
406.413967218391
 21
420.5638621529057
 31
0.0
  0
ARC
  5
19CB
330
25
100
AcDbEntity
  8
0
100
AcDbCircle
 10
402.6186540905819
 20
419.6660267200754
 30
0.0
 40
3.0
100
AcDbArc
 50
268.7354741454822
 51
333.5931623397403
  0
ARC
  5
19CC
330
25
100
AcDbEntity
  8
0
100
AcDbCircle
 10
396.8158472762496
 20
420.1635942899259
 30
0.0
 40
0.9
100
AcDbArc
 50
26.40683766025873
 51
100.6322491913565
  0
ARC
  5
19CD
330
25
100
AcDbEntity
  8
0
100
AcDbCircle
 10
407.2200600405061
 20
420.163594289926
 30
0.0
 40
0.9
100
AcDbArc
 50
79.36775080864283
 51
153.593162339738
  0
ARC
  5
19CE
330
25
100
AcDbEntity
  8
0
100
AcDbCircle
 10
402.0179536583778
 20
392.4526557603666
 30
0.0
 40
24.22
100
AcDbArc
 50
118.7354741454828
 51
121.2645258545171
  0
ARC
  5
19CF
330
25
100
AcDbEntity
  8
0
100
AcDbCircle
 10
388.9314900128765
 20
416.3204765501862
 30
0.0
 40
3.0
100
AcDbArc
 50
298.7354741454822
 51
3.593162339740327
  0
ARC
  5
19D0
330
25
100
AcDbEntity
  8
0
100
AcDbCircle
 10
387.8910463441705
 20
415.7197761179821
 30
0.0
 40
3.0
100
AcDbArc
 50
236.4068376602597
 51
301.2645258545179
  0
ARC
  5
19D1
330
25
100
AcDbEntity
  8
0
100
AcDbCircle
 10
392.6676406737104
 20
419.0520856807381
 30
0.0
 40
0.9
100
AcDbArc
 50
109.3677508086428
 51
183.593162339738
  0
LINE
  5
19D2
330
25
100
AcDbEntity
  8
0
100
AcDbLine
 10
386.2311699099365
 20
413.220814288927
 30
0.0
 11
384.1552910437562
 21
414.5996678473265
 31
0.0
  0
ARC
  5
19D3
330
25
100
AcDbEntity
  8
0
100
AcDbCircle
 10
383.657328113486
 20
413.8499792986098
 30
0.0
 40
0.9
100
AcDbArc
 50
56.40683766025873
 51
130.6322491913565
  0
LINE
  5
19D4
330
25
100
AcDbEntity
  8
0
100
AcDbLine
 10
391.9255926570428
 20
416.5084907948483
 30
0.0
 11
391.7694098804606
 21
418.9956814073395
 31
0.0
  0
ARC
  5
19D5
330
25
100
AcDbEntity
  8
0
100
AcDbCircle
 10
402.0179536583779
 20
392.4526557603666
 30
0.0
 40
24.22
100
AcDbArc
 50
148.7354741454828
 51
151.2645258545171
  0
ARC
  5
19D6
330
25
100
AcDbEntity
  8
0
100
AcDbCircle
 10
378.7508333007624
 20
406.579563074574
 30
0.0
 40
3.0
100
AcDbArc
 50
328.7354741454822
 51
33.5931623397403
  0
ARC
  5
19D7
330
25
100
AcDbEntity
  8
0
100
AcDbCircle
 10
378.1501328685583
 20
405.539119405868
 30
0.0
 40
3.0
100
AcDbArc
 50
266.4068376602597
 51
331.2645258545178
  0
ARC
  5
19D8
330
25
100
AcDbEntity
  8
0
100
AcDbCircle
 10
380.6206301201346
 20
410.8132813052584
 30
0.0
 40
0.9
100
AcDbArc
 50
139.3677508086428
 51
213.593162339738
  0
LINE
  5
19D9
330
25
100
AcDbEntity
  8
0
100
AcDbLine
 10
377.9621186238961
 20
402.5450167617016
 30
0.0
 11
375.474928011405
 21
402.701199538284
 31
0.0
  0
ARC
  5
19DA
330
25
100
AcDbEntity
  8
0
100
AcDbCircle
 10
375.4185237380064
 20
401.802968745034
 30
0.0
 40
0.9
100
AcDbArc
 50
86.40683766025873
 51
160.6322491913565
  0
LINE
  5
19DB
330
25
100
AcDbEntity
  8
0
100
AcDbLine
 10
381.2497951298175
 20
408.2394395088081
 30
0.0
 11
379.8709415714181
 21
410.3153183749884
 31
0.0
  0
ARC
  5
19DC
330
25
100
AcDbEntity
  8
0
100
AcDbCircle
 10
402.0179536583778
 20
392.4526557603667
 30
0.0
 40
24.22
100
AcDbArc
 50
178.7354741454828
 51
181.2645258545172
  0
ARC
  5
19DD
330
25
100
AcDbEntity
  8
0
100
AcDbCircle
 10
374.804582698669
 20
393.0533561925707
 30
0.0
 40
3.0
100
AcDbArc
 50
358.7354741454821
 51
63.59316233974027
  0
ARC
  5
19DE
330
25
100
AcDbEntity
  8
0
100
AcDbCircle
 10
374.804582698669
 20
391.8519553281626
 30
0.0
 40
3.0
100
AcDbArc
 50
296.4068376602597
 51
1.264525854517817
  0
ARC
  5
19DF
330
25
100
AcDbEntity
  8
0
100
AcDbCircle
 10
374.3070151288185
 20
397.6547621424949
 30
0.0
 40
0.9
100
AcDbArc
 50
169.3677508086428
 51
243.593162339738
  0
LINE
  5
19E0
330
25
100
AcDbEntity
  8
0
100
AcDbLine
 10
376.1388089086014
 20
389.1649792544452
 30
0.0
 11
373.9067472658388
 21
388.0566422003536
 31
0.0
  0
ARC
  5
19E1
330
25
100
AcDbEntity
  8
0
100
AcDbCircle
 10
374.3070151288185
 20
387.2505493782384
 30
0.0
 40
0.9
100
AcDbArc
 50
116.4068376602587
 51
190.6322491913565
  0
LINE
  5
19E2
330
25
100
AcDbEntity
  8
0
100
AcDbLine
 10
376.1388089086014
 20
395.740332266288
 30
0.0
 11
373.9067472658387
 21
396.8486693203797
 31
0.0
  0
ARC
  5
19E3
330
25
100
AcDbEntity
  8
0
100
AcDbCircle
 10
402.017953658378
 20
392.4526557603667
 30
0.0
 40
24.22
100
AcDbArc
 50
208.7354741454829
 51
211.2645258545172
  0
ARC
  5
19E4
330
25
100
AcDbEntity
  8
0
100
AcDbCircle
 10
378.1501328685583
 20
379.3661921148653
 30
0.0
 40
3.0
100
AcDbArc
 50
28.73547414548216
 51
93.59316233974032
  0
ARC
  5
19E5
330
25
100
AcDbEntity
  8
0
100
AcDbCircle
 10
378.7508333007624
 20
378.3257484461593
 30
0.0
 40
3.0
100
AcDbArc
 50
326.4068376602597
 51
31.26452585451779
  0
ARC
  5
19E6
330
25
100
AcDbEntity
  8
0
100
AcDbCircle
 10
375.4185237380065
 20
383.1023427756993
 30
0.0
 40
0.9
100
AcDbArc
 50
199.3677508086428
 51
273.5931623397381
  0
LINE
  5
19E7
330
25
100
AcDbEntity
  8
0
100
AcDbLine
 10
381.2497951298175
 20
376.6658720119252
 30
0.0
 11
379.870941571418
 21
374.5899931457449
 31
0.0
  0
ARC
  5
19E8
330
25
100
AcDbEntity
  8
0
100
AcDbCircle
 10
380.6206301201347
 20
374.0920302154748
 30
0.0
 40
0.9
100
AcDbArc
 50
146.4068376602587
 51
220.6322491913565
  0
LINE
  5
19E9
330
25
100
AcDbEntity
  8
0
100
AcDbLine
 10
377.9621186238961
 20
382.3602947590316
 30
0.0
 11
375.4749280114049
 21
382.2041119824493
 31
0.0
  0
ARC
  5
19EA
330
25
100
AcDbEntity
  8
0
100
AcDbCircle
 10
402.017953658378
 20
392.4526557603666
 30
0.0
 40
24.22
100
AcDbArc
 50
238.7354741454828
 51
241.2645258545171
  0
ARC
  5
19EB
330
25
100
AcDbEntity
  8
0
100
AcDbCircle
 10
387.8910463441706
 20
369.185535402751
 30
0.0
 40
3.0
100
AcDbArc
 50
58.73547414548213
 51
123.5931623397403
  0
ARC
  5
19EC
330
25
100
AcDbEntity
  8
0
100
AcDbCircle
 10
388.9314900128766
 20
368.5848349705469
 30
0.0
 40
3.0
100
AcDbArc
 50
356.4068376602597
 51
61.26452585451784
  0
ARC
  5
19ED
330
25
100
AcDbEntity
  8
0
100
AcDbCircle
 10
383.6573281134861
 20
371.0553322221232
 30
0.0
 40
0.9
100
AcDbArc
 50
229.3677508086428
 51
303.593162339738
  0
LINE
  5
19EE
330
25
100
AcDbEntity
  8
0
100
AcDbLine
 10
391.9255926570429
 20
368.3968207258847
 30
0.0
 11
391.7694098804606
 21
365.9096301133937
 31
0.0
  0
ARC
  5
19EF
330
25
100
AcDbEntity
  8
0
100
AcDbCircle
 10
392.6676406737106
 20
365.853225839995
 30
0.0
 40
0.9
100
AcDbArc
 50
176.4068376602587
 51
250.6322491913564
  0
LINE
  5
19F0
330
25
100
AcDbEntity
  8
0
100
AcDbLine
 10
386.2311699099365
 20
371.6844972318061
 30
0.0
 11
384.1552910437562
 21
370.3056436734067
 31
0.0
  0
ARC
  5
19F1
330
25
100
AcDbEntity
  8
0
100
AcDbCircle
 10
402.0179536583778
 20
392.4526557603666
 30
0.0
 40
24.22
100
AcDbArc
 50
268.7354741454828
 51
271.2645258545171
  0
ARC
  5
19F2
330
25
100
AcDbEntity
  8
0
100
AcDbCircle
 10
401.4172532261738
 20
365.2392848006578
 30
0.0
 40
3.0
100
AcDbArc
 50
88.73547414548218
 51
153.5931623397402
  0
ARC
  5
19F3
330
25
100
AcDbEntity
  8
0
100
AcDbCircle
 10
402.6186540905819
 20
365.2392848006578
 30
0.0
 40
3.0
100
AcDbArc
 50
26.40683766025964
 51
91.26452585451783
  0
ARC
  5
19F4
330
25
100
AcDbEntity
  8
0
100
AcDbCircle
 10
396.8158472762496
 20
364.7417172308072
 30
0.0
 40
0.9
100
AcDbArc
 50
259.3677508086428
 51
333.593162339738
  0
LINE
  5
19F5
330
25
100
AcDbEntity
  8
0
100
AcDbLine
 10
405.3056301642993
 20
366.5735110105901
 30
0.0
 11
406.4139672183909
 21
364.3414493678275
 31
0.0
  0
ARC
  5
19F6
330
25
100
AcDbEntity
  8
0
100
AcDbCircle
 10
407.2200600405062
 20
364.7417172308073
 30
0.0
 40
0.9
100
AcDbArc
 50
206.4068376602587
 51
280.6322491913565
  0
LINE
  5
19F7
330
25
100
AcDbEntity
  8
0
100
AcDbLine
 10
398.7302771524565
 20
366.5735110105901
 30
0.0
 11
397.6219400983648
 21
364.3414493678275
 31
0.0
  0
ARC
  5
19F8
330
25
100
AcDbEntity
  8
0
100
AcDbCircle
 10
402.0179536583778
 20
392.4526557603666
 30
0.0
 40
24.22
100
AcDbArc
 50
298.7354741454828
 51
301.2645258545171
  0
ARC
  5
19F9
330
25
100
AcDbEntity
  8
0
100
AcDbCircle
 10
415.1044173038792
 20
368.584834970547
 30
0.0
 40
3.0
100
AcDbArc
 50
118.7354741454821
 51
183.5931623397402
  0
ARC
  5
19FA
330
25
100
AcDbEntity
  8
0
100
AcDbCircle
 10
416.1448609725853
 20
369.1855354027511
 30
0.0
 40
3.0
100
AcDbArc
 50
56.40683766025965
 51
121.2645258545178
  0
ARC
  5
19FB
330
25
100
AcDbEntity
  8
0
100
AcDbCircle
 10
411.3682666430453
 20
365.853225839995
 30
0.0
 40
0.9
100
AcDbArc
 50
289.3677508086428
 51
3.593162339738011
  0
LINE
  5
19FC
330
25
100
AcDbEntity
  8
0
100
AcDbLine
 10
417.8047374068192
 20
371.6844972318061
 30
0.0
 11
419.8806162729995
 21
370.3056436734067
 31
0.0
  0
ARC
  5
19FD
330
25
100
AcDbEntity
  8
0
100
AcDbCircle
 10
420.3785792032697
 20
371.0553322221234
 30
0.0
 40
0.9
100
AcDbArc
 50
236.4068376602587
 51
310.6322491913565
  0
LINE
  5
19FE
330
25
100
AcDbEntity
  8
0
100
AcDbLine
 10
412.1103146597128
 20
368.3968207258847
 30
0.0
 11
412.2664974362952
 21
365.9096301133936
 31
0.0
  0
ARC
  5
19FF
330
25
100
AcDbEntity
  8
0
100
AcDbCircle
 10
402.0179536583778
 20
392.4526557603667
 30
0.0
 40
24.22
100
AcDbArc
 50
328.7354741454828
 51
331.2645258545172
  0
ARC
  5
1A00
330
25
100
AcDbEntity
  8
0
100
AcDbCircle
 10
425.2850740159934
 20
378.3257484461592
 30
0.0
 40
3.0
100
AcDbArc
 50
148.7354741454821
 51
213.5931623397403
  0
ARC
  5
1A01
330
25
100
AcDbEntity
  8
0
100
AcDbCircle
 10
425.8857744481974
 20
379.3661921148652
 30
0.0
 40
3.0
100
AcDbArc
 50
86.40683766025967
 51
151.2645258545178
  0
ARC
  5
1A02
330
25
100
AcDbEntity
  8
0
100
AcDbCircle
 10
423.4152771966212
 20
374.0920302154747
 30
0.0
 40
0.9
100
AcDbArc
 50
319.3677508086428
 51
33.59316233973803
  0
LINE
  5
1A03
330
25
100
AcDbEntity
  8
0
100
AcDbLine
 10
426.0737886928597
 20
382.3602947590316
 30
0.0
 11
428.5609793053508
 21
382.2041119824493
 31
0.0
  0
ARC
  5
1A04
330
25
100
AcDbEntity
  8
0
100
AcDbCircle
 10
428.6173835787495
 20
383.1023427756993
 30
0.0
 40
0.9
100
AcDbArc
 50
266.4068376602587
 51
340.6322491913564
  0
LINE
  5
1A05
330
25
100
AcDbEntity
  8
0
100
AcDbLine
 10
422.7861121869383
 20
376.6658720119252
 30
0.0
 11
424.1649657453377
 21
374.5899931457449
 31
0.0
  0
ARC
  5
1A06
330
25
100
AcDbEntity
  8
0
100
AcDbCircle
 10
402.0179536583778
 20
392.4526557603666
 30
0.0
 40
24.22
100
AcDbArc
 50
358.7354741454829
 51
1.264525854517147
  0
ARC
  5
1A07
330
25
100
AcDbEntity
  8
0
100
AcDbCircle
 10
429.2313246180866
 20
391.8519553281625
 30
0.0
 40
3.0
100
AcDbArc
 50
178.7354741454822
 51
243.5931623397403
  0
ARC
  5
1A08
330
25
100
AcDbEntity
  8
0
100
AcDbCircle
 10
429.2313246180866
 20
393.0533561925706
 30
0.0
 40
3.0
100
AcDbArc
 50
116.4068376602596
 51
181.2645258545178
  0
ARC
  5
1A09
330
25
100
AcDbEntity
  8
0
100
AcDbCircle
 10
429.7288921879372
 20
387.2505493782383
 30
0.0
 40
0.9
100
AcDbArc
 50
349.3677508086428
 51
63.59316233973803
  0
LINE
  5
1A0A
330
25
100
AcDbEntity
  8
0
100
AcDbLine
 10
427.8970984081544
 20
395.740332266288
 30
0.0
 11
430.129160050917
 21
396.8486693203796
 31
0.0
  0
ARC
  5
1A0B
330
25
100
AcDbEntity
  8
0
100
AcDbCircle
 10
429.7288921879371
 20
397.6547621424949
 30
0.0
 40
0.9
100
AcDbArc
 50
296.4068376602588
 51
10.63224919135648
  0
LINE
  5
1A0C
330
25
100
AcDbEntity
  8
0
100
AcDbLine
 10
427.8970984081544
 20
389.1649792544452
 30
0.0
 11
430.129160050917
 21
388.0566422003535
 31
0.0
  0
ARC
  5
1A0D
330
25
100
AcDbEntity
  8
0
100
AcDbCircle
 10
402.0179536583779
 20
392.4526557603666
 30
0.0
 40
24.22
100
AcDbArc
 50
28.73547414548284
 51
31.26452585451716
  0
ARC
  5
1A0E
330
25
100
AcDbEntity
  8
0
100
AcDbCircle
 10
425.8857744481975
 20
405.5391194058679
 30
0.0
 40
3.0
100
AcDbArc
 50
208.7354741454822
 51
273.5931623397403
  0
ARC
  5
1A0F
330
25
100
AcDbEntity
  8
0
100
AcDbCircle
 10
425.2850740159934
 20
406.579563074574
 30
0.0
 40
3.0
100
AcDbArc
 50
146.4068376602597
 51
211.2645258545178
  0
ARC
  5
1A10
330
25
100
AcDbEntity
  8
0
100
AcDbCircle
 10
428.6173835787495
 20
401.802968745034
 30
0.0
 40
0.9
100
AcDbArc
 50
19.36775080864283
 51
93.59316233973805
  0
LINE
  5
1A11
330
25
100
AcDbEntity
  8
0
100
AcDbLine
 10
422.7861121869384
 20
408.239439508808
 30
0.0
 11
424.1649657453377
 21
410.3153183749882
 31
0.0
  0
ARC
  5
1A12
330
25
100
AcDbEntity
  8
0
100
AcDbCircle
 10
423.4152771966212
 20
410.8132813052584
 30
0.0
 40
0.9
100
AcDbArc
 50
326.4068376602587
 51
40.6322491913565
  0
LINE
  5
1A13
330
25
100
AcDbEntity
  8
0
100
AcDbLine
 10
426.0737886928597
 20
402.5450167617016
 30
0.0
 11
428.5609793053509
 21
402.701199538284
 31
0.0
  0
ARC
  5
1A14
330
25
100
AcDbEntity
  8
0
100
AcDbCircle
 10
402.0179536583779
 20
392.4526557603666
 30
0.0
 40
24.22
100
AcDbArc
 50
58.73547414548286
 51
61.26452585451718
  0
ARC
  5
1A15
330
25
100
AcDbEntity
  8
0
100
AcDbCircle
 10
416.1448609725852
 20
415.719776117982
 30
0.0
 40
3.0
100
AcDbArc
 50
238.7354741454822
 51
303.5931623397403
  0
ARC
  5
1A16
330
25
100
AcDbEntity
  8
0
100
AcDbCircle
 10
415.1044173038793
 20
416.3204765501862
 30
0.0
 40
3.0
100
AcDbArc
 50
176.4068376602597
 51
241.2645258545178
  0
ARC
  5
1A17
330
25
100
AcDbEntity
  8
0
100
AcDbCircle
 10
420.3785792032698
 20
413.8499792986099
 30
0.0
 40
0.9
100
AcDbArc
 50
49.36775080864285
 51
123.593162339738
  0
LINE
  5
1A18
330
25
100
AcDbEntity
  8
0
100
AcDbLine
 10
412.110314659713
 20
416.5084907948483
 30
0.0
 11
412.2664974362952
 21
418.9956814073394
 31
0.0
  0
ARC
  5
1A19
330
25
100
AcDbEntity
  8
0
100
AcDbCircle
 10
411.3682666430453
 20
419.0520856807381
 30
0.0
 40
0.9
100
AcDbArc
 50
356.4068376602587
 51
70.63224919135652
  0
LINE
  5
1A1A
330
25
100
AcDbEntity
  8
0
100
AcDbLine
 10
417.8047374068194
 20
413.220814288927
 30
0.0
 11
419.8806162729996
 21
414.5996678473264
 31
0.0
  0
ARC
  5
1A1B
330
25
100
AcDbEntity
  8
0
100
AcDbCircle
 10
402.017953658378
 20
392.4526557603667
 30
0.0
 40
29.095
100
AcDbArc
 50
130.6322491913583
 51
139.3677508086419
  0
ARC
  5
1A1C
330
25
100
AcDbEntity
  8
0
100
AcDbCircle
 10
402.017953658378
 20
392.4526557603667
 30
0.0
 40
29.095
100
AcDbArc
 50
160.6322491913583
 51
169.3677508086419
  0
ARC
  5
1A1D
330
25
100
AcDbEntity
  8
0
100
AcDbCircle
 10
402.0179536583778
 20
392.4526557603667
 30
0.0
 40
29.095
100
AcDbArc
 50
190.6322491913583
 51
199.3677508086419
  0
ARC
  5
1A1E
330
25
100
AcDbEntity
  8
0
100
AcDbCircle
 10
402.0179536583779
 20
392.4526557603668
 30
0.0
 40
29.095
100
AcDbArc
 50
220.6322491913584
 51
229.3677508086419
  0
ARC
  5
1A1F
330
25
100
AcDbEntity
  8
0
100
AcDbCircle
 10
402.0179536583779
 20
392.4526557603666
 30
0.0
 40
29.095
100
AcDbArc
 50
250.6322491913584
 51
259.3677508086419
  0
ARC
  5
1A20
330
25
100
AcDbEntity
  8
0
100
AcDbCircle
 10
402.0179536583778
 20
392.4526557603666
 30
0.0
 40
29.095
100
AcDbArc
 50
280.6322491913583
 51
289.3677508086419
  0
ARC
  5
1A21
330
25
100
AcDbEntity
  8
0
100
AcDbCircle
 10
402.0179536583778
 20
392.4526557603666
 30
0.0
 40
29.095
100
AcDbArc
 50
310.6322491913583
 51
319.3677508086419
  0
ARC
  5
1A22
330
25
100
AcDbEntity
  8
0
100
AcDbCircle
 10
402.0179536583778
 20
392.4526557603666
 30
0.0
 40
29.095
100
AcDbArc
 50
340.6322491913584
 51
349.3677508086419
  0
ARC
  5
1A23
330
25
100
AcDbEntity
  8
0
100
AcDbCircle
 10
402.0179536583778
 20
392.4526557603665
 30
0.0
 40
29.095
100
AcDbArc
 50
10.63224919135834
 51
19.3677508086419
  0
ARC
  5
1A24
330
25
100
AcDbEntity
  8
0
100
AcDbCircle
 10
402.0179536583779
 20
392.4526557603665
 30
0.0
 40
29.095
100
AcDbArc
 50
40.63224919135835
 51
49.36775080864192
  0
ARC
  5
1A25
330
25
100
AcDbEntity
  8
0
100
AcDbCircle
 10
402.017953658378
 20
392.4526557603666
 30
0.0
 40
29.095
100
AcDbArc
 50
70.63224919135837
 51
79.36775080864194
  0
ARC
  5
1A26
330
25
100
AcDbEntity
  8
0
100
AcDbCircle
 10
402.017953658378
 20
392.4526557603667
 30
0.0
 40
26.095
100
AcDbArc
 50
127.2460480024847
 51
142.3370359686763
  0
ARC
  5
1A27
330
25
100
AcDbEntity
  8
0
100
AcDbCircle
 10
402.017953658378
 20
392.4526557603667
 30
0.0
 40
26.095
100
AcDbArc
 50
157.2460480024847
 51
172.3370359686763
  0
ARC
  5
1A28
330
25
100
AcDbEntity
  8
0
100
AcDbCircle
 10
402.0179536583778
 20
392.4526557603667
 30
0.0
 40
26.095
100
AcDbArc
 50
187.2460480024847
 51
202.3370359686763
  0
ARC
  5
1A29
330
25
100
AcDbEntity
  8
0
100
AcDbCircle
 10
402.0179536583779
 20
392.4526557603668
 30
0.0
 40
26.095
100
AcDbArc
 50
217.2460480024847
 51
232.3370359686764
  0
ARC
  5
1A2A
330
25
100
AcDbEntity
  8
0
100
AcDbCircle
 10
402.0179536583779
 20
392.4526557603666
 30
0.0
 40
26.095
100
AcDbArc
 50
247.2460480024847
 51
262.3370359686763
  0
ARC
  5
1A2B
330
25
100
AcDbEntity
  8
0
100
AcDbCircle
 10
402.0179536583778
 20
392.4526557603666
 30
0.0
 40
26.095
100
AcDbArc
 50
277.2460480024847
 51
292.3370359686763
  0
ARC
  5
1A2C
330
25
100
AcDbEntity
  8
0
100
AcDbCircle
 10
402.0179536583778
 20
392.4526557603666
 30
0.0
 40
26.095
100
AcDbArc
 50
307.2460480024846
 51
322.3370359686763
  0
ARC
  5
1A2D
330
25
100
AcDbEntity
  8
0
100
AcDbCircle
 10
402.0179536583778
 20
392.4526557603666
 30
0.0
 40
26.095
100
AcDbArc
 50
337.2460480024847
 51
352.3370359686763
  0
ARC
  5
1A2E
330
25
100
AcDbEntity
  8
0
100
AcDbCircle
 10
402.0179536583778
 20
392.4526557603665
 30
0.0
 40
26.095
100
AcDbArc
 50
7.246048002484704
 51
22.33703596867634
  0
ARC
  5
1A2F
330
25
100
AcDbEntity
  8
0
100
AcDbCircle
 10
402.0179536583779
 20
392.4526557603665
 30
0.0
 40
26.095
100
AcDbArc
 50
37.24604800248472
 51
52.33703596867636
  0
ARC
  5
1A30
330
25
100
AcDbEntity
  8
0
100
AcDbCircle
 10
402.017953658378
 20
392.4526557603666
 30
0.0
 40
26.095
100
AcDbArc
 50
67.24604800248474
 51
82.33703596867638
  0
ENDSEC
  0
SECTION
  2
OBJECTS
  0
DICTIONARY
  5
19
330
0
100
AcDbDictionary
281
     1
  3
ACAD_COLOR
350
4D1
  3
ACAD_GROUP
350
1A
  3
ACAD_LAYOUT
350
319
  3
ACAD_MATERIAL
350
4D0
  3
ACAD_MLINESTYLE
350
1B
  3
ACAD_PLOTSETTINGS
350
31A
  3
ACAD_PLOTSTYLENAME
350
317
  3
ACAD_TABLESTYLE
350
4D2
  3
ACDBHEADERROUNDTRIPXREC
350
1A4D
  3
AcDbVariableDictionary
350
12E2
  0
DICTIONARY
  5
DFD
330
F
100
AcDbDictionary
280
     1
281
     1
  3
ACAD_LAYERFILTERS
360
E01
  3
ACLYDICTIONARY
360
E00
  0
DICTIONARY
  5
35F
330
25
100
AcDbDictionary
280
     1
281
     1
  3
ACAD_LAYOUTSELFREF
360
46A
  3
ACAD_SORTENTS
360
4E7
  0
DICTIONARY
  5
35D
330
22
100
AcDbDictionary
280
     1
281
     1
  3
ACAD_LAYOUTSELFREF
360
469
  0
DICTIONARY
  5
10F3
330
106E
100
AcDbDictionary
280
     1
281
     1
  0
DICTIONARY
  5
4D1
102
{ACAD_REACTORS
330
19
102
}
330
19
100
AcDbDictionary
281
     1
  0
DICTIONARY
  5
1A
102
{ACAD_REACTORS
330
19
102
}
330
19
100
AcDbDictionary
281
     1
  0
DICTIONARY
  5
319
102
{ACAD_REACTORS
330
19
102
}
330
19
100
AcDbDictionary
281
     1
  3
Layout1
350
31C
  3
Model
350
31B
  0
DICTIONARY
  5
4D0
102
{ACAD_REACTORS
330
19
102
}
330
19
100
AcDbDictionary
281
     1
  0
DICTIONARY
  5
1B
102
{ACAD_REACTORS
330
19
102
}
330
19
100
AcDbDictionary
281
     1
  3
STANDARD
350
28
  0
DICTIONARY
  5
31A
102
{ACAD_REACTORS
330
19
102
}
330
19
100
AcDbDictionary
281
     1
  3
A3
350
1069
  3
A3 op A4
350
106A
  3
A3-PDF
350
106B
  3
A4
350
106C
  3
A4-PDF
350
106D
  0
ACDBDICTIONARYWDFLT
  5
317
102
{ACAD_REACTORS
330
19
102
}
330
19
100
AcDbDictionary
281
     1
  3
Normal
350
318
100
AcDbDictionaryWithDefault
340
318
  0
DICTIONARY
  5
4D2
102
{ACAD_REACTORS
330
19
102
}
330
19
100
AcDbDictionary
281
     1
  3
Standard
350
4D3
  0
DICTIONARY
  5
1A4D
102
{ACAD_REACTORS
330
19
102
}
330
19
100
AcDbDictionary
281
     1
  0
DICTIONARY
  5
12E2
102
{ACAD_REACTORS
330
19
102
}
330
19
100
AcDbDictionary
281
     1
  3
CTABLESTYLE
350
12E3
  3
DIMASSOC
350
12E4
  3
PROJECTNAME
350
12E5
  0
DICTIONARY
  5
E01
102
{ACAD_REACTORS
330
DFD
102
}
330
DFD
100
AcDbDictionary
281
     1
  0
DICTIONARY
  5
E00
102
{ACAD_REACTORS
330
DFD
102
}
330
DFD
100
AcDbDictionary
281
     1
1001
ACAD
1000
<All
  0
XRECORD
  5
46A
102
{ACAD_REACTORS
330
35F
102
}
330
35F
100
AcDbXrecord
280
     1
340
25
  0
SORTENTSTABLE
  5
4E7
102
{ACAD_REACTORS
330
35F
102
}
330
35F
100
AcDbSortentsTable
330
25
331
16CC
  5
16F6
331
1723
  5
1733
331
A80
  5
A80
331
172B
  5
173B
331
1733
  5
1743
331
16EC
  5
1712
331
19CD
  5
1659
331
173B
  5
175B
331
170C
  5
171C
331
1743
  5
18B4
331
1714
  5
1724
331
171C
  5
172C
331
16C5
  5
16D7
331
175B
  5
16F1
331
1996
  5
19CC
331
A81
  5
A81
331
1724
  5
1734
331
16D5
  5
170D
331
172C
  5
173C
331
1734
  5
1744
331
1656
  5
1669
331
16F5
  5
1717
331
173C
  5
1826
331
170D
  5
171D
331
1744
  5
18C1
331
1715
  5
1725
331
A42
  5
A42
331
16B6
  5
16D2
331
171D
  5
172D
331
A82
  5
A82
331
16CE
  5
16F7
331
1725
  5
1735
331
16D6
  5
170C
331
172D
  5
173D
331
1735
  5
1745
331
18C1
  5
199B
331
D
  5
D
331
16F6
  5
1718
331
173D
  5
1874
331
170E
  5
171E
331
1745
  5
190B
331
9AB
  5
9AB
331
1716
  5
1726
331
A43
  5
A43
331
171E
  5
172E
331
16C7
  5
16F2
331
16CF
  5
1708
331
1726
  5
1736
331
A83
  5
A83
331
16D7
  5
16D6
331
172E
  5
173E
331
1736
  5
1746
331
16EF
  5
1713
331
18B2
  5
1999
331
19C8
  5
1656
331
6
  5
6
331
1650
  5
1650
331
16F7
  5
1719
331
173E
  5
1881
331
16A8
  5
16C2
331
170F
  5
171F
331
1746
  5
1943
331
9AC
  5
9AC
331
1717
  5
1727
331
171F
  5
172F
331
1999
  5
1665
331
16C8
  5
16F5
331
16D0
  5
16D8
331
1727
  5
1737
331
1826
  5
1994
331
A84
  5
A84
331
16D8
  5
170E
331
172F
  5
173F
331
1737
  5
1747
331
16F0
  5
1714
331
1708
  5
171A
331
173F
  5
188E
331
1710
  5
1720
331
1747
  5
1945
331
1718
  5
1728
331
16C1
  5
16D3
331
188E
  5
1997
331
199A
  5
1666
331
190B
  5
19C7
331
1720
  5
1730
331
16D1
  5
16DB
331
1728
  5
1738
331
16D9
  5
170F
331
1730
  5
1740
331
18B4
  5
199A
331
19CA
  5
19CD
331
194B
  5
19C8
331
16F1
  5
1715
331
1738
  5
1748
331
1652
  5
1663
331
1709
  5
171B
331
1740
  5
189B
331
1711
  5
1721
331
1748
  5
1946
331
1719
  5
1729
331
16C2
  5
16EF
331
199B
  5
19CB
331
16CA
  5
16D9
331
1721
  5
1731
331
16D2
  5
1709
331
1729
  5
1739
331
16DA
  5
1710
331
1731
  5
1741
331
18AF
  5
1998
331
19CB
  5
1655
331
16F2
  5
1716
331
1739
  5
1749
331
1653
  5
1667
331
1741
  5
189C
331
1712
  5
1722
331
1749
  5
1947
331
171A
  5
172A
331
16C3
  5
16F0
331
1994
  5
19CA
331
16CB
  5
16EC
331
1722
  5
1732
331
A7F
  5
A7F
331
16D3
  5
16D5
331
172A
  5
173A
331
16DB
  5
1711
331
1732
  5
1742
331
19CC
  5
16D1
331
173A
  5
174A
331
1742
  5
18AF
331
1713
  5
1723
331
174A
  5
194B
331
1881
  5
1996
331
171B
  5
172B
331
16C4
  5
16DA
  0
XRECORD
  5
469
102
{ACAD_REACTORS
330
35D
102
}
330
35D
100
AcDbXrecord
280
     1
340
22
  0
LAYOUT
  5
31C
102
{ACAD_XDICTIONARY
360
1A50
102
}
102
{ACAD_REACTORS
330
319
102
}
330
319
100
AcDbPlotSettings
  1

  2
C:\PROGRAM FILES\AUTOCAD LT 2000I\plotters\A3 LaserJet 4V.pc3
  4

  6

 40
0.0
 41
0.0
 42
0.0
 43
0.0
 44
0.0
 45
0.0
 46
0.0
 47
0.0
 48
0.0
 49
0.0
140
0.0
141
0.0
142
1.0
143
1.0
 70
   688
 72
     0
 73
     0
 74
     5
  7
MCC.ctb
 75
    16
147
1.0
148
0.0
149
0.0
100
AcDbLayout
  1
Layout1
 70
     0
 71
     1
 10
0.0
 20
0.0
 11
12.0
 21
9.0
 12
0.0
 22
0.0
 32
0.0
 14
1.000000000000000E+20
 24
1.000000000000000E+20
 34
1.000000000000000E+20
 15
-1.000000000000000E+20
 25
-1.000000000000000E+20
 35
-1.000000000000000E+20
146
0.0
 13
0.0
 23
0.0
 33
0.0
 16
1.0
 26
0.0
 36
0.0
 17
0.0
 27
1.0
 37
0.0
 76
     0
330
22
  0
LAYOUT
  5
31B
102
{ACAD_XDICTIONARY
360
1A4E
102
}
102
{ACAD_REACTORS
330
319
102
}
330
319
100
AcDbPlotSettings
  1

  2
none_device
  4
ISO_A4_(210.00_x_297.00_MM)
  6

 40
7.5
 41
20.0
 42
7.5
 43
20.0
 44
210.0
 45
297.0
 46
0.0
 47
0.0
 48
0.0
 49
0.0
140
0.0
141
0.0
142
1.0
143
1.724429362114609
 70
 11952
 72
     1
 73
     1
 74
     0
  7
MCC.ctb
 75
     0
147
0.5799019791531116
148
-6.988678770774356
149
-35.41023573897112
100
AcDbLayout
  1
Model
 70
     1
 71
     0
 10
0.0
 20
0.0
 11
12.0
 21
9.0
 12
0.0
 22
0.0
 32
0.0
 14
0.0
 24
0.0
 34
0.0
 15
0.0
 25
0.0
 35
0.0
146
0.0
 13
0.0
 23
0.0
 33
0.0
 16
1.0
 26
0.0
 36
0.0
 17
0.0
 27
1.0
 37
0.0
 76
     0
330
25
1001
ACAD_PSEXT
1000
None
1000
None
1000
Not applicable
1000
The layout will not be plotted unless a new plotter configuration name is selected.
1070
     0
  0
MLINESTYLE
  5
28
102
{ACAD_REACTORS
330
1B
102
}
330
1B
100
AcDbMlineStyle
  2
STANDARD
 70
     0
  3

 62
     0
 51
90.0
 52
90.0
 71
     2
 49
0.5
 62
   256
  6
BYLAYER
 49
-0.5
 62
   256
  6
BYLAYER
  0
PLOTSETTINGS
  5
1069
102
{ACAD_XDICTIONARY
360
1A52
102
}
102
{ACAD_REACTORS
330
31A
102
}
330
31A
100
AcDbPlotSettings
  1
A3
  2
HP5000TN_PO.pc3
  4
A3
  6

 40
5.746749877929687
 41
5.704421997070312
 42
5.746734619140625
 43
5.74676513671875
 44
297.0530090332031
 45
420.1583251953125
 46
-5.74
 47
-5.669999999999999
 48
0.0
 49
0.0
140
0.0
141
0.0
142
1.0
143
1.0
 70
  1700
 72
     1
 73
     1
 74
     1
  7
MCC.ctb
 75
     0
147
1.0
148
0.028068474278939
149
0.0197497114437511
  0
PLOTSETTINGS
  5
106A
102
{ACAD_XDICTIONARY
360
1A54
102
}
102
{ACAD_REACTORS
330
31A
102
}
330
31A
100
AcDbPlotSettings
  1
A3 op A4
  2
HP5000TN_PO.pc3
  4
A4
  6

 40
5.746749877929687
 41
5.365768432617187
 42
5.70440673828125
 43
5.746734619140625
 44
209.8886566162109
 45
297.0530090332031
 46
-5.37
 47
-4.929999999999999
 48
0.0
 49
0.0
140
0.0
141
0.0
142
1.0
143
1.419999999999999
 70
  1700
 72
     1
 73
     1
 74
     1
  7
MCC.ctb
 75
     0
147
0.7042253521126761
148
0.028068474278939
149
0.0197497114437511
  0
PLOTSETTINGS
  5
106B
102
{ACAD_XDICTIONARY
360
1A56
102
}
102
{ACAD_REACTORS
330
31A
102
}
330
31A
100
AcDbPlotSettings
  1
A3-PDF
  2
Acrobat PDFWriter A3.pc3
  4
A3
  6

 40
5.699999809265136
 41
5.699999809265136
 42
5.731353759765625
 43
5.753021240234375
 44
420.0313415527343
 45
297.0530090332031
 46
-5.709999999999999
 47
-5.209999999999999
 48
0.0
 49
0.0
140
0.0
141
0.0
142
1.0
143
1.0
 70
  1716
 72
     1
 73
     0
 74
     1
  7
MCC.ctb
 75
    16
147
1.0
148
0.0128164049386896
149
0.0090630292066862
  0
PLOTSETTINGS
  5
106C
102
{ACAD_XDICTIONARY
360
1A58
102
}
102
{ACAD_REACTORS
330
31A
102
}
330
31A
100
AcDbPlotSettings
  1
A4
  2
HP5000TN_PO.pc3
  4
A4
  6

 40
5.746749877929687
 41
5.365768432617187
 42
5.70440673828125
 43
5.746734619140625
 44
209.8886566162109
 45
297.0530090332031
 46
-5.809999999999999
 47
-5.549999999999999
 48
0.0
 49
0.0
140
0.0
141
0.0
142
1.0
143
1.0
 70
  1700
 72
     1
 73
     0
 74
     1
  7
MCC.ctb
 75
     0
147
1.0
148
0.028068474278939
149
0.0197497114437511
  0
PLOTSETTINGS
  5
106D
102
{ACAD_XDICTIONARY
360
1A5A
102
}
102
{ACAD_REACTORS
330
31A
102
}
330
31A
100
AcDbPlotSettings
  1
A4-PDF
  2
Acrobat PDFWriter.pc3
  4
A4
  6

 40
7.143749713897705
 41
7.143756389617919
 42
7.14373779296875
 43
7.14373779296875
 44
209.9733276367187
 45
297.0530090332031
 46
-9.0
 47
-6.629999999999999
 48
0.0
 49
0.0
140
0.0
141
0.0
142
1.0
143
1.0
 70
  1712
 72
     1
 73
     0
 74
     1
  7
MCC.ctb
 75
    16
147
1.0
148
0.006405366526451
149
0.0045292325963828
  0
ACDBPLACEHOLDER
  5
318
102
{ACAD_REACTORS
330
317
102
}
330
317
  0
TABLESTYLE
  5
4D3
102
{ACAD_REACTORS
330
4D2
102
}
330
4D2
100
AcDbTableStyle
  3
Standard
 70
     0
 71
     0
 40
1.5
 41
1.5
280
     0
281
     0
  7
STANDARD
140
4.5
170
     2
 62
     0
 63
     7
283
     0
274
    -2
284
     1
 64
     0
275
    -2
285
     1
 65
     0
276
    -2
286
     1
 66
     0
277
    -2
287
     1
 67
     0
278
    -2
288
     1
 68
     0
279
    -2
289
     1
 69
     0
  7
STANDARD
140
6.0
170
     5
 62
     0
 63
     7
283
     0
274
    -2
284
     1
 64
     0
275
    -2
285
     1
 65
     0
276
    -2
286
     1
 66
     0
277
    -2
287
     1
 67
     0
278
    -2
288
     1
 68
     0
279
    -2
289
     1
 69
     0
  7
STANDARD
140
4.5
170
     5
 62
     0
 63
     7
283
     0
274
    -2
284
     1
 64
     0
275
    -2
285
     1
 65
     0
276
    -2
286
     1
 66
     0
277
    -2
287
     1
 67
     0
278
    -2
288
     1
 68
     0
279
    -2
289
     1
 69
     0
  0
DICTIONARYVAR
  5
12E3
102
{ACAD_REACTORS
330
12E2
102
}
330
12E2
100
DictionaryVariables
280
     0
  1
STANDARD
  0
DICTIONARYVAR
  5
12E4
102
{ACAD_REACTORS
330
12E2
102
}
330
12E2
100
DictionaryVariables
280
     0
  1
1
  0
DICTIONARYVAR
  5
12E5
102
{ACAD_REACTORS
330
12E2
102
}
330
12E2
100
DictionaryVariables
280
     0
  1

  0
DICTIONARY
  5
1A50
330
31C
100
AcDbDictionary
280
     1
281
     1
  3
ACAD_XREC_ROUNDTRIP
360
1A51
  0
DICTIONARY
  5
1A4E
330
31B
100
AcDbDictionary
280
     1
281
     1
  3
ACAD_XREC_ROUNDTRIP
360
1A4F
  0
DICTIONARY
  5
1A52
330
1069
100
AcDbDictionary
280
     1
281
     1
  3
ACAD_XREC_ROUNDTRIP
360
1A53
  0
DICTIONARY
  5
1A54
330
106A
100
AcDbDictionary
280
     1
281
     1
  3
ACAD_XREC_ROUNDTRIP
360
1A55
  0
DICTIONARY
  5
1A56
330
106B
100
AcDbDictionary
280
     1
281
     1
  3
ACAD_XREC_ROUNDTRIP
360
1A57
  0
DICTIONARY
  5
1A58
330
106C
100
AcDbDictionary
280
     1
281
     1
  3
ACAD_XREC_ROUNDTRIP
360
1A59
  0
DICTIONARY
  5
1A5A
330
106D
100
AcDbDictionary
280
     1
281
     1
  3
ACAD_XREC_ROUNDTRIP
360
1A5B
  0
XRECORD
  5
1A51
102
{ACAD_REACTORS
330
1A50
102
}
330
1A50
100
AcDbXrecord
280
     1
102
SHADEPLOT
 70
     0
102
SHADEPLOTRESLEVEL
 70
     2
102
SHADEPLOTCUSTOMDPI
 70
   300
  0
XRECORD
  5
1A4F
102
{ACAD_REACTORS
330
1A4E
102
}
330
1A4E
100
AcDbXrecord
280
     1
102
SHADEPLOT
 70
     0
102
SHADEPLOTRESLEVEL
 70
     2
102
SHADEPLOTCUSTOMDPI
 70
   300
  0
XRECORD
  5
1A53
102
{ACAD_REACTORS
330
1A52
102
}
330
1A52
100
AcDbXrecord
280
     1
102
SHADEPLOT
 70
     0
102
SHADEPLOTRESLEVEL
 70
     2
102
SHADEPLOTCUSTOMDPI
 70
   300
  0
XRECORD
  5
1A55
102
{ACAD_REACTORS
330
1A54
102
}
330
1A54
100
AcDbXrecord
280
     1
102
SHADEPLOT
 70
     0
102
SHADEPLOTRESLEVEL
 70
     2
102
SHADEPLOTCUSTOMDPI
 70
   300
  0
XRECORD
  5
1A57
102
{ACAD_REACTORS
330
1A56
102
}
330
1A56
100
AcDbXrecord
280
     1
102
SHADEPLOT
 70
     0
102
SHADEPLOTRESLEVEL
 70
     2
102
SHADEPLOTCUSTOMDPI
 70
   300
  0
XRECORD
  5
1A59
102
{ACAD_REACTORS
330
1A58
102
}
330
1A58
100
AcDbXrecord
280
     1
102
SHADEPLOT
 70
     0
102
SHADEPLOTRESLEVEL
 70
     2
102
SHADEPLOTCUSTOMDPI
 70
   300
  0
XRECORD
  5
1A5B
102
{ACAD_REACTORS
330
1A5A
102
}
330
1A5A
100
AcDbXrecord
280
     1
102
SHADEPLOT
 70
     0
102
SHADEPLOTRESLEVEL
 70
     2
102
SHADEPLOTCUSTOMDPI
 70
   300
  0
ENDSEC
  0
EOF
