  0
SECTION
  2
HEADER
  9
$ACADVER
  1
AC1009
  9
$INSBASE
 10
0
 20
0
  9
$EXTMIN
 10
405.268362072165
 20
-595.3374546795263
  9
$EXTMAX
 10
615.2683620721641
 20
-298.3374546795263
  9
$LIMMIN
 10
405.268362072165
 20
-595.3374546795263
  9
$LIMMAX
 10
615.2683620721641
 20
-298.3374546795263
  9
$VIEWCTR
 10
10
 20
10
  9
$VIEWSIZE
 40
10
  9
$SNAPMODE
 70
0
  9
$SNAPUNIT
 10
1
 20
1
  9
$SNAPBASE
 10
0
 20
0
  9
$SNAPANG
 50
0
  9
$SNAPSTYLE
 70
0
  9
$SNAPISOPAIR
 70
0
  9
$GRIDMODE
 70
0
  9
$GRIDUNIT
 10
0
 20
0
  9
$ORTHOMODE
 70
0
  9
$REGENMODE
 70
1
  9
$FILLMODE
 70
1
  9
$QTEXTMODE
 70
0
  9
$DRAGMODE
 70
2
  9
$LTSCALE
 40
1
  9
$OSMODE
 70
0
  9
$ATTMODE
 70
1
  9
$TEXTSIZE
 40
3.5
  9
$TRACEWID
 40
0.5
  9
$TEXTSTYLE
  7
STANDARD
  9
$CLAYER
  8
0
  9
$CELTYPE
  6
BYLAYER
  9
$CECOLOR
 62
256
  9
$DIMSCALE
 40
1
  9
$DIMASZ
 40
0.18
  9
$DIMEXO
 40
0.0625
  9
$DIMDLI
 40
0.38
  9
$DIMRND
 40
0
  9
$DIMDLE
 40
0
  9
$DIMEXE
 40
0.18
  9
$DIMTP
 40
0
  9
$DIMTM
 40
0
  9
$DIMTXT
 40
0.18
  9
$DIMCEN
 40
0.09
  9
$DIMTSZ
 40
0
  9
$DIMTOL
 70
0
  9
$DIMLIM
 70
0
  9
$DIMTIH
 70
1
  9
$DIMTOH
 70
1
  9
$DIMSE1
 70
0
  9
$DIMSE2
 70
0
  9
$DIMTAD
 70
0
  9
$DIMZIN
 70
0
  9
$DIMBLK
  1

  9
$DIMASO
 70
1
  9
$DIMSHO
 70
1
  9
$DIMPOST
  1

  9
$DIMAPOST
  1

  9
$DIMALT
 70
0
  9
$DIMALTD
 70
2
  9
$DIMALTF
 40
25.4
  9
$DIMLFAC
 40
1
  9
$DIMTOFL
 70
0
  9
$DIMTVP
 40
0
  9
$DIMTIX
 70
0
  9
$DIMSOXD
 70
0
  9
$DIMSAH
 70
0
  9
$DIMBLK1
  1

  9
$DIMBLK2
  1

  9
$DIMSTYLE
  2
*UNNAMED
  9
$DIMCLRD
 70
0
  9
$DIMCLRE
 70
0
  9
$DIMCLRT
 70
0
  9
$DIMTFAC
 40
1
  9
$DIMGAP
 40
0.09
  9
$LUNITS
 70
2
  9
$LUPREC
 70
4
  9
$AXISMODE
 70
0
  9
$AXISUNIT
 10
0
 20
0
  9
$SKETCHINC
 40
0.1
  9
$FILLETRAD
 40
2
  9
$AUNITS
 70
0
  9
$AUPREC
 70
0
  9
$MENU
  1
ACAD
  9
$ELEVATION
 40
0
  9
$THICKNESS
 40
0
  9
$VIEWDIR
 10
0
 20
0
 30
1
  9
$LIMCHECK
 70
0
  9
$BLIPMODE
 70
1
  9
$CHAMFERA
 40
0
  9
$CHAMFERB
 40
0
  9
$FASTZOOM
 70
1
  9
$SKPOLY
 70
0
  9
$ANGBASE
 50
0
  9
$ANGDIR
 70
0
  9
$PDMODE
 70
0
  9
$PDSIZE
 40
0
  9
$PLINEWID
 40
0
  9
$COORDS
 70
2
  0
ENDSEC
  0
SECTION
  2
TABLES
  0
TABLE
  2
DIMSTYLE
 70
5
  0
DIMSTYLE
  2
DMST_1
 70
0
  3

  4

  5

  6

  7

 40
1
 41
3.2
 42
1
 43
7
 44
1
 45
0
 46
0
 47
0
 48
0
140
3.2
141
0
142
0
143
25.4
144
1
145
0
146
1
147
0.09
 71
0
 72
0
 73
0
 74
0
 75
0
 76
0
 77
1
 78
9
170
0
171
2
172
0
173
0
174
0
175
0
176
2
177
2
178
2
  0
DIMSTYLE
  2
DMST_2
 70
0
  3

  4

  5

  6

  7

 40
1
 41
3.2
 42
1
 43
7
 44
1
 45
0
 46
0
 47
0
 48
0
140
3.2
141
0
142
0
143
25.4
144
1
145
0
146
0.5625
147
0.09
 71
1
 72
0
 73
0
 74
0
 75
0
 76
0
 77
1
 78
9
170
0
171
2
172
0
173
0
174
0
175
0
176
2
177
2
178
2
  0
DIMSTYLE
  2
DMST_3
 70
0
  3
x45%%d
  4

  5

  6

  7

 40
1
 41
3
 42
0
 43
7
 44
0
 45
0
 46
0
 47
0
 48
0
140
3
141
0
142
0
143
25.4
144
1
145
0
146
1
147
0.09
 71
0
 72
0
 73
0
 74
0
 75
0
 76
0
 77
1
 78
9
170
0
171
2
172
0
173
0
174
0
175
0
176
2
177
2
178
2
  0
DIMSTYLE
  2
DMST_4
 70
0
  3

  4

  5

  6

  7

 40
1
 41
3
 42
0
 43
7
 44
0
 45
0
 46
0
 47
0
 48
0
140
3
141
0
142
0
143
25.4
144
1
145
0
146
1
147
0.09
 71
0
 72
0
 73
0
 74
0
 75
0
 76
0
 77
1
 78
9
170
0
171
2
172
0
173
0
174
0
175
0
176
2
177
2
178
2
  0
DIMSTYLE
  2
DMST_5
 70
0
  3

  4

  5

  6

  7

 40
1
 41
3.2
 42
1
 43
7
 44
1
 45
0
 46
0
 47
0
 48
0
140
3.2
141
0
142
0
143
25.4
144
1
145
0
146
1
147
0.09
 71
0
 72
0
 73
0
 74
0
 75
0
 76
0
 77
1
 78
1
170
0
171
2
172
0
173
0
174
0
175
0
176
2
177
2
178
2
  0
ENDTAB
  0
TABLE
  2
LTYPE
 70
9
  0
LTYPE
  2
CONTINUOUS
 70
64
  3
Solid line
 72
65
 73
0
 40
0
  0
LTYPE
  2
BORDER
 70
64
  3
__ __ . __ __ .
 72
65
 73
6
 40
13.67763157894737
 49
3.907894736842106
 49
-1.953947368421053
 49
3.907894736842106
 49
-1.953947368421053
 49
0
 49
-1.953947368421053
  0
LTYPE
  2
CENTER
 70
64
  3
____ _ ____ _
 72
65
 73
4
 40
15.63157894736843
 49
9.769736842105266
 49
-1.953947368421053
 49
1.953947368421053
 49
-1.953947368421053
  0
LTYPE
  2
DASHDOT
 70
64
  3
__ . __ . __ .
 72
65
 73
4
 40
7.815789473684212
 49
3.907894736842106
 49
-1.953947368421053
 49
0
 49
-1.953947368421053
  0
LTYPE
  2
DASHED
 70
64
  3
__ __ __ __ __
 72
65
 73
2
 40
5.861842105263159
 49
3.907894736842106
 49
-1.953947368421053
  0
LTYPE
  2
DIVIDE
 70
64
  3
__ . . __ . . 
 72
65
 73
6
 40
9.769736842105266
 49
3.907894736842106
 49
-1.953947368421053
 49
0
 49
-1.953947368421053
 49
0
 49
-1.953947368421053
  0
LTYPE
  2
DOT
 70
64
  3
..............
 72
65
 73
4
 40
3.907894736842106
 49
0
 49
-1.953947368421053
 49
0
 49
-1.953947368421053
  0
LTYPE
  2
HIDDEN
 70
64
  3
_ _ _ _ _ _ _
 72
65
 73
2
 40
2.93092105263158
 49
1.953947368421053
 49
-0.9769736842105266
  0
LTYPE
  2
PHANTOM
 70
64
  3
_____ _ _ _____ _ _ 
 72
65
 73
6
 40
19.53947368421053
 49
9.769736842105266
 49
-1.953947368421053
 49
1.953947368421053
 49
-1.953947368421053
 49
1.953947368421053
 49
-1.953947368421053
  0
ENDTAB
  0
TABLE
  2
LAYER
 70
4
  0
LAYER
  2
1
 70
0
 62
7
  6
CONTINUOUS
  0
LAYER
  2
CONSTRUCTION
 70
0
 62
7
  6
CONTINUOUS
  0
LAYER
  2
0
 70
0
 62
7
  6
CONTINUOUS
  0
ENDTAB
  0
TABLE
  2
STYLE
 70
4
  0
STYLE
  2
STANDARD
 70
0
 40
0
 41
1
 50
0
 71
0
 42
3.5
  3
txt
  4

  0
STYLE
  2
SIMPLEX
 70
0
 40
0
 41
1
 50
0
 71
0
 42
3.5
  3
simplex
  4

  0
STYLE
  2
COMPLEX
 70
0
 40
0
 41
1
 50
0
 71
0
 42
3.5
  3
complex
  4

  0
STYLE
  2
ITALIC
 70
0
 40
0
 41
1
 50
0
 71
0
 42
3.5
  3
italic
  4

  0
ENDTAB
  0
TABLE
  2
VIEW
 70
0
  0
ENDTAB
  0
ENDSEC
  0
SECTION
  2
BLOCKS
  0
BLOCK
  8
0
  2
VITE_AUTOFILETTANTE_PHILIPS__3_
 70
0
 10
1261.03373410895
 20
912.1590955620846
 30
0
  0
ENDBLK
  8
0
  0
BLOCK
  8
0
  2
COPERCHIO__1
 70
0
 10
937.3258379689873
 20
797.6908732188925
 30
0
  0
ENDBLK
  8
0
  0
BLOCK
  8
0
  2
CUSCINETTO__2
 70
0
 10
945.351590367561
 20
828.4557937760111
 30
0
  0
ENDBLK
  8
0
  0
BLOCK
  8
0
  2
TOP__3
 70
0
 10
810.004590367561
 20
685.5087937760111
 30
0
  0
INSERT
  8
0
  2
VITE_AUTOFILETTANTE_PHILIPS__3_
 10
1261.03373410895
 20
912.1590955620846
 30
0
  0
INSERT
  8
0
  2
COPERCHIO__1
 10
937.3258379689873
 20
797.6908732188925
 30
0
  0
INSERT
  8
0
  2
CUSCINETTO__2
 10
945.351590367561
 20
828.4557937760111
 30
0
  0
ENDBLK
  8
0
  0
BLOCK
  8
0
  2
COPERCHIO__4
 70
0
 10
908.4956841265893
 20
119.1092583015059
 30
0
  0
ENDBLK
  8
0
  0
BLOCK
  8
0
  2
SEEGER
 70
0
 10
924.071436525163
 20
141.2806174014878
 30
0
  0
ENDBLK
  8
0
  0
BLOCK
  8
0
  2
CUSCINETTO__5
 70
0
 10
916.521436525163
 20
149.8741788586245
 30
0
  0
ENDBLK
  8
0
  0
BLOCK
  8
0
  2
TOP__6
 70
0
 10
781.174436525163
 20
6.927178858624529
 30
0
  0
INSERT
  8
0
  2
TOP__3
 10
810.004590367561
 20
685.5087937760111
 30
0
  0
INSERT
  8
0
  2
COPERCHIO__4
 10
908.4956841265893
 20
119.1092583015059
 30
0
  0
INSERT
  8
0
  2
SEEGER
 10
924.071436525163
 20
141.2806174014878
 30
0
  0
INSERT
  8
0
  2
CUSCINETTO__5
 10
916.521436525163
 20
149.8741788586245
 30
0
  0
ENDBLK
  8
0
  0
BLOCK
  8
0
  2
BOCCOLA__7
 70
0
 10
318.181080635039
 20
244.217030350414
 30
0
  0
ENDBLK
  8
0
  0
BLOCK
  8
0
  2
CUSCINETTO__8
 70
0
 10
323.806080635039
 20
250.717030350414
 30
0
  0
ENDBLK
  8
0
  0
BLOCK
  8
0
  2
TOP__9
 70
0
 10
36.58958023091805
 20
-679.026945386408
 30
0
  0
ENDBLK
  8
0
  0
BLOCK
  8
0
  2
TOP__10
 70
0
 10
0.6680223562250376
 20
-131.1029001867445
 30
0
  0
INSERT
  8
0
  2
TOP__9
 10
36.58958023091805
 20
-679.026945386408
 30
0
  0
ENDBLK
  8
0
  0
BLOCK
  8
0
  2
TOP__11
 70
0
 10
773.581656420138
 20
-620.6847390890661
 30
0
  0
ENDBLK
  8
0
  0
BLOCK
  8
0
  2
TOP__12
 70
0
 10
737.660098545445
 20
-72.76069388940249
 30
0
  0
INSERT
  8
0
  2
TOP__11
 10
773.581656420138
 20
-620.6847390890661
 30
0
  0
ENDBLK
  8
0
  0
BLOCK
  8
0
  2
TOP__13
 70
0
 10
188.459080635039
 20
107.770030350414
 30
0
  0
INSERT
  8
0
  2
TOP__6
 10
781.174436525163
 20
6.927178858624529
 30
0
  0
INSERT
  8
0
  2
BOCCOLA__7
 10
318.181080635039
 20
244.217030350414
 30
0
  0
INSERT
  8
0
  2
CUSCINETTO__8
 10
323.806080635039
 20
250.717030350414
 30
0
  0
INSERT
  8
0
  2
TOP__10
 10
0.6680223562250376
 20
-131.1029001867445
 30
0
  0
INSERT
  8
0
  2
TOP__12
 10
737.660098545445
 20
-72.76069388940249
 30
0
  0
ENDBLK
  8
0
  0
BLOCK
  8
0
  2
TOP__14
 70
0
 10
422.058891247848
 20
-346.7154152640226
 30
0
  0
LINE
  8
1
 62
2
 10
484.058891247848
 20
-346.7154152640226
 30
0
 11
484.058891247848
 21
-316.7154152640226
 31
0
  0
LINE
  8
1
 62
2
 10
422.058891247848
 20
-346.7154152640226
 30
0
 11
422.058891247848
 21
-316.7154152640226
 31
0
  0
LINE
  8
1
 62
2
 10
484.058891247848
 20
-316.7154152640226
 30
0
 11
422.058891247848
 21
-316.7154152640226
 31
0
  0
LINE
  8
1
 62
2
 10
422.058891247848
 20
-346.7154152640226
 30
0
 11
484.058891247848
 21
-346.7154152640226
 31
0
  0
LINE
  8
1
 62
2
 10
470.6754805627918
 20
-340.6558736032863
 30
0
 11
461.6603054719013
 21
-340.6558736032863
 31
0
  0
LINE
  8
1
 62
2
 10
472.398891247848
 20
-337.8962690333232
 30
0
 11
470.6754805627918
 21
-340.6558736032863
 31
0
  0
LINE
  8
1
 62
2
 10
461.6603054719013
 20
-340.2958736032863
 30
0
 11
470.5403054719014
 21
-340.2958736032863
 31
0
  0
LINE
  8
1
 62
2
 10
470.5403054719014
 20
-340.2958736032863
 30
0
 11
472.038891247848
 21
-337.8962690333232
 31
0
  0
LINE
  8
1
 62
2
 10
461.6603054719013
 20
-340.6558736032863
 30
0
 11
461.6603054719013
 21
-340.2958736032863
 31
0
  0
LINE
  8
1
 62
2
 10
472.038891247848
 20
-335.3762690333232
 30
0
 11
472.038891247848
 21
-337.8962690333232
 31
0
  0
LINE
  8
1
 62
2
 10
472.398891247848
 20
-335.0162690333232
 30
0
 11
466.338891247848
 21
-335.0162690333232
 31
0
  0
LINE
  8
1
 62
2
 10
466.698891247848
 20
-335.3762690333232
 30
0
 11
472.038891247848
 21
-335.3762690333232
 31
0
  0
LINE
  8
1
 62
2
 10
462.6203054719013
 20
-337.2657579938376
 30
0
 11
462.6203054719013
 21
-339.9358736032863
 31
0
  0
LINE
  8
1
 62
2
 10
463.5203054719015
 20
-337.2657579938376
 30
0
 11
463.5203054719015
 21
-339.9358736032863
 31
0
  0
LINE
  8
1
 62
2
 10
464.4803054719013
 20
-339.9358736032863
 30
0
 11
464.4803054719013
 21
-337.2657579938376
 31
0
  0
LINE
  8
1
 62
2
 10
465.3803054719014
 20
-337.2657579938376
 30
0
 11
465.3803054719014
 21
-339.9358736032863
 31
0
  0
LINE
  8
1
 62
2
 10
479.9594340645268
 20
-338.9871311591188
 30
0
 11
479.9588912478481
 21
-338.7231647323287
 31
0
  0
LINE
  8
1
 62
2
 10
480.4388912478479
 20
-339.2341602068028
 30
0
 11
480.4388912478479
 21
-339.9537107607321
 31
0
  0
LINE
  8
1
 62
2
 10
482.0583484311694
 20
-339.2344783866233
 30
0
 11
482.058891247848
 21
-339.2341602068028
 31
0
  0
LINE
  8
1
 62
2
 10
481.5788912478481
 20
-338.9871311591188
 30
0
 11
481.5788912478481
 21
-336.9619499558764
 31
0
  0
LINE
  8
1
 62
2
 10
482.058891247848
 20
-339.2341602068028
 30
0
 11
482.058891247848
 21
-339.9541602068028
 31
0
  0
LINE
  8
1
 62
2
 10
479.9588912478481
 20
-336.8158736032863
 30
0
 11
480.618891247848
 21
-336.8158736032863
 31
0
  0
LINE
  8
1
 62
2
 10
479.9588912478481
 20
-338.7231647323287
 30
0
 11
479.9588912478481
 21
-336.9619499558764
 31
0
  0
LINE
  8
1
 62
2
 10
480.618891247848
 20
-336.8158736032863
 30
0
 11
480.618891247848
 21
-336.9619499558764
 31
0
  0
LINE
  8
1
 62
2
 10
478.998891247848
 20
-336.8158736032863
 30
0
 11
478.998891247848
 21
-336.9619499558764
 31
0
  0
LINE
  8
1
 62
2
 10
478.518891247848
 20
-336.7133673309911
 30
0
 11
478.518891247848
 21
-336.0358736032863
 31
0
  0
LINE
  8
1
 62
2
 10
478.5816265763498
 20
-336.8158736032863
 30
0
 11
478.998891247848
 21
-336.8158736032863
 31
0
  0
LINE
  8
1
 62
2
 10
478.998891247848
 20
-336.0358736032863
 30
0
 11
478.518891247848
 21
-336.0358736032863
 31
0
  0
LINE
  8
1
 62
2
 10
478.998891247848
 20
-336.0358736032863
 30
0
 11
478.998891247848
 21
-335.3758736032864
 31
0
  0
LINE
  8
1
 62
2
 10
479.9588912478481
 20
-335.3758736032864
 30
0
 11
478.998891247848
 21
-335.3758736032864
 31
0
  0
LINE
  8
1
 62
2
 10
479.9588912478481
 20
-336.0358736032863
 30
0
 11
479.9588912478481
 21
-335.3758736032864
 31
0
  0
LINE
  8
1
 62
2
 10
480.618891247848
 20
-336.0358736032863
 30
0
 11
479.9588912478481
 21
-336.0358736032863
 31
0
  0
LINE
  8
1
 62
2
 10
480.618891247848
 20
-336.0358736032863
 30
0
 11
480.618891247848
 21
-335.3758736032864
 31
0
  0
LINE
  8
1
 62
2
 10
481.5788912478481
 20
-335.3758736032864
 30
0
 11
480.618891247848
 21
-335.3758736032864
 31
0
  0
LINE
  8
1
 62
2
 10
481.5788912478481
 20
-336.0358736032863
 30
0
 11
481.5788912478481
 21
-335.3758736032864
 31
0
  0
LINE
  8
1
 62
2
 10
482.058891247848
 20
-336.8158736032863
 30
0
 11
481.5788912478481
 21
-336.8158736032863
 31
0
  0
LINE
  8
1
 62
2
 10
482.058891247848
 20
-336.0358736032863
 30
0
 11
481.5788912478481
 21
-336.0358736032863
 31
0
  0
LINE
  8
1
 62
2
 10
482.058891247848
 20
-336.0358736032863
 30
0
 11
482.058891247848
 21
-336.8158736032863
 31
0
  0
LINE
  8
1
 62
2
 10
477.7527150870191
 20
-337.5243079230784
 30
0
 11
476.6450634564038
 21
-337.5243079230784
 31
0
  0
LINE
  8
1
 62
2
 10
478.7670604357737
 20
-338.7243079230784
 30
0
 11
477.671764180702
 21
-338.7243079230784
 31
0
  0
LINE
  8
1
 62
2
 10
476.629513175957
 20
-338.3643079230784
 30
0
 11
478.8502607227447
 21
-338.3643079230784
 31
0
  0
LINE
  8
1
 62
2
 10
473.559888724403
 20
-336.3015023658367
 30
0
 11
473.538891247848
 21
-336.3250011563434
 31
0
  0
LINE
  8
1
 62
2
 10
473.541243061502
 20
-339.6491573517136
 30
0
 11
473.538891247848
 21
-339.6464767053351
 31
0
  0
LINE
  8
1
 62
2
 10
473.538891247848
 20
-336.3250011563434
 30
0
 11
473.538891247848
 21
-335.0162690333232
 31
0
  0
LINE
  8
1
 62
2
 10
473.538891247848
 20
-339.9358736032863
 30
0
 11
473.538891247848
 21
-339.6464767053351
 31
0
  0
LINE
  8
1
 62
2
 10
472.6388912478481
 20
-339.9358736032863
 30
0
 11
473.538891247848
 21
-339.9358736032863
 31
0
  0
LINE
  8
1
 62
2
 10
472.6388912478481
 20
-335.0162690333232
 30
0
 11
473.538891247848
 21
-335.0162690333232
 31
0
  0
LINE
  8
1
 62
2
 10
472.6388912478481
 20
-335.0162690333232
 30
0
 11
472.6388912478481
 21
-339.9358736032863
 31
0
  0
LINE
  8
1
 62
2
 10
466.698891247848
 20
-335.9162690333233
 30
0
 11
466.698891247848
 21
-335.3762690333232
 31
0
  0
LINE
  8
1
 62
2
 10
472.398891247848
 20
-337.8962690333232
 30
0
 11
472.398891247848
 21
-335.0162690333232
 31
0
  0
LINE
  8
1
 62
2
 10
466.338891247848
 20
-335.9162690333233
 30
0
 11
466.338891247848
 21
-335.0162690333232
 31
0
  0
LINE
  8
1
 62
2
 10
466.338891247848
 20
-335.9162690333233
 30
0
 11
466.698891247848
 21
-335.9162690333233
 31
0
  0
LINE
  8
1
 62
2
 10
470.598891247848
 20
-336.3118736032864
 30
0
 11
470.598891247848
 21
-336.0358736032863
 31
0
  0
LINE
  8
1
 62
2
 10
471.4988912478481
 20
-336.8388411952058
 30
0
 11
471.4988912478481
 21
-335.9158736032864
 31
0
  0
LINE
  8
1
 62
2
 10
470.598891247848
 20
-337.5688597609188
 30
0
 11
470.598891247848
 21
-339.9358736032863
 31
0
  0
LINE
  8
1
 62
2
 10
470.598891247848
 20
-339.9358736032863
 30
0
 11
469.6988912478481
 21
-339.9358736032863
 31
0
  0
LINE
  8
1
 62
2
 10
470.598891247848
 20
-336.0358736032863
 30
0
 11
469.6988912478481
 21
-336.0358736032863
 31
0
  0
LINE
  8
1
 62
2
 10
469.6988912478481
 20
-339.9358736032863
 30
0
 11
469.6988912478481
 21
-336.0358736032863
 31
0
  0
LINE
  8
1
 62
2
 10
468.6187507734768
 20
-336.1461035108754
 30
0
 11
468.6131888411836
 21
-336.1420036965914
 31
0
  0
LINE
  8
1
 62
2
 10
468.6189472442484
 20
-339.8265480593174
 30
0
 11
468.6202604330775
 21
-339.8256436655909
 31
0
  0
LINE
  8
1
 62
2
 10
468.6202604330775
 20
-339.8256436655909
 30
0
 11
468.6202717890754
 21
-339.9358736032863
 31
0
  0
LINE
  8
1
 62
2
 10
468.6187507734768
 20
-336.1461035108754
 30
0
 11
468.618705547815
 21
-336.0358736032863
 31
0
  0
LINE
  8
1
 62
2
 10
469.518891247848
 20
-336.0358736032863
 30
0
 11
468.618705547815
 21
-336.0358736032863
 31
0
  0
LINE
  8
1
 62
2
 10
469.518891247848
 20
-339.9358736032863
 30
0
 11
468.6202717890754
 21
-339.9358736032863
 31
0
  0
LINE
  8
1
 62
2
 10
469.518891247848
 20
-339.9358736032863
 30
0
 11
469.5203057345019
 21
-339.9358736032863
 31
0
  0
LINE
  8
1
 62
2
 10
469.518891247848
 20
-336.0358736032863
 30
0
 11
469.518891247848
 21
-338.1223637386549
 31
0
  0
LINE
  8
1
 62
2
 10
466.3391947869857
 20
-337.2287668199247
 30
0
 11
466.3403054719013
 21
-339.9358736032863
 31
0
  0
LINE
  8
1
 62
2
 10
465.3803054719014
 20
-339.9358736032863
 30
0
 11
466.3403054719013
 21
-339.9358736032863
 31
0
  0
LINE
  8
1
 62
2
 10
463.5203054719015
 20
-339.9358736032863
 30
0
 11
464.4803054719013
 21
-339.9358736032863
 31
0
  0
LINE
  8
1
 62
2
 10
462.6203054719013
 20
-336.0358736032863
 30
0
 11
462.6203054719013
 21
-336.3358736032864
 31
0
  0
LINE
  8
1
 62
2
 10
461.6603054719013
 20
-339.9358736032863
 30
0
 11
462.6203054719013
 21
-339.9358736032863
 31
0
  0
LINE
  8
1
 62
2
 10
461.6603054719013
 20
-336.0358736032863
 30
0
 11
462.6203054719013
 21
-336.0358736032863
 31
0
  0
LINE
  8
1
 62
2
 10
461.6603054719013
 20
-339.9358736032863
 30
0
 11
461.6603054719013
 21
-336.0358736032863
 31
0
  0
LINE
  8
1
 62
2
 10
469.518891247848
 20
-338.1223637386549
 30
0
 11
469.518891247848
 21
-339.9358736032863
 31
0
  0
LINE
  8
1
 62
2
 10
481.5788912478481
 20
-336.9619499558764
 30
0
 11
481.5788912478481
 21
-336.8158736032863
 31
0
  0
LINE
  8
1
 62
2
 10
480.618891247848
 20
-336.9619499558764
 30
0
 11
480.618891247848
 21
-339.0864026578469
 31
0
  0
LINE
  8
1
 62
2
 10
479.9588912478481
 20
-336.9619499558764
 30
0
 11
479.9588912478481
 21
-336.8158736032863
 31
0
  0
LINE
  8
1
 62
2
 10
478.998891247848
 20
-336.9619499558764
 30
0
 11
478.998891247848
 21
-339.0116757276786
 31
0
  0
ARC
  8
1
 62
2
 10
480.2593523376927
 20
-338.9941332603148
 30
0
 40
0.2999999999999296
 50
178.6625757286652
 51
306.7598996776314
  0
ARC
  8
1
 62
2
 10
480.0188139892928
 20
-339.0242296706368
 30
0
 40
1.019999999999925
 50
180
 51
294.3205015122815
  0
ARC
  8
1
 62
2
 10
481.8788095210139
 20
-338.9941332603148
 30
0
 40
0.2999999999998728
 50
178.662575728665
 51
306.7598996776749
  0
ARC
  8
1
 62
2
 10
481.6388841747125
 20
-339.024647399728
 30
0
 40
1.020000000000096
 50
180
 51
294.3161751631448
  0
ARC
  8
1
 62
2
 10
477.2904171337394
 20
-337.5516864309369
 30
0
 40
1.486150174787607
 50
26.19073288438608
 51
29.67722663944335
  0
ARC
  8
1
 62
2
 10
478.6219302363563
 20
-337.9362689805706
 30
0
 40
2.019335083281066
 50
168.0515905854645
 51
168.2285497000817
  0
ARC
  8
1
 62
2
 10
476.3077464247322
 20
-338.1912705898967
 30
0
 40
1.464470292346798
 50
337.9850758426537
 51
338.6552000445079
  0
ARC
  8
1
 62
2
 10
476.4898832819349
 20
-338.010056390002
 30
0
 40
2.38656469480026
 50
341.7775269078132
 51
342.5856252499851
  0
ARC
  8
1
 62
2
 10
476.4125141339048
 20
-337.991994773005
 30
0
 40
2.466014094265918
 50
351.3164097280225
 51
353.4766111065118
  0
ARC
  8
1
 62
2
 10
477.1989941491869
 20
-337.0764660070538
 30
0
 40
0.2903481311204632
 50
85.8288908913225
 51
90.02030601170189
  0
ARC
  8
1
 62
2
 10
477.1974539965901
 20
-337.0975846818477
 30
0
 40
0.3115228919236734
 50
81.92038041826422
 51
85.8288908913005
  0
ARC
  8
1
 62
2
 10
477.19750775556
 20
-337.0972059860349
 30
0
 40
0.3111403993808449
 50
78.00480682590973
 51
81.92038041828653
  0
ARC
  8
1
 62
2
 10
477.1935126784362
 20
-337.116009102817
 30
0
 40
0.330363246254839
 50
70.63058500826664
 51
78.00480682588126
  0
ARC
  8
1
 62
2
 10
477.1890320547285
 20
-337.1287542347548
 30
0
 40
0.3438730344442884
 50
66.79829867356618
 51
70.63058500829223
  0
ARC
  8
1
 62
2
 10
477.1771241365553
 20
-337.1565352111753
 30
0
 40
0.3740985396689493
 50
65.03761575837189
 51
66.79829867355986
  0
ARC
  8
1
 62
2
 10
477.1807956829676
 20
-337.1486480396225
 30
0
 40
0.3653986702353953
 50
63.23481707872219
 51
65.03761575836793
  0
ARC
  8
1
 62
2
 10
477.1642773636926
 20
-337.1813981894267
 30
0
 40
0.4020787354462727
 50
61.59610110947681
 51
63.23481707871964
  0
ARC
  8
1
 62
2
 10
477.1692734598598
 20
-337.1721596055443
 30
0
 40
0.3915757640064556
 50
59.91296211709212
 51
61.59610110950938
  0
ARC
  8
1
 62
2
 10
477.1484438984161
 20
-337.2081112277646
 30
0
 40
0.4331256108196936
 50
58.39095374410795
 51
59.91296211705878
  0
ARC
  8
1
 62
2
 10
477.1497035668104
 20
-337.2060643902017
 30
0
 40
0.4307222156228258
 50
55.32984645394687
 51
58.39095374410728
  0
ARC
  8
1
 62
2
 10
477.1171674585078
 20
-337.2531048352223
 30
0
 40
0.4879183851729718
 50
52.45331182052406
 51
55.32984645396387
  0
ARC
  8
1
 62
2
 10
477.1131944232128
 20
-337.2582738688941
 30
0
 40
0.4944378881105764
 50
49.4433804798454
 51
52.45331182050181
  0
ARC
  8
1
 62
2
 10
477.0673758274387
 20
-337.3118133272764
 30
0
 40
0.5649064436699022
 50
46.80936765323175
 51
49.44338047986785
  0
ARC
  8
1
 62
2
 10
477.0603385928456
 20
-337.3193096766945
 30
0
 40
0.5751883659276721
 50
44.22183291916409
 51
46.80936765321431
  0
ARC
  8
1
 62
2
 10
476.9737271303946
 20
-337.4035998821378
 30
0
 40
0.6960452406249743
 50
43.15257535235845
 51
44.2218329191594
  0
ARC
  8
1
 62
2
 10
477.0413546576088
 20
-337.3401986637245
 30
0
 40
0.6033457426036057
 50
41.91908495587804
 51
43.15257535236363
  0
ARC
  8
1
 62
2
 10
476.9450470007935
 20
-337.4266685048937
 30
0
 40
0.7327760257413127
 50
39.74924978304767
 51
41.91908495589154
  0
ARC
  8
1
 62
2
 10
476.9500222304227
 20
-337.4225307602934
 30
0
 40
0.7263050258000194
 50
39.35640606857649
 51
39.74924978303566
  0
ARC
  8
1
 62
2
 10
476.8590309358381
 20
-337.4921508409692
 30
0
 40
0.8408754029639562
 50
35.4095551151643
 51
37.42065182581364
  0
ARC
  8
1
 62
2
 10
476.8914143447196
 20
-337.4691290211819
 30
0
 40
0.8011426789558234
 50
34.35404310590364
 51
35.40955511516854
  0
ARC
  8
1
 62
2
 10
476.7678751325082
 20
-337.5535726173164
 30
0
 40
0.9507844441214501
 50
33.46459650301249
 51
34.35404310589478
  0
ARC
  8
1
 62
2
 10
476.8423856255589
 20
-337.5043213813892
 30
0
 40
0.8614676046397187
 50
32.48289062268722
 51
33.46459650302116
  0
ARC
  8
1
 62
2
 10
476.6952729482714
 20
-337.5979807453906
 30
0
 40
1.035864325606223
 50
31.66648419959083
 51
32.48289062268307
  0
ARC
  8
1
 62
2
 10
476.7856180889482
 20
-337.5422554300588
 30
0
 40
0.929715584621039
 50
30.75696719664103
 51
31.66648419958524
  0
ARC
  8
1
 62
2
 10
476.654360367259
 20
-337.6203671804124
 30
0
 40
1.082457311226187
 50
29.00504835321144
 51
30.75696719664743
  0
ARC
  8
1
 62
2
 10
476.6582215081733
 20
-337.618226470295
 30
0
 40
1.078042444414333
 50
27.24625822629275
 51
29.00504835321227
  0
ARC
  8
1
 62
2
 10
476.5298693703981
 20
-337.684321559802
 30
0
 40
1.222412912753324
 50
25.69516429294833
 51
27.24625822629034
  0
ARC
  8
1
 62
2
 10
476.5357578894522
 20
-337.6814882190345
 30
0
 40
1.215878199557344
 50
24.13562877934825
 51
25.69516429295281
  0
ARC
  8
1
 62
2
 10
476.3148045128102
 20
-337.78049037702
 30
0
 40
1.457997636891848
 50
23.48535511730539
 51
24.13562877934042
  0
ARC
  8
1
 62
2
 10
476.4408311843046
 20
-337.7257307191915
 30
0
 40
1.32058824109447
 50
21.97944316602245
 51
23.48535511731132
  0
ARC
  8
1
 62
2
 10
476.2360301124362
 20
-337.8083902616759
 30
0
 40
1.541441312166889
 50
20.62936983168059
 51
21.97944316601731
  0
ARC
  8
1
 62
2
 10
476.3273561438529
 20
-337.7740096252355
 30
0
 40
1.443858156979181
 50
19.18808726382236
 51
20.62936983167985
  0
ARC
  8
1
 62
2
 10
476.0811854787355
 20
-337.8596779350667
 30
0
 40
1.704509371581654
 50
17.96717019847067
 51
19.18808726382375
  0
ARC
  8
1
 62
2
 10
476.1953030245965
 20
-337.8226711744761
 30
0
 40
1.584541398343996
 50
16.65378638539321
 51
17.9671701984681
  0
ARC
  8
1
 62
2
 10
475.8981234834772
 20
-337.9115680987848
 30
0
 40
1.894732215118677
 50
15.51582824599712
 51
16.65378638539588
  0
ARC
  8
1
 62
2
 10
476.0639670838629
 20
-337.8655262554249
 30
0
 40
1.722616117298635
 50
14.22064088360998
 51
15.51582824599313
  0
ARC
  8
1
 62
2
 10
475.7660812386925
 20
-337.9410171576607
 30
0
 40
2.029918660524729
 50
13.12155086068902
 51
14.22064088361284
  0
ARC
  8
1
 62
2
 10
475.9553283738584
 20
-337.8969029263194
 30
0
 40
1.83559793704063
 50
11.9060814133687
 51
13.12155086068845
  0
ARC
  8
1
 62
2
 10
475.6115940682862
 20
-337.9693772110583
 30
0
 40
2.18688954635638
 50
11.74270175977148
 51
11.90608141336808
  0
ARC
  8
1
 62
2
 10
476.3805961411258
 20
-338.2207258612881
 30
0
 40
1.385891069957076
 50
336.5501258740048
 51
337.9850758426538
  0
ARC
  8
1
 62
2
 10
476.4460471910703
 20
-338.2491167272311
 30
0
 40
1.314547666563246
 50
335.8288902293321
 51
336.5501258740031
  0
ARC
  8
1
 62
2
 10
476.4831886277589
 20
-338.2657862454352
 30
0
 40
1.273836990365646
 50
334.3403166984004
 51
335.8288902293444
  0
ARC
  8
1
 62
2
 10
476.5777427540611
 20
-338.3112101567174
 30
0
 40
1.168937922128912
 50
332.7182607823696
 51
334.340316698392
  0
ARC
  8
1
 62
2
 10
476.6182476359633
 20
-338.332099939512
 30
0
 40
1.12336349417733
 50
331.0304326381306
 51
332.718260782363
  0
ARC
  8
1
 62
2
 10
476.6908985256387
 20
-338.3723205549516
 30
0
 40
1.040322241314733
 50
329.2075518120075
 51
331.0304326381365
  0
ARC
  8
1
 62
2
 10
476.718328883861
 20
-338.3886674304109
 30
0
 40
1.008390362424203
 50
328.3689967917624
 51
329.2075518120049
  0
ARC
  8
1
 62
2
 10
476.7654661718269
 20
-338.4177016550805
 30
0
 40
0.9530287320385522
 50
327.4816283859711
 51
328.3689967917724
  0
ARC
  8
1
 62
2
 10
476.7860745854592
 20
-338.4308399543224
 30
0
 40
0.9285885679759205
 50
326.5708844883346
 51
327.4816283859602
  0
ARC
  8
1
 62
2
 10
476.8261785314649
 20
-338.4573128840728
 30
0
 40
0.8805350301790687
 50
325.6104759027546
 51
326.5708844883397
  0
ARC
  8
1
 62
2
 10
476.8529998563316
 20
-338.4756706262596
 30
0
 40
0.8480328738536156
 50
323.6162495169838
 51
325.6104759027543
  0
ARC
  8
1
 62
2
 10
476.9154227583323
 20
-338.5216654379501
 30
0
 40
0.7704948741590949
 50
321.4214242747469
 51
323.616249516988
  0
ARC
  8
1
 62
2
 10
476.9417413128446
 20
-338.5426591562314
 30
0
 40
0.7368288301549006
 50
319.1255774826936
 51
321.4214242747454
  0
ARC
  8
1
 62
2
 10
476.9961609920949
 20
-338.5897564553524
 30
0
 40
0.6648589956809554
 50
318.0064534884545
 51
319.1255774826823
  0
ARC
  8
1
 62
2
 10
476.9803082547116
 20
-338.575485819347
 30
0
 40
0.6861887948958082
 50
316.9218862033038
 51
318.0064534884699
  0
ARC
  8
1
 62
2
 10
477.0322559500933
 20
-338.6240604062981
 30
0
 40
0.6150688008509925
 50
314.5018987975957
 51
316.9218862032978
  0
ARC
  8
1
 62
2
 10
477.0611758056983
 20
-338.6534875143601
 30
0
 40
0.5738097080698484
 50
311.9084939138042
 51
314.5018987975894
  0
ARC
  8
1
 62
2
 10
477.0943134743332
 20
-338.6904090367231
 30
0
 40
0.5241981781988417
 50
309.0699140354769
 51
311.908493913814
  0
ARC
  8
1
 62
2
 10
477.1137777933576
 20
-338.7143855886864
 30
0
 40
0.4933155818193993
 50
306.0519747076838
 51
309.0699140354715
  0
ARC
  8
1
 62
2
 10
477.1361374260217
 20
-338.7451023481032
 30
0
 40
0.4553225234805767
 50
303.1570429999852
 51
306.0519747076795
  0
ARC
  8
1
 62
2
 10
477.1488890532824
 20
-338.7646208002899
 30
0
 40
0.4320078505562873
 50
301.630957901818
 51
303.1570429999937
  0
ARC
  8
1
 62
2
 10
477.1546597967621
 20
-338.7739896634841
 30
0
 40
0.4210043475750486
 50
300.0651262370153
 51
301.6309579018132
  0
ARC
  8
1
 62
2
 10
477.164159185669
 20
-338.7903999819806
 30
0
 40
0.4020428881701806
 50
298.4258105364488
 51
300.0651262370153
  0
ARC
  8
1
 62
2
 10
477.1691269071894
 20
-338.7995777065196
 30
0
 40
0.3916069461994702
 50
296.7432712753428
 51
298.4258105364465
  0
ARC
  8
1
 62
2
 10
477.17682424438
 20
-338.8148534067664
 30
0
 40
0.3745015079455137
 50
294.9842958875615
 51
296.7432712753512
  0
ARC
  8
1
 62
2
 10
477.1808314382838
 20
-338.8234530148679
 30
0
 40
0.3650141024793097
 50
293.1797896805155
 51
294.9842958875454
  0
ARC
  8
1
 62
2
 10
477.1867643493275
 20
-338.8373090296558
 30
0
 40
0.3499413263828377
 50
291.297315615656
 51
293.1797896805121
  0
ARC
  8
1
 62
2
 10
477.1906640651116
 20
-338.8473126682359
 30
0
 40
0.3392044475048781
 50
287.559902598109
 51
291.297315615672
  0
ARC
  8
1
 62
2
 10
477.1945186386066
 20
-338.8594933935323
 30
0
 40
0.3264283837302097
 50
281.9614281605021
 51
287.5599025980887
  0
ARC
  8
1
 62
2
 10
477.1965559020261
 20
-338.8691097927586
 30
0
 40
0.3165985527896309
 50
278.1133845953229
 51
281.9614281605329
  0
ARC
  8
1
 62
2
 10
477.1980186798481
 20
-338.8793706216499
 30
0
 40
0.30623398195951
 50
274.1373440950997
 51
278.1133845953145
  0
ARC
  8
1
 62
2
 10
477.1988219275729
 20
-338.8904750121063
 30
0
 40
0.2951005775243564
 50
270.0134590019006
 51
274.1373440951031
  0
ARC
  8
1
 62
2
 10
477.1988228204772
 20
-338.8942761592459
 30
0
 40
0.2912994302799211
 50
265.8357379010802
 51
270.0134590019056
  0
ARC
  8
1
 62
2
 10
477.2002124191655
 20
-338.8751904491517
 30
0
 40
0.310435660690116
 50
261.91353340853
 51
265.8357379010586
  0
ARC
  8
1
 62
2
 10
477.200465098774
 20
-338.8734120184355
 30
0
 40
0.3122319520911006
 50
258.0116538356459
 51
261.9135334085357
  0
ARC
  8
1
 62
2
 10
477.2041041820482
 20
-338.8562743382687
 30
0
 40
0.3297517411473896
 50
250.6237379985547
 51
258.0116538356573
  0
ARC
  8
1
 62
2
 10
477.209198187643
 20
-338.8417899742124
 30
0
 40
0.3451057534930924
 50
246.8051456833532
 51
250.6237379985534
  0
ARC
  8
1
 62
2
 10
477.2194802221511
 20
-338.8177942388278
 30
0
 40
0.3712116062904801
 50
245.0307687485925
 51
246.8051456833569
  0
ARC
  8
1
 62
2
 10
477.2182069211138
 20
-338.8205286745681
 30
0
 40
0.3681952451798912
 50
243.2416640885173
 51
245.0307687485862
  0
ARC
  8
1
 62
2
 10
477.2319621045392
 20
-338.7932487661714
 30
0
 40
0.3987468158955405
 50
241.5892540997091
 51
243.2416640885018
  0
ARC
  8
1
 62
2
 10
477.230078317871
 20
-338.7967311954773
 30
0
 40
0.3947875273128443
 50
239.9198091268237
 51
241.5892540997274
  0
ARC
  8
1
 62
2
 10
477.2473581314468
 20
-338.7668981854837
 30
0
 40
0.4292636123935083
 50
238.3841067343409
 51
239.9198091268294
  0
ARC
  8
1
 62
2
 10
477.2491371633169
 20
-338.7640082070005
 30
0
 40
0.432657272663536
 50
235.3366934637402
 51
238.3841067343495
  0
ARC
  8
1
 62
2
 10
477.2792525276821
 20
-338.7204565306241
 30
0
 40
0.4856070950054949
 50
232.4464648107396
 51
235.3366934637315
  0
ARC
  8
1
 62
2
 10
477.286011944052
 20
-338.7116645094184
 30
0
 40
0.4966971512065526
 50
229.4502274895979
 51
232.4464648107345
  0
ARC
  8
1
 62
2
 10
477.3284562808211
 20
-338.6620559047174
 30
0
 40
0.5619852464777907
 50
226.8025206434594
 51
229.4502274895741
  0
ARC
  8
1
 62
2
 10
477.3395884585032
 20
-338.6502002943789
 30
0
 40
0.5782481145041585
 50
224.2286799288977
 51
226.8025206434766
  0
ARC
  8
1
 62
2
 10
477.4176906781894
 20
-338.574173101727
 30
0
 40
0.6872439435180628
 50
223.1457283426386
 51
224.2286799288906
  0
ARC
  8
1
 62
2
 10
477.3614189800019
 20
-338.6269155276957
 30
0
 40
0.6101189312719346
 50
221.9259319656027
 51
223.1457283426422
  0
ARC
  8
1
 62
2
 10
477.4492582215821
 20
-338.5480300930506
 30
0
 40
0.7281809664929709
 50
219.742402773345
 51
221.9259319656055
  0
ARC
  8
1
 62
2
 10
477.4511190173553
 20
-338.5464829029006
 30
0
 40
0.730600957871004
 50
217.4274988355133
 51
219.7424027733497
  0
ARC
  8
1
 62
2
 10
477.5341747887304
 20
-338.4829187839809
 30
0
 40
0.8351889991221967
 50
215.4027081054803
 51
217.4274988355069
  0
ARC
  8
1
 62
2
 10
477.515006792023
 20
-338.4965421337918
 30
0
 40
0.8116728821416861
 50
214.3608901155904
 51
215.4027081054797
  0
ARC
  8
1
 62
2
 10
477.6179427360218
 20
-338.4261635794201
 30
0
 40
0.9363683090118838
 50
213.4577494932265
 51
214.3608901156031
  0
ARC
  8
1
 62
2
 10
477.5656207318492
 20
-338.4607392999483
 30
0
 40
0.8736540955459423
 50
212.4897376325583
 51
213.45774949322
  0
ARC
  8
1
 62
2
 10
477.6880293928211
 20
-338.38278720213
 30
0
 40
1.018776147058246
 50
211.659637189666
 51
212.4897376325623
  0
ARC
  8
1
 62
2
 10
477.6243195630018
 20
-338.4220732209204
 30
0
 40
0.9439274083379742
 50
210.7638142065487
 51
211.6596371896672
  0
ARC
  8
1
 62
2
 10
477.736142427287
 20
-338.3555090987384
 30
0
 40
1.074062474092037
 50
208.9982013433207
 51
210.7638142065428
  0
ARC
  8
1
 62
2
 10
477.7470218908914
 20
-338.3494789600522
 30
0
 40
1.086501336616337
 50
207.2531052361888
 51
208.9982013433205
  0
ARC
  8
1
 62
2
 10
477.8583365840696
 20
-338.2921404924409
 30
0
 40
1.211715795786843
 50
205.6883172830376
 51
207.2531052361885
  0
ARC
  8
1
 62
2
 10
477.8717934553922
 20
-338.2856675167164
 30
0
 40
1.226648538352195
 50
204.1424757892031
 51
205.6883172830372
  0
ARC
  8
1
 62
2
 10
478.0554667456631
 20
-338.2033430183316
 30
0
 40
1.427927450792762
 50
203.4785081074979
 51
204.1424757892022
  0
ARC
  8
1
 62
2
 10
477.9681292027894
 20
-338.2412795146411
 30
0
 40
1.332706527947656
 50
201.9862901758129
 51
203.4785081075032
  0
ARC
  8
1
 62
2
 10
478.1473316653331
 20
-338.1689268946512
 30
0
 40
1.525963931948613
 50
200.6225228219073
 51
201.986290175813
  0
ARC
  8
1
 62
2
 10
478.0834490402196
 20
-338.1929674590434
 30
0
 40
1.457707514464965
 50
199.1949342735928
 51
200.6225228219057
  0
ARC
  8
1
 62
2
 10
478.2986757864979
 20
-338.118038912109
 30
0
 40
1.685604068759339
 50
197.9603231887223
 51
199.1949342735914
  0
ARC
  8
1
 62
2
 10
478.2184189444486
 20
-338.1440545100854
 30
0
 40
1.601235994028529
 50
196.6606333951457
 51
197.9603231887251
  0
ARC
  8
1
 62
2
 10
478.4780108237355
 20
-338.0663675873752
 30
0
 40
1.872203153942503
 50
195.5089812362
 51
196.6606333951448
  0
ARC
  8
1
 62
2
 10
478.3516073112151
 20
-338.1014437226763
 30
0
 40
1.741023188836725
 50
194.2274878934084
 51
195.5089812362013
  0
ARC
  8
1
 62
2
 10
478.6074282473447
 20
-338.0365804687942
 30
0
 40
2.004939071394899
 50
193.1147038509037
 51
194.2274878934104
  0
ARC
  8
1
 62
2
 10
478.4628739192131
 20
-338.0702584229948
 30
0
 40
1.856513472589378
 50
191.9129284231403
 51
193.1147038509001
  0
ARC
  8
1
 62
2
 10
478.7577943130322
 20
-338.0080394427074
 30
0
 40
2.15792554965071
 50
190.8790064863979
 51
191.9129284231405
  0
ARC
  8
1
 62
2
 10
478.6564687974378
 20
-338.027513161199
 30
0
 40
2.05474567844344
 50
189.4339595223177
 51
190.8790064863935
  0
ARC
  8
1
 62
2
 10
478.5766099813271
 20
-337.9266785060501
 30
0
 40
1.97301119400752
 50
166.9207771404954
 51
168.0515905854623
  0
ARC
  8
1
 62
2
 10
478.4906413297404
 20
-337.9067058343486
 30
0
 40
1.884752955465491
 50
165.7370311152
 51
166.9207771404978
  0
ARC
  8
1
 62
2
 10
478.4502517186619
 20
-337.8964384474768
 30
0
 40
1.843078743820297
 50
164.5264997551926
 51
165.7370311152015
  0
ARC
  8
1
 62
2
 10
478.3735978883579
 20
-337.8752186337038
 30
0
 40
1.763542021503983
 50
163.3038856134545
 51
164.5264997551869
  0
ARC
  8
1
 62
2
 10
478.3067073199408
 20
-337.8551554459445
 30
0
 40
1.693707362156011
 50
162.0751578026809
 51
163.3038856134652
  0
ARC
  8
1
 62
2
 10
478.2118299990084
 20
-337.8244654716481
 30
0
 40
1.593989858428696
 50
160.7695847350102
 51
162.0751578026746
  0
ARC
  8
1
 62
2
 10
478.1551430599449
 20
-337.804691243354
 30
0
 40
1.533952960066014
 50
159.4129581694882
 51
160.7695847350135
  0
ARC
  8
1
 62
2
 10
478.0770130462791
 20
-337.7753442667507
 30
0
 40
1.450493124988384
 50
157.9782288327907
 51
159.4129581694847
  0
ARC
  8
1
 62
2
 10
478.0295026579996
 20
-337.7561278208231
 30
0
 40
1.39924364900508
 50
156.5569728838936
 51
157.9782288327867
  0
ARC
  8
1
 62
2
 10
477.929325846499
 20
-337.7126880974768
 30
0
 40
1.290053891578776
 50
155.8220432194012
 51
156.5569728838981
  0
ARC
  8
1
 62
2
 10
477.9253207727796
 20
-337.7108899977345
 30
0
 40
1.285663700446219
 50
154.3471637083449
 51
155.8220432194003
  0
ARC
  8
1
 62
2
 10
477.8112793799061
 20
-337.6561211536408
 30
0
 40
1.159152572193017
 50
152.7114137724131
 51
154.3471637083422
  0
ARC
  8
1
 62
2
 10
477.7876389380191
 20
-337.6439253750391
 30
0
 40
1.132551679194277
 50
151.0372796480779
 51
152.7114137724161
  0
ARC
  8
1
 62
2
 10
477.7001579382018
 20
-337.5955082470095
 30
0
 40
1.03256596213612
 50
149.2007048020604
 51
151.0372796480816
  0
ARC
  8
1
 62
2
 10
477.6937715301564
 20
-337.5917012902182
 30
0
 40
1.0251309686773
 50
148.3758438017285
 51
149.200704802059
  0
ARC
  8
1
 62
2
 10
477.620043266581
 20
-337.5463004998622
 30
0
 40
0.9385452388208848
 50
147.474781376051
 51
148.3758438017307
  0
ARC
  8
1
 62
2
 10
477.6236001240463
 20
-337.5485686695258
 30
0
 40
0.9427637490614469
 50
146.5777314981704
 51
147.4747813760486
  0
ARC
  8
1
 62
2
 10
477.5613305417289
 20
-337.50747471223
 30
0
 40
0.8681566836575998
 50
145.6036288930075
 51
146.5777314981727
  0
ARC
  8
1
 62
2
 10
477.5495632235546
 20
-337.4994185559862
 30
0
 40
0.8538958481126089
 50
143.6230965266681
 51
145.6036288929994
  0
ARC
  8
1
 62
2
 10
477.4785683115447
 20
-337.4471207542673
 30
0
 40
0.7657179733596859
 50
141.4145772650607
 51
143.623096526669
  0
ARC
  8
1
 62
2
 10
477.4594418696704
 20
-337.4318602819167
 30
0
 40
0.7412495693428924
 50
140.6583322215919
 51
141.4145772650711
  0
ARC
  8
1
 62
2
 10
477.3955958279377
 20
-337.3766183172468
 30
0
 40
0.6568221347878605
 50
137.999606478689
 51
139.1324244924056
  0
ARC
  8
1
 62
2
 10
477.4239400768073
 20
-337.4021399460676
 30
0
 40
0.6949633196363005
 50
136.9287332130619
 51
137.9996064786784
  0
ARC
  8
1
 62
2
 10
477.363048906087
 20
-337.3452162460275
 30
0
 40
0.6116084019772651
 50
134.4950517878276
 51
136.9287332130606
  0
ARC
  8
1
 62
2
 10
477.3386921879335
 20
-337.3204263874441
 30
0
 40
0.5768551746768583
 50
131.9153409235882
 51
134.4950517878279
  0
ARC
  8
1
 62
2
 10
477.3018347331404
 20
-337.2793702030182
 30
0
 40
0.521681972364082
 50
129.0630670257507
 51
131.9153409235952
  0
ARC
  8
1
 62
2
 10
477.2853756428957
 20
-337.2590906020199
 30
0
 40
0.4955637054168626
 50
126.0588217174183
 51
129.0630670257432
  0
ARC
  8
1
 62
2
 10
477.2604275184211
 20
-337.2248264836503
 30
0
 40
0.4531792893841077
 50
123.1501959902519
 51
126.0588217174251
  0
ARC
  8
1
 62
2
 10
477.2509891169742
 20
-337.2103756945094
 30
0
 40
0.4359192566879936
 50
121.6378049115658
 51
123.1501959902509
  0
ARC
  8
1
 62
2
 10
477.2412510637969
 20
-337.1945700922138
 30
0
 40
0.4173545928448245
 50
120.0582792272908
 51
121.6378049115645
  0
ARC
  8
1
 62
2
 10
477.2352779724756
 20
-337.1842486542986
 30
0
 40
0.4054294135769556
 50
118.4326575461684
 51
120.0582792272909
  0
ARC
  8
1
 62
2
 10
477.2271915719912
 20
-337.1693135225718
 30
0
 40
0.3884456556744202
 50
116.7364242655942
 51
118.4326575461632
  0
ARC
  8
1
 62
2
 10
477.2222401522349
 20
-337.159484292039
 30
0
 40
0.3774397331565901
 50
114.9911428972869
 51
116.7364242655766
  0
ARC
  8
1
 62
2
 10
477.2158292340903
 20
-337.1457304831514
 30
0
 40
0.3622651777966249
 50
113.1729426707344
 51
114.9911428972942
  0
ARC
  8
1
 62
2
 10
477.2119886819422
 20
-337.1367581040471
 30
0
 40
0.3525053915492077
 50
111.304162625423
 51
113.1729426707591
  0
ARC
  8
1
 62
2
 10
477.2067064519486
 20
-337.1232127925201
 30
0
 40
0.3379665670415233
 50
107.5530555883439
 51
111.3041626253994
  0
ARC
  8
1
 62
2
 10
477.2034678679831
 20
-337.1129743843454
 30
0
 40
0.3272281580322979
 50
101.9682751702258
 51
107.5530555883304
  0
ARC
  8
1
 62
2
 10
477.2010308830057
 20
-337.1014779743117
 30
0
 40
0.3154762926719029
 50
98.10653758554194
 51
101.9682751702575
  0
ARC
  8
1
 62
2
 10
477.199876769459
 20
-337.0933753776061
 30
0
 40
0.3072919141706218
 50
94.14419110483753
 51
98.10653758553352
  0
ARC
  8
1
 62
2
 10
477.198925190098
 20
-337.0802422067237
 30
0
 40
0.294124314514479
 50
90.00661199221311
 51
94.14419110486475
  0
ARC
  8
1
 62
2
 10
477.4693369317955
 20
-337.8455722473103
 30
0
 40
1.933467329708116
 50
162.0125138301461
 51
167.0711794222815
  0
ARC
  8
1
 62
2
 10
472.5840100909268
 20
-338.0012057663497
 30
0
 40
3.054032989094944
 50
348.9492806605401
 51
349.340182210488
  0
ARC
  8
1
 62
2
 10
477.1978593386092
 20
-338.7003569603306
 30
0
 40
1.343951358906801
 50
265.0312287652405
 51
270.0439927008084
  0
ARC
  8
1
 62
2
 10
477.2031069903101
 20
-338.6399971315686
 30
0
 40
1.404538872278451
 50
255.4032995968822
 51
265.031228765242
  0
ARC
  8
1
 62
2
 10
477.2080701011578
 20
-338.6209389562357
 30
0
 40
1.424232691519694
 50
248.2040524400472
 51
255.4032995968841
  0
ARC
  8
1
 62
2
 10
477.2479036961983
 20
-338.5213274317857
 30
0
 40
1.531513496406104
 50
243.6818166860807
 51
248.2040524400477
  0
ARC
  8
1
 62
2
 10
477.2356775001559
 20
-338.546045507421
 30
0
 40
1.503937000385471
 50
239.0162314036048
 51
243.6818166860786
  0
ARC
  8
1
 62
2
 10
477.3105371571606
 20
-338.421378131419
 30
0
 40
1.64935337802584
 50
233.6624750463562
 51
239.0162314036118
  0
ARC
  8
1
 62
2
 10
477.3076941206944
 20
-338.4252431485786
 30
0
 40
1.644555335300946
 50
229.2516299822188
 51
233.6624750463463
  0
ARC
  8
1
 62
2
 10
477.4144874243882
 20
-338.3012962882577
 30
0
 40
1.808163507154404
 50
224.2369052991607
 51
229.251629982225
  0
ARC
  8
1
 62
2
 10
477.420657509854
 20
-338.2952884048442
 30
0
 40
1.816775395319195
 50
220.1005717508921
 51
224.2369052991614
  0
ARC
  8
1
 62
2
 10
477.5502858800913
 20
-338.1861289704707
 30
0
 40
1.986243080979502
 50
216.3171646581713
 51
220.100571750893
  0
ARC
  8
1
 62
2
 10
477.5391013590378
 20
-338.1943499777683
 30
0
 40
1.972362213853207
 50
212.4431681069496
 51
216.3171646581672
  0
ARC
  8
1
 62
2
 10
477.6898200209732
 20
-338.0985416414291
 30
0
 40
2.150954913501451
 50
208.8323635423259
 51
212.4431681069463
  0
ARC
  8
1
 62
2
 10
477.6663694995144
 20
-338.1114509294448
 30
0
 40
2.124185963694786
 50
205.1759159458921
 51
208.8323635423267
  0
ARC
  8
1
 62
2
 10
477.9073952072922
 20
-337.9981565643266
 30
0
 40
2.390510962478781
 50
193.7447124406144
 51
205.1759159458912
  0
ARC
  8
1
 62
2
 10
478.7242191384204
 20
-338.2530052035135
 30
0
 40
3.252834968504798
 50
158.9455129431326
 51
162.0125138301434
  0
ARC
  8
1
 62
2
 10
477.3268043575549
 20
-337.7150626411533
 30
0
 40
1.755453831258964
 50
153.2915472294322
 51
158.9455129431339
  0
ARC
  8
1
 62
2
 10
478.6693932759395
 20
-338.3905627118017
 30
0
 40
3.258399388894012
 50
150.9080945111788
 51
153.291547229433
  0
ARC
  8
1
 62
2
 10
477.1929727585841
 20
-337.5690707728844
 30
0
 40
1.568823539820031
 50
145.9567567701181
 51
150.9080945111785
  0
ARC
  8
1
 62
2
 10
478.3311120544014
 20
-338.338005863723
 30
0
 40
2.942367216084659
 50
143.3815699210037
 51
145.956756770116
  0
ARC
  8
1
 62
2
 10
477.1456407442491
 20
-337.4570053837422
 30
0
 40
1.465375654524295
 50
138.2526695909748
 51
143.3815699210057
  0
ARC
  8
1
 62
2
 10
478.0081020036573
 20
-338.2267092950558
 30
0
 40
2.62135296185834
 50
135.4111169628592
 51
138.2526695909752
  0
ARC
  8
1
 62
2
 10
477.1108670114177
 20
-337.3422587300859
 30
0
 40
1.361478589877313
 50
130.0822016479117
 51
135.4111169628588
  0
ARC
  8
1
 62
2
 10
477.7512242501807
 20
-338.1031870223115
 30
0
 40
2.355998202124951
 50
127.0036933235213
 51
130.082201647911
  0
ARC
  8
1
 62
2
 10
477.2045683977955
 20
-337.3778474891146
 30
0
 40
1.447730587726481
 50
78.60414984824016
 51
127.0036933235226
  0
ARC
  8
1
 62
2
 10
477.2696859140575
 20
-337.0547798310849
 30
0
 40
1.11816571916651
 50
70.96080940497211
 51
78.6041498482404
  0
ARC
  8
1
 62
2
 10
477.0097647055711
 20
-337.8079718326749
 30
0
 40
1.914945002205652
 50
65.58418767501601
 51
70.9608094049708
  0
ARC
  8
1
 62
2
 10
477.3328198857194
 20
-337.0963227557045
 30
0
 40
1.133402259821296
 50
59.39212071102923
 51
65.58418767501075
  0
ARC
  8
1
 62
2
 10
476.7601663401169
 20
-338.064323177143
 30
0
 40
2.258105286933999
 50
55.50862057971892
 51
59.39212071103499
  0
ARC
  8
1
 62
2
 10
477.3475139303675
 20
-337.2094516135721
 30
0
 40
1.220905893386311
 50
49.56597303716157
 51
55.50862057971839
  0
ARC
  8
1
 62
2
 10
476.2997956170528
 20
-338.4390362293852
 30
0
 40
2.836329055130461
 50
47.00875636515008
 51
49.565973037165
  0
ARC
  8
1
 62
2
 10
477.3442327551412
 20
-337.3186712906819
 30
0
 40
1.304641576793671
 50
41.34754419038767
 51
47.00875636514977
  0
ARC
  8
1
 62
2
 10
475.9339489806738
 20
-338.5597108346365
 30
0
 40
3.183226010399221
 50
38.98715539601211
 51
41.34754419039058
  0
ARC
  8
1
 62
2
 10
477.3247756223823
 20
-337.4339577904794
 30
0
 40
1.393891311770941
 50
33.59490350111673
 51
38.98715539601164
  0
ARC
  8
1
 62
2
 10
475.5144788480623
 20
-338.6364839968361
 30
0
 40
3.567193796030247
 50
32.62320325359394
 51
33.59490350111892
  0
ARC
  8
1
 62
2
 10
476.398487836217
 20
-337.9903908779285
 30
0
 40
2.480131796141504
 50
353.4766111065159
 51
26.19073288439152
  0
ARC
  8
1
 62
2
 10
476.5633525116321
 20
-338.0342437796301
 30
0
 40
2.309216407622713
 50
337.4567821170309
 51
341.7775269078118
  0
ARC
  8
1
 62
2
 10
476.6434422697919
 20
-338.0674888419852
 30
0
 40
2.222500760054865
 50
333.0158460802132
 51
337.4567821170293
  0
ARC
  8
1
 62
2
 10
476.7226662831602
 20
-338.1078278978355
 30
0
 40
2.133598095746808
 50
329.3755560606657
 51
333.0158460802122
  0
ARC
  8
1
 62
2
 10
476.7829691312235
 20
-338.14352563638
 30
0
 40
2.063521266325541
 50
325.6116754634852
 51
329.3755560606676
  0
ARC
  8
1
 62
2
 10
476.8562067176357
 20
-338.1936505405569
 30
0
 40
1.974773026443047
 50
321.8062656393882
 51
325.6116754634907
  0
ARC
  8
1
 62
2
 10
476.9120125338892
 20
-338.2375555066923
 30
0
 40
1.903766440980478
 50
317.8590347742173
 51
321.8062656393864
  0
ARC
  8
1
 62
2
 10
476.9816516008527
 20
-338.3005697319254
 30
0
 40
1.809849497731335
 50
312.7768711590786
 51
317.8590347742181
  0
ARC
  8
1
 62
2
 10
477.0429899844523
 20
-338.3668628205119
 30
0
 40
1.719532440112234
 50
308.5582937590031
 51
312.7768711590773
  0
ARC
  8
1
 62
2
 10
477.0814233551456
 20
-338.4150794142755
 30
0
 40
1.657872372831965
 50
304.2186694579204
 51
308.5582937590011
  0
ARC
  8
1
 62
2
 10
477.1231078150522
 20
-338.4763732635757
 30
0
 40
1.583747274789854
 50
299.7880672664484
 51
304.2186694579218
  0
ARC
  8
1
 62
2
 10
477.1442113640696
 20
-338.513239939177
 30
0
 40
1.541267732054418
 50
295.2356243475065
 51
299.7880672664514
  0
ARC
  8
1
 62
2
 10
477.1755248813523
 20
-338.5796772966435
 30
0
 40
1.467820752322407
 50
288.219378572518
 51
295.2356243475034
  0
ARC
  8
1
 62
2
 10
477.1902981545236
 20
-338.6245592954602
 30
0
 40
1.420569896055331
 50
281.0193159388827
 51
288.2193785725241
  0
ARC
  8
1
 62
2
 10
477.1988122865697
 20
-338.6682820061127
 30
0
 40
1.37602591923137
 50
270.0032878363193
 51
281.0193159388763
  0
ARC
  8
1
 62
2
 10
474.3176837516149
 20
-339.2971364516033
 30
0
 40
0.7471724471857267
 50
268.3136046515469
 51
270.0925950472501
  0
ARC
  8
1
 62
2
 10
474.3213993268545
 20
-339.170935142407
 30
0
 40
0.8734284408740743
 50
260.7031636178108
 51
268.3136046515462
  0
ARC
  8
1
 62
2
 10
474.3211954596566
 20
-339.172180516356
 30
0
 40
0.8721664907532053
 50
253.0192048103444
 51
260.703163617811
  0
ARC
  8
1
 62
2
 10
474.3491525782054
 20
-339.0806271567452
 30
0
 40
0.9678932797601981
 50
250.1605401645453
 51
253.0192048103509
  0
ARC
  8
1
 62
2
 10
474.331296479645
 20
-339.1301174085742
 30
0
 40
0.9152803033960336
 50
247.1372117505624
 51
250.1605401645431
  0
ARC
  8
1
 62
2
 10
474.3821871680763
 20
-339.0094236569118
 30
0
 40
1.046264439303225
 50
244.4919672024705
 51
247.1372117505531
  0
ARC
  8
1
 62
2
 10
474.3619864166651
 20
-339.0517601367779
 30
0
 40
0.9993555074775649
 50
240.3381158066373
 51
244.4919672024775
  0
ARC
  8
1
 62
2
 10
474.4404850024254
 20
-338.913924486777
 30
0
 40
1.157976736755126
 50
237.781403697567
 51
240.3381158066375
  0
ARC
  8
1
 62
2
 10
474.3934758639714
 20
-338.9885200274291
 30
0
 40
1.069804440746813
 50
235.0144182173961
 51
237.7814036975654
  0
ARC
  8
1
 62
2
 10
474.5137106278941
 20
-338.8167149880009
 30
0
 40
1.279502724069644
 50
232.7007173891526
 51
235.0144182173874
  0
ARC
  8
1
 62
2
 10
474.4470458359219
 20
-338.9042273092489
 30
0
 40
1.169490902618778
 50
230.1690123982351
 51
232.7007173891674
  0
ARC
  8
1
 62
2
 10
474.6057485886389
 20
-338.7139556926149
 30
0
 40
1.417260658271999
 50
228.0801973609173
 51
230.1690123982346
  0
ARC
  8
1
 62
2
 10
474.5151777355663
 20
-338.814828398421
 30
0
 40
1.28169376628525
 50
225.5812271696191
 51
228.0801973609214
  0
ARC
  8
1
 62
2
 10
474.7071825548183
 20
-338.6188880007143
 30
0
 40
1.55602657524089
 50
223.5232454069793
 51
225.5812271696146
  0
ARC
  8
1
 62
2
 10
474.5938357935294
 20
-338.7265374921384
 30
0
 40
1.399706706706653
 50
221.2352524443631
 51
223.5232454069792
  0
ARC
  8
1
 62
2
 10
474.5908277414719
 20
-337.2397164010207
 30
0
 40
1.393944343484267
 50
135.3986545206458
 51
137.6959959167473
  0
ARC
  8
1
 62
2
 10
474.6570524672234
 20
-337.3050259185779
 30
0
 40
1.48695535027587
 50
133.2449709814025
 51
135.398654520646
  0
ARC
  8
1
 62
2
 10
474.5111755924027
 20
-337.1499269580381
 30
0
 40
1.274033415830397
 50
130.8261126153101
 51
133.2449709814013
  0
ARC
  8
1
 62
2
 10
474.5643958608958
 20
-337.2115264532297
 30
0
 40
1.355439157558766
 50
128.6417938599541
 51
130.8261126153107
  0
ARC
  8
1
 62
2
 10
474.4438012723226
 20
-337.0606860190376
 30
0
 40
1.162317715506397
 50
126.0945878100026
 51
128.641793859957
  0
ARC
  8
1
 62
2
 10
474.4812616315051
 20
-337.1120671882323
 30
0
 40
1.225904687897762
 50
123.6798977603882
 51
126.0945878100023
  0
ARC
  8
1
 62
2
 10
474.3905127552889
 20
-336.9758915104189
 30
0
 40
1.062261253069297
 50
120.8931664171386
 51
123.6798977603949
  0
ARC
  8
1
 62
2
 10
474.4179566039784
 20
-337.0217592539971
 30
0
 40
1.115712302935901
 50
118.3262607685222
 51
120.8931664171284
  0
ARC
  8
1
 62
2
 10
474.3556181955516
 20
-336.9061112799848
 30
0
 40
0.9843329626334534
 50
115.5145502568991
 51
118.3262607685196
  0
ARC
  8
1
 62
2
 10
474.3800851120775
 20
-336.9573737308439
 30
0
 40
1.041134977319266
 50
112.8562707900537
 51
115.5145502569019
  0
ARC
  8
1
 62
2
 10
474.3327396023629
 20
-336.8450521350074
 30
0
 40
0.9192426552418169
 50
109.8459772948497
 51
112.8562707900605
  0
ARC
  8
1
 62
2
 10
474.3477649362445
 20
-336.8866817597216
 30
0
 40
0.9635008331540623
 50
106.974277730267
 51
109.8459772948436
  0
ARC
  8
1
 62
2
 10
474.3218553059866
 20
-336.801798902993
 30
0
 40
0.8747517018540438
 50
97.79298080789008
 51
106.9742777302665
  0
ARC
  8
1
 62
2
 10
474.3205649356687
 20
-336.7923703796505
 30
0
 40
0.8652352892956315
 50
91.64709206937671
 51
97.79298080788776
  0
ARC
  8
1
 62
2
 10
474.3193571619852
 20
-336.7503683127869
 30
0
 40
0.8232158611930902
 50
85.18809002139534
 51
91.64709206937616
  0
ARC
  8
1
 62
2
 10
474.3143282749294
 20
-336.810106807214
 30
0
 40
0.8831656520303551
 50
74.65056171639546
 51
85.18809002139192
  0
ARC
  8
1
 62
2
 10
474.3115657431989
 20
-336.8201707960865
 30
0
 40
0.8936019087150688
 50
71.55395680359102
 51
74.6505617164071
  0
ARC
  8
1
 62
2
 10
474.292067622847
 20
-336.8786274241978
 30
0
 40
0.9552245836600473
 50
68.65730783533763
 51
71.55395680358832
  0
ARC
  8
1
 62
2
 10
474.2896281961147
 20
-336.8848704812558
 30
0
 40
0.9619273117773487
 50
65.78033843662919
 51
68.65730783533138
  0
ARC
  8
1
 62
2
 10
474.2628928876013
 20
-336.9443046843444
 30
0
 40
1.027097866616725
 50
61.73837080992906
 51
65.78033843662959
  0
ARC
  8
1
 62
2
 10
474.2462576041603
 20
-336.9752493868838
 30
0
 40
1.062230576025702
 50
59.04220200440802
 51
61.73837080993405
  0
ARC
  8
1
 62
2
 10
474.2196675809777
 20
-337.0195765405299
 30
0
 40
1.113921251037873
 50
56.38473381806667
 51
59.04220200440585
  0
ARC
  8
1
 62
2
 10
474.192151703377
 20
-337.0609673351638
 30
0
 40
1.163623578956868
 50
53.84078061154798
 51
56.38473381806558
  0
ARC
  8
1
 62
2
 10
474.1562650447053
 20
-337.1100735341535
 30
0
 40
1.224445212031161
 50
51.42283771850749
 51
53.84078061154616
  0
ARC
  8
1
 62
2
 10
474.1217985376117
 20
-337.1532842955249
 30
0
 40
1.27971826160811
 50
49.10925580623174
 51
51.42283771852051
  0
ARC
  8
1
 62
2
 10
474.0784414574832
 20
-337.203353419421
 30
0
 40
1.345950833390993
 50
46.81966059706305
 51
49.10925580622179
  0
ARC
  8
1
 62
2
 10
474.039558647151
 20
-337.2447878897447
 30
0
 40
1.402772380979525
 50
44.53671390089266
 51
46.81966059706
  0
ARC
  8
1
 62
2
 10
473.9866191873269
 20
-337.2968780752321
 30
0
 40
1.477041983311517
 50
42.36863566171811
 51
44.53671390089603
  0
ARC
  8
1
 62
2
 10
473.9369965043985
 20
-337.3421400230017
 30
0
 40
1.544206368047308
 50
40.29465127371436
 51
42.36863566171486
  0
ARC
  8
1
 62
2
 10
473.8713566584681
 20
-337.3977961266398
 30
0
 40
1.630265599080009
 50
38.3300876209289
 51
40.29465127371443
  0
ARC
  8
1
 62
2
 10
473.8125134293473
 20
-337.4443179025882
 30
0
 40
1.705277606457026
 50
36.37719355298742
 51
38.33008762093117
  0
ARC
  8
1
 62
2
 10
473.7479214866122
 20
-337.4918995155982
 30
0
 40
1.78550309469457
 50
34.44075325501379
 51
36.37719355298844
  0
ARC
  8
1
 62
2
 10
473.6905598477888
 20
-337.5312358071881
 30
0
 40
1.85505668155071
 50
32.57697715811899
 51
34.44075325501404
  0
ARC
  8
1
 62
2
 10
473.6123819289257
 20
-337.5811884216422
 30
0
 40
1.947830873482445
 50
30.80186259135866
 51
32.57697715811828
  0
ARC
  8
1
 62
2
 10
473.5444000646802
 20
-337.6217167414808
 30
0
 40
2.026976805628262
 50
29.0960191587779
 51
30.80186259135898
  0
ARC
  8
1
 62
2
 10
473.4533654920846
 20
-337.6723776504816
 30
0
 40
2.131158479201051
 50
27.41783180283709
 51
29.09601915877556
  0
ARC
  8
1
 62
2
 10
473.3970417861534
 20
-337.7015953293401
 30
0
 40
2.194609504470075
 50
25.73409629881954
 51
27.41783180283878
  0
ARC
  8
1
 62
2
 10
473.3149407180555
 20
-337.7411680964038
 30
0
 40
2.285749996436564
 50
24.11753478791906
 51
25.73409629882126
  0
ARC
  8
1
 62
2
 10
473.2507017885184
 20
-337.769927154983
 30
0
 40
2.356132689752776
 50
22.54920337647014
 51
24.1175347879203
  0
ARC
  8
1
 62
2
 10
473.1567528484817
 20
-337.8089366358972
 30
0
 40
2.457858512114837
 50
21.04575890311348
 51
22.54920337646774
  0
ARC
  8
1
 62
2
 10
474.0586133591158
 20
-337.4839518505181
 30
0
 40
1.49959218131218
 50
18.00337750797889
 51
21.83148025370544
  0
ARC
  8
1
 62
2
 10
472.496780088215
 20
-337.9915240322251
 30
0
 40
3.141832323841479
 50
10.6111737871383
 51
18.00337750797414
  0
ARC
  8
1
 62
2
 10
472.7478038563538
 20
-338.0331945468623
 30
0
 40
2.887144764011736
 50
346.1802507668669
 51
348.9492806605387
  0
ARC
  8
1
 62
2
 10
472.7917880206962
 20
-338.0440141707189
 30
0
 40
2.841849389266562
 50
344.1258183090208
 51
346.1802507668669
  0
ARC
  8
1
 62
2
 10
472.9657158831872
 20
-338.0934741025077
 30
0
 40
2.66102575639952
 50
341.9318332782856
 51
344.1258183090197
  0
ARC
  8
1
 62
2
 10
473.0010238908698
 20
-338.1049928295588
 30
0
 40
2.623886336918447
 50
339.7067312039234
 51
341.9318332782885
  0
ARC
  8
1
 62
2
 10
473.1730301886668
 20
-338.1685969194615
 30
0
 40
2.440497005892405
 50
338.1926272034273
 51
339.7067312039214
  0
ARC
  8
1
 62
2
 10
473.1549143981504
 20
-338.1613484160064
 30
0
 40
2.460009121830486
 50
336.6904989071721
 51
338.1926272034265
  0
ARC
  8
1
 62
2
 10
473.3269530266902
 20
-338.2354737769808
 30
0
 40
2.27268091026196
 50
335.0646117434754
 51
336.6904989071764
  0
ARC
  8
1
 62
2
 10
473.3149733074353
 20
-338.2299039804124
 30
0
 40
2.285892129253174
 50
333.4481550957361
 51
335.064611743476
  0
ARC
  8
1
 62
2
 10
473.4624074169096
 20
-338.3035785618915
 30
0
 40
2.121074774000239
 50
331.7059372413519
 51
333.4481550957351
  0
ARC
  8
1
 62
2
 10
473.4590788983085
 20
-338.3017867841692
 30
0
 40
2.124854919960908
 50
330.0787416652692
 51
331.7059372413513
  0
ARC
  8
1
 62
2
 10
473.6136389293965
 20
-338.3907390680139
 30
0
 40
1.946525696301155
 50
328.3023902108405
 51
330.0787416652696
  0
ARC
  8
1
 62
2
 10
473.6199987472527
 20
-338.3946666050728
 30
0
 40
1.939050883225562
 50
326.5193015718386
 51
328.3023902108445
  0
ARC
  8
1
 62
2
 10
473.7478617424946
 20
-338.4792353448855
 30
0
 40
1.785751120323955
 50
324.5831970517287
 51
326.5193015718356
  0
ARC
  8
1
 62
2
 10
473.7548602294486
 20
-338.4842120003131
 30
0
 40
1.777163575919861
 50
322.6374876805393
 51
324.5831970517309
  0
ARC
  8
1
 62
2
 10
473.8651169299606
 20
-338.5683953622569
 30
0
 40
1.638443071177532
 50
320.6828570798197
 51
322.6374876805371
  0
ARC
  8
1
 62
2
 10
473.8842316033495
 20
-338.5840500939913
 30
0
 40
1.613735959561003
 50
318.6981647217891
 51
320.6828570798168
  0
ARC
  8
1
 62
2
 10
473.9800453345102
 20
-338.6682299514931
 30
0
 40
1.486195693417378
 50
316.5433374268738
 51
318.6981647217928
  0
ARC
  8
1
 62
2
 10
473.9979932302531
 20
-338.6852360865125
 30
0
 40
1.461470491903661
 50
314.3521899965347
 51
316.5433374268715
  0
ARC
  8
1
 62
2
 10
474.0732437834614
 20
-338.7622078015792
 30
0
 40
1.353826213474753
 50
311.9863854729411
 51
314.3521899965384
  0
ARC
  8
1
 62
2
 10
474.0876221380889
 20
-338.7781842149374
 30
0
 40
1.332332426800651
 50
309.7644047679132
 51
311.9863854729424
  0
ARC
  8
1
 62
2
 10
474.1502563880052
 20
-338.8534552143694
 30
0
 40
1.234410148344634
 50
307.3658654446869
 51
309.7644047679096
  0
ARC
  8
1
 62
2
 10
474.1651449120186
 20
-338.872952658235
 30
0
 40
1.209878159746245
 50
304.9189989487549
 51
307.3658654446837
  0
ARC
  8
1
 62
2
 10
474.2143698505128
 20
-338.9434651134499
 30
0
 40
1.123883387171345
 50
302.2851791362855
 51
304.9189989487596
  0
ARC
  8
1
 62
2
 10
474.2267745365656
 20
-338.9630986288397
 30
0
 40
1.100659452047642
 50
299.5953013594977
 51
302.2851791362815
  0
ARC
  8
1
 62
2
 10
474.2611524159095
 20
-339.0236261973943
 30
0
 40
1.031050363967762
 50
296.9114000444891
 51
299.5953013595034
  0
ARC
  8
1
 62
2
 10
474.262678546734
 20
-339.0266328827435
 30
0
 40
1.027678534778437
 50
294.2182023039658
 51
296.9114000444892
  0
ARC
  8
1
 62
2
 10
474.289249923033
 20
-339.0857066760673
 30
0
 40
0.9629039170945345
 50
291.3441514240626
 51
294.2182023039537
  0
ARC
  8
1
 62
2
 10
474.2923948328845
 20
-339.0937546228829
 30
0
 40
0.9542633207076821
 50
288.4445839370148
 51
291.3441514240744
  0
ARC
  8
1
 62
2
 10
474.3110746000242
 20
-339.1497625274101
 30
0
 40
0.8952224952568689
 50
283.8688227225641
 51
288.444583937
  0
ARC
  8
1
 62
2
 10
474.3148391652505
 20
-339.1650100042233
 30
0
 40
0.8795171617514851
 50
276.3102514129878
 51
283.8688227225774
  0
ARC
  8
1
 62
2
 10
474.3188164403064
 20
-339.2009767101074
 30
0
 40
0.8433312162890172
 50
270.0050824116683
 51
276.3102514129834
  0
ARC
  8
1
 62
2
 10
471.3293695087475
 20
-336.7513241962397
 30
0
 40
0.8524759898634724
 50
78.52980935898596
 51
148.969179626747
  0
ARC
  8
1
 62
2
 10
471.318131003474
 20
-337.5357814609773
 30
0
 40
0.7199999999998969
 50
75.45999660111167
 51
182.6332143368927
  0
ARC
  8
1
 62
2
 10
467.7239568838569
 20
-338.61804077324
 30
0
 40
1.503827651592916
 50
305.3418856147053
 51
306.5227254737181
  0
ARC
  8
1
 62
2
 10
467.9575921361841
 20
-336.9944329822785
 30
0
 40
1.078559095640193
 50
88.64368757797918
 51
89.98577809604598
  0
ARC
  8
1
 62
2
 10
467.9593938844612
 20
-336.9183345208576
 30
0
 40
1.002439307625136
 50
77.08933541827615
 51
88.64368757797723
  0
ARC
  8
1
 62
2
 10
467.9345247384794
 20
-337.0268261147601
 30
0
 40
1.113744744910851
 50
73.11056002495232
 51
77.08933541827342
  0
ARC
  8
1
 62
2
 10
467.958987336915
 20
-336.9462568384652
 30
0
 40
1.029543634437714
 50
68.76295121296447
 51
73.11056002496231
  0
ARC
  8
1
 62
2
 10
467.8905479741004
 20
-337.1223662041854
 30
0
 40
1.218483982370195
 50
65.08915510847226
 51
68.76295121296506
  0
ARC
  8
1
 62
2
 10
467.9363774312585
 20
-337.0236840042949
 30
0
 40
1.10967903892246
 50
60.98315992179282
 51
65.08915510846941
  0
ARC
  8
1
 62
2
 10
467.8070488838988
 20
-337.2568372419485
 30
0
 40
1.376299190806395
 50
58.69886154385571
 51
60.98315992179111
  0
ARC
  8
1
 62
2
 10
467.9218453613029
 20
-337.0680386566439
 30
0
 40
1.155339608444657
 50
55.97756527597161
 51
58.69886154385796
  0
ARC
  8
1
 62
2
 10
467.7307928835996
 20
-337.3510465052942
 30
0
 40
1.496798964202146
 50
53.87690296492907
 51
55.97756527596992
  0
ARC
  8
1
 62
2
 10
467.9311639964893
 20
-338.910236707173
 30
0
 40
1.145619260663252
 50
302.5973340134027
 51
305.341885614707
  0
ARC
  8
1
 62
2
 10
467.7672317100988
 20
-338.6538766551976
 30
0
 40
1.449912327902783
 50
300.4290610539018
 51
302.5973340134026
  0
ARC
  8
1
 62
2
 10
467.93956954468
 20
-338.947278319238
 30
0
 40
1.109640575196395
 50
296.250889718269
 51
300.4290610538967
  0
ARC
  8
1
 62
2
 10
467.8755713607721
 20
-338.8175079202804
 30
0
 40
1.254333781633989
 50
292.6821473217054
 51
296.2508897182723
  0
ARC
  8
1
 62
2
 10
467.9619701343423
 20
-339.0242317411041
 30
0
 40
1.030281363279607
 50
288.337388297447
 51
292.6821473216987
  0
ARC
  8
1
 62
2
 10
467.9445341072963
 20
-338.9716252429196
 30
0
 40
1.085702105699745
 50
278.8820487607441
 51
288.3373882974493
  0
ARC
  8
1
 62
2
 10
467.9624585784806
 20
-339.0863236201811
 30
0
 40
0.9696116047374956
 50
268.4298013435203
 51
278.8820487607476
  0
ARC
  8
1
 62
2
 10
467.9644106545433
 20
-339.0151111544534
 30
0
 40
1.040850820594961
 50
257.3032216527251
 51
268.4298013435105
  0
ARC
  8
1
 62
2
 10
467.9566786617789
 20
-339.0494297095809
 30
0
 40
1.005672035252557
 50
252.8966737904936
 51
257.3032216527288
  0
ARC
  8
1
 62
2
 10
467.9967270492109
 20
-338.9192772771084
 30
0
 40
1.14184666216388
 50
248.9768374474021
 51
252.8966737904945
  0
ARC
  8
1
 62
2
 10
467.9786469295843
 20
-338.9663207465243
 30
0
 40
1.091448460406419
 50
244.8752688740343
 51
248.9768374474115
  0
ARC
  8
1
 62
2
 10
468.041160388145
 20
-338.8330186173499
 30
0
 40
1.238680896179266
 50
241.1970461562079
 51
244.8752688740242
  0
ARC
  8
1
 62
2
 10
468.0028898155292
 20
-338.902624030113
 30
0
 40
1.15924821893481
 50
238.4849753094441
 51
241.1970461562221
  0
ARC
  8
1
 62
2
 10
468.1134665368008
 20
-338.7222853882106
 30
0
 40
1.370788373634382
 50
236.1914515103713
 51
238.4849753094342
  0
ARC
  8
1
 62
2
 10
468.0426935089351
 20
-338.8279707615309
 30
0
 40
1.243594743262627
 50
233.6630167305361
 51
236.1914515103732
  0
ARC
  8
1
 62
2
 10
468.166866614405
 20
-338.6591580518957
 30
0
 40
1.453157838907949
 50
230.4175034557356
 51
233.6630167305324
  0
ARC
  8
1
 62
2
 10
468.1379204574049
 20
-338.694169716919
 30
0
 40
1.407729910353138
 50
226.8501050618663
 51
230.4175034557385
  0
ARC
  8
1
 62
2
 10
468.292594566192
 20
-338.5291696025294
 30
0
 40
1.633891617274647
 50
223.7767397847654
 51
226.850105061859
  0
ARC
  8
1
 62
2
 10
468.2512870147906
 20
-338.5687499416315
 30
0
 40
1.576682203309725
 50
220.5915175648403
 51
223.7767397847746
  0
ARC
  8
1
 62
2
 10
468.455562750431
 20
-338.3937169131764
 30
0
 40
1.845689893202794
 50
217.7527332158131
 51
220.5915175648396
  0
ARC
  8
1
 62
2
 10
468.3858821973707
 20
-338.4476746788804
 30
0
 40
1.757560329748848
 50
214.7098024781492
 51
217.7527332158126
  0
ARC
  8
1
 62
2
 10
468.6900440708552
 20
-338.2369860156521
 30
0
 40
2.127565948753
 50
213.0339135489325
 51
214.7098024781454
  0
ARC
  8
1
 62
2
 10
468.4472614580285
 20
-338.3948552745105
 30
0
 40
1.837969505433132
 50
211.0939017442768
 51
213.0339135489354
  0
ARC
  8
1
 62
2
 10
468.78334808045
 20
-338.1921636472707
 30
0
 40
2.230446400961629
 50
208.6039980163692
 51
211.0939017442762
  0
ARC
  8
1
 62
2
 10
468.645291787538
 20
-338.2674468791552
 30
0
 40
2.073197855608839
 50
205.8758106369528
 51
208.6039980163697
  0
ARC
  8
1
 62
2
 10
468.9895409383729
 20
-338.1004680402538
 30
0
 40
2.455806546690867
 50
203.5726137404144
 51
205.8758106369502
  0
ARC
  8
1
 62
2
 10
468.812769396726
 20
-338.1775970280759
 30
0
 40
2.262941156590274
 50
201.0351217717099
 51
203.5726137404186
  0
ARC
  8
1
 62
2
 10
469.1972741209285
 20
-338.029729001265
 30
0
 40
2.674898479970892
 50
198.8243242236308
 51
201.035121771706
  0
ARC
  8
1
 62
2
 10
468.9561086725998
 20
-338.111942682434
 30
0
 40
2.420104714664631
 50
196.3807032327771
 51
198.8243242236333
  0
ARC
  8
1
 62
2
 10
469.3493907298583
 20
-337.996337391858
 30
0
 40
2.830025877536964
 50
193.5727929702558
 51
196.3807032327751
  0
ARC
  8
1
 62
2
 10
469.2027695552097
 20
-338.031735097274
 30
0
 40
2.679192305663722
 50
189.7793386183431
 51
193.5727929702563
  0
ARC
  8
1
 62
2
 10
469.4825592322035
 20
-337.9835109269004
 30
0
 40
2.963107493634467
 50
182.1581547761479
 51
189.7793386183427
  0
ARC
  8
1
 62
2
 10
469.4677819714741
 20
-337.9840678039901
 30
0
 40
2.948319743746204
 50
173.0546496014678
 51
182.1581547761488
  0
ARC
  8
1
 62
2
 10
469.3998092457098
 20
-337.9757876058873
 30
0
 40
2.879844542918115
 50
169.5255243816861
 51
173.0546496014694
  0
ARC
  8
1
 62
2
 10
469.2807874981343
 20
-337.9537830680324
 30
0
 40
2.758805804978145
 50
165.8415603501848
 51
169.5255243816856
  0
ARC
  8
1
 62
2
 10
469.2031496450395
 20
-337.9341975816291
 30
0
 40
2.678735663784022
 50
163.6338735640146
 51
165.841560350184
  0
ARC
  8
1
 62
2
 10
469.1101302184157
 20
-337.906880222397
 30
0
 40
2.581787987974604
 50
161.3433042686161
 51
163.6338735640163
  0
ARC
  8
1
 62
2
 10
469.0342786855049
 20
-337.8812697755236
 30
0
 40
2.501729571590216
 50
158.9794550251095
 51
161.343304268615
  0
ARC
  8
1
 62
2
 10
468.9469463363912
 20
-337.8477100928684
 30
0
 40
2.408171079182553
 50
156.5950147518154
 51
158.9794550251091
  0
ARC
  8
1
 62
2
 10
468.8502485662916
 20
-337.805855241626
 30
0
 40
2.302803687097657
 50
154.1387661598722
 51
156.5950147518165
  0
ARC
  8
1
 62
2
 10
468.7544959630488
 20
-337.7594403106505
 30
0
 40
2.196394538782314
 50
151.5636304758711
 51
154.1387661598716
  0
ARC
  8
1
 62
2
 10
468.6708782268037
 20
-337.7141597503628
 30
0
 40
2.101303766597197
 50
148.9206750525402
 51
151.5636304758724
  0
ARC
  8
1
 62
2
 10
468.580155744432
 20
-337.6594770903021
 30
0
 40
1.995375667780227
 50
147.1337149432975
 51
148.9206750525413
  0
ARC
  8
1
 62
2
 10
468.5416545388376
 20
-337.634601668407
 30
0
 40
1.949537589213495
 50
145.3047743186778
 51
147.1337149432933
  0
ARC
  8
1
 62
2
 10
468.460326693869
 20
-337.5782976242383
 30
0
 40
1.850621646327722
 50
142.4148952764229
 51
145.304774318679
  0
ARC
  8
1
 62
2
 10
468.3816121373411
 20
-337.5177118483222
 30
0
 40
1.751290796876391
 50
139.4230592319964
 51
142.4148952764246
  0
ARC
  8
1
 62
2
 10
468.309423020521
 20
-337.4558886710819
 30
0
 40
1.656246734298167
 50
136.390888707458
 51
139.4230592319987
  0
ARC
  8
1
 62
2
 10
468.2371304336147
 20
-337.3870234462611
 30
0
 40
1.556403670887462
 50
133.1644717349822
 51
136.3908887074591
  0
ARC
  8
1
 62
2
 10
468.1785782468523
 20
-337.324594169461
 30
0
 40
1.470812940218652
 50
129.7501250364745
 51
133.1644717349765
  0
ARC
  8
1
 62
2
 10
468.1254541498217
 20
-337.2607196690651
 30
0
 40
1.387733932724884
 50
126.3515600663217
 51
129.7501250364777
  0
ARC
  8
1
 62
2
 10
468.0875046959626
 20
-337.2091550679013
 30
0
 40
1.32370995954775
 50
123.9761769818331
 51
126.3515600663205
  0
ARC
  8
1
 62
2
 10
468.0658980204391
 20
-337.1770931061782
 30
0
 40
1.28504708566708
 50
121.5296014874054
 51
123.9761769818331
  0
ARC
  8
1
 62
2
 10
468.036363325334
 20
-337.1289527095203
 30
0
 40
1.228568806609422
 50
118.9705823360008
 51
121.5296014874009
  0
ARC
  8
1
 62
2
 10
468.017302108557
 20
-337.0945236872041
 30
0
 40
1.189215438739769
 50
115.1393079227953
 51
118.9705823360039
  0
ARC
  8
1
 62
2
 10
467.9937338345061
 20
-337.0443005338178
 30
0
 40
1.133737256741815
 50
111.1907910448246
 51
115.1393079227986
  0
ARC
  8
1
 62
2
 10
467.9811610054421
 20
-337.0118703862166
 30
0
 40
1.098955213902101
 50
107.1179030063279
 51
111.1907910448238
  0
ARC
  8
1
 62
2
 10
467.9635333294156
 20
-336.9546343717707
 30
0
 40
1.039066180584234
 50
97.27972477580117
 51
107.1179030063349
  0
ARC
  8
1
 62
2
 10
467.9587332596274
 20
-336.9170584675458
 30
0
 40
1.001184928647584
 50
90.04998317335108
 51
97.27972477579529
  0
ARC
  8
1
 62
2
 10
463.4145749747452
 20
-336.875072969803
 30
0
 40
0.9600000000001443
 50
37.17956489002282
 51
145.8289083108305
  0
ARC
  8
1
 62
2
 10
465.0803054719014
 20
-337.1758736032863
 30
0
 40
1.259999999999887
 50
357.5940882005887
 51
135.6402602033606
  0
ARC
  8
1
 62
2
 10
464.9303054719012
 20
-337.2657579938376
 30
0
 40
0.450000000000216
 50
0
 51
180
  0
ARC
  8
1
 62
2
 10
463.0703054719013
 20
-337.2657579938376
 30
0
 40
0.450000000000216
 50
0
 51
180
  0
ARC
  8
1
 62
2
 10
468.0790439244184
 20
-337.079927899394
 30
0
 40
0.2940543157573647
 50
90.03796066491698
 51
94.17655675957711
  0
ARC
  8
1
 62
2
 10
468.080003257484
 20
-337.0930651194906
 30
0
 40
0.3072265164769257
 50
94.17655675957809
 51
98.13977967804473
  0
ARC
  8
1
 62
2
 10
468.0811625868228
 20
-337.101170645819
 30
0
 40
0.3154145322057067
 50
98.13977967807442
 51
102.0023081712618
  0
ARC
  8
1
 62
2
 10
468.0836075445668
 20
-337.1126709895184
 30
0
 40
0.3271719011110277
 50
102.0023081712335
 51
107.5881003172155
  0
ARC
  8
1
 62
2
 10
468.0868541401587
 20
-337.1229129354377
 30
0
 40
0.337916101367539
 50
107.5881003172151
 51
111.3398836546028
  0
ARC
  8
1
 62
2
 10
468.0921452345031
 20
-337.1364560275924
 30
0
 40
0.3524560815762909
 50
111.3398836546238
 51
113.2090207048182
  0
ARC
  8
1
 62
2
 10
468.0959940092012
 20
-337.1454319885988
 30
0
 40
0.3622223983162953
 50
113.2090207048044
 51
115.0275282898209
  0
ARC
  8
1
 62
2
 10
468.102414296818
 20
-337.1591830867162
 30
0
 40
0.3773984581645036
 50
115.0275282898133
 51
116.7730894866139
  0
ARC
  8
1
 62
2
 10
468.1073758453711
 20
-337.1690167570781
 30
0
 40
0.388412904897424
 50
116.7730894866359
 51
118.4695525097154
  0
ARC
  8
1
 62
2
 10
468.1154733129869
 20
-337.1839493552873
 30
0
 40
0.4053997077473734
 50
118.4695525096809
 51
120.0953767677966
  0
ARC
  8
1
 62
2
 10
468.1214584331893
 20
-337.1942761498545
 30
0
 40
0.4173355508207509
 50
120.0953767678103
 51
121.675055936904
  0
ARC
  8
1
 62
2
 10
468.1312092481213
 20
-337.210079449526
 30
0
 40
0.4359049523282608
 50
121.6750559369028
 51
123.1875747979881
  0
ARC
  8
1
 62
2
 10
468.1406649958968
 20
-337.2245361882487
 30
0
 40
0.4531794555190859
 50
123.1875747979895
 51
126.0963494763211
  0
ARC
  8
1
 62
2
 10
468.1656479301764
 20
-337.2588009282122
 30
0
 40
0.4955848727435511
 50
126.0963494763279
 51
129.1007837997545
  0
ARC
  8
1
 62
2
 10
468.1821236004032
 20
-337.2790736692431
 30
0
 40
0.5217082672074953
 50
129.1007837997504
 51
131.9532139140502
  0
ARC
  8
1
 62
2
 10
468.219026782981
 20
-337.3201261700202
 30
0
 40
0.576909288071661
 50
131.9532139140562
 51
134.5329538663098
  0
ARC
  8
1
 62
2
 10
468.24340829573
 20
-337.3449084499475
 30
0
 40
0.6116744942745072
 50
134.5329538663012
 51
136.9666282074778
  0
ARC
  8
1
 62
2
 10
468.3043796578999
 20
-337.4018315949347
 30
0
 40
0.6950876313697653
 50
136.9666282074766
 51
138.0374225779343
  0
ARC
  8
1
 62
2
 10
468.2759917000383
 20
-337.3763045167689
 30
0
 40
0.6569103099442786
 50
138.037422577936
 51
139.1702076577634
  0
ARC
  8
1
 62
2
 10
468.3399191854757
 20
-337.4315432754448
 30
0
 40
0.7413972548196905
 50
139.1702076577626
 51
141.4522472412224
  0
ARC
  8
1
 62
2
 10
468.3590513849274
 20
-337.4467877659957
 30
0
 40
0.7658601971614826
 50
141.4522472412255
 51
143.6606865619954
  0
ARC
  8
1
 62
2
 10
468.4301295739415
 20
-337.4990750109308
 30
0
 40
0.8540988787950304
 50
143.6606865619938
 51
145.641044175066
  0
ARC
  8
1
 62
2
 10
468.4418826547065
 20
-337.5071101526637
 30
0
 40
0.8683360979804978
 50
145.6410441750671
 51
146.615091137162
  0
ARC
  8
1
 62
2
 10
468.5042516436739
 20
-337.548211358104
 30
0
 40
0.9430301397340221
 50
146.6150911371596
 51
147.5120217182334
  0
ARC
  8
1
 62
2
 10
468.5006501484903
 20
-337.5459180148379
 30
0
 40
0.9387604569713826
 50
147.5120217182355
 51
148.4130122911938
  0
ARC
  8
1
 62
2
 10
468.5744987917066
 20
-337.5913268872954
 30
0
 40
1.025452946857992
 50
148.4130122911936
 51
149.2377376191919
  0
ARC
  8
1
 62
2
 10
468.5808533873081
 20
-337.595109316011
 30
0
 40
1.032848056880565
 50
149.2377376191937
 51
151.0741426188792
  0
ARC
  8
1
 62
2
 10
468.6684361974532
 20
-337.6435092083558
 30
0
 40
1.132914525849563
 50
151.0741426188775
 51
152.7480429234596
  0
ARC
  8
1
 62
2
 10
468.6920660047584
 20
-337.6556803800796
 30
0
 40
1.159494691658116
 50
152.7480429234578
 51
154.3836056348666
  0
ARC
  8
1
 62
2
 10
468.8062414370082
 20
-337.7104242560476
 30
0
 40
1.286115864000797
 50
154.3836056348695
 51
155.8582329570083
  0
ARC
  8
1
 62
2
 10
468.8101910579873
 20
-337.7121944632948
 30
0
 40
1.290444043707867
 50
155.85823295701
 51
156.5930731512463
  0
ARC
  8
1
 62
2
 10
468.9105187741726
 20
-337.7556245443383
 30
0
 40
1.399768435196654
 50
156.5930731512473
 51
158.0140682142188
  0
ARC
  8
1
 62
2
 10
468.9580200980892
 20
-337.7748027591047
 30
0
 40
1.450995183048207
 50
158.0140682142167
 51
159.4485897363442
  0
ARC
  8
1
 62
2
 10
469.0362611089851
 20
-337.8041359190228
 30
0
 40
1.534554084769156
 50
159.4485897363429
 51
160.8049577643968
  0
ARC
  8
1
 62
2
 10
469.0929368066808
 20
-337.8238669864617
 30
0
 40
1.594566164649577
 50
160.8049577643934
 51
162.1103215929954
  0
ARC
  8
1
 62
2
 10
469.1879509416746
 20
-337.8545368149428
 30
0
 40
1.694407660169535
 50
162.1103215930015
 51
163.338788717018
  0
ARC
  8
1
 62
2
 10
469.2548279064229
 20
-337.8745515256855
 30
0
 40
1.764215375073176
 50
163.3387887170175
 51
164.5611904096299
  0
ARC
  8
1
 62
2
 10
469.3316100081638
 20
-337.8957568052289
 30
0
 40
1.843871856468447
 50
164.5611904096271
 51
165.7714603755177
  0
ARC
  8
1
 62
2
 10
469.3719519039768
 20
-337.905986258262
 30
0
 40
1.885490485315819
 50
165.7714603755187
 51
166.9549969385455
  0
ARC
  8
1
 62
2
 10
469.4580651405645
 20
-337.9259383212418
 30
0
 40
1.973884910099032
 50
166.9549969385449
 51
168.0855520566176
  0
ARC
  8
1
 62
2
 10
469.5033297894672
 20
-337.9354890005186
 30
0
 40
2.020146167268862
 50
168.0855520566186
 51
169.1902290368747
  0
ARC
  8
1
 62
2
 10
469.6000988156233
 20
-337.9539657831442
 30
0
 40
2.118663353177731
 50
169.1902290368736
 51
170.8198476742534
  0
ARC
  8
1
 62
2
 10
469.6603881125024
 20
-337.9637090871951
 30
0
 40
2.179734879210787
 50
170.8198476742532
 51
172.4279108869306
  0
ARC
  8
1
 62
2
 10
469.7324043324221
 20
-337.9732823984853
 30
0
 40
2.252384615759437
 50
172.4279108869276
 51
173.9841223378798
  0
ARC
  8
1
 62
2
 10
469.8004510889173
 20
-337.9804534666013
 30
0
 40
2.32080818836009
 50
173.9841223378827
 51
176.0212157659429
  0
ARC
  8
1
 62
2
 10
469.8592570515888
 20
-337.9845436992213
 30
0
 40
2.379756226907734
 50
176.0212157659441
 51
180.5422634641693
  0
ARC
  8
1
 62
2
 10
469.8718449334905
 20
-337.9844245603891
 30
0
 40
2.392344672595395
 50
180.542263464171
 51
185.5278718071228
  0
ARC
  8
1
 62
2
 10
469.6386676714282
 20
-338.0069914642625
 30
0
 40
2.158077942790882
 50
185.5278718071168
 51
187.1520994330624
  0
ARC
  8
1
 62
2
 10
469.8038480558823
 20
-337.9862646125812
 30
0
 40
2.32455365209713
 50
187.1520994330675
 51
188.6599773532874
  0
ARC
  8
1
 62
2
 10
469.5380114644987
 20
-338.026753305463
 30
0
 40
2.055651388124265
 50
188.659977353288
 51
190.9079360692659
  0
ARC
  8
1
 62
2
 10
469.6393047080671
 20
-338.0072327504207
 30
0
 40
2.158808420176015
 50
190.9079360692657
 51
191.9416566389533
  0
ARC
  8
1
 62
2
 10
469.3443400282576
 20
-338.0696155684099
 30
0
 40
1.857319152845843
 50
191.9416566389475
 51
193.1431681676242
  0
ARC
  8
1
 62
2
 10
469.4888693032838
 20
-338.0358677433924
 30
0
 40
2.005736224077637
 50
193.1431681676292
 51
194.2557483200858
  0
ARC
  8
1
 62
2
 10
469.2330210627598
 20
-338.1008722437125
 30
0
 40
1.741759128023496
 50
194.2557483200849
 51
195.5369746965254
  0
ARC
  8
1
 62
2
 10
469.3593976893031
 20
-338.0657370607117
 30
0
 40
1.872928990495701
 50
195.5369746965258
 51
196.6884199787501
  0
ARC
  8
1
 62
2
 10
469.0997712306405
 20
-338.1435715386456
 30
0
 40
1.601886366554613
 50
196.6884199787515
 51
197.9878435131377
  0
ARC
  8
1
 62
2
 10
469.1799841625652
 20
-338.1175275914358
 30
0
 40
1.686221422339332
 50
197.9878435131376
 51
199.2222509313892
  0
ARC
  8
1
 62
2
 10
468.9647419552487
 20
-338.1925765976747
 30
0
 40
1.458270635659523
 50
199.2222509313864
 51
200.6495753698043
  0
ARC
  8
1
 62
2
 10
469.0285854574074
 20
-338.1685163369771
 30
0
 40
1.526497381974538
 50
200.6495753698013
 51
202.013140481565
  0
ARC
  8
1
 62
2
 10
468.8493795775349
 20
-338.2409680256482
 30
0
 40
1.333199698149338
 50
202.0131404815679
 51
203.5050919549157
  0
ARC
  8
1
 62
2
 10
468.9366493273349
 20
-338.2030128360137
 30
0
 40
1.428365898296022
 50
203.5050919549158
 51
204.1689757387028
  0
ARC
  8
1
 62
2
 10
468.7530029570318
 20
-338.2854272918592
 30
0
 40
1.227074736399112
 50
204.1689757386955
 51
205.7145594712357
  0
ARC
  8
1
 62
2
 10
468.7394890575717
 20
-338.2919353223837
 30
0
 40
1.212075405083116
 50
205.7145594712393
 51
207.2791657721925
  0
ARC
  8
1
 62
2
 10
468.6281878178118
 20
-338.3493309318415
 30
0
 40
1.086846726430311
 50
207.2791657721918
 51
209.0240224872602
  0
ARC
  8
1
 62
2
 10
468.6172661671745
 20
-338.3553908891539
 30
0
 40
1.074356508847261
 50
209.0240224872692
 51
210.7894710764137
  0
ARC
  8
1
 62
2
 10
468.505469692153
 20
-338.422007121918
 30
0
 40
0.9442174513168928
 50
210.789471076412
 51
211.6851528148939
  0
ARC
  8
1
 62
2
 10
468.5691140942339
 20
-338.3827223176361
 30
0
 40
1.019009869139095
 50
211.6851528148963
 51
212.5151869774705
  0
ARC
  8
1
 62
2
 10
468.4467482079217
 20
-338.4607235909596
 30
0
 40
0.8738974686592252
 50
212.5151869774668
 51
213.4830739689014
  0
ARC
  8
1
 62
2
 10
468.4990120237173
 20
-338.4261531250203
 30
0
 40
0.9365602451438839
 50
213.4830739689039
 51
214.3861645205473
  0
ARC
  8
1
 62
2
 10
468.3961188743868
 20
-338.4965690460053
 30
0
 40
0.8118790432436016
 50
214.3861645205465
 51
215.427873689079
  0
ARC
  8
1
 62
2
 10
468.4152475410155
 20
-338.4829609996591
 30
0
 40
0.8353542389265208
 50
215.4278736890782
 51
217.4525665842204
  0
ARC
  8
1
 62
2
 10
468.3322066975767
 20
-338.5465713247132
 30
0
 40
0.7307499601778801
 50
217.4525665842265
 51
219.7673446723543
  0
ARC
  8
1
 62
2
 10
468.3303242103417
 20
-338.5481379371171
 30
0
 40
0.7283008720589882
 50
219.7673446723554
 51
221.9507956691807
  0
ARC
  8
1
 62
2
 10
468.2425018350458
 20
-338.6270770996379
 30
0
 40
0.6102154750697565
 50
221.9507956691674
 51
223.170527347317
  0
ARC
  8
1
 62
2
 10
468.2987358995824
 20
-338.5743242068252
 30
0
 40
0.6873201942146539
 50
223.1705273473223
 51
224.2534726742041
  0
ARC
  8
1
 62
2
 10
468.2206584418898
 20
-338.6503931223006
 30
0
 40
0.5783129958224038
 50
224.253472674198
 51
226.8272951333542
  0
ARC
  8
1
 62
2
 10
468.2095096760501
 20
-338.6622766918133
 30
0
 40
0.5620183892266457
 50
226.8272951333586
 51
229.475124098369
  0
ARC
  8
1
 62
2
 10
468.1670838706119
 20
-338.7119072784539
 30
0
 40
0.4967256323742915
 50
229.4751240983535
 51
232.4715052301413
  0
ARC
  8
1
 62
2
 10
468.1603151822904
 20
-338.720719327207
 30
0
 40
0.4856140463119607
 50
232.47150523016
 51
235.361924614612
  0
ARC
  8
1
 62
2
 10
468.130213427905
 20
-338.7642923262512
 30
0
 40
0.4326544214758777
 50
235.3619246145997
 51
238.4095154283203
  0
ARC
  8
1
 62
2
 10
468.1284183299949
 20
-338.7672113023646
 30
0
 40
0.429227644847873
 50
238.4095154283239
 51
239.9454256685322
  0
ARC
  8
1
 62
2
 10
468.111162466437
 20
-338.7970336980791
 30
0
 40
0.3947727451488948
 50
239.9454256685453
 51
241.6150188555993
  0
ARC
  8
1
 62
2
 10
468.113028816719
 20
-338.7935797917761
 30
0
 40
0.3986986504106285
 50
241.6150188555934
 51
243.2677129496734
  0
ARC
  8
1
 62
2
 10
468.0992952727179
 20
-338.8208476139711
 30
0
 40
0.3681676111540656
 50
243.2677129496687
 51
245.0570430754775
  0
ARC
  8
1
 62
2
 10
468.1005550393668
 20
-338.8181389984359
 30
0
 40
0.3711548523773595
 50
245.0570430754789
 51
246.8317817315507
  0
ARC
  8
1
 62
2
 10
468.0902895284833
 20
-338.8421269693497
 30
0
 40
0.3450626416190649
 50
246.8317817315517
 51
250.6510472903128
  0
ARC
  8
1
 62
2
 10
468.085197637057
 20
-338.856627401027
 30
0
 40
0.3296941713920201
 50
250.6510472903124
 51
258.0403200985148
  0
ARC
  8
1
 62
2
 10
468.0815669377918
 20
-338.8737678004309
 30
0
 40
0.3121734616779384
 50
258.0403200985014
 51
261.9429658540685
  0
ARC
  8
1
 62
2
 10
468.0813137373385
 20
-338.8755564941212
 30
0
 40
0.3103669358443582
 50
261.9429658540822
 51
265.866071510195
  0
ARC
  8
1
 62
2
 10
468.0799343736194
 20
-338.8946411331376
 30
0
 40
0.2912325142264087
 50
265.8660715102006
 51
270.0447848672386
  0
ARC
  8
1
 62
2
 10
468.0799314078066
 20
-338.8908468040693
 30
0
 40
0.2950268444538295
 50
270.044784867226
 51
274.1697325573856
  0
ARC
  8
1
 62
2
 10
468.0791209884079
 20
-338.8797305978355
 30
0
 40
0.3061725530735089
 50
274.1697325573903
 51
278.146603880295
  0
ARC
  8
1
 62
2
 10
468.077652903969
 20
-338.8694751050821
 30
0
 40
0.316532591854005
 50
278.1466038802893
 51
281.9954839690163
  0
ARC
  8
1
 62
2
 10
468.0756072974343
 20
-338.8598475516917
 30
0
 40
0.3263750656477785
 50
281.9954839690282
 51
287.5949245194316
  0
ARC
  8
1
 62
2
 10
468.0717457911732
 20
-338.8476707991535
 30
0
 40
0.3391494358076103
 50
287.5949245194121
 51
291.3330594523651
  0
ARC
  8
1
 62
2
 10
468.0678343702577
 20
-338.837655601841
 30
0
 40
0.3499013375365426
 50
291.3330594523824
 51
293.2158449068717
  0
ARC
  8
1
 62
2
 10
468.0618977894104
 20
-338.8238150930064
 30
0
 40
0.364961306891047
 50
293.2158449068589
 51
295.0207040875741
  0
ARC
  8
1
 62
2
 10
468.0578758193201
 20
-338.8151980812281
 30
0
 40
0.3744707303957525
 50
295.0207040875879
 51
296.7799136887471
  0
ARC
  8
1
 62
2
 10
468.050174700071
 20
-338.7999391666849
 30
0
 40
0.3915628838799755
 50
296.7799136887407
 51
298.4627283073901
  0
ARC
  8
1
 62
2
 10
468.0451885758782
 20
-338.7907416051947
 30
0
 40
0.4020250333641648
 50
298.4627283073961
 51
300.1022009700755
  0
ARC
  8
1
 62
2
 10
468.0356855783295
 20
-338.7743495254887
 30
0
 40
0.4209725197278624
 50
300.102200970072
 51
301.6682317345605
  0
ARC
  8
1
 62
2
 10
468.0298925237634
 20
-338.7649581276638
 30
0
 40
0.4320069129740037
 50
301.6682317345525
 51
303.1943990001785
  0
ARC
  8
1
 62
2
 10
468.0171315559555
 20
-338.7454531635772
 30
0
 40
0.4553154076360864
 50
303.1943990001929
 51
306.0895252741238
  0
ARC
  8
1
 62
2
 10
467.9947307192691
 20
-338.7147221490666
 30
0
 40
0.4933442484953772
 50
306.0895252741083
 51
309.1076080020393
  0
ARC
  8
1
 62
2
 10
467.9752574464485
 20
-338.6907667920874
 30
0
 40
0.5242160395406016
 50
309.1076080020485
 51
311.946389711898
  0
ARC
  8
1
 62
2
 10
467.9420645550978
 20
-338.6538329130274
 30
0
 40
0.5738736619026577
 50
311.9463897118964
 51
314.5397780686481
  0
ARC
  8
1
 62
2
 10
467.9131316130456
 20
-338.6244313958882
 30
0
 40
0.6151236842768115
 50
314.5397780686453
 51
316.9598040052576
  0
ARC
  8
1
 62
2
 10
467.8610815546898
 20
-338.5758256170784
 30
0
 40
0.6863397660881284
 50
316.9598040052628
 51
318.0442467802718
  0
ARC
  8
1
 62
2
 10
467.8770095770955
 20
-338.5901450155848
 30
0
 40
0.6649213844652362
 50
318.0442467802666
 51
319.1633834556387
  0
ARC
  8
1
 62
2
 10
467.8224840533449
 20
-338.543019003351
 30
0
 40
0.7369900584461202
 50
319.1633834556461
 51
321.4590714434354
  0
ARC
  8
1
 62
2
 10
467.7961782706491
 20
-338.5220637407583
 30
0
 40
0.7706221448156121
 50
321.4590714434336
 51
323.6538623599051
  0
ARC
  8
1
 62
2
 10
467.7336500761383
 20
-338.4760546493
 30
0
 40
0.8482533988669717
 50
323.6538623599141
 51
325.6478683771309
  0
ARC
  8
1
 62
2
 10
467.7068825467456
 20
-338.4577593684874
 30
0
 40
0.880675889977424
 50
325.6478683771302
 51
326.6082669352272
  0
ARC
  8
1
 62
2
 10
467.6666225737996
 20
-338.4312211412462
 30
0
 40
0.9288956258406036
 50
326.6082669352226
 51
327.5188459201237
  0
ARC
  8
1
 62
2
 10
467.6461206495291
 20
-338.418169453512
 30
0
 40
0.9531994414155839
 50
327.5188459201221
 51
328.4061880892581
  0
ARC
  8
1
 62
2
 10
467.5987957154019
 20
-338.3890620049987
 30
0
 40
1.008759255572019
 50
328.4061880892632
 51
329.2445618210667
  0
ARC
  8
1
 62
2
 10
467.571449329803
 20
-338.3727891007649
 30
0
 40
1.040581138255613
 50
329.2445618210591
 51
331.0673184169008
  0
ARC
  8
1
 62
2
 10
467.4986586952088
 20
-338.3325523220932
 30
0
 40
1.123752496561857
 50
331.0673184168991
 51
332.7548671253292
  0
ARC
  8
1
 62
2
 10
467.4582078196785
 20
-338.3117230996946
 30
0
 40
1.169251176069041
 50
332.7548671253288
 51
334.3767814328924
  0
ARC
  8
1
 62
2
 10
467.3634698984926
 20
-338.2662850794636
 30
0
 40
1.274322044501406
 50
334.3767814328913
 51
335.8650571588832
  0
ARC
  8
1
 62
2
 10
467.3264709187667
 20
-338.2497075490693
 30
0
 40
1.314865095875687
 50
335.8650571588869
 51
336.5862489492198
  0
ARC
  8
1
 62
2
 10
467.2607780738889
 20
-338.2212609958201
 30
0
 40
1.386452498817091
 50
336.5862489492171
 51
338.0208924161902
  0
ARC
  8
1
 62
2
 10
467.1880022427843
 20
-338.1918885158251
 30
0
 40
1.46493220430845
 50
338.0208924161934
 51
339.4417655343216
  0
ARC
  8
1
 62
2
 10
467.1371274943194
 20
-338.1728082678566
 30
0
 40
1.519267238070472
 50
339.4417655343269
 51
340.8117819664623
  0
ARC
  8
1
 62
2
 10
467.050100231509
 20
-338.1425222330494
 30
0
 40
1.611413797293255
 50
340.8117819664575
 51
342.1034973909377
  0
ARC
  8
1
 62
2
 10
466.9888388248039
 20
-338.1227394673119
 30
0
 40
1.675790173175453
 50
342.1034973909345
 51
343.3456129191055
  0
ARC
  8
1
 62
2
 10
466.8850390356296
 20
-338.0916880890371
 30
0
 40
1.78413492074254
 50
343.3456129191073
 51
344.5543662075003
  0
ARC
  8
1
 62
2
 10
466.8472779795613
 20
-338.0812545972177
 30
0
 40
1.823310871361926
 50
344.5543662075019
 51
345.7782845775905
  0
ARC
  8
1
 62
2
 10
466.7656820159502
 20
-338.0605747356682
 30
0
 40
1.907486627677849
 50
345.7782845775889
 51
346.9481727364113
  0
ARC
  8
1
 62
2
 10
466.7239351397792
 20
-338.0508969264181
 30
0
 40
1.950340585043595
 50
346.9481727364113
 51
348.0923762586517
  0
ARC
  8
1
 62
2
 10
466.6309048725152
 20
-338.0312794455914
 30
0
 40
2.045416744942966
 50
348.0923762586522
 51
349.1834048348198
  0
ARC
  8
1
 62
2
 10
466.5762427068285
 20
-338.0208356704085
 30
0
 40
2.101067664051485
 50
349.1834048348186
 51
350.8266718762801
  0
ARC
  8
1
 62
2
 10
466.4801626166784
 20
-338.0053199877273
 30
0
 40
2.198392481710255
 50
350.8266718762854
 51
352.4210866849432
  0
ARC
  8
1
 62
2
 10
466.4460521761134
 20
-338.0007814598426
 30
0
 40
2.232803532128706
 50
352.421086684938
 51
353.9909465399326
  0
ARC
  8
1
 62
2
 10
466.3429645638204
 20
-337.9899300458184
 30
0
 40
2.336460702621664
 50
353.9909465399361
 51
356.0143915640299
  0
ARC
  8
1
 62
2
 10
466.306915237378
 20
-337.9874183303402
 30
0
 40
2.372597424271468
 50
356.0143915640263
 51
0.549087666157738
  0
ARC
  8
1
 62
2
 10
466.2806061696359
 20
-337.9876704680543
 30
0
 40
2.398907700189648
 50
0.5490876661613987
 51
5.521047604975523
  0
ARC
  8
1
 62
2
 10
466.538217311163
 20
-337.9627698221925
 30
0
 40
2.140095910652685
 50
5.521047604974323
 51
7.158923635198636
  0
ARC
  8
1
 62
2
 10
466.3341316337991
 20
-337.9884032047227
 30
0
 40
2.345785079072039
 50
7.158923635200833
 51
8.653153151250077
  0
ARC
  8
1
 62
2
 10
466.6332255106116
 20
-337.9428856538066
 30
0
 40
2.043247487047232
 50
8.653153151244773
 51
10.91476027140504
  0
ARC
  8
1
 62
2
 10
466.4913938497647
 20
-337.9702360215483
 30
0
 40
2.187692156849233
 50
10.91476027140613
 51
11.93483243695788
  0
ARC
  8
1
 62
2
 10
466.8350346249101
 20
-337.8976013333081
 30
0
 40
1.836458929095513
 50
11.93483243695834
 51
13.14999236972728
  0
ARC
  8
1
 62
2
 10
466.6459394705907
 20
-337.9417791157041
 30
0
 40
2.030646090989645
 50
13.14999236972609
 51
14.24892411808521
  0
ARC
  8
1
 62
2
 10
466.9437321496885
 20
-337.8661553623563
 30
0
 40
1.72340118575172
 50
14.24892411808852
 51
15.54379889858527
  0
ARC
  8
1
 62
2
 10
466.778028957582
 20
-337.912245364824
 30
0
 40
1.895394895525546
 50
15.54379889858375
 51
16.68159577664134
  0
ARC
  8
1
 62
2
 10
467.0751340974001
 20
-337.8232135654738
 30
0
 40
1.58523666912835
 50
16.68159577664103
 51
17.99466771516201
  0
ARC
  8
1
 62
2
 10
466.9611594402279
 20
-337.8602344498305
 30
0
 40
1.705073092456509
 50
17.99466771516213
 51
19.2154267292332
  0
ARC
  8
1
 62
2
 10
467.20725404128
 20
-337.7744609400626
 30
0
 40
1.444459110396916
 50
19.21542672923861
 51
20.65639957183504
  0
ARC
  8
1
 62
2
 10
467.1160489232017
 20
-337.8088451907416
 30
0
 40
1.541930389543313
 50
20.65639957182724
 51
22.00631627944481
  0
ARC
  8
1
 62
2
 10
467.3207764489074
 20
-337.7261036467779
 30
0
 40
1.321114803863769
 50
22.00631627944815
 51
23.5119161569063
  0
ARC
  8
1
 62
2
 10
467.1949377688939
 20
-337.7808509843793
 30
0
 40
1.458346885980032
 50
23.51191615690697
 51
24.16215153673474
  0
ARC
  8
1
 62
2
 10
467.4157476610263
 20
-337.6817903555756
 30
0
 40
1.216334455219797
 50
24.16215153672975
 51
25.72138367318307
  0
ARC
  8
1
 62
2
 10
467.4099759182558
 20
-337.6845707612952
 30
0
 40
1.222740988648539
 50
25.72138367318583
 51
27.27234157030726
  0
ARC
  8
1
 62
2
 10
467.5382611164065
 20
-337.618436238155
 30
0
 40
1.078411964486444
 50
27.27234157030665
 51
29.03084668916279
  0
ARC
  8
1
 62
2
 10
467.5344888930726
 20
-337.6205298713653
 30
0
 40
1.082726239501017
 50
29.03084668916173
 51
30.78264687456377
  0
ARC
  8
1
 62
2
 10
467.6656590217061
 20
-337.5423906165946
 30
0
 40
0.9300457044551991
 50
30.78264687456358
 51
31.69197701683925
  0
ARC
  8
1
 62
2
 10
467.5754654500857
 20
-337.5980778562091
 30
0
 40
1.036045463971616
 50
31.69197701683802
 51
32.50836277553659
  0
ARC
  8
1
 62
2
 10
467.7224543905551
 20
-337.5044054091837
 30
0
 40
0.8617460779943593
 50
32.50836277553468
 51
33.48989817093094
  0
ARC
  8
1
 62
2
 10
467.6480753569351
 20
-337.5536169609633
 30
0
 40
0.9509313765069611
 50
33.4898981709373
 51
34.37934031859639
  0
ARC
  8
1
 62
2
 10
467.7715029097393
 20
-337.4691697066928
 30
0
 40
0.8013797147140356
 50
34.37934031859557
 51
35.43469789104608
  0
ARC
  8
1
 62
2
 10
467.7392025038677
 20
-337.4921538629598
 30
0
 40
0.841022969610404
 50
35.43469789105171
 51
37.44574238226903
  0
ARC
  8
1
 62
2
 10
467.8301517449964
 20
-337.4225027934867
 30
0
 40
0.7264671494149974
 50
37.44574238225908
 51
39.77416887435017
  0
ARC
  8
1
 62
2
 10
467.8252218945858
 20
-337.4266064260096
 30
0
 40
0.7328814478921044
 50
39.7741688743539
 51
41.94397146714497
  0
ARC
  8
1
 62
2
 10
467.92148304998
 20
-337.3401027900462
 30
0
 40
0.6034631761035466
 50
41.94397146714068
 51
43.17735154932577
  0
ARC
  8
1
 62
2
 10
467.8539338827407
 20
-337.403485451011
 30
0
 40
0.696092824196013
 50
43.17735154933722
 51
44.2466484721143
  0
ARC
  8
1
 62
2
 10
467.9404894367334
 20
-337.3191766306683
 30
0
 40
0.5752630219343731
 50
44.24664847212105
 51
46.83411933537158
  0
ARC
  8
1
 62
2
 10
467.9475584982913
 20
-337.3116398557548
 30
0
 40
0.5649298420073345
 50
46.83411933535679
 51
49.46829989638736
  0
ARC
  8
1
 62
2
 10
467.993345646269
 20
-337.2580900155701
 30
0
 40
0.4944738393976267
 50
49.46829989637683
 51
52.4783294321234
  0
ARC
  8
1
 62
2
 10
467.9973388713755
 20
-337.2528900167496
 30
0
 40
0.4879174810728181
 50
52.47832943213409
 51
55.35510041271439
  0
ARC
  8
1
 62
2
 10
468.029851630789
 20
-337.2058390154413
 30
0
 40
0.430725906091841
 50
55.35510041271161
 51
58.41633963043218
  0
ARC
  8
1
 62
2
 10
468.0286208823009
 20
-337.2078408474994
 30
0
 40
0.4330758153305317
 50
58.4163396304582
 51
59.93860146660028
  0
ARC
  8
1
 62
2
 10
468.0494112974873
 20
-337.1719197436004
 30
0
 40
0.3915719953985167
 50
59.93860146657274
 51
61.62184305769385
  0
ARC
  8
1
 62
2
 10
468.0444462371933
 20
-337.1811108037613
 30
0
 40
0.4020184019865738
 50
61.6218430576964
 51
63.26088874777547
  0
ARC
  8
1
 62
2
 10
468.0609305292708
 20
-337.148391098144
 30
0
 40
0.3653808390084298
 50
63.26088874777198
 51
65.06386727761155
  0
ARC
  8
1
 62
2
 10
468.0572835275108
 20
-337.156234934411
 30
0
 40
0.3740310638160124
 50
65.06386727760686
 51
66.82495752959881
  0
ARC
  8
1
 62
2
 10
468.0691671744812
 20
-337.128474919477
 30
0
 40
0.3438343836267393
 50
66.82495752960826
 51
70.65787149233738
  0
ARC
  8
1
 62
2
 10
468.073648742443
 20
-337.115707672011
 30
0
 40
0.3303034169482689
 50
70.65787149234109
 51
78.03349589646552
  0
ARC
  8
1
 62
2
 10
468.0776332887104
 20
-337.0969078192945
 30
0
 40
0.3110859490837499
 50
78.0334958964591
 51
81.94979005597612
  0
ARC
  8
1
 62
2
 10
468.0775823006904
 20
-337.0972683253248
 30
0
 40
0.3114500429949869
 50
81.94979005597816
 51
85.85924730809826
  0
ARC
  8
1
 62
2
 10
468.0791105755856
 20
-337.0761583463481
 30
0
 40
0.2902848159337475
 50
85.859247308102
 51
90.05160906915097
  0
ARC
  8
1
 62
2
 10
477.4594418696704
 20
-337.4318602819167
 30
0
 40
0.7412495693427557
 50
139.1324244924003
 51
140.6583322215919
  0
ARC
  8
1
 62
2
 10
476.9500222304227
 20
-337.4225307602934
 30
0
 40
0.7263050257998968
 50
37.42065182581285
 51
39.35640606857649
  0
ARC
  8
1
 62
2
 10
474.0780839511027
 20
-337.0799278993911
 30
0
 40
0.2940543157544657
 50
90.03796066491735
 51
94.17655675961824
  0
ARC
  8
1
 62
2
 10
474.0790432841687
 20
-337.093065119493
 30
0
 40
0.3072265164793883
 50
94.17655675960833
 51
98.13977967803268
  0
ARC
  8
1
 62
2
 10
474.0802026135065
 20
-337.101170645816
 30
0
 40
0.3154145322026277
 50
98.13977967802926
 51
102.0023081712645
  0
ARC
  8
1
 62
2
 10
474.0826475712523
 20
-337.1126709895231
 30
0
 40
0.3271719011158908
 50
102.0023081712662
 51
107.5881003171841
  0
ARC
  8
1
 62
2
 10
474.0858941668408
 20
-337.1229129354314
 30
0
 40
0.3379161013608717
 50
107.5881003171893
 51
111.3398836546331
  0
ARC
  8
1
 62
2
 10
474.0911852611951
 20
-337.1364560276119
 30
0
 40
0.352456081597297
 50
111.339883654629
 51
113.2090207046951
  0
ARC
  8
1
 62
2
 10
474.0950340358816
 20
-337.1454319885908
 30
0
 40
0.3622223983073908
 50
113.2090207047138
 51
115.0275282898076
  0
ARC
  8
1
 62
2
 10
474.1014543234959
 20
-337.159183086703
 30
0
 40
0.3773984581498849
 50
115.0275282897923
 51
116.7730894866452
  0
ARC
  8
1
 62
2
 10
474.1064158720726
 20
-337.1690167571119
 30
0
 40
0.3884129049353022
 50
116.7730894866531
 51
118.4695525095819
  0
ARC
  8
1
 62
2
 10
474.1145133396481
 20
-337.1839493552462
 30
0
 40
0.4053997077002713
 50
118.4695525095895
 51
120.0953767678803
  0
ARC
  8
1
 62
2
 10
474.12049845989
 20
-337.1942761498821
 30
0
 40
0.4173355508528617
 50
120.095376767853
 51
121.6750559368318
  0
ARC
  8
1
 62
2
 10
474.1302492747988
 20
-337.2100794495157
 30
0
 40
0.4359049523159528
 50
121.6750559368563
 51
123.1875747979905
  0
ARC
  8
1
 62
2
 10
474.1397050225878
 20
-337.2245361882592
 30
0
 40
0.4531794555315892
 50
123.1875747979775
 51
126.0963494762404
  0
ARC
  8
1
 62
2
 10
474.1646879568459
 20
-337.2588009281934
 30
0
 40
0.4955848727197412
 50
126.0963494762448
 51
129.1007837998106
  0
ARC
  8
1
 62
2
 10
474.1811636271015
 20
-337.2790736692596
 30
0
 40
0.5217082672292589
 50
129.1007837998109
 51
131.9532139139918
  0
ARC
  8
1
 62
2
 10
474.2180668096451
 20
-337.320126169999
 30
0
 40
0.5769092880424784
 50
131.9532139139819
 51
134.53295386635
  0
ARC
  8
1
 62
2
 10
474.2424483224359
 20
-337.3449084499686
 30
0
 40
0.6116744943046493
 50
134.5329538663544
 51
136.966628207422
  0
ARC
  8
1
 62
2
 10
474.3034196845222
 20
-337.4018315948778
 30
0
 40
0.6950876312856871
 50
136.9666282074228
 51
138.0374225780037
  0
ARC
  8
1
 62
2
 10
474.2750317267701
 20
-337.3763045168106
 30
0
 40
0.6569103100074744
 50
138.0374225780052
 51
139.1702076577301
  0
ARC
  8
1
 62
2
 10
474.3389592121221
 20
-337.4315432754128
 30
0
 40
0.7413972547702903
 50
140.6993529265656
 51
141.4522472413389
  0
ARC
  8
1
 62
2
 10
474.3580914116383
 20
-337.4467877660151
 30
0
 40
0.7658601971945362
 50
141.4522472413362
 51
143.6606865620082
  0
ARC
  8
1
 62
2
 10
474.429169600604
 20
-337.4990750109145
 30
0
 40
0.8540988787678722
 50
143.6606865620122
 51
145.6410441751453
  0
ARC
  8
1
 62
2
 10
474.4409226814588
 20
-337.5071101527087
 30
0
 40
0.8683360980620757
 50
145.6410441751487
 51
146.61509113715
  0
ARC
  8
1
 62
2
 10
474.5032916702629
 20
-337.5482113580413
 30
0
 40
0.9430301396199248
 50
146.6150911371534
 51
147.5120217183434
  0
ARC
  8
1
 62
2
 10
474.4996901753641
 20
-337.5459180149567
 30
0
 40
0.9387604571949907
 50
147.512021718338
 51
148.4130122910757
  0
ARC
  8
1
 62
2
 10
474.5735388181769
 20
-337.5913268871662
 30
0
 40
1.025452946608056
 50
148.4130122910814
 51
149.2377376192807
  0
ARC
  8
1
 62
2
 10
474.5798934141095
 20
-337.5951093160789
 30
0
 40
1.03284805701595
 50
149.2377376192824
 51
151.0741426187257
  0
ARC
  8
1
 62
2
 10
474.6674762240323
 20
-337.6435092083011
 30
0
 40
1.132914525731023
 50
151.0741426187243
 51
152.7480429234789
  0
ARC
  8
1
 62
2
 10
474.6911060315589
 20
-337.655680380139
 30
0
 40
1.159494691788507
 50
152.7480429234747
 51
154.3836056347096
  0
ARC
  8
1
 62
2
 10
474.8052814635478
 20
-337.7104242559823
 30
0
 40
1.286115863842063
 50
154.3836056347114
 51
155.8582329570276
  0
ARC
  8
1
 62
2
 10
474.8092310850308
 20
-337.7121944634553
 30
0
 40
1.290444044101351
 50
155.8582329570299
 51
156.5930731510441
  0
ARC
  8
1
 62
2
 10
474.90955880058
 20
-337.7556245442239
 30
0
 40
1.399768434897277
 50
156.5930731510439
 51
158.014068214321
  0
ARC
  8
1
 62
2
 10
474.9570601250084
 20
-337.7748027591969
 30
0
 40
1.450995183300836
 50
158.014068214318
 51
159.4485897361942
  0
ARC
  8
1
 62
2
 10
475.0353011353508
 20
-337.8041359189076
 30
0
 40
1.534554084430537
 50
159.4485897361973
 51
160.8049577645505
  0
ARC
  8
1
 62
2
 10
475.0919768336626
 20
-337.8238669865607
 30
0
 40
1.594566164963254
 50
160.804957764552
 51
162.1103215928971
  0
ARC
  8
1
 62
2
 10
475.1869909680204
 20
-337.8545368148369
 30
0
 40
1.69440765981503
 50
162.110321592895
 51
163.3387887171684
  0
ARC
  8
1
 62
2
 10
475.2538679335199
 20
-337.8745515258042
 30
0
 40
1.764215375502781
 50
163.3387887171695
 51
164.5611904094832
  0
ARC
  8
1
 62
2
 10
475.3306500344185
 20
-337.8957568051151
 30
0
 40
1.843871856024142
 50
164.5611904094827
 51
165.7714603756658
  0
ARC
  8
1
 62
2
 10
475.3709919311787
 20
-337.9059862583883
 30
0
 40
1.885490485848766
 50
165.7714603756657
 51
166.9549969383571
  0
ARC
  8
1
 62
2
 10
475.4571051666015
 20
-337.9259383210986
 30
0
 40
1.973884909436196
 50
166.9549969383535
 51
168.0855520568065
  0
ARC
  8
1
 62
2
 10
475.502369816766
 20
-337.9354890006414
 30
0
 40
2.020146167895673
 50
168.0855520568106
 51
169.190229036724
  0
ARC
  8
1
 62
2
 10
475.5991388418856
 20
-337.9539657830694
 30
0
 40
2.118663352749352
 50
169.1902290367212
 51
170.8198476744303
  0
ARC
  8
1
 62
2
 10
475.6594281395906
 20
-337.9637090872535
 30
0
 40
2.179734879618968
 50
170.8198476744327
 51
172.4279108868088
  0
ARC
  8
1
 62
2
 10
475.7314443586757
 20
-337.9732823984328
 30
0
 40
2.252384615325625
 50
172.4279108868085
 51
173.9841223380605
  0
ARC
  8
1
 62
2
 10
475.7994911159552
 20
-337.9804534666313
 30
0
 40
2.320808188715018
 50
173.9841223380625
 51
176.0212157658107
  0
ARC
  8
1
 62
2
 10
475.8582970781395
 20
-337.9845436992177
 30
0
 40
2.379756226774164
 50
176.0212157658082
 51
180.5422634642873
  0
ARC
  8
1
 62
2
 10
475.8708849602917
 20
-337.9844245603831
 30
0
 40
2.39234467271243
 50
180.5422634642874
 51
185.5278718069956
  0
ARC
  8
1
 62
2
 10
475.6377076979217
 20
-338.0069914642855
 30
0
 40
2.158077942598677
 50
185.527871806998
 51
187.1520994330874
  0
ARC
  8
1
 62
2
 10
475.8028880827455
 20
-337.986264612558
 30
0
 40
2.324553652277681
 50
187.1520994330851
 51
188.659977353188
  0
ARC
  8
1
 62
2
 10
475.5370514910213
 20
-338.0267533054912
 30
0
 40
2.05565138796037
 50
188.6599773531888
 51
190.9079360693448
  0
ARC
  8
1
 62
2
 10
475.6383447348333
 20
-338.007232750402
 30
0
 40
2.158808420260432
 50
190.9079360693394
 51
191.9416566389885
  0
ARC
  8
1
 62
2
 10
475.3433800548756
 20
-338.0696155684224
 30
0
 40
1.857319152778466
 50
191.9416566389927
 51
193.1431681677131
  0
ARC
  8
1
 62
2
 10
475.4879093300455
 20
-338.0358677433713
 30
0
 40
2.00573622415788
 50
193.1431681677126
 51
194.2557483201238
  0
ARC
  8
1
 62
2
 10
475.2320610893407
 20
-338.1008722437375
 30
0
 40
1.741759127917288
 50
194.2557483201237
 51
195.5369746966428
  0
ARC
  8
1
 62
2
 10
475.358437716414
 20
-338.065737060589
 30
0
 40
1.872928990939745
 50
195.5369746966441
 51
196.6884199785926
  0
ARC
  8
1
 62
2
 10
475.0988112569612
 20
-338.1435715387591
 30
0
 40
1.60188636617378
 50
196.6884199785921
 51
197.9878435132912
  0
ARC
  8
1
 62
2
 10
475.1790241897595
 20
-338.1175275912655
 30
0
 40
1.686221422877104
 50
197.9878435132887
 51
199.2222509311454
  0
ARC
  8
1
 62
2
 10
474.963781981554
 20
-338.1925765978132
 30
0
 40
1.458270635256249
 50
199.2222509311492
 51
200.649575369962
  0
ARC
  8
1
 62
2
 10
475.0276254844628
 20
-338.1685163368326
 30
0
 40
1.526497382372942
 50
200.6495753699617
 51
202.0131404813711
  0
ARC
  8
1
 62
2
 10
474.8484196040026
 20
-338.2409680257407
 30
0
 40
1.333199697913941
 50
202.0131404813707
 51
203.5050919549801
  0
ARC
  8
1
 62
2
 10
474.935689354263
 20
-338.203012835906
 30
0
 40
1.428365898562711
 50
203.505091954975
 51
204.1689757386422
  0
ARC
  8
1
 62
2
 10
474.7520429836588
 20
-338.2854272918861
 30
0
 40
1.227074736336031
 50
204.1689757386471
 51
205.7145594712619
  0
ARC
  8
1
 62
2
 10
474.7385290842798
 20
-338.2919353223716
 30
0
 40
1.212075405109982
 50
205.714559471263
 51
207.2791657721815
  0
ARC
  8
1
 62
2
 10
474.6272278444976
 20
-338.3493309318409
 30
0
 40
1.086846726432113
 50
207.2791657721799
 51
209.0240224872455
  0
ARC
  8
1
 62
2
 10
474.6163061938147
 20
-338.3553908891788
 30
0
 40
1.074356508796809
 50
209.0240224872437
 51
210.789471076471
  0
ARC
  8
1
 62
2
 10
474.5045097188524
 20
-338.4220071219078
 30
0
 40
0.9442174513352371
 50
210.7894710764674
 51
211.6851528149319
  0
ARC
  8
1
 62
2
 10
474.5681541210128
 20
-338.3827223175766
 30
0
 40
1.019009869251008
 50
211.685152814941
 51
212.5151869774257
  0
ARC
  8
1
 62
2
 10
474.4457882346065
 20
-338.46072359096
 30
0
 40
0.8738974686595387
 50
212.5151869774228
 51
213.483073968855
  0
ARC
  8
1
 62
2
 10
474.4980520502556
 20
-338.4261531251177
 30
0
 40
0.9365602449685259
 50
213.4830739688536
 51
214.386164520668
  0
ARC
  8
1
 62
2
 10
474.3951589012859
 20
-338.4965690458561
 30
0
 40
0.8118790435052544
 50
214.3861645206649
 51
215.4278736888617
  0
ARC
  8
1
 62
2
 10
474.4142875675578
 20
-338.4829609997638
 30
0
 40
0.8353542387502142
 50
215.4278736888673
 51
217.4525665844346
  0
ARC
  8
1
 62
2
 10
474.3312467243771
 20
-338.5465713246208
 30
0
 40
0.7307499603264126
 50
217.4525665844343
 51
219.7673446720973
  0
ARC
  8
1
 62
2
 10
474.3293642368848
 20
-338.5481379372388
 30
0
 40
0.7283008718726939
 50
219.767344672096
 51
221.9507956694739
  0
ARC
  8
1
 62
2
 10
474.2415418619181
 20
-338.6270770994643
 30
0
 40
0.6102154753257808
 50
221.9507956694767
 51
223.1705273471144
  0
ARC
  8
1
 62
2
 10
474.2977759260749
 20
-338.5743242070084
 30
0
 40
0.6873201939495963
 50
223.170527347116
 51
224.2534726744221
  0
ARC
  8
1
 62
2
 10
474.2196984686398
 20
-338.6503931222334
 30
0
 40
0.578312995916438
 50
224.253472674415
 51
226.8272951331485
  0
ARC
  8
1
 62
2
 10
474.2085497026751
 20
-338.6622766918795
 30
0
 40
0.5620183891378631
 50
226.827295133139
 51
229.4751240985634
  0
ARC
  8
1
 62
2
 10
474.1661238973342
 20
-338.7119072784063
 30
0
 40
0.4967256324353206
 50
229.4751240985746
 51
232.4715052300045
  0
ARC
  8
1
 62
2
 10
474.1593552089408
 20
-338.7207193272532
 30
0
 40
0.4856140462547081
 50
232.4715052300032
 51
235.361924614796
  0
ARC
  8
1
 62
2
 10
474.1292534546146
 20
-338.7642923262118
 30
0
 40
0.4326544215227771
 50
235.3619246148006
 51
238.4095154281843
  0
ARC
  8
1
 62
2
 10
474.1274583566373
 20
-338.7672113024345
 30
0
 40
0.4292276447665084
 50
238.4095154281829
 51
239.945425668689
  0
ARC
  8
1
 62
2
 10
474.1102024931549
 20
-338.7970336980188
 30
0
 40
0.394772745217901
 50
239.9454256686977
 51
241.6150188554525
  0
ARC
  8
1
 62
2
 10
474.1120688433635
 20
-338.7935797918516
 30
0
 40
0.398698650325354
 50
241.6150188554526
 51
243.2677129498934
  0
ARC
  8
1
 62
2
 10
474.0983352994399
 20
-338.820847613893
 30
0
 40
0.3681676112408243
 50
243.2677129498822
 51
245.0570430752613
  0
ARC
  8
1
 62
2
 10
474.0995950660102
 20
-338.8181389985268
 30
0
 40
0.3711548522777567
 50
245.0570430752666
 51
246.8317817318227
  0
ARC
  8
1
 62
2
 10
474.0893295551852
 20
-338.8421269693043
 30
0
 40
0.3450626416677752
 50
246.83178173182
 51
250.6510472900418
  0
ARC
  8
1
 62
2
 10
474.0842376637346
 20
-338.8566274010506
 30
0
 40
0.3296941713675778
 50
250.6510472900353
 51
258.0403200988056
  0
ARC
  8
1
 62
2
 10
474.0806069644836
 20
-338.8737678003876
 30
0
 40
0.312173461721856
 50
258.0403200988117
 51
261.9429658538295
  0
ARC
  8
1
 62
2
 10
474.0803537640181
 20
-338.8755564941641
 30
0
 40
0.3103669358012601
 50
261.9429658538356
 51
265.8660715104723
  0
ARC
  8
1
 62
2
 10
474.0789744003051
 20
-338.8946411330968
 30
0
 40
0.2912325142672267
 50
265.8660715104783
 51
270.0447848669192
  0
ARC
  8
1
 62
2
 10
474.0789714344924
 20
-338.8908468041103
 30
0
 40
0.2950268444128441
 50
270.0447848669121
 51
274.169732557645
  0
ARC
  8
1
 62
2
 10
474.0781610150875
 20
-338.8797305977923
 30
0
 40
0.3061725531169262
 50
274.1697325576512
 51
278.1466038800022
  0
ARC
  8
1
 62
2
 10
474.0766929306614
 20
-338.8694751051269
 30
0
 40
0.3165325918084482
 50
278.146603879973
 51
281.9954839692442
  0
ARC
  8
1
 62
2
 10
474.0746473241109
 20
-338.8598475516624
 30
0
 40
0.3263750656779849
 50
281.9954839692584
 51
287.5949245191528
  0
ARC
  8
1
 62
2
 10
474.0707858178744
 20
-338.8476707992022
 30
0
 40
0.3391494357560368
 50
287.5949245191629
 51
291.3330594526845
  0
ARC
  8
1
 62
2
 10
474.0668743969078
 20
-338.8376556017587
 30
0
 40
0.3499013376256195
 50
291.3330594526814
 51
293.2158449066913
  0
ARC
  8
1
 62
2
 10
474.0609378161303
 20
-338.8238150930869
 30
0
 40
0.3649613068029501
 50
293.2158449066932
 51
295.0207040878441
  0
ARC
  8
1
 62
2
 10
474.0569158459728
 20
-338.8151980811645
 30
0
 40
0.37447073046671
 50
295.0207040878378
 51
296.7799136886792
  0
ARC
  8
1
 62
2
 10
474.0492147267889
 20
-338.7999391667506
 30
0
 40
0.3915628838059473
 50
296.779913688692
 51
298.4627283076477
  0
ARC
  8
1
 62
2
 10
474.0442286025133
 20
-338.7907416051078
 30
0
 40
0.4020250334639065
 50
298.462728307661
 51
300.1022009699295
  0
ARC
  8
1
 62
2
 10
474.0347256050702
 20
-338.7743495255837
 30
0
 40
0.4209725196172999
 50
300.1022009699067
 51
301.6682317347934
  0
ARC
  8
1
 62
2
 10
474.0289325503926
 20
-338.7649581275784
 30
0
 40
0.4320069130755464
 50
301.668231734802
 51
303.1943990000838
  0
ARC
  8
1
 62
2
 10
474.016171582662
 20
-338.7454531636097
 30
0
 40
0.4553154075965687
 50
303.1943990000784
 51
306.089525274235
  0
ARC
  8
1
 62
2
 10
473.9937707459189
 20
-338.7147221490216
 30
0
 40
0.493344248551869
 50
306.089525274244
 51
309.1076080018395
  0
ARC
  8
1
 62
2
 10
473.9742974731638
 20
-338.6907667921228
 30
0
 40
0.5242160394934374
 50
309.1076080018434
 51
311.9463897119529
  0
ARC
  8
1
 62
2
 10
473.9411045817318
 20
-338.6538329129722
 30
0
 40
0.5738736619772228
 50
311.9463897119359
 51
314.5397780683468
  0
ARC
  8
1
 62
2
 10
473.9121716398193
 20
-338.6244313959749
 30
0
 40
0.6151236841523501
 50
314.5397780683613
 51
316.9598040054783
  0
ARC
  8
1
 62
2
 10
473.8601215811104
 20
-338.5758256168355
 30
0
 40
0.6863397664466757
 50
316.9598040054707
 51
318.0442467799196
  0
ARC
  8
1
 62
2
 10
473.8760496040294
 20
-338.5901450158036
 30
0
 40
0.6649213841334719
 50
318.0442467799175
 51
319.1633834558448
  0
ARC
  8
1
 62
2
 10
473.8215240799425
 20
-338.5430190032794
 30
0
 40
0.7369900585585884
 50
319.1633834558493
 51
321.4590714432827
  0
ARC
  8
1
 62
2
 10
473.7952182974572
 20
-338.5220637408543
 30
0
 40
0.7706221446589116
 50
321.4590714432789
 51
323.6538623601933
  0
ARC
  8
1
 62
2
 10
473.7326901026908
 20
-338.4760546492081
 30
0
 40
0.848253399027609
 50
323.6538623601851
 51
325.6478683770251
  0
ARC
  8
1
 62
2
 10
473.7059225736508
 20
-338.4577593686366
 30
0
 40
0.8806758897107977
 50
325.6478683770282
 51
326.6082669354159
  0
ARC
  8
1
 62
2
 10
473.6656626003271
 20
-338.4312211411467
 30
0
 40
0.9288956260262299
 50
326.6082669354168
 51
327.518845920134
  0
ARC
  8
1
 62
2
 10
473.6451606762684
 20
-338.4181694535474
 30
0
 40
0.9531994413500532
 50
327.518845920138
 51
328.4061880893367
  0
ARC
  8
1
 62
2
 10
473.5978357420248
 20
-338.3890620049625
 30
0
 40
1.008759255643184
 50
328.4061880893348
 51
329.2445618210791
  0
ARC
  8
1
 62
2
 10
473.5704893565053
 20
-338.3727891007761
 30
0
 40
1.040581138234353
 50
329.24456182108
 51
331.0673184169559
  0
ARC
  8
1
 62
2
 10
473.4976987218057
 20
-338.3325523220462
 30
0
 40
1.123752496660914
 50
331.0673184169523
 51
332.7548671252363
  0
ARC
  8
1
 62
2
 10
473.4572478464186
 20
-338.3117230997212
 30
0
 40
1.169251176007134
 50
332.7548671252329
 51
334.3767814328801
  0
ARC
  8
1
 62
2
 10
473.3625099251137
 20
-338.2662850794333
 30
0
 40
1.274322044571297
 50
334.3767814328876
 51
335.8650571587979
  0
ARC
  8
1
 62
2
 10
473.3255109455776
 20
-338.2497075491239
 30
0
 40
1.314865095737619
 50
335.8650571587996
 51
336.5862489492122
  0
ARC
  8
1
 62
2
 10
473.2598181004944
 20
-338.2212609957858
 30
0
 40
1.386452498903062
 50
336.586248949212
 51
338.0208924160961
  0
ARC
  8
1
 62
2
 10
473.1870422696044
 20
-338.1918885158772
 30
0
 40
1.464932204163064
 50
338.020892416097
 51
339.4417655343646
  0
ARC
  8
1
 62
2
 10
473.136167520866
 20
-338.172808267806
 30
0
 40
1.519267238217058
 50
339.4417655343602
 51
340.8117819663634
  0
ARC
  8
1
 62
2
 10
473.049140258405
 20
-338.1425222331203
 30
0
 40
1.611413797069979
 50
340.8117819663634
 51
342.1034973910225
  0
ARC
  8
1
 62
2
 10
472.9878788512586
 20
-338.1227394672405
 30
0
 40
1.67579017341582
 50
342.1034973910233
 51
343.3456129190166
  0
ARC
  8
1
 62
2
 10
472.8840790625769
 20
-338.0916880891129
 30
0
 40
1.784134920468788
 50
343.3456129190174
 51
344.554366207591
  0
ARC
  8
1
 62
2
 10
472.8463180060479
 20
-338.0812545971662
 30
0
 40
1.823310871566249
 50
344.5543662075914
 51
345.7782845775471
  0
ARC
  8
1
 62
2
 10
472.7647220428576
 20
-338.0605747357233
 30
0
 40
1.907486627447919
 50
345.7782845775471
 51
346.9481727365109
  0
ARC
  8
1
 62
2
 10
472.7229751662189
 20
-338.0508969263648
 30
0
 40
1.950340585293902
 50
346.9481727365098
 51
348.0923762586031
  0
ARC
  8
1
 62
2
 10
472.6299448993921
 20
-338.0312794456302
 30
0
 40
2.045416744746403
 50
348.0923762586026
 51
349.183404834875
  0
ARC
  8
1
 62
2
 10
472.5752827333416
 20
-338.0208356703779
 30
0
 40
2.101067664225283
 50
349.183404834875
 51
350.8266718762012
  0
ARC
  8
1
 62
2
 10
472.4792026434742
 20
-338.0053199877422
 30
0
 40
2.198392481597836
 50
350.8266718762054
 51
352.4210866849446
  0
ARC
  8
1
 62
2
 10
472.4450922026792
 20
-338.000781459827
 30
0
 40
2.232803532248243
 50
352.4210866849429
 51
353.9909465398535
  0
ARC
  8
1
 62
2
 10
472.3420045906028
 20
-337.9899300458253
 30
0
 40
2.336460702523371
 50
353.990946539852
 51
356.0143915640308
  0
ARC
  8
1
 62
2
 10
472.3059552640814
 20
-337.9874183303417
 30
0
 40
2.372597424252308
 50
356.0143915640311
 51
0.549087666199259
  0
ARC
  8
1
 62
2
 10
472.2796461963304
 20
-337.9876704680559
 30
0
 40
2.39890770017926
 50
0.5490876662017922
 51
5.521047605037265
  0
ARC
  8
1
 62
2
 10
472.537257337654
 20
-337.9627698222134
 30
0
 40
2.140095910846894
 50
5.521047605032864
 51
7.158923635108542
  0
ARC
  8
1
 62
2
 10
472.3331716606311
 20
-337.9884032047003
 30
0
 40
2.345785078922495
 50
7.158923635108279
 51
8.653153151251965
  0
ARC
  8
1
 62
2
 10
472.6322655372275
 20
-337.9428856538174
 30
0
 40
2.043247487116517
 50
8.653153151255438
 51
10.91476027133963
  0
ARC
  8
1
 62
2
 10
472.4904338766514
 20
-337.9702360215066
 30
0
 40
2.187692156642464
 50
10.91476027133754
 51
11.93483243698571
  0
ARC
  8
1
 62
2
 10
472.8340746515125
 20
-337.8976013333263
 30
0
 40
1.83645892917936
 50
11.93483243698546
 51
13.14999236969932
  0
ARC
  8
1
 62
2
 10
472.6449794973066
 20
-337.9417791156957
 30
0
 40
2.030646090956789
 50
13.14999236969891
 51
14.24892411807384
  0
ARC
  8
1
 62
2
 10
472.9427721763956
 20
-337.8661553623501
 30
0
 40
1.723401185728268
 50
14.248924118074
 51
15.5437988985904
  0
ARC
  8
1
 62
2
 10
472.7770689842419
 20
-337.9122453648311
 30
0
 40
1.89539489555089
 50
15.5437988985936
 51
16.68159577663598
  0
ARC
  8
1
 62
2
 10
473.074174124098
 20
-337.8232135654695
 30
0
 40
1.585236669113987
 50
16.68159577663359
 51
17.99466771516647
  0
ARC
  8
1
 62
2
 10
472.9601994669572
 20
-337.8602344498161
 30
0
 40
1.705073092409195
 50
17.99466771517046
 51
19.21542672927413
  0
ARC
  8
1
 62
2
 10
473.206294067928
 20
-337.7744609400762
 30
0
 40
1.444459110435687
 50
19.21542672927328
 51
20.65639957183103
  0
ARC
  8
1
 62
2
 10
473.1150889498904
 20
-337.8088451907399
 30
0
 40
1.541930389538616
 50
20.65639957182533
 51
22.00631627945016
  0
ARC
  8
1
 62
2
 10
473.3198164756275
 20
-337.7261036467635
 30
0
 40
1.321114803824999
 50
22.00631627945234
 51
23.51191615695368
  0
ARC
  8
1
 62
2
 10
473.193977795381
 20
-337.7808509844663
 30
0
 40
1.458346886195465
 50
23.51191615695336
 51
24.16215153667783
  0
ARC
  8
1
 62
2
 10
473.4147876878451
 20
-337.6817903555141
 30
0
 40
1.216334455071636
 50
24.16215153667658
 51
25.72138367332715
  0
ARC
  8
1
 62
2
 10
473.409015944774
 20
-337.6845707613786
 30
0
 40
1.222740988834266
 50
25.72138367333066
 51
27.27234157021648
  0
ARC
  8
1
 62
2
 10
473.5373011432114
 20
-337.6184362380908
 30
0
 40
1.078411964349747
 50
27.27234157021126
 51
29.03084668929324
  0
ARC
  8
1
 62
2
 10
473.53352891961
 20
-337.6205298714497
 30
0
 40
1.082726239670261
 50
29.03084668929984
 51
30.78264687442803
  0
ARC
  8
1
 62
2
 10
473.6646990485828
 20
-337.5423906164773
 30
0
 40
0.9300457042297011
 50
30.78264687442597
 51
31.69197701692213
  0
ARC
  8
1
 62
2
 10
473.5745054766046
 20
-337.5980778563128
 30
0
 40
1.036045464166641
 50
31.69197701691768
 51
32.50836277545918
  0
ARC
  8
1
 62
2
 10
473.7214944172268
 20
-337.5044054091903
 30
0
 40
0.8617460780084795
 50
32.50836277546073
 51
33.48989817083884
  0
ARC
  8
1
 62
2
 10
473.6471153836235
 20
-337.5536169609586
 30
0
 40
0.9509313765009444
 50
33.48989817083629
 51
34.37934031850489
  0
ARC
  8
1
 62
2
 10
473.7705429364679
 20
-337.4691697066609
 30
0
 40
0.801379714659342
 50
34.37934031850848
 51
35.43469789103101
  0
ARC
  8
1
 62
2
 10
473.738242530534
 20
-337.4921538629723
 30
0
 40
0.8410229696321973
 50
35.43469789104088
 51
37.44574238220139
  0
ARC
  8
1
 62
2
 10
473.8291917716712
 20
-337.4225027934929
 30
0
 40
0.7264671494263295
 50
39.34306799428696
 51
39.77416887425021
  0
ARC
  8
1
 62
2
 10
473.8242619212872
 20
-337.4266064259936
 30
0
 40
0.732881447868779
 50
39.77416887424707
 51
41.94397146710131
  0
ARC
  8
1
 62
2
 10
473.9205230766539
 20
-337.340102790055
 30
0
 40
0.6034631761172575
 50
41.94397146709554
 51
43.17735154926
  0
ARC
  8
1
 62
2
 10
473.8529739094824
 20
-337.4034854509558
 30
0
 40
0.6960928241164199
 50
43.17735154925452
 51
44.24664847214734
  0
ARC
  8
1
 62
2
 10
473.9395294633935
 20
-337.3191766306924
 30
0
 40
0.5752630219686178
 50
44.24664847214988
 51
46.83411933524227
  0
ARC
  8
1
 62
2
 10
473.9465985249938
 20
-337.3116398557339
 30
0
 40
0.5649298419797914
 50
46.83411933524232
 51
49.46829989641014
  0
ARC
  8
1
 62
2
 10
473.9923856729516
 20
-337.2580900155726
 30
0
 40
0.4944738394006728
 50
49.46829989640998
 51
52.47832943214843
  0
ARC
  8
1
 62
2
 10
473.9963788980646
 20
-337.2528900167435
 30
0
 40
0.4879174810650514
 50
52.47832943214909
 51
55.35510041275317
  0
ARC
  8
1
 62
2
 10
474.0288916574676
 20
-337.2058390154505
 30
0
 40
0.4307259061027453
 50
55.35510041276724
 51
58.41633963042316
  0
ARC
  8
1
 62
2
 10
474.0276609090139
 20
-337.2078408474521
 30
0
 40
0.4330758152752199
 50
58.41633963039966
 51
59.93860146674918
  0
ARC
  8
1
 62
2
 10
474.0484513241329
 20
-337.1719197436698
 30
0
 40
0.3915719954779285
 50
59.93860146675353
 51
61.62184305750395
  0
ARC
  8
1
 62
2
 10
474.0434862639274
 20
-337.1811108036667
 30
0
 40
0.4020184018797441
 50
61.62184305750079
 51
63.26088874803715
  0
ARC
  8
1
 62
2
 10
474.0599705559135
 20
-337.1483910982304
 30
0
 40
0.3653808391043392
 50
63.26088874803294
 51
65.06386727740727
  0
ARC
  8
1
 62
2
 10
474.0563235542385
 20
-337.1562349343145
 30
0
 40
0.3740310637102318
 50
65.0638672774093
 51
66.82495752989929
  0
ARC
  8
1
 62
2
 10
474.068207201148
 20
-337.1284749195224
 30
0
 40
0.3438343836753077
 50
66.82495752990965
 51
70.65787149208813
  0
ARC
  8
1
 62
2
 10
474.0726887691333
 20
-337.1157076719895
 30
0
 40
0.330303416926018
 50
70.6578714920835
 51
78.03349589670557
  0
ARC
  8
1
 62
2
 10
474.0766733153873
 20
-337.0969078193359
 30
0
 40
0.3110859491258204
 50
78.03349589671011
 51
81.94979005571807
  0
ARC
  8
1
 62
2
 10
474.0766223273793
 20
-337.0972683252816
 30
0
 40
0.3114500429515508
 50
81.94979005572459
 51
85.85924730837967
  0
ARC
  8
1
 62
2
 10
474.0781506022686
 20
-337.0761583463844
 30
0
 40
0.2902848159700133
 50
85.8592473083615
 51
90.05160906887524
  0
ARC
  8
1
 62
2
 10
473.8291917716712
 20
-337.4225027934929
 30
0
 40
0.7264671494262907
 50
37.44574238219811
 51
39.34306799428696
  0
ARC
  8
1
 62
2
 10
474.3389592121221
 20
-337.4315432754128
 30
0
 40
0.7413972547701644
 50
139.170207657724
 51
140.6993529265656
  0
TEXT
  8
1
 62
2
 10
426.2682463795466
 20
-322.2459329751943
 30
0
 40
2
  1
Il pezzo deve essere fornito senza
 41
0.9
  0
TEXT
  8
1
 62
2
 10
426.2682463795466
 20
-326.6459329751943
 30
0
 40
2
  1
bave, trucioli di lavorazione,
 41
0.9
  0
TEXT
  8
1
 62
2
 10
426.2682463795466
 20
-331.0459329751943
 30
0
 40
2
  1
lavato e sgrassato.
 41
0.9
  0
TEXT
  8
1
 62
2
 10
462.058891247848
 20
-344.7154152640226
 30
0
 40
1.8
  1
Ufficio Tecnico
 41
0.9
  0
ENDBLK
  8
0
  0
BLOCK
  8
1
  2
*X0
 70
1
 10
0
 20
0
 30
0
  0
LINE
  8
1
 62
2
 10
529.9786965051329
 20
-445.8286615323026
 30
0
 11
531.5085761837886
 21
-444.298781853647
 31
0
  0
LINE
  8
1
 62
2
 10
530.1292783831179
 20
-449.9207203414368
 30
0
 11
535.7512168709079
 21
-444.298781853647
 31
0
  0
LINE
  8
1
 62
2
 10
532.8190047996221
 20
-451.4736346120519
 30
0
 11
542.4786965051329
 21
-441.8139429065412
 31
0
  0
LINE
  8
1
 62
2
 10
535.5087312161263
 20
-453.026548882667
 30
0
 11
544.2364982451463
 21
-444.298781853647
 31
0
  0
LINE
  8
1
 62
2
 10
538.1984576326305
 20
-454.5794631532822
 30
0
 11
548.4791389322656
 21
-444.298781853647
 31
0
  0
LINE
  8
1
 62
2
 10
541.5467796193849
 20
-455.473781853647
 30
0
 11
551.850238062259
 21
-445.170323410773
 31
0
  0
LINE
  8
1
 62
2
 10
545.7894203065042
 20
-455.473781853647
 30
0
 11
551.9786965051329
 21
-449.2845056550183
 31
0
  0
LINE
  8
1
 62
2
 10
550.0320609936235
 20
-455.473781853647
 30
0
 11
551.9786965051329
 21
-453.5271463421376
 31
0
  0
ENDBLK
  8
0
  0
BLOCK
  8
1
  2
*X1
 70
1
 10
0
 20
0
 30
0
  0
LINE
  8
1
 62
2
 10
529.9786965051329
 20
-394.9169732868712
 30
0
 11
537.273605760872
 21
-387.6220640311321
 31
0
  0
LINE
  8
1
 62
2
 10
531.8045286254765
 20
-397.333781853647
 30
0
 11
542.9445286254763
 21
-386.193781853647
 31
0
  0
LINE
  8
1
 62
2
 10
536.0471693125958
 20
-397.333781853647
 30
0
 11
547.1871693125956
 21
-386.193781853647
 31
0
  0
LINE
  8
1
 62
2
 10
539.4786965051329
 20
-398.1448953482291
 30
0
 11
551.429809999715
 21
-386.193781853647
 31
0
  0
LINE
  8
1
 62
2
 10
544.5324506868343
 20
-397.333781853647
 30
0
 11
551.9786965051329
 21
-389.8875360353484
 31
0
  0
LINE
  8
1
 62
2
 10
541.0324506868344
 20
-400.8337818536469
 30
0
 11
542.4786965051329
 21
-399.3875360353484
 31
0
  0
LINE
  8
1
 62
2
 10
548.7750913739536
 20
-397.333781853647
 30
0
 11
551.9786965051329
 21
-394.1301767224677
 31
0
  0
ENDBLK
  8
0
  0
BLOCK
  8
1
  2
*D0
 70
1
 10
0
 20
0
 30
0
  0
LINE
  8
1
 62
2
 10
537.3786965051329
 20
-374.380947079782
 30
0
 11
530.9786965051329
 21
-374.380947079782
 31
0
  0
LINE
  8
1
 62
2
 10
529.9786965051329
 20
-374.380947079782
 30
0
 11
530.9786965051329
 21
-374.380947079782
 31
0
  0
LINE
  8
1
 62
2
 10
529.9786965051329
 20
-374.380947079782
 30
0
 11
506.869330146445
 21
-374.380947079782
 31
0
  0
LINE
  8
1
 62
2
 10
529.9786965051329
 20
-444.333781853647
 30
0
 11
529.9786965051329
 21
-373.380947079782
 31
0
  0
LINE
  8
1
 62
2
 10
530.9786965051329
 20
-443.298781853647
 30
0
 11
530.9786965051329
 21
-373.380947079782
 31
0
  0
SOLID
  8
1
 62
2
 10
529.9786965051329
 20
-374.380947079782
 30
0
 11
526.7786965051329
 21
-374.796947079782
 31
0
 12
526.7786965051329
 22
-373.964947079782
 32
0
 13
526.7786965051329
 23
-373.964947079782
 33
0
  0
SOLID
  8
1
 62
2
 10
530.9786965051329
 20
-374.380947079782
 30
0
 11
534.178696505133
 21
-373.964947079782
 31
0
 12
534.178696505133
 22
-374.796947079782
 32
0
 13
534.178696505133
 23
-374.796947079782
 33
0
  0
TEXT
  8
1
 62
2
 10
506.869330146445
 20
-373.180947079782
 30
0
 40
3.2
  1
Sm1x45%%d
 41
0.9
  0
ENDBLK
  8
0
  0
BLOCK
  8
1
  2
*D1
 70
1
 10
0
 20
0
 30
0
  0
LINE
  8
1
 62
2
 10
508.663603363403
 20
-444.298781853647
 30
0
 11
508.663603363403
 21
-397.368781853647
 31
0
  0
LINE
  8
1
 62
2
 10
529.978696505133
 20
-397.368781853647
 30
0
 11
507.663603363403
 21
-397.368781853647
 31
0
  0
LINE
  8
1
 62
2
 10
529.978696505133
 20
-444.298781853647
 30
0
 11
507.663603363403
 21
-444.298781853647
 31
0
  0
SOLID
  8
1
 62
2
 10
508.663603363403
 20
-397.368781853647
 30
0
 11
509.079603363403
 21
-400.568781853647
 31
0
 12
508.247603363403
 22
-400.568781853647
 32
0
 13
508.247603363403
 23
-400.568781853647
 33
0
  0
SOLID
  8
1
 62
2
 10
508.663603363403
 20
-444.298781853647
 30
0
 11
508.247603363403
 21
-441.098781853647
 31
0
 12
509.079603363403
 22
-441.098781853647
 32
0
 13
509.079603363403
 23
-441.098781853647
 33
0
  0
TEXT
  8
1
 62
2
 10
506.653603363403
 20
-432.246281853647
 30
0
 40
3.2
  1
%%c46,93
 50
90
 41
0.9
  0
TEXT
  8
1
 62
2
 10
504.763603363403
 20
-415.766281853647
 30
0
 40
1.8
  1
+0.05
 50
90
 41
0.9
  0
TEXT
  8
1
 62
2
 10
507.463603363403
 20
-415.766281853647
 30
0
 40
1.8
  1
 0
 50
90
 41
0.9
  0
ENDBLK
  8
0
  0
BLOCK
  8
1
  2
*D2
 70
1
 10
0
 20
0
 30
0
  0
LINE
  8
1
 62
2
 10
551.9786965051329
 20
-374.347873264227
 30
0
 11
574.99727445724
 21
-374.347873264227
 31
0
  0
LINE
  8
1
 62
2
 10
550.9786965051329
 20
-374.347873264227
 30
0
 11
551.9786965051329
 21
-374.347873264227
 31
0
  0
LINE
  8
1
 62
2
 10
544.9786965051329
 20
-374.347873264227
 30
0
 11
550.9786965051329
 21
-374.347873264227
 31
0
  0
LINE
  8
1
 62
2
 10
551.9786965051329
 20
-396.333781853647
 30
0
 11
551.9786965051329
 21
-374.347873264227
 31
0
  0
LINE
  8
1
 62
2
 10
550.9786965051329
 20
-397.368781853647
 30
0
 11
550.9786965051329
 21
-374.347873264227
 31
0
  0
SOLID
  8
1
 62
2
 10
550.9786965051329
 20
-374.347873264227
 30
0
 11
547.9786965051329
 21
-374.737873264227
 31
0
 12
547.9786965051329
 22
-373.957873264227
 32
0
 13
547.9786965051329
 23
-373.957873264227
 33
0
  0
SOLID
  8
1
 62
2
 10
551.9786965051329
 20
-374.347873264227
 30
0
 11
554.9786965051329
 21
-373.957873264227
 31
0
 12
554.9786965051329
 22
-374.737873264227
 32
0
 13
554.9786965051329
 23
-374.737873264227
 33
0
  0
TEXT
  8
1
 62
2
 10
563.2972744572401
 20
-371.847873264227
 30
0
 40
3
  1
1
 41
0.9
  0
TEXT
  8
1
 62
2
 10
556.69727445724
 20
-371.847873264227
 30
0
 40
3
  1
Sm
 41
0.9
  0
TEXT
  8
1
 62
2
 10
565.69727445724
 20
-371.847873264227
 30
0
 40
3
  1
x45%%d
 41
0.9
  0
ENDBLK
  8
0
  0
BLOCK
  8
1
  2
*D3
 70
1
 10
0
 20
0
 30
0
  0
LINE
  8
1
 62
2
 10
529.9786965051329
 20
-474.949927195573
 30
0
 11
551.9786965051329
 21
-474.949927195573
 31
0
  0
LINE
  8
1
 62
2
 10
551.9786965051329
 20
-445.333781853647
 30
0
 11
551.9786965051329
 21
-474.949927195573
 31
0
  0
LINE
  8
1
 62
2
 10
529.9786965051329
 20
-455.473781853647
 30
0
 11
529.9786965051329
 21
-474.949927195573
 31
0
  0
SOLID
  8
1
 62
2
 10
529.9786965051329
 20
-474.949927195573
 30
0
 11
532.9786965051329
 21
-474.559927195573
 31
0
 12
532.9786965051329
 22
-475.339927195573
 32
0
 13
532.9786965051329
 23
-475.339927195573
 33
0
  0
SOLID
  8
1
 62
2
 10
551.9786965051329
 20
-474.949927195573
 30
0
 11
548.9786965051329
 21
-475.339927195573
 31
0
 12
548.9786965051329
 22
-474.559927195573
 32
0
 13
548.9786965051329
 23
-474.559927195573
 33
0
  0
TEXT
  8
1
 62
2
 10
538.7286965051329
 20
-472.449927195573
 30
0
 40
3
  1
22
 41
0.9
  0
ENDBLK
  8
0
  0
BLOCK
  8
1
  2
*D4
 70
1
 10
0
 20
0
 30
0
  0
LINE
  8
1
 62
2
 10
428.9796870241063
 20
-464.1752505435609
 30
0
 11
488.9796870241062
 21
-464.1752505435609
 31
0
  0
LINE
  8
1
 62
2
 10
488.9796870241062
 20
-438.1542899293355
 30
0
 11
488.9796870241062
 21
-464.1752505435609
 31
0
  0
LINE
  8
1
 62
2
 10
428.9796870241063
 20
-438.154289929336
 30
0
 11
428.9796870241063
 21
-464.1752505435609
 31
0
  0
SOLID
  8
1
 62
2
 10
488.9796870241062
 20
-464.1752505435609
 30
0
 11
485.9796870241062
 21
-464.5652505435609
 31
0
 12
485.9796870241062
 22
-463.7852505435609
 32
0
 13
485.9796870241062
 23
-463.7852505435609
 33
0
  0
SOLID
  8
1
 62
2
 10
428.9796870241063
 20
-464.1752505435609
 30
0
 11
431.9796870241063
 21
-463.7852505435609
 31
0
 12
431.9796870241063
 22
-464.5652505435609
 32
0
 13
431.9796870241063
 23
-464.5652505435609
 33
0
  0
TEXT
  8
1
 62
2
 10
456.7296870241065
 20
-461.6752505435609
 30
0
 40
3
  1
60
 41
0.9
  0
ENDBLK
  8
0
  0
BLOCK
  8
1
  2
*D5
 70
1
 10
0
 20
0
 30
0
  0
LINE
  8
1
 62
2
 10
516.109953368182
 20
-440.8337818536469
 30
0
 11
516.109953368182
 21
-400.8337818536468
 31
0
  0
LINE
  8
1
 62
2
 10
539.4786965051329
 20
-440.8337818536469
 30
0
 11
516.109953368182
 21
-440.8337818536469
 31
0
  0
LINE
  8
1
 62
2
 10
542.4786965051329
 20
-400.8337818536468
 30
0
 11
516.109953368182
 21
-400.8337818536468
 31
0
  0
SOLID
  8
1
 62
2
 10
516.109953368182
 20
-440.8337818536469
 30
0
 11
515.719953368182
 21
-437.8337818536469
 31
0
 12
516.499953368182
 22
-437.8337818536469
 32
0
 13
516.499953368182
 23
-437.8337818536469
 33
0
  0
SOLID
  8
1
 62
2
 10
516.109953368182
 20
-400.8337818536468
 30
0
 11
516.499953368182
 21
-403.8337818536468
 31
0
 12
515.719953368182
 22
-403.8337818536468
 32
0
 13
515.719953368182
 23
-403.8337818536468
 33
0
  0
TEXT
  8
1
 62
2
 10
513.609953368182
 20
-421.2837818536469
 30
0
 40
3
  1
40
 50
90
 41
0.9
  0
TEXT
  8
1
 62
2
 10
513.609953368182
 20
-424.8837818536469
 30
0
 40
3
  1
%%c
 50
90
 41
0.9
  0
ENDBLK
  8
0
  0
BLOCK
  8
1
  2
*D6
 70
1
 10
0
 20
0
 30
0
  0
LINE
  8
1
 62
2
 10
529.9786965051329
 20
-362.15253911596
 30
0
 11
539.4786965051329
 21
-362.15253911596
 31
0
  0
LINE
  8
1
 62
2
 10
529.9786965051329
 20
-396.333781853647
 30
0
 11
529.9786965051329
 21
-362.15253911596
 31
0
  0
LINE
  8
1
 62
2
 10
539.4786965051329
 20
-397.333781853647
 30
0
 11
539.4786965051329
 21
-362.15253911596
 31
0
  0
SOLID
  8
1
 62
2
 10
529.9786965051329
 20
-362.15253911596
 30
0
 11
532.9786965051329
 21
-361.76253911596
 31
0
 12
532.9786965051329
 22
-362.54253911596
 32
0
 13
532.9786965051329
 23
-362.54253911596
 33
0
  0
SOLID
  8
1
 62
2
 10
539.4786965051329
 20
-362.15253911596
 30
0
 11
536.4786965051329
 21
-362.54253911596
 31
0
 12
536.4786965051329
 22
-361.76253911596
 32
0
 13
536.4786965051329
 23
-361.76253911596
 33
0
  0
TEXT
  8
1
 62
2
 10
531.9536965051329
 20
-359.35253911596
 30
0
 40
3
  1
9,5
 41
0.9
  0
ENDBLK
  8
0
  0
BLOCK
  8
1
  2
*D7
 70
1
 10
0
 20
0
 30
0
  0
LINE
  8
1
 62
2
 10
542.4786965051329
 20
-362.055538218661
 30
0
 11
551.9786965051329
 21
-362.055538218661
 31
0
  0
LINE
  8
1
 62
2
 10
542.4786965051329
 20
-400.8337818536468
 30
0
 11
542.4786965051329
 21
-362.055538218661
 31
0
  0
LINE
  8
1
 62
2
 10
551.9786965051329
 20
-396.333781853647
 30
0
 11
551.9786965051329
 21
-362.055538218661
 31
0
  0
SOLID
  8
1
 62
2
 10
542.4786965051329
 20
-362.055538218661
 30
0
 11
545.4786965051329
 21
-361.665538218661
 31
0
 12
545.4786965051329
 22
-362.4455382186609
 32
0
 13
545.4786965051329
 23
-362.4455382186609
 33
0
  0
SOLID
  8
1
 62
2
 10
551.9786965051329
 20
-362.055538218661
 30
0
 11
548.9786965051329
 21
-362.4455382186609
 31
0
 12
548.9786965051329
 22
-361.665538218661
 32
0
 13
548.9786965051329
 23
-361.665538218661
 33
0
  0
TEXT
  8
1
 62
2
 10
544.4536965051329
 20
-359.255538218661
 30
0
 40
3
  1
9,5
 41
0.9
  0
ENDBLK
  8
0
  0
BLOCK
  8
1
  2
*D8
 70
1
 10
0
 20
0
 30
0
  0
LINE
  8
1
 62
2
 10
501.316282863339
 20
-449.833781853647
 30
0
 11
501.316282863339
 21
-391.833781853647
 31
0
  0
LINE
  8
1
 62
2
 10
528.9786965051329
 20
-449.833781853647
 30
0
 11
500.316282863339
 21
-449.833781853647
 31
0
  0
LINE
  8
1
 62
2
 10
521.8698321901001
 20
-391.833781853647
 30
0
 11
500.316282863339
 21
-391.833781853647
 31
0
  0
LINE
  8
1
 62
2
 10
528.9786965051329
 20
-391.833781853647
 30
0
 11
526.083926178638
 21
-391.833781853647
 31
0
  0
SOLID
  8
1
 62
2
 10
501.316282863339
 20
-391.833781853647
 30
0
 11
501.732282863339
 21
-395.033781853647
 31
0
 12
500.900282863339
 22
-395.033781853647
 32
0
 13
500.900282863339
 23
-395.033781853647
 33
0
  0
SOLID
  8
1
 62
2
 10
501.316282863339
 20
-449.833781853647
 30
0
 11
500.900282863339
 21
-446.633781853647
 31
0
 12
501.732282863339
 22
-446.633781853647
 32
0
 13
501.732282863339
 23
-446.633781853647
 33
0
  0
TEXT
  8
1
 62
2
 10
500.116282863339
 20
-424.833781853647
 30
0
 40
3.2
  1
%%c58
 50
90
 41
0.9
  0
ENDBLK
  8
0
  0
BLOCK
  8
1
  2
*D9
 70
1
 10
0
 20
0
 30
0
  0
LINE
  8
1
 62
2
 10
523.2959972683768
 20
-386.193781853647
 30
0
 11
522.2959972683768
 21
-386.193781853647
 31
0
  0
LINE
  8
1
 62
2
 10
525.5000757549398
 20
-394.4195147493693
 30
0
 11
524.6340503511553
 21
-394.9195147493693
 31
0
  0
LINE
  8
1
 62
2
 10
528.9786965051329
 20
-386.193781853647
 30
0
 11
523.2959972683768
 21
-386.193781853647
 31
0
  0
LINE
  8
1
 62
2
 10
529.1126711013485
 20
-392.333781853647
 30
0
 11
525.5000757549398
 21
-394.4195147493693
 31
0
  0
ARC
  8
1
 62
2
 10
539.7474630598214
 20
-386.193781853647
 30
0
 40
16.45146579144457
 50
151.5334635669143
 51
226.7170357431506
  0
SOLID
  8
1
 62
2
 10
523.2959972683768
 20
-386.193781853647
 30
0
 11
523.1926912062256
 21
-382.968509174086
 31
0
 12
524.020759493753
 22
-383.0492984753052
 32
0
 13
524.020759493753
 23
-383.0492984753052
 33
0
  0
SOLID
  8
1
 62
2
 10
525.5000757549398
 20
-394.4195147493693
 30
0
 11
527.6999799429898
 21
-396.7803361241031
 31
0
 12
527.0232464205324
 22
-397.2643358550766
 32
0
 13
527.0232464205324
 23
-397.2643358550766
 33
0
  0
TEXT
  8
1
 62
2
 10
521.8441425669353
 20
-384.3402015571558
 30
0
 40
3.2
  1
30%%d
 50
72.81126640321794
 41
0.9
  0
ENDBLK
  8
0
  0
BLOCK
  8
0
  2
BOCCOLA__15
 70
0
 10
405.268362072165
 20
-595.3374546795263
 30
0
  0
INSERT
  8
1
  2
*X0
 10
0
 20
0
 30
0
  0
INSERT
  8
1
  2
*X1
 10
0
 20
0
 30
0
  0
LINE
  8
1
 62
7
 10
529.9786965051329
 20
-449.833781853647
 30
0
 11
539.7474630598214
 21
-455.473781853647
 31
0
  0
LINE
  8
1
 62
7
 10
529.9786965051329
 20
-391.833781853647
 30
0
 11
539.7474630598214
 21
-386.193781853647
 31
0
  0
LINE
  8
1
 62
2
 10
529.9786965051329
 20
-450.3791279156994
 30
0
 11
529.9786965051329
 21
-455.473781853647
 31
0
  0
LINE
  8
1
 62
7
 10
539.7474630598214
 20
-455.473781853647
 30
0
 11
551.9786965051329
 21
-455.473781853647
 31
0
  0
LINE
  8
1
 62
2
 10
529.9786965051329
 20
-391.2884357915946
 30
0
 11
529.9786965051329
 21
-386.193781853647
 31
0
  0
LINE
  8
1
 62
7
 10
539.7474630598214
 20
-386.193781853647
 30
0
 11
551.9786965051329
 21
-386.193781853647
 31
0
  0
LINE
  8
1
 62
2
  6
DASHDOT
 10
458.9796870241058
 20
-402.8461059263826
 30
0
 11
458.9796870241057
 21
-384.0316924815874
 31
0
  0
LINE
  8
1
 62
7
 10
529.9786965051329
 20
-445.333781853647
 30
0
 11
529.9786965051329
 21
-449.833781853647
 31
0
  0
LINE
  8
1
 62
7
 10
529.9786965051329
 20
-396.333781853647
 30
0
 11
529.9786965051329
 21
-391.833781853647
 31
0
  0
LINE
  8
1
 62
7
 10
405.268362072165
 20
-298.3374546795263
 30
0
 11
409.880235580518
 21
-298.3374546795263
 31
0
  0
LINE
  8
1
 62
7
 10
615.2683620721641
 20
-595.3374546795263
 30
0
 11
611.826058969539
 21
-595.3374546795263
 31
0
  0
LINE
  8
1
 62
7
 10
550.9786965051329
 20
-397.368781853647
 30
0
 11
551.9786965051329
 21
-396.368781853647
 31
0
  0
LINE
  8
1
 62
7
 10
529.9786965051329
 20
-445.333781853647
 30
0
 11
529.9786965051329
 21
-396.333781853647
 31
0
  0
LINE
  8
1
 62
2
 10
530.9786965051329
 20
-397.368781853647
 30
0
 11
530.9786965051329
 21
-444.298781853647
 31
0
  0
LINE
  8
1
 62
2
 10
550.9786965051329
 20
-444.298781853647
 30
0
 11
550.9786965051329
 21
-397.368781853647
 31
0
  0
LINE
  8
1
 62
7
 10
551.9786965051329
 20
-396.333781853647
 30
0
 11
551.9786965051329
 21
-445.333781853647
 31
0
  0
LINE
  8
1
 62
7
 10
530.9786965051329
 20
-397.368781853647
 30
0
 11
529.9786965051329
 21
-396.368781853647
 31
0
  0
LINE
  8
1
 62
7
 10
550.9786965051329
 20
-444.298781853647
 30
0
 11
551.9786965051329
 21
-445.298781853647
 31
0
  0
LINE
  8
1
 62
7
 10
530.9786965051329
 20
-444.298781853647
 30
0
 11
529.9786965051329
 21
-445.298781853647
 31
0
  0
LINE
  8
1
 62
7
 10
428.9796870241059
 20
-403.5132737779585
 30
0
 11
458.9796870241057
 21
-386.1927657022695
 31
0
  0
LINE
  8
1
 62
7
 10
458.9796870241057
 20
-386.1927657022695
 30
0
 11
488.9796870241058
 21
-403.513273777958
 31
0
  0
LINE
  8
1
 62
7
 10
488.9796870241058
 20
-403.513273777958
 30
0
 11
488.9796870241062
 21
-438.1542899293355
 31
0
  0
LINE
  8
1
 62
7
 10
488.9796870241062
 20
-438.1542899293355
 30
0
 11
458.9796870241064
 21
-455.4747980050245
 31
0
  0
LINE
  8
1
 62
7
 10
458.9796870241064
 20
-455.4747980050245
 30
0
 11
428.9796870241063
 21
-438.154289929336
 31
0
  0
LINE
  8
1
 62
7
 10
428.9796870241063
 20
-438.154289929336
 30
0
 11
428.9796870241059
 21
-403.5132737779585
 31
0
  0
LINE
  8
1
 62
2
 10
529.9786965051329
 20
-386.193781853647
 30
0
 11
538.802895972639
 21
-386.193781853647
 31
0
  0
LINE
  8
1
 62
7
 10
551.9786965051329
 20
-386.193781853647
 30
0
 11
551.9786965051329
 21
-396.333781853647
 31
0
  0
LINE
  8
1
 62
7
 10
550.9786965051329
 20
-397.368781853647
 30
0
 11
542.4786965051329
 21
-397.368781853647
 31
0
  0
LINE
  8
1
 62
7
 10
551.9786965051329
 20
-455.473781853647
 30
0
 11
551.9786965051329
 21
-445.333781853647
 31
0
  0
LINE
  8
1
 62
7
 10
550.9786965051329
 20
-444.298781853647
 30
0
 11
542.4786965051329
 21
-444.298781853647
 31
0
  0
LINE
  8
1
 62
2
  6
DASHDOT
 10
555.022016559597
 20
-420.833781853647
 30
0
 11
526.022016559597
 21
-420.833781853647
 31
0
  0
LINE
  8
1
 62
7
 10
539.4786965051329
 20
-440.8337818536469
 30
0
 11
539.4786965051329
 21
-444.298781853647
 31
0
  0
LINE
  8
1
 62
7
 10
542.4786965051329
 20
-440.833781853647
 30
0
 11
539.4786965051329
 21
-440.8337818536469
 31
0
  0
LINE
  8
1
 62
7
 10
542.4786965051329
 20
-400.8337818536468
 30
0
 11
539.4786965051329
 21
-400.8337818536471
 31
0
  0
LINE
  8
1
 62
7
 10
539.4786965051329
 20
-400.8337818536471
 30
0
 11
539.4786965051329
 21
-397.333781853647
 31
0
  0
LINE
  8
1
 62
7
 10
539.4786965051329
 20
-397.368781853647
 30
0
 11
530.9786965051329
 21
-397.368781853647
 31
0
  0
LINE
  8
1
 62
7
 10
542.4786965051329
 20
-397.333781853647
 30
0
 11
542.4786965051329
 21
-400.8337818536468
 31
0
  0
LINE
  8
1
 62
7
 10
542.4786965051329
 20
-444.298781853647
 30
0
 11
542.4786965051329
 21
-440.833781853647
 31
0
  0
LINE
  8
1
 62
7
 10
539.4786965051329
 20
-444.298781853647
 30
0
 11
530.9786965051329
 21
-444.298781853647
 31
0
  0
LINE
  8
1
 62
7
 10
542.4786965051329
 20
-440.833781853647
 30
0
 11
542.4786965051329
 21
-400.8337818536468
 31
0
  0
LINE
  8
1
 62
7
 10
539.4786965051329
 20
-400.8337818536471
 30
0
 11
539.4786965051329
 21
-440.8337818536469
 31
0
  0
LINE
  8
1
 62
2
  6
DASHDOT
 10
480.9796870241059
 20
-420.833781853647
 30
0
 11
436.9796870241061
 21
-420.833781853647
 31
0
  0
LINE
  8
1
 62
2
  6
DASHDOT
 10
458.979687024106
 20
-398.8337818536471
 30
0
 11
458.979687024106
 21
-442.8337818536469
 31
0
  0
LINE
  8
1
 62
2
 10
549.4786965051329
 20
-397.368781853647
 30
0
 11
549.4786965051329
 21
-444.298781853647
 31
0
  0
LINE
  8
1
 62
2
 10
532.4786965051329
 20
-397.368781853647
 30
0
 11
532.4786965051329
 21
-444.298781853647
 31
0
  0
LINE
  8
1
 62
2
 10
542.4786965051329
 20
-420.333781853647
 30
0
 11
549.4786965051329
 21
-420.333781853647
 31
0
  0
LINE
  8
1
 62
2
 10
539.4786965051329
 20
-420.333781853647
 30
0
 11
532.4786965051329
 21
-420.333781853647
 31
0
  0
LINE
  8
1
 62
2
 10
532.4786965051329
 20
-421.333781853647
 30
0
 11
539.4786965051329
 21
-421.333781853647
 31
0
  0
LINE
  8
1
 62
2
 10
542.4786965051329
 20
-421.333781853647
 30
0
 11
549.4786965051329
 21
-421.333781853647
 31
0
  0
LINE
  8
1
 62
2
 10
542.4786965051329
 20
-419.333781853647
 30
0
 11
549.4786965051329
 21
-419.333781853647
 31
0
  0
LINE
  8
1
 62
2
 10
542.4786965051329
 20
-418.333781853647
 30
0
 11
549.4786965051329
 21
-418.333781853647
 31
0
  0
LINE
  8
1
 62
2
 10
542.4786965051329
 20
-417.333781853647
 30
0
 11
549.4786965051329
 21
-417.333781853647
 31
0
  0
LINE
  8
1
 62
2
 10
542.4786965051329
 20
-416.333781853647
 30
0
 11
549.4786965051329
 21
-416.333781853647
 31
0
  0
LINE
  8
1
 62
2
 10
542.4786965051329
 20
-415.333781853647
 30
0
 11
549.4786965051329
 21
-415.333781853647
 31
0
  0
LINE
  8
1
 62
2
 10
542.4786965051329
 20
-414.333781853647
 30
0
 11
549.4786965051329
 21
-414.333781853647
 31
0
  0
LINE
  8
1
 62
2
 10
542.4786965051329
 20
-413.333781853647
 30
0
 11
549.4786965051329
 21
-413.333781853647
 31
0
  0
LINE
  8
1
 62
2
 10
542.4786965051329
 20
-412.333781853647
 30
0
 11
549.4786965051329
 21
-412.333781853647
 31
0
  0
LINE
  8
1
 62
2
 10
542.4786965051329
 20
-411.333781853647
 30
0
 11
549.4786965051329
 21
-411.333781853647
 31
0
  0
LINE
  8
1
 62
2
 10
542.4786965051329
 20
-410.333781853647
 30
0
 11
549.4786965051329
 21
-410.333781853647
 31
0
  0
LINE
  8
1
 62
2
 10
542.4786965051329
 20
-409.333781853647
 30
0
 11
549.4786965051329
 21
-409.333781853647
 31
0
  0
LINE
  8
1
 62
2
 10
542.4786965051329
 20
-408.333781853647
 30
0
 11
549.4786965051329
 21
-408.333781853647
 31
0
  0
LINE
  8
1
 62
2
 10
542.4786965051329
 20
-407.333781853647
 30
0
 11
549.4786965051329
 21
-407.333781853647
 31
0
  0
LINE
  8
1
 62
2
 10
542.4786965051329
 20
-406.333781853647
 30
0
 11
549.4786965051329
 21
-406.333781853647
 31
0
  0
LINE
  8
1
 62
2
 10
542.4786965051329
 20
-405.333781853647
 30
0
 11
549.4786965051329
 21
-405.333781853647
 31
0
  0
LINE
  8
1
 62
2
 10
542.4786965051329
 20
-404.333781853647
 30
0
 11
549.4786965051329
 21
-404.333781853647
 31
0
  0
LINE
  8
1
 62
2
 10
542.4786965051329
 20
-403.333781853647
 30
0
 11
549.4786965051329
 21
-403.333781853647
 31
0
  0
LINE
  8
1
 62
2
 10
542.4786965051329
 20
-402.333781853647
 30
0
 11
549.4786965051329
 21
-402.333781853647
 31
0
  0
LINE
  8
1
 62
2
 10
542.4786965051329
 20
-401.333781853647
 30
0
 11
549.4786965051329
 21
-401.333781853647
 31
0
  0
LINE
  8
1
 62
2
 10
542.4786965051329
 20
-400.333781853647
 30
0
 11
549.4786965051329
 21
-400.333781853647
 31
0
  0
LINE
  8
1
 62
2
 10
542.4786965051329
 20
-399.333781853647
 30
0
 11
549.4786965051329
 21
-399.333781853647
 31
0
  0
LINE
  8
1
 62
2
 10
542.4786965051329
 20
-398.333781853647
 30
0
 11
549.4786965051329
 21
-398.333781853647
 31
0
  0
LINE
  8
1
 62
2
 10
539.4786965051329
 20
-419.333781853647
 30
0
 11
532.4786965051329
 21
-419.333781853647
 31
0
  0
LINE
  8
1
 62
2
 10
539.4786965051329
 20
-418.333781853647
 30
0
 11
532.4786965051329
 21
-418.333781853647
 31
0
  0
LINE
  8
1
 62
2
 10
539.4786965051329
 20
-417.333781853647
 30
0
 11
532.4786965051329
 21
-417.333781853647
 31
0
  0
LINE
  8
1
 62
2
 10
539.4786965051329
 20
-416.333781853647
 30
0
 11
532.4786965051329
 21
-416.333781853647
 31
0
  0
LINE
  8
1
 62
2
 10
539.4786965051329
 20
-415.333781853647
 30
0
 11
532.4786965051329
 21
-415.333781853647
 31
0
  0
LINE
  8
1
 62
2
 10
539.4786965051329
 20
-414.333781853647
 30
0
 11
532.4786965051329
 21
-414.333781853647
 31
0
  0
LINE
  8
1
 62
2
 10
539.4786965051329
 20
-413.333781853647
 30
0
 11
532.4786965051329
 21
-413.333781853647
 31
0
  0
LINE
  8
1
 62
2
 10
539.4786965051329
 20
-412.333781853647
 30
0
 11
532.4786965051329
 21
-412.333781853647
 31
0
  0
LINE
  8
1
 62
2
 10
539.4786965051329
 20
-411.333781853647
 30
0
 11
532.4786965051329
 21
-411.333781853647
 31
0
  0
LINE
  8
1
 62
2
 10
539.4786965051329
 20
-410.333781853647
 30
0
 11
532.4786965051329
 21
-410.333781853647
 31
0
  0
LINE
  8
1
 62
2
 10
539.4786965051329
 20
-409.333781853647
 30
0
 11
532.4786965051329
 21
-409.333781853647
 31
0
  0
LINE
  8
1
 62
2
 10
539.4786965051329
 20
-408.333781853647
 30
0
 11
532.4786965051329
 21
-408.333781853647
 31
0
  0
LINE
  8
1
 62
2
 10
539.4786965051329
 20
-407.333781853647
 30
0
 11
532.4786965051329
 21
-407.333781853647
 31
0
  0
LINE
  8
1
 62
2
 10
539.4786965051329
 20
-406.333781853647
 30
0
 11
532.4786965051329
 21
-406.333781853647
 31
0
  0
LINE
  8
1
 62
2
 10
539.4786965051329
 20
-406.333781853647
 30
0
 11
532.4786965051329
 21
-406.333781853647
 31
0
  0
LINE
  8
1
 62
2
 10
539.4786965051329
 20
-405.333781853647
 30
0
 11
532.4786965051329
 21
-405.333781853647
 31
0
  0
LINE
  8
1
 62
2
 10
539.4786965051329
 20
-404.333781853647
 30
0
 11
532.4786965051329
 21
-404.333781853647
 31
0
  0
LINE
  8
1
 62
2
 10
539.4786965051329
 20
-403.333781853647
 30
0
 11
532.4786965051329
 21
-403.333781853647
 31
0
  0
LINE
  8
1
 62
2
 10
539.4786965051329
 20
-402.333781853647
 30
0
 11
532.4786965051329
 21
-402.333781853647
 31
0
  0
LINE
  8
1
 62
2
 10
539.4786965051329
 20
-401.333781853647
 30
0
 11
532.4786965051329
 21
-401.333781853647
 31
0
  0
LINE
  8
1
 62
2
 10
539.4786965051329
 20
-400.333781853647
 30
0
 11
532.4786965051329
 21
-400.333781853647
 31
0
  0
LINE
  8
1
 62
2
 10
539.4786965051329
 20
-399.333781853647
 30
0
 11
532.4786965051329
 21
-399.333781853647
 31
0
  0
LINE
  8
1
 62
2
 10
539.4786965051329
 20
-398.333781853647
 30
0
 11
532.4786965051329
 21
-398.333781853647
 31
0
  0
LINE
  8
1
 62
2
 10
542.4786965051329
 20
-420.333781853647
 30
0
 11
549.4786965051329
 21
-420.333781853647
 31
0
  0
LINE
  8
1
 62
2
 10
542.4786965051329
 20
-422.333781853647
 30
0
 11
549.4786965051329
 21
-422.333781853647
 31
0
  0
LINE
  8
1
 62
2
 10
542.4786965051329
 20
-423.333781853647
 30
0
 11
549.4786965051329
 21
-423.333781853647
 31
0
  0
LINE
  8
1
 62
2
 10
542.4786965051329
 20
-424.333781853647
 30
0
 11
549.4786965051329
 21
-424.333781853647
 31
0
  0
LINE
  8
1
 62
2
 10
542.4786965051329
 20
-425.333781853647
 30
0
 11
549.4786965051329
 21
-425.333781853647
 31
0
  0
LINE
  8
1
 62
2
 10
542.4786965051329
 20
-426.333781853647
 30
0
 11
549.4786965051329
 21
-426.333781853647
 31
0
  0
LINE
  8
1
 62
2
 10
542.4786965051329
 20
-427.333781853647
 30
0
 11
549.4786965051329
 21
-427.333781853647
 31
0
  0
LINE
  8
1
 62
2
 10
542.4786965051329
 20
-428.333781853647
 30
0
 11
549.4786965051329
 21
-428.333781853647
 31
0
  0
LINE
  8
1
 62
2
 10
542.4786965051329
 20
-429.333781853647
 30
0
 11
549.4786965051329
 21
-429.333781853647
 31
0
  0
LINE
  8
1
 62
2
 10
542.4786965051329
 20
-430.333781853647
 30
0
 11
549.4786965051329
 21
-430.333781853647
 31
0
  0
LINE
  8
1
 62
2
 10
542.4786965051329
 20
-431.333781853647
 30
0
 11
549.4786965051329
 21
-431.333781853647
 31
0
  0
LINE
  8
1
 62
2
 10
542.4786965051329
 20
-432.333781853647
 30
0
 11
549.4786965051329
 21
-432.333781853647
 31
0
  0
LINE
  8
1
 62
2
 10
542.4786965051329
 20
-433.333781853647
 30
0
 11
549.4786965051329
 21
-433.333781853647
 31
0
  0
LINE
  8
1
 62
2
 10
542.4786965051329
 20
-434.333781853647
 30
0
 11
549.4786965051329
 21
-434.333781853647
 31
0
  0
LINE
  8
1
 62
2
 10
542.4786965051329
 20
-435.333781853647
 30
0
 11
549.4786965051329
 21
-435.333781853647
 31
0
  0
LINE
  8
1
 62
2
 10
542.4786965051329
 20
-436.333781853647
 30
0
 11
549.4786965051329
 21
-436.333781853647
 31
0
  0
LINE
  8
1
 62
2
 10
542.4786965051329
 20
-437.333781853647
 30
0
 11
549.4786965051329
 21
-437.333781853647
 31
0
  0
LINE
  8
1
 62
2
 10
542.4786965051329
 20
-438.333781853647
 30
0
 11
549.4786965051329
 21
-438.333781853647
 31
0
  0
LINE
  8
1
 62
2
 10
542.4786965051329
 20
-439.333781853647
 30
0
 11
549.4786965051329
 21
-439.333781853647
 31
0
  0
LINE
  8
1
 62
2
 10
542.4786965051329
 20
-439.333781853647
 30
0
 11
549.4786965051329
 21
-439.333781853647
 31
0
  0
LINE
  8
1
 62
2
 10
542.4786965051329
 20
-440.333781853647
 30
0
 11
549.4786965051329
 21
-440.333781853647
 31
0
  0
LINE
  8
1
 62
2
 10
542.4786965051329
 20
-441.333781853647
 30
0
 11
549.4786965051329
 21
-441.333781853647
 31
0
  0
LINE
  8
1
 62
2
 10
542.4786965051329
 20
-442.333781853647
 30
0
 11
549.4786965051329
 21
-442.333781853647
 31
0
  0
LINE
  8
1
 62
2
 10
542.4786965051329
 20
-443.333781853647
 30
0
 11
549.4786965051329
 21
-443.333781853647
 31
0
  0
LINE
  8
1
 62
2
 10
532.4786965051329
 20
-422.333781853647
 30
0
 11
539.4786965051329
 21
-422.333781853647
 31
0
  0
LINE
  8
1
 62
2
 10
532.4786965051329
 20
-423.333781853647
 30
0
 11
539.4786965051329
 21
-423.333781853647
 31
0
  0
LINE
  8
1
 62
2
 10
532.4786965051329
 20
-424.333781853647
 30
0
 11
539.4786965051329
 21
-424.333781853647
 31
0
  0
LINE
  8
1
 62
2
 10
532.4786965051329
 20
-425.333781853647
 30
0
 11
539.4786965051329
 21
-425.333781853647
 31
0
  0
LINE
  8
1
 62
2
 10
532.4786965051329
 20
-426.333781853647
 30
0
 11
539.4786965051329
 21
-426.333781853647
 31
0
  0
LINE
  8
1
 62
2
 10
532.4786965051329
 20
-427.333781853647
 30
0
 11
539.4786965051329
 21
-427.333781853647
 31
0
  0
LINE
  8
1
 62
2
 10
532.4786965051329
 20
-428.333781853647
 30
0
 11
539.4786965051329
 21
-428.333781853647
 31
0
  0
LINE
  8
1
 62
2
 10
532.4786965051329
 20
-429.333781853647
 30
0
 11
539.4786965051329
 21
-429.333781853647
 31
0
  0
LINE
  8
1
 62
2
 10
532.4786965051329
 20
-430.333781853647
 30
0
 11
539.4786965051329
 21
-430.333781853647
 31
0
  0
LINE
  8
1
 62
2
 10
532.4786965051329
 20
-431.333781853647
 30
0
 11
539.4786965051329
 21
-431.333781853647
 31
0
  0
LINE
  8
1
 62
2
 10
532.4786965051329
 20
-432.333781853647
 30
0
 11
539.4786965051329
 21
-432.333781853647
 31
0
  0
LINE
  8
1
 62
2
 10
532.4786965051329
 20
-433.333781853647
 30
0
 11
539.4786965051329
 21
-433.333781853647
 31
0
  0
LINE
  8
1
 62
2
 10
532.4786965051329
 20
-434.333781853647
 30
0
 11
539.4786965051329
 21
-434.333781853647
 31
0
  0
LINE
  8
1
 62
2
 10
532.4786965051329
 20
-435.333781853647
 30
0
 11
539.4786965051329
 21
-435.333781853647
 31
0
  0
LINE
  8
1
 62
2
 10
532.4786965051329
 20
-436.333781853647
 30
0
 11
539.4786965051329
 21
-436.333781853647
 31
0
  0
LINE
  8
1
 62
2
 10
532.4786965051329
 20
-437.333781853647
 30
0
 11
539.4786965051329
 21
-437.333781853647
 31
0
  0
LINE
  8
1
 62
2
 10
532.4786965051329
 20
-438.333781853647
 30
0
 11
539.4786965051329
 21
-438.333781853647
 31
0
  0
LINE
  8
1
 62
2
 10
532.4786965051329
 20
-439.333781853647
 30
0
 11
539.4786965051329
 21
-439.333781853647
 31
0
  0
LINE
  8
1
 62
2
 10
532.4786965051329
 20
-439.333781853647
 30
0
 11
539.4786965051329
 21
-439.333781853647
 31
0
  0
LINE
  8
1
 62
2
 10
532.4786965051329
 20
-440.333781853647
 30
0
 11
539.4786965051329
 21
-440.333781853647
 31
0
  0
LINE
  8
1
 62
2
 10
532.4786965051329
 20
-441.333781853647
 30
0
 11
539.4786965051329
 21
-441.333781853647
 31
0
  0
LINE
  8
1
 62
2
 10
532.4786965051329
 20
-442.333781853647
 30
0
 11
539.4786965051329
 21
-442.333781853647
 31
0
  0
LINE
  8
1
 62
2
 10
532.4786965051329
 20
-443.333781853647
 30
0
 11
539.4786965051329
 21
-443.333781853647
 31
0
  0
CIRCLE
  8
1
 62
7
 10
458.979687024106
 20
-420.833781853647
 30
0
 40
23.5
  0
CIRCLE
  8
1
 62
7
 10
458.979687024106
 20
-420.833781853647
 30
0
 40
19.99999999999993
  0
CIRCLE
  8
1
 62
2
 10
458.979687024106
 20
-420.833781853647
 30
0
 40
29
  0
POLYLINE
  8
1
 62
2
 66
1
 70
1
  0
VERTEX
  8
1
 10
461.447398024873
 20
-500.7559813685331
 30
0
  0
VERTEX
  8
1
 10
521.6073980248731
 20
-500.7559813685331
 30
0
  0
VERTEX
  8
1
 10
521.6073980248731
 20
-486.9959813685331
 30
0
  0
VERTEX
  8
1
 10
461.447398024873
 20
-486.9959813685331
 30
0
  0
SEQEND
  8
1
  0
LINE
  8
1
 62
2
 10
508.623202193102
 20
-487.303650812604
 30
0
 11
535.567388305137
 21
-444.298781853647
 31
0
  0
SOLID
  8
1
 62
2
 10
534.3092724587106
 20
-447.0507149811157
 30
0
 11
533.6398890123727
 21
-446.631320791689
 31
0
 12
535.567388305137
 22
-444.298781853647
 32
0
 13
535.567388305137
 23
-444.298781853647
 33
0
  0
LINE
  8
1
 62
2
 10
527.497512731363
 20
-457.1788866793119
 30
0
 11
546.173078583278
 21
-444.298781853647
 31
0
  0
SOLID
  8
1
 62
2
 10
543.9277003629954
 20
-446.3271477153618
 30
0
 11
543.4792300550726
 21
-445.6768861777729
 31
0
 12
546.173078583278
 22
-444.298781853647
 32
0
 13
546.173078583278
 23
-444.298781853647
 33
0
  0
TEXT
  8
1
 62
2
 10
600.8193497018531
 20
-484.6933191803788
 30
0
 40
2.3
  1
a %%c46.93 0/+0.05 (MO4T003)
 50
90
 41
0.9
  0
TEXT
  8
1
 62
2
 10
596.669678911749
 20
-484.6933191803788
 30
0
 40
2.3
  1
Modificato %%c zigrinatura da 47 H7
 50
90
 41
0.9
  0
TEXT
  8
1
 62
2
 10
596.669678911749
 20
-501.7241619742431
 30
0
 40
2.3
  1
Calciolari
 50
90
 41
0.9
  0
TEXT
  8
1
 62
2
 10
596.669678911749
 20
-518.4388559293165
 30
0
 40
2.3
  1
11/11/04
 50
90
 41
0.9
  0
TEXT
  8
1
 62
2
 10
596.669678911749
 20
-523.3420539683689
 30
0
 40
2.3
  1
C
 50
90
 41
0.9
  0
TEXT
  8
1
 62
2
 10
592.5200081216459
 20
-484.6933191803788
 30
0
 40
2.3
  1
Aggiunto smusso esterno (M03T001)
 50
90
 41
0.9
  0
TEXT
  8
1
 62
2
 10
592.5200081216459
 20
-501.7241619742431
 30
0
 40
2.3
  1
Calciolari
 50
90
 41
0.9
  0
TEXT
  8
1
 62
2
 10
592.5200081216459
 20
-518.4388559293165
 30
0
 40
2.3
  1
03/02/03
 50
90
 41
0.9
  0
TEXT
  8
1
 62
2
 10
592.5200081216459
 20
-523.3420539683689
 30
0
 40
2.3
  1
B
 50
90
 41
0.9
  0
TEXT
  8
1
 62
2
 10
553.803406341824
 20
-545.1524240661396
 30
0
 40
2.5
  1
IT12
 41
0.9
  0
TEXT
  8
1
 62
2
 10
482.560806416284
 20
-554.7446903201495
 30
0
 40
2.5
  1
Ottone
 41
0.9
  0
TEXT
  8
1
 62
2
 10
500.350415637159
 20
-545.0321462184365
 30
0
 40
2.5
  1
Table Top
 41
0.9
  0
TEXT
  8
1
 62
2
 10
571.11295289421
 20
-569.1811534613155
 30
0
 40
2.5
  1
05/03/98
 41
0.9
  0
TEXT
  8
1
 62
2
 10
576.553113866507
 20
-546.3590147482645
 30
0
 40
2.5
  1
1:1
 41
0.9
  0
TEXT
  8
1
 62
2
 10
575.624305895627
 20
-558.5662052226876
 30
0
 40
2.5
  1
Pinotti
 41
0.9
  0
TEXT
  8
1
 62
2
 10
462.928522913344
 20
-570.6294583664866
 30
0
 40
3.5
  1
Boccola esagonale Ch.60 %%ci.47 H=22
 41
0.9
  0
TEXT
  8
1
 62
2
 10
422.8564391061
 20
-587.4667928741995
 30
0
 40
3.5
  1
38516
 41
0.9
  0
TEXT
  8
1
 62
2
 10
464.697407932539
 20
-576.9797684950096
 30
0
 40
3
  1
sede cuscinetti 25x47x8 (Rinvio)
 41
0.9
  0
TEXT
  8
1
 62
2
 10
588.3703373315419
 20
-523.3420539683689
 30
0
 40
2.3
  1
A
 50
90
 41
0.9
  0
TEXT
  8
1
 62
2
 10
588.3703373315419
 20
-518.1088559293168
 30
0
 40
2.3
  1
16/07/02
 50
90
 41
0.9
  0
TEXT
  8
1
 62
2
 10
588.3703373315419
 20
-501.7241619742431
 30
0
 40
2.3
  1
Calciolari
 50
90
 41
0.9
  0
TEXT
  8
1
 62
2
 10
588.3703373315419
 20
-484.6933191803788
 30
0
 40
2.3
  1
Aggiunta zigrinatura (M02S013)
 50
90
 41
0.9
  0
TEXT
  8
1
 62
2
 10
450.936718881817
 20
-587.269572126015
 30
0
 40
3.2
  1
C
 41
0.9
  0
TEXT
  8
1
 62
2
 10
463.047398024873
 20
-491.7959813685331
 30
0
 40
3.2
  1
Sedi cuscinetti 25x47x8
 41
0.9
  0
TEXT
  8
1
 62
2
 10
463.047398024873
 20
-498.1959813685331
 30
0
 40
3.2
  1
Zigrinatura UNI 149-A1
 41
0.9
  0
DIMENSION
  8
1
  6
CONTINUOUS
 62
2
  2
*D0
  3
DMST_1
 10
529.9786965051329
 20
-374.380947079782
 30
0
 11
515.989330146445
 21
-371.580947079782
 31
0
 12
0
 22
0
 32
0
 70
0
  1
Sm1x45³
 13
530.9786965051329
 23
-444.298781853647
 33
0
 14
529.9786965051329
 24
-445.333781853647
 34
0
 53
0
  0
DIMENSION
  8
1
  6
CONTINUOUS
 62
2
  2
*D1
  3
DMST_2
 10
508.663603363403
 20
-397.368781853647
 30
0
 11
505.213603363403
 21
-420.833781853647
 31
0
 12
0
 22
0
 32
0
 70
0
  1
Ò46,93
 13
530.9786965051329
 23
-444.298781853647
 33
0
 14
530.9786965051329
 24
-397.368781853647
 34
0
 50
90
 53
0
  0
DIMENSION
  8
1
  6
CONTINUOUS
 62
2
  2
*D2
  3
DMST_3
 10
551.9786965051329
 20
-374.347873264227
 30
0
 11
565.84727445724
 21
-370.347873264227
 31
0
 12
0
 22
0
 32
0
 70
0
  1
Sm<>
 13
550.9786965051329
 23
-397.368781853647
 33
0
 14
551.9786965051329
 24
-396.333781853647
 34
0
 53
0
  0
DIMENSION
  8
1
  6
CONTINUOUS
 62
2
  2
*D3
  3
DMST_4
 10
551.9786965051329
 20
-474.949927195573
 30
0
 11
540.9786965051329
 21
-470.949927195573
 31
0
 12
0
 22
0
 32
0
 70
0
 13
529.9786965051329
 23
-455.473781853647
 33
0
 14
551.9786965051329
 24
-445.333781853647
 34
0
 53
0
  0
DIMENSION
  8
1
  6
CONTINUOUS
 62
2
  2
*D4
  3
DMST_4
 10
488.9796870241062
 20
-464.1752505435609
 30
0
 11
458.9796870241065
 21
-460.1752505435609
 31
0
 12
0
 22
0
 32
0
 70
1
 13
428.9796870241063
 23
-438.154289929336
 33
0
 14
488.9796870241062
 24
-438.1542899293355
 34
0
 53
0
  0
DIMENSION
  8
1
  6
CONTINUOUS
 62
2
  2
*D5
  3
DMST_4
 10
516.109953368182
 20
-440.8337818536469
 30
0
 11
512.109953368182
 21
-420.8337818536469
 31
0
 12
0
 22
0
 32
0
 70
0
  1
%%c<>
 13
542.4786965051329
 23
-400.8337818536468
 33
0
 14
539.4786965051329
 24
-440.8337818536469
 34
0
 50
90
 53
0
  0
DIMENSION
  8
1
  6
CONTINUOUS
 62
2
  2
*D6
  3
DMST_4
 10
529.9786965051329
 20
-362.15253911596
 30
0
 11
534.7286965051329
 21
-358.00253911596
 31
0
 12
0
 22
0
 32
0
 70
0
 13
539.4786965051329
 23
-397.333781853647
 33
0
 14
529.9786965051329
 24
-396.333781853647
 34
0
 53
0
  0
DIMENSION
  8
1
  6
CONTINUOUS
 62
2
  2
*D7
  3
DMST_4
 10
542.4786965051329
 20
-362.055538218661
 30
0
 11
547.2286965051329
 21
-357.905538218661
 31
0
 12
0
 22
0
 32
0
 70
0
 13
551.9786965051329
 23
-396.333781853647
 33
0
 14
542.4786965051329
 24
-400.8337818536468
 34
0
 53
0
  0
DIMENSION
  8
1
  6
CONTINUOUS
 62
2
  2
*D8
  3
DMST_1
 10
501.316282863339
 20
-449.833781853647
 30
0
 11
498.516282863339
 21
-420.833781853647
 31
0
 12
0
 22
0
 32
0
 70
0
  1
Ò58
 13
529.9786965051329
 23
-391.833781853647
 33
0
 14
529.9786965051329
 24
-449.833781853647
 34
0
 50
90
 53
0
  0
DIMENSION
  8
1
  6
CONTINUOUS
 62
2
  2
*D9
  3
DMST_5
 10
529.9786965051329
 20
-386.193781853647
 30
0
 11
521.355835294568
 21
-380.504584786967
 31
0
 12
0
 22
0
 32
0
 70
2
 13
529.9786965051329
 23
-391.833781853647
 33
0
 14
539.7474630598214
 24
-386.193781853647
 34
0
 15
538.802895972639
 25
-386.193781853647
 35
0
 16
523.856567371554
 26
-390.4517345203255
 36
0
 53
0
  0
INSERT
  8
0
  2
TOP__14
 10
422.058891247848
 20
-346.7154152640226
 30
0
  0
ENDBLK
  8
0
  0
BLOCK
  8
0
  2
TOP__16
 70
0
 10
615.2683620721641
 20
-595.3374546795263
 30
0
  0
LINE
  8
1
 62
7
 10
562.604271922045
 20
-550.3374546795263
 30
0
 11
587.604271922045
 21
-550.3374546795263
 31
0
  0
LINE
  8
1
 62
7
 10
587.604271922045
 20
-580.3374546795263
 30
0
 11
610.2683620721641
 21
-580.3374546795263
 31
0
  0
LINE
  8
1
 62
2
 10
583.0684292712223
 20
-305.3899406304043
 30
0
 11
610.2683620721641
 21
-305.3899406304043
 31
0
  0
LINE
  8
1
 62
2
 10
585.370337331542
 20
-305.3899406304043
 30
0
 11
585.370337331542
 21
-414.7711547225002
 31
0
  0
LINE
  8
1
 62
2
 10
589.520008121646
 20
-305.3899406304043
 30
0
 11
589.520008121646
 21
-414.7711547225002
 31
0
  0
LINE
  8
1
 62
2
 10
597.8193497018531
 20
-305.3899406304043
 30
0
 11
597.8193497018531
 21
-414.7711547225002
 31
0
  0
LINE
  8
1
 62
2
 10
606.118691282061
 20
-305.3899406304043
 30
0
 11
606.118691282061
 21
-414.7711547225002
 31
0
  0
LINE
  8
1
 62
7
 10
519.3036133861701
 20
-547.3374546795263
 30
0
 11
519.3036133861701
 21
-559.3374546795263
 31
0
  0
LINE
  8
1
 62
2
 10
601.9690204919572
 20
-414.7711547225002
 30
0
 11
601.9690204919572
 21
-305.3899406304043
 31
0
  0
LINE
  8
1
 62
2
 10
593.66967891175
 20
-414.7711547225002
 30
0
 11
593.66967891175
 21
-305.3899406304043
 31
0
  0
LINE
  8
1
 62
2
 10
610.2683620721641
 20
-417.7523961690644
 30
0
 11
582.968588758886
 21
-417.7523961690644
 31
0
  0
LINE
  8
1
 62
2
 10
585.370337331542
 20
-417.7523961690644
 30
0
 11
585.370337331542
 21
-525.3374546795263
 31
0
  0
LINE
  8
1
 62
2
 10
589.520008121646
 20
-417.7523961690644
 30
0
 11
589.520008121646
 21
-525.3374546795263
 31
0
  0
LINE
  8
1
 62
2
 10
597.8193497018531
 20
-417.7523961690644
 30
0
 11
597.8193497018531
 21
-525.3374546795263
 31
0
  0
LINE
  8
1
 62
2
 10
606.118691282061
 20
-417.7523961690644
 30
0
 11
606.118691282061
 21
-525.3374546795263
 31
0
  0
LINE
  8
1
 62
2
 10
585.370337331542
 20
-305.3899406304043
 30
0
 11
585.370337331542
 21
-407.7163489087953
 31
0
  0
LINE
  8
1
 62
2
 10
582.968588758886
 20
-414.7711547225002
 30
0
 11
610.2683620721641
 21
-414.7711547225002
 31
0
  0
LINE
  8
1
 62
2
 10
585.370337331542
 20
-374.7887198915362
 30
0
 11
610.2683620721641
 21
-374.7887198915362
 31
0
  0
LINE
  8
1
 62
2
 10
585.370337331542
 20
-392.1195626854004
 30
0
 11
610.2683620721641
 21
-392.1195626854004
 31
0
  0
LINE
  8
1
 62
2
 10
585.370337331542
 20
-407.7163489087953
 30
0
 11
610.2683620721641
 21
-407.7163489087953
 31
0
  0
LINE
  8
1
 62
2
 10
585.370337331542
 20
-485.7887198915362
 30
0
 11
610.2683620721641
 21
-485.7887198915362
 31
0
  0
LINE
  8
1
 62
2
 10
585.370337331542
 20
-503.1195626854004
 30
0
 11
610.2683620721641
 21
-503.1195626854004
 31
0
  0
LINE
  8
1
 62
2
 10
585.370337331542
 20
-518.7163489087953
 30
0
 11
610.2683620721641
 21
-518.7163489087953
 31
0
  0
LINE
  8
1
 62
7
 10
610.2683620721641
 20
-590.3374546795263
 30
0
 11
610.2683620721641
 21
-303.3374546795263
 31
0
  0
LINE
  8
1
 62
7
 10
494.0071889256221
 20
-537.3374546795263
 30
0
 11
494.0071889256221
 21
-547.3374546795263
 31
0
  0
LINE
  8
1
 62
7
 10
460.268362072165
 20
-547.3374546795263
 30
0
 11
562.604271922045
 21
-547.3374546795263
 31
0
  0
LINE
  8
1
 62
7
 10
447.3218329491601
 20
-574.9267500433253
 30
0
 11
447.3218329491601
 21
-590.3374546795263
 31
0
  0
LINE
  8
1
 62
2
  6
DOT
 10
517.3775356295921
 20
-555.3374546795263
 30
0
 11
463.0752721743102
 21
-555.3374546795263
 31
0
  0
LINE
  8
1
 62
2
  6
DOT
 10
485.4089338714441
 20
-551.3374546795263
 30
0
 11
517.3775356295921
 21
-551.3374546795263
 31
0
  0
LINE
  8
1
 62
7
 10
610.2683620721641
 20
-303.3374546795263
 30
0
 11
410.268362072165
 21
-303.3374546795263
 31
0
  0
LINE
  8
1
 62
2
 10
593.66967891175
 20
-525.3374546795263
 30
0
 11
593.66967891175
 21
-417.7523961690644
 31
0
  0
LINE
  8
1
 62
7
 10
410.268362072165
 20
-525.3374546795263
 30
0
 11
610.2683620721641
 21
-525.3374546795263
 31
0
  0
LINE
  8
1
 62
2
 10
601.9690204919572
 20
-525.3374546795263
 30
0
 11
601.9690204919572
 21
-417.7523961690644
 31
0
  0
LINE
  8
1
 62
7
 10
410.268362072165
 20
-590.3374546795263
 30
0
 11
610.2683620721641
 21
-590.3374546795263
 31
0
  0
LINE
  8
1
 62
7
 10
410.268362072165
 20
-574.9267500433253
 30
0
 11
460.268362072165
 21
-574.9267500433253
 31
0
  0
LINE
  8
1
 62
7
 10
460.268362072165
 20
-565.3218755474182
 30
0
 11
410.268362072165
 21
-565.3218755474182
 31
0
  0
LINE
  8
1
 62
7
 10
410.268362072165
 20
-590.3374546795263
 30
0
 11
410.268362072165
 21
-303.3374546795263
 31
0
  0
LINE
  8
1
 62
2
 10
405.268362072165
 20
-298.3374546795263
 30
0
 11
405.268362072165
 21
-595.3374546795263
 31
0
  0
LINE
  8
1
 62
2
 10
405.268362072165
 20
-595.3374546795263
 30
0
 11
615.2683620721641
 21
-595.3374546795263
 31
0
  0
LINE
  8
1
 62
2
 10
615.2683620721641
 20
-595.3374546795263
 30
0
 11
615.2683620721641
 21
-298.3374546795263
 31
0
  0
LINE
  8
1
 62
2
 10
615.2683620721641
 20
-298.3374546795263
 30
0
 11
405.268362072165
 21
-298.3374546795263
 31
0
  0
LINE
  8
1
 62
2
  6
DOT
 10
457.806823610626
 20
-529.3374546795263
 30
0
 11
495.7683620721641
 21
-529.3374546795263
 31
0
  0
LINE
  8
1
 62
2
  6
DOT
 10
412.268362072165
 20
-533.3374546795263
 30
0
 11
495.7683620721641
 21
-533.3374546795263
 31
0
  0
LINE
  8
1
 62
7
 10
587.604271922045
 20
-525.3374546795263
 30
0
 11
585.370337331542
 21
-525.3374546795263
 31
0
  0
LINE
  8
1
 62
7
 10
587.604271922045
 20
-525.3374546795263
 30
0
 11
587.604271922045
 21
-590.3374546795263
 31
0
  0
LINE
  8
1
 62
7
 10
460.268362072165
 20
-537.3374546795263
 30
0
 11
460.268362072165
 21
-590.3374546795263
 31
0
  0
LINE
  8
1
 62
7
 10
587.604271922045
 20
-537.3374546795263
 30
0
 11
410.268362072165
 21
-537.3374546795263
 31
0
  0
LINE
  8
1
 62
7
 10
519.303613386171
 20
-537.3374546795263
 30
0
 11
519.3036133861701
 21
-547.3374546795263
 31
0
  0
LINE
  8
1
 62
7
 10
539.504907735354
 20
-547.3374546795263
 30
0
 11
539.504907735354
 21
-559.3374546795263
 31
0
  0
LINE
  8
1
 62
7
 10
460.268362072165
 20
-559.3374546795263
 30
0
 11
562.604271922045
 21
-559.3374546795263
 31
0
  0
LINE
  8
1
 62
7
 10
497.7683620721641
 20
-525.3374546795263
 30
0
 11
497.7683620721641
 21
-537.3374546795263
 31
0
  0
LINE
  8
1
 62
7
 10
562.604271922045
 20
-590.3374546795263
 30
0
 11
562.604271922045
 21
-537.3374546795263
 31
0
  0
LINE
  8
1
 62
7
 10
562.604271922045
 20
-570.3374546795263
 30
0
 11
587.604271922045
 21
-570.3374546795263
 31
0
  0
LINE
  8
1
 62
2
 10
562.604271922045
 20
-580.3374546795263
 30
0
 11
587.604271922045
 21
-580.3374546795263
 31
0
  0
LINE
  8
1
 62
2
 10
562.604271922045
 20
-560.3374546795263
 30
0
 11
587.604271922045
 21
-560.3374546795263
 31
0
  0
LINE
  8
1
 62
2
  6
DOT
 10
499.7683620721641
 20
-533.3374546795263
 30
0
 11
585.604271922045
 21
-533.3374546795263
 31
0
  0
LINE
  8
1
 62
2
  6
DOT
 10
544.387518770475
 20
-529.3374546795263
 30
0
 11
585.604271922045
 21
-529.3374546795263
 31
0
  0
LINE
  8
1
 62
7
 10
410.268362072165
 20
-555.7170010515123
 30
0
 11
460.268362072165
 21
-555.7170010515123
 31
0
  0
LINE
  8
1
 62
7
 10
539.504907735354
 20
-537.3374546795263
 30
0
 11
539.504907735354
 21
-547.3374546795263
 31
0
  0
LINE
  8
1
 62
7
 10
562.604271922045
 20
-580.3374546795263
 30
0
 11
460.268362072165
 21
-580.3374546795263
 31
0
  0
LINE
  8
1
 62
2
  6
DOT
 10
560.4057493418052
 20
-578.2374546795264
 30
0
 11
462.4604350038051
 21
-578.2374546795264
 31
0
  0
LINE
  8
1
 62
2
  6
DOT
 10
462.5673622028651
 20
-571.9374546795262
 30
0
 11
560.1918949436853
 21
-571.9374546795262
 31
0
  0
LINE
  8
1
 62
2
  6
DOT
 10
462.5673622028651
 20
-565.6374546795263
 30
0
 11
560.2988221427452
 21
-565.6374546795263
 31
0
  0
TEXT
  8
1
 62
2
 10
413.319918226269
 20
-548.0272278655194
 30
0
 40
4
  1
Rexnord Marbett
 41
0.7785
 51
9.999999999999996
  7
COMPLEX
  0
TEXT
  8
1
 62
2
 10
563.791256145591
 20
-562.9208425046923
 30
0
 40
1.2
  1
Data
 41
1.08
  0
TEXT
  8
1
 62
2
 10
563.791256145591
 20
-565.5608425046922
 30
0
 40
1.2
  1
(Date)
 41
1.08
  0
TEXT
  8
1
 62
2
 10
448.518326815079
 20
-579.9406702655343
 30
0
 40
1.2
  1
(Modific.)
 41
1.35
  0
TEXT
  8
1
 62
2
 10
582.9932559881331
 20
-402.2135273459654
 30
0
 40
1.2
  1
Data
 50
90
 41
1.08
  0
TEXT
  8
1
 62
2
 10
584.6980007502532
 20
-402.8076403245132
 30
0
 40
1.2
  1
(Date)
 50
90
 41
1.08
  7
SIMPLEX
  0
TEXT
  8
1
 62
2
 10
583.1195333779201
 20
-384.8114637639693
 30
0
 40
1.2
  1
Dis.
 50
90
 41
1.08
  0
TEXT
  8
1
 62
2
 10
584.8242781400402
 20
-387.7985063669074
 30
0
 40
1.2
  1
(Draftsm.)
 50
90
 41
1.08
  7
SIMPLEX
  0
TEXT
  8
1
 62
2
 10
583.1195333779201
 20
-413.4959551884893
 30
0
 40
1.2
  1
Indic.
 50
90
 41
1.08
  0
TEXT
  8
1
 62
2
 10
584.8242781400402
 20
-413.2661883909453
 30
0
 40
1.2
  1
(Ind.)
 50
90
 41
1.08
  7
SIMPLEX
  0
TEXT
  8
1
 62
2
 10
520.8587619763
 20
-549.5336624908393
 30
0
 40
1.2
  1
Colore
 41
1.08
  0
TEXT
  8
1
 62
2
 10
520.8587619763
 20
-552.1736624908393
 30
0
 40
1.2
  1
(Colour)
 41
1.08
  0
TEXT
  8
1
 62
2
 10
411.4683620721651
 20
-582.7585214211223
 30
0
 40
1.2
  1
N%%d
 41
0.9
  0
TEXT
  8
1
 62
2
 10
411.4683620721651
 20
-563.1614892568963
 30
0
 40
1.2
  1
N%%d
 41
0.9
  0
TEXT
  8
1
 62
2
 10
411.4683620721651
 20
-573.2850745929183
 30
0
 40
1.2
  1
N%%d
 41
0.9
  0
TEXT
  8
1
 62
2
 10
494.9773951918091
 20
-542.3212967687613
 30
0
 40
1.2
  1
(Line)
 41
1.08
  0
TEXT
  8
1
 62
2
 10
540.930510849646
 20
-542.4766664931864
 30
0
 40
1.2
  1
(Gen. Tol.)
 41
1.08
  0
TEXT
  8
1
 62
2
 10
540.8796801277653
 20
-539.7848520382914
 30
0
 40
1.2
  1
Toll. Gen.
 41
1.08
  0
TEXT
  8
1
 62
2
 10
584.4731660599
 20
-353.1129882260232
 30
0
 40
1.3
  1
Modifiche (Modifications)
 50
90
 41
1.08
  0
TEXT
  8
1
 62
2
 10
495.2897150553081
 20
-539.5584722686155
 30
0
 40
1.3
  1
Linea
 41
1.08
  0
TEXT
  8
1
 62
2
 10
463.6855752842012
 20
-543.4391812340203
 30
0
 40
2.5
  1
UFFICI TECNICI
 41
0.9
  0
TEXT
  8
1
 62
2
 10
449.3975314869201
 20
-577.7567053913684
 30
0
 40
1.3
  1
Modifica
 41
1.08
  0
TEXT
  8
1
 62
2
 10
584.4731660599
 20
-464.7341385043204
 30
0
 40
1.3
  1
Modifiche (Modifications)
 50
90
 41
1.08
  0
TEXT
  8
1
 62
2
 10
520.6062678447731
 20
-539.8933050373753
 30
0
 40
1.3
  1
Peso
 41
1.08
  0
TEXT
  8
1
 62
2
 10
520.6062678447731
 20
-542.4933050373753
 30
0
 40
1.3
  1
(Weight)
 41
1.08
  0
TEXT
  8
1
 62
2
 10
597.7710705241083
 20
-593.8046020321484
 30
0
 40
2
  1
 UNI A/4
 41
0.9
  0
TEXT
  8
1
 62
2
 10
463.2621935305401
 20
-564.3374546795263
 30
0
 40
1.5
  1
Descrizione (Description)
 41
0.9
  0
TEXT
  8
1
 62
2
 10
590.3761052683799
 20
-578.2026670987992
 30
0
 40
1.180511166170861
  1
Proprieta' della Marbett S.p.A..
 50
90
 41
1.350000000000001
  0
TEXT
  8
1
 62
2
 10
592.9732298339558
 20
-578.2026670987992
 30
0
 40
1.180511166170861
  1
Senza autorizzazione scritta della
 50
90
 41
1.350000000000001
  0
TEXT
  8
1
 62
2
 10
595.5703543995317
 20
-578.2026670987992
 30
0
 40
1.180511166170861
  1
stessa il presente disegno non puo'
 50
90
 41
1.350000000000001
  0
TEXT
  8
1
 62
2
 10
598.1674789651075
 20
-578.2026670987992
 30
0
 40
1.180511166170861
  1
essere comunque utilizzato per la
 50
90
 41
1.350000000000001
  0
TEXT
  8
1
 62
2
 10
600.7646035306834
 20
-578.2026670987992
 30
0
 40
1.180511166170861
  1
costruzione dell'oggetto rappresentato,
 50
90
 41
1.350000000000001
  0
TEXT
  8
1
 62
2
 10
603.3617280962593
 20
-578.2026670987992
 30
0
 40
1.180511166170861
  1
ne' venire comunicato a terzi o
 50
90
 41
1.350000000000001
  0
TEXT
  8
1
 62
2
 10
605.9588526618352
 20
-578.2026670987992
 30
0
 40
1.180511166170861
  1
riprodotto. La Societa' proprietaria
 50
90
 41
1.350000000000001
  0
TEXT
  8
1
 62
2
 10
608.5559772274111
 20
-578.2026670987992
 30
0
 40
1.180511166170861
  1
tutela i propri diritti a rigore di legge.
 50
90
 41
1.350000000000001
  0
TEXT
  8
1
 62
2
 10
413.268362072165
 20
-529.3374546795263
 30
0
 40
1.2
  1
Tratt. termici (Heat treatments)
 41
1.35
  0
TEXT
  8
1
 62
2
 10
411.4485827820531
 20
-558.3089726003113
 30
0
 40
1.2
  1
Dis. Cliente
 41
1.35
  0
TEXT
  8
1
 62
2
 10
411.4485827820531
 20
-560.9489726003113
 30
0
 40
1.2
  1
(Customer Drawing)
 41
1.35
  0
TEXT
  8
1
 62
2
 10
563.9038271051081
 20
-540.0662895700734
 30
0
 40
1.2
  1
Scala
 41
1.08
  0
TEXT
  8
1
 62
2
 10
563.9038271051081
 20
-542.7062895700734
 30
0
 40
1.2
  1
(Scale)
 41
1.08
  0
TEXT
  8
1
 62
2
 10
563.9038271051081
 20
-552.7247742099344
 30
0
 40
1.2
  1
Dis.
 41
1.08
  0
TEXT
  8
1
 62
2
 10
563.9038271051081
 20
-555.3647742099344
 30
0
 40
1.2
  1
(Draftsm.)
 41
1.08
  0
TEXT
  8
1
 62
2
 10
563.9038271051081
 20
-572.7588256513284
 30
0
 40
1.2
  1
Contr.
 41
1.08
  0
TEXT
  8
1
 62
2
 10
563.9038271051081
 20
-575.3988256513284
 30
0
 40
1.2
  1
(Check)
 41
1.08
  0
TEXT
  8
1
 62
2
 10
588.7851073797872
 20
-582.6779790712083
 30
0
 40
1.2
  1
Foglio
 41
1.08
  0
TEXT
  8
1
 62
2
 10
588.7851073797872
 20
-585.3179790712082
 30
0
 40
1.2
  1
(Sheet)
 41
1.08
  0
TEXT
  8
1
 62
2
 10
411.3851645131681
 20
-577.5634617247774
 30
0
 40
1.2
  1
Disegno o stp.
 41
1.35
  0
TEXT
  8
1
 62
2
 10
411.3851645131681
 20
-580.2034617247774
 30
0
 40
1.2
  1
(Drawing or mould)
 41
1.35
  0
TEXT
  8
1
 62
2
 10
463.2683620721641
 20
-550.5434259751713
 30
0
 40
1.2
  1
Materiale (Mat.)
 41
1.08
  0
TEXT
  8
1
 62
2
 10
540.800990596199
 20
-549.6784741738343
 30
0
 40
1.2
  1
Ritiro %%%
 41
1.08
  0
TEXT
  8
1
 62
2
 10
540.800990596199
 20
-552.3184741738343
 30
0
 40
1.2
  1
(Contraction %%%)
 41
1.08
  0
TEXT
  8
1
 62
2
 10
500.7683620721641
 20
-529.3374546795263
 30
0
 40
1.3
  1
Tratt. superfic. (Surface treatments)
 41
0.9899999999999999
  0
TEXT
  8
1
 62
2
 10
411.3851645131681
 20
-567.4925581264592
 30
0
 40
1.2
  1
Dis. Complessivo
 41
1.35
  0
TEXT
  8
1
 62
2
 10
411.3851645131681
 20
-570.1325581264592
 30
0
 40
1.2
  1
(Assembly drawing)
 41
1.35
  0
TEXT
  8
1
 62
2
 10
563.791256145591
 20
-582.9208425046923
 30
0
 40
1.2
  1
Data
 41
1.08
  0
TEXT
  8
1
 62
2
 10
563.791256145591
 20
-585.5608425046922
 30
0
 40
1.2
  1
(Date)
 41
1.08
  0
TEXT
  8
1
 62
2
 10
582.9932559881331
 20
-513.4077674280023
 30
0
 40
1.2
  1
Data
 50
90
 41
1.08
  0
TEXT
  8
1
 62
2
 10
584.6980007502532
 20
-513.7706478779043
 30
0
 40
1.2
  1
(Date)
 50
90
 41
1.08
  7
SIMPLEX
  0
TEXT
  8
1
 62
2
 10
583.1195333779201
 20
-496.5606970666502
 30
0
 40
1.2
  1
 Dis.
 50
90
 41
1.08
  0
TEXT
  8
1
 62
2
 10
584.8242781400402
 20
-498.6773954965184
 30
0
 40
1.2
  1
(Draftsm.)
 50
90
 41
1.08
  7
SIMPLEX
  0
TEXT
  8
1
 62
2
 10
583.1195333779201
 20
-524.2193723348943
 30
0
 40
1.2
  1
Indic.
 50
90
 41
1.08
  0
TEXT
  8
1
 62
2
 10
584.8242781400402
 20
-524.0052930620794
 30
0
 40
1.2
  1
(Ind.)
 50
90
 41
1.08
  7
SIMPLEX
  0
TEXT
  8
1
 62
2
 10
462.7812166009851
 20
-583.4964142926484
 30
0
 40
1.5
  1
Progetto (Project)
 41
0.9
  0
ENDBLK
  8
0
  0
BLOCK
  8
0
  2
TOP__17
 70
0
 10
105.932687024106
 20
-149.580781853647
 30
0
  0
INSERT
  8
0
  2
BOCCOLA__15
 10
405.268362072165
 20
-595.3374546795263
 30
0
  0
INSERT
  8
0
  2
TOP__16
 10
615.2683620721641
 20
-595.3374546795263
 30
0
  0
ENDBLK
  8
0
  0
ENDSEC
  0
SECTION
  2
ENTITIES
  0
INSERT
  8
0
  2
TOP__13
 10
188.459080635039
 20
107.770030350414
 30
0
  0
INSERT
  8
0
  2
TOP__17
 10
105.932687024106
 20
-149.580781853647
 30
0
  0
ENDSEC
  0
EOF
