999
DXF file: 649132.dxf
999
Pro/ENGINEER 2005310 by Parametric Technology Corporation
0
SECTION
2
HEADER
9
$ACADVER
1
AC1015
9
$DWGCODEPAGE
3
ANSI_1252
9
$EXTMAX
10
210.0000000000
20
297.0000000000
30
0.0000000000
9
$EXTMIN
10
0.0000000000
20
0.0000000000
30
0.0000000000
9
$LIMMIN
10
0.0000000000
20
0.0000000000
9
$LIMMAX
10
210.0000000000
20
297.0000000000
9
$VIEWCTR
10
105.0000000000
20
148.5000000000
9
$VIEWSIZE
40
297.0000000000
9
$CLAYER
8
0
9
$LTSCALE
40
19.3600000000
9
$CELTYPE
6
BYLAYER
9
$DIMSCALE
40
1
9
$DIMASZ
40
3.5000000000
9
$DIMEXO
40
2.2000000000
9
$DIMDLI
40
13.3760000000
9
$DIMEXE
40
6.3360000000
9
$DIMCEN
40
3.1680000000
9
$DIMLFAC
40
1.0000000000
9
$DIMBLK
1
_FILLED
9
$DIMTXT
40
3.5000000000
9
$DIMTOL
70
1
9
$DIMLIM
70
0
9
$DIMTFAC
40
1.0000000000
9
$DIMTP
40
0.0010000000
9
$DIMTM
40
0.0010000000
9
$PDMODE
70
3
9
$PDSIZE
40
0.3125000000
9
$HANDSEED
5
2BE
9
$MEASUREMENT
70
1
9
$INSUNITS
70
4
0
ENDSEC
0
SECTION
2
CLASSES
0
CLASS
1
ACDBDICTIONARYWDFLT
2
AcDbDictionaryWithDefault
3
AutoCAD 2000
90
0
280
0
281
0
0
CLASS
1
ACDBPLACEHOLDER
2
AcDbPlaceHolder
3
AutoCAD 2000
90
0
280
0
281
0
0
CLASS
1
LAYOUT
2
AcDbLayout
3
AutoCAD 2000
90
0
280
0
281
0
0
ENDSEC
0
SECTION
2
TABLES
0
TABLE
2
VPORT
5
8
100
AcDbSymbolTable
70
2
0
VPORT
5
1F4
100
AcDbSymbolTableRecord
100
AcDbViewportTableRecord
2
*ACTIVE
70
0
10
0.0
20
0.0
11
1.0
21
1.0
12
105.0000000000
22
148.5000000000
13
0.0
23
0.0
14
1.0
24
1.0
15
0.0
25
0.0
16
0.0
26
0.0
36
1.0
17
0.0
27
0.0
37
0.0
40
297.0000000000
41
0.7070707071
42
50.0
43
0.0
44
0.0
50
0.0
51
0.0
71
0
72
100
73
1
74
1
75
0
76
0
77
0
78
0
0
ENDTAB
0
TABLE
2
LTYPE
5
5
100
AcDbSymbolTable
70
6
0
LTYPE
5
14
100
AcDbSymbolTableRecord
100
AcDbLinetypeTableRecord
2
BYBLOCK
70
0
3

72
65
73
0
40
0.0
0
LTYPE
5
15
100
AcDbSymbolTableRecord
100
AcDbLinetypeTableRecord
2
BYLAYER
70
0
3

72
65
73
0
40
0.0
0
LTYPE
5
16
100
AcDbSymbolTableRecord
100
AcDbLinetypeTableRecord
2
CONTINUOUS
70
64
3
Solid line
72
65
73
0
40
0
0
LTYPE
5
1F5
100
AcDbSymbolTableRecord
100
AcDbLinetypeTableRecord
2
CENTER
70
64
3
____ _ ____ _ ____ _ ____ _ ____ _ ____ _ ____
72
65
73
4
40
0.6
49
0.375
74
0
49
-0.075
74
0
49
0.075
74
0
49
-0.075
74
0
0
LTYPE
5
1F6
100
AcDbSymbolTableRecord
100
AcDbLinetypeTableRecord
2
HIDDEN
70
64
3
- - - - - - - - - - - - - - - - - - - -
72
65
73
2
40
0.2
49
0.1
74
0
49
-0.1
74
0
0
LTYPE
5
1F7
100
AcDbSymbolTableRecord
100
AcDbLinetypeTableRecord
2
PHANTOM
70
64
3
_____ _ _ _____ _ _ _____ _ _ _____
72
65
73
6
40
0.8
49
0.45
74
0
49
-0.05
74
0
49
0.1
74
0
49
-0.05
74
0
49
0.1
74
0
49
-0.05
74
0
0
LTYPE
5
1F8
100
AcDbSymbolTableRecord
100
AcDbLinetypeTableRecord
2
DOT
70
64
3
. . . . . . . . . . . . . . . . . . . .
72
65
73
2
40
0.2
49
0.1
74
0
49
-0.1
74
0
0
LTYPE
5
1F9
100
AcDbSymbolTableRecord
100
AcDbLinetypeTableRecord
2
DASHED
70
64
3
- - - - - - - - - - - - - - - - - - - -
72
65
73
2
40
0.2
49
0.1
74
0
49
-0.1
74
0
0
ENDTAB
0
TABLE
2
LAYER
5
2
100
AcDbSymbolTable
70
36
0
LAYER
5
10
100
AcDbSymbolTableRecord
100
AcDbLayerTableRecord
2
0
70
0
62
7
6
CONTINUOUS
370
-3
390
F
0
LAYER
5
1FA
100
AcDbSymbolTableRecord
100
AcDbLayerTableRecord
2
DEFAULT_1
70
0
62
7
6
CENTER
370
-3
390
F
0
LAYER
5
1FB
100
AcDbSymbolTableRecord
100
AcDbLayerTableRecord
2
DEFAULT_2
70
0
62
8
6
HIDDEN
370
-3
390
F
0
LAYER
5
1FC
100
AcDbSymbolTableRecord
100
AcDbLayerTableRecord
2
DEFAULT_3
70
0
62
7
6
PHANTOM
370
-3
390
F
0
LAYER
5
1FD
100
AcDbSymbolTableRecord
100
AcDbLayerTableRecord
2
ASSI
70
0
62
7
6
CONTINUOUS
370
-3
390
F
0
LAYER
5
1FE
100
AcDbSymbolTableRecord
100
AcDbLayerTableRecord
2
CURVE
70
0
62
7
6
CONTINUOUS
370
-3
390
F
0
LAYER
5
1FF
100
AcDbSymbolTableRecord
100
AcDbLayerTableRecord
2
CURVE_COSTRUZIONE
70
0
62
7
6
CONTINUOUS
370
-3
390
F
0
LAYER
5
200
100
AcDbSymbolTableRecord
100
AcDbLayerTableRecord
2
PIANI
70
0
62
7
6
CONTINUOUS
370
-3
390
F
0
LAYER
5
201
100
AcDbSymbolTableRecord
100
AcDbLayerTableRecord
2
PUNTI
70
0
62
7
6
CONTINUOUS
370
-3
390
F
0
LAYER
5
202
100
AcDbSymbolTableRecord
100
AcDbLayerTableRecord
2
SURF_FILETTI
70
0
62
7
6
CONTINUOUS
370
-3
390
F
0
LAYER
5
203
100
AcDbSymbolTableRecord
100
AcDbLayerTableRecord
2
XSEC_DATUMS
70
0
62
7
6
CONTINUOUS
370
-3
390
F
0
ENDTAB
0
TABLE
2
STYLE
5
3
100
AcDbSymbolTable
70
1
0
STYLE
5
11
100
AcDbSymbolTableRecord
100
AcDbTextStyleTableRecord
2
STANDARD
70
0
40
0.0
41
0.7143000000
50
0.0
71
0
42
0.2
3
txt
4

0
ENDTAB
0
TABLE
2
VIEW
5
6
100
AcDbSymbolTable
70
0
0
ENDTAB
0
TABLE
2
UCS
5
7
100
AcDbSymbolTable
70
0
0
ENDTAB
0
TABLE
2
APPID
5
9
100
AcDbSymbolTable
70
1
0
APPID
5
204
100
AcDbSymbolTableRecord
100
AcDbRegAppTableRecord
2
ACAD
70
0
0
ENDTAB
0
TABLE
2
BLOCK_RECORD
5
1
100
AcDbSymbolTable
70
0
0
BLOCK_RECORD
5
1F
100
AcDbSymbolTableRecord
100
AcDbBlockTableRecord
2
*MODEL_SPACE
0
BLOCK_RECORD
5
1B
100
AcDbSymbolTableRecord
100
AcDbBlockTableRecord
2
*PAPER_SPACE
0
BLOCK_RECORD
5
205
100
AcDbSymbolTableRecord
100
AcDbBlockTableRecord
2
_FILLED
0
BLOCK_RECORD
5
206
100
AcDbSymbolTableRecord
100
AcDbBlockTableRecord
2
*D0
0
BLOCK_RECORD
5
207
100
AcDbSymbolTableRecord
100
AcDbBlockTableRecord
2
*D1
0
BLOCK_RECORD
5
208
100
AcDbSymbolTableRecord
100
AcDbBlockTableRecord
2
*D2
0
ENDTAB
0
TABLE
2
DIMSTYLE
5
A
100
AcDbSymbolTable
70
1
100
AcDbDimStyleTable
71
0
0
DIMSTYLE
105
209
100
AcDbSymbolTableRecord
100
AcDbDimStyleTableRecord
2
STANDARD
70
0
3

4

40
1.0
41
3.5000000000
42
0.0625
43
0.38
44
0.18
45
0.0
46
0.0
47
0.0010000000
48
0.0010000000
140
3.5000000000
141
0.09
142
0.0
143
25.4
144
1.0000000000
145
0.0
146
1.0000000000
147
0.09
71
1
72
0
73
0
74
0
75
0
76
0
77
1
78
8
170
0
171
2
172
0
173
0
174
0
175
0
176
0
177
0
178
0
270
2
271
3
272
3
273
2
274
2
275
0
280
0
281
0
282
0
283
1
284
8
285
0
286
0
287
3
288
0
340
11
341
205
342
205
343
205
344
205
0
DIMSTYLE
105
20A
100
AcDbSymbolTableRecord
100
AcDbDimStyleTableRecord
2
DIMSTYLE_1
70
0
3

4

40
1.0
41
3.5000000000
42
0.0625
43
0.38
44
0.18
45
0.0
46
0.0
47
0.1500000000
48
0.1500000000
140
3.5000000000
141
0.09
142
0.0
143
25.4
144
1.0000000000
145
0.0
146
1.0000000000
147
0.09
71
0
72
0
73
0
74
0
75
0
76
0
77
1
78
8
170
0
171
2
172
0
173
0
174
0
175
0
176
0
177
0
178
0
270
2
271
3
272
3
273
2
274
2
275
0
280
0
281
0
282
0
283
1
284
8
285
0
286
0
287
3
288
0
340
11
341
205
342
205
343
205
344
205
0
DIMSTYLE
105
20B
100
AcDbSymbolTableRecord
100
AcDbDimStyleTableRecord
2
DIMSTYLE_2
70
0
3

4

40
1.0
41
3.5000000000
42
0.0625
43
0.38
44
0.18
45
0.0
46
0.0
47
0.2000000000
48
0.2000000000
140
3.5000000000
141
0.09
142
0.0
143
25.4
144
1.0000000000
145
0.0
146
1.0000000000
147
0.09
71
0
72
0
73
0
74
0
75
0
76
0
77
1
78
8
170
0
171
2
172
0
173
0
174
0
175
0
176
0
177
0
178
0
270
2
271
0
272
0
273
2
274
2
275
0
280
0
281
0
282
0
283
1
284
8
285
0
286
0
287
3
288
0
340
11
341
205
342
205
343
205
344
205
0
DIMSTYLE
105
20C
100
AcDbSymbolTableRecord
100
AcDbDimStyleTableRecord
2
DIMSTYLE_3
70
0
3

4

40
1.0
41
3.5000000000
42
0.0625
43
0.38
44
0.18
45
0.0
46
0.0
47
0.2000000000
48
0.2000000000
140
3.5000000000
141
0.09
142
0.0
143
25.4
144
1.0000000000
145
0.0
146
1.0000000000
147
0.09
71
0
72
0
73
0
74
0
75
0
76
0
77
1
78
8
170
0
171
2
172
0
173
0
174
0
175
0
176
0
177
0
178
0
270
2
271
1
272
1
273
2
274
2
275
0
280
0
281
0
282
0
283
1
284
8
285
0
286
0
287
3
288
0
340
11
341
205
342
205
343
205
344
205
0
ENDTAB
0
ENDSEC
0
SECTION
2
BLOCKS
0
BLOCK
5
20
100
AcDbEntity
8
0
100
AcDbBlockBegin
2
*MODEL_SPACE
70
0
10
0.0
20
0.0
30
0.0
3
*MODEL_SPACE
1

0
ENDBLK
5
21
100
AcDbEntity
8
0
100
AcDbBlockEnd
0
BLOCK
5
1C
100
AcDbEntity
8
0
100
AcDbBlockBegin
2
*PAPER_SPACE
70
0
10
0.0
20
0.0
30
0.0
3
*PAPER_SPACE
1

0
ENDBLK
5
1D
100
AcDbEntity
8
0
100
AcDbBlockEnd
0
BLOCK
5
20D
100
AcDbEntity
8
0
100
AcDbBlockBegin
62
2
6
CONTINUOUS
2
*D0
70
65
10
0.0000000000
20
0.0000000000
3
*D0
1

0
TEXT
5
20E
100
AcDbEntity
8
0
100
AcDbText
62
2
6
CONTINUOUS
10
93.7985949280
20
52.3874972787
7
STANDARD
40
3.5000000000
1
%%c
41
1.3333333333
72
0
100
AcDbText
0
TEXT
5
20F
100
AcDbEntity
8
0
100
AcDbText
62
2
6
CONTINUOUS
10
98.4652615947
20
52.3874972787
7
STANDARD
40
3.5000000000
1
76.1
41
0.7143000000
72
0
100
AcDbText
0
LINE
5
210
100
AcDbEntity
8
0
100
AcDbLine
62
2
6
CONTINUOUS
10
63.7776411002
20
73.3172009969
11
63.7776411002
21
50.0124972787
0
LINE
5
211
100
AcDbEntity
8
0
100
AcDbLine
62
2
6
CONTINUOUS
10
139.8776411002
20
73.3172009969
11
139.8776411002
21
50.0124972787
0
LINE
5
212
100
AcDbEntity
8
0
100
AcDbLine
62
2
6
CONTINUOUS
10
63.7776411002
20
51.5124972787
11
101.8276411002
21
51.5124972787
0
LINE
5
213
100
AcDbEntity
8
0
100
AcDbLine
62
2
6
CONTINUOUS
10
139.8776411002
20
51.5124972787
11
101.8276411002
21
51.5124972787
0
INSERT
5
214
100
AcDbEntity
8
0
100
AcDbBlockReference
62
2
6
CONTINUOUS
2
_FILLED
10
63.7776411002
20
51.5124972787
41
  3.500000
42
  3.500000
43
  3.500000
50
180.000000
0
INSERT
5
215
100
AcDbEntity
8
0
100
AcDbBlockReference
62
2
6
CONTINUOUS
2
_FILLED
10
139.8776411002
20
51.5124972787
41
  3.500000
42
  3.500000
43
  3.500000
0
ENDBLK
5
216
100
AcDbEntity
8
0
6
BYBLOCK
62
0
100
AcDbBlockEnd
0
BLOCK
5
217
100
AcDbEntity
8
0
100
AcDbBlockBegin
62
2
6
CONTINUOUS
2
*D1
70
65
10
0.0000000000
20
0.0000000000
3
*D1
1

0
TEXT
5
218
100
AcDbEntity
8
0
100
AcDbText
62
2
6
CONTINUOUS
10
41.3442141714
20
158.9225309275
7
STANDARD
40
3.5000000000
1
185
50
90.0000000000
41
0.7143000000
72
0
100
AcDbText
0
LINE
5
219
100
AcDbEntity
8
0
100
AcDbLine
62
2
6
CONTINUOUS
10
92.7276411002
20
251.5420721275
11
40.7192141714
21
251.5420721275
0
LINE
5
21A
100
AcDbEntity
8
0
100
AcDbLine
62
2
6
CONTINUOUS
10
65.1591829082
20
66.5172009969
11
40.7192141714
21
66.5172009969
0
LINE
5
21B
100
AcDbEntity
8
0
100
AcDbLine
62
2
6
CONTINUOUS
10
42.2192141714
20
251.5420721275
11
42.2192141714
21
159.0296365622
0
LINE
5
21C
100
AcDbEntity
8
0
100
AcDbLine
62
2
6
CONTINUOUS
10
42.2192141714
20
66.5172009969
11
42.2192141714
21
159.0296365622
0
INSERT
5
21D
100
AcDbEntity
8
0
100
AcDbBlockReference
62
2
6
CONTINUOUS
2
_FILLED
10
42.2192141714
20
251.5420721275
41
  3.500000
42
  3.500000
43
  3.500000
50
 90.000000
0
INSERT
5
21E
100
AcDbEntity
8
0
100
AcDbBlockReference
62
2
6
CONTINUOUS
2
_FILLED
10
42.2192141714
20
66.5172009969
41
  3.500000
42
  3.500000
43
  3.500000
50
270.000000
0
ENDBLK
5
21F
100
AcDbEntity
8
0
6
BYBLOCK
62
0
100
AcDbBlockEnd
0
BLOCK
5
220
100
AcDbEntity
8
0
100
AcDbBlockBegin
62
2
6
CONTINUOUS
2
*D2
70
65
10
0.0000000000
20
0.0000000000
3
*D2
1

0
TEXT
5
221
100
AcDbEntity
8
0
100
AcDbText
62
2
6
CONTINUOUS
10
58.2547923444
20
170.2003075586
7
STANDARD
40
3.5000000000
1
147.5
50
90.0000000000
41
0.7143000000
72
0
100
AcDbText
0
LINE
5
222
100
AcDbEntity
8
0
100
AcDbLine
62
2
6
CONTINUOUS
10
92.7276411002
20
251.5420721275
11
57.6297923444
21
251.5420721275
0
LINE
5
223
100
AcDbEntity
8
0
100
AcDbLine
62
2
6
CONTINUOUS
10
95.3276411002
20
104.0172009969
11
57.6297923444
21
104.0172009969
0
LINE
5
224
100
AcDbEntity
8
0
100
AcDbLine
62
2
6
CONTINUOUS
10
59.1297923444
20
251.5420721275
11
59.1297923444
21
177.7796365622
0
LINE
5
225
100
AcDbEntity
8
0
100
AcDbLine
62
2
6
CONTINUOUS
10
59.1297923444
20
104.0172009969
11
59.1297923444
21
177.7796365622
0
INSERT
5
226
100
AcDbEntity
8
0
100
AcDbBlockReference
62
2
6
CONTINUOUS
2
_FILLED
10
59.1297923444
20
251.5420721275
41
  3.500000
42
  3.500000
43
  3.500000
50
 90.000000
0
INSERT
5
227
100
AcDbEntity
8
0
100
AcDbBlockReference
62
2
6
CONTINUOUS
2
_FILLED
10
59.1297923444
20
104.0172009969
41
  3.500000
42
  3.500000
43
  3.500000
50
270.000000
0
ENDBLK
5
228
100
AcDbEntity
8
0
6
BYBLOCK
62
0
100
AcDbBlockEnd
0
BLOCK
5
229
100
AcDbEntity
8
0
100
AcDbBlockBegin
2
_FILLED
70
64
10
0.0000000000
20
0.0000000000
3
_FILLED
1

0
SOLID
5
22A
100
AcDbEntity
8
0
6
BYBLOCK
62
0
100
AcDbTrace
10
0.0000000000
20
0.0000000000
11
-1.0000000000
21
0.1857142857
12
-1.0000000000
22
-0.1857142857
13
-1.0000000000
23
-0.1857142857
0
ENDBLK
5
22B
100
AcDbEntity
8
0
6
BYBLOCK
62
0
100
AcDbBlockEnd
0
ENDSEC
0
SECTION
2
ENTITIES
0
DIMENSION
5
22C
100
AcDbEntity
8
0
100
AcDbDimension
62
2
6
CONTINUOUS
2
*D0
10
139.8776411002
20
51.5124972787
11
101.1320282614
21
54.1374972787
70
160
42
76.100000
1
%%c<>
3
DIMSTYLE_1
100
AcDbAlignedDimension
13
63.7776411002
23
73.3172009969
14
139.8776411002
24
73.3172009969
100
AcDbRotatedDimension
0
DIMENSION
5
22D
100
AcDbEntity
8
0
100
AcDbDimension
62
2
6
CONTINUOUS
2
*D1
10
42.2192141714
20
66.5172009969
11
39.5942141714
21
162.6726059275
70
160
42
185.000000
3
DIMSTYLE_2
100
AcDbAlignedDimension
13
92.7276411002
23
251.5420721275
14
65.1591829082
24
66.5172009969
50
270.000000
100
AcDbRotatedDimension
0
DIMENSION
5
22E
100
AcDbEntity
8
0
100
AcDbDimension
62
2
6
CONTINUOUS
2
*D2
10
59.1297923444
20
104.0172009969
11
56.5047923444
21
176.4504325586
70
160
42
147.524871
3
DIMSTYLE_3
100
AcDbAlignedDimension
13
92.7276411002
23
251.5420721275
14
95.3276411002
24
104.0172009969
50
270.000000
100
AcDbRotatedDimension
0
TEXT
5
22F
100
AcDbEntity
8
0
100
AcDbText
62
2
6
CONTINUOUS
10
129.6767556022
20
110.4207464994
7
STANDARD
40
3.5000000000
1
Ch 16
41
0.7143000000
72
0
100
AcDbText
0
LINE
5
230
100
AcDbEntity
8
0
100
AcDbLine
62
2
6
CONTINUOUS
10
107.8276411002
20
101.5074196893
11
128.1767556022
21
112.1707464994
0
LINE
5
231
100
AcDbEntity
8
0
100
AcDbLine
62
2
6
CONTINUOUS
10
128.1767556022
20
112.1707464994
11
129.6767556022
21
112.1707464994
0
SOLID
5
232
100
AcDbEntity
8
0
100
AcDbTrace
62
2
6
CONTINUOUS
10
110.6260849705
20
103.7076951049
11
107.8276411002
21
101.5074196893
12
111.2294835162
22
102.5562133661
13
111.2294835162
23
102.5562133661
0
LINE
5
233
100
AcDbEntity
8
0
100
AcDbLine
62
7
6
CONTINUOUS
10
0.0000000000
20
0.0000000000
11
210.0000000000
21
0.0000000000
0
LINE
5
234
100
AcDbEntity
8
0
100
AcDbLine
62
7
6
CONTINUOUS
10
0.0000000000
20
0.0000000000
11
0.0000000000
21
297.0000000000
0
LINE
5
235
100
AcDbEntity
8
0
100
AcDbLine
62
7
6
CONTINUOUS
10
210.0000000000
20
0.0000000000
11
210.0000000000
21
297.0000000000
0
LINE
5
236
100
AcDbEntity
8
0
100
AcDbLine
62
7
6
CONTINUOUS
10
0.0000000000
20
297.0000000000
11
210.0000000000
21
297.0000000000
0
LINE
5
237
100
AcDbEntity
8
0
100
AcDbLine
62
7
6
CONTINUOUS
10
137.9960997447
20
66.5172009969
11
65.6591824557
21
66.5172009969
0
LINE
5
238
100
AcDbEntity
8
0
100
AcDbLine
62
9
6
CONTINUOUS
10
64.6605529209
20
67.4648650407
11
138.9947292795
21
67.4648650407
0
LINE
5
239
100
AcDbEntity
8
0
100
AcDbLine
62
7
6
CONTINUOUS
10
139.8776411002
20
73.8172009969
11
63.7776411002
21
73.8172009969
0
LINE
5
23A
100
AcDbEntity
8
0
100
AcDbLine
62
9
6
CONTINUOUS
10
64.6300667204
20
76.1592211402
11
139.0252154800
21
76.1592211402
0
LINE
5
23B
100
AcDbEntity
8
0
100
AcDbLine
62
7
6
CONTINUOUS
10
65.5697593412
20
76.8172009969
11
138.0855228592
21
76.8172009969
0
LINE
5
23C
100
AcDbEntity
8
0
100
AcDbLine
62
9
6
CONTINUOUS
10
92.2420800993
20
80.6215642647
11
91.9274932053
21
80.6215642647
0
LINE
5
23D
100
AcDbEntity
8
0
100
AcDbLine
62
9
6
CONTINUOUS
10
85.8573096549
20
80.8968336056
11
84.7026580691
21
80.8968336056
0
LINE
5
23E
100
AcDbEntity
8
0
100
AcDbLine
62
7
6
CONTINUOUS
10
85.8512957407
20
81.1172009969
11
92.2464054556
21
81.1172009969
0
LINE
5
23F
100
AcDbEntity
8
0
100
AcDbLine
62
7
6
CONTINUOUS
10
96.1015394502
20
81.1172009969
11
107.3253882390
21
81.1172009969
0
LINE
5
240
100
AcDbEntity
8
0
100
AcDbLine
62
7
6
CONTINUOUS
10
111.4088767448
20
81.1172009969
11
117.4071880217
21
81.1172009969
0
LINE
5
241
100
AcDbEntity
8
0
100
AcDbLine
62
7
6
CONTINUOUS
10
82.5947055576
20
81.3172009969
11
86.2463488052
21
81.3172009969
0
LINE
5
242
100
AcDbEntity
8
0
100
AcDbLine
62
7
6
CONTINUOUS
10
92.2481508291
20
81.3172009969
11
96.0997940767
21
81.3172009969
0
LINE
5
243
100
AcDbEntity
8
0
100
AcDbLine
62
7
6
CONTINUOUS
10
107.5554881237
20
81.3172009969
11
111.4071313713
21
81.3172009969
0
LINE
5
244
100
AcDbEntity
8
0
100
AcDbLine
62
7
6
CONTINUOUS
10
117.4089333952
20
81.3172009969
11
121.0605766428
21
81.3172009969
0
LINE
5
245
100
AcDbEntity
8
0
100
AcDbLine
62
7
6
CONTINUOUS
10
113.9276411002
20
86.1172009969
11
89.7276411002
21
86.1172009969
0
LINE
5
246
100
AcDbEntity
8
0
100
AcDbLine
62
7
6
CONTINUOUS
10
112.3276411002
20
86.6172009969
11
91.3276411002
21
86.6172009969
0
LINE
5
247
100
AcDbEntity
8
0
100
AcDbLine
62
9
6
CONTINUOUS
10
108.1825793724
20
87.7833910665
11
95.4727028281
21
87.7833910666
0
LINE
5
248
100
AcDbEntity
8
0
100
AcDbLine
62
9
6
CONTINUOUS
10
108.0776411002
20
88.2293333312
11
95.5776411002
21
88.2293333312
0
LINE
5
249
100
AcDbEntity
8
0
100
AcDbLine
62
9
6
CONTINUOUS
10
108.0776411002
20
93.2492518045
11
95.5776411002
21
93.2492518045
0
LINE
5
24A
100
AcDbEntity
8
0
100
AcDbLine
62
9
6
CONTINUOUS
10
108.2116156964
20
93.7492518045
11
95.4436665040
21
93.7492518045
0
LINE
5
24B
100
AcDbEntity
8
0
100
AcDbLine
62
7
6
CONTINUOUS
10
93.2276411002
20
97.5875203947
11
98.6716943859
21
97.5875203947
0
LINE
5
24C
100
AcDbEntity
8
0
100
AcDbLine
62
7
6
CONTINUOUS
10
104.9835878678
20
97.5875203947
11
110.4276411002
21
97.5875203947
0
LINE
5
24D
100
AcDbEntity
8
0
100
AcDbLine
62
7
6
CONTINUOUS
10
91.8276411002
20
249.1172009969
11
93.2710167732
21
251.6172009969
0
LINE
5
24E
100
AcDbEntity
8
0
100
AcDbLine
62
7
6
CONTINUOUS
10
111.8276411002
20
100.0123915253
11
107.8276411002
21
100.0123915253
0
LINE
5
24F
100
AcDbEntity
8
0
100
AcDbLine
62
7
6
CONTINUOUS
10
95.8276411002
20
100.0123915253
11
91.8276411002
21
100.0123915253
0
LINE
5
250
100
AcDbEntity
8
0
100
AcDbLine
62
7
6
CONTINUOUS
10
107.8276411002
20
104.0172009969
11
95.8276411002
21
104.0172009969
0
LINE
5
251
100
AcDbEntity
8
0
100
AcDbLine
62
7
6
CONTINUOUS
10
64.3276411002
20
73.8172009969
11
64.6605529209
21
67.4648650407
0
LINE
5
252
100
AcDbEntity
8
0
100
AcDbLine
62
7
6
CONTINUOUS
10
91.8276411002
20
100.0123915253
11
95.4436665040
21
93.7492518045
0
LINE
5
253
100
AcDbEntity
8
0
100
AcDbLine
62
7
6
CONTINUOUS
10
74.0541162900
20
76.8172009969
11
74.0546089415
21
77.2511794613
0
LINE
5
254
100
AcDbEntity
8
0
100
AcDbLine
62
7
6
CONTINUOUS
10
73.1275160354
20
77.2511794613
11
73.1241247308
21
76.8172009969
0
LINE
5
255
100
AcDbEntity
8
0
100
AcDbLine
62
9
6
CONTINUOUS
10
76.7278328102
20
78.1180078464
11
76.7288706217
21
76.8172009969
0
LINE
5
256
100
AcDbEntity
8
0
100
AcDbLine
62
7
6
CONTINUOUS
10
86.2480941787
20
81.1172009969
11
86.2463488052
21
81.3172009969
0
LINE
5
257
100
AcDbEntity
8
0
100
AcDbLine
62
9
6
CONTINUOUS
10
88.6879758697
20
81.1172009969
11
88.7129360359
21
76.8172009969
0
LINE
5
258
100
AcDbEntity
8
0
100
AcDbLine
62
7
6
CONTINUOUS
10
82.5844987724
20
80.1476192521
11
82.5947055576
21
81.3172009969
0
LINE
5
259
100
AcDbEntity
8
0
100
AcDbLine
62
7
6
CONTINUOUS
10
96.1390649817
20
76.8172009969
11
96.0997940767
21
81.3172009969
0
LINE
5
25A
100
AcDbEntity
8
0
100
AcDbLine
62
7
6
CONTINUOUS
10
91.2534620080
20
76.8172009969
11
91.2507674180
21
77.2511794613
0
LINE
5
25B
100
AcDbEntity
8
0
100
AcDbLine
62
7
6
CONTINUOUS
10
89.7276411002
20
86.1172009969
11
89.7276411002
21
81.1172009969
0
LINE
5
25C
100
AcDbEntity
8
0
100
AcDbLine
62
7
6
CONTINUOUS
10
91.8276411002
20
249.1172009969
11
91.8276411002
21
100.0123915253
0
LINE
5
25D
100
AcDbEntity
8
0
100
AcDbLine
62
2
6
CONTINUOUS
10
93.2276411002
20
97.5875203947
11
93.2276411002
21
251.5420721275
0
LINE
5
25E
100
AcDbEntity
8
0
100
AcDbLine
62
7
6
CONTINUOUS
10
95.5776411002
20
93.2492518045
11
95.5776411002
21
88.2293333312
0
LINE
5
25F
100
AcDbEntity
8
0
100
AcDbLine
62
7
6
CONTINUOUS
10
95.8276411002
20
104.0172009969
11
95.8276411002
21
100.0123915253
0
LINE
5
260
100
AcDbEntity
8
0
100
AcDbLine
62
7
6
CONTINUOUS
10
91.9274932052
20
80.6215642647
11
91.9182835401
21
79.5662411724
0
LINE
5
261
100
AcDbEntity
8
0
100
AcDbLine
62
7
6
CONTINUOUS
10
92.2350722483
20
79.8185440701
11
92.2481508291
21
81.3172009969
0
LINE
5
262
100
AcDbEntity
8
0
100
AcDbLine
62
7
6
CONTINUOUS
10
89.0125671504
20
77.2511794613
11
89.0082637730
21
76.8172009968
0
LINE
5
263
100
AcDbEntity
8
0
100
AcDbLine
62
7
6
CONTINUOUS
10
64.6300667204
20
76.1592211402
11
63.7776411002
21
73.8172009969
0
LINE
5
264
100
AcDbEntity
8
0
100
AcDbLine
62
2
6
CONTINUOUS
10
98.6716943326
20
97.5875203947
11
98.6716943326
21
104.0172009969
0
LINE
5
265
100
AcDbEntity
8
0
100
AcDbLine
62
2
6
CONTINUOUS
10
104.9835878678
20
97.5875203947
11
104.9835878678
21
104.0172009969
0
LINE
5
266
100
AcDbEntity
8
0
100
AcDbLine
62
7
6
CONTINUOUS
10
107.8276411002
20
100.0123915253
11
107.8276411002
21
104.0172009969
0
LINE
5
267
100
AcDbEntity
8
0
100
AcDbLine
62
7
6
CONTINUOUS
10
108.0776411002
20
93.2492518045
11
108.0776411002
21
88.2293333312
0
LINE
5
268
100
AcDbEntity
8
0
100
AcDbLine
62
7
6
CONTINUOUS
10
107.5162172187
20
76.8172009969
11
107.5554881237
21
81.3172009969
0
LINE
5
269
100
AcDbEntity
8
0
100
AcDbLine
62
7
6
CONTINUOUS
10
139.0252154800
20
76.1592211402
11
139.8776411002
21
73.8172009969
0
LINE
5
26A
100
AcDbEntity
8
0
100
AcDbLine
62
7
6
CONTINUOUS
10
114.6470184274
20
76.8172009969
11
114.6427150500
21
77.2511794613
0
LINE
5
26B
100
AcDbEntity
8
0
100
AcDbLine
62
7
6
CONTINUOUS
10
111.4202099529
20
79.8185439849
11
111.4071313713
21
81.3172009969
0
LINE
5
26C
100
AcDbEntity
8
0
100
AcDbLine
62
2
6
CONTINUOUS
10
110.4276411002
20
97.5875203947
11
110.4276411002
21
251.5420721275
0
LINE
5
26D
100
AcDbEntity
8
0
100
AcDbLine
62
7
6
CONTINUOUS
10
111.8276411002
20
249.1172009969
11
111.8276411002
21
100.0123915253
0
LINE
5
26E
100
AcDbEntity
8
0
100
AcDbLine
62
7
6
CONTINUOUS
10
113.9276411002
20
86.1172009969
11
113.9276411002
21
81.1172009969
0
LINE
5
26F
100
AcDbEntity
8
0
100
AcDbLine
62
9
6
CONTINUOUS
10
114.9423461645
20
76.8172009969
11
114.9673063307
21
81.1172009969
0
LINE
5
270
100
AcDbEntity
8
0
100
AcDbLine
62
7
6
CONTINUOUS
10
112.4045147824
20
77.2511794613
11
112.4018201924
21
76.8172009969
0
LINE
5
271
100
AcDbEntity
8
0
100
AcDbLine
62
7
6
CONTINUOUS
10
121.0720197211
20
80.0059540940
11
121.0605766428
21
81.3172009969
0
LINE
5
272
100
AcDbEntity
8
0
100
AcDbLine
62
7
6
CONTINUOUS
10
117.3696624902
20
76.8172009969
11
117.4089333952
21
81.3172009969
0
LINE
5
273
100
AcDbEntity
8
0
100
AcDbLine
62
9
6
CONTINUOUS
10
126.9264115787
20
76.8172009969
11
126.9274493902
21
78.1180078464
0
LINE
5
274
100
AcDbEntity
8
0
100
AcDbLine
62
7
6
CONTINUOUS
10
130.5311574696
20
76.8172009969
11
130.5277661650
21
77.2511794613
0
LINE
5
275
100
AcDbEntity
8
0
100
AcDbLine
62
7
6
CONTINUOUS
10
129.6006732589
20
77.2511794613
11
129.6011659104
21
76.8172009969
0
LINE
5
276
100
AcDbEntity
8
0
100
AcDbLine
62
7
6
CONTINUOUS
10
111.8276411002
20
100.0123915253
11
108.2116156964
21
93.7492518045
0
LINE
5
277
100
AcDbEntity
8
0
100
AcDbLine
62
7
6
CONTINUOUS
10
139.3276411002
20
73.8172009969
11
138.9947292795
21
67.4648650407
0
LINE
5
278
100
AcDbEntity
8
0
100
AcDbLine
62
7
6
CONTINUOUS
10
111.8276411002
20
249.1172009969
11
110.3842654272
21
251.6172009969
0
LINE
5
279
100
AcDbEntity
8
0
100
AcDbLine
62
7
6
CONTINUOUS
10
111.8276411002
20
249.1172009969
11
91.8276411002
21
249.1172009969
0
LINE
5
27A
100
AcDbEntity
8
0
100
AcDbLine
62
7
6
CONTINUOUS
10
110.4276411002
20
251.5420721275
11
93.2276411002
21
251.5420721275
0
LINE
5
27B
100
AcDbEntity
8
0
100
AcDbLine
62
7
6
CONTINUOUS
10
93.2710167732
20
251.6172009969
11
110.3842654272
21
251.6172009969
0
ARC
5
27C
100
AcDbEntity
8
0
100
AcDbCircle
62
7
6
CONTINUOUS
10
92.4274741667
20
80.6172009969
40
0.5000000000
100
AcDbArc
50
111.2795570166
51
179.5000000000
0
ARC
5
27D
100
AcDbEntity
8
0
100
AcDbCircle
62
7
6
CONTINUOUS
10
138.0855228592
20
75.8172009969
40
1.0000000000
100
AcDbArc
50
20.0000000005
51
90.0000000000
0
ARC
5
27E
100
AcDbEntity
8
0
100
AcDbCircle
62
7
6
CONTINUOUS
10
65.5697593412
20
75.8172009969
40
1.0000000000
100
AcDbArc
50
90.0000000000
51
159.9999999996
0
ARC
5
27F
100
AcDbEntity
8
0
100
AcDbCircle
62
7
6
CONTINUOUS
10
137.9960997447
20
67.5172009969
40
1.0000000000
100
AcDbArc
50
270.0000000000
51
357.0000000000
0
ARC
5
280
100
AcDbEntity
8
0
100
AcDbCircle
62
7
6
CONTINUOUS
10
65.6591824557
20
67.5172009969
40
1.0000000000
100
AcDbArc
50
183.0000000000
51
270.0000000000
0
ARC
5
281
100
AcDbEntity
8
0
100
AcDbCircle
62
7
6
CONTINUOUS
10
112.3276411002
20
83.8072009969
40
2.8100000000
100
AcDbArc
50
55.2919507275
51
90.0000000000
0
ARC
5
282
100
AcDbEntity
8
0
100
AcDbCircle
62
7
6
CONTINUOUS
10
91.3276411002
20
83.8072009969
40
2.8100000000
100
AcDbArc
50
90.0000000000
51
124.7080492725
0
ARC
5
283
100
AcDbEntity
8
0
100
AcDbCircle
62
7
6
CONTINUOUS
10
109.0776411002
20
88.2293333312
40
1.0000000000
100
AcDbArc
50
180.0000000000
51
206.4836403488
0
ARC
5
284
100
AcDbEntity
8
0
100
AcDbCircle
62
7
6
CONTINUOUS
10
94.5776411002
20
88.2293333312
40
1.0000000000
100
AcDbArc
50
333.5163596393
51
360.0000000000
0
ARC
5
285
100
AcDbEntity
8
0
100
AcDbCircle
62
7
6
CONTINUOUS
10
109.0776411002
20
93.2492518045
40
1.0000000000
100
AcDbArc
50
150.0000000000
51
180.0000000000
0
ARC
5
286
100
AcDbEntity
8
0
100
AcDbCircle
62
7
6
CONTINUOUS
10
94.5776411002
20
93.2492518045
40
1.0000000000
100
AcDbArc
50
0.0000000000
51
30.0000000001
0
ARC
5
287
100
AcDbEntity
8
0
100
AcDbCircle
62
7
6
CONTINUOUS
10
101.8276411002
20
84.6172009969
40
7.1000000000
100
AcDbArc
50
153.5163597171
51
163.6120174508
0
ARC
5
288
100
AcDbEntity
8
0
100
AcDbCircle
62
7
6
CONTINUOUS
10
101.8276411002
20
84.6172009969
40
7.1000000000
100
AcDbArc
50
16.3879825492
51
26.4836402829
0
SPLINE
5
289
100
AcDbEntity
8
0
100
AcDbSpline
62
2
6
CONTINUOUS
70
0
71
3
72
9
73
5
74
3
42
0.0000001000
43
0.0000001000
44
0.0000000001
12
6.0120042596
22
1.3692991371
32
2.3716956762
13
6.0120042596
23
-1.3692991371
33
-2.3716956762
40
0.0000000000
40
0.0000000000
40
0.0000000000
40
0.0000000000
40
0.5000000000
40
1.0000000000
40
1.0000000000
40
1.0000000000
40
1.0000000000
10
98.6716943326
20
104.0172009969
30
8.0000000000
10
99.6736950425
20
104.2454175198
30
8.3952826127
10
101.8276411002
20
104.4818047971
30
8.8047173873
10
103.9815871579
20
104.2454175198
30
8.3952826127
10
104.9835878678
20
104.0172009969
30
8.0000000000
11
98.6716943326
21
104.0172009969
31
8.0000000000
11
101.8276411002
21
104.3636111584
31
8.6000000000
11
104.9835878678
21
104.0172009969
31
8.0000000000
0
SPLINE
5
28A
100
AcDbEntity
8
0
100
AcDbSpline
62
7
6
CONTINUOUS
70
0
71
3
72
8
73
4
74
2
42
0.0000001000
43
0.0000001000
44
0.0000000001
12
0.0006214057
22
-0.0431571750
32
0.0000000000
13
-0.0233212465
23
-0.0329211918
33
0.0000000000
40
0.0000000000
40
0.0000000000
40
0.0000000000
40
0.0000000000
40
1.0000000000
40
1.0000000000
40
1.0000000000
40
1.0000000000
10
74.0661788729
20
77.2917388239
30
0.0000000000
10
74.0663860082
20
77.2773530989
30
0.0000000000
10
74.0623826904
20
77.2621531919
30
0.0000000000
10
74.0546089415
20
77.2511794613
30
0.0000000000
11
74.0661788729
21
77.2917388239
31
0.0000000000
11
74.0546089415
21
77.2511794613
31
0.0000000000
0
SPLINE
5
28B
100
AcDbEntity
8
0
100
AcDbSpline
62
7
6
CONTINUOUS
70
0
71
3
72
10
73
6
74
4
42
0.0000001000
43
0.0000001000
44
0.0000000001
12
-3.4784767823
22
2.7720161571
32
0.0000000000
13
-3.4794047517
23
2.7708512905
33
0.0000000000
40
0.0000000000
40
0.0000000000
40
0.0000000000
40
0.0000000000
40
0.3431542373
40
0.6765784397
40
1.0000000000
40
1.0000000000
40
1.0000000000
40
1.0000000000
10
114.6427150500
20
77.2511794613
30
0.0000000000
10
114.2448303676
20
77.5682558247
30
0.0000000000
10
113.4603222202
20
78.1933919940
30
0.0000000000
10
112.3007163500
20
79.1172548020
30
0.0000000000
10
111.5389594411
20
79.7239963959
30
0.0000000000
10
111.1638546032
20
80.0227140785
30
0.0000000000
11
114.6427150500
21
77.2511794613
31
0.0000000000
11
113.4490255699
21
78.2023640867
31
0.0000000000
11
112.2890979777
21
79.1264717073
31
0.0000000000
11
111.1638546032
21
80.0227140785
31
0.0000000000
0
SPLINE
5
28C
100
AcDbEntity
8
0
100
AcDbSpline
62
7
6
CONTINUOUS
70
0
71
3
72
10
73
6
74
4
42
0.0000001000
43
0.0000001000
44
0.0000000001
12
-3.4794047518
22
-2.7708512905
32
0.0000000000
13
-3.4784767823
23
-2.7720161571
33
0.0000000000
40
0.0000000000
40
0.0000000000
40
0.0000000000
40
0.0000000000
40
0.3227834054
40
0.6562041314
40
1.0000000000
40
1.0000000000
40
1.0000000000
40
1.0000000000
10
92.4914275972
20
80.0227140785
30
0.0000000000
10
92.1170628924
20
79.7245858067
30
0.0000000000
10
91.3560499931
20
79.1184370296
30
0.0000000000
10
90.1964439395
20
78.1945744518
30
0.0000000000
10
89.4111957994
20
77.5688486955
30
0.0000000000
10
89.0125671504
20
77.2511794613
30
0.0000000000
11
92.4914275972
21
80.0227140785
31
0.0000000000
11
91.3684043581
21
79.1282402709
31
0.0000000000
11
90.2084886702
21
78.2041425233
31
0.0000000000
11
89.0125671504
21
77.2511794613
31
0.0000000000
0
SPLINE
5
28D
100
AcDbEntity
8
0
100
AcDbSpline
62
7
6
CONTINUOUS
70
0
71
3
72
10
73
6
74
4
42
0.0000001000
43
0.0000001000
44
0.0000000001
12
-2.9654710526
22
0.9841073145
32
0.0000000000
13
-2.9655207484
23
0.9839575506
33
0.0000000000
40
0.0000000000
40
0.0000000000
40
0.0000000000
40
0.0000000000
40
0.3363482233
40
0.6696885765
40
1.0000000000
40
1.0000000000
40
1.0000000000
40
1.0000000000
10
130.5277661650
20
77.2511794613
30
0.0000000000
10
130.1952891918
20
77.3615137102
30
0.0000000000
10
129.5333069199
20
77.5811907702
30
0.0000000000
10
128.5448089983
20
77.9092037275
30
0.0000000000
10
127.8887867641
20
78.1268785605
30
0.0000000000
10
127.5622716375
20
78.2352160336
30
0.0000000000
11
130.5277661650
21
77.2511794613
31
0.0000000000
11
129.5303327809
21
77.5821747818
31
0.0000000000
11
128.5418139408
21
77.9101943421
31
0.0000000000
11
127.5622716375
21
78.2352160336
31
0.0000000000
0
SPLINE
5
28E
100
AcDbEntity
8
0
100
AcDbSpline
62
7
6
CONTINUOUS
70
0
71
3
72
10
73
6
74
4
42
0.0000001000
43
0.0000001000
44
0.0000000001
12
-2.9655207484
22
-0.9839575506
32
0.0000000000
13
-2.9654710526
23
-0.9841073145
33
0.0000000000
40
0.0000000000
40
0.0000000000
40
0.0000000000
40
0.0000000000
40
0.3302271909
40
0.6635675265
40
1.0000000000
40
1.0000000000
40
1.0000000000
40
1.0000000000
10
76.0930105629
20
78.2352160336
30
0.0000000000
10
75.7665787008
20
78.1269061876
30
0.0000000000
10
75.1106397478
20
77.9092589900
30
0.0000000000
10
74.1221418247
20
77.5812460369
30
0.0000000000
10
73.4600762892
20
77.3615413473
30
0.0000000000
10
73.1275160354
20
77.2511794613
30
0.0000000000
11
76.0930105629
21
78.2352160336
31
0.0000000000
11
75.1137180516
21
77.9102772280
31
0.0000000000
11
74.1251992624
21
77.5822576893
31
0.0000000000
11
73.1275160354
21
77.2511794613
31
0.0000000000
0
SPLINE
5
28F
100
AcDbEntity
8
0
100
AcDbSpline
62
7
6
CONTINUOUS
70
0
71
3
72
13
73
9
74
7
42
0.0000001000
43
0.0000001000
44
0.0000000001
12
-7.8446119002
22
-2.9566345518
32
0.0000000000
13
-8.1068567228
23
-2.1350638896
33
0.0000000000
40
0.0000000000
40
0.0000000000
40
0.0000000000
40
0.0000000000
40
0.1282809233
40
0.2746614441
40
0.4370875767
40
0.6137647543
40
0.8036337087
40
1.0000000000
40
1.0000000000
40
1.0000000000
40
1.0000000000
10
84.7026580691
20
80.8968336056
30
0.0000000000
10
84.3672200499
20
80.7704070021
30
0.0000000000
10
83.6460686173
20
80.5074913019
30
0.0000000000
10
82.4904654962
20
80.1117614339
30
0.0000000000
10
81.1989279861
20
79.6962651651
30
0.0000000000
10
79.7840771593
20
79.2680072396
30
0.0000000000
10
78.2714102624
20
78.8362485196
30
0.0000000000
10
77.2293935703
20
78.5548443572
30
0.0000000000
10
76.6987557741
20
78.4150928313
30
0.0000000000
11
84.7026580691
21
80.8968336056
31
0.0000000000
11
83.6924963406
21
80.5279238067
31
0.0000000000
11
82.5317473545
21
80.1297261926
31
0.0000000000
11
81.2357193636
21
79.7120589213
31
0.0000000000
11
79.8182970265
21
79.2823147180
31
0.0000000000
11
78.2878745090
21
78.8448186557
31
0.0000000000
11
76.6987557741
21
78.4150928313
31
0.0000000000
0
SPLINE
5
290
100
AcDbEntity
8
0
100
AcDbSpline
62
7
6
CONTINUOUS
70
0
71
3
72
8
73
4
74
2
42
0.0000001000
43
0.0000001000
44
0.0000000001
12
0.0436462243
22
-0.0145551837
32
0.0000000000
13
0.0436559577
23
-0.0145259634
33
0.0000000000
40
0.0000000000
40
0.0000000000
40
0.0000000000
40
0.0000000000
40
1.0000000000
40
1.0000000000
40
1.0000000000
40
1.0000000000
10
121.0706855078
20
80.1473264639
30
0.0000000000
10
121.0852342493
20
80.1424747360
30
0.0000000000
10
121.0997846202
20
80.1376278928
30
0.0000000000
10
121.1143366061
20
80.1327859050
30
0.0000000000
11
121.0706855078
21
80.1473264639
31
0.0000000000
11
121.1143366061
21
80.1327859050
31
0.0000000000
0
SPLINE
5
291
100
AcDbEntity
8
0
100
AcDbSpline
62
7
6
CONTINUOUS
70
0
71
3
72
15
73
11
74
9
42
0.0000001000
43
0.0000001000
44
0.0000000001
12
5.7789996565
22
-1.9228884642
32
0.0000000000
13
5.8896317075
23
-1.5511239944
33
0.0000000000
40
0.0000000000
40
0.0000000000
40
0.0000000000
40
0.0000000000
40
0.0247897597
40
0.1561230984
40
0.2905677203
40
0.4271426345
40
0.5655263048
40
0.7064807685
40
0.8510494777
40
1.0000000000
40
1.0000000000
40
1.0000000000
40
1.0000000000
10
121.1143366061
20
80.1327859050
30
0.0000000000
10
121.1620899437
20
80.1168965907
30
0.0000000000
10
121.4629445843
20
80.0171567813
30
0.0000000000
10
122.0241248311
20
79.8353097872
30
0.0000000000
10
122.8037744249
20
79.5916000569
30
0.0000000000
10
123.5994354495
20
79.3512743401
30
0.0000000000
10
124.4098907791
20
79.1143428255
30
0.0000000000
10
125.2378959393
20
78.8797162725
30
0.0000000000
10
126.0883863524
20
78.6458568010
30
0.0000000000
10
126.6641051867
20
78.4921064077
30
0.0000000000
10
126.9565264263
20
78.4150928313
30
0.0000000000
11
121.1143366061
21
80.1327859050
31
0.0000000000
11
121.2576482830
21
80.0852737845
31
0.0000000000
11
122.0185314450
21
79.8385628099
31
0.0000000000
11
122.8000293004
21
79.5941373541
31
0.0000000000
11
123.5962696755
21
79.3535130159
31
0.0000000000
11
124.4052003616
21
79.1169165304
31
0.0000000000
11
125.2311318824
21
78.8827762727
31
0.0000000000
11
126.0800877128
21
78.6492437068
31
0.0000000000
11
126.9565264263
21
78.4150928313
31
0.0000000000
0
SPLINE
5
292
100
AcDbEntity
8
0
100
AcDbSpline
62
7
6
CONTINUOUS
70
0
71
3
72
8
73
4
74
2
42
0.0000001000
43
0.0000001000
44
0.0000000001
12
-0.0233212617
22
0.0329212132
32
0.0000000000
13
0.0006212821
23
0.0431571604
33
0.0000000000
40
0.0000000000
40
0.0000000000
40
0.0000000000
40
0.0000000000
40
1.0000000000
40
1.0000000000
40
1.0000000000
40
1.0000000000
10
129.6006732589
20
77.2511794613
30
0.0000000000
10
129.5928995050
20
77.2621531990
30
0.0000000000
10
129.5888961102
20
77.2773531318
30
0.0000000000
10
129.5891032042
20
77.2917388519
30
0.0000000000
11
129.6006732589
21
77.2511794613
31
0.0000000000
11
129.5891032042
21
77.2917388519
31
0.0000000000
0
SPLINE
5
293
100
AcDbEntity
8
0
100
AcDbSpline
62
7
6
CONTINUOUS
70
0
71
3
72
10
73
6
74
4
42
0.0000001000
43
0.0000001000
44
0.0000000001
12
-0.5998210697
22
0.1990201791
32
0.0000000000
13
-0.6111372290
23
0.1609522746
33
0.0000000000
40
0.0000000000
40
0.0000000000
40
0.0000000000
40
0.0000000000
40
0.3320845584
40
0.6709226876
40
1.0000000000
40
1.0000000000
40
1.0000000000
40
1.0000000000
10
127.5622716356
20
78.2352160342
30
0.0000000000
10
127.4958745306
20
78.2572465436
30
0.0000000000
10
127.3612044157
20
78.3001828695
30
0.0000000000
10
127.1592349127
20
78.3601035140
30
0.0000000000
10
127.0235635586
20
78.3974375840
30
0.0000000000
10
126.9565264263
20
78.4150928313
30
0.0000000000
11
127.5622716356
21
78.2352160342
31
0.0000000000
11
127.3623552515
21
78.2990808091
31
0.0000000000
11
127.1570646362
21
78.3599966416
31
0.0000000000
11
126.9565264263
21
78.4150928313
31
0.0000000000
0
SPLINE
5
294
100
AcDbEntity
8
0
100
AcDbSpline
62
7
6
CONTINUOUS
70
0
71
3
72
10
73
6
74
4
42
0.0000001000
43
0.0000001000
44
0.0000000001
12
-0.6111372283
22
-0.1609522744
32
0.0000000000
13
-0.5998210690
23
-0.1990201789
33
0.0000000000
40
0.0000000000
40
0.0000000000
40
0.0000000000
40
0.0000000000
40
0.3291152138
40
0.6675724545
40
1.0000000000
40
1.0000000000
40
1.0000000000
40
1.0000000000
10
76.6987557741
20
78.4150928313
30
0.0000000000
10
76.6317109209
20
78.3974355506
30
0.0000000000
10
76.4961092708
20
78.3601204974
30
0.0000000000
10
76.2941392834
20
78.3002016410
30
0.0000000000
10
76.1594762465
20
78.2572692973
30
0.0000000000
10
76.0930105646
20
78.2352160341
30
0.0000000000
11
76.6987557741
21
78.4150928313
31
0.0000000000
11
76.4981945322
21
78.3599900604
31
0.0000000000
11
76.2931341264
21
78.2991445850
31
0.0000000000
11
76.0930105646
21
78.2352160341
31
0.0000000000
0
SPLINE
5
295
100
AcDbEntity
8
0
100
AcDbSpline
62
7
6
CONTINUOUS
70
0
71
3
72
10
73
6
74
4
42
0.0000001000
43
0.0000001000
44
0.0000000001
12
1.0997078163
22
0.4144799217
32
0.0000000000
13
1.1752237603
23
-0.0000000000
33
0.0000000000
40
0.0000000000
40
0.0000000000
40
0.0000000000
40
0.0000000000
40
0.3437230923
40
0.6757900291
40
1.0000000000
40
1.0000000000
40
1.0000000000
40
1.0000000000
10
84.7026580691
20
80.8968336056
30
0.0000000000
10
84.8286563929
20
80.9443223790
30
0.0000000000
10
85.0815874335
20
81.0246792621
30
0.0000000000
10
85.4669256327
20
81.0997247151
30
0.0000000000
10
85.7242893203
20
81.1172009969
30
0.0000000000
10
85.8512957407
20
81.1172009969
30
0.0000000000
11
84.7026580691
21
80.8968336056
31
0.0000000000
11
85.0878842401
21
81.0183969551
31
0.0000000000
11
85.4710989518
21
81.0921794256
31
0.0000000000
11
85.8512957407
21
81.1172009969
31
0.0000000000
0
SPLINE
5
296
100
AcDbEntity
8
0
100
AcDbSpline
62
7
6
CONTINUOUS
70
0
71
3
72
10
73
6
74
4
42
0.0000001000
43
0.0000001000
44
0.0000000001
12
3.4337792867
22
2.7720175119
32
0.0000000000
13
3.4347219773
23
2.7708493670
33
0.0000000000
40
0.0000000000
40
0.0000000000
40
0.0000000000
40
0.0000000000
40
0.3431541147
40
0.6765783060
40
1.0000000000
40
1.0000000000
40
1.0000000000
40
1.0000000000
10
91.2507674180
20
77.2511794613
30
0.0000000000
10
91.6435392484
20
77.5682558664
30
0.0000000000
10
92.4179671170
20
78.1933921447
30
0.0000000000
10
93.5626756243
20
79.1172550033
30
0.0000000000
10
94.3146485892
20
79.7239964798
30
0.0000000000
10
94.6849364560
20
80.0227140785
30
0.0000000000
11
91.2507674180
21
77.2511794613
31
0.0000000000
11
92.4291189042
21
78.2023640867
31
0.0000000000
11
93.5741451232
21
79.1264717073
31
0.0000000000
11
94.6849364560
21
80.0227140785
31
0.0000000000
0
SPLINE
5
297
100
AcDbEntity
8
0
100
AcDbSpline
62
7
6
CONTINUOUS
70
0
71
3
72
9
73
5
74
3
42
0.0000001000
43
0.0000001000
44
0.0000000001
12
0.0205995832
22
-3.2055132358
32
0.0000000000
13
0.0206459238
23
-3.2055129377
33
0.0000000000
40
0.0000000000
40
0.0000000000
40
0.0000000000
40
0.0000000000
40
0.7476873426
40
1.0000000000
40
1.0000000000
40
1.0000000000
40
1.0000000000
10
94.6849364560
20
80.0227140785
30
0.0000000000
10
94.6900704718
20
79.2238068542
30
0.0000000000
10
94.6969428514
20
78.1553024799
30
0.0000000000
10
94.7038229030
20
77.0867981550
30
0.0000000000
10
94.7055593123
20
76.8172009924
30
0.0000000000
11
94.6849364560
21
80.0227140785
31
0.0000000000
11
94.7003515432
21
77.6259924895
31
0.0000000000
11
94.7055593123
21
76.8172009924
31
0.0000000000
0
SPLINE
5
298
100
AcDbEntity
8
0
100
AcDbSpline
62
7
6
CONTINUOUS
70
0
71
3
72
9
73
5
74
3
42
0.0000001000
43
0.0000001000
44
0.0000000001
12
-0.0056170589
22
3.1485314361
32
0.0000000000
13
-0.0057567179
23
3.1485311837
33
0.0000000000
40
0.0000000000
40
0.0000000000
40
0.0000000000
40
0.0000000000
40
0.2451193073
40
1.0000000000
40
1.0000000000
40
1.0000000000
40
1.0000000000
10
120.4662277695
20
76.8172010009
30
0.0000000000
10
120.4657688196
20
77.0744562824
30
0.0000000000
10
120.4638908606
20
78.1239667511
30
0.0000000000
10
120.4619898367
20
79.1734771785
30
0.0000000000
10
120.4605412916
20
79.9657323121
30
0.0000000000
11
120.4662277695
21
76.8172010009
31
0.0000000000
11
120.4648467858
21
77.5889668381
31
0.0000000000
11
120.4605412916
21
79.9657323121
31
0.0000000000
0
SPLINE
5
299
100
AcDbEntity
8
0
100
AcDbSpline
62
7
6
CONTINUOUS
70
0
71
3
72
9
73
5
74
3
42
0.0000001000
43
0.0000001000
44
0.0000000001
12
2.1165312275
22
-0.7038613447
32
0.0000000000
13
2.1165069414
23
-0.7039343696
33
0.0000000000
40
0.0000000000
40
0.0000000000
40
0.0000000000
40
0.0000000000
40
0.4975657780
40
1.0000000000
40
1.0000000000
40
1.0000000000
40
1.0000000000
10
127.4841546469
20
77.9550787400
30
0.0000000000
10
127.8351924826
20
77.8383396342
30
0.0000000000
10
128.5407006334
20
77.6037123952
30
0.0000000000
10
129.2462047527
20
77.3690730338
30
0.0000000000
10
129.6006732589
20
77.2511794613
30
0.0000000000
11
127.4841546469
21
77.9550787400
31
0.0000000000
11
128.5372649084
21
77.6048516636
31
0.0000000000
11
129.6006732589
21
77.2511794613
31
0.0000000000
0
SPLINE
5
29A
100
AcDbEntity
8
0
100
AcDbSpline
62
7
6
CONTINUOUS
70
0
71
3
72
9
73
5
74
3
42
0.0000001000
43
0.0000001000
44
0.0000000001
12
0.0019532230
22
0.1356800065
32
0.0000000000
13
0.1446472189
23
0.0076614662
33
0.0000000000
40
0.0000000000
40
0.0000000000
40
0.0000000000
40
0.0000000000
40
0.2018203505
40
1.0000000000
40
1.0000000000
40
1.0000000000
40
1.0000000000
10
129.5891032042
20
77.2917388519
30
0.0000000000
10
129.5892346043
20
77.3008665141
30
0.0000000000
10
129.5982845989
20
77.3444690231
30
0.0000000000
10
129.6517105809
20
77.3484143364
30
0.0000000000
10
129.6901954031
20
77.3504527452
30
0.0000000000
11
129.5891032042
21
77.2917388519
31
0.0000000000
11
129.5946950489
21
77.3168509661
31
0.0000000000
11
129.6901954031
21
77.3504527452
31
0.0000000000
0
SPLINE
5
29B
100
AcDbEntity
8
0
100
AcDbSpline
62
7
6
CONTINUOUS
70
0
71
3
72
10
73
6
74
4
42
0.0000001000
43
0.0000001000
44
0.0000000001
12
0.9641896371
22
0.0510698125
32
0.0000000000
13
0.8284690848
23
-0.1687226143
33
0.0000000000
40
0.0000000000
40
0.0000000000
40
0.0000000000
40
0.0000000000
40
0.2278912858
40
0.5643322306
40
1.0000000000
40
1.0000000000
40
1.0000000000
40
1.0000000000
10
129.6901954031
20
77.3504527452
30
0.0000000000
10
129.7634388751
20
77.3543322002
30
0.0000000000
10
129.9075119513
20
77.3539769669
30
0.0000000000
10
130.1961960457
20
77.3147234781
30
0.0000000000
10
130.4074537389
20
77.2756817963
30
0.0000000000
10
130.5277661650
20
77.2511794613
30
0.0000000000
11
129.6901954031
21
77.3504527452
31
0.0000000000
11
129.8828718339
21
77.3504908007
31
0.0000000000
11
130.1653411458
21
77.3169601886
31
0.0000000000
11
130.5277661650
21
77.2511794613
31
0.0000000000
0
SPLINE
5
29C
100
AcDbEntity
8
0
100
AcDbSpline
62
7
6
CONTINUOUS
70
0
71
3
72
12
73
8
74
6
42
0.0000001000
43
0.0000001000
44
0.0000000001
12
0.9527554673
22
0.1940342690
32
0.0000000000
13
0.0149760075
23
-1.0400968937
33
0.0000000000
40
0.0000000000
40
0.0000000000
40
0.0000000000
40
0.0000000000
40
0.3788289385
40
0.6713809569
40
0.8695476739
40
0.9736723323
40
1.0000000000
40
1.0000000000
40
1.0000000000
40
1.0000000000
10
73.1275160354
20
77.2511794613
30
0.0000000000
10
73.2478264828
20
77.2756813934
30
0.0000000000
10
73.4590820875
20
77.3147226805
30
0.0000000000
10
73.7477651948
20
77.3539766378
30
0.0000000000
10
73.9224097436
20
77.3544073940
30
0.0000000000
10
74.0569970906
20
77.3444701310
30
0.0000000000
10
74.0660474452
20
77.3008665991
30
0.0000000000
10
74.0661788729
20
77.2917388239
30
0.0000000000
11
73.1275160354
21
77.2511794613
31
0.0000000000
11
73.4899350654
21
77.3169592656
31
0.0000000000
11
73.7724039243
21
77.3504903462
31
0.0000000000
11
73.9650839661
21
77.3504530758
31
0.0000000000
11
74.0605868892
21
77.3168512563
31
0.0000000000
11
74.0661788729
21
77.2917388239
31
0.0000000000
0
SPLINE
5
29D
100
AcDbEntity
8
0
100
AcDbSpline
62
7
6
CONTINUOUS
70
0
71
3
72
9
73
5
74
3
42
0.0000001000
43
0.0000001000
44
0.0000000001
12
2.1165069414
22
0.7039343696
32
0.0000000000
13
2.1165312275
23
0.7038613447
33
0.0000000000
40
0.0000000000
40
0.0000000000
40
0.0000000000
40
0.0000000000
40
0.5023812865
40
1.0000000000
40
1.0000000000
40
1.0000000000
40
1.0000000000
10
74.0546089415
20
77.2511794613
30
0.0000000000
10
74.4090401015
20
77.3690606127
30
0.0000000000
10
75.1145442206
20
77.6036999747
30
0.0000000000
10
75.8200523713
20
77.8383272144
30
0.0000000000
10
76.1711275535
20
77.9550787400
30
0.0000000000
11
74.0546089415
21
77.2511794613
31
0.0000000000
11
75.1179052530
21
77.6048144023
31
0.0000000000
11
76.1711275535
21
77.9550787400
31
0.0000000000
0
SPLINE
5
29E
100
AcDbEntity
8
0
100
AcDbSpline
62
9
6
CONTINUOUS
70
0
71
3
72
8
73
4
74
2
42
0.0000001000
43
0.0000001000
44
0.0000000001
12
-0.0092663102
22
-2.4961205442
32
0.0000000000
13
-0.0092395158
23
-2.4961206435
33
0.0000000000
40
0.0000000000
40
0.0000000000
40
0.0000000000
40
0.0000000000
40
1.0000000000
40
1.0000000000
40
1.0000000000
40
1.0000000000
10
90.7410460995
20
81.1172009969
30
0.0000000000
10
90.7379573294
20
80.2851608155
30
0.0000000000
10
90.7348730353
20
79.4531206175
30
0.0000000000
10
90.7317931967
20
78.6210804030
30
0.0000000000
11
90.7410460995
21
81.1172009969
31
0.0000000000
11
90.7317931967
21
78.6210804030
31
0.0000000000
0
SPLINE
5
29F
100
AcDbEntity
8
0
100
AcDbSpline
62
9
6
CONTINUOUS
70
0
71
3
72
9
73
5
74
3
42
0.0000001000
43
0.0000001000
44
0.0000000001
12
-0.0077212711
22
-1.9980428486
32
0.0000000000
13
-0.0077039358
23
-1.9980429155
33
0.0000000000
40
0.0000000000
40
0.0000000000
40
0.0000000000
40
0.0000000000
40
0.5757738329
40
1.0000000000
40
1.0000000000
40
1.0000000000
40
1.0000000000
10
91.3647163305
20
81.1172009969
30
0.0000000000
10
91.3632344286
20
80.7337274005
30
0.0000000000
10
91.3606623380
20
80.0677131112
30
0.0000000000
10
91.3580931359
20
79.4016988107
30
0.0000000000
10
91.3570037322
20
79.1191581148
30
0.0000000000
11
91.3647163305
21
81.1172009969
31
0.0000000000
11
91.3602735013
21
79.9667801965
31
0.0000000000
11
91.3570037322
21
79.1191581148
31
0.0000000000
0
SPLINE
5
2A0
100
AcDbEntity
8
0
100
AcDbSpline
62
9
6
CONTINUOUS
70
0
71
3
72
8
73
4
74
2
42
0.0000001000
43
0.0000001000
44
0.0000000001
12
-0.0077039343
22
1.9980425468
32
0.0000000000
13
-0.0077212697
23
1.9980424799
33
0.0000000000
40
0.0000000000
40
0.0000000000
40
0.0000000000
40
0.0000000000
40
1.0000000000
40
1.0000000000
40
1.0000000000
40
1.0000000000
10
112.2982784668
20
79.1191584835
30
0.0000000000
10
112.2957104887
20
79.7851726658
30
0.0000000000
10
112.2931396264
20
80.4511868370
30
0.0000000000
10
112.2905658699
20
81.1172009969
30
0.0000000000
11
112.2982784668
21
79.1191584835
31
0.0000000000
11
112.2905658699
21
81.1172009969
31
0.0000000000
0
SPLINE
5
2A1
100
AcDbEntity
8
0
100
AcDbSpline
62
9
6
CONTINUOUS
70
0
71
3
72
8
73
4
74
2
42
0.0000001000
43
0.0000001000
44
0.0000000001
12
-0.0092395193
22
2.4961216046
32
0.0000000000
13
-0.0092663138
23
2.4961215053
33
0.0000000000
40
0.0000000000
40
0.0000000000
40
0.0000000000
40
0.0000000000
40
1.0000000000
40
1.0000000000
40
1.0000000000
40
1.0000000000
10
112.9234890072
20
78.6210794419
30
0.0000000000
10
112.9204091675
20
79.4531199768
30
0.0000000000
10
112.9173248722
20
80.2851604952
30
0.0000000000
10
112.9142361009
20
81.1172009969
30
0.0000000000
11
112.9234890072
21
78.6210794419
31
0.0000000000
11
112.9142361009
21
81.1172009969
31
0.0000000000
0
SPLINE
5
2A2
100
AcDbEntity
8
0
100
AcDbSpline
62
9
6
CONTINUOUS
70
0
71
3
72
9
73
5
74
3
42
0.0000001000
43
0.0000001000
44
0.0000000001
12
0.0208498769
22
-4.3000000960
32
0.0000000000
13
0.0208889247
23
-4.2999999064
33
0.0000000000
40
0.0000000000
40
0.0000000000
40
0.0000000000
40
0.0000000000
40
0.5285774561
40
1.0000000000
40
1.0000000000
40
1.0000000000
40
1.0000000000
10
98.7267472583
20
81.1172009969
30
0.0000000000
10
98.7304208499
20
80.3595732930
30
0.0000000000
10
98.7373742622
20
78.9262399444
30
0.0000000000
10
98.7443341810
20
77.4929066274
30
0.0000000000
10
98.7476166844
20
76.8172009958
30
0.0000000000
11
98.7267472583
21
81.1172009969
31
0.0000000000
11
98.7377735018
21
78.8443179117
31
0.0000000000
11
98.7476166844
21
76.8172009958
31
0.0000000000
0
SPLINE
5
2A3
100
AcDbEntity
8
0
100
AcDbSpline
62
9
6
CONTINUOUS
70
0
71
3
72
9
73
5
74
3
42
0.0000001000
43
0.0000001000
44
0.0000000001
12
0.0221087805
22
-4.3000000862
32
0.0000000000
13
0.0221416621
23
-4.2999999171
33
0.0000000000
40
0.0000000000
40
0.0000000000
40
0.0000000000
40
0.0000000000
40
0.6107534640
40
1.0000000000
40
1.0000000000
40
1.0000000000
40
1.0000000000
10
98.1366938511
20
81.1172009969
30
0.0000000000
10
98.1411948559
20
80.2417876810
30
0.0000000000
10
98.1485678097
20
78.8084543361
30
0.0000000000
10
98.1559462389
20
77.3751210195
30
0.0000000000
10
98.1588190940
20
76.8172009954
30
0.0000000000
11
98.1366938511
21
81.1172009969
31
0.0000000000
11
98.1502030125
21
78.4909610806
31
0.0000000000
11
98.1588190940
21
76.8172009954
31
0.0000000000
0
SPLINE
5
2A4
100
AcDbEntity
8
0
100
AcDbSpline
62
7
6
CONTINUOUS
70
0
71
3
72
13
73
9
74
7
42
0.0000001000
43
0.0000001000
44
0.0000000001
12
-8.8875501827
22
-3.3600971970
32
0.0000000000
13
-9.2067310542
23
-2.3484145571
33
0.0000000000
40
0.0000000000
40
0.0000000000
40
0.0000000000
40
0.0000000000
40
0.1330542173
40
0.2822233574
40
0.4456845247
40
0.6218736122
40
0.8100008207
40
1.0000000000
40
1.0000000000
40
1.0000000000
40
1.0000000000
10
85.8573096549
20
80.8968336056
30
0.0000000000
10
85.4631343106
20
80.7478085714
30
0.0000000000
10
84.6229676383
20
80.4424220226
30
0.0000000000
10
83.2857494909
20
79.9900543507
30
0.0000000000
10
81.8092492249
20
79.5241100191
30
0.0000000000
10
80.2060559792
20
79.0506368452
30
0.0000000000
10
78.5142390227
20
78.5814067944
30
0.0000000000
10
77.3556387264
20
78.2781372977
30
0.0000000000
10
76.7725482785
20
78.1294050182
30
0.0000000000
11
85.8573096549
21
80.8968336056
31
0.0000000000
11
84.6694724212
21
80.4640673037
31
0.0000000000
11
83.3271949474
21
80.0089587155
31
0.0000000000
11
81.8463502194
21
79.5406552557
31
0.0000000000
11
80.2410881555
21
79.0656584796
31
0.0000000000
11
78.5188318375
21
78.5871538666
31
0.0000000000
11
76.7725482785
21
78.1294050182
31
0.0000000000
0
SPLINE
5
2A5
100
AcDbEntity
8
0
100
AcDbSpline
62
7
6
CONTINUOUS
70
0
71
3
72
8
73
4
74
2
42
0.0000001000
43
0.0000001000
44
0.0000000001
12
-0.0452724299
22
-0.0115479026
32
0.0000000000
13
-0.0452761254
23
-0.0115332518
33
0.0000000000
40
0.0000000000
40
0.0000000000
40
0.0000000000
40
0.0000000000
40
1.0000000000
40
1.0000000000
40
1.0000000000
40
1.0000000000
10
76.7725482785
20
78.1294050182
30
0.0000000000
10
76.7574574685
20
78.1255557174
30
0.0000000000
10
76.7423660407
20
78.1217088634
30
0.0000000000
10
76.7272739989
20
78.1178644462
30
0.0000000000
11
76.7725482785
21
78.1294050182
31
0.0000000000
11
76.7272739989
21
78.1178644462
31
0.0000000000
0
SPLINE
5
2A6
100
AcDbEntity
8
0
100
AcDbSpline
62
9
6
CONTINUOUS
70
0
71
3
72
9
73
5
74
3
42
0.0000001000
43
0.0000001000
44
0.0000000001
12
0.0208889247
22
4.2999999064
32
0.0000000000
13
0.0208498769
23
4.3000000960
33
0.0000000000
40
0.0000000000
40
0.0000000000
40
0.0000000000
40
0.0000000000
40
0.4714225439
40
1.0000000000
40
1.0000000000
40
1.0000000000
40
1.0000000000
10
104.9076655160
20
76.8172009958
30
0.0000000000
10
104.9109480194
20
77.4929066274
30
0.0000000000
10
104.9179079382
20
78.9262399444
30
0.0000000000
10
104.9248613505
20
80.3595732930
30
0.0000000000
10
104.9285349421
20
81.1172009969
30
0.0000000000
11
104.9076655160
21
76.8172009958
31
0.0000000000
11
104.9175086986
21
78.8443179116
31
0.0000000000
11
104.9285349421
21
81.1172009969
31
0.0000000000
0
SPLINE
5
2A7
100
AcDbEntity
8
0
100
AcDbSpline
62
9
6
CONTINUOUS
70
0
71
3
72
9
73
5
74
3
42
0.0000001000
43
0.0000001000
44
0.0000000001
12
0.0221416621
22
4.2999999171
32
0.0000000000
13
0.0221087805
23
4.3000000862
33
0.0000000000
40
0.0000000000
40
0.0000000000
40
0.0000000000
40
0.0000000000
40
0.3892465360
40
1.0000000000
40
1.0000000000
40
1.0000000000
40
1.0000000000
10
105.4964631064
20
76.8172009954
30
0.0000000000
10
105.4993359615
20
77.3751210195
30
0.0000000000
10
105.5067143907
20
78.8084543361
30
0.0000000000
10
105.5140873445
20
80.2417876809
30
0.0000000000
10
105.5185883493
20
81.1172009969
30
0.0000000000
11
105.4964631064
21
76.8172009954
31
0.0000000000
11
105.5050791879
21
78.4909610806
31
0.0000000000
11
105.5185883493
21
81.1172009969
31
0.0000000000
0
SPLINE
5
2A8
100
AcDbEntity
8
0
100
AcDbSpline
62
7
6
CONTINUOUS
70
0
71
3
72
10
73
6
74
4
42
0.0000001000
43
0.0000001000
44
0.0000000001
12
6.3973441483
22
-2.0810096472
32
0.0000000000
13
6.5191209590
23
-1.6606249503
33
0.0000000000
40
0.0000000000
40
0.0000000000
40
0.0000000000
40
0.0000000000
40
0.3286285236
40
0.6655922394
40
1.0000000000
40
1.0000000000
40
1.0000000000
40
1.0000000000
10
120.4605412916
20
79.9657323121
30
0.0000000000
10
121.1613245458
20
79.7377726028
30
0.0000000000
10
122.5876100008
20
79.2972734042
30
0.0000000000
10
124.7452507005
20
78.6859299105
30
0.0000000000
10
126.2013264845
20
78.3029731141
30
0.0000000000
10
126.9280080314
20
78.1178644905
30
0.0000000000
11
120.4605412916
21
79.9657323121
31
0.0000000000
11
122.5721434081
21
79.3109791617
31
0.0000000000
11
124.7526541726
21
78.6912902029
31
0.0000000000
11
126.9280080314
21
78.1178644905
31
0.0000000000
0
SPLINE
5
2A9
100
AcDbEntity
8
0
100
AcDbSpline
62
7
6
CONTINUOUS
70
0
71
3
72
10
73
6
74
4
42
0.0000001000
43
0.0000001000
44
0.0000000001
12
0.6261074195
22
-0.0760868188
32
0.0000000000
13
-0.0055039450
23
0.6306896315
33
0.0000000000
40
0.0000000000
40
0.0000000000
40
0.0000000000
40
0.0000000000
40
0.5260480761
40
0.8583273515
40
1.0000000000
40
1.0000000000
40
1.0000000000
40
1.0000000000
10
120.4605412916
20
79.9657323121
30
0.0000000000
10
120.5703288261
20
79.9523905372
30
0.0000000000
10
120.7591471469
20
79.9414713903
30
0.0000000000
10
120.9464796511
20
79.9286516074
30
0.0000000000
10
121.0722796406
20
79.9761702705
30
0.0000000000
10
121.0720197211
20
80.0059540940
30
0.0000000000
11
120.4605412916
21
79.9657323121
31
0.0000000000
11
120.7912462650
21
79.9389746642
31
0.0000000000
11
121.0003791519
21
79.9525507033
31
0.0000000000
11
121.0720197211
21
80.0059540940
31
0.0000000000
0
SPLINE
5
2AA
100
AcDbEntity
8
0
100
AcDbSpline
62
7
6
CONTINUOUS
70
0
71
3
72
15
73
11
74
9
42
0.0000001000
43
0.0000001000
44
0.0000000001
12
2.1754347921
22
-0.3947628395
32
0.0000000000
13
2.0842091996
23
0.7378524558
33
0.0000000000
40
0.0000000000
40
0.0000000000
40
0.0000000000
40
0.0000000000
40
0.1434739647
40
0.2890895548
40
0.4329572088
40
0.5710841439
40
0.6997209694
40
0.8156728288
40
0.9163358518
40
1.0000000000
40
1.0000000000
40
1.0000000000
40
1.0000000000
10
108.9703457444
20
80.0227140785
30
0.0000000000
10
109.0743851626
20
80.0038346819
30
0.0000000000
10
109.2849374685
20
79.9707222857
30
0.0000000000
10
109.6020875459
20
79.9348208060
30
0.0000000000
10
109.9165617281
20
79.9128063042
30
0.0000000000
10
110.2192082389
20
79.9051992108
30
0.0000000000
10
110.5013066585
20
79.9120875374
30
0.0000000000
10
110.7550809552
20
79.9331315603
30
0.0000000000
10
110.9738732002
20
79.9676208822
30
0.0000000000
10
111.1057300741
20
80.0021368128
30
0.0000000000
10
111.1638546032
20
80.0227140785
30
0.0000000000
11
108.9703457444
21
80.0227140785
31
0.0000000000
11
109.2836761264
21
79.9732190168
31
0.0000000000
11
109.6035805074
21
79.9369786827
31
0.0000000000
11
109.9209013566
21
79.9149297630
31
0.0000000000
11
110.2262076799
21
79.9076356075
31
0.0000000000
11
110.5105176554
21
79.9152218735
31
0.0000000000
11
110.7659209274
21
79.9374092195
31
0.0000000000
11
110.9855285876
21
79.9735531701
31
0.0000000000
11
111.1638546032
21
80.0227140785
31
0.0000000000
0
SPLINE
5
2AB
100
AcDbEntity
8
0
100
AcDbSpline
62
7
6
CONTINUOUS
70
0
71
3
72
11
73
7
74
5
42
0.0000001000
43
0.0000001000
44
0.0000000001
12
-2.2222489769
22
0.3563731384
32
0.0000000000
13
-2.1804056866
23
-0.5578739740
33
0.0000000000
40
0.0000000000
40
0.0000000000
40
0.0000000000
40
0.0000000000
40
0.2846158498
40
0.5543783896
40
0.7964435498
40
1.0000000000
40
1.0000000000
40
1.0000000000
40
1.0000000000
10
114.6427150500
20
77.2511794613
30
0.0000000000
10
114.4318859563
20
77.2849892759
30
0.0000000000
10
114.0186451498
20
77.3357211884
30
0.0000000000
10
113.4210729385
20
77.3631320361
30
0.0000000000
10
112.8842380600
20
77.3405308852
30
0.0000000000
10
112.5524599963
20
77.2890324099
30
0.0000000000
10
112.4045147824
20
77.2511794613
30
0.0000000000
11
114.6427150500
21
77.2511794613
31
0.0000000000
11
114.0068590820
21
77.3287377024
31
0.0000000000
11
113.4002753560
21
77.3547000201
31
0.0000000000
11
112.8561145348
21
77.3282725981
31
0.0000000000
11
112.4045147824
21
77.2511794613
31
0.0000000000
0
SPLINE
5
2AC
100
AcDbEntity
8
0
100
AcDbSpline
62
7
6
CONTINUOUS
70
0
71
3
72
15
73
11
74
9
42
0.0000001000
43
0.0000001000
44
0.0000000001
12
2.0842069952
22
-0.7378516754
32
0.0000000000
13
2.1754324912
23
0.3947624220
33
0.0000000000
40
0.0000000000
40
0.0000000000
40
0.0000000000
40
0.0000000000
40
0.0843475354
40
0.1858564805
40
0.3026015723
40
0.4317143136
40
0.5697364163
40
0.7129840827
40
0.8576281353
40
1.0000000000
40
1.0000000000
40
1.0000000000
40
1.0000000000
10
92.4914275972
20
80.0227140785
30
0.0000000000
10
92.5500268383
20
80.0019687551
30
0.0000000000
10
92.6830047622
20
79.9672486586
30
0.0000000000
10
92.9035233313
20
79.9327102927
30
0.0000000000
10
93.1588757261
20
79.9118178233
30
0.0000000000
10
93.4418387072
20
79.9052093114
30
0.0000000000
10
93.7442934392
20
79.9130911478
30
0.0000000000
10
94.0575028577
20
79.9352426196
30
0.0000000000
10
94.3726616180
20
79.9710678366
30
0.0000000000
10
94.5816963292
20
80.0039797245
30
0.0000000000
10
94.6849364560
20
80.0227140785
30
0.0000000000
11
92.4914275972
21
80.0227140785
31
0.0000000000
11
92.6712333959
21
79.9732365050
31
0.0000000000
11
92.8927206796
21
79.9369983908
31
0.0000000000
11
93.1498952725
21
79.9149415661
31
0.0000000000
11
93.4352648619
21
79.9076354852
31
0.0000000000
11
93.7403321213
21
79.9152125115
31
0.0000000000
11
94.0562690084
21
79.9373976779
31
0.0000000000
11
94.3740216261
21
79.9735463382
31
0.0000000000
11
94.6849364560
21
80.0227140785
31
0.0000000000
0
SPLINE
5
2AD
100
AcDbEntity
8
0
100
AcDbSpline
62
7
6
CONTINUOUS
70
0
71
3
72
11
73
7
74
5
42
0.0000001000
43
0.0000001000
44
0.0000000001
12
-2.1804009141
22
0.5578727530
32
0.0000000000
13
-2.2222441128
23
-0.3563723584
33
0.0000000000
40
0.0000000000
40
0.0000000000
40
0.0000000000
40
0.0000000000
40
0.2055882816
40
0.4488111654
40
0.7179051437
40
1.0000000000
40
1.0000000000
40
1.0000000000
40
1.0000000000
10
91.2507674180
20
77.2511794613
30
0.0000000000
10
91.1013457923
20
77.2894101615
30
0.0000000000
10
90.7671271400
20
77.3409930258
30
0.0000000000
10
90.2283847959
20
77.3630988523
30
0.0000000000
10
89.6323657298
20
77.3352584592
30
0.0000000000
10
89.2215283617
20
77.2846897310
30
0.0000000000
10
89.0125671504
20
77.2511794613
30
0.0000000000
11
91.2507674180
21
77.2511794613
31
0.0000000000
11
90.7946101437
21
77.3287437508
31
0.0000000000
11
90.2478192715
21
77.3546999607
31
0.0000000000
11
89.6427633997
21
77.3282652658
31
0.0000000000
11
89.0125671504
21
77.2511794613
31
0.0000000000
0
SPLINE
5
2AE
100
AcDbEntity
8
0
100
AcDbSpline
62
7
6
CONTINUOUS
70
0
71
3
72
9
73
5
74
3
42
0.0000001000
43
0.0000001000
44
0.0000000001
12
0.0206459238
22
3.2055129377
32
0.0000000000
13
0.0205995832
23
3.2055132358
33
0.0000000000
40
0.0000000000
40
0.0000000000
40
0.0000000000
40
0.0000000000
40
0.2523126574
40
1.0000000000
40
1.0000000000
40
1.0000000000
40
1.0000000000
10
108.9497228881
20
76.8172009924
30
0.0000000000
10
108.9514592974
20
77.0867981550
30
0.0000000000
10
108.9583393490
20
78.1553024799
30
0.0000000000
10
108.9652117286
20
79.2238068542
30
0.0000000000
10
108.9703457444
20
80.0227140785
30
0.0000000000
11
108.9497228881
21
76.8172009924
31
0.0000000000
11
108.9549306572
21
77.6259924895
31
0.0000000000
11
108.9703457444
21
80.0227140785
31
0.0000000000
0
SPLINE
5
2AF
100
AcDbEntity
8
0
100
AcDbSpline
62
7
6
CONTINUOUS
70
0
71
3
72
10
73
6
74
4
42
0.0000001000
43
0.0000001000
44
0.0000000001
12
0.5616509969
22
-0.1430701568
32
0.0000000000
13
0.5499727763
23
-0.1828957555
33
0.0000000000
40
0.0000000000
40
0.0000000000
40
0.0000000000
40
0.0000000000
40
0.3296128879
40
0.6673011521
40
1.0000000000
40
1.0000000000
40
1.0000000000
40
1.0000000000
10
126.9280080314
20
78.1178644905
30
0.0000000000
10
126.9897171671
20
78.1021452346
30
0.0000000000
10
127.1142625753
20
78.0687932228
30
0.0000000000
10
127.2997136733
20
78.0145894872
30
0.0000000000
10
127.4231628772
20
77.9753618091
30
0.0000000000
10
127.4841546469
20
77.9550787400
30
0.0000000000
11
126.9280080314
21
78.1178644905
31
0.0000000000
11
127.1125617373
21
78.0685092320
31
0.0000000000
11
127.3004169929
21
78.0135856988
31
0.0000000000
11
127.4841546469
21
77.9550787400
31
0.0000000000
0
SPLINE
5
2B0
100
AcDbEntity
8
0
100
AcDbSpline
62
9
6
CONTINUOUS
70
0
71
3
72
8
73
4
74
2
42
0.0000001000
43
0.0000001000
44
0.0000000001
12
0.0011263400
22
1.1378777427
32
0.0000000000
13
0.0011233951
23
1.1378777456
33
0.0000000000
40
0.0000000000
40
0.0000000000
40
0.0000000000
40
0.0000000000
40
1.0000000000
40
1.0000000000
40
1.0000000000
40
1.0000000000
10
127.4830295353
20
76.8172009962
30
0.0000000000
10
127.4834049819
20
77.1964935770
30
0.0000000000
10
127.4837801819
20
77.5757861582
30
0.0000000000
10
127.4841546469
20
77.9550787400
30
0.0000000000
11
127.4830295353
21
76.8172009962
31
0.0000000000
11
127.4841546469
21
77.9550787400
31
0.0000000000
0
SPLINE
5
2B1
100
AcDbEntity
8
0
100
AcDbSpline
62
9
6
CONTINUOUS
70
0
71
3
72
9
73
5
74
3
42
0.0000001000
43
0.0000001000
44
0.0000000001
12
0.0213959688
22
3.7593019577
32
0.0000000000
13
0.0214080424
23
3.7593018890
33
0.0000000000
40
0.0000000000
40
0.0000000000
40
0.0000000000
40
0.0000000000
40
0.2635396561
40
1.0000000000
40
1.0000000000
40
1.0000000000
40
1.0000000000
10
114.5087931532
20
77.3578990736
30
0.0000000000
10
114.5106727153
20
77.6881407886
30
0.0000000000
10
114.5178052341
20
78.9412414382
30
0.0000000000
10
114.5249397633
20
80.1943420763
30
0.0000000000
10
114.5301951547
20
81.1172009969
30
0.0000000000
11
114.5087931532
21
77.3578990736
31
0.0000000000
11
114.5144322580
21
78.3486242164
31
0.0000000000
11
114.5301951547
21
81.1172009969
31
0.0000000000
0
SPLINE
5
2B2
100
AcDbEntity
8
0
100
AcDbSpline
62
7
6
CONTINUOUS
70
0
71
3
72
10
73
6
74
4
42
0.0000001000
43
0.0000001000
44
0.0000000001
12
0.5499726103
22
0.1828957003
32
0.0000000000
13
0.5616508273
23
0.1430701140
33
0.0000000000
40
0.0000000000
40
0.0000000000
40
0.0000000000
40
0.0000000000
40
0.3324346436
40
0.6704421234
40
1.0000000000
40
1.0000000000
40
1.0000000000
40
1.0000000000
10
76.1711275535
20
77.9550787400
30
0.0000000000
10
76.2320708697
20
77.9753456957
30
0.0000000000
10
76.3555297352
20
78.0145778388
30
0.0000000000
10
76.5409804458
20
78.0687828497
30
0.0000000000
10
76.6655751808
20
78.1021478185
30
0.0000000000
10
76.7272739989
20
78.1178644462
30
0.0000000000
11
76.1711275535
21
77.9550787400
31
0.0000000000
11
76.3547186766
21
78.0135409936
31
0.0000000000
11
76.5427510555
21
78.0685177934
31
0.0000000000
11
76.7272739989
21
78.1178644462
31
0.0000000000
0
SPLINE
5
2B3
100
AcDbEntity
8
0
100
AcDbSpline
62
9
6
CONTINUOUS
70
0
71
3
72
8
73
4
74
2
42
0.0000001000
43
0.0000001000
44
0.0000000001
12
0.0011233951
22
-1.1378777456
32
0.0000000000
13
0.0011263400
23
-1.1378777427
33
0.0000000000
40
0.0000000000
40
0.0000000000
40
0.0000000000
40
0.0000000000
40
1.0000000000
40
1.0000000000
40
1.0000000000
40
1.0000000000
10
76.1711275535
20
77.9550787400
30
0.0000000000
10
76.1715020185
20
77.5757861582
30
0.0000000000
10
76.1718772185
20
77.1964935770
30
0.0000000000
10
76.1722526651
20
76.8172009962
30
0.0000000000
11
76.1711275535
21
77.9550787400
31
0.0000000000
11
76.1722526651
21
76.8172009962
31
0.0000000000
0
SPLINE
5
2B4
100
AcDbEntity
8
0
100
AcDbSpline
62
9
6
CONTINUOUS
70
0
71
3
72
9
73
5
74
3
42
0.0000001000
43
0.0000001000
44
0.0000000001
12
0.0214080425
22
-3.7593019104
32
0.0000000000
13
0.0213959689
23
-3.7593019791
33
0.0000000000
40
0.0000000000
40
0.0000000000
40
0.0000000000
40
0.0000000000
40
0.7364603383
40
1.0000000000
40
1.0000000000
40
1.0000000000
40
1.0000000000
10
89.1250870457
20
81.1172009969
30
0.0000000000
10
89.1303424371
20
80.1943420781
30
0.0000000000
10
89.1374769663
20
78.9412414328
30
0.0000000000
10
89.1446094852
20
77.6881407761
30
0.0000000000
10
89.1464890473
20
77.3578990521
30
0.0000000000
11
89.1250870457
21
81.1172009969
31
0.0000000000
11
89.1408499423
21
78.3486242217
31
0.0000000000
11
89.1464890473
21
77.3578990521
31
0.0000000000
0
SPLINE
5
2B5
100
AcDbEntity
8
0
100
AcDbSpline
62
7
6
CONTINUOUS
70
0
71
3
72
10
73
6
74
4
42
0.0000001000
43
0.0000001000
44
0.0000000001
12
3.4347219773
22
-2.7708493670
32
0.0000000000
13
3.4337792867
23
-2.7720175119
33
0.0000000000
40
0.0000000000
40
0.0000000000
40
0.0000000000
40
0.0000000000
40
0.3227835390
40
0.6562042541
40
1.0000000000
40
1.0000000000
40
1.0000000000
40
1.0000000000
10
108.9703457444
20
80.0227140785
30
0.0000000000
10
109.3399029829
20
79.7245858903
30
0.0000000000
10
110.0911414974
20
79.1184372305
30
0.0000000000
10
111.2358501910
20
78.1945746028
30
0.0000000000
10
112.0110085454
20
77.5688487373
30
0.0000000000
10
112.4045147824
20
77.2511794613
30
0.0000000000
11
108.9703457444
21
80.0227140785
31
0.0000000000
11
110.0789454601
21
79.1282402709
31
0.0000000000
11
111.2239599340
21
78.2041425233
31
0.0000000000
11
112.4045147824
21
77.2511794613
31
0.0000000000
0
SPLINE
5
2B6
100
AcDbEntity
8
0
100
AcDbSpline
62
7
6
CONTINUOUS
70
0
71
3
72
10
73
6
74
4
42
0.0000001000
43
0.0000001000
44
0.0000000001
12
-1.1734759421
22
0.0000000000
32
0.0000000000
13
-1.0976486915
23
-0.4149857065
33
0.0000000000
40
0.0000000000
40
0.0000000000
40
0.0000000000
40
0.0000000000
40
0.3225322060
40
0.6549071182
40
1.0000000000
40
1.0000000000
40
1.0000000000
40
1.0000000000
10
87.0041412686
20
81.1172009969
30
0.0000000000
10
86.8779800072
20
81.1172009969
30
0.0000000000
10
86.6215368111
20
81.0999021048
30
0.0000000000
10
86.2367310248
20
81.0251255480
30
0.0000000000
10
85.9835732383
20
80.9445698100
30
0.0000000000
10
85.8573096549
20
80.8968336056
30
0.0000000000
11
87.0041412686
21
81.1172009969
31
0.0000000000
11
86.6264656768
21
81.0924801103
31
0.0000000000
11
86.2434388387
21
81.0188802882
31
0.0000000000
11
85.8573096549
21
80.8968336056
31
0.0000000000
0
SPLINE
5
2B7
100
AcDbEntity
8
0
100
AcDbSpline
62
7
6
CONTINUOUS
70
0
71
3
72
9
73
5
74
3
42
0.0000001000
43
0.0000001000
44
0.0000000001
12
-0.2314553176
22
0.0000000000
32
0.0000000000
13
-0.2211824781
23
-0.0694300093
33
0.0000000000
40
0.0000000000
40
0.0000000000
40
0.0000000000
40
0.0000000000
40
0.7073595642
40
1.0000000000
40
1.0000000000
40
1.0000000000
40
1.0000000000
10
96.3298939614
20
81.1172009969
30
0.0000000000
10
96.2753199172
20
81.1172009969
30
0.0000000000
10
96.1979093988
20
81.1084466855
30
0.0000000000
10
96.1232282530
20
81.0883417727
30
0.0000000000
10
96.1016526074
20
81.0815690966
30
0.0000000000
11
96.3298939614
21
81.1172009969
31
0.0000000000
11
96.1671714382
21
81.0991367459
31
0.0000000000
11
96.1016526074
21
81.0815690966
31
0.0000000000
0
SPLINE
5
2B8
100
AcDbEntity
8
0
100
AcDbSpline
62
7
6
CONTINUOUS
70
0
71
3
72
9
73
5
74
3
42
0.0000001000
43
0.0000001000
44
0.0000000001
12
-0.2211824781
22
0.0694300093
32
0.0000000000
13
-0.2314553176
23
0.0000000000
33
0.0000000000
40
0.0000000000
40
0.0000000000
40
0.0000000000
40
0.0000000000
40
0.2926404358
40
1.0000000000
40
1.0000000000
40
1.0000000000
40
1.0000000000
10
107.5536295930
20
81.0815690966
30
0.0000000000
10
107.5320539474
20
81.0883417727
30
0.0000000000
10
107.4573728016
20
81.1084466855
30
0.0000000000
10
107.3799622832
20
81.1172009969
30
0.0000000000
10
107.3253882390
20
81.1172009969
30
0.0000000000
11
107.5536295930
21
81.0815690966
31
0.0000000000
11
107.4881107622
21
81.0991367459
31
0.0000000000
11
107.3253882390
21
81.1172009969
31
0.0000000000
0
SPLINE
5
2B9
100
AcDbEntity
8
0
100
AcDbSpline
62
7
6
CONTINUOUS
70
0
71
3
72
10
73
6
74
4
42
0.0000001000
43
0.0000001000
44
0.0000000001
12
-0.7401057037
22
0.1868334426
32
0.0000000000
13
-0.7632250218
23
-0.0000000000
33
0.0000000000
40
0.0000000000
40
0.0000000000
40
0.0000000000
40
0.0000000000
40
0.3097043208
40
0.6580909345
40
1.0000000000
40
1.0000000000
40
1.0000000000
40
1.0000000000
10
117.4064674580
20
81.0202419570
30
0.0000000000
10
117.3300628132
20
81.0395296652
30
0.0000000000
10
117.1662306980
20
81.0749078535
30
0.0000000000
10
116.9138385575
20
81.1090387313
30
0.0000000000
10
116.7381254498
20
81.1172009969
30
0.0000000000
10
116.6511409318
20
81.1172009969
30
0.0000000000
11
117.4064674580
21
81.0202419570
31
0.0000000000
11
117.1753590684
21
81.0699675672
31
0.0000000000
11
116.9118246855
21
81.1053376978
31
0.0000000000
11
116.6511409318
21
81.1172009969
31
0.0000000000
0
SPLINE
5
2BA
100
AcDbEntity
8
0
100
AcDbSpline
62
7
6
CONTINUOUS
70
0
71
3
72
14
73
10
74
8
42
0.0000001000
43
0.0000001000
44
0.0000000001
12
-11.2834853575
22
4.8858924814
32
0.0000000000
13
-11.2834853575
23
-4.8858924814
33
0.0000000000
40
0.0000000000
40
0.0000000000
40
0.0000000000
40
0.0000000000
40
0.1389502128
40
0.2819716454
40
0.4271078815
40
0.5728921588
40
0.7180284604
40
0.8610498263
40
1.0000000000
40
1.0000000000
40
1.0000000000
40
1.0000000000
10
107.8276411002
20
104.0172009969
30
0.0000000000
10
107.3050268698
20
104.2434995969
30
0.0000000000
10
106.2096714657
20
104.6247720929
30
0.0000000000
10
104.4952252278
20
104.9954283195
30
0.0000000000
10
102.7228094077
20
105.1796851124
30
0.0000000000
10
100.9324720279
20
105.1796850869
30
0.0000000000
10
99.1600562181
20
104.9954282013
30
0.0000000000
10
97.4456101672
20
104.6247719079
30
0.0000000000
10
96.3502551837
20
104.2434995333
30
0.0000000000
10
95.8276411002
20
104.0172009969
30
0.0000000000
11
107.8276411002
21
104.0172009969
31
0.0000000000
11
106.2166227551
21
104.5861035392
31
0.0000000000
11
104.4987188491
21
104.9621309140
31
0.0000000000
11
102.7239147975
21
105.1486653143
31
0.0000000000
11
100.9313669081
21
105.1486652886
31
0.0000000000
11
99.1565620642
21
104.9621307080
31
0.0000000000
11
97.4386589823
21
104.5861034086
31
0.0000000000
11
95.8276411002
21
104.0172009969
31
0.0000000000
0
SPLINE
5
2BB
100
AcDbEntity
8
0
100
AcDbSpline
62
7
6
CONTINUOUS
70
0
71
3
72
10
73
6
74
4
42
0.0000001000
43
0.0000001000
44
0.0000000001
12
-2.5961483266
22
-2.6979964834
32
0.0000000000
13
-3.1632660362
23
-2.0118043583
33
0.0000000000
40
0.0000000000
40
0.0000000000
40
0.0000000000
40
0.0000000000
40
0.4781637449
40
0.9027947609
40
1.0000000000
40
1.0000000000
40
1.0000000000
40
1.0000000000
10
107.8276411002
20
100.0123915253
30
0.0000000000
10
107.4138464315
20
99.5823634912
30
0.0000000000
10
106.6058208978
20
98.7950656397
30
0.0000000000
10
105.6296903164
20
98.0131158135
30
0.0000000000
10
105.0861288837
20
97.6526567902
30
0.0000000000
10
104.9836335400
20
97.5874708157
30
0.0000000000
11
107.8276411002
21
100.0123915253
31
0.0000000000
11
106.5373674441
21
98.7712045392
31
0.0000000000
11
105.2874470591
21
97.7885973908
31
0.0000000000
11
104.9836335400
21
97.5874708157
31
0.0000000000
0
SPLINE
5
2BC
100
AcDbEntity
8
0
100
AcDbSpline
62
7
6
CONTINUOUS
70
0
71
3
72
13
73
9
74
7
42
0.0000001000
43
0.0000001000
44
0.0000000001
12
-5.6820005180
22
-3.6136933394
32
0.0000000000
13
-5.6818721411
23
3.6135478898
33
0.0000000000
40
0.0000000000
40
0.0000000000
40
0.0000000000
40
0.0000000000
40
0.1543039663
40
0.3363680421
40
0.5015412543
40
0.6667341588
40
0.8484337434
40
1.0000000000
40
1.0000000000
40
1.0000000000
40
1.0000000000
10
104.9836335400
20
97.5874708157
30
0.0000000000
10
104.6913818012
20
97.4016017439
30
0.0000000000
10
104.0322664199
20
97.0311386274
30
0.0000000000
10
102.9684776090
20
96.6420739849
30
0.0000000000
10
101.8170826249
20
96.5024610999
30
0.0000000000
10
100.6671949807
20
96.6471584131
30
0.0000000000
10
99.6113481820
20
97.0372823761
30
0.0000000000
10
98.9587172239
20
97.4048991638
30
0.0000000000
10
98.6716571936
20
97.5874631394
30
0.0000000000
11
104.9836335400
21
97.5874708157
31
0.0000000000
11
104.0752284734
21
97.0847617927
31
0.0000000000
11
102.9206338531
21
96.6770148210
31
0.0000000000
11
101.8172378841
21
96.5483016261
31
0.0000000000
11
100.7142813179
21
96.6818337717
31
0.0000000000
11
99.5633627840
21
97.0926080452
31
0.0000000000
11
98.6716571936
21
97.5874631394
31
0.0000000000
0
SPLINE
5
2BD
100
AcDbEntity
8
0
100
AcDbSpline
62
7
6
CONTINUOUS
70
0
71
3
72
10
73
6
74
4
42
0.0000001000
43
0.0000001000
44
0.0000000001
12
-3.1632173822
22
2.0117378942
32
0.0000000000
13
-2.5961670522
23
2.6980159436
33
0.0000000000
40
0.0000000000
40
0.0000000000
40
0.0000000000
40
0.0000000000
40
0.1003605341
40
0.5234512627
40
1.0000000000
40
1.0000000000
40
1.0000000000
40
1.0000000000
10
98.6716571936
20
97.5874631394
30
0.0000000000
10
98.5658364650
20
97.6547628359
30
0.0000000000
10
98.0208173892
20
98.0166760133
30
0.0000000000
10
97.0451594247
20
98.7991865538
30
0.0000000000
10
96.2400411437
20
99.5838128283
30
0.0000000000
10
95.8276411002
20
100.0123915253
30
0.0000000000
11
98.6716571936
21
97.5874631394
31
0.0000000000
11
98.3581062850
21
97.7952941737
31
0.0000000000
11
97.1133781335
21
98.7751923740
31
0.0000000000
11
95.8276411002
21
100.0123915253
31
0.0000000000
0
ENDSEC
0
SECTION
2
OBJECTS
0
DICTIONARY
5
C
100
AcDbDictionary
280
0
281
1
3
ACAD_GROUP
350
D
3
ACAD_MLINESTYLE
350
17
3
ACAD_LAYOUT
350
1A
3
ACAD_PLOTSETTINGS
350
19
3
ACAD_PLOTSTYLENAME
350
E
0
DICTIONARY
5
D
102
{ACAD_REACTORS
330
C
102
}
100
AcDbDictionary
280
0
281
1
0
ACDBDICTIONARYWDFLT
5
E
102
{ACAD_REACTORS
330
C
102
}
100
AcDbDictionary
281
1
3
Normal
350
F
100
AcDbDictionaryWithDefault
340
F
0
DICTIONARY
5
17
102
{ACAD_REACTORS
330
C
102
}
100
AcDbDictionary
280
0
281
1
3
Standard
350
18
0
DICTIONARY
5
19
102
{ACAD_REACTORS
330
C
102
}
100
AcDbDictionary
281
1
0
DICTIONARY
5
1A
102
{ACAD_REACTORS
330
C
102
}
100
AcDbDictionary
281
1
3
Layout1
350
1E
3
Model
350
22
0
ACDBPLACEHOLDER
5
F
102
{ACAD_REACTORS
330
E
102
}
0
MLINESTYLE
5
18
102
{ACAD_REACTORS
330
17
102
}
100
AcDbMlineStyle
2
STANDARD
70
0
3

62
256
51
90.0
52
90.0
71
2
49
0.5
62
256
6
BYLAYER
49
-0.5
62
256
6
BYLAYER
0
LAYOUT
5
1E
102
{ACAD_REACTORS
330
1A
102
}
100
AcDbPlotSettings
1

2

4

6

40
0.0
41
0.0
42
0.0
43
0.0
44
0.0
45
0.0
46
0.0
47
0.0
48
0.0
49
0.0
140
0.0
141
0.0
142
1.0
143
1.0
70
0
72
0
73
0
74
0
7

75
0
147
1.0
148
0.0
149
0.0
100
AcDbLayout
1
Layout1
70
0
71
0
10
0.0
20
0.0
11
0.0
21
0.0
12
0.0
22
0.0
32
0.0
14
0.0
24
0.0
34
0.0
15
0.0
25
0.0
35
0.0
146
0.0
13
0.0
23
0.0
33
0.0
16
0.0
26
0.0
36
0.0
17
0.0
27
0.0
37
0.0
76
0
330
1B
331
0
345
0
346
0
0
LAYOUT
5
22
102
{ACAD_REACTORS
330
1A
102
}
100
AcDbPlotSettings
1

2

4

6

40
0.0
41
0.0
42
0.0
43
0.0
44
0.0
45
0.0
46
0.0
47
0.0
48
0.0
49
0.0
140
0.0
141
0.0
142
1.0
143
1.0
70
0
72
0
73
0
74
0
7

75
0
147
1.0
148
0.0
149
0.0
100
AcDbLayout
1
Model
70
0
71
0
10
0.0
20
0.0
11
0.0
21
0.0
12
0.0
22
0.0
32
0.0
14
0.0
24
0.0
34
0.0
15
0.0
25
0.0
35
0.0
146
0.0
13
0.0
23
0.0
33
0.0
16
0.0
26
0.0
36
0.0
17
0.0
27
0.0
37
0.0
76
0
330
1F
331
0
345
0
346
0
0
ENDSEC
0
EOF
