999
DXF file: R0623604493.dxf
999
Pro/ENGINEER 2009380 by Parametric Technology Corporation
  0
SECTION
  2
HEADER
  9
$ACADVER
  1
AC1014
  9
$DWGCODEPAGE
  3
ANSI_1252
  9
$EXTMAX
 10
210.0
 20
297.0
 30
0.0
  9
$EXTMIN
 10
0.0
 20
0.0
 30
0.0
  9
$LIMMIN
 10
0.0
 20
0.0
  9
$LIMMAX
 10
210.0
 20
297.0
  9
$VIEWCTR
 10
105.0
 20
148.5
  9
$VIEWSIZE
 40
297.0
  9
$CLAYER
  8
0
  9
$LTSCALE
 40
19.36
  9
$CELTYPE
  6
BYLAYER
  9
$DIMSCALE
 40
1.0
  9
$DIMASZ
 40
3.5
  9
$DIMEXO
 40
2.2
  9
$DIMDLI
 40
13.376
  9
$DIMEXE
 40
6.336
  9
$DIMCEN
 40
3.168
  9
$DIMLFAC
 40
1.0
  9
$DIMBLK
  1
_ARROW_FILLED
  9
$DIMTXT
 40
3.5
  9
$DIMTOL
 70
1
  9
$DIMLIM
 70
0
  9
$DIMTFAC
 40
1.0
  9
$DIMTP
 40
0.01
  9
$DIMTM
 40
0.01
  9
$PDMODE
 70
3
  9
$PDSIZE
 40
0.3125
  9
$HANDSEED
  5
273
  9
$TILEMODE
 70
1
  9
$MEASUREMENT
 70
1
  0
ENDSEC
  0
SECTION
  2
CLASSES
  0
ENDSEC
  0
SECTION
  2
TABLES
  0
TABLE
  2
VPORT
  5
8
100
AcDbSymbolTable
 70
2
  0
VPORT
  5
1F4
100
AcDbSymbolTableRecord
100
AcDbViewportTableRecord
  2
*ACTIVE
 70
0
 10
0.0
 20
0.0
 11
1.0
 21
1.0
 12
105.0
 22
148.5
 13
0.0
 23
0.0
 14
1.0
 24
1.0
 15
0.0
 25
0.0
 16
0.0
 26
0.0
 36
1.0
 17
0.0
 27
0.0
 37
0.0
 40
297.0
 41
0.7070707071
 42
50.0
 43
0.0
 44
0.0
 50
0.0
 51
0.0
 71
0
 72
100
 73
1
 74
1
 75
0
 76
0
 77
0
 78
0
  0
ENDTAB
  0
TABLE
  2
LTYPE
  5
5
100
AcDbSymbolTable
 70
6
  0
LTYPE
  5
14
100
AcDbSymbolTableRecord
100
AcDbLinetypeTableRecord
  2
BYBLOCK
 70
0
  3

 72
65
 73
0
 40
0.0
  0
LTYPE
  5
15
100
AcDbSymbolTableRecord
100
AcDbLinetypeTableRecord
  2
BYLAYER
 70
0
  3

 72
65
 73
0
 40
0.0
  0
LTYPE
  5
16
100
AcDbSymbolTableRecord
100
AcDbLinetypeTableRecord
  2
CONTINUOUS
 70
64
  3
Solid line
 72
65
 73
0
 40
0.0
  0
LTYPE
  5
1F5
100
AcDbSymbolTableRecord
100
AcDbLinetypeTableRecord
  2
CENTER
 70
64
  3
____ _ ____ _ ____ _ ____ _ ____ _ ____ _ ____
 72
65
 73
4
 40
0.6
 49
0.375
 74
0
 49
-0.075
 74
0
 49
0.075
 74
0
 49
-0.075
 74
0
  0
LTYPE
  5
1F6
100
AcDbSymbolTableRecord
100
AcDbLinetypeTableRecord
  2
HIDDEN
 70
64
  3
- - - - - - - - - - - - - - - - - - - -
 72
65
 73
2
 40
0.2
 49
0.1
 74
0
 49
-0.1
 74
0
  0
LTYPE
  5
1F7
100
AcDbSymbolTableRecord
100
AcDbLinetypeTableRecord
  2
PHANTOM
 70
64
  3
_____ _ _ _____ _ _ _____ _ _ _____
 72
65
 73
6
 40
0.8
 49
0.45
 74
0
 49
-0.05
 74
0
 49
0.1
 74
0
 49
-0.05
 74
0
 49
0.1
 74
0
 49
-0.05
 74
0
  0
LTYPE
  5
1F8
100
AcDbSymbolTableRecord
100
AcDbLinetypeTableRecord
  2
DOT
 70
64
  3
. . . . . . . . . . . . . . . . . . . .
 72
65
 73
2
 40
0.2
 49
0.1
 74
0
 49
-0.1
 74
0
  0
LTYPE
  5
1F9
100
AcDbSymbolTableRecord
100
AcDbLinetypeTableRecord
  2
DASHED
 70
64
  3
- - - - - - - - - - - - - - - - - - - -
 72
65
 73
2
 40
0.2
 49
0.1
 74
0
 49
-0.1
 74
0
  0
ENDTAB
  0
TABLE
  2
LAYER
  5
2
100
AcDbSymbolTable
 70
36
  0
LAYER
  5
10
100
AcDbSymbolTableRecord
100
AcDbLayerTableRecord
  2
0
 70
0
 62
7
  6
CONTINUOUS
  0
LAYER
  5
1FA
100
AcDbSymbolTableRecord
100
AcDbLayerTableRecord
  2
DEFAULT_1
 70
0
 62
7
  6
CENTER
  0
LAYER
  5
1FB
100
AcDbSymbolTableRecord
100
AcDbLayerTableRecord
  2
DEFAULT_2
 70
0
 62
8
  6
HIDDEN
  0
LAYER
  5
1FC
100
AcDbSymbolTableRecord
100
AcDbLayerTableRecord
  2
DEFAULT_3
 70
0
 62
7
  6
PHANTOM
  0
LAYER
  5
1FD
100
AcDbSymbolTableRecord
100
AcDbLayerTableRecord
  2
ASSI
 70
0
 62
7
  6
CONTINUOUS
  0
LAYER
  5
1FE
100
AcDbSymbolTableRecord
100
AcDbLayerTableRecord
  2
PIANI
 70
0
 62
7
  6
CONTINUOUS
  0
ENDTAB
  0
TABLE
  2
STYLE
  5
3
100
AcDbSymbolTable
 70
1
  0
STYLE
  5
11
100
AcDbSymbolTableRecord
100
AcDbTextStyleTableRecord
  2
STANDARD
 70
0
 40
0.0
 41
0.5
 50
0.0
 71
0
 42
0.2
  3
txt
  4

  0
STYLE
  5
1FF
100
AcDbSymbolTableRecord
100
AcDbTextStyleTableRecord
  2
TEXTSTYLE_1
 70
0
 40
0.0
 41
0.8
 50
0.0
 71
0
 42
0.2
  3
gdt
  4

  0
ENDTAB
  0
TABLE
  2
VIEW
  5
6
100
AcDbSymbolTable
 70
0
  0
ENDTAB
  0
TABLE
  2
UCS
  5
7
100
AcDbSymbolTable
 70
0
  0
ENDTAB
  0
TABLE
  2
APPID
  5
9
100
AcDbSymbolTable
 70
1
  0
APPID
  5
200
100
AcDbSymbolTableRecord
100
AcDbRegAppTableRecord
  2
ACAD
 70
0
  0
ENDTAB
  0
TABLE
  2
BLOCK_RECORD
  5
1
100
AcDbSymbolTable
 70
0
  0
BLOCK_RECORD
  5
1F
100
AcDbSymbolTableRecord
100
AcDbBlockTableRecord
  2
*MODEL_SPACE
  0
BLOCK_RECORD
  5
1B
100
AcDbSymbolTableRecord
100
AcDbBlockTableRecord
  2
*PAPER_SPACE
  0
BLOCK_RECORD
  5
201
100
AcDbSymbolTableRecord
100
AcDbBlockTableRecord
  2
_ARROW_FILLED
  0
BLOCK_RECORD
  5
202
100
AcDbSymbolTableRecord
100
AcDbBlockTableRecord
  2
*D0
  0
BLOCK_RECORD
  5
203
100
AcDbSymbolTableRecord
100
AcDbBlockTableRecord
  2
*D1
  0
BLOCK_RECORD
  5
204
100
AcDbSymbolTableRecord
100
AcDbBlockTableRecord
  2
*D2
  0
ENDTAB
  0
TABLE
  2
DIMSTYLE
  5
A
100
AcDbSymbolTable
 70
1
  0
DIMSTYLE
105
205
100
AcDbSymbolTableRecord
100
AcDbDimStyleTableRecord
  2
STANDARD
 70
0
  3

  4

  5
_ARROW_FILLED
  6
_ARROW_FILLED
  7
_ARROW_FILLED
 40
1.0
 41
3.5
 42
0.0625
 43
0.38
 44
0.18
 45
0.0
 46
0.0
 47
0.01
 48
0.01
140
3.5
141
0.09
142
0.0
143
25.4
144
1.0
145
0.0
146
1.0
147
0.09
 71
1.0
 72
0.0
 73
0
 74
0
 75
0
 76
0
 77
1
 78
8
170
0
171
2
172
0
173
0
174
0
175
0
176
0
177
0
178
0
270
2
271
2
272
2
273
2
274
2
275
0
280
0
281
0
282
0
283
1
284
8
285
0
286
0
287
3
288
0
340
11
  0
DIMSTYLE
105
206
100
AcDbSymbolTableRecord
100
AcDbDimStyleTableRecord
  2
DIMSTYLE_1
 70
0
  3

  4

  5
_ARROW_FILLED
  6
_ARROW_FILLED
  7
_ARROW_FILLED
 40
1.0
 41
3.5
 42
0.0625
 43
0.38
 44
0.18
 45
0.0
 46
0.0
 47
0.15
 48
0.15
140
3.5
141
0.09
142
0.0
143
25.4
144
1.0
145
0.0
146
1.0
147
0.09
 71
0.0
 72
0.0
 73
0
 74
0
 75
0
 76
0
 77
1
 78
8
170
0
171
2
172
0
173
0
174
0
175
0
176
0
177
0
178
0
270
2
271
2
272
2
273
2
274
2
275
0
280
0
281
0
282
0
283
1
284
8
285
0
286
0
287
3
288
0
340
11
  0
DIMSTYLE
105
207
100
AcDbSymbolTableRecord
100
AcDbDimStyleTableRecord
  2
DIMSTYLE_2
 70
0
  3

  4

  5
_ARROW_FILLED
  6
_ARROW_FILLED
  7
_ARROW_FILLED
 40
1.0
 41
3.5
 42
0.0625
 43
0.38
 44
0.18
 45
0.0
 46
0.0
 47
0.2
 48
0.2
140
3.5
141
0.09
142
0.0
143
25.4
144
1.0
145
0.0
146
1.0
147
0.09
 71
0.0
 72
0.0
 73
0
 74
0
 75
0
 76
0
 77
1
 78
8
170
0
171
2
172
0
173
0
174
0
175
0
176
0
177
0
178
0
270
2
271
1
272
1
273
2
274
2
275
0
280
0
281
0
282
0
283
1
284
8
285
0
286
0
287
3
288
0
340
11
  0
DIMSTYLE
105
208
100
AcDbSymbolTableRecord
100
AcDbDimStyleTableRecord
  2
DIMSTYLE_3
 70
0
  3

  4

  5
_ARROW_FILLED
  6
_ARROW_FILLED
  7
_ARROW_FILLED
 40
1.0
 41
3.5
 42
0.0625
 43
0.38
 44
0.18
 45
0.0
 46
0.0
 47
0.1
 48
0.1
140
3.5
141
0.09
142
0.0
143
25.4
144
1.0
145
0.0
146
1.0
147
0.09
 71
0.0
 72
0.0
 73
0
 74
0
 75
0
 76
0
 77
1
 78
8
170
0
171
2
172
0
173
0
174
0
175
0
176
0
177
0
178
0
270
2
271
2
272
2
273
2
274
2
275
0
280
0
281
0
282
0
283
1
284
8
285
0
286
0
287
3
288
0
340
11
  0
ENDTAB
  0
ENDSEC
  0
SECTION
  2
BLOCKS
  0
BLOCK
  5
20
100
AcDbEntity
  8
0
100
AcDbBlockBegin
  2
*MODEL_SPACE
 70
0
 10
0.0
 20
0.0
 30
0.0
  3
*MODEL_SPACE
  1

  0
ENDBLK
  5
21
100
AcDbEntity
  8
0
100
AcDbBlockEnd
  0
BLOCK
  5
1C
100
AcDbEntity
  8
0
100
AcDbBlockBegin
  2
*PAPER_SPACE
 70
0
 10
0.0
 20
0.0
 30
0.0
  3
*PAPER_SPACE
  1

  0
ENDBLK
  5
1D
100
AcDbEntity
  8
0
100
AcDbBlockEnd
  0
BLOCK
  5
209
100
AcDbEntity
  8
0
100
AcDbBlockBegin
  2
_ARROW_FILLED
 70
64
 10
0.0
 20
0.0
  3
_ARROW_FILLED
  1

  0
SOLID
  5
20A
100
AcDbEntity
  8
0
  6
BYBLOCK
 62
0
100
AcDbTrace
 10
0.0
 20
0.0
 11
-1.0
 21
0.1857142857
 12
-1.0
 22
-0.1857142857
 13
-1.0
 23
-0.1857142857
  0
ENDBLK
  5
20B
100
AcDbEntity
  8
0
  6
BYBLOCK
 62
0
100
AcDbBlockEnd
  0
BLOCK
  5
20C
100
AcDbEntity
  8
0
100
AcDbBlockBegin
 62
2
  6
CONTINUOUS
  2
*D0
 70
65
 10
0.0
 20
0.0
  3
*D0
  1

  0
MTEXT
  5
20D
100
AcDbEntity
  8
0
100
AcDbMText
 62
2
  6
CONTINUOUS
  7
STANDARD
 71
2
 72
1
 10
108.3460300429
 20
33.190294578
 30
0.0
 11
1.0
 21
0.0
 31
0.0
  1
102.4
 40
3.5
 41
8.75
  0
LINE
  5
20E
100
AcDbEntity
  8
0
100
AcDbLine
 62
2
  6
CONTINUOUS
 10
159.5460300429
 20
53.1177467811
 11
159.5460300429
 21
27.315294578
  0
LINE
  5
20F
100
AcDbEntity
  8
0
100
AcDbLine
 62
2
  6
CONTINUOUS
 10
57.1460300429
 20
53.1177467811
 11
57.1460300429
 21
27.315294578
  0
LINE
  5
210
100
AcDbEntity
  8
0
100
AcDbLine
 62
2
  6
CONTINUOUS
 10
159.5460300429
 20
28.815294578
 11
108.3460300429
 21
28.815294578
  0
LINE
  5
211
100
AcDbEntity
  8
0
100
AcDbLine
 62
2
  6
CONTINUOUS
 10
57.1460300429
 20
28.815294578
 11
108.3460300429
 21
28.815294578
  0
INSERT
  5
212
100
AcDbEntity
  8
0
100
AcDbBlockReference
 62
2
  6
CONTINUOUS
  2
_ARROW_FILLED
 10
159.5460300429
 20
28.815294578
 41
3.5
 42
3.5
 43
3.5
 50
360.0
  0
INSERT
  5
213
100
AcDbEntity
  8
0
100
AcDbBlockReference
 62
2
  6
CONTINUOUS
  2
_ARROW_FILLED
 10
57.1460300429
 20
28.815294578
 41
3.5
 42
3.5
 43
3.5
 50
180.0
  0
ENDBLK
  5
214
100
AcDbEntity
  8
0
  6
BYBLOCK
 62
0
100
AcDbBlockEnd
  0
BLOCK
  5
215
100
AcDbEntity
  8
0
100
AcDbBlockBegin
 62
2
  6
CONTINUOUS
  2
*D1
 70
65
 10
0.0
 20
0.0
  3
*D1
  1

  0
MTEXT
  5
216
100
AcDbEntity
  8
0
100
AcDbMText
 62
2
  6
CONTINUOUS
  7
STANDARD
 71
2
 72
1
 10
40.5594458778
 20
157.4227467811
 30
0.0
 11
0.0
 21
1.0
 31
0.0
  1
224.2
 40
3.5
 41
8.75
  0
LINE
  5
217
100
AcDbEntity
  8
0
100
AcDbLine
 62
2
  6
CONTINUOUS
 10
58.6299791777
 20
45.3177467811
 11
43.4344458778
 21
45.3177467811
  0
LINE
  5
218
100
AcDbEntity
  8
0
100
AcDbLine
 62
2
  6
CONTINUOUS
 10
99.2894057159
 20
269.5277467811
 11
43.4344458778
 21
269.5277467811
  0
LINE
  5
219
100
AcDbEntity
  8
0
100
AcDbLine
 62
2
  6
CONTINUOUS
 10
44.9344458778
 20
45.3177467811
 11
44.9344458778
 21
157.4227467811
  0
LINE
  5
21A
100
AcDbEntity
  8
0
100
AcDbLine
 62
2
  6
CONTINUOUS
 10
44.9344458778
 20
269.5277467811
 11
44.9344458778
 21
157.4227467811
  0
INSERT
  5
21B
100
AcDbEntity
  8
0
100
AcDbBlockReference
 62
2
  6
CONTINUOUS
  2
_ARROW_FILLED
 10
44.9344458778
 20
45.3177467811
 41
3.5
 42
3.5
 43
3.5
 50
270.0
  0
INSERT
  5
21C
100
AcDbEntity
  8
0
100
AcDbBlockReference
 62
2
  6
CONTINUOUS
  2
_ARROW_FILLED
 10
44.9344458778
 20
269.5277467811
 41
3.5
 42
3.5
 43
3.5
 50
90.0
  0
ENDBLK
  5
21D
100
AcDbEntity
  8
0
  6
BYBLOCK
 62
0
100
AcDbBlockEnd
  0
BLOCK
  5
21E
100
AcDbEntity
  8
0
100
AcDbBlockBegin
 62
2
  6
CONTINUOUS
  2
*D2
 70
65
 10
0.0
 20
0.0
  3
*D2
  1

  0
MTEXT
  5
21F
100
AcDbEntity
  8
0
100
AcDbMText
 62
2
  6
CONTINUOUS
  7
STANDARD
 71
2
 72
1
 10
108.3460300429
 20
286.0788626609
 30
0.0
 11
1.0
 21
0.0
 31
0.0
  1
M20
 40
3.5
 41
5.25
  0
LINE
  5
220
100
AcDbEntity
  8
0
100
AcDbLine
 62
2
  6
CONTINUOUS
 10
98.3460300429
 20
267.5277467811
 11
98.3460300429
 21
283.2038626609
  0
LINE
  5
221
100
AcDbEntity
  8
0
100
AcDbLine
 62
2
  6
CONTINUOUS
 10
118.3460300429
 20
267.5277467811
 11
118.3460300429
 21
283.2038626609
  0
LINE
  5
222
100
AcDbEntity
  8
0
100
AcDbLine
 62
2
  6
CONTINUOUS
 10
98.3460300429
 20
281.7038626609
 11
108.3460300429
 21
281.7038626609
  0
LINE
  5
223
100
AcDbEntity
  8
0
100
AcDbLine
 62
2
  6
CONTINUOUS
 10
118.3460300429
 20
281.7038626609
 11
108.3460300429
 21
281.7038626609
  0
INSERT
  5
224
100
AcDbEntity
  8
0
100
AcDbBlockReference
 62
2
  6
CONTINUOUS
  2
_ARROW_FILLED
 10
98.3460300429
 20
281.7038626609
 41
3.5
 42
3.5
 43
3.5
 50
180.0
  0
INSERT
  5
225
100
AcDbEntity
  8
0
100
AcDbBlockReference
 62
2
  6
CONTINUOUS
  2
_ARROW_FILLED
 10
118.3460300429
 20
281.7038626609
 41
3.5
 42
3.5
 43
3.5
  0
ENDBLK
  5
226
100
AcDbEntity
  8
0
  6
BYBLOCK
 62
0
100
AcDbBlockEnd
  0
ENDSEC
  0
SECTION
  2
ENTITIES
  0
DIMENSION
  5
227
100
AcDbEntity
  8
0
100
AcDbDimension
 62
2
  6
CONTINUOUS
  2
*D0
 10
57.1460300429
 20
28.815294578
 11
103.9710300429
 21
31.440294578
 70
160
  3
DIMSTYLE_1
100
AcDbAlignedDimension
 13
159.5460300429
 23
53.1177467811
 14
57.1460300429
 24
53.1177467811
 50
180.0
100
AcDbRotatedDimension
  0
DIMENSION
  5
228
100
AcDbEntity
  8
0
100
AcDbDimension
 62
2
  6
CONTINUOUS
  2
*D1
 10
44.9344458778
 20
269.5277467811
 11
44.2697679484
 21
153.5115113779
 70
160
  3
DIMSTYLE_2
100
AcDbAlignedDimension
 13
58.6299791777
 23
45.3177467811
 14
99.2894057159
 24
269.5277467811
 50
90.0
100
AcDbRotatedDimension
  0
DIMENSION
  5
229
100
AcDbEntity
  8
0
100
AcDbDimension
 62
2
  6
CONTINUOUS
  2
*D2
 10
118.3460300429
 20
281.7038626609
 11
107.0335300429
 21
284.3288626609
 70
160
  1
M<>
  3
DIMSTYLE_3
100
AcDbAlignedDimension
 13
98.3460300429
 23
267.5277467811
 14
118.3460300429
 24
267.5277467811
100
AcDbRotatedDimension
  0
LINE
  5
22A
100
AcDbEntity
  8
0
100
AcDbLine
 62
7
  6
CONTINUOUS
 10
0.0
 20
0.0
 11
210.0
 21
0.0
  0
LINE
  5
22B
100
AcDbEntity
  8
0
100
AcDbLine
 62
7
  6
CONTINUOUS
 10
0.0
 20
0.0
 11
0.0
 21
297.0
  0
LINE
  5
22C
100
AcDbEntity
  8
0
100
AcDbLine
 62
7
  6
CONTINUOUS
 10
210.0
 20
0.0
 11
210.0
 21
297.0
  0
LINE
  5
22D
100
AcDbEntity
  8
0
100
AcDbLine
 62
7
  6
CONTINUOUS
 10
0.0
 20
297.0
 11
210.0
 21
297.0
  0
LINE
  5
22E
100
AcDbEntity
  8
0
100
AcDbLine
 62
7
  6
CONTINUOUS
 10
59.1299791777
 20
45.3177467811
 11
157.5620809082
 21
45.3177467811
  0
LINE
  5
22F
100
AcDbEntity
  8
0
100
AcDbLine
 62
7
  6
CONTINUOUS
 10
58.1313496429
 20
46.2654108249
 11
158.5607104429
 21
46.2654108249
  0
LINE
  5
230
100
AcDbEntity
  8
0
100
AcDbLine
 62
7
  6
CONTINUOUS
 10
159.5460300429
 20
53.6177467811
 11
57.1460300429
 21
53.6177467811
  0
LINE
  5
231
100
AcDbEntity
  8
0
100
AcDbLine
 62
7
  6
CONTINUOUS
 10
158.0901491059
 20
57.6177467811
 11
58.60191098
 21
57.6177467811
  0
LINE
  5
232
100
AcDbEntity
  8
0
100
AcDbLine
 62
7
  6
CONTINUOUS
 10
63.0388366467
 20
62.857799752
 11
153.6532234391
 21
62.857799752
  0
LINE
  5
233
100
AcDbEntity
  8
0
100
AcDbLine
 62
7
  6
CONTINUOUS
 10
126.8460300429
 20
70.2177467811
 11
89.8460300429
 21
70.2177467811
  0
LINE
  5
234
100
AcDbEntity
  8
0
100
AcDbLine
 62
7
  6
CONTINUOUS
 10
124.3460300429
 20
70.5177467811
 11
92.3460300429
 21
70.5177467811
  0
LINE
  5
235
100
AcDbEntity
  8
0
100
AcDbLine
 62
7
  6
CONTINUOUS
 10
114.5960300429
 20
75.3635332187
 11
102.0960300429
 21
75.3635332187
  0
LINE
  5
236
100
AcDbEntity
  8
0
100
AcDbLine
 62
7
  6
CONTINUOUS
 10
114.8889232617
 20
76.0706399999
 11
101.8031368241
 21
76.0706399999
  0
LINE
  5
237
100
AcDbEntity
  8
0
100
AcDbLine
 62
7
  6
CONTINUOUS
 10
98.7853698711
 20
79.0884069529
 11
103.1109347314
 21
79.0884069529
  0
LINE
  5
238
100
AcDbEntity
  8
0
100
AcDbLine
 62
7
  6
CONTINUOUS
 10
113.5811253544
 20
79.0884069529
 11
117.9066902147
 21
79.0884069529
  0
LINE
  5
239
100
AcDbEntity
  8
0
100
AcDbLine
 62
7
  6
CONTINUOUS
 10
98.3460300429
 20
80.1490671247
 11
102.3460300429
 21
80.1490671247
  0
LINE
  5
23A
100
AcDbEntity
  8
0
100
AcDbLine
 62
7
  6
CONTINUOUS
 10
114.3460300429
 20
80.1490671247
 11
118.3460300429
 21
80.1490671247
  0
LINE
  5
23B
100
AcDbEntity
  8
0
100
AcDbLine
 62
7
  6
CONTINUOUS
 10
114.3460300429
 20
91.7777467811
 11
102.3460300429
 21
91.7777467811
  0
LINE
  5
23C
100
AcDbEntity
  8
0
100
AcDbLine
 62
7
  6
CONTINUOUS
 10
99.7894057159
 20
269.5277467811
 11
98.3460300429
 21
267.0277467811
  0
LINE
  5
23D
100
AcDbEntity
  8
0
100
AcDbLine
 62
7
  6
CONTINUOUS
 10
96.3460300429
 20
99.5277467811
 11
120.3460300429
 21
99.5277467811
  0
LINE
  5
23E
100
AcDbEntity
  8
0
100
AcDbLine
 62
7
  6
CONTINUOUS
 10
98.7853698711
 20
79.0884069529
 11
101.8031368241
 21
76.0706399999
  0
LINE
  5
23F
100
AcDbEntity
  8
0
100
AcDbLine
 62
7
  6
CONTINUOUS
 10
57.7460300429
 20
53.6177467811
 11
58.1313496429
 21
46.2654108249
  0
LINE
  5
240
100
AcDbEntity
  8
0
100
AcDbLine
 62
7
  6
CONTINUOUS
 10
94.5960300429
 20
109.5277467811
 11
96.3460300429
 21
109.5277467811
  0
LINE
  5
241
100
AcDbEntity
  8
0
100
AcDbLine
 62
7
  6
CONTINUOUS
 10
96.5325220658
 20
109.5277467811
 11
108.15953802
 21
109.5277467811
  0
LINE
  5
242
100
AcDbEntity
  8
0
100
AcDbLine
 62
7
  6
CONTINUOUS
 10
108.5325220658
 20
109.5277467811
 11
120.15953802
 21
109.5277467811
  0
LINE
  5
243
100
AcDbEntity
  8
0
100
AcDbLine
 62
7
  6
CONTINUOUS
 10
120.3460300429
 20
109.5277467811
 11
122.0960300429
 21
109.5277467811
  0
LINE
  5
244
100
AcDbEntity
  8
0
100
AcDbLine
 62
7
  6
CONTINUOUS
 10
94.5960300429
 20
109.5277467811
 11
94.5960300429
 21
178.0277467811
  0
LINE
  5
245
100
AcDbEntity
  8
0
100
AcDbLine
 62
7
  6
CONTINUOUS
 10
96.3460300429
 20
99.5277467811
 11
96.3460300429
 21
109.5277467811
  0
LINE
  5
246
100
AcDbEntity
  8
0
100
AcDbLine
 62
7
  6
CONTINUOUS
 10
96.5325220658
 20
99.5277467811
 11
96.5325220658
 21
109.5277467811
  0
LINE
  5
247
100
AcDbEntity
  8
0
100
AcDbLine
 62
7
  6
CONTINUOUS
 10
98.3460300429
 20
267.0277467811
 11
98.3460300429
 21
179.5277467811
  0
LINE
  5
248
100
AcDbEntity
  8
0
100
AcDbLine
 62
7
  6
CONTINUOUS
 10
98.3460300429
 20
99.5277467811
 11
98.3460300429
 21
80.1490671247
  0
LINE
  5
249
100
AcDbEntity
  8
0
100
AcDbLine
 62
7
  6
CONTINUOUS
 10
58.60191098
 20
57.6177467811
 11
57.1460300429
 21
53.6177467811
  0
LINE
  5
24A
100
AcDbEntity
  8
0
100
AcDbLine
 62
7
  6
CONTINUOUS
 10
102.0960300429
 20
75.3635332187
 11
102.0960300429
 21
70.5177467811
  0
LINE
  5
24B
100
AcDbEntity
  8
0
100
AcDbLine
 62
7
  6
CONTINUOUS
 10
102.3460300429
 20
91.7777467811
 11
102.3460300429
 21
80.1490671247
  0
LINE
  5
24C
100
AcDbEntity
  8
0
100
AcDbLine
 62
7
  6
CONTINUOUS
 10
108.15953802
 20
99.5277467811
 11
108.15953802
 21
109.5277467811
  0
LINE
  5
24D
100
AcDbEntity
  8
0
100
AcDbLine
 62
7
  6
CONTINUOUS
 10
108.5325220658
 20
99.5277467811
 11
108.5325220658
 21
109.5277467811
  0
LINE
  5
24E
100
AcDbEntity
  8
0
100
AcDbLine
 62
7
  6
CONTINUOUS
 10
114.3460300429
 20
80.1490671247
 11
114.3460300429
 21
91.7777467811
  0
LINE
  5
24F
100
AcDbEntity
  8
0
100
AcDbLine
 62
7
  6
CONTINUOUS
 10
114.5960300429
 20
75.3635332187
 11
114.5960300429
 21
70.5177467811
  0
LINE
  5
250
100
AcDbEntity
  8
0
100
AcDbLine
 62
7
  6
CONTINUOUS
 10
118.3460300429
 20
267.0277467811
 11
118.3460300429
 21
179.5277467811
  0
LINE
  5
251
100
AcDbEntity
  8
0
100
AcDbLine
 62
7
  6
CONTINUOUS
 10
118.3460300429
 20
99.5277467811
 11
118.3460300429
 21
80.1490671247
  0
LINE
  5
252
100
AcDbEntity
  8
0
100
AcDbLine
 62
7
  6
CONTINUOUS
 10
120.15953802
 20
99.5277467811
 11
120.15953802
 21
109.5277467811
  0
LINE
  5
253
100
AcDbEntity
  8
0
100
AcDbLine
 62
7
  6
CONTINUOUS
 10
120.3460300429
 20
99.5277467811
 11
120.3460300429
 21
109.5277467811
  0
LINE
  5
254
100
AcDbEntity
  8
0
100
AcDbLine
 62
7
  6
CONTINUOUS
 10
122.0960300429
 20
109.5277467811
 11
122.0960300429
 21
178.0277467811
  0
LINE
  5
255
100
AcDbEntity
  8
0
100
AcDbLine
 62
7
  6
CONTINUOUS
 10
159.5460300429
 20
53.6177467811
 11
158.0901491059
 21
57.6177467811
  0
LINE
  5
256
100
AcDbEntity
  8
0
100
AcDbLine
 62
7
  6
CONTINUOUS
 10
94.5960300429
 20
178.0277467811
 11
122.0960300429
 21
178.0277467811
  0
LINE
  5
257
100
AcDbEntity
  8
0
100
AcDbLine
 62
7
  6
CONTINUOUS
 10
96.0960300429
 20
179.5277467811
 11
120.5960300429
 21
179.5277467811
  0
LINE
  5
258
100
AcDbEntity
  8
0
100
AcDbLine
 62
7
  6
CONTINUOUS
 10
158.9460300429
 20
53.6177467811
 11
158.5607104429
 21
46.2654108249
  0
LINE
  5
259
100
AcDbEntity
  8
0
100
AcDbLine
 62
7
  6
CONTINUOUS
 10
117.9066902147
 20
79.0884069529
 11
114.8889232617
 21
76.0706399999
  0
LINE
  5
25A
100
AcDbEntity
  8
0
100
AcDbLine
 62
7
  6
CONTINUOUS
 10
116.9026543699
 20
269.5277467811
 11
118.3460300429
 21
267.0277467811
  0
LINE
  5
25B
100
AcDbEntity
  8
0
100
AcDbLine
 62
7
  6
CONTINUOUS
 10
118.3460300429
 20
267.0277467811
 11
98.3460300429
 21
267.0277467811
  0
LINE
  5
25C
100
AcDbEntity
  8
0
100
AcDbLine
 62
7
  6
CONTINUOUS
 10
99.7894057159
 20
269.5277467811
 11
116.9026543699
 21
269.5277467811
  0
ARC
  5
25D
100
AcDbEntity
  8
0
100
AcDbCircle
 62
7
  6
CONTINUOUS
 10
89.8460300429
 20
17.7177467811
 40
52.5
100
AcDbArc
 50
90.0
 51
120.7046838246
  0
ARC
  5
25E
100
AcDbEntity
  8
0
100
AcDbCircle
 62
7
  6
CONTINUOUS
 10
68.1960300429
 20
54.173713371
 40
10.1
100
AcDbArc
 50
120.7046838246
 51
160.0625906587
  0
ARC
  5
25F
100
AcDbEntity
  8
0
100
AcDbCircle
 62
7
  6
CONTINUOUS
 10
92.3460300429
 20
66.6577467811
 40
3.86
100
AcDbArc
 50
90.0
 51
112.7383188905
  0
ARC
  5
260
100
AcDbEntity
  8
0
100
AcDbCircle
 62
7
  6
CONTINUOUS
 10
99.8460300429
 20
80.1490671247
 40
1.5
100
AcDbArc
 50
180.0
 51
225.0
  0
ARC
  5
261
100
AcDbEntity
  8
0
100
AcDbCircle
 62
7
  6
CONTINUOUS
 10
101.0960300429
 20
75.3635332187
 40
1.0
100
AcDbArc
 50
0.0
 51
45.0000000175
  0
ARC
  5
262
100
AcDbEntity
  8
0
100
AcDbCircle
 62
7
  6
CONTINUOUS
 10
59.1299791777
 20
46.3177467811
 40
1.0
100
AcDbArc
 50
183.0
 51
270.0
  0
ARC
  5
263
100
AcDbEntity
  8
0
100
AcDbCircle
 62
7
  6
CONTINUOUS
 10
96.0960300429
 20
178.0277467811
 40
1.5
100
AcDbArc
 50
90.0
 51
180.0
  0
ARC
  5
264
100
AcDbEntity
  8
0
100
AcDbCircle
 62
7
  6
CONTINUOUS
 10
126.8460300429
 20
17.7177467811
 40
52.5
100
AcDbArc
 50
59.2953161754
 51
90.0
  0
ARC
  5
265
100
AcDbEntity
  8
0
100
AcDbCircle
 62
7
  6
CONTINUOUS
 10
148.4960300429
 20
54.173713371
 40
10.1
100
AcDbArc
 50
19.9374093413
 51
59.2953161754
  0
ARC
  5
266
100
AcDbEntity
  8
0
100
AcDbCircle
 62
7
  6
CONTINUOUS
 10
124.3460300429
 20
66.6577467811
 40
3.86
100
AcDbArc
 50
67.2616811095
 51
90.0
  0
ARC
  5
267
100
AcDbEntity
  8
0
100
AcDbCircle
 62
7
  6
CONTINUOUS
 10
116.8460300429
 20
80.1490671247
 40
1.5
100
AcDbArc
 50
315.0
 51
360.0
  0
ARC
  5
268
100
AcDbEntity
  8
0
100
AcDbCircle
 62
7
  6
CONTINUOUS
 10
115.5960300429
 20
75.3635332187
 40
1.0
100
AcDbArc
 50
134.9999999842
 51
180.0
  0
ARC
  5
269
100
AcDbEntity
  8
0
100
AcDbCircle
 62
7
  6
CONTINUOUS
 10
157.5620809082
 20
46.3177467811
 40
1.0
100
AcDbArc
 50
270.0
 51
357.0
  0
ARC
  5
26A
100
AcDbEntity
  8
0
100
AcDbCircle
 62
7
  6
CONTINUOUS
 10
120.5960300429
 20
178.0277467811
 40
1.5
100
AcDbArc
 50
0.0
 51
90.0
  0
SPLINE
  5
26B
100
AcDbEntity
  8
0
100
AcDbSpline
 62
7
  6
CONTINUOUS
 70
0
 71
3
 72
12
 73
8
 74
6
 42
0.0000001
 43
0.0000001
 44
0.0000000001
 12
1.201769632
 22
0.6580485503
 32
0.0
 13
0.0
 23
1.3701380014
 33
0.0
 40
0.0
 40
0.0
 40
0.0
 40
0.0
 40
0.2501879449
 40
0.500158796
 40
0.7497625958
 40
0.8748839387
 40
1.0
 40
1.0
 40
1.0
 40
1.0
 10
113.5811253544
 20
79.0884069529
 30
0.0
 10
113.6813481125
 20
79.1432855577
 30
0.0
 10
113.8741771805
 20
79.2680585132
 30
0.0
 10
114.1223484573
 20
79.5077927506
 30
0.0
 10
114.2712510967
 20
79.7570064787
 30
0.0
 10
114.3350078075
 20
79.9773405866
 30
0.0
 10
114.3460300429
 20
80.0919250346
 30
0.0
 10
114.3460300429
 20
80.1490671247
 30
0.0
 11
113.5811253544
 21
79.0884069529
 31
0.0
 11
113.8674358065
 21
79.2769081138
 31
0.0
 11
114.1108828385
 21
79.5178148755
 31
0.0
 11
114.2825000361
 21
79.8136287142
 31
0.0
 11
114.3297841283
 21
79.9784123962
 31
0.0
 11
114.3460300429
 21
80.1490671247
 31
0.0
  0
SPLINE
  5
26C
100
AcDbEntity
  8
0
100
AcDbSpline
 62
7
  6
CONTINUOUS
 70
0
 71
3
 72
17
 73
13
 74
11
 42
0.0000001
 43
0.0000001
 44
0.0000000001
 12
-9.682066349
 22
-5.3015732427
 32
0.0
 13
-9.682066349
 23
5.3015732427
 33
0.0
 40
0.0
 40
0.0
 40
0.0
 40
0.0
 40
0.1250191876
 40
0.2500132772
 40
0.3749690375
 40
0.4374849601
 40
0.5000000002
 40
0.5625150402
 40
0.6250309627
 40
0.7499867227
 40
0.8749808124
 40
1.0
 40
1.0
 40
1.0
 40
1.0
 10
113.5811253544
 20
79.0884069529
 30
0.0
 10
113.1776439981
 20
78.8674741597
 30
0.0
 10
112.3553012153
 20
78.4526638083
 30
0.0
 10
111.0686676336
 20
77.9476818387
 30
0.0
 10
109.9495880891
 20
77.6651546022
 30
0.0
 10
109.0363280049
 20
77.5477057458
 30
0.0
 10
108.3460300408
 20
77.5177733167
 30
0.0
 10
107.6557320772
 20
77.5477057462
 30
0.0
 10
106.7424719952
 20
77.6651546027
 30
0.0
 10
105.623392452
 20
77.9476818388
 30
0.0
 10
104.336758871
 20
78.452663808
 30
0.0
 10
103.5144160877
 20
78.8674741597
 30
0.0
 10
103.1109347314
 20
79.0884069529
 30
0.0
 11
113.5811253544
 21
79.0884069529
 31
0.0
 11
112.3463345486
 21
78.4721535941
 31
0.0
 11
111.0591513304
 21
77.9752921273
 31
0.0
 11
109.7199841675
 21
77.644874361
 31
0.0
 11
109.0354666891
 21
77.5574022416
 31
0.0
 11
108.3460300404
 21
77.5277507462
 31
0.0
 11
107.6565933928
 21
77.557402242
 31
0.0
 11
106.9720759161
 21
77.6448743614
 31
0.0
 11
105.632908757
 21
77.9752921268
 31
0.0
 11
104.3457255371
 21
78.4721535941
 31
0.0
 11
103.1109347314
 21
79.0884069529
 31
0.0
  0
SPLINE
  5
26D
100
AcDbEntity
  8
0
100
AcDbSpline
 62
7
  6
CONTINUOUS
 70
0
 71
3
 72
12
 73
8
 74
6
 42
0.0000001
 43
0.0000001
 44
0.0000000001
 12
0.0
 22
-1.3701379982
 32
0.0
 13
1.2017696291
 23
-0.6580485487
 33
0.0
 40
0.0
 40
0.0
 40
0.0
 40
0.0
 40
0.1251159882
 40
0.2502373258
 40
0.4998412067
 40
0.7498120378
 40
1.0
 40
1.0
 40
1.0
 40
1.0
 10
102.3460300429
 20
80.1490671247
 30
0.0
 10
102.3460300429
 20
80.0919250681
 30
0.0
 10
102.3570522701
 20
79.9773406565
 30
0.0
 10
102.4208089646
 20
79.7570065437
 30
0.0
 10
102.5697115975
 20
79.5077927785
 30
0.0
 10
102.8178829025
 20
79.2680585193
 30
0.0
 10
103.0107119666
 20
79.1432855614
 30
0.0
 10
103.1109347314
 20
79.0884069529
 30
0.0
 11
102.3460300429
 21
80.1490671247
 31
0.0
 11
102.3622759409
 21
79.9784124956
 31
0.0
 11
102.4095600171
 21
79.813628817
 31
0.0
 11
102.5811772509
 21
79.5178148719
 31
0.0
 11
102.8246242619
 21
79.2769081291
 31
0.0
 11
103.1109347314
 21
79.0884069529
 31
0.0
  0
ELLIPSE
  5
26E
100
AcDbEntity
  8
0
100
AcDbEllipse
 62
7
  6
CONTINUOUS
 10
108.3460300429
 20
87.1589446276
 30
0.0
 11
10.0
 21
-0.0
 31
0.0
 40
0.5773502692
 41
0.927295218
 42
2.2142974356
  0
ENDSEC
  0
SECTION
  2
OBJECTS
  0
DICTIONARY
  5
26F
100
AcDbDictionary
  3
ACAD_GROUP
350
270
  3
ACAD_MLINESTYLE
350
271
  0
DICTIONARY
  5
270
102
{ACAD_REACTORS
330
26F
102
}
100
AcDbDictionary
  0
DICTIONARY
  5
271
102
{ACAD_REACTORS
330
26F
102
}
100
AcDbDictionary
  3
STANDARD
350
272
  0
MLINESTYLE
  5
272
102
{ACAD_REACTORS
330
271
102
}
100
AcDbMlineStyle
  2
STANDARD
 70
0
  3

 62
256
 51
90.0
 52
90.0
 71
2
 49
0.5
 62
256
  6
BYLAYER
 49
-0.5
 62
256
  6
BYLAYER
  0
ENDSEC
  0
EOF
