999
DXF file: R0171672412.dxf
999
Pro/ENGINEER 2005310 by Parametric Technology Corporation
0
SECTION
2
HEADER
9
$ACADVER
1
AC1015
9
$DWGCODEPAGE
3
ANSI_1252
9
$EXTMAX
10
210.0000000000
20
297.0000000000
30
0.0000000000
9
$EXTMIN
10
0.0000000000
20
0.0000000000
30
0.0000000000
9
$LIMMIN
10
0.0000000000
20
0.0000000000
9
$LIMMAX
10
210.0000000000
20
297.0000000000
9
$VIEWCTR
10
105.0000000000
20
148.5000000000
9
$VIEWSIZE
40
297.0000000000
9
$CLAYER
8
0
9
$LTSCALE
40
19.3600000000
9
$CELTYPE
6
BYLAYER
9
$DIMSCALE
40
1
9
$DIMASZ
40
3.5000000000
9
$DIMEXO
40
2.2000000000
9
$DIMDLI
40
13.3760000000
9
$DIMEXE
40
6.3360000000
9
$DIMCEN
40
3.1680000000
9
$DIMLFAC
40
1.0000000000
9
$DIMBLK
1
_FILLED
9
$DIMTXT
40
3.5000000000
9
$DIMTOL
70
1
9
$DIMLIM
70
0
9
$DIMTFAC
40
1.0000000000
9
$DIMTP
40
0.0010000000
9
$DIMTM
40
0.0010000000
9
$PDMODE
70
3
9
$PDSIZE
40
0.3125000000
9
$HANDSEED
5
305
9
$MEASUREMENT
70
1
9
$INSUNITS
70
4
0
ENDSEC
0
SECTION
2
CLASSES
0
CLASS
1
ACDBDICTIONARYWDFLT
2
AcDbDictionaryWithDefault
3
AutoCAD 2000
90
0
280
0
281
0
0
CLASS
1
ACDBPLACEHOLDER
2
AcDbPlaceHolder
3
AutoCAD 2000
90
0
280
0
281
0
0
CLASS
1
LAYOUT
2
AcDbLayout
3
AutoCAD 2000
90
0
280
0
281
0
0
ENDSEC
0
SECTION
2
TABLES
0
TABLE
2
VPORT
5
8
100
AcDbSymbolTable
70
2
0
VPORT
5
1F4
100
AcDbSymbolTableRecord
100
AcDbViewportTableRecord
2
*ACTIVE
70
0
10
0.0
20
0.0
11
1.0
21
1.0
12
105.0000000000
22
148.5000000000
13
0.0
23
0.0
14
1.0
24
1.0
15
0.0
25
0.0
16
0.0
26
0.0
36
1.0
17
0.0
27
0.0
37
0.0
40
297.0000000000
41
0.7070707071
42
50.0
43
0.0
44
0.0
50
0.0
51
0.0
71
0
72
100
73
1
74
1
75
0
76
0
77
0
78
0
0
ENDTAB
0
TABLE
2
LTYPE
5
5
100
AcDbSymbolTable
70
6
0
LTYPE
5
14
100
AcDbSymbolTableRecord
100
AcDbLinetypeTableRecord
2
BYBLOCK
70
0
3

72
65
73
0
40
0.0
0
LTYPE
5
15
100
AcDbSymbolTableRecord
100
AcDbLinetypeTableRecord
2
BYLAYER
70
0
3

72
65
73
0
40
0.0
0
LTYPE
5
16
100
AcDbSymbolTableRecord
100
AcDbLinetypeTableRecord
2
CONTINUOUS
70
64
3
Solid line
72
65
73
0
40
0
0
LTYPE
5
1F5
100
AcDbSymbolTableRecord
100
AcDbLinetypeTableRecord
2
CENTER
70
64
3
____ _ ____ _ ____ _ ____ _ ____ _ ____ _ ____
72
65
73
4
40
0.6
49
0.375
74
0
49
-0.075
74
0
49
0.075
74
0
49
-0.075
74
0
0
LTYPE
5
1F6
100
AcDbSymbolTableRecord
100
AcDbLinetypeTableRecord
2
HIDDEN
70
64
3
- - - - - - - - - - - - - - - - - - - -
72
65
73
2
40
0.2
49
0.1
74
0
49
-0.1
74
0
0
LTYPE
5
1F7
100
AcDbSymbolTableRecord
100
AcDbLinetypeTableRecord
2
PHANTOM
70
64
3
_____ _ _ _____ _ _ _____ _ _ _____
72
65
73
6
40
0.8
49
0.45
74
0
49
-0.05
74
0
49
0.1
74
0
49
-0.05
74
0
49
0.1
74
0
49
-0.05
74
0
0
LTYPE
5
1F8
100
AcDbSymbolTableRecord
100
AcDbLinetypeTableRecord
2
DOT
70
64
3
. . . . . . . . . . . . . . . . . . . .
72
65
73
2
40
0.2
49
0.1
74
0
49
-0.1
74
0
0
LTYPE
5
1F9
100
AcDbSymbolTableRecord
100
AcDbLinetypeTableRecord
2
DASHED
70
64
3
- - - - - - - - - - - - - - - - - - - -
72
65
73
2
40
0.2
49
0.1
74
0
49
-0.1
74
0
0
ENDTAB
0
TABLE
2
LAYER
5
2
100
AcDbSymbolTable
70
36
0
LAYER
5
10
100
AcDbSymbolTableRecord
100
AcDbLayerTableRecord
2
0
70
0
62
7
6
CONTINUOUS
370
-3
390
F
0
LAYER
5
1FA
100
AcDbSymbolTableRecord
100
AcDbLayerTableRecord
2
DEFAULT_1
70
0
62
7
6
CENTER
370
-3
390
F
0
LAYER
5
1FB
100
AcDbSymbolTableRecord
100
AcDbLayerTableRecord
2
DEFAULT_2
70
0
62
8
6
HIDDEN
370
-3
390
F
0
LAYER
5
1FC
100
AcDbSymbolTableRecord
100
AcDbLayerTableRecord
2
DEFAULT_3
70
0
62
7
6
PHANTOM
370
-3
390
F
0
LAYER
5
1FD
100
AcDbSymbolTableRecord
100
AcDbLayerTableRecord
2
_2D_DELETED_OBJS
70
0
62
7
6
CONTINUOUS
370
-3
390
F
0
LAYER
5
1FE
100
AcDbSymbolTableRecord
100
AcDbLayerTableRecord
2
ASSI
70
0
62
7
6
CONTINUOUS
370
-3
390
F
0
LAYER
5
1FF
100
AcDbSymbolTableRecord
100
AcDbLayerTableRecord
2
CURVE
70
0
62
7
6
CONTINUOUS
370
-3
390
F
0
LAYER
5
200
100
AcDbSymbolTableRecord
100
AcDbLayerTableRecord
2
PIANI
70
0
62
7
6
CONTINUOUS
370
-3
390
F
0
LAYER
5
201
100
AcDbSymbolTableRecord
100
AcDbLayerTableRecord
2
PUNTI
70
0
62
7
6
CONTINUOUS
370
-3
390
F
0
LAYER
5
202
100
AcDbSymbolTableRecord
100
AcDbLayerTableRecord
2
SURF_FILETTI
70
0
62
7
6
CONTINUOUS
370
-3
390
F
0
LAYER
5
203
100
AcDbSymbolTableRecord
100
AcDbLayerTableRecord
2
TOLL
70
0
62
7
6
CONTINUOUS
370
-3
390
F
0
ENDTAB
0
TABLE
2
STYLE
5
3
100
AcDbSymbolTable
70
1
0
STYLE
5
11
100
AcDbSymbolTableRecord
100
AcDbTextStyleTableRecord
2
STANDARD
70
0
40
0.0
41
0.7143000000
50
0.0
71
0
42
0.2
3
txt
4

0
ENDTAB
0
TABLE
2
VIEW
5
6
100
AcDbSymbolTable
70
0
0
ENDTAB
0
TABLE
2
UCS
5
7
100
AcDbSymbolTable
70
0
0
ENDTAB
0
TABLE
2
APPID
5
9
100
AcDbSymbolTable
70
1
0
APPID
5
204
100
AcDbSymbolTableRecord
100
AcDbRegAppTableRecord
2
ACAD
70
0
0
ENDTAB
0
TABLE
2
BLOCK_RECORD
5
1
100
AcDbSymbolTable
70
0
0
BLOCK_RECORD
5
1F
100
AcDbSymbolTableRecord
100
AcDbBlockTableRecord
2
*MODEL_SPACE
0
BLOCK_RECORD
5
1B
100
AcDbSymbolTableRecord
100
AcDbBlockTableRecord
2
*PAPER_SPACE
0
BLOCK_RECORD
5
205
100
AcDbSymbolTableRecord
100
AcDbBlockTableRecord
2
_FILLED
0
BLOCK_RECORD
5
206
100
AcDbSymbolTableRecord
100
AcDbBlockTableRecord
2
*D0
0
BLOCK_RECORD
5
207
100
AcDbSymbolTableRecord
100
AcDbBlockTableRecord
2
*D1
0
BLOCK_RECORD
5
208
100
AcDbSymbolTableRecord
100
AcDbBlockTableRecord
2
*D2
0
BLOCK_RECORD
5
209
100
AcDbSymbolTableRecord
100
AcDbBlockTableRecord
2
*D3
0
BLOCK_RECORD
5
20A
100
AcDbSymbolTableRecord
100
AcDbBlockTableRecord
2
*D4
0
ENDTAB
0
TABLE
2
DIMSTYLE
5
A
100
AcDbSymbolTable
70
1
100
AcDbDimStyleTable
71
0
0
DIMSTYLE
105
20B
100
AcDbSymbolTableRecord
100
AcDbDimStyleTableRecord
2
STANDARD
70
0
3

4

40
1.0
41
3.5000000000
42
0.0625
43
0.38
44
0.18
45
0.0
46
0.0
47
0.0010000000
48
0.0010000000
140
3.5000000000
141
0.09
142
0.0
143
25.4
144
1.0000000000
145
0.0
146
1.0000000000
147
0.09
71
1
72
0
73
0
74
0
75
0
76
0
77
1
78
8
170
0
171
2
172
0
173
0
174
0
175
0
176
0
177
0
178
0
270
2
271
3
272
3
273
2
274
2
275
0
280
0
281
0
282
0
283
1
284
8
285
0
286
0
287
3
288
0
340
11
341
205
342
205
343
205
344
205
0
DIMSTYLE
105
20C
100
AcDbSymbolTableRecord
100
AcDbDimStyleTableRecord
2
DIMSTYLE_1
70
0
3

4

40
1.0
41
3.5000000000
42
0.0625
43
0.38
44
0.18
45
0.0
46
0.0
47
0.1000000000
48
0.1000000000
140
5.0000000000
141
0.09
142
0.0
143
25.4
144
1.0000000000
145
0.0
146
1.0000000000
147
0.09
71
0
72
0
73
0
74
0
75
0
76
0
77
1
78
8
170
0
171
2
172
0
173
0
174
0
175
0
176
0
177
0
178
0
270
2
271
3
272
3
273
2
274
2
275
0
280
0
281
0
282
0
283
1
284
8
285
0
286
0
287
3
288
0
340
11
341
205
342
205
343
205
344
205
0
DIMSTYLE
105
20D
100
AcDbSymbolTableRecord
100
AcDbDimStyleTableRecord
2
DIMSTYLE_2
70
0
3

4

40
1.0
41
3.5000000000
42
0.0625
43
0.38
44
0.18
45
0.0
46
0.0
47
0.2000000000
48
0.2000000000
140
5.0000000000
141
0.09
142
0.0
143
25.4
144
1.0000000000
145
0.0
146
1.0000000000
147
0.09
71
0
72
0
73
0
74
0
75
0
76
0
77
1
78
8
170
0
171
2
172
0
173
0
174
0
175
0
176
0
177
0
178
0
270
2
271
1
272
1
273
2
274
2
275
0
280
0
281
0
282
0
283
1
284
8
285
0
286
0
287
3
288
0
340
11
341
205
342
205
343
205
344
205
0
DIMSTYLE
105
20E
100
AcDbSymbolTableRecord
100
AcDbDimStyleTableRecord
2
DIMSTYLE_3
70
0
3

4

40
1.0
41
3.5000000000
42
0.0625
43
0.38
44
0.18
45
0.0
46
0.0
47
0.1500000000
48
0.1500000000
140
5.0000000000
141
0.09
142
0.0
143
25.4
144
1.0000000000
145
0.0
146
1.0000000000
147
0.09
71
0
72
0
73
0
74
0
75
0
76
0
77
1
78
8
170
0
171
2
172
0
173
0
174
0
175
0
176
0
177
0
178
0
270
2
271
3
272
3
273
2
274
2
275
0
280
0
281
0
282
0
283
1
284
8
285
0
286
0
287
3
288
0
340
11
341
205
342
205
343
205
344
205
0
ENDTAB
0
ENDSEC
0
SECTION
2
BLOCKS
0
BLOCK
5
20
100
AcDbEntity
8
0
100
AcDbBlockBegin
2
*MODEL_SPACE
70
0
10
0.0
20
0.0
30
0.0
3
*MODEL_SPACE
1

0
ENDBLK
5
21
100
AcDbEntity
8
0
100
AcDbBlockEnd
0
BLOCK
5
1C
100
AcDbEntity
8
0
100
AcDbBlockBegin
2
*PAPER_SPACE
70
0
10
0.0
20
0.0
30
0.0
3
*PAPER_SPACE
1

0
ENDBLK
5
1D
100
AcDbEntity
8
0
100
AcDbBlockEnd
0
BLOCK
5
20F
100
AcDbEntity
8
0
100
AcDbBlockBegin
62
2
6
CONTINUOUS
2
*D0
70
65
10
0.0000000000
20
0.0000000000
3
*D0
1

0
TEXT
5
210
100
AcDbEntity
8
0
100
AcDbText
62
2
6
CONTINUOUS
10
71.0741979953
20
260.8420664408
7
STANDARD
40
5.0000000000
1
20
50
90.0000000000
41
0.7143000000
72
0
100
AcDbText
0
LINE
5
211
100
AcDbEntity
8
0
100
AcDbLine
62
2
6
CONTINUOUS
10
91.1646915848
20
275.2562182741
11
70.8241979953
21
275.2562182741
0
LINE
5
212
100
AcDbEntity
8
0
100
AcDbLine
62
2
6
CONTINUOUS
10
86.2667455564
20
255.2561302883
11
70.8241979953
21
255.2561302883
0
LINE
5
213
100
AcDbEntity
8
0
100
AcDbLine
62
2
6
CONTINUOUS
10
72.3241979953
20
275.2562182741
11
72.3241979953
21
265.2561742812
0
LINE
5
214
100
AcDbEntity
8
0
100
AcDbLine
62
2
6
CONTINUOUS
10
72.3241979953
20
255.2561302883
11
72.3241979953
21
265.2561742812
0
INSERT
5
215
100
AcDbEntity
8
0
100
AcDbBlockReference
62
2
6
CONTINUOUS
2
_FILLED
10
72.3241979953
20
275.2562182741
41
  3.500000
42
  3.500000
43
  3.500000
50
 90.000000
0
INSERT
5
216
100
AcDbEntity
8
0
100
AcDbBlockReference
62
2
6
CONTINUOUS
2
_FILLED
10
72.3241979953
20
255.2561302883
41
  3.500000
42
  3.500000
43
  3.500000
50
270.000000
0
ENDBLK
5
217
100
AcDbEntity
8
0
6
BYBLOCK
62
0
100
AcDbBlockEnd
0
BLOCK
5
218
100
AcDbEntity
8
0
100
AcDbBlockBegin
62
2
6
CONTINUOUS
2
*D1
70
65
10
0.0000000000
20
0.0000000000
3
*D1
1

0
TEXT
5
219
100
AcDbEntity
8
0
100
AcDbText
62
2
6
CONTINUOUS
10
53.1980146358
20
175.4542764431
7
STANDARD
40
5.0000000000
1
231.5
50
90.0000000000
41
0.7143000000
72
0
100
AcDbText
0
LINE
5
21A
100
AcDbEntity
8
0
100
AcDbLine
62
2
6
CONTINUOUS
10
91.1646915848
20
275.2562182741
11
52.9480146358
21
275.2562182741
0
LINE
5
21B
100
AcDbEntity
8
0
100
AcDbLine
62
2
6
CONTINUOUS
10
84.5345177665
20
102.0791850675
11
52.9480146358
21
102.0791850675
0
LINE
5
21C
100
AcDbEntity
8
0
100
AcDbLine
62
2
6
CONTINUOUS
10
54.4480146358
20
275.2562182741
11
54.4480146358
21
188.6677016708
0
LINE
5
21D
100
AcDbEntity
8
0
100
AcDbLine
62
2
6
CONTINUOUS
10
54.4480146358
20
102.0791850675
11
54.4480146358
21
188.6677016708
0
INSERT
5
21E
100
AcDbEntity
8
0
100
AcDbBlockReference
62
2
6
CONTINUOUS
2
_FILLED
10
54.4480146358
20
275.2562182741
41
  3.500000
42
  3.500000
43
  3.500000
50
 90.000000
0
INSERT
5
21F
100
AcDbEntity
8
0
100
AcDbBlockReference
62
2
6
CONTINUOUS
2
_FILLED
10
54.4480146358
20
102.0791850675
41
  3.500000
42
  3.500000
43
  3.500000
50
270.000000
0
ENDBLK
5
220
100
AcDbEntity
8
0
6
BYBLOCK
62
0
100
AcDbBlockEnd
0
BLOCK
5
221
100
AcDbEntity
8
0
100
AcDbBlockBegin
62
2
6
CONTINUOUS
2
*D2
70
65
10
0.0000000000
20
0.0000000000
3
*D2
1

0
TEXT
5
222
100
AcDbEntity
8
0
100
AcDbText
62
2
6
CONTINUOUS
10
88.9098066922
20
19.9343701203
7
STANDARD
40
5.0000000000
1
%%c
41
1.3333333333
72
0
100
AcDbText
0
TEXT
5
223
100
AcDbEntity
8
0
100
AcDbText
62
2
6
CONTINUOUS
10
95.5764733588
20
19.9343701203
7
STANDARD
40
5.0000000000
1
124.1
41
0.7143000000
72
0
100
AcDbText
0
LINE
5
224
100
AcDbEntity
8
0
100
AcDbLine
62
2
6
CONTINUOUS
10
40.9607216561
20
41.8280456853
11
40.9607216561
21
17.1843701203
0
LINE
5
225
100
AcDbEntity
8
0
100
AcDbLine
62
2
6
CONTINUOUS
10
165.1083138769
20
41.8280456853
11
165.1083138769
21
17.1843701203
0
LINE
5
226
100
AcDbEntity
8
0
100
AcDbLine
62
2
6
CONTINUOUS
10
40.9607216561
20
18.6843701203
11
103.0345177665
21
18.6843701203
0
LINE
5
227
100
AcDbEntity
8
0
100
AcDbLine
62
2
6
CONTINUOUS
10
165.1083138769
20
18.6843701203
11
103.0345177665
21
18.6843701203
0
INSERT
5
228
100
AcDbEntity
8
0
100
AcDbBlockReference
62
2
6
CONTINUOUS
2
_FILLED
10
40.9607216561
20
18.6843701203
41
  3.500000
42
  3.500000
43
  3.500000
50
180.000000
0
INSERT
5
229
100
AcDbEntity
8
0
100
AcDbBlockReference
62
2
6
CONTINUOUS
2
_FILLED
10
165.1083138769
20
18.6843701203
41
  3.500000
42
  3.500000
43
  3.500000
0
ENDBLK
5
22A
100
AcDbEntity
8
0
6
BYBLOCK
62
0
100
AcDbBlockEnd
0
BLOCK
5
22B
100
AcDbEntity
8
0
100
AcDbBlockBegin
62
2
6
CONTINUOUS
2
*D3
70
65
10
0.0000000000
20
0.0000000000
3
*D3
1

0
TEXT
5
22C
100
AcDbEntity
8
0
100
AcDbText
62
2
6
CONTINUOUS
10
97.3199073604
20
285.0109137056
7
STANDARD
40
5.0000000000
1
M
41
0.7143000000
72
0
100
AcDbText
0
TEXT
5
22D
100
AcDbEntity
8
0
100
AcDbText
62
2
6
CONTINUOUS
10
100.8914073604
20
285.0109137056
7
STANDARD
40
5.0000000000
1
36
41
0.7143000000
72
0
100
AcDbText
0
LINE
5
22E
100
AcDbEntity
8
0
100
AcDbLine
62
2
6
CONTINUOUS
10
85.0345177665
20
252.7562748736
11
85.0345177665
21
285.2609137056
0
LINE
5
22F
100
AcDbEntity
8
0
100
AcDbLine
62
2
6
CONTINUOUS
10
121.0345177665
20
252.7562748736
11
121.0345177665
21
285.2609137056
0
LINE
5
230
100
AcDbEntity
8
0
100
AcDbLine
62
2
6
CONTINUOUS
10
85.0345177665
20
283.7609137056
11
103.0345177665
21
283.7609137056
0
LINE
5
231
100
AcDbEntity
8
0
100
AcDbLine
62
2
6
CONTINUOUS
10
121.0345177665
20
283.7609137056
11
103.0345177665
21
283.7609137056
0
INSERT
5
232
100
AcDbEntity
8
0
100
AcDbBlockReference
62
2
6
CONTINUOUS
2
_FILLED
10
85.0345177665
20
283.7609137056
41
  3.500000
42
  3.500000
43
  3.500000
50
180.000000
0
INSERT
5
233
100
AcDbEntity
8
0
100
AcDbBlockReference
62
2
6
CONTINUOUS
2
_FILLED
10
121.0345177665
20
283.7609137056
41
  3.500000
42
  3.500000
43
  3.500000
0
ENDBLK
5
234
100
AcDbEntity
8
0
6
BYBLOCK
62
0
100
AcDbBlockEnd
0
BLOCK
5
235
100
AcDbEntity
8
0
100
AcDbBlockBegin
62
2
6
CONTINUOUS
2
*D4
70
65
10
0.0000000000
20
0.0000000000
3
*D4
1

0
TEXT
5
236
100
AcDbEntity
8
0
100
AcDbText
62
2
6
CONTINUOUS
10
22.7603092784
20
152.9764786181
7
STANDARD
40
5.0000000000
1
301.3
50
90.0000000000
41
0.7143000000
72
0
100
AcDbText
0
LINE
5
237
100
AcDbEntity
8
0
100
AcDbLine
62
2
6
CONTINUOUS
10
91.1646915848
20
275.2562182741
11
22.5103092784
21
275.2562182741
0
LINE
5
238
100
AcDbEntity
8
0
100
AcDbLine
62
2
6
CONTINUOUS
10
40.7345177665
20
32.3280456853
11
22.5103092784
21
32.3280456853
0
LINE
5
239
100
AcDbEntity
8
0
100
AcDbLine
62
2
6
CONTINUOUS
10
24.0103092784
20
275.2562182741
11
24.0103092784
21
153.7921319797
0
LINE
5
23A
100
AcDbEntity
8
0
100
AcDbLine
62
2
6
CONTINUOUS
10
24.0103092784
20
32.3280456853
11
24.0103092784
21
153.7921319797
0
INSERT
5
23B
100
AcDbEntity
8
0
100
AcDbBlockReference
62
2
6
CONTINUOUS
2
_FILLED
10
24.0103092784
20
275.2562182741
41
  3.500000
42
  3.500000
43
  3.500000
50
 90.000000
0
INSERT
5
23C
100
AcDbEntity
8
0
100
AcDbBlockReference
62
2
6
CONTINUOUS
2
_FILLED
10
24.0103092784
20
32.3280456853
41
  3.500000
42
  3.500000
43
  3.500000
50
270.000000
0
ENDBLK
5
23D
100
AcDbEntity
8
0
6
BYBLOCK
62
0
100
AcDbBlockEnd
0
BLOCK
5
23E
100
AcDbEntity
8
0
100
AcDbBlockBegin
2
_FILLED
70
64
10
0.0000000000
20
0.0000000000
3
_FILLED
1

0
SOLID
5
23F
100
AcDbEntity
8
0
6
BYBLOCK
62
0
100
AcDbTrace
10
0.0000000000
20
0.0000000000
11
-1.0000000000
21
0.1857142857
12
-1.0000000000
22
-0.1857142857
13
-1.0000000000
23
-0.1857142857
0
ENDBLK
5
240
100
AcDbEntity
8
0
6
BYBLOCK
62
0
100
AcDbBlockEnd
0
ENDSEC
0
SECTION
2
ENTITIES
0
DIMENSION
5
241
100
AcDbEntity
8
0
100
AcDbDimension
62
2
6
CONTINUOUS
2
*D0
10
72.3241979953
20
255.2561302883
11
68.5741979953
21
264.4135664408
70
160
42
20.000088
3
DIMSTYLE_1
100
AcDbAlignedDimension
13
91.1646915848
23
275.2562182741
14
86.2667455564
24
255.2561302883
50
270.000000
100
AcDbRotatedDimension
0
DIMENSION
5
242
100
AcDbEntity
8
0
100
AcDbDimension
62
2
6
CONTINUOUS
2
*D1
10
54.4480146358
20
102.0791850675
11
50.6980146358
21
184.3830264431
70
160
42
231.498861
3
DIMSTYLE_2
100
AcDbAlignedDimension
13
91.1646915848
23
275.2562182741
14
84.5345177665
24
102.0791850675
50
270.000000
100
AcDbRotatedDimension
0
DIMENSION
5
243
100
AcDbEntity
8
0
100
AcDbDimension
62
2
6
CONTINUOUS
2
*D2
10
165.1083138769
20
18.6843701203
11
101.1718900255
21
22.4343701203
70
160
42
124.147592
1
%%c<>
3
DIMSTYLE_2
100
AcDbAlignedDimension
13
40.9607216561
23
41.8280456853
14
165.1083138769
24
41.8280456853
100
AcDbRotatedDimension
0
DIMENSION
5
244
100
AcDbEntity
8
0
100
AcDbDimension
62
2
6
CONTINUOUS
2
*D3
10
121.0345177665
20
283.7609137056
11
102.6771573604
21
287.5109137056
70
160
42
36.000000
1
M<>
3
DIMSTYLE_3
100
AcDbAlignedDimension
13
85.0345177665
23
252.7562748736
14
121.0345177665
24
252.7562748736
100
AcDbRotatedDimension
0
DIMENSION
5
245
100
AcDbEntity
8
0
100
AcDbDimension
62
2
6
CONTINUOUS
2
*D4
10
24.0103092784
20
32.3280456853
11
20.2603092784
21
161.9052286181
70
160
42
301.250000
3
DIMSTYLE_2
100
AcDbAlignedDimension
13
91.1646915848
23
275.2562182741
14
40.7345177665
24
32.3280456853
50
270.000000
100
AcDbRotatedDimension
0
TEXT
5
246
100
AcDbEntity
8
0
100
AcDbText
62
2
6
CONTINUOUS
10
143.2835051546
20
274.1649484536
7
STANDARD
40
5.0000000000
1
Chiave 24
41
0.7143000000
72
0
100
AcDbText
0
LINE
5
247
100
AcDbEntity
8
0
100
AcDbLine
62
2
6
CONTINUOUS
10
114.4043439482
20
267.7577319588
11
141.7835051546
21
276.6649484536
0
LINE
5
248
100
AcDbEntity
8
0
100
AcDbLine
62
2
6
CONTINUOUS
10
141.7835051546
20
276.6649484536
11
143.2835051546
21
276.6649484536
0
SOLID
5
249
100
AcDbEntity
8
0
100
AcDbTrace
62
2
6
CONTINUOUS
10
117.5315523396
20
269.4586339772
11
114.4043439482
21
267.7577319588
12
117.9337313172
22
268.2224090503
13
117.9337313172
23
268.2224090503
0
LINE
5
24A
100
AcDbEntity
8
0
100
AcDbLine
62
7
6
CONTINUOUS
10
0.0000000000
20
0.0000000000
11
210.0000000000
21
0.0000000000
0
LINE
5
24B
100
AcDbEntity
8
0
100
AcDbLine
62
7
6
CONTINUOUS
10
0.0000000000
20
0.0000000000
11
0.0000000000
21
297.0000000000
0
LINE
5
24C
100
AcDbEntity
8
0
100
AcDbLine
62
7
6
CONTINUOUS
10
210.0000000000
20
0.0000000000
11
210.0000000000
21
297.0000000000
0
LINE
5
24D
100
AcDbEntity
8
0
100
AcDbLine
62
7
6
CONTINUOUS
10
0.0000000000
20
297.0000000000
11
210.0000000000
21
297.0000000000
0
LINE
5
24E
100
AcDbEntity
8
0
100
AcDbLine
62
7
6
CONTINUOUS
10
115.4268335954
20
211.7402417727
11
121.0345177665
21
212.3267561235
0
LINE
5
24F
100
AcDbEntity
8
0
100
AcDbLine
62
7
6
CONTINUOUS
10
103.2131979695
20
213.8969543147
11
115.4268335954
21
211.7402417727
0
LINE
5
250
100
AcDbEntity
8
0
100
AcDbLine
62
7
6
CONTINUOUS
10
92.7070569846
20
217.1382969767
11
103.2131979695
21
213.8969543147
0
LINE
5
251
100
AcDbEntity
8
0
100
AcDbLine
62
7
6
CONTINUOUS
10
85.0345177665
20
219.5255446122
11
92.7070569846
21
217.1382969767
0
LINE
5
252
100
AcDbEntity
8
0
100
AcDbLine
62
7
6
CONTINUOUS
10
85.0345177665
20
252.2562182069
11
85.0345177665
21
219.5255446122
0
LINE
5
253
100
AcDbEntity
8
0
100
AcDbLine
62
7
6
CONTINUOUS
10
86.7667394191
20
255.2561196580
11
85.0347067628
21
252.2561090913
0
LINE
5
254
100
AcDbEntity
8
0
100
AcDbLine
62
2
6
CONTINUOUS
10
86.8345177665
20
255.2562182741
11
86.8345177665
21
218.9654893787
0
LINE
5
255
100
AcDbEntity
8
0
100
AcDbLine
62
7
6
CONTINUOUS
10
91.6646915848
20
275.2562182741
11
91.6646915848
21
255.2562182741
0
LINE
5
256
100
AcDbEntity
8
0
100
AcDbLine
62
7
6
CONTINUOUS
10
103.0345177665
20
275.2562182741
11
103.0345177665
21
255.2562182741
0
LINE
5
257
100
AcDbEntity
8
DEFAULT_1
100
AcDbLine
62
2
6
CENTER
10
103.0345177665
20
26.2530176869
11
103.0345177665
21
255.2562182741
0
LINE
5
258
100
AcDbEntity
8
0
100
AcDbLine
62
7
6
CONTINUOUS
10
121.0345177665
20
252.2562182069
11
85.0345177665
21
252.2562182069
0
LINE
5
259
100
AcDbEntity
8
0
100
AcDbLine
62
7
6
CONTINUOUS
10
114.4043439482
20
275.2562182741
11
114.4043439482
21
255.2562182741
0
LINE
5
25A
100
AcDbEntity
8
0
100
AcDbLine
62
7
6
CONTINUOUS
10
119.3024669242
20
255.2562182741
11
86.7665686088
21
255.2562182741
0
LINE
5
25B
100
AcDbEntity
8
0
100
AcDbLine
62
2
6
CONTINUOUS
10
119.2345177665
20
255.2562182741
11
119.2345177665
21
212.1384919846
0
LINE
5
25C
100
AcDbEntity
8
0
100
AcDbLine
62
7
6
CONTINUOUS
10
121.0345177665
20
252.2562182069
11
121.0345177665
21
212.3267561235
0
LINE
5
25D
100
AcDbEntity
8
0
100
AcDbLine
62
7
6
CONTINUOUS
10
119.3022961139
20
255.2561196580
11
121.0343287702
21
252.2561090913
0
LINE
5
25E
100
AcDbEntity
8
0
100
AcDbLine
62
7
6
CONTINUOUS
10
114.4043439482
20
275.2562182741
11
91.6646915848
21
275.2562182741
0
LINE
5
25F
100
AcDbEntity
8
0
100
AcDbLine
62
7
6
CONTINUOUS
10
41.4607216561
20
41.8280456853
11
40.9607216561
21
42.3280456853
0
LINE
5
260
100
AcDbEntity
8
0
100
AcDbLine
62
7
6
CONTINUOUS
10
41.2346117249
20
32.3280456853
11
164.8344238081
21
32.3280456853
0
LINE
5
261
100
AcDbEntity
8
0
100
AcDbLine
62
7
6
CONTINUOUS
10
41.2346117249
20
41.8280456853
11
164.8344238081
21
41.8280456853
0
LINE
5
262
100
AcDbEntity
8
0
100
AcDbLine
62
7
6
CONTINUOUS
10
165.1083138769
20
42.3280456853
11
40.9607216561
21
42.3280456853
0
LINE
5
263
100
AcDbEntity
8
0
100
AcDbLine
62
7
6
CONTINUOUS
10
41.3627092324
20
49.9984255738
11
164.7063263006
21
49.9984255738
0
LWPOLYLINE
5
264
100
AcDbEntity
8
0
100
AcDbPolyline
62
7
6
CONTINUOUS
90
7
70
0
10
45.5329698003
20
59.9972263973
10
45.5742065051
20
59.8995936526
10
45.6134468450
20
59.8108909358
10
45.6487910961
20
59.7354125841
10
45.6785281543
20
59.6768127084
10
45.7012183747
20
59.6379282871
10
45.7157632686
20
59.6206418210
0
LINE
5
265
100
AcDbEntity
8
0
100
AcDbLine
62
7
6
CONTINUOUS
10
161.7972239198
20
58.1486274057
11
44.2718116120
21
58.1486274057
0
LINE
5
266
100
AcDbEntity
8
0
100
AcDbLine
62
7
6
CONTINUOUS
10
46.3088379063
20
59.7593988112
11
159.7601976266
21
59.7593988112
0
LWPOLYLINE
5
267
100
AcDbEntity
8
0
100
AcDbPolyline
62
7
6
CONTINUOUS
90
19
70
0
10
68.6728466579
20
62.8280456853
10
68.7183142025
20
62.8226566970
10
68.7468719553
20
62.8069353709
10
68.7585632022
20
62.7815280320
10
68.7532580855
20
62.7474909094
10
68.7312149829
20
62.7064220412
10
68.6913124747
20
62.6588026635
10
68.6322344737
20
62.6044725467
10
68.5548233609
20
62.5453823249
10
68.4592682766
20
62.4835985885
10
68.3462128553
20
62.4201442571
10
68.2155299991
20
62.3560870306
10
68.0697210456
20
62.2930095285
10
67.9098498729
20
62.2323064461
10
67.7401017612
20
62.1752950675
10
67.5641764456
20
62.1234913252
10
67.3845944383
20
62.0770803572
10
67.2055787162
20
62.0363910062
10
67.0257216204
20
62.0016938629
0
LWPOLYLINE
5
268
100
AcDbEntity
8
0
100
AcDbPolyline
62
7
6
CONTINUOUS
90
7
70
0
10
45.7265319665
20
61.1925028583
10
45.5077222204
20
61.2225949227
10
45.2997909074
20
61.2425577571
10
45.1130756242
20
61.2513988824
10
44.9568591821
20
61.2486787472
10
44.8389080997
20
61.2345325843
10
44.7650864811
20
61.2096636909
0
LWPOLYLINE
5
269
100
AcDbEntity
8
0
100
AcDbPolyline
62
7
6
CONTINUOUS
90
5
70
0
10
46.2855789940
20
59.9623375087
10
46.2938894835
20
59.8787834332
10
46.3007607780
20
59.8150827770
10
46.3058326376
20
59.7745751092
10
46.3088391590
20
59.7593840837
0
LINE
5
26A
100
AcDbEntity
8
0
100
AcDbLine
62
7
6
CONTINUOUS
10
46.2664358033
20
60.1706731131
11
46.2855789940
21
59.9623375087
0
LINE
5
26B
100
AcDbEntity
8
0
100
AcDbLine
62
7
6
CONTINUOUS
10
41.2345177665
20
41.8280456853
11
41.2345177665
21
32.3280456853
0
LWPOLYLINE
5
26C
100
AcDbEntity
8
0
100
AcDbPolyline
62
7
6
CONTINUOUS
90
5
70
0
10
46.2664358034
20
60.1706720714
10
46.0786656217
20
60.1478107617
10
45.8938312275
20
60.1112827157
10
45.7119326207
20
60.0610879334
10
45.5329698015
20
59.9972264148
0
LWPOLYLINE
5
26D
100
AcDbEntity
8
0
100
AcDbPolyline
62
7
6
CONTINUOUS
90
5
70
0
10
46.3088379063
20
59.7593988112
10
46.1569845357
20
59.7410730225
10
46.0069810973
20
59.7118103430
10
45.8596357442
20
59.6716368037
10
45.7157630853
20
59.6206422856
0
LINE
5
26E
100
AcDbEntity
8
0
100
AcDbLine
62
7
6
CONTINUOUS
10
69.0823043398
20
62.8377058911
11
68.9949352496
21
62.8280430199
0
LWPOLYLINE
5
26F
100
AcDbEntity
8
0
100
AcDbPolyline
62
7
6
CONTINUOUS
90
3
70
0
10
66.1896164035
20
61.4371910045
10
63.2219707754
20
61.1902938958
10
46.3088379063
20
59.7593988112
0
LWPOLYLINE
5
270
100
AcDbEntity
8
0
100
AcDbPolyline
62
7
6
CONTINUOUS
90
3
70
0
10
66.1485743288
20
61.8484642648
10
63.1800727079
20
61.6015726123
10
46.2664358034
20
60.1706720714
0
LWPOLYLINE
5
271
100
AcDbEntity
8
0
100
AcDbPolyline
62
7
6
CONTINUOUS
90
4
70
0
10
46.6994049222
20
62.8280456853
10
46.4249104014
20
62.8090857826
10
46.1563450863
20
62.7525569016
10
45.8988289881
20
62.6595756347
0
LWPOLYLINE
5
272
100
AcDbEntity
8
0
100
AcDbPolyline
62
7
6
CONTINUOUS
90
11
70
0
10
46.6994049222
20
62.0016938629
10
46.5589933108
20
61.9920984424
10
46.4240677121
20
61.9642746826
10
46.2933758301
20
61.9177539651
10
46.1706745526
20
61.8539421457
10
46.0586164653
20
61.7733401969
10
45.9592621789
20
61.6781941502
10
45.8752279960
20
61.5700551136
10
45.8074994271
20
61.4515088301
10
45.7581662854
20
61.3260459257
10
45.7265319665
20
61.1925028583
0
LWPOLYLINE
5
273
100
AcDbEntity
8
0
100
AcDbPolyline
62
7
6
CONTINUOUS
90
9
70
0
10
90.5345177665
20
60.0105565272
10
93.6487825602
20
60.0648716843
10
96.7702041594
20
60.1037973044
10
99.9005717668
20
60.1274463320
10
103.0345177746
20
60.1354799337
10
106.1684637734
20
60.1274463320
10
109.2988313698
20
60.1037973045
10
112.4202529680
20
60.0648716843
10
115.5345177665
20
60.0105565272
0
LINE
5
274
100
AcDbEntity
8
0
100
AcDbLine
62
7
6
CONTINUOUS
10
90.5345177665
20
61.0603212231
11
115.5345177665
21
61.0603212231
0
LINE
5
275
100
AcDbEntity
8
0
100
AcDbLine
62
7
6
CONTINUOUS
10
43.5419531605
20
61.2096636760
11
44.7650864801
21
61.2096636760
0
LINE
5
276
100
AcDbEntity
8
0
100
AcDbLine
62
7
6
CONTINUOUS
10
161.3039490529
20
61.2096636760
11
162.5270823725
21
61.2096636760
0
LINE
5
277
100
AcDbEntity
8
0
100
AcDbLine
62
7
6
CONTINUOUS
10
139.8794191294
20
61.4371910045
11
66.1896164035
21
61.4371910045
0
LINE
5
278
100
AcDbEntity
8
0
100
AcDbLine
62
7
6
CONTINUOUS
10
67.0257216204
20
62.0016938629
11
46.6994049222
21
62.0016938629
0
LINE
5
279
100
AcDbEntity
8
0
100
AcDbLine
62
7
6
CONTINUOUS
10
139.0433139126
20
62.0016938629
11
159.3696306108
21
62.0016938629
0
LINE
5
27A
100
AcDbEntity
8
0
100
AcDbLine
62
7
6
CONTINUOUS
10
45.5052075274
20
62.8280456853
11
69.0748319363
21
62.8280456853
0
LINE
5
27B
100
AcDbEntity
8
0
100
AcDbLine
62
7
6
CONTINUOUS
10
136.0346046329
20
63.9181644950
11
70.0344309001
21
63.9181644950
0
LINE
5
27C
100
AcDbEntity
8
0
100
AcDbLine
62
7
6
CONTINUOUS
10
160.5638280056
20
62.8280456853
11
136.6827533033
21
62.8279766938
0
LINE
5
27D
100
AcDbEntity
8
0
100
AcDbLine
62
7
6
CONTINUOUS
10
136.6827533033
20
62.8279766938
11
136.6164991388
21
62.8280456049
0
LWPOLYLINE
5
27E
100
AcDbEntity
8
0
100
AcDbPolyline
62
7
6
CONTINUOUS
90
21
70
0
10
159.3696306108
20
62.0016938629
10
159.4279975173
20
62.0003758137
10
159.4892930680
20
61.9947741749
10
159.5539322152
20
61.9851239033
10
159.6206701017
20
61.9707201283
10
159.6887263718
20
61.9509589297
10
159.7571224731
20
61.9257724130
10
159.8249331039
20
61.8947922757
10
159.8912181566
20
61.8583158213
10
159.9549784257
20
61.8163030359
10
160.0154659024
20
61.7693975687
10
160.0717418231
20
61.7179337132
10
160.1233792468
20
61.6627995229
10
160.1696565843
20
61.6046662338
10
160.2105190168
20
61.5445185929
10
160.2455775050
20
61.4832485634
10
160.2751131218
20
61.4218057320
10
160.2991015496
20
61.3611569761
10
160.3180699202
20
61.3021423868
10
160.3326021374
20
61.2460696455
10
160.3425035665
20
61.1925028583
0
LWPOLYLINE
5
27F
100
AcDbEntity
8
0
100
AcDbPolyline
62
7
6
CONTINUOUS
90
9
70
0
10
115.5345177665
20
61.1934246521
10
112.4245987271
20
61.2656848980
10
109.3046257066
20
61.3175877417
10
106.1720852070
20
61.3493855181
10
103.0345177225
20
61.3603212231
10
99.8969502543
20
61.3493855178
10
96.7644097822
20
61.3175877411
10
93.6444367838
20
61.2656848975
10
90.5345177665
20
61.1934246521
0
LWPOLYLINE
5
280
100
AcDbEntity
8
0
100
AcDbPolyline
62
7
6
CONTINUOUS
90
7
70
0
10
159.3696306108
20
62.8280456853
10
159.4837198096
20
62.8247880638
10
159.6042924843
20
62.8142082470
10
159.7312284522
20
62.7949914722
10
159.8625399403
20
62.7660995142
10
159.9965693209
20
62.7266870235
10
160.1314922853
20
62.6761985768
0
LINE
5
281
100
AcDbEntity
8
0
100
AcDbLine
62
7
6
CONTINUOUS
10
159.7601976266
20
59.7593988112
11
139.8794191294
21
61.4371910045
0
LINE
5
282
100
AcDbEntity
8
0
100
AcDbLine
62
7
6
CONTINUOUS
10
159.8025997296
20
60.1706720714
11
139.9204612042
21
61.8484642648
0
LWPOLYLINE
5
283
100
AcDbEntity
8
0
100
AcDbPolyline
62
7
6
CONTINUOUS
90
5
70
0
10
139.9204612042
20
61.8484642648
10
139.6969593361
20
61.8720981819
10
139.4762674982
20
61.9055144206
10
139.2583856903
20
61.9487129810
10
139.0433139126
20
62.0016938629
0
LWPOLYLINE
5
284
100
AcDbEntity
8
0
100
AcDbPolyline
62
7
6
CONTINUOUS
90
5
70
0
10
139.8794191294
20
61.4371910045
10
139.6336151189
20
61.4634318244
10
139.3906814456
20
61.5006775911
10
139.1510896786
20
61.5487494555
10
138.9152972930
20
61.6074461136
0
LINE
5
285
100
AcDbEntity
8
0
100
AcDbLine
62
7
6
CONTINUOUS
10
46.6994049222
20
62.0016938629
11
46.6994049282
21
62.8280456853
0
LINE
5
286
100
AcDbEntity
8
0
100
AcDbLine
62
7
6
CONTINUOUS
10
41.3627092324
20
49.9984255738
11
40.9607216561
21
42.3280456853
0
LWPOLYLINE
5
287
100
AcDbEntity
8
0
100
AcDbPolyline
62
7
6
CONTINUOUS
90
5
70
0
10
67.1537382400
20
61.6074461136
10
66.9179458546
20
61.5487494554
10
66.6783540876
20
61.5006775909
10
66.4354204142
20
61.4634318243
10
66.1896164035
20
61.4371910045
0
LWPOLYLINE
5
288
100
AcDbEntity
8
0
100
AcDbPolyline
62
7
6
CONTINUOUS
90
5
70
0
10
67.0257216204
20
62.0016938629
10
66.8106498430
20
61.9487129793
10
66.5927680352
20
61.9055144184
10
66.3720761972
20
61.8720981803
10
66.1485743288
20
61.8484642648
0
LWPOLYLINE
5
289
100
AcDbEntity
8
0
100
AcDbPolyline
62
7
6
CONTINUOUS
90
19
70
0
10
139.0433139126
20
62.0016938629
10
138.8302180360
20
62.0439621766
10
138.6293867966
20
62.0906472601
10
138.4407140775
20
62.1415467847
10
138.2645182296
20
62.1960486621
10
138.1009269806
20
62.2534248089
10
137.9504060832
20
62.3132727505
10
137.8129811208
20
62.3750221762
10
137.6901003294
20
62.4376324696
10
137.5828112069
20
62.5002262330
10
137.4923415519
20
62.5609802745
10
137.4204426518
20
62.6184301939
10
137.3665915388
20
62.6708437886
10
137.3313507513
20
62.7166657560
10
137.3132150583
20
62.7553921025
10
137.3109595266
20
62.7862852317
10
137.3243058016
20
62.8090560181
10
137.3524813841
20
62.8232031842
10
137.3957437738
20
62.8280456853
0
LWPOLYLINE
5
28A
100
AcDbEntity
8
0
100
AcDbPolyline
62
7
6
CONTINUOUS
90
14
70
0
10
138.9152972930
20
61.6074461136
10
138.6904805846
20
61.6745095530
10
138.4777797099
20
61.7489467581
10
138.2771658392
20
61.8297138286
10
138.0889159801
20
61.9159553826
10
137.9130519075
20
62.0069039400
10
137.7500054387
20
62.1016589772
10
137.5996279654
20
62.1996647759
10
137.4633479979
20
62.2993442542
10
137.3417579353
20
62.3995962038
10
137.2364712909
20
62.4980095561
10
137.1489303935
20
62.5922764283
10
137.0791545384
20
62.6802082953
10
137.0278869994
20
62.7588940241
0
LWPOLYLINE
5
28B
100
AcDbEntity
8
0
100
AcDbPolyline
62
7
6
CONTINUOUS
90
7
70
0
10
69.6301403606
20
63.0966189804
10
69.6195555288
20
63.1175432159
10
69.6156712392
20
63.1416836690
10
69.6183960351
20
63.1689089595
10
69.6275032683
20
63.1987046619
10
69.6426310829
20
63.2305991739
10
69.6446784885
20
63.2342717772
0
LWPOLYLINE
5
28C
100
AcDbEntity
8
0
100
AcDbPolyline
62
7
6
CONTINUOUS
90
7
70
0
10
67.0257216204
20
62.0016938629
10
67.0544035007
20
61.9010074731
10
67.0817262069
20
61.8092069395
10
67.1063949263
20
61.7306426484
10
67.1272406178
20
61.6690377263
10
67.1432754118
20
61.6273116028
10
67.1537394251
20
61.6074416600
0
LINE
5
28D
100
AcDbEntity
8
0
100
AcDbLine
62
7
6
CONTINUOUS
10
44.7650864801
20
61.2096636760
11
44.2718116120
21
58.1486274057
0
LINE
5
28E
100
AcDbEntity
8
0
100
AcDbLine
62
7
6
CONTINUOUS
10
45.7265319665
20
61.1925028583
11
45.5329698015
21
59.9972264148
0
LINE
5
28F
100
AcDbEntity
8
0
100
AcDbLine
62
7
6
CONTINUOUS
10
43.5419531605
20
61.2096636760
11
41.3627092324
21
49.9984255738
0
LWPOLYLINE
5
290
100
AcDbEntity
8
0
100
AcDbPolyline
62
7
6
CONTINUOUS
90
5
70
0
10
160.3532724474
20
59.6206422857
10
160.2095103644
20
59.6716023951
10
160.0622047905
20
59.7117752587
10
159.9121653547
20
59.7410549185
10
159.7601976266
20
59.7593988112
0
LINE
5
291
100
AcDbEntity
8
0
100
AcDbLine
62
7
6
CONTINUOUS
10
136.8506761204
20
62.8649662297
11
136.7371988236
21
62.9132195736
0
LWPOLYLINE
5
292
100
AcDbEntity
8
0
100
AcDbPolyline
62
7
6
CONTINUOUS
90
5
70
0
10
66.1670219102
20
61.6413225132
10
66.1750465898
20
61.5580122806
10
66.1817019622
20
61.4942170716
10
66.1866437708
20
61.4532367632
10
66.1896163951
20
61.4371911068
0
LINE
5
293
100
AcDbEntity
8
0
100
AcDbLine
62
7
6
CONTINUOUS
10
66.1485743288
20
61.8484642647
11
66.1670219102
21
61.6413225132
0
LINE
5
294
100
AcDbEntity
8
0
100
AcDbLine
62
7
6
CONTINUOUS
10
80.4571676718
20
85.8280459875
11
125.6118678612
21
85.8280459875
0
LINE
5
295
100
AcDbEntity
8
0
100
AcDbLine
62
7
6
CONTINUOUS
10
123.8798172281
20
86.8280456853
11
82.1892183049
21
86.8280456853
0
LINE
5
296
100
AcDbEntity
8
0
100
AcDbLine
62
7
6
CONTINUOUS
10
94.5345177665
20
90.1491850675
11
111.5345177665
21
90.1491850675
0
LWPOLYLINE
5
297
100
AcDbEntity
8
0
100
AcDbPolyline
62
7
6
CONTINUOUS
90
7
70
0
10
161.3039490545
20
61.2096636764
10
161.2301274363
20
61.2345325694
10
161.1121763541
20
61.2486787341
10
160.9559599112
20
61.2513988741
10
160.7692446269
20
61.2425577537
10
160.5613133131
20
61.2225949218
10
160.3425035665
20
61.1925028583
0
LWPOLYLINE
5
298
100
AcDbEntity
8
0
100
AcDbPolyline
62
7
6
CONTINUOUS
90
5
70
0
10
160.5360657311
20
59.9972264149
10
160.3573509816
20
60.0610294632
10
160.1755350649
20
60.1112047553
10
159.9906179809
20
60.1477522914
10
159.8025997296
20
60.1706720714
0
LWPOLYLINE
5
299
100
AcDbEntity
8
0
100
AcDbPolyline
62
7
6
CONTINUOUS
90
3
70
0
10
136.7129552809
20
62.9267037216
10
136.7497191036
20
62.9065190448
10
136.8685433231
20
62.8572416592
0
LINE
5
29A
100
AcDbEntity
8
0
100
AcDbLine
62
7
6
CONTINUOUS
10
136.7371988236
20
62.9132195736
11
136.7129601368
21
62.9267122384
0
LINE
5
29B
100
AcDbEntity
8
0
100
AcDbLine
62
7
6
CONTINUOUS
10
136.6853970444
20
62.9435818502
11
136.7129552809
21
62.9267037216
0
LINE
5
29C
100
AcDbEntity
8
0
100
AcDbLine
62
7
6
CONTINUOUS
10
94.5345177665
20
92.5791850675
11
111.5345177665
21
92.5791850675
0
LWPOLYLINE
5
29D
100
AcDbEntity
8
0
100
AcDbPolyline
62
7
6
CONTINUOUS
90
15
70
0
10
160.1314922853
20
62.6761985768
10
160.2654842348
20
62.6143592059
10
160.3966288996
20
62.5412726180
10
160.5231151139
20
62.4573572541
10
160.6432138638
20
62.3634186852
10
160.7553894923
20
62.2605700881
10
160.8583870959
20
62.1502072705
10
160.9512017084
20
62.0339790854
10
161.0332332678
20
61.9136399134
10
161.1041513755
20
61.7911012677
10
161.1640314259
20
61.6682225356
10
161.2132041668
20
61.5469015376
10
161.2523128382
20
61.4289164541
10
161.2821355088
20
61.3163859048
10
161.3039490529
20
61.2096636760
0
LWPOLYLINE
5
29E
100
AcDbEntity
8
0
100
AcDbPolyline
62
7
6
CONTINUOUS
90
4
70
0
10
136.0346083342
20
63.9181667760
10
136.0956610618
20
63.8753880408
10
136.1371531566
20
63.8223569468
10
136.1454445290
20
63.8050773969
0
LINE
5
29F
100
AcDbEntity
8
0
100
AcDbLine
62
7
6
CONTINUOUS
10
136.6853970444
20
62.9435818502
11
136.5837800166
21
63.0222939847
0
LINE
5
2A0
100
AcDbEntity
8
0
100
AcDbLine
62
7
6
CONTINUOUS
10
85.0345177665
20
102.0791850675
11
94.5345177665
21
92.5791850675
0
LINE
5
2A1
100
AcDbEntity
8
0
100
AcDbLine
62
7
6
CONTINUOUS
10
119.2345177665
20
100.2791850675
11
86.8345177665
21
100.2791850675
0
LINE
5
2A2
100
AcDbEntity
8
0
100
AcDbLine
62
7
6
CONTINUOUS
10
85.0345177665
20
102.0791850675
11
121.0345177665
21
102.0791850675
0
LINE
5
2A3
100
AcDbEntity
8
0
100
AcDbLine
62
7
6
CONTINUOUS
10
85.0345177665
20
218.5255446122
11
85.0345177665
21
102.0791850675
0
LINE
5
2A4
100
AcDbEntity
8
0
100
AcDbLine
62
2
6
CONTINUOUS
10
86.8345177665
20
217.9654893787
11
86.8345177665
21
100.2791850675
0
LINE
5
2A5
100
AcDbEntity
8
0
100
AcDbLine
62
7
6
CONTINUOUS
10
136.5837800166
20
63.0222939847
11
136.4982897866
21
63.1167491382
0
LINE
5
2A6
100
AcDbEntity
8
0
100
AcDbLine
62
7
6
CONTINUOUS
10
90.5345177665
20
60.0105565272
11
90.5345177665
21
61.1934246521
0
LINE
5
2A7
100
AcDbEntity
8
0
100
AcDbLine
62
7
6
CONTINUOUS
10
94.5345177665
20
92.5791850675
11
94.5345177665
21
90.1491850675
0
LINE
5
2A8
100
AcDbEntity
8
0
100
AcDbLine
62
7
6
CONTINUOUS
10
74.2248587983
20
75.0333703701
11
74.2127538335
21
74.9967591230
0
LINE
5
2A9
100
AcDbEntity
8
0
100
AcDbLine
62
7
6
CONTINUOUS
10
74.2127538335
20
74.9967591230
11
73.8742007480
21
74.0048483589
0
LINE
5
2AA
100
AcDbEntity
8
0
100
AcDbLine
62
7
6
CONTINUOUS
10
74.1448346724
20
74.8573924058
11
73.9135696501
21
74.1900461790
0
LWPOLYLINE
5
2AB
100
AcDbEntity
8
0
100
AcDbPolyline
62
7
6
CONTINUOUS
90
11
70
0
10
73.8742007480
20
74.0048483589
10
73.5100321088
20
72.9594219406
10
73.2765491049
20
72.3001112875
10
73.0094387282
20
71.5570516617
10
72.7069360953
20
70.7287306999
10
72.3681365587
20
69.8163517010
10
71.9901405574
20
68.8171650484
10
71.5706094167
20
67.7293437073
10
71.1067555690
20
66.5513232308
10
70.5949811037
20
65.2806584777
10
70.0344309001
20
63.9181644950
0
LINE
5
2AC
100
AcDbEntity
8
0
100
AcDbLine
62
7
6
CONTINUOUS
10
73.9802839258
20
74.3816506362
11
73.6280009463
21
73.3778121403
0
LINE
5
2AD
100
AcDbEntity
8
0
100
AcDbLine
62
7
6
CONTINUOUS
10
73.6881765802
20
73.5479329947
11
73.2474429949
21
72.3147520564
0
LINE
5
2AE
100
AcDbEntity
8
0
100
AcDbLine
62
7
6
CONTINUOUS
10
73.2721935647
20
72.3832545393
11
72.7517653027
21
70.9612369565
0
LINE
5
2AF
100
AcDbEntity
8
0
100
AcDbLine
62
7
6
CONTINUOUS
10
72.7854473302
20
71.0521482346
11
72.4509489831
21
70.1559564291
0
LINE
5
2B0
100
AcDbEntity
8
0
100
AcDbLine
62
7
6
CONTINUOUS
10
72.5237001682
20
70.3496150795
11
72.1155594123
21
69.2718147430
0
LINE
5
2B1
100
AcDbEntity
8
0
100
AcDbLine
62
7
6
CONTINUOUS
10
72.2366691849
20
69.5894748501
11
71.7421909664
21
68.3035960280
0
LINE
5
2B2
100
AcDbEntity
8
0
100
AcDbLine
62
7
6
CONTINUOUS
10
71.9180085906
20
68.7574552846
11
71.3236051645
21
67.2373593977
0
LINE
5
2B3
100
AcDbEntity
8
0
100
AcDbLine
62
7
6
CONTINUOUS
10
71.5673453083
20
67.8558240602
11
70.8620811560
21
66.0839057825
0
LINE
5
2B4
100
AcDbEntity
8
0
100
AcDbLine
62
7
6
CONTINUOUS
10
71.1813088507
20
66.8793054605
11
70.7612208604
21
65.8348190381
0
LINE
5
2B5
100
AcDbEntity
8
0
100
AcDbLine
62
7
6
CONTINUOUS
10
70.8620811560
20
66.0839057825
11
70.3081522435
21
64.7285317970
0
LWPOLYLINE
5
2B6
100
AcDbEntity
8
0
100
AcDbPolyline
62
7
6
CONTINUOUS
90
3
70
0
10
136.6164991388
20
62.8280456049
10
136.4637938237
20
63.0574347284
10
136.3134509102
20
63.3148360363
0
LINE
5
2B7
100
AcDbEntity
8
0
100
AcDbLine
62
7
6
CONTINUOUS
10
136.4982897866
20
63.1167491382
11
136.4495255760
21
63.1900850385
0
LINE
5
2B8
100
AcDbEntity
8
0
100
AcDbLine
62
7
6
CONTINUOUS
10
70.0344309001
20
63.9181644950
11
69.9395471363
21
63.6897332814
0
LINE
5
2B9
100
AcDbEntity
8
0
100
AcDbLine
62
7
6
CONTINUOUS
10
70.3586695809
20
64.8508842731
11
69.9235910040
21
63.8050773969
0
LINE
5
2BA
100
AcDbEntity
8
0
100
AcDbLine
62
7
6
CONTINUOUS
10
69.9235593404
20
63.8050442173
11
69.8354394219
21
63.6057509193
0
LINE
5
2BB
100
AcDbEntity
8
0
100
AcDbLine
62
7
6
CONTINUOUS
10
74.2248585944
20
75.0333697792
11
74.1448346724
21
74.8573924058
0
LINE
5
2BC
100
AcDbEntity
8
0
100
AcDbLine
62
7
6
CONTINUOUS
10
69.9395471363
20
63.6897332814
11
69.8395243451
21
63.4768648732
0
LWPOLYLINE
5
2BD
100
AcDbEntity
8
0
100
AcDbPolyline
62
7
6
CONTINUOUS
90
3
70
0
10
69.8451616949
20
63.6267540467
10
69.7275995008
20
63.3869497431
10
69.6447376472
20
63.2343703641
0
LINE
5
2BE
100
AcDbEntity
8
0
100
AcDbLine
62
7
6
CONTINUOUS
10
69.0753272481
20
62.8280456853
11
69.0402718241
21
62.7571855699
0
LINE
5
2BF
100
AcDbEntity
8
0
100
AcDbLine
62
7
6
CONTINUOUS
10
69.8395243451
20
63.4768648732
11
69.7359008836
21
63.2792893832
0
LINE
5
2C0
100
AcDbEntity
8
0
100
AcDbLine
62
7
6
CONTINUOUS
10
69.7378957011
20
63.4067937879
11
69.6447436176
21
63.2343800457
0
LINE
5
2C1
100
AcDbEntity
8
0
100
AcDbLine
62
7
6
CONTINUOUS
10
80.4571676724
20
85.8280459885
11
74.2240186020
21
75.0319151075
0
LINE
5
2C2
100
AcDbEntity
8
0
100
AcDbLine
62
7
6
CONTINUOUS
10
136.4486230235
20
63.1916378250
11
136.4494963664
21
63.1901353958
0
LINE
5
2C3
100
AcDbEntity
8
0
100
AcDbLine
62
7
6
CONTINUOUS
10
125.6118678606
20
85.8280459885
11
131.8450169310
21
75.0319151075
0
LWPOLYLINE
5
2C4
100
AcDbEntity
8
0
100
AcDbPolyline
62
7
6
CONTINUOUS
90
3
70
0
10
136.4482643128
20
63.1924543597
10
136.4165490674
20
63.2481265566
10
136.2788074812
20
63.5109717757
0
LWPOLYLINE
5
2C5
100
AcDbEntity
8
0
100
AcDbPolyline
62
7
6
CONTINUOUS
90
5
70
0
10
136.4494963664
20
63.1901353958
10
136.4728189032
20
63.1484800135
10
136.5092889405
20
63.0773106226
10
136.5453017277
20
62.9998458260
10
136.5810110841
20
62.9164417218
0
LINE
5
2C6
100
AcDbEntity
8
0
100
AcDbLine
62
7
6
CONTINUOUS
10
111.5345177665
20
92.5791850675
11
111.5345177665
21
90.1491850675
0
LINE
5
2C7
100
AcDbEntity
8
0
100
AcDbLine
62
7
6
CONTINUOUS
10
69.6446784885
20
63.2342717772
11
69.6447243094
21
63.2343527868
0
LINE
5
2C8
100
AcDbEntity
8
0
100
AcDbLine
62
7
6
CONTINUOUS
10
69.7359008836
20
63.2792893832
11
69.6301118701
21
63.0966301276
0
LWPOLYLINE
5
2C9
100
AcDbEntity
8
0
100
AcDbPolyline
62
7
6
CONTINUOUS
90
3
70
0
10
69.6446717551
20
63.2342598697
10
69.5865296345
20
63.1456929521
10
69.4871659791
20
63.0367539264
0
LINE
5
2CA
100
AcDbEntity
8
0
100
AcDbLine
62
7
6
CONTINUOUS
10
69.0402718241
20
62.7571855699
11
68.9871023204
21
62.6762859498
0
LINE
5
2CB
100
AcDbEntity
8
0
100
AcDbLine
62
7
6
CONTINUOUS
10
136.3134509102
20
63.3148360363
11
136.1690611587
21
63.6014623201
0
LINE
5
2CC
100
AcDbEntity
8
0
100
AcDbLine
62
7
6
CONTINUOUS
10
137.0278869994
20
62.7588940241
11
136.9938228107
21
62.8280457209
0
LINE
5
2CD
100
AcDbEntity
8
0
100
AcDbLine
62
7
6
CONTINUOUS
10
131.9242008606
20
74.8573924058
11
131.8441769386
21
75.0333697792
0
LINE
5
2CE
100
AcDbEntity
8
0
100
AcDbLine
62
7
6
CONTINUOUS
10
136.2788074812
20
63.5109717757
11
136.1455016109
21
63.8049836551
0
LINE
5
2CF
100
AcDbEntity
8
0
100
AcDbLine
62
7
6
CONTINUOUS
10
136.1690611587
20
63.6014623201
11
136.0346046329
21
63.9181644950
0
LINE
5
2D0
100
AcDbEntity
8
0
100
AcDbLine
62
7
6
CONTINUOUS
10
136.1454865090
20
63.8049772597
11
135.7103659521
21
64.8508842730
0
LWPOLYLINE
5
2D1
100
AcDbEntity
8
0
100
AcDbPolyline
62
7
6
CONTINUOUS
90
9
70
0
10
136.0346046329
20
63.9181644950
10
135.4752881503
20
65.2776241221
10
134.9645470164
20
66.5456263883
10
134.5015434149
20
67.7213388313
10
134.0826776030
20
68.8072588384
10
133.7051301802
20
69.8050817094
10
133.3666463295
20
70.7163812440
10
133.0644797037
20
71.5435450182
10
132.7975843604
20
72.2858270022
0
LINE
5
2D2
100
AcDbEntity
8
0
100
AcDbLine
62
7
6
CONTINUOUS
10
135.7608832895
20
64.7285317970
11
135.2069543770
21
66.0839057823
0
LINE
5
2D3
100
AcDbEntity
8
0
100
AcDbLine
62
7
6
CONTINUOUS
10
135.3078146726
20
65.8348190383
11
134.7454303685
21
67.2373593975
0
LINE
5
2D4
100
AcDbEntity
8
0
100
AcDbLine
62
7
6
CONTINUOUS
10
136.5810110841
20
62.9164417218
11
136.6163568330
21
62.8280451275
0
LINE
5
2D5
100
AcDbEntity
8
0
100
AcDbLine
62
7
6
CONTINUOUS
10
134.8877266823
20
66.8793054607
11
134.3268445667
21
68.3035960277
0
LINE
5
2D6
100
AcDbEntity
8
0
100
AcDbLine
62
7
6
CONTINUOUS
10
134.5016902246
20
67.8558240604
11
133.9534761208
21
69.2718147428
0
LINE
5
2D7
100
AcDbEntity
8
0
100
AcDbLine
62
7
6
CONTINUOUS
10
134.1510269423
20
68.7574552849
11
133.6180865500
21
70.1559564288
0
LINE
5
2D8
100
AcDbEntity
8
0
100
AcDbLine
62
7
6
CONTINUOUS
10
133.8323663480
20
69.5894748503
11
133.5453353647
21
70.3496150798
0
LINE
5
2D9
100
AcDbEntity
8
0
100
AcDbLine
62
7
6
CONTINUOUS
10
115.5345177665
20
61.1934246521
11
115.5345177665
21
60.0105565272
0
LWPOLYLINE
5
2DA
100
AcDbEntity
8
0
100
AcDbPolyline
62
7
6
CONTINUOUS
90
13
70
0
10
68.9871023204
20
62.6762859498
10
68.9144304134
20
62.5856865155
10
68.8229907366
20
62.4884712920
10
68.7130279392
20
62.3871846137
10
68.5852429690
20
62.2836562793
10
68.4399337613
20
62.1796063630
10
68.2794124433
20
62.0776237888
10
68.1053040940
20
61.9796051848
10
67.9213906450
20
61.8878847803
10
67.7317758715
20
61.8043656717
10
67.5387092750
20
61.7295345772
10
67.3462899223
20
61.6641446529
10
67.1537382400
20
61.6074461136
0
LINE
5
2DB
100
AcDbEntity
8
0
100
AcDbLine
62
7
6
CONTINUOUS
10
133.6180865500
20
70.1559564288
11
133.2835882027
21
71.0521482349
0
LINE
5
2DC
100
AcDbEntity
8
0
100
AcDbLine
62
7
6
CONTINUOUS
10
133.3172702304
20
70.9612369563
11
132.7968419684
21
72.3832545390
0
LINE
5
2DD
100
AcDbEntity
8
0
100
AcDbLine
62
7
6
CONTINUOUS
10
132.8215925380
20
72.3147520567
11
132.3808589529
21
73.5479329944
0
LINE
5
2DE
100
AcDbEntity
8
0
100
AcDbLine
62
7
6
CONTINUOUS
10
132.7975843604
20
72.2858270022
11
132.3639866888
21
73.5158950875
0
LINE
5
2DF
100
AcDbEntity
8
0
100
AcDbLine
62
7
6
CONTINUOUS
10
132.4410345866
20
73.3778121406
11
132.0887516073
21
74.3816506360
0
LINE
5
2E0
100
AcDbEntity
8
0
100
AcDbLine
62
7
6
CONTINUOUS
10
132.0887516073
20
74.3816506360
11
131.9242008606
21
74.8573924058
0
LINE
5
2E1
100
AcDbEntity
8
0
100
AcDbLine
62
7
6
CONTINUOUS
10
132.3639866888
20
73.5158950875
11
132.0668529566
21
74.3773311358
0
LINE
5
2E2
100
AcDbEntity
8
0
100
AcDbLine
62
7
6
CONTINUOUS
10
132.0668529566
20
74.3773311358
11
131.8572599995
21
74.9938608034
0
LINE
5
2E3
100
AcDbEntity
8
0
100
AcDbLine
62
7
6
CONTINUOUS
10
131.8572599995
20
74.9938608034
11
131.8441767572
21
75.0333703250
0
LINE
5
2E4
100
AcDbEntity
8
0
100
AcDbLine
62
2
6
CONTINUOUS
10
119.2345177665
20
211.1384919846
11
119.2345177665
21
100.2791850675
0
LINE
5
2E5
100
AcDbEntity
8
0
100
AcDbLine
62
7
6
CONTINUOUS
10
121.0345177665
20
211.3267561235
11
121.0345177665
21
102.0791850675
0
LINE
5
2E6
100
AcDbEntity
8
0
100
AcDbLine
62
7
6
CONTINUOUS
10
121.0345177665
20
102.0791850675
11
111.5345177665
21
92.5791850675
0
LWPOLYLINE
5
2E7
100
AcDbEntity
8
0
100
AcDbPolyline
62
7
6
CONTINUOUS
90
23
70
0
10
45.5329698003
20
59.9972263973
10
45.4795907932
20
59.9616375755
10
45.4246615965
20
59.9225281387
10
45.3683596391
20
59.8797726788
10
45.3109440081
20
59.8333171459
10
45.2526643785
20
59.7831257700
10
45.1937258994
20
59.7291404618
10
45.1344131388
20
59.6713963989
10
45.0747230303
20
59.6096531633
10
45.0148050673
20
59.5437993307
10
44.9545721110
20
59.4734305521
10
44.8940327630
20
59.3981747037
10
44.8332763156
20
59.3176938884
10
44.7724044159
20
59.2315912987
10
44.7116531761
20
59.1395875684
10
44.6512684454
20
59.0413481252
10
44.5915988438
20
58.9366286392
10
44.5330776742
20
58.8252662960
10
44.4759880220
20
58.7066883383
10
44.4208333090
20
58.5805888553
10
44.3679870813
20
58.4460844320
10
44.3179372337
20
58.3020346741
10
44.2718116073
20
58.1486274056
0
LWPOLYLINE
5
2E8
100
AcDbEntity
8
0
100
AcDbPolyline
62
7
6
CONTINUOUS
90
8
70
0
10
45.8988289881
20
62.6595756347
10
45.6568889214
20
62.5317225060
10
45.4346876764
20
62.3708728675
10
45.2373045524
20
62.1804456994
10
45.0689758341
20
61.9646433854
10
44.9326590539
20
61.7276969586
10
44.8308029844
20
61.4744255057
10
44.7650864801
20
61.2096636760
0
LWPOLYLINE
5
2E9
100
AcDbEntity
8
0
100
AcDbPolyline
62
7
6
CONTINUOUS
90
23
70
0
10
161.7972238730
20
58.1486274057
10
161.7476408543
20
58.2735568328
10
161.6928418758
20
58.3914429864
10
161.6339757272
20
58.5018972788
10
161.5717863879
20
58.6054922529
10
161.5068876479
20
58.7027132530
10
161.4399539689
20
58.7937082370
10
161.3715190337
20
58.8787813101
10
161.3020904404
20
58.9581411550
10
161.2321210953
20
59.0320292781
10
161.1619078832
20
59.1007695440
10
161.0917264072
20
59.1646502539
10
161.0217095563
20
59.2240246137
10
160.9519523952
20
59.2792091989
10
160.8824936654
20
59.3305133029
10
160.8132163003
20
59.3782917198
10
160.7443979973
20
59.4225893358
10
160.6761306393
20
59.4635724130
10
160.6087473554
20
59.5012519781
10
160.5425123547
20
59.5357065255
10
160.4776875326
20
59.5670172845
10
160.4145693370
20
59.5952649835
10
160.3532724474
20
59.6206422857
0
LINE
5
2EA
100
AcDbEntity
8
0
100
AcDbLine
62
7
6
CONTINUOUS
10
69.4321457601
20
62.9952051516
11
69.3659840612
21
62.9461539353
0
LWPOLYLINE
5
2EB
100
AcDbEntity
8
0
100
AcDbPolyline
62
7
6
CONTINUOUS
90
4
70
0
10
70.0344140920
20
63.9181748549
10
69.9733589038
20
63.8753940833
10
69.9318657247
20
63.8223603386
10
69.9235766816
20
63.8050855612
0
LWPOLYLINE
5
2EC
100
AcDbEntity
8
0
100
AcDbPolyline
62
7
6
CONTINUOUS
90
5
70
0
10
69.6301118701
20
63.0966301276
10
69.5120776668
20
63.0186188612
10
69.3969667526
20
62.9538223296
10
69.2848350421
20
62.9009400753
10
69.2183207334
20
62.8748354981
0
LWPOLYLINE
5
2ED
100
AcDbEntity
8
0
100
AcDbPolyline
62
7
6
CONTINUOUS
90
23
70
0
10
161.7972239243
20
58.1486274062
10
161.7518438338
20
58.2997360651
10
161.7023493285
20
58.4425691637
10
161.6496587082
20
58.5770785290
10
161.5943633419
20
58.7038228507
10
161.5369829634
20
58.8232299009
10
161.4780614373
20
58.9354874480
10
161.4180394540
20
59.0408886257
10
161.3573226335
20
59.1396810747
10
161.2962888004
20
59.2320920713
10
161.2351689066
20
59.3185008018
10
161.1741871802
20
59.3992202395
10
161.1134400924
20
59.4746621329
10
161.0529969963
20
59.5451953137
10
160.9928783821
20
59.6111802453
10
160.9329738020
20
59.6730484048
10
160.8735098536
20
59.7308376658
10
160.8145623971
20
59.7847297064
10
160.7564050095
20
59.8347231090
10
160.6992628262
20
59.8808787130
10
160.6433515260
20
59.9232792950
10
160.5888887254
20
59.9620202932
10
160.5360657321
20
59.9972264146
0
LWPOLYLINE
5
2EE
100
AcDbEntity
8
0
100
AcDbPolyline
62
7
6
CONTINUOUS
90
6
70
0
10
139.9204612042
20
61.8484642648
10
139.9020137997
20
61.6413255465
10
139.8939892358
20
61.5580168585
10
139.8873339829
20
61.4942229990
10
139.8823922873
20
61.4532437169
10
139.8794197615
20
61.4371986726
0
LWPOLYLINE
5
2EF
100
AcDbEntity
8
0
100
AcDbPolyline
62
7
6
CONTINUOUS
90
23
70
0
10
45.7157630853
20
59.6206422856
10
45.6538208566
20
59.5949877992
10
45.5901636711
20
59.5664662808
10
45.5248883386
20
59.5348866020
10
45.4583373935
20
59.5001988543
10
45.3908157843
20
59.4623606900
10
45.3225600914
20
59.4212966664
10
45.2539196199
20
59.3770244064
10
45.1848918992
20
59.3293348519
10
45.1156674853
20
59.2781264953
10
45.0461540310
20
59.2230644036
10
44.9763785366
20
59.1638326782
10
44.9064570823
20
59.1001365167
10
44.8365296943
20
59.0316382285
10
44.7668842834
20
58.9580742354
10
44.6978342650
20
58.8791592148
10
44.6297986059
20
58.7946386832
10
44.5633147970
20
58.7043730973
10
44.4987387350
20
58.6078380898
10
44.4366972880
20
58.5047801582
10
44.3776426163
20
58.3943380248
10
44.3222138001
20
58.2754556062
10
44.2718116657
20
58.1486274057
0
LINE
5
2F0
100
AcDbEntity
8
0
100
AcDbLine
62
7
6
CONTINUOUS
10
162.5270823725
20
61.2096636760
11
164.7063263006
21
49.9984255738
0
LINE
5
2F1
100
AcDbEntity
8
0
100
AcDbLine
62
7
6
CONTINUOUS
10
160.3425035665
20
61.1925028583
11
160.5360657311
21
59.9972264149
0
LWPOLYLINE
5
2F2
100
AcDbEntity
8
0
100
AcDbPolyline
62
7
6
CONTINUOUS
90
7
70
0
10
139.0433139128
20
62.0016941879
10
139.0146321925
20
61.9010083259
10
138.9873096502
20
61.8092082993
10
138.9626410654
20
61.7306444017
10
138.9417954499
20
61.6690396826
10
138.9257606499
20
61.6273135160
10
138.9152965327
20
61.6074432555
0
LWPOLYLINE
5
2F3
100
AcDbEntity
8
0
100
AcDbPolyline
62
7
6
CONTINUOUS
90
3
70
0
10
69.2183207334
20
62.8748354981
10
69.1788827271
20
62.8616643927
10
69.0823043398
20
62.8377058911
0
LINE
5
2F4
100
AcDbEntity
8
0
100
AcDbLine
62
7
6
CONTINUOUS
10
161.3039490529
20
61.2096636760
11
161.7972239198
21
58.1486274057
0
LINE
5
2F5
100
AcDbEntity
8
0
100
AcDbLine
62
7
6
CONTINUOUS
10
164.7063263006
20
49.9984255738
11
165.1083138769
21
42.3280456853
0
LINE
5
2F6
100
AcDbEntity
8
0
100
AcDbLine
62
7
6
CONTINUOUS
10
159.3696306108
20
62.8280456853
11
159.3696306108
21
62.0016938629
0
LINE
5
2F7
100
AcDbEntity
8
0
100
AcDbLine
62
7
6
CONTINUOUS
10
164.8345177665
20
41.8280456853
11
164.8345177665
21
32.3280456853
0
LWPOLYLINE
5
2F8
100
AcDbEntity
8
0
100
AcDbPolyline
62
7
6
CONTINUOUS
90
6
70
0
10
159.8025997296
20
60.1706720714
10
159.7834569308
20
59.9623425611
10
159.7751467030
20
59.8787917390
10
159.7682756620
20
59.8150939701
10
159.7632040125
20
59.7745885213
10
159.7601976286
20
59.7593988342
0
LWPOLYLINE
5
2F9
100
AcDbEntity
8
0
100
AcDbPolyline
62
7
6
CONTINUOUS
90
7
70
0
10
160.5360657320
20
59.9972273517
10
160.4948284769
20
59.8995928575
10
160.4555874387
20
59.8108881391
10
160.4202424416
20
59.7354077611
10
160.3905046865
20
59.6768060426
10
160.3678139044
20
59.6379201363
10
160.3532686529
20
59.6206326703
0
LINE
5
2FA
100
AcDbEntity
8
0
100
AcDbLine
62
7
6
CONTINUOUS
10
121.0345177665
20
211.3267561235
11
115.4268335954
21
210.7402417727
0
LINE
5
2FB
100
AcDbEntity
8
0
100
AcDbLine
62
7
6
CONTINUOUS
10
103.2131979695
20
212.8969543147
11
92.7070569846
21
216.1382969767
0
LINE
5
2FC
100
AcDbEntity
8
0
100
AcDbLine
62
7
6
CONTINUOUS
10
92.7070569846
20
216.1382969767
11
85.0345177665
21
218.5255446122
0
LINE
5
2FD
100
AcDbEntity
8
0
100
AcDbLine
62
7
6
CONTINUOUS
10
115.4268335954
20
210.7402417727
11
103.2131979695
21
212.8969543147
0
LINE
5
2FE
100
AcDbEntity
8
0
100
AcDbLine
62
7
6
CONTINUOUS
10
164.6083138769
20
41.8280456853
11
165.1083138769
21
42.3280456853
0
ARC
5
2FF
100
AcDbEntity
8
0
100
AcDbCircle
62
7
6
CONTINUOUS
10
82.1892183049
20
84.8280456853
40
2.0000000000
100
AcDbArc
50
90.0000000000
51
149.9999899700
0
ARC
5
300
100
AcDbEntity
8
0
100
AcDbCircle
62
7
6
CONTINUOUS
10
123.8798172281
20
84.8280456853
40
2.0000000000
100
AcDbArc
50
30.0000100300
51
90.0000000000
0
ARC
5
301
100
AcDbEntity
8
0
100
AcDbCircle
62
7
6
CONTINUOUS
10
45.5052075274
20
60.8280456853
40
2.0000000000
100
AcDbArc
50
90.0000000000
51
169.0000000000
0
ARC
5
302
100
AcDbEntity
8
0
100
AcDbCircle
62
7
6
CONTINUOUS
10
160.5638280056
20
60.8280456853
40
2.0000000000
100
AcDbArc
50
11.0000000000
51
90.0000000000
0
ARC
5
303
100
AcDbEntity
8
0
100
AcDbCircle
62
7
6
CONTINUOUS
10
103.0345177665
20
81.3280456853
40
12.2500000000
100
AcDbArc
50
26.6963532684
51
46.0621601143
0
ARC
5
304
100
AcDbEntity
8
0
100
AcDbCircle
62
7
6
CONTINUOUS
10
103.0345177665
20
81.3280456853
40
12.2500000000
100
AcDbArc
50
133.9378398857
51
153.3036467316
0
ENDSEC
0
SECTION
2
OBJECTS
0
DICTIONARY
5
C
100
AcDbDictionary
280
0
281
1
3
ACAD_GROUP
350
D
3
ACAD_MLINESTYLE
350
17
3
ACAD_LAYOUT
350
1A
3
ACAD_PLOTSETTINGS
350
19
3
ACAD_PLOTSTYLENAME
350
E
0
DICTIONARY
5
D
102
{ACAD_REACTORS
330
C
102
}
100
AcDbDictionary
280
0
281
1
0
ACDBDICTIONARYWDFLT
5
E
102
{ACAD_REACTORS
330
C
102
}
100
AcDbDictionary
281
1
3
Normal
350
F
100
AcDbDictionaryWithDefault
340
F
0
DICTIONARY
5
17
102
{ACAD_REACTORS
330
C
102
}
100
AcDbDictionary
280
0
281
1
3
Standard
350
18
0
DICTIONARY
5
19
102
{ACAD_REACTORS
330
C
102
}
100
AcDbDictionary
281
1
0
DICTIONARY
5
1A
102
{ACAD_REACTORS
330
C
102
}
100
AcDbDictionary
281
1
3
Layout1
350
1E
3
Model
350
22
0
ACDBPLACEHOLDER
5
F
102
{ACAD_REACTORS
330
E
102
}
0
MLINESTYLE
5
18
102
{ACAD_REACTORS
330
17
102
}
100
AcDbMlineStyle
2
STANDARD
70
0
3

62
256
51
90.0
52
90.0
71
2
49
0.5
62
256
6
BYLAYER
49
-0.5
62
256
6
BYLAYER
0
LAYOUT
5
1E
102
{ACAD_REACTORS
330
1A
102
}
100
AcDbPlotSettings
1

2

4

6

40
0.0
41
0.0
42
0.0
43
0.0
44
0.0
45
0.0
46
0.0
47
0.0
48
0.0
49
0.0
140
0.0
141
0.0
142
1.0
143
1.0
70
0
72
0
73
0
74
0
7

75
0
147
1.0
148
0.0
149
0.0
100
AcDbLayout
1
Layout1
70
0
71
0
10
0.0
20
0.0
11
0.0
21
0.0
12
0.0
22
0.0
32
0.0
14
0.0
24
0.0
34
0.0
15
0.0
25
0.0
35
0.0
146
0.0
13
0.0
23
0.0
33
0.0
16
0.0
26
0.0
36
0.0
17
0.0
27
0.0
37
0.0
76
0
330
1B
331
0
345
0
346
0
0
LAYOUT
5
22
102
{ACAD_REACTORS
330
1A
102
}
100
AcDbPlotSettings
1

2

4

6

40
0.0
41
0.0
42
0.0
43
0.0
44
0.0
45
0.0
46
0.0
47
0.0
48
0.0
49
0.0
140
0.0
141
0.0
142
1.0
143
1.0
70
0
72
0
73
0
74
0
7

75
0
147
1.0
148
0.0
149
0.0
100
AcDbLayout
1
Model
70
0
71
0
10
0.0
20
0.0
11
0.0
21
0.0
12
0.0
22
0.0
32
0.0
14
0.0
24
0.0
34
0.0
15
0.0
25
0.0
35
0.0
146
0.0
13
0.0
23
0.0
33
0.0
16
0.0
26
0.0
36
0.0
17
0.0
27
0.0
37
0.0
76
0
330
1F
331
0
345
0
346
0
0
ENDSEC
0
EOF
