999
DXF file: R0170653122.dxf
999
Pro/ENGINEER 2005310 by Parametric Technology Corporation
0
SECTION
2
HEADER
9
$ACADVER
1
AC1015
9
$DWGCODEPAGE
3
ANSI_1252
9
$EXTMAX
10
210.0000000000
20
297.0000000000
30
0.0000000000
9
$EXTMIN
10
0.0000000000
20
0.0000000000
30
0.0000000000
9
$LIMMIN
10
0.0000000000
20
0.0000000000
9
$LIMMAX
10
210.0000000000
20
297.0000000000
9
$VIEWCTR
10
105.0000000000
20
148.5000000000
9
$VIEWSIZE
40
297.0000000000
9
$CLAYER
8
0
9
$LTSCALE
40
19.3600000000
9
$CELTYPE
6
BYLAYER
9
$DIMSCALE
40
1
9
$DIMASZ
40
3.5000000000
9
$DIMEXO
40
2.2000000000
9
$DIMDLI
40
13.3760000000
9
$DIMEXE
40
6.3360000000
9
$DIMCEN
40
3.1680000000
9
$DIMLFAC
40
1.0000000000
9
$DIMBLK
1
_FILLED
9
$DIMTXT
40
3.5000000000
9
$DIMTOL
70
1
9
$DIMLIM
70
0
9
$DIMTFAC
40
1.0000000000
9
$DIMTP
40
0.0010000000
9
$DIMTM
40
0.0010000000
9
$PDMODE
70
3
9
$PDSIZE
40
0.3125000000
9
$HANDSEED
5
2B5
9
$MEASUREMENT
70
1
9
$INSUNITS
70
4
0
ENDSEC
0
SECTION
2
CLASSES
0
CLASS
1
ACDBDICTIONARYWDFLT
2
AcDbDictionaryWithDefault
3
AutoCAD 2000
90
0
280
0
281
0
0
CLASS
1
ACDBPLACEHOLDER
2
AcDbPlaceHolder
3
AutoCAD 2000
90
0
280
0
281
0
0
CLASS
1
LAYOUT
2
AcDbLayout
3
AutoCAD 2000
90
0
280
0
281
0
0
ENDSEC
0
SECTION
2
TABLES
0
TABLE
2
VPORT
5
8
100
AcDbSymbolTable
70
2
0
VPORT
5
1F4
100
AcDbSymbolTableRecord
100
AcDbViewportTableRecord
2
*ACTIVE
70
0
10
0.0
20
0.0
11
1.0
21
1.0
12
105.0000000000
22
148.5000000000
13
0.0
23
0.0
14
1.0
24
1.0
15
0.0
25
0.0
16
0.0
26
0.0
36
1.0
17
0.0
27
0.0
37
0.0
40
297.0000000000
41
0.7070707071
42
50.0
43
0.0
44
0.0
50
0.0
51
0.0
71
0
72
100
73
1
74
1
75
0
76
0
77
0
78
0
0
ENDTAB
0
TABLE
2
LTYPE
5
5
100
AcDbSymbolTable
70
6
0
LTYPE
5
14
100
AcDbSymbolTableRecord
100
AcDbLinetypeTableRecord
2
BYBLOCK
70
0
3

72
65
73
0
40
0.0
0
LTYPE
5
15
100
AcDbSymbolTableRecord
100
AcDbLinetypeTableRecord
2
BYLAYER
70
0
3

72
65
73
0
40
0.0
0
LTYPE
5
16
100
AcDbSymbolTableRecord
100
AcDbLinetypeTableRecord
2
CONTINUOUS
70
64
3
Solid line
72
65
73
0
40
0
0
LTYPE
5
1F5
100
AcDbSymbolTableRecord
100
AcDbLinetypeTableRecord
2
CENTER
70
64
3
____ _ ____ _ ____ _ ____ _ ____ _ ____ _ ____
72
65
73
4
40
0.6
49
0.375
74
0
49
-0.075
74
0
49
0.075
74
0
49
-0.075
74
0
0
LTYPE
5
1F6
100
AcDbSymbolTableRecord
100
AcDbLinetypeTableRecord
2
HIDDEN
70
64
3
- - - - - - - - - - - - - - - - - - - -
72
65
73
2
40
0.2
49
0.1
74
0
49
-0.1
74
0
0
LTYPE
5
1F7
100
AcDbSymbolTableRecord
100
AcDbLinetypeTableRecord
2
PHANTOM
70
64
3
_____ _ _ _____ _ _ _____ _ _ _____
72
65
73
6
40
0.8
49
0.45
74
0
49
-0.05
74
0
49
0.1
74
0
49
-0.05
74
0
49
0.1
74
0
49
-0.05
74
0
0
LTYPE
5
1F8
100
AcDbSymbolTableRecord
100
AcDbLinetypeTableRecord
2
DOT
70
64
3
. . . . . . . . . . . . . . . . . . . .
72
65
73
2
40
0.2
49
0.1
74
0
49
-0.1
74
0
0
LTYPE
5
1F9
100
AcDbSymbolTableRecord
100
AcDbLinetypeTableRecord
2
DASHED
70
64
3
- - - - - - - - - - - - - - - - - - - -
72
65
73
2
40
0.2
49
0.1
74
0
49
-0.1
74
0
0
ENDTAB
0
TABLE
2
LAYER
5
2
100
AcDbSymbolTable
70
36
0
LAYER
5
10
100
AcDbSymbolTableRecord
100
AcDbLayerTableRecord
2
0
70
0
62
7
6
CONTINUOUS
370
-3
390
F
0
LAYER
5
1FA
100
AcDbSymbolTableRecord
100
AcDbLayerTableRecord
2
DEFAULT_1
70
0
62
7
6
CENTER
370
-3
390
F
0
LAYER
5
1FB
100
AcDbSymbolTableRecord
100
AcDbLayerTableRecord
2
DEFAULT_2
70
0
62
8
6
HIDDEN
370
-3
390
F
0
LAYER
5
1FC
100
AcDbSymbolTableRecord
100
AcDbLayerTableRecord
2
DEFAULT_3
70
0
62
7
6
PHANTOM
370
-3
390
F
0
LAYER
5
1FD
100
AcDbSymbolTableRecord
100
AcDbLayerTableRecord
2
ASSI
70
0
62
7
6
CONTINUOUS
370
-3
390
F
0
LAYER
5
1FE
100
AcDbSymbolTableRecord
100
AcDbLayerTableRecord
2
CURVE
70
0
62
7
6
CONTINUOUS
370
-3
390
F
0
LAYER
5
1FF
100
AcDbSymbolTableRecord
100
AcDbLayerTableRecord
2
PIANI
70
0
62
7
6
CONTINUOUS
370
-3
390
F
0
LAYER
5
200
100
AcDbSymbolTableRecord
100
AcDbLayerTableRecord
2
PUNTI
70
0
62
7
6
CONTINUOUS
370
-3
390
F
0
LAYER
5
201
100
AcDbSymbolTableRecord
100
AcDbLayerTableRecord
2
SURF_FILETTI
70
0
62
7
6
CONTINUOUS
370
-3
390
F
0
LAYER
5
202
100
AcDbSymbolTableRecord
100
AcDbLayerTableRecord
2
TOLL
70
0
62
7
6
CONTINUOUS
370
-3
390
F
0
LAYER
5
203
100
AcDbSymbolTableRecord
100
AcDbLayerTableRecord
2
XSEC_DATUMS
70
0
62
7
6
CONTINUOUS
370
-3
390
F
0
ENDTAB
0
TABLE
2
STYLE
5
3
100
AcDbSymbolTable
70
1
0
STYLE
5
11
100
AcDbSymbolTableRecord
100
AcDbTextStyleTableRecord
2
STANDARD
70
0
40
0.0
41
0.7143000000
50
0.0
71
0
42
0.2
3
txt
4

0
ENDTAB
0
TABLE
2
VIEW
5
6
100
AcDbSymbolTable
70
0
0
ENDTAB
0
TABLE
2
UCS
5
7
100
AcDbSymbolTable
70
0
0
ENDTAB
0
TABLE
2
APPID
5
9
100
AcDbSymbolTable
70
1
0
APPID
5
204
100
AcDbSymbolTableRecord
100
AcDbRegAppTableRecord
2
ACAD
70
0
0
ENDTAB
0
TABLE
2
BLOCK_RECORD
5
1
100
AcDbSymbolTable
70
0
0
BLOCK_RECORD
5
1F
100
AcDbSymbolTableRecord
100
AcDbBlockTableRecord
2
*MODEL_SPACE
0
BLOCK_RECORD
5
1B
100
AcDbSymbolTableRecord
100
AcDbBlockTableRecord
2
*PAPER_SPACE
0
BLOCK_RECORD
5
205
100
AcDbSymbolTableRecord
100
AcDbBlockTableRecord
2
_FILLED
0
BLOCK_RECORD
5
206
100
AcDbSymbolTableRecord
100
AcDbBlockTableRecord
2
*D0
0
BLOCK_RECORD
5
207
100
AcDbSymbolTableRecord
100
AcDbBlockTableRecord
2
*D1
0
BLOCK_RECORD
5
208
100
AcDbSymbolTableRecord
100
AcDbBlockTableRecord
2
*D2
0
BLOCK_RECORD
5
209
100
AcDbSymbolTableRecord
100
AcDbBlockTableRecord
2
*D3
0
BLOCK_RECORD
5
20A
100
AcDbSymbolTableRecord
100
AcDbBlockTableRecord
2
*D4
0
ENDTAB
0
TABLE
2
DIMSTYLE
5
A
100
AcDbSymbolTable
70
1
100
AcDbDimStyleTable
71
0
0
DIMSTYLE
105
20B
100
AcDbSymbolTableRecord
100
AcDbDimStyleTableRecord
2
STANDARD
70
0
3

4

40
1.0
41
3.5000000000
42
0.0625
43
0.38
44
0.18
45
0.0
46
0.0
47
0.0010000000
48
0.0010000000
140
3.5000000000
141
0.09
142
0.0
143
25.4
144
1.0000000000
145
0.0
146
1.0000000000
147
0.09
71
1
72
0
73
0
74
0
75
0
76
0
77
1
78
8
170
0
171
2
172
0
173
0
174
0
175
0
176
0
177
0
178
0
270
2
271
3
272
3
273
2
274
2
275
0
280
0
281
0
282
0
283
1
284
8
285
0
286
0
287
3
288
0
340
11
341
205
342
205
343
205
344
205
0
DIMSTYLE
105
20C
100
AcDbSymbolTableRecord
100
AcDbDimStyleTableRecord
2
DIMSTYLE_1
70
0
3

4

40
1.0
41
3.5000000000
42
0.0625
43
0.38
44
0.18
45
0.0
46
0.0
47
0.1500000000
48
0.1500000000
140
5.0000000000
141
0.09
142
0.0
143
25.4
144
1.0000000000
145
0.0
146
1.0000000000
147
0.09
71
0
72
0
73
0
74
0
75
0
76
0
77
1
78
8
170
0
171
2
172
0
173
0
174
0
175
0
176
0
177
0
178
0
270
2
271
3
272
3
273
2
274
2
275
0
280
0
281
0
282
0
283
1
284
8
285
0
286
0
287
3
288
0
340
11
341
205
342
205
343
205
344
205
0
DIMSTYLE
105
20D
100
AcDbSymbolTableRecord
100
AcDbDimStyleTableRecord
2
DIMSTYLE_2
70
0
3

4

40
1.0
41
3.5000000000
42
0.0625
43
0.38
44
0.18
45
0.0
46
0.0
47
0.1000000000
48
0.1000000000
140
5.0000000000
141
0.09
142
0.0
143
25.4
144
1.0000000000
145
0.0
146
1.0000000000
147
0.09
71
0
72
0
73
0
74
0
75
0
76
0
77
1
78
8
170
0
171
2
172
0
173
0
174
0
175
0
176
0
177
0
178
0
270
2
271
3
272
3
273
2
274
2
275
0
280
0
281
0
282
0
283
1
284
8
285
0
286
0
287
3
288
0
340
11
341
205
342
205
343
205
344
205
0
DIMSTYLE
105
20E
100
AcDbSymbolTableRecord
100
AcDbDimStyleTableRecord
2
DIMSTYLE_3
70
0
3

4

40
1.0
41
3.5000000000
42
0.0625
43
0.38
44
0.18
45
0.0
46
0.0
47
0.2000000000
48
0.2000000000
140
5.0000000000
141
0.09
142
0.0
143
25.4
144
1.0000000000
145
0.0
146
1.0000000000
147
0.09
71
0
72
0
73
0
74
0
75
0
76
0
77
1
78
8
170
0
171
2
172
0
173
0
174
0
175
0
176
0
177
0
178
0
270
2
271
1
272
1
273
2
274
2
275
0
280
0
281
0
282
0
283
1
284
8
285
0
286
0
287
3
288
0
340
11
341
205
342
205
343
205
344
205
0
ENDTAB
0
ENDSEC
0
SECTION
2
BLOCKS
0
BLOCK
5
20
100
AcDbEntity
8
0
100
AcDbBlockBegin
2
*MODEL_SPACE
70
0
10
0.0
20
0.0
30
0.0
3
*MODEL_SPACE
1

0
ENDBLK
5
21
100
AcDbEntity
8
0
100
AcDbBlockEnd
0
BLOCK
5
1C
100
AcDbEntity
8
0
100
AcDbBlockBegin
2
*PAPER_SPACE
70
0
10
0.0
20
0.0
30
0.0
3
*PAPER_SPACE
1

0
ENDBLK
5
1D
100
AcDbEntity
8
0
100
AcDbBlockEnd
0
BLOCK
5
20F
100
AcDbEntity
8
0
100
AcDbBlockBegin
62
2
6
CONTINUOUS
2
*D0
70
65
10
0.0000000000
20
0.0000000000
3
*D0
1

0
TEXT
5
210
100
AcDbEntity
8
0
100
AcDbText
62
2
6
CONTINUOUS
10
88.4104132473
20
289.6773727839
7
STANDARD
40
5.0000000000
1
M
41
0.7143000000
72
0
100
AcDbText
0
TEXT
5
211
100
AcDbEntity
8
0
100
AcDbText
62
2
6
CONTINUOUS
10
91.9819132473
20
289.6773727839
7
STANDARD
40
5.0000000000
1
36
41
0.7143000000
72
0
100
AcDbText
0
LINE
5
212
100
AcDbEntity
8
0
100
AcDbLine
62
2
6
CONTINUOUS
10
76.5380710660
20
257.6269247716
11
76.5380710660
21
289.9273727839
0
LINE
5
213
100
AcDbEntity
8
0
100
AcDbLine
62
2
6
CONTINUOUS
10
112.5380710660
20
257.6269247716
11
112.5380710660
21
289.9273727839
0
LINE
5
214
100
AcDbEntity
8
0
100
AcDbLine
62
2
6
CONTINUOUS
10
76.5380710660
20
288.4273727839
11
94.5380710660
21
288.4273727839
0
LINE
5
215
100
AcDbEntity
8
0
100
AcDbLine
62
2
6
CONTINUOUS
10
112.5380710660
20
288.4273727839
11
94.5380710660
21
288.4273727839
0
INSERT
5
216
100
AcDbEntity
8
0
100
AcDbBlockReference
62
2
6
CONTINUOUS
2
_FILLED
10
76.5380710660
20
288.4273727839
41
  3.500000
42
  3.500000
43
  3.500000
50
180.000000
0
INSERT
5
217
100
AcDbEntity
8
0
100
AcDbBlockReference
62
2
6
CONTINUOUS
2
_FILLED
10
112.5380710660
20
288.4273727839
41
  3.500000
42
  3.500000
43
  3.500000
0
ENDBLK
5
218
100
AcDbEntity
8
0
6
BYBLOCK
62
0
100
AcDbBlockEnd
0
BLOCK
5
219
100
AcDbEntity
8
0
100
AcDbBlockBegin
62
2
6
CONTINUOUS
2
*D1
70
65
10
0.0000000000
20
0.0000000000
3
*D1
1

0
TEXT
5
21A
100
AcDbEntity
8
0
100
AcDbText
62
2
6
CONTINUOUS
10
62.7353652503
20
267.6235697003
7
STANDARD
40
5.0000000000
1
20
50
90.0000000000
41
0.7143000000
72
0
100
AcDbText
0
LINE
5
21B
100
AcDbEntity
8
0
100
AcDbLine
62
2
6
CONTINUOUS
10
83.6457664886
20
280.9374365482
11
62.4853652503
21
280.9374365482
0
LINE
5
21C
100
AcDbEntity
8
0
100
AcDbLine
62
2
6
CONTINUOUS
10
78.2380710660
20
260.9374365482
11
62.4853652503
21
260.9374365482
0
LINE
5
21D
100
AcDbEntity
8
0
100
AcDbLine
62
2
6
CONTINUOUS
10
63.9853652503
20
280.9374365482
11
63.9853652503
21
270.9374365482
0
LINE
5
21E
100
AcDbEntity
8
0
100
AcDbLine
62
2
6
CONTINUOUS
10
63.9853652503
20
260.9374365482
11
63.9853652503
21
270.9374365482
0
INSERT
5
21F
100
AcDbEntity
8
0
100
AcDbBlockReference
62
2
6
CONTINUOUS
2
_FILLED
10
63.9853652503
20
280.9374365482
41
  3.500000
42
  3.500000
43
  3.500000
50
 90.000000
0
INSERT
5
220
100
AcDbEntity
8
0
100
AcDbBlockReference
62
2
6
CONTINUOUS
2
_FILLED
10
63.9853652503
20
260.9374365482
41
  3.500000
42
  3.500000
43
  3.500000
50
270.000000
0
ENDBLK
5
221
100
AcDbEntity
8
0
6
BYBLOCK
62
0
100
AcDbBlockEnd
0
BLOCK
5
222
100
AcDbEntity
8
0
100
AcDbBlockBegin
62
2
6
CONTINUOUS
2
*D2
70
65
10
0.0000000000
20
0.0000000000
3
*D2
1

0
TEXT
5
223
100
AcDbEntity
8
0
100
AcDbText
62
2
6
CONTINUOUS
10
46.7510152284
20
186.1449785845
7
STANDARD
40
5.0000000000
1
287.3
50
90.0000000000
41
0.7143000000
72
0
100
AcDbText
0
LINE
5
224
100
AcDbEntity
8
0
100
AcDbLine
62
2
6
CONTINUOUS
10
83.6457664886
20
280.9374365482
11
46.5010152284
21
280.9374365482
0
LINE
5
225
100
AcDbEntity
8
0
100
AcDbLine
62
2
6
CONTINUOUS
10
78.2380710660
20
101.3250000000
11
46.5010152284
21
101.3250000000
0
LINE
5
226
100
AcDbEntity
8
0
100
AcDbLine
62
2
6
CONTINUOUS
10
48.0010152284
20
280.9374365482
11
48.0010152284
21
191.1312182741
0
LINE
5
227
100
AcDbEntity
8
0
100
AcDbLine
62
2
6
CONTINUOUS
10
48.0010152284
20
101.3250000000
11
48.0010152284
21
191.1312182741
0
INSERT
5
228
100
AcDbEntity
8
0
100
AcDbBlockReference
62
2
6
CONTINUOUS
2
_FILLED
10
48.0010152284
20
280.9374365482
41
  3.500000
42
  3.500000
43
  3.500000
50
 90.000000
0
INSERT
5
229
100
AcDbEntity
8
0
100
AcDbBlockReference
62
2
6
CONTINUOUS
2
_FILLED
10
48.0010152284
20
101.3250000000
41
  3.500000
42
  3.500000
43
  3.500000
50
270.000000
0
ENDBLK
5
22A
100
AcDbEntity
8
0
6
BYBLOCK
62
0
100
AcDbBlockEnd
0
BLOCK
5
22B
100
AcDbEntity
8
0
100
AcDbBlockBegin
62
2
6
CONTINUOUS
2
*D3
70
65
10
0.0000000000
20
0.0000000000
3
*D3
1

0
TEXT
5
22C
100
AcDbEntity
8
0
100
AcDbText
62
2
6
CONTINUOUS
10
22.3576301889
20
146.3415535999
7
STANDARD
40
5.0000000000
1
359.8
50
90.0000000000
41
0.7143000000
72
0
100
AcDbText
0
LINE
5
22D
100
AcDbEntity
8
0
100
AcDbLine
62
2
6
CONTINUOUS
10
83.6457664886
20
280.9374365482
11
22.1076301889
21
280.9374365482
0
LINE
5
22E
100
AcDbEntity
8
0
100
AcDbLine
62
2
6
CONTINUOUS
10
32.4642749556
20
28.8250000000
11
22.1076301889
21
28.8250000000
0
LINE
5
22F
100
AcDbEntity
8
0
100
AcDbLine
62
2
6
CONTINUOUS
10
23.6076301889
20
280.9374365482
11
23.6076301889
21
154.8812182741
0
LINE
5
230
100
AcDbEntity
8
0
100
AcDbLine
62
2
6
CONTINUOUS
10
23.6076301889
20
28.8250000000
11
23.6076301889
21
154.8812182741
0
INSERT
5
231
100
AcDbEntity
8
0
100
AcDbBlockReference
62
2
6
CONTINUOUS
2
_FILLED
10
23.6076301889
20
280.9374365482
41
  3.500000
42
  3.500000
43
  3.500000
50
 90.000000
0
INSERT
5
232
100
AcDbEntity
8
0
100
AcDbBlockReference
62
2
6
CONTINUOUS
2
_FILLED
10
23.6076301889
20
28.8250000000
41
  3.500000
42
  3.500000
43
  3.500000
50
270.000000
0
ENDBLK
5
233
100
AcDbEntity
8
0
6
BYBLOCK
62
0
100
AcDbBlockEnd
0
BLOCK
5
234
100
AcDbEntity
8
0
100
AcDbBlockBegin
62
2
6
CONTINUOUS
2
*D4
70
65
10
0.0000000000
20
0.0000000000
3
*D4
1

0
TEXT
5
235
100
AcDbEntity
8
0
100
AcDbText
62
2
6
CONTINUOUS
10
83.6970611950
20
14.3026058389
7
STANDARD
40
5.0000000000
1
%%c
41
1.3333333333
72
0
100
AcDbText
0
TEXT
5
236
100
AcDbEntity
8
0
100
AcDbText
62
2
6
CONTINUOUS
10
90.3637278617
20
14.3026058389
7
STANDARD
40
5.0000000000
1
124.1
41
0.7143000000
72
0
100
AcDbText
0
LINE
5
237
100
AcDbEntity
8
0
100
AcDbLine
62
2
6
CONTINUOUS
10
32.4642749556
20
28.8250000000
11
32.4642749556
21
11.5526058389
0
LINE
5
238
100
AcDbEntity
8
0
100
AcDbLine
62
2
6
CONTINUOUS
10
156.6118671763
20
28.8250000000
11
156.6118671763
21
11.5526058389
0
LINE
5
239
100
AcDbEntity
8
0
100
AcDbLine
62
2
6
CONTINUOUS
10
32.4642749556
20
13.0526058389
11
94.5380710660
21
13.0526058389
0
LINE
5
23A
100
AcDbEntity
8
0
100
AcDbLine
62
2
6
CONTINUOUS
10
156.6118671763
20
13.0526058389
11
94.5380710660
21
13.0526058389
0
INSERT
5
23B
100
AcDbEntity
8
0
100
AcDbBlockReference
62
2
6
CONTINUOUS
2
_FILLED
10
32.4642749556
20
13.0526058389
41
  3.500000
42
  3.500000
43
  3.500000
50
180.000000
0
INSERT
5
23C
100
AcDbEntity
8
0
100
AcDbBlockReference
62
2
6
CONTINUOUS
2
_FILLED
10
156.6118671763
20
13.0526058389
41
  3.500000
42
  3.500000
43
  3.500000
0
ENDBLK
5
23D
100
AcDbEntity
8
0
6
BYBLOCK
62
0
100
AcDbBlockEnd
0
BLOCK
5
23E
100
AcDbEntity
8
0
100
AcDbBlockBegin
2
_FILLED
70
64
10
0.0000000000
20
0.0000000000
3
_FILLED
1

0
SOLID
5
23F
100
AcDbEntity
8
0
6
BYBLOCK
62
0
100
AcDbTrace
10
0.0000000000
20
0.0000000000
11
-1.0000000000
21
0.1857142857
12
-1.0000000000
22
-0.1857142857
13
-1.0000000000
23
-0.1857142857
0
ENDBLK
5
240
100
AcDbEntity
8
0
6
BYBLOCK
62
0
100
AcDbBlockEnd
0
ENDSEC
0
SECTION
2
ENTITIES
0
DIMENSION
5
241
100
AcDbEntity
8
0
100
AcDbDimension
62
2
6
CONTINUOUS
2
*D0
10
112.5380710660
20
288.4273727839
11
93.7676632473
21
292.1773727839
70
160
42
36.000000
1
M<>
3
DIMSTYLE_1
100
AcDbAlignedDimension
13
76.5380710660
23
257.6269247716
14
112.5380710660
24
257.6269247716
100
AcDbRotatedDimension
0
DIMENSION
5
242
100
AcDbEntity
8
0
100
AcDbDimension
62
2
6
CONTINUOUS
2
*D1
10
63.9853652503
20
260.9374365482
11
60.2353652503
21
271.1950697003
70
160
42
20.000000
3
DIMSTYLE_2
100
AcDbAlignedDimension
13
83.6457664886
23
280.9374365482
14
78.2380710660
24
260.9374365482
50
270.000000
100
AcDbRotatedDimension
0
DIMENSION
5
243
100
AcDbEntity
8
0
100
AcDbDimension
62
2
6
CONTINUOUS
2
*D2
10
48.0010152284
20
101.3250000000
11
44.2510152284
21
195.0737285845
70
160
42
287.250000
3
DIMSTYLE_3
100
AcDbAlignedDimension
13
83.6457664886
23
280.9374365482
14
78.2380710660
24
101.3250000000
50
270.000000
100
AcDbRotatedDimension
0
DIMENSION
5
244
100
AcDbEntity
8
0
100
AcDbDimension
62
2
6
CONTINUOUS
2
*D3
10
23.6076301889
20
28.8250000000
11
19.8576301889
21
155.2703035999
70
160
42
359.750000
3
DIMSTYLE_3
100
AcDbAlignedDimension
13
83.6457664886
23
280.9374365482
14
32.4642749556
24
28.8250000000
50
270.000000
100
AcDbRotatedDimension
0
DIMENSION
5
245
100
AcDbEntity
8
0
100
AcDbDimension
62
2
6
CONTINUOUS
2
*D4
10
156.6118671763
20
13.0526058389
11
95.9591445283
21
16.8026058389
70
160
42
124.147592
1
%%c<>
3
DIMSTYLE_3
100
AcDbAlignedDimension
13
32.4642749556
23
28.8250000000
14
156.6118671763
24
28.8250000000
100
AcDbRotatedDimension
0
TEXT
5
246
100
AcDbEntity
8
0
100
AcDbText
62
2
6
CONTINUOUS
10
129.9071065990
20
274.8284263959
7
STANDARD
40
5.0000000000
1
Chiave 24
41
0.7143000000
72
0
100
AcDbText
0
LINE
5
247
100
AcDbEntity
8
0
100
AcDbLine
62
2
6
CONTINUOUS
10
108.3944775265
20
269.1091370558
11
128.4071065990
21
277.3284263959
0
LINE
5
248
100
AcDbEntity
8
0
100
AcDbLine
62
2
6
CONTINUOUS
10
128.4071065990
20
277.3284263959
11
129.9071065990
21
277.3284263959
0
SOLID
5
249
100
AcDbEntity
8
0
100
AcDbTrace
62
2
6
CONTINUOUS
10
111.3851147704
20
271.0400924866
11
108.3944775265
21
269.1091370558
12
111.8789998553
22
269.8375628517
13
111.8789998553
23
269.8375628517
0
TEXT
5
24A
100
AcDbEntity
8
0
100
AcDbText
62
2
6
CONTINUOUS
10
130.9791878173
20
100.0791878173
7
STANDARD
40
5.0000000000
1
Chiave 24
41
0.7143000000
72
0
100
AcDbText
0
LINE
5
24B
100
AcDbEntity
8
0
100
AcDbLine
62
2
6
CONTINUOUS
10
108.3944775265
20
95.0746192893
11
129.4791878173
21
102.5791878173
0
LINE
5
24C
100
AcDbEntity
8
0
100
AcDbLine
62
2
6
CONTINUOUS
10
129.4791878173
20
102.5791878173
11
130.9791878173
21
102.5791878173
0
SOLID
5
24D
100
AcDbEntity
8
0
100
AcDbTrace
62
2
6
CONTINUOUS
10
111.4738876485
20
96.8606017362
11
108.3944775265
21
95.0746192893
12
111.9098015235
22
95.6358653999
13
111.9098015235
23
95.6358653999
0
LINE
5
24E
100
AcDbEntity
8
0
100
AcDbLine
62
7
6
CONTINUOUS
10
0.0000000000
20
0.0000000000
11
210.0000000000
21
0.0000000000
0
LINE
5
24F
100
AcDbEntity
8
0
100
AcDbLine
62
7
6
CONTINUOUS
10
0.0000000000
20
0.0000000000
11
0.0000000000
21
297.0000000000
0
LINE
5
250
100
AcDbEntity
8
0
100
AcDbLine
62
7
6
CONTINUOUS
10
210.0000000000
20
0.0000000000
11
210.0000000000
21
297.0000000000
0
LINE
5
251
100
AcDbEntity
8
0
100
AcDbLine
62
7
6
CONTINUOUS
10
0.0000000000
20
297.0000000000
11
210.0000000000
21
297.0000000000
0
LINE
5
252
100
AcDbEntity
8
0
100
AcDbLine
62
7
6
CONTINUOUS
10
80.6816646054
20
279.8656397785
11
82.5380710660
21
280.9374365482
0
LWPOLYLINE
5
253
100
AcDbEntity
8
0
100
AcDbPolyline
62
7
6
CONTINUOUS
90
3
70
0
10
80.6816646054
20
279.8656397785
10
81.2867774502
20
280.1918681680
10
81.8778128636
20
280.4590109971
0
LWPOLYLINE
5
254
100
AcDbEntity
8
0
100
AcDbPolyline
62
7
6
CONTINUOUS
90
5
70
0
10
81.8778128636
20
280.4590109971
10
82.4519842198
20
280.6670239006
10
83.0176513967
20
280.8160399737
10
83.5831742724
20
280.9061923113
10
84.1457662208
20
280.9374365484
0
LINE
5
255
100
AcDbEntity
8
0
100
AcDbLine
62
7
6
CONTINUOUS
10
99.6395939086
20
207.4644670051
11
108.4592958035
21
207.0686717014
0
LWPOLYLINE
5
256
100
AcDbEntity
8
0
100
AcDbPolyline
62
7
6
CONTINUOUS
90
7
70
0
10
101.4662742963
20
279.8656397785
10
102.0713871058
20
280.1918681503
10
102.6624224847
20
280.4590109686
10
103.2365938073
20
280.6670238669
10
103.8022609510
20
280.8160399446
10
104.3677837935
20
280.9061923012
10
104.9303757089
20
280.9374365702
0
LINE
5
257
100
AcDbEntity
8
0
100
AcDbLine
62
7
6
CONTINUOUS
10
88.1253612899
20
212.1452952157
11
99.6395939086
21
207.4644670051
0
LINE
5
258
100
AcDbEntity
8
0
100
AcDbLine
62
7
6
CONTINUOUS
10
76.5380710660
20
217.7530464010
11
88.1253612899
21
212.1452952157
0
LINE
5
259
100
AcDbEntity
8
0
100
AcDbLine
62
7
6
CONTINUOUS
10
76.5380710660
20
257.1269247716
11
78.7380710660
21
260.9374365482
0
LINE
5
25A
100
AcDbEntity
8
0
100
AcDbLine
62
7
6
CONTINUOUS
10
76.5380710660
20
257.1269247716
11
76.5380710660
21
217.7530464010
0
LINE
5
25B
100
AcDbEntity
8
0
100
AcDbLine
62
2
6
CONTINUOUS
10
78.7380710660
20
260.9374365482
11
78.7380710660
21
216.6883408167
0
LINE
5
25C
100
AcDbEntity
8
0
100
AcDbLine
62
7
6
CONTINUOUS
10
80.6816646054
20
279.8656397785
11
80.6816646054
21
260.9374365482
0
LINE
5
25D
100
AcDbEntity
8
0
100
AcDbLine
62
7
6
CONTINUOUS
10
87.6098678357
20
279.8656397785
11
87.6098678357
21
260.9374365482
0
LINE
5
25E
100
AcDbEntity
8
DEFAULT_1
100
AcDbLine
62
2
6
CENTER
10
94.5380710660
20
23.9598984772
11
94.5380710660
21
282.6974365482
0
LINE
5
25F
100
AcDbEntity
8
0
100
AcDbLine
62
7
6
CONTINUOUS
10
101.4662742963
20
279.8656397785
11
101.4662742963
21
260.9374365482
0
LINE
5
260
100
AcDbEntity
8
0
100
AcDbLine
62
7
6
CONTINUOUS
10
108.3944775265
20
279.8656397785
11
108.3944775265
21
260.9374365482
0
LINE
5
261
100
AcDbEntity
8
0
100
AcDbLine
62
7
6
CONTINUOUS
10
112.5380710660
20
257.1269247716
11
76.5380710660
21
257.1269247716
0
LINE
5
262
100
AcDbEntity
8
0
100
AcDbLine
62
2
6
CONTINUOUS
10
110.3380710660
20
260.9374365482
11
110.3380710660
21
208.1699885067
0
LINE
5
263
100
AcDbEntity
8
0
100
AcDbLine
62
7
6
CONTINUOUS
10
112.5380710660
20
257.1269247716
11
112.5380710660
21
209.4596036192
0
LINE
5
264
100
AcDbEntity
8
0
100
AcDbLine
62
7
6
CONTINUOUS
10
78.7380710660
20
260.9374365482
11
110.3380710660
21
260.9374365482
0
LINE
5
265
100
AcDbEntity
8
0
100
AcDbLine
62
7
6
CONTINUOUS
10
112.5380710660
20
257.1269247716
11
110.3380710660
21
260.9374365482
0
LINE
5
266
100
AcDbEntity
8
0
100
AcDbLine
62
7
6
CONTINUOUS
10
108.4592958035
20
207.0686717014
11
112.5380710660
21
209.4596036192
0
LWPOLYLINE
5
267
100
AcDbEntity
8
0
100
AcDbPolyline
62
7
6
CONTINUOUS
90
7
70
0
10
87.6098678357
20
279.8656397785
10
88.7978734648
20
280.1869647761
10
89.9677171206
20
280.4519556924
10
91.1148613624
20
280.6613089020
10
92.2529185119
20
280.8129352808
10
93.3955008902
20
280.9047457045
10
94.5380710570
20
280.9374365479
0
LINE
5
268
100
AcDbEntity
8
0
100
AcDbLine
62
7
6
CONTINUOUS
10
82.5386837728
20
280.9374365482
11
106.5374583592
21
280.9374365482
0
LWPOLYLINE
5
269
100
AcDbEntity
8
0
100
AcDbPolyline
62
7
6
CONTINUOUS
90
7
70
0
10
94.5380710570
20
280.9374365479
10
95.6900198938
20
280.9039345592
10
96.8385335808
20
280.8112764058
10
97.9793597767
20
280.6584272357
10
99.1252555058
20
280.4484916050
10
100.2889777929
20
280.1845740699
10
101.4662742963
20
279.8656397785
0
LWPOLYLINE
5
26A
100
AcDbEntity
8
0
100
AcDbPolyline
62
7
6
CONTINUOUS
90
7
70
0
10
84.1457662208
20
280.9374365484
10
84.7101905051
20
280.9058650960
10
85.2767636555
20
280.8154241603
10
85.8426529897
20
280.6660716041
10
86.4163565546
20
280.4579338389
10
87.0063723974
20
280.1911372761
10
87.6098678357
20
279.8656397785
0
LWPOLYLINE
5
26B
100
AcDbEntity
8
0
100
AcDbPolyline
62
7
6
CONTINUOUS
90
7
70
0
10
104.9303757089
20
280.9374365702
10
105.4948001565
20
280.9058650970
10
106.0613733997
20
280.8154241488
10
106.6272627385
20
280.6660715901
10
107.2009662726
20
280.4579338278
10
107.7909821020
20
280.1911372692
10
108.3944775265
20
279.8656397785
0
LINE
5
26C
100
AcDbEntity
8
0
100
AcDbLine
62
7
6
CONTINUOUS
10
108.3944775265
20
279.8656397785
11
106.5380710660
21
280.9374365482
0
LINE
5
26D
100
AcDbEntity
8
0
100
AcDbLine
62
7
6
CONTINUOUS
10
32.9642749556
20
28.8250000000
11
32.4642749556
21
29.3250000000
0
LINE
5
26E
100
AcDbEntity
8
0
100
AcDbLine
62
7
6
CONTINUOUS
10
32.9642749556
20
28.8250000000
11
156.1118671763
21
28.8250000000
0
LINE
5
26F
100
AcDbEntity
8
0
100
AcDbLine
62
7
6
CONTINUOUS
10
156.6118671763
20
29.3250000000
11
32.4642749556
21
29.3250000000
0
LINE
5
270
100
AcDbEntity
8
0
100
AcDbLine
62
7
6
CONTINUOUS
10
156.2098796001
20
36.9953798886
11
32.8662625318
21
36.9953798886
0
LINE
5
271
100
AcDbEntity
8
0
100
AcDbLine
62
7
6
CONTINUOUS
10
154.3380710660
20
46.6250000000
11
34.7380710660
21
46.6250000000
0
LINE
5
272
100
AcDbEntity
8
0
100
AcDbLine
62
7
6
CONTINUOUS
10
133.6594454435
20
48.4341453193
11
55.4166966885
21
48.4341453193
0
LINE
5
273
100
AcDbEntity
8
0
100
AcDbLine
62
2
6
CONTINUOUS
10
74.9773864908
20
48.4341457766
11
64.6380710660
21
46.6250000000
0
LINE
5
274
100
AcDbEntity
8
0
100
AcDbLine
62
7
6
CONTINUOUS
10
55.4166966885
20
48.4341453193
11
34.7380710660
21
46.6250000000
0
LINE
5
275
100
AcDbEntity
8
0
100
AcDbLine
62
7
6
CONTINUOUS
10
129.7650971383
20
50.9151188097
11
59.3110449937
21
50.9151188097
0
LINE
5
276
100
AcDbEntity
8
0
100
AcDbLine
62
7
6
CONTINUOUS
10
148.5380710660
20
47.0075108419
11
134.5380710660
21
48.1903789668
0
LINE
5
277
100
AcDbEntity
8
0
100
AcDbLine
62
7
6
CONTINUOUS
10
133.6594454435
20
48.4341453193
11
134.5380710660
21
48.3572755378
0
LINE
5
278
100
AcDbEntity
8
0
100
AcDbLine
62
7
6
CONTINUOUS
10
148.5380710660
20
47.1324342485
11
154.3380710660
21
46.6250000000
0
LINE
5
279
100
AcDbEntity
8
0
100
AcDbLine
62
2
6
CONTINUOUS
10
124.4380710660
20
46.6250000000
11
114.0987556412
21
48.4341457766
0
LINE
5
27A
100
AcDbEntity
8
0
100
AcDbLine
62
7
6
CONTINUOUS
10
112.5380710660
20
208.4596036192
11
108.4592958035
21
206.0686717014
0
LINE
5
27B
100
AcDbEntity
8
0
100
AcDbLine
62
7
6
CONTINUOUS
10
32.8662625318
20
36.9953798886
11
32.4642749556
21
29.3250000000
0
LINE
5
27C
100
AcDbEntity
8
0
100
AcDbLine
62
7
6
CONTINUOUS
10
71.9607207968
20
72.8250000000
11
117.1154213352
21
72.8250000000
0
LINE
5
27D
100
AcDbEntity
8
0
100
AcDbLine
62
2
6
CONTINUOUS
10
113.7118431639
20
48.5636400331
11
113.3317931136
21
48.8194418769
0
LWPOLYLINE
5
27E
100
AcDbEntity
8
0
100
AcDbPolyline
62
2
6
CONTINUOUS
90
3
70
0
10
113.3237768046
20
48.8263466164
10
113.7033780056
20
48.5678926378
10
114.0987585340
20
48.4341452704
0
LINE
5
27F
100
AcDbEntity
8
0
100
AcDbLine
62
7
6
CONTINUOUS
10
115.3833705276
20
73.8250000000
11
73.6927716044
21
73.8250000000
0
LINE
5
280
100
AcDbEntity
8
0
100
AcDbLine
62
7
6
CONTINUOUS
10
103.3210899340
20
76.8643840272
11
85.7550521980
21
76.8643840272
0
LINE
5
281
100
AcDbEntity
8
0
100
AcDbLine
62
7
6
CONTINUOUS
10
103.0380710660
20
77.5614766010
11
86.0380710660
21
77.5614766010
0
LINE
5
282
100
AcDbEntity
8
0
100
AcDbLine
62
7
6
CONTINUOUS
10
103.0380710660
20
79.9107864376
11
86.0380710660
21
79.9107864376
0
LINE
5
283
100
AcDbEntity
8
0
100
AcDbLine
62
7
6
CONTINUOUS
10
103.3309642848
20
80.6178932188
11
85.7451778472
21
80.6178932188
0
LINE
5
284
100
AcDbEntity
8
0
100
AcDbLine
62
7
6
CONTINUOUS
10
34.7380710660
20
46.6250000000
11
32.8662625318
21
36.9953798886
0
LINE
5
285
100
AcDbEntity
8
0
100
AcDbLine
62
7
6
CONTINUOUS
10
80.6816646054
20
85.6814064606
11
85.7451778472
21
80.6178932188
0
LINE
5
286
100
AcDbEntity
8
0
100
AcDbLine
62
2
6
CONTINUOUS
10
112.9697196573
20
49.2028580932
11
113.3317931136
21
48.8194418769
0
LINE
5
287
100
AcDbEntity
8
0
100
AcDbLine
62
7
6
CONTINUOUS
10
78.7380710660
20
101.3250000000
11
110.3380710660
21
101.3250000000
0
LINE
5
288
100
AcDbEntity
8
0
100
AcDbLine
62
2
6
CONTINUOUS
10
112.6503155584
20
49.6877403806
11
112.9770808777
21
49.1934788605
0
LINE
5
289
100
AcDbEntity
8
0
100
AcDbLine
62
7
6
CONTINUOUS
10
78.7380710660
20
101.3250000000
11
76.5380710660
21
105.1355117767
0
LINE
5
28A
100
AcDbEntity
8
0
100
AcDbLine
62
7
6
CONTINUOUS
10
76.5380710660
20
216.7530464010
11
76.5380710660
21
105.1355117767
0
LINE
5
28B
100
AcDbEntity
8
0
100
AcDbLine
62
2
6
CONTINUOUS
10
78.7380710660
20
215.6883408167
11
78.7380710660
21
101.3250000000
0
LINE
5
28C
100
AcDbEntity
8
0
100
AcDbLine
62
7
6
CONTINUOUS
10
112.5380710660
20
105.1355117767
11
76.5380710660
21
105.1355117767
0
LINE
5
28D
100
AcDbEntity
8
0
100
AcDbLine
62
2
6
CONTINUOUS
10
112.3737819671
20
50.2685186842
11
112.6568323045
21
49.6761279586
0
LINE
5
28E
100
AcDbEntity
8
0
100
AcDbLine
62
7
6
CONTINUOUS
10
80.6816646054
20
101.3250000000
11
80.6816646054
21
85.6814064606
0
LINE
5
28F
100
AcDbEntity
8
0
100
AcDbLine
62
7
6
CONTINUOUS
10
86.0380710660
20
79.9107864376
11
86.0380710660
21
77.5614766010
0
LINE
5
290
100
AcDbEntity
8
0
100
AcDbLine
62
7
6
CONTINUOUS
10
87.6098678357
20
101.3250000000
11
87.6098678357
21
85.6814064606
0
LINE
5
291
100
AcDbEntity
8
0
100
AcDbLine
62
7
6
CONTINUOUS
10
117.1154213352
20
72.8250000000
11
129.7650971383
21
50.9151188097
0
LINE
5
292
100
AcDbEntity
8
0
100
AcDbLine
62
2
6
CONTINUOUS
10
112.3792865796
20
50.2549718311
11
112.1515835235
21
50.9151208143
0
LINE
5
293
100
AcDbEntity
8
0
100
AcDbLine
62
7
6
CONTINUOUS
10
101.4662742963
20
101.3250000000
11
101.4662742963
21
85.6814064606
0
LINE
5
294
100
AcDbEntity
8
0
100
AcDbLine
62
7
6
CONTINUOUS
10
103.0380710660
20
79.9107864376
11
103.0380710660
21
77.5614766010
0
LINE
5
295
100
AcDbEntity
8
0
100
AcDbLine
62
2
6
CONTINUOUS
10
76.6968555524
20
50.2549718311
11
76.9245586085
21
50.9151208143
0
LINE
5
296
100
AcDbEntity
8
0
100
AcDbLine
62
7
6
CONTINUOUS
10
71.9607207968
20
72.8250000000
11
59.3110449937
21
50.9151188097
0
LINE
5
297
100
AcDbEntity
8
0
100
AcDbLine
62
7
6
CONTINUOUS
10
108.3944775265
20
101.3250000000
11
108.3944775265
21
85.6814064606
0
LINE
5
298
100
AcDbEntity
8
0
100
AcDbLine
62
2
6
CONTINUOUS
10
110.3380710660
20
207.1699885067
11
110.3380710660
21
101.3250000000
0
LINE
5
299
100
AcDbEntity
8
0
100
AcDbLine
62
7
6
CONTINUOUS
10
112.5380710660
20
208.4596036192
11
112.5380710660
21
105.1355117767
0
LINE
5
29A
100
AcDbEntity
8
0
100
AcDbLine
62
2
6
CONTINUOUS
10
76.4193098275
20
49.6761279586
11
76.7023601649
21
50.2685186842
0
LINE
5
29B
100
AcDbEntity
8
0
100
AcDbLine
62
7
6
CONTINUOUS
10
110.3380710660
20
101.3250000000
11
112.5380710660
21
105.1355117767
0
LINE
5
29C
100
AcDbEntity
8
0
100
AcDbLine
62
2
6
CONTINUOUS
10
76.0990612543
20
49.1934788605
11
76.4258265736
21
49.6877403806
0
LWPOLYLINE
5
29D
100
AcDbEntity
8
0
100
AcDbPolyline
62
7
6
CONTINUOUS
90
15
70
0
10
87.6098678357
20
85.6814064606
10
87.0766677518
20
85.1800915673
10
86.5587556351
20
84.7590663234
10
86.0576830282
20
84.4193429642
10
85.5687953034
20
84.1578847835
10
85.0890436835
20
83.9721603780
10
84.6151621590
20
83.8616660745
10
84.1436361180
20
83.8249001833
10
83.6721625898
20
83.8623253506
10
83.1983823172
20
83.9734614856
10
82.7189495478
20
84.1596351089
10
82.2308305486
20
84.4211458000
10
81.7307300047
20
84.7605942924
10
81.2138030371
20
85.1810187534
10
80.6816646054
20
85.6814064606
0
LINE
5
29E
100
AcDbEntity
8
0
100
AcDbLine
62
7
6
CONTINUOUS
10
108.3944775265
20
85.6814064606
11
103.3309642848
21
80.6178932188
0
LWPOLYLINE
5
29F
100
AcDbEntity
8
0
100
AcDbPolyline
62
7
6
CONTINUOUS
90
15
70
0
10
108.3944775265
20
85.6814064606
10
107.8638634638
20
85.1822078526
10
107.3476804358
20
84.7622889221
10
106.8474549423
20
84.4224787059
10
106.3586074841
20
84.1602900939
10
105.8779742125
20
83.9735907979
10
105.4028346765
20
83.8621453899
10
104.9301940691
20
83.8249261191
10
104.4577116092
20
83.8621776663
10
103.9831958961
20
83.9733910539
10
103.5032039822
20
84.1597995063
10
103.0145807327
20
84.4216963841
10
102.5142713099
20
84.7613923016
10
101.9976558457
20
85.1815967106
10
101.4662742963
20
85.6814064606
0
LWPOLYLINE
5
2A0
100
AcDbEntity
8
0
100
AcDbPolyline
62
7
6
CONTINUOUS
90
13
70
0
10
101.4662742963
20
85.6814064606
10
100.2251090716
20
85.1042590430
10
99.0231385063
20
84.6357700762
10
97.8653043443
20
84.2774017228
10
96.7367813537
20
84.0247674949
10
95.6274796839
20
83.8740101968
10
94.5281349359
20
83.8250041136
10
93.4291803295
20
83.8758062964
10
92.3214331589
20
84.0280112518
10
91.1960569811
20
84.2813075721
10
90.0424462267
20
84.6394700513
10
88.8453559636
20
85.1066285547
10
87.6098678357
20
85.6814064606
0
LINE
5
2A1
100
AcDbEntity
8
0
100
AcDbLine
62
7
6
CONTINUOUS
10
134.5380710660
20
48.3572755378
11
134.5380710660
21
48.1903789668
0
LINE
5
2A2
100
AcDbEntity
8
0
100
AcDbLine
62
7
6
CONTINUOUS
10
154.3380710660
20
46.6250000000
11
156.2098796001
21
36.9953798886
0
LINE
5
2A3
100
AcDbEntity
8
0
100
AcDbLine
62
7
6
CONTINUOUS
10
148.5380710660
20
47.0075108419
11
148.5380710660
21
47.1324342530
0
LWPOLYLINE
5
2A4
100
AcDbEntity
8
0
100
AcDbPolyline
62
2
6
CONTINUOUS
90
3
70
0
10
75.7523653274
20
48.8263466164
10
75.3727641263
20
48.5678926378
10
74.9773835980
20
48.4341452704
0
LWPOLYLINE
5
2A5
100
AcDbEntity
8
0
100
AcDbPolyline
62
2
6
CONTINUOUS
90
3
70
0
10
75.3642989681
20
48.5636400331
10
75.7443490184
20
48.8194418769
10
76.1064224747
20
49.2028580932
0
LINE
5
2A6
100
AcDbEntity
8
0
100
AcDbLine
62
7
6
CONTINUOUS
10
156.2098796001
20
36.9953798886
11
156.6118671763
21
29.3250000000
0
LINE
5
2A7
100
AcDbEntity
8
0
100
AcDbLine
62
7
6
CONTINUOUS
10
99.6395939086
20
206.4644670051
11
88.1253612899
21
211.1452952157
0
LINE
5
2A8
100
AcDbEntity
8
0
100
AcDbLine
62
7
6
CONTINUOUS
10
88.1253612899
20
211.1452952157
11
76.5380710660
21
216.7530464010
0
LINE
5
2A9
100
AcDbEntity
8
0
100
AcDbLine
62
7
6
CONTINUOUS
10
108.4592958035
20
206.0686717014
11
99.6395939086
21
206.4644670051
0
LINE
5
2AA
100
AcDbEntity
8
0
100
AcDbLine
62
7
6
CONTINUOUS
10
156.1118671763
20
28.8250000000
11
156.6118671763
21
29.3250000000
0
ARC
5
2AB
100
AcDbEntity
8
0
100
AcDbCircle
62
7
6
CONTINUOUS
10
115.3833705276
20
71.8250000000
40
2.0000000000
100
AcDbArc
50
30.0000000000
51
90.0000000000
0
ARC
5
2AC
100
AcDbEntity
8
0
100
AcDbCircle
62
7
6
CONTINUOUS
10
73.6927716044
20
71.8250000000
40
2.0000000000
100
AcDbArc
50
90.0000000000
51
150.0000000000
0
ARC
5
2AD
100
AcDbEntity
8
0
100
AcDbCircle
62
7
6
CONTINUOUS
10
134.0952241572
20
53.4151188097
40
5.0000000000
100
AcDbArc
50
210.0000000000
51
265.0000000000
0
ARC
5
2AE
100
AcDbEntity
8
0
100
AcDbCircle
62
7
6
CONTINUOUS
10
54.9809179748
20
53.4151188097
40
5.0000000000
100
AcDbArc
50
275.0000000000
51
330.0000000000
0
ARC
5
2AF
100
AcDbEntity
8
0
100
AcDbCircle
62
7
6
CONTINUOUS
10
104.0380710660
20
77.5614766010
40
1.0000000000
100
AcDbArc
50
180.0000000000
51
224.1942037301
0
ARC
5
2B0
100
AcDbEntity
8
0
100
AcDbCircle
62
7
6
CONTINUOUS
10
85.0380710660
20
77.5614766010
40
1.0000000000
100
AcDbArc
50
315.8057962703
51
360.0000000000
0
ARC
5
2B1
100
AcDbEntity
8
0
100
AcDbCircle
62
7
6
CONTINUOUS
10
104.0380710660
20
79.9107864376
40
1.0000000000
100
AcDbArc
50
134.9999999921
51
180.0000000000
0
ARC
5
2B2
100
AcDbEntity
8
0
100
AcDbCircle
62
7
6
CONTINUOUS
10
85.0380710660
20
79.9107864376
40
1.0000000000
100
AcDbArc
50
0.0000000000
51
45.0000000059
0
ARC
5
2B3
100
AcDbEntity
8
0
100
AcDbCircle
62
7
6
CONTINUOUS
10
94.5380710660
20
68.3250000000
40
12.2500000000
100
AcDbArc
50
26.7263084311
51
44.1942037229
0
ARC
5
2B4
100
AcDbEntity
8
0
100
AcDbCircle
62
7
6
CONTINUOUS
10
94.5380710660
20
68.3250000000
40
12.2500000000
100
AcDbArc
50
135.8057962771
51
153.2736915689
0
ENDSEC
0
SECTION
2
OBJECTS
0
DICTIONARY
5
C
100
AcDbDictionary
280
0
281
1
3
ACAD_GROUP
350
D
3
ACAD_MLINESTYLE
350
17
3
ACAD_LAYOUT
350
1A
3
ACAD_PLOTSETTINGS
350
19
3
ACAD_PLOTSTYLENAME
350
E
0
DICTIONARY
5
D
102
{ACAD_REACTORS
330
C
102
}
100
AcDbDictionary
280
0
281
1
0
ACDBDICTIONARYWDFLT
5
E
102
{ACAD_REACTORS
330
C
102
}
100
AcDbDictionary
281
1
3
Normal
350
F
100
AcDbDictionaryWithDefault
340
F
0
DICTIONARY
5
17
102
{ACAD_REACTORS
330
C
102
}
100
AcDbDictionary
280
0
281
1
3
Standard
350
18
0
DICTIONARY
5
19
102
{ACAD_REACTORS
330
C
102
}
100
AcDbDictionary
281
1
0
DICTIONARY
5
1A
102
{ACAD_REACTORS
330
C
102
}
100
AcDbDictionary
281
1
3
Layout1
350
1E
3
Model
350
22
0
ACDBPLACEHOLDER
5
F
102
{ACAD_REACTORS
330
E
102
}
0
MLINESTYLE
5
18
102
{ACAD_REACTORS
330
17
102
}
100
AcDbMlineStyle
2
STANDARD
70
0
3

62
256
51
90.0
52
90.0
71
2
49
0.5
62
256
6
BYLAYER
49
-0.5
62
256
6
BYLAYER
0
LAYOUT
5
1E
102
{ACAD_REACTORS
330
1A
102
}
100
AcDbPlotSettings
1

2

4

6

40
0.0
41
0.0
42
0.0
43
0.0
44
0.0
45
0.0
46
0.0
47
0.0
48
0.0
49
0.0
140
0.0
141
0.0
142
1.0
143
1.0
70
0
72
0
73
0
74
0
7

75
0
147
1.0
148
0.0
149
0.0
100
AcDbLayout
1
Layout1
70
0
71
0
10
0.0
20
0.0
11
0.0
21
0.0
12
0.0
22
0.0
32
0.0
14
0.0
24
0.0
34
0.0
15
0.0
25
0.0
35
0.0
146
0.0
13
0.0
23
0.0
33
0.0
16
0.0
26
0.0
36
0.0
17
0.0
27
0.0
37
0.0
76
0
330
1B
331
0
345
0
346
0
0
LAYOUT
5
22
102
{ACAD_REACTORS
330
1A
102
}
100
AcDbPlotSettings
1

2

4

6

40
0.0
41
0.0
42
0.0
43
0.0
44
0.0
45
0.0
46
0.0
47
0.0
48
0.0
49
0.0
140
0.0
141
0.0
142
1.0
143
1.0
70
0
72
0
73
0
74
0
7

75
0
147
1.0
148
0.0
149
0.0
100
AcDbLayout
1
Model
70
0
71
0
10
0.0
20
0.0
11
0.0
21
0.0
12
0.0
22
0.0
32
0.0
14
0.0
24
0.0
34
0.0
15
0.0
25
0.0
35
0.0
146
0.0
13
0.0
23
0.0
33
0.0
16
0.0
26
0.0
36
0.0
17
0.0
27
0.0
37
0.0
76
0
330
1F
331
0
345
0
346
0
0
ENDSEC
0
EOF
