999
DXF file: r0169-651741.dxf
999
Pro/ENGINEER 2005310 by Parametric Technology Corporation
0
SECTION
2
HEADER
9
$ACADVER
1
AC1015
9
$DWGCODEPAGE
3
ANSI_1252
9
$EXTMAX
10
210.0000000000
20
297.0000000000
30
0.0000000000
9
$EXTMIN
10
0.0000000000
20
0.0000000000
30
0.0000000000
9
$LIMMIN
10
0.0000000000
20
0.0000000000
9
$LIMMAX
10
210.0000000000
20
297.0000000000
9
$VIEWCTR
10
105.0000000000
20
148.5000000000
9
$VIEWSIZE
40
297.0000000000
9
$CLAYER
8
0
9
$LTSCALE
40
19.3600000000
9
$CELTYPE
6
BYLAYER
9
$DIMSCALE
40
1
9
$DIMASZ
40
3.5000000000
9
$DIMEXO
40
2.2000000000
9
$DIMDLI
40
13.3760000000
9
$DIMEXE
40
6.3360000000
9
$DIMCEN
40
3.1680000000
9
$DIMLFAC
40
1.0000000000
9
$DIMBLK
1
_FILLED
9
$DIMTXT
40
3.5000000000
9
$DIMTOL
70
1
9
$DIMLIM
70
0
9
$DIMTFAC
40
1.0000000000
9
$DIMTP
40
0.0010000000
9
$DIMTM
40
0.0010000000
9
$PDMODE
70
3
9
$PDSIZE
40
0.3125000000
9
$HANDSEED
5
2DD
9
$MEASUREMENT
70
1
9
$INSUNITS
70
4
0
ENDSEC
0
SECTION
2
CLASSES
0
CLASS
1
ACDBDICTIONARYWDFLT
2
AcDbDictionaryWithDefault
3
AutoCAD 2000
90
0
280
0
281
0
0
CLASS
1
ACDBPLACEHOLDER
2
AcDbPlaceHolder
3
AutoCAD 2000
90
0
280
0
281
0
0
CLASS
1
LAYOUT
2
AcDbLayout
3
AutoCAD 2000
90
0
280
0
281
0
0
ENDSEC
0
SECTION
2
TABLES
0
TABLE
2
VPORT
5
8
100
AcDbSymbolTable
70
2
0
VPORT
5
1F4
100
AcDbSymbolTableRecord
100
AcDbViewportTableRecord
2
*ACTIVE
70
0
10
0.0
20
0.0
11
1.0
21
1.0
12
105.0000000000
22
148.5000000000
13
0.0
23
0.0
14
1.0
24
1.0
15
0.0
25
0.0
16
0.0
26
0.0
36
1.0
17
0.0
27
0.0
37
0.0
40
297.0000000000
41
0.7070707071
42
50.0
43
0.0
44
0.0
50
0.0
51
0.0
71
0
72
100
73
1
74
1
75
0
76
0
77
0
78
0
0
ENDTAB
0
TABLE
2
LTYPE
5
5
100
AcDbSymbolTable
70
6
0
LTYPE
5
14
100
AcDbSymbolTableRecord
100
AcDbLinetypeTableRecord
2
BYBLOCK
70
0
3

72
65
73
0
40
0.0
0
LTYPE
5
15
100
AcDbSymbolTableRecord
100
AcDbLinetypeTableRecord
2
BYLAYER
70
0
3

72
65
73
0
40
0.0
0
LTYPE
5
16
100
AcDbSymbolTableRecord
100
AcDbLinetypeTableRecord
2
CONTINUOUS
70
64
3
Solid line
72
65
73
0
40
0
0
LTYPE
5
1F5
100
AcDbSymbolTableRecord
100
AcDbLinetypeTableRecord
2
CENTER
70
64
3
____ _ ____ _ ____ _ ____ _ ____ _ ____ _ ____
72
65
73
4
40
0.6
49
0.375
74
0
49
-0.075
74
0
49
0.075
74
0
49
-0.075
74
0
0
LTYPE
5
1F6
100
AcDbSymbolTableRecord
100
AcDbLinetypeTableRecord
2
HIDDEN
70
64
3
- - - - - - - - - - - - - - - - - - - -
72
65
73
2
40
0.2
49
0.1
74
0
49
-0.1
74
0
0
LTYPE
5
1F7
100
AcDbSymbolTableRecord
100
AcDbLinetypeTableRecord
2
PHANTOM
70
64
3
_____ _ _ _____ _ _ _____ _ _ _____
72
65
73
6
40
0.8
49
0.45
74
0
49
-0.05
74
0
49
0.1
74
0
49
-0.05
74
0
49
0.1
74
0
49
-0.05
74
0
0
LTYPE
5
1F8
100
AcDbSymbolTableRecord
100
AcDbLinetypeTableRecord
2
DOT
70
64
3
. . . . . . . . . . . . . . . . . . . .
72
65
73
2
40
0.2
49
0.1
74
0
49
-0.1
74
0
0
LTYPE
5
1F9
100
AcDbSymbolTableRecord
100
AcDbLinetypeTableRecord
2
DASHED
70
64
3
- - - - - - - - - - - - - - - - - - - -
72
65
73
2
40
0.2
49
0.1
74
0
49
-0.1
74
0
0
ENDTAB
0
TABLE
2
LAYER
5
2
100
AcDbSymbolTable
70
36
0
LAYER
5
10
100
AcDbSymbolTableRecord
100
AcDbLayerTableRecord
2
0
70
0
62
7
6
CONTINUOUS
370
-3
390
F
0
LAYER
5
1FA
100
AcDbSymbolTableRecord
100
AcDbLayerTableRecord
2
DEFAULT_1
70
0
62
7
6
CENTER
370
-3
390
F
0
LAYER
5
1FB
100
AcDbSymbolTableRecord
100
AcDbLayerTableRecord
2
DEFAULT_2
70
0
62
8
6
HIDDEN
370
-3
390
F
0
LAYER
5
1FC
100
AcDbSymbolTableRecord
100
AcDbLayerTableRecord
2
DEFAULT_3
70
0
62
7
6
PHANTOM
370
-3
390
F
0
LAYER
5
1FD
100
AcDbSymbolTableRecord
100
AcDbLayerTableRecord
2
ASSI
70
0
62
7
6
CONTINUOUS
370
-3
390
F
0
LAYER
5
1FE
100
AcDbSymbolTableRecord
100
AcDbLayerTableRecord
2
PIANI
70
0
62
7
6
CONTINUOUS
370
-3
390
F
0
ENDTAB
0
TABLE
2
STYLE
5
3
100
AcDbSymbolTable
70
1
0
STYLE
5
11
100
AcDbSymbolTableRecord
100
AcDbTextStyleTableRecord
2
STANDARD
70
0
40
0.0
41
0.7143000000
50
0.0
71
0
42
0.2
3
txt
4

0
STYLE
5
1FF
100
AcDbSymbolTableRecord
100
AcDbTextStyleTableRecord
2
TEXTSTYLE_1
70
0
40
0.0
41
0.8000000000
50
0.0
71
0
42
0.2
3
txt
4

0
ENDTAB
0
TABLE
2
VIEW
5
6
100
AcDbSymbolTable
70
0
0
ENDTAB
0
TABLE
2
UCS
5
7
100
AcDbSymbolTable
70
0
0
ENDTAB
0
TABLE
2
APPID
5
9
100
AcDbSymbolTable
70
1
0
APPID
5
200
100
AcDbSymbolTableRecord
100
AcDbRegAppTableRecord
2
ACAD
70
0
0
ENDTAB
0
TABLE
2
BLOCK_RECORD
5
1
100
AcDbSymbolTable
70
0
0
BLOCK_RECORD
5
1F
100
AcDbSymbolTableRecord
100
AcDbBlockTableRecord
2
*MODEL_SPACE
0
BLOCK_RECORD
5
1B
100
AcDbSymbolTableRecord
100
AcDbBlockTableRecord
2
*PAPER_SPACE
0
BLOCK_RECORD
5
201
100
AcDbSymbolTableRecord
100
AcDbBlockTableRecord
2
_FILLED
0
BLOCK_RECORD
5
202
100
AcDbSymbolTableRecord
100
AcDbBlockTableRecord
2
*D0
0
BLOCK_RECORD
5
203
100
AcDbSymbolTableRecord
100
AcDbBlockTableRecord
2
*D1
0
BLOCK_RECORD
5
204
100
AcDbSymbolTableRecord
100
AcDbBlockTableRecord
2
*D2
0
BLOCK_RECORD
5
205
100
AcDbSymbolTableRecord
100
AcDbBlockTableRecord
2
*D3
0
ENDTAB
0
TABLE
2
DIMSTYLE
5
A
100
AcDbSymbolTable
70
1
100
AcDbDimStyleTable
71
0
0
DIMSTYLE
105
206
100
AcDbSymbolTableRecord
100
AcDbDimStyleTableRecord
2
STANDARD
70
0
3

4

40
1.0
41
3.5000000000
42
0.0625
43
0.38
44
0.18
45
0.0
46
0.0
47
0.0010000000
48
0.0010000000
140
3.5000000000
141
0.09
142
0.0
143
25.4
144
1.0000000000
145
0.0
146
1.0000000000
147
0.09
71
1
72
0
73
0
74
0
75
0
76
0
77
1
78
8
170
0
171
2
172
0
173
0
174
0
175
0
176
0
177
0
178
0
270
2
271
3
272
3
273
2
274
2
275
0
280
0
281
0
282
0
283
1
284
8
285
0
286
0
287
3
288
0
340
11
341
201
342
201
343
201
344
201
0
DIMSTYLE
105
207
100
AcDbSymbolTableRecord
100
AcDbDimStyleTableRecord
2
DIMSTYLE_1
70
0
3

4

40
1.0
41
3.5000000000
42
0.0625
43
0.38
44
0.18
45
0.0
46
0.0
47
0.1000000000
48
0.1000000000
140
3.5000000000
141
0.09
142
0.0
143
25.4
144
1.0000000000
145
0.0
146
1.0000000000
147
0.09
71
0
72
0
73
0
74
0
75
0
76
0
77
1
78
8
170
0
171
2
172
0
173
0
174
0
175
0
176
0
177
0
178
0
270
2
271
3
272
3
273
2
274
2
275
0
280
0
281
0
282
0
283
1
284
8
285
0
286
0
287
3
288
0
340
11
341
201
342
201
343
201
344
201
0
DIMSTYLE
105
208
100
AcDbSymbolTableRecord
100
AcDbDimStyleTableRecord
2
DIMSTYLE_2
70
0
3

4

40
1.0
41
3.5000000000
42
0.0625
43
0.38
44
0.18
45
0.0
46
0.0
47
0.2000000000
48
0.2000000000
140
3.5000000000
141
0.09
142
0.0
143
25.4
144
1.0000000000
145
0.0
146
1.0000000000
147
0.09
71
0
72
0
73
0
74
0
75
0
76
0
77
1
78
8
170
0
171
2
172
0
173
0
174
0
175
0
176
0
177
0
178
0
270
2
271
3
272
3
273
2
274
2
275
0
280
0
281
0
282
0
283
1
284
8
285
0
286
0
287
3
288
0
340
11
341
201
342
201
343
201
344
201
0
DIMSTYLE
105
209
100
AcDbSymbolTableRecord
100
AcDbDimStyleTableRecord
2
DIMSTYLE_3
70
0
3

4

40
1.0
41
3.5000000000
42
0.0625
43
0.38
44
0.18
45
0.0
46
0.0
47
0.2000000000
48
0.2000000000
140
3.5000000000
141
0.09
142
0.0
143
25.4
144
1.0000000000
145
0.0
146
1.0000000000
147
0.09
71
0
72
0
73
0
74
0
75
0
76
0
77
1
78
8
170
0
171
2
172
0
173
0
174
0
175
0
176
0
177
0
178
0
270
2
271
1
272
1
273
2
274
2
275
0
280
0
281
0
282
0
283
1
284
8
285
0
286
0
287
3
288
0
340
11
341
201
342
201
343
201
344
201
0
ENDTAB
0
ENDSEC
0
SECTION
2
BLOCKS
0
BLOCK
5
20
100
AcDbEntity
8
0
100
AcDbBlockBegin
2
*MODEL_SPACE
70
0
10
0.0
20
0.0
30
0.0
3
*MODEL_SPACE
1

0
ENDBLK
5
21
100
AcDbEntity
8
0
100
AcDbBlockEnd
0
BLOCK
5
1C
100
AcDbEntity
8
0
100
AcDbBlockBegin
2
*PAPER_SPACE
70
0
10
0.0
20
0.0
30
0.0
3
*PAPER_SPACE
1

0
ENDBLK
5
1D
100
AcDbEntity
8
0
100
AcDbBlockEnd
0
BLOCK
5
20A
100
AcDbEntity
8
0
100
AcDbBlockBegin
62
2
6
CONTINUOUS
2
*D0
70
65
10
0.0000000000
20
0.0000000000
3
*D0
1

0
TEXT
5
20B
100
AcDbEntity
8
0
100
AcDbText
62
2
6
CONTINUOUS
10
133.7675126904
20
283.9211928934
7
STANDARD
40
3.5000000000
1
 1"-8 UNC
41
0.7143000000
72
0
100
AcDbText
0
LINE
5
20C
100
AcDbEntity
8
0
100
AcDbLine
62
2
6
CONTINUOUS
10
94.2654822335
20
272.7322335025
11
94.2654822335
21
284.5461928934
0
LINE
5
20D
100
AcDbEntity
8
0
100
AcDbLine
62
2
6
CONTINUOUS
10
119.6654822335
20
272.7322335025
11
119.6654822335
21
284.5461928934
0
LINE
5
20E
100
AcDbEntity
8
0
100
AcDbLine
62
2
6
CONTINUOUS
10
94.2654822335
20
283.0461928934
11
106.9654822335
21
283.0461928934
0
LINE
5
20F
100
AcDbEntity
8
0
100
AcDbLine
62
2
6
CONTINUOUS
10
119.6654822335
20
283.0461928934
11
106.9654822335
21
283.0461928934
0
LINE
5
210
100
AcDbEntity
8
0
100
AcDbLine
62
2
6
CONTINUOUS
10
106.9654822335
20
283.0461928934
11
156.2679626904
21
283.0461928934
0
INSERT
5
211
100
AcDbEntity
8
0
100
AcDbBlockReference
62
2
6
CONTINUOUS
2
_FILLED
10
94.2654822335
20
283.0461928934
41
  3.500000
42
  3.500000
43
  3.500000
50
180.000000
0
INSERT
5
212
100
AcDbEntity
8
0
100
AcDbBlockReference
62
2
6
CONTINUOUS
2
_FILLED
10
119.6654822335
20
283.0461928934
41
  3.500000
42
  3.500000
43
  3.500000
0
ENDBLK
5
213
100
AcDbEntity
8
0
6
BYBLOCK
62
0
100
AcDbBlockEnd
0
BLOCK
5
214
100
AcDbEntity
8
0
100
AcDbBlockBegin
62
2
6
CONTINUOUS
2
*D1
70
65
10
0.0000000000
20
0.0000000000
3
*D1
1

0
TEXT
5
215
100
AcDbEntity
8
0
100
AcDbText
62
2
6
CONTINUOUS
10
18.1798223350
20
151.3625653553
7
STANDARD
40
3.5000000000
1
193.5
50
90.0000000000
41
0.7143000000
72
0
100
AcDbText
0
LINE
5
216
100
AcDbEntity
8
0
100
AcDbLine
62
2
6
CONTINUOUS
10
95.2090082908
20
274.7322335025
11
17.5548223350
21
274.7322335025
0
LINE
5
217
100
AcDbEntity
8
0
100
AcDbLine
62
2
6
CONTINUOUS
10
44.8916861231
20
81.2322335025
11
17.5548223350
21
81.2322335025
0
LINE
5
218
100
AcDbEntity
8
0
100
AcDbLine
62
2
6
CONTINUOUS
10
19.0548223350
20
274.7322335025
11
19.0548223350
21
177.9822335025
0
LINE
5
219
100
AcDbEntity
8
0
100
AcDbLine
62
2
6
CONTINUOUS
10
19.0548223350
20
81.2322335025
11
19.0548223350
21
177.9822335025
0
INSERT
5
21A
100
AcDbEntity
8
0
100
AcDbBlockReference
62
2
6
CONTINUOUS
2
_FILLED
10
19.0548223350
20
274.7322335025
41
  3.500000
42
  3.500000
43
  3.500000
50
 90.000000
0
INSERT
5
21B
100
AcDbEntity
8
0
100
AcDbBlockReference
62
2
6
CONTINUOUS
2
_FILLED
10
19.0548223350
20
81.2322335025
41
  3.500000
42
  3.500000
43
  3.500000
50
270.000000
0
ENDBLK
5
21C
100
AcDbEntity
8
0
6
BYBLOCK
62
0
100
AcDbBlockEnd
0
BLOCK
5
21D
100
AcDbEntity
8
0
100
AcDbBlockBegin
62
2
6
CONTINUOUS
2
*D2
70
65
10
0.0000000000
20
0.0000000000
3
*D2
1

0
TEXT
5
21E
100
AcDbEntity
8
0
100
AcDbText
62
2
6
CONTINUOUS
10
49.9848984772
20
188.5280475888
7
STANDARD
40
3.5000000000
1
133.5
50
90.0000000000
41
0.7143000000
72
0
100
AcDbText
0
LINE
5
21F
100
AcDbEntity
8
0
100
AcDbLine
62
2
6
CONTINUOUS
10
95.2090082908
20
274.7322335025
11
49.3598984772
21
274.7322335025
0
LINE
5
220
100
AcDbEntity
8
0
100
AcDbLine
62
2
6
CONTINUOUS
10
110.9376181885
20
141.2322335025
11
49.3598984772
21
141.2322335025
0
LINE
5
221
100
AcDbEntity
8
0
100
AcDbLine
62
2
6
CONTINUOUS
10
50.8598984772
20
274.7322335025
11
50.8598984772
21
207.9822335025
0
LINE
5
222
100
AcDbEntity
8
0
100
AcDbLine
62
2
6
CONTINUOUS
10
50.8598984772
20
141.2322335025
11
50.8598984772
21
207.9822335025
0
INSERT
5
223
100
AcDbEntity
8
0
100
AcDbBlockReference
62
2
6
CONTINUOUS
2
_FILLED
10
50.8598984772
20
274.7322335025
41
  3.500000
42
  3.500000
43
  3.500000
50
 90.000000
0
INSERT
5
224
100
AcDbEntity
8
0
100
AcDbBlockReference
62
2
6
CONTINUOUS
2
_FILLED
10
50.8598984772
20
141.2322335025
41
  3.500000
42
  3.500000
43
  3.500000
50
270.000000
0
ENDBLK
5
225
100
AcDbEntity
8
0
6
BYBLOCK
62
0
100
AcDbBlockEnd
0
BLOCK
5
226
100
AcDbEntity
8
0
100
AcDbBlockBegin
62
2
6
CONTINUOUS
2
*D3
70
65
10
0.0000000000
20
0.0000000000
3
*D3
1

0
TEXT
5
227
100
AcDbEntity
8
0
100
AcDbText
62
2
6
CONTINUOUS
10
104.0135942404
20
71.5299310727
7
STANDARD
40
3.5000000000
1
124.1
41
0.7143000000
72
0
100
AcDbText
0
LINE
5
228
100
AcDbEntity
8
0
100
AcDbLine
62
2
6
CONTINUOUS
10
44.8916861231
20
81.2322335025
11
44.8916861231
21
69.1549310727
0
LINE
5
229
100
AcDbEntity
8
0
100
AcDbLine
62
2
6
CONTINUOUS
10
169.0392783439
20
81.2322335025
11
169.0392783439
21
69.1549310727
0
LINE
5
22A
100
AcDbEntity
8
0
100
AcDbLine
62
2
6
CONTINUOUS
10
44.8916861231
20
70.6549310727
11
106.9654822335
21
70.6549310727
0
LINE
5
22B
100
AcDbEntity
8
0
100
AcDbLine
62
2
6
CONTINUOUS
10
169.0392783439
20
70.6549310727
11
106.9654822335
21
70.6549310727
0
INSERT
5
22C
100
AcDbEntity
8
0
100
AcDbBlockReference
62
2
6
CONTINUOUS
2
_FILLED
10
44.8916861231
20
70.6549310727
41
  3.500000
42
  3.500000
43
  3.500000
50
180.000000
0
INSERT
5
22D
100
AcDbEntity
8
0
100
AcDbBlockReference
62
2
6
CONTINUOUS
2
_FILLED
10
169.0392783439
20
70.6549310727
41
  3.500000
42
  3.500000
43
  3.500000
0
ENDBLK
5
22E
100
AcDbEntity
8
0
6
BYBLOCK
62
0
100
AcDbBlockEnd
0
BLOCK
5
22F
100
AcDbEntity
8
0
100
AcDbBlockBegin
2
_FILLED
70
64
10
0.0000000000
20
0.0000000000
3
_FILLED
1

0
SOLID
5
230
100
AcDbEntity
8
0
6
BYBLOCK
62
0
100
AcDbTrace
10
0.0000000000
20
0.0000000000
11
-1.0000000000
21
0.1857142857
12
-1.0000000000
22
-0.1857142857
13
-1.0000000000
23
-0.1857142857
0
ENDBLK
5
231
100
AcDbEntity
8
0
6
BYBLOCK
62
0
100
AcDbBlockEnd
0
ENDSEC
0
SECTION
2
ENTITIES
0
DIMENSION
5
232
100
AcDbEntity
8
0
100
AcDbDimension
62
2
6
CONTINUOUS
2
*D0
10
119.6654822335
20
283.0461928934
11
145.0177376904
21
285.6711928934
70
160
42
25.400000
1
 1"-8 UNC
3
DIMSTYLE_1
100
AcDbAlignedDimension
13
94.2654822335
23
272.7322335025
14
119.6654822335
24
272.7322335025
100
AcDbRotatedDimension
0
DIMENSION
5
233
100
AcDbEntity
8
0
100
AcDbDimension
62
2
6
CONTINUOUS
2
*D1
10
19.0548223350
20
81.2322335025
11
16.4298223350
21
157.6126903553
70
160
42
193.500000
3
DIMSTYLE_2
100
AcDbAlignedDimension
13
95.2090082908
23
274.7322335025
14
44.8916861231
24
81.2322335025
50
270.000000
100
AcDbRotatedDimension
0
DIMENSION
5
234
100
AcDbEntity
8
0
100
AcDbDimension
62
2
6
CONTINUOUS
2
*D2
10
50.8598984772
20
141.2322335025
11
48.2348984772
21
194.7781725888
70
160
42
133.500000
3
DIMSTYLE_2
100
AcDbAlignedDimension
13
95.2090082908
23
274.7322335025
14
110.9376181885
24
141.2322335025
50
270.000000
100
AcDbRotatedDimension
0
DIMENSION
5
235
100
AcDbEntity
8
0
100
AcDbDimension
62
2
6
CONTINUOUS
2
*D3
10
169.0392783439
20
70.6549310727
11
110.2637192404
21
73.2799310727
70
160
42
124.147592
3
DIMSTYLE_3
100
AcDbAlignedDimension
13
44.8916861231
23
81.2322335025
14
169.0392783439
24
81.2322335025
100
AcDbRotatedDimension
0
MTEXT
5
236
100
AcDbEntity
8
0
100
AcDbMText
62
2
6
CONTINUOUS
7
TEXTSTYLE_1
71
1
72
1
10
146.7030456853
20
189.7736040609
30
0.0000000000
11
1.0000000000
21
0.0000000000
31
0.0000000000
1
Presa chiave\P19 mm
40
5.0000000000
41
37.4166666667
0
LINE
5
237
100
AcDbEntity
8
0
100
AcDbLine
62
2
6
CONTINUOUS
10
111.4376181885
20
135.0989747193
11
145.2030456853
21
187.2736040609
0
LINE
5
238
100
AcDbEntity
8
0
100
AcDbLine
62
2
6
CONTINUOUS
10
145.2030456853
20
187.2736040609
11
146.7030456853
21
187.2736040609
0
SOLID
5
239
100
AcDbEntity
8
0
100
AcDbTrace
62
2
6
CONTINUOUS
10
112.7935159897
20
138.3904851861
11
111.4376181885
21
135.0989747193
12
113.8849059271
22
137.6841793001
13
113.8849059271
23
137.6841793001
0
LINE
5
23A
100
AcDbEntity
8
0
100
AcDbLine
62
7
6
CONTINUOUS
10
0.0000000000
20
0.0000000000
11
210.0000000000
21
0.0000000000
0
LINE
5
23B
100
AcDbEntity
8
0
100
AcDbLine
62
7
6
CONTINUOUS
10
0.0000000000
20
0.0000000000
11
0.0000000000
21
297.0000000000
0
LINE
5
23C
100
AcDbEntity
8
0
100
AcDbLine
62
7
6
CONTINUOUS
10
210.0000000000
20
0.0000000000
11
210.0000000000
21
297.0000000000
0
LINE
5
23D
100
AcDbEntity
8
0
100
AcDbLine
62
7
6
CONTINUOUS
10
0.0000000000
20
297.0000000000
11
210.0000000000
21
297.0000000000
0
LINE
5
23E
100
AcDbEntity
8
0
100
AcDbLine
62
7
6
CONTINUOUS
10
45.3916861231
20
81.2322335025
11
44.8916861231
21
81.7322335025
0
LINE
5
23F
100
AcDbEntity
8
0
100
AcDbLine
62
7
6
CONTINUOUS
10
45.3916861231
20
81.2322335025
11
168.5392783439
21
81.2322335025
0
LINE
5
240
100
AcDbEntity
8
0
100
AcDbLine
62
7
6
CONTINUOUS
10
44.8916861231
20
81.7322335025
11
169.0392783439
21
81.7322335025
0
LINE
5
241
100
AcDbEntity
8
0
100
AcDbLine
62
7
6
CONTINUOUS
10
168.6372907676
20
89.4026133911
11
45.2936736994
21
89.4026133911
0
LINE
5
242
100
AcDbEntity
8
0
100
AcDbLine
62
9
6
CONTINUOUS
10
46.8779124510
20
97.5528152230
11
94.4171591021
21
97.5528152230
0
LINE
5
243
100
AcDbEntity
8
0
100
AcDbLine
62
9
6
CONTINUOUS
10
119.5138053649
20
97.5528152230
11
167.0530520160
21
97.5528152230
0
LINE
5
244
100
AcDbEntity
8
0
100
AcDbLine
62
9
6
CONTINUOUS
10
165.2641091346
20
99.1635866284
11
120.4163982975
21
99.1635866284
0
LINE
5
245
100
AcDbEntity
8
0
100
AcDbLine
62
9
6
CONTINUOUS
10
93.5145661695
20
99.1635866284
11
48.6668553324
21
99.1635866284
0
LINE
5
246
100
AcDbEntity
8
0
100
AcDbLine
62
9
6
CONTINUOUS
10
118.9670913324
20
100.6138514933
11
94.9638731346
21
100.6138514933
0
LINE
5
247
100
AcDbEntity
8
0
100
AcDbLine
62
9
6
CONTINUOUS
10
67.8441078560
20
100.8413788218
11
93.8150002371
21
100.8413788218
0
LINE
5
248
100
AcDbEntity
8
0
100
AcDbLine
62
9
6
CONTINUOUS
10
120.1159642299
20
100.8413788218
11
146.0868566110
21
100.8413788218
0
LINE
5
249
100
AcDbEntity
8
0
100
AcDbLine
62
7
6
CONTINUOUS
10
94.9686337913
20
102.2322330755
11
119.1615126146
21
102.2322361503
0
LINE
5
24A
100
AcDbEntity
8
0
100
AcDbLine
62
7
6
CONTINUOUS
10
67.8441078560
20
100.8413788218
11
48.6668553324
21
99.1635866284
0
LINE
5
24B
100
AcDbEntity
8
0
100
AcDbLine
62
9
6
CONTINUOUS
10
118.3335405320
20
103.0043139052
11
95.5974239331
21
103.0043139052
0
LINE
5
24C
100
AcDbEntity
8
0
100
AcDbLine
62
9
6
CONTINUOUS
10
71.7384561612
20
103.3223523123
11
94.6391838147
21
103.3223523123
0
LINE
5
24D
100
AcDbEntity
8
0
100
AcDbLine
62
9
6
CONTINUOUS
10
119.2917806523
20
103.3223523123
11
142.1925083058
21
103.3223523123
0
LWPOLYLINE
5
24E
100
AcDbEntity
8
0
100
AcDbPolyline
62
7
6
CONTINUOUS
90
16
70
0
10
118.6263486195
20
102.2322216471
10
118.6882700296
20
102.2303272673
10
118.7478353134
20
102.2248268686
10
118.8050749837
20
102.2160834972
10
118.8607196155
20
102.2043202367
10
118.9144307862
20
102.1898186715
10
118.9669756483
20
102.1724438243
10
119.0180131140
20
102.1523168026
10
119.0682548043
20
102.1292460207
10
119.1171206747
20
102.1035080538
10
119.1645575582
20
102.0750745008
10
119.2098979007
20
102.0443298373
10
119.2526854285
20
102.0117859136
10
119.2926946249
20
101.9778895514
10
119.3293963607
20
101.9434401172
10
119.3628422061
20
101.9087811583
0
LINE
5
24F
100
AcDbEntity
8
0
100
AcDbLine
62
7
6
CONTINUOUS
10
146.0868566110
20
100.8413788218
11
165.2641091346
21
99.1635866284
0
LWPOLYLINE
5
250
100
AcDbEntity
8
0
100
AcDbPolyline
62
7
6
CONTINUOUS
90
16
70
0
10
118.6850917492
20
102.2305096824
10
118.7417425385
20
102.2255441619
10
118.7961979511
20
102.2176821654
10
118.8491270577
20
102.2070967197
10
118.9002501693
20
102.1940029249
10
118.9502360771
20
102.1783102323
10
118.9987928919
20
102.1602387190
10
119.0465296147
20
102.1396436647
10
119.0929802029
20
102.1167012113
10
119.1384105901
20
102.0911934252
10
119.1823291106
20
102.0634135730
10
119.2242749515
20
102.0337731042
10
119.2639120340
20
102.0026625212
10
119.3006726778
20
101.9707394497
10
119.3345900826
20
101.9382805215
10
119.3657763929
20
101.9055238565
0
LINE
5
251
100
AcDbEntity
8
0
100
AcDbLine
62
7
6
CONTINUOUS
10
45.2936736994
20
89.4026133911
11
44.8916861231
21
81.7322335025
0
LINE
5
252
100
AcDbEntity
8
0
100
AcDbLine
62
7
6
CONTINUOUS
10
95.7089707001
20
274.7321683927
11
94.2656094900
21
272.2321600439
0
LINE
5
253
100
AcDbEntity
8
0
100
AcDbLine
62
7
6
CONTINUOUS
10
88.8654822335
20
123.3322335025
11
125.0654822335
21
123.3322335025
0
LINE
5
254
100
AcDbEntity
8
0
100
AcDbLine
62
9
6
CONTINUOUS
10
129.5428325027
20
125.2322335025
11
84.3881319643
21
125.2322335025
0
LINE
5
255
100
AcDbEntity
8
0
100
AcDbLine
62
7
6
CONTINUOUS
10
86.1201827719
20
126.2322335025
11
127.8107816951
21
126.2322335025
0
LINE
5
256
100
AcDbEntity
8
0
100
AcDbLine
62
7
6
CONTINUOUS
10
89.9654822335
20
126.3322335025
11
123.9654822335
21
126.3322335025
0
LINE
5
257
100
AcDbEntity
8
0
100
AcDbLine
62
7
6
CONTINUOUS
10
96.4654822335
20
128.3322546453
11
102.4933462785
21
128.3322546453
0
LINE
5
258
100
AcDbEntity
8
0
100
AcDbLine
62
7
6
CONTINUOUS
10
111.4376181885
20
128.3322546453
11
117.4654822335
21
128.3322546453
0
LINE
5
259
100
AcDbEntity
8
0
100
AcDbLine
62
7
6
CONTINUOUS
10
46.8779124510
20
97.5528152230
11
45.2936736994
21
89.4026133911
0
LINE
5
25A
100
AcDbEntity
8
0
100
AcDbLine
62
7
6
CONTINUOUS
10
98.4654989804
20
126.3322335025
11
96.4654925837
21
128.3322438397
0
LINE
5
25B
100
AcDbEntity
8
0
100
AcDbLine
62
7
6
CONTINUOUS
10
119.3628422061
20
101.9087811583
11
119.3943405164
21
101.8727339906
0
LINE
5
25C
100
AcDbEntity
8
0
100
AcDbLine
62
7
6
CONTINUOUS
10
119.3932316864
20
101.8741135278
11
119.4207563290
21
101.8396718070
0
LINE
5
25D
100
AcDbEntity
8
0
100
AcDbLine
62
7
6
CONTINUOUS
10
111.4376181885
20
141.2322335025
11
102.4933462785
21
141.2322335025
0
LINE
5
25E
100
AcDbEntity
8
0
100
AcDbLine
62
7
6
CONTINUOUS
10
117.4654822335
20
141.3322335025
11
96.4654822335
21
141.3322335025
0
LINE
5
25F
100
AcDbEntity
8
0
100
AcDbLine
62
7
6
CONTINUOUS
10
119.6654822335
20
143.8322335025
11
94.2654822335
21
143.8322335025
0
LINE
5
260
100
AcDbEntity
8
0
100
AcDbLine
62
7
6
CONTINUOUS
10
94.2654822335
20
143.8322335025
11
96.4654822335
21
141.3322335025
0
LINE
5
261
100
AcDbEntity
8
0
100
AcDbLine
62
7
6
CONTINUOUS
10
119.4202671172
20
101.8403326573
11
119.4456112242
21
101.8057121973
0
LWPOLYLINE
5
262
100
AcDbEntity
8
0
100
AcDbPolyline
62
7
6
CONTINUOUS
90
12
70
0
10
119.4437123014
20
101.8084613004
10
119.4679777777
20
101.7723960074
10
119.4879982646
20
101.7398588654
10
119.5058680348
20
101.7081862239
10
119.5218858643
20
101.6772882267
10
119.5362191391
20
101.6472334598
10
119.5488899014
20
101.6182763835
10
119.5600320690
20
101.5904705943
10
119.5699201755
20
101.5635046265
10
119.5786839159
20
101.5373982467
10
119.5863090847
20
101.5125195187
10
119.5928841998
20
101.4889337301
0
LWPOLYLINE
5
263
100
AcDbEntity
8
0
100
AcDbPolyline
62
7
6
CONTINUOUS
90
12
70
0
10
119.4649697268
20
101.7770449722
10
119.4842089999
20
101.7461788285
10
119.5015581023
20
101.7160486651
10
119.5171549582
20
101.6867260969
10
119.5311296015
20
101.6582349934
10
119.5436080160
20
101.6306261115
10
119.5547866306
20
101.6038050916
10
119.5647917805
20
101.5777836643
10
119.5736340147
20
101.5527778512
10
119.5813887815
20
101.5288682360
10
119.5882362696
20
101.5058118046
10
119.5942845631
20
101.4835640801
0
LINE
5
264
100
AcDbEntity
8
0
100
AcDbLine
62
7
6
CONTINUOUS
10
88.8654822335
20
126.2322335025
11
88.8654822335
21
123.3322335025
0
LINE
5
265
100
AcDbEntity
8
0
100
AcDbLine
62
7
6
CONTINUOUS
10
89.9654822335
20
126.3322335025
11
89.9654822335
21
123.3322335025
0
LINE
5
266
100
AcDbEntity
8
0
100
AcDbLine
62
7
6
CONTINUOUS
10
94.2654822335
20
272.2322335025
11
94.2654822335
21
143.8322335025
0
LINE
5
267
100
AcDbEntity
8
0
100
AcDbLine
62
7
6
CONTINUOUS
10
96.4654822335
20
141.3322335025
11
96.4654822335
21
128.3322335025
0
LINE
5
268
100
AcDbEntity
8
0
100
AcDbLine
62
7
6
CONTINUOUS
10
129.5428325027
20
125.2322335025
11
142.1925083058
21
103.3223523123
0
LINE
5
269
100
AcDbEntity
8
0
100
AcDbLine
62
7
6
CONTINUOUS
10
102.4933462785
20
141.2322335025
11
102.4933462785
21
128.3322546453
0
LINE
5
26A
100
AcDbEntity
8
DEFAULT_1
100
AcDbLine
62
2
6
CENTER
10
106.9654822335
20
277.7322397724
11
106.9654822335
21
78.2322335025
0
LINE
5
26B
100
AcDbEntity
8
0
100
AcDbLine
62
7
6
CONTINUOUS
10
94.3197670022
20
101.4058413606
11
93.9663231138
21
99.4013860804
0
LINE
5
26C
100
AcDbEntity
8
0
100
AcDbLine
62
7
6
CONTINUOUS
10
119.5928841998
20
101.4889337301
11
119.5995299142
21
101.4624526123
0
LINE
5
26D
100
AcDbEntity
8
0
100
AcDbLine
62
7
6
CONTINUOUS
10
119.5985830118
20
101.4663958066
11
119.6040208576
21
101.4425898379
0
LWPOLYLINE
5
26E
100
AcDbEntity
8
0
100
AcDbPolyline
62
7
6
CONTINUOUS
90
3
70
0
10
119.6035071985
20
101.4449028583
10
119.6076888804
20
101.4247110903
10
119.6111962182
20
101.4058800475
0
LINE
5
26F
100
AcDbEntity
8
0
100
AcDbLine
62
7
6
CONTINUOUS
10
119.9646320484
20
99.4014142318
11
119.6111910259
21
101.4058778771
0
LINE
5
270
100
AcDbEntity
8
0
100
AcDbLine
62
7
6
CONTINUOUS
10
111.4376181885
20
141.2322335025
11
111.4376181885
21
128.3322541900
0
LWPOLYLINE
5
271
100
AcDbEntity
8
0
100
AcDbPolyline
62
7
6
CONTINUOUS
90
4
70
0
10
94.3197778393
20
101.4059023083
10
94.3233169022
20
101.4249308641
10
94.3274687914
20
101.4450281974
10
94.3323252815
20
101.4662161699
0
LWPOLYLINE
5
272
100
AcDbEntity
8
0
100
AcDbPolyline
62
7
6
CONTINUOUS
90
4
70
0
10
94.3274570149
20
101.4449016327
10
94.3323807060
20
101.4663927719
10
94.3380794911
20
101.4889304427
10
94.3446548750
20
101.5125170869
0
LINE
5
273
100
AcDbEntity
8
0
100
AcDbLine
62
7
6
CONTINUOUS
10
84.3881319643
20
125.2322335025
11
71.7384561612
21
103.3223523123
0
LINE
5
274
100
AcDbEntity
8
0
100
AcDbLine
62
7
6
CONTINUOUS
10
117.4654822335
20
141.3322335025
11
117.4654822335
21
128.3322335025
0
LINE
5
275
100
AcDbEntity
8
0
100
AcDbLine
62
7
6
CONTINUOUS
10
119.6654822335
20
272.2322335025
11
119.6654822335
21
143.8322335025
0
LWPOLYLINE
5
276
100
AcDbEntity
8
0
100
AcDbPolyline
62
7
6
CONTINUOUS
90
3
70
0
10
94.3447159926
20
101.5126921650
10
94.3523110829
20
101.5375276207
10
94.3609593889
20
101.5633283985
0
LWPOLYLINE
5
277
100
AcDbEntity
8
0
100
AcDbPolyline
62
7
6
CONTINUOUS
90
3
70
0
10
94.3610405100
20
101.5634946390
10
94.3709276440
20
101.5904575131
10
94.3820700463
20
101.6182623801
0
LINE
5
278
100
AcDbEntity
8
0
100
AcDbLine
62
7
6
CONTINUOUS
10
123.9654822335
20
126.3322335025
11
123.9654822335
21
123.3322335025
0
LINE
5
279
100
AcDbEntity
8
0
100
AcDbLine
62
7
6
CONTINUOUS
10
125.0654822335
20
126.2322335025
11
125.0654822335
21
123.3322335025
0
LWPOLYLINE
5
27A
100
AcDbEntity
8
0
100
AcDbPolyline
62
7
6
CONTINUOUS
90
3
70
0
10
94.3820593716
20
101.6181888923
10
94.3947404507
20
101.6471958030
10
94.4090087710
20
101.6771977633
0
LWPOLYLINE
5
27B
100
AcDbEntity
8
0
100
AcDbPolyline
62
7
6
CONTINUOUS
90
4
70
0
10
94.4090786361
20
101.6772876706
10
94.4250928655
20
101.7081826650
10
94.4429546272
20
101.7398395164
10
94.4629776620
20
101.7723787373
0
LWPOLYLINE
5
27C
100
AcDbEntity
8
0
100
AcDbPolyline
62
7
6
CONTINUOUS
90
4
70
0
10
94.4428563533
20
101.7396394825
10
94.4628979641
20
101.7722029572
10
94.4852722152
20
101.8056203065
10
94.5100294375
20
101.8395099489
0
LWPOLYLINE
5
27D
100
AcDbEntity
8
0
100
AcDbPolyline
62
7
6
CONTINUOUS
90
3
70
0
10
94.5102126991
20
101.8396804182
10
94.5377223007
20
101.8741013718
10
94.5681119871
20
101.9087644039
0
LINE
5
27E
100
AcDbEntity
8
0
100
AcDbLine
62
7
6
CONTINUOUS
10
119.6654822335
20
143.8322335025
11
117.4654822335
21
141.3322335025
0
LWPOLYLINE
5
27F
100
AcDbEntity
8
0
100
AcDbPolyline
62
7
6
CONTINUOUS
90
16
70
0
10
94.5677371582
20
101.9083154626
10
94.6012717858
20
101.9431061995
10
94.6379065621
20
101.9775856527
10
94.6776502960
20
102.0113329311
10
94.7202453561
20
102.0437618509
10
94.7655828029
20
102.0745007910
10
94.8129449356
20
102.1029598317
10
94.8616319888
20
102.1287354385
10
94.9117315422
20
102.1518350515
10
94.9627520499
20
102.1719621709
10
95.0153932488
20
102.1894222863
10
95.0692225673
20
102.2040660267
10
95.1250519633
20
102.2159687058
10
95.1824422332
20
102.2247551126
10
95.2423109583
20
102.2302813397
10
95.3045745627
20
102.2322090529
0
LINE
5
280
100
AcDbEntity
8
0
100
AcDbLine
62
7
6
CONTINUOUS
10
115.4654651180
20
126.3322335025
11
117.4654715450
21
128.3322439568
0
LINE
5
281
100
AcDbEntity
8
0
100
AcDbLine
62
7
6
CONTINUOUS
10
167.0530520160
20
97.5528152230
11
168.6372907676
21
89.4026133911
0
LINE
5
282
100
AcDbEntity
8
0
100
AcDbLine
62
7
6
CONTINUOUS
10
168.6372907676
20
89.4026133911
11
169.0392783439
21
81.7322335025
0
LINE
5
283
100
AcDbEntity
8
0
100
AcDbLine
62
7
6
CONTINUOUS
10
118.2219937664
20
274.7321683936
11
119.6653549764
21
272.2321600449
0
LINE
5
284
100
AcDbEntity
8
0
100
AcDbLine
62
7
6
CONTINUOUS
10
94.2654822335
20
272.2319396262
11
119.6654822335
21
272.2319396262
0
LINE
5
285
100
AcDbEntity
8
0
100
AcDbLine
62
7
6
CONTINUOUS
10
95.7090082908
20
274.7322335025
11
118.2219561762
21
274.7322335025
0
LINE
5
286
100
AcDbEntity
8
0
100
AcDbLine
62
7
6
CONTINUOUS
10
168.5392783439
20
81.2322335025
11
169.0392783439
21
81.7322335025
0
ARC
5
287
100
AcDbEntity
8
0
100
AcDbCircle
62
7
6
CONTINUOUS
10
146.5226353247
20
105.8223523123
40
5.0000000000
100
AcDbArc
50
210.0000000000
51
265.0000000000
0
ARC
5
288
100
AcDbEntity
8
0
100
AcDbCircle
62
7
6
CONTINUOUS
10
165.0897976491
20
97.1711972322
40
2.0000000000
100
AcDbArc
50
11.0000000000
51
85.0000000000
0
ARC
5
289
100
AcDbEntity
8
0
100
AcDbCircle
62
7
6
CONTINUOUS
10
48.8411668179
20
97.1711972322
40
2.0000000000
100
AcDbArc
50
95.0000000000
51
169.0000000000
0
ARC
5
28A
100
AcDbEntity
8
0
100
AcDbCircle
62
7
6
CONTINUOUS
10
118.6263897108
20
101.2321931886
40
1.0000000000
100
AcDbArc
50
10.0023449609
51
90.0004070836
0
ARC
5
28B
100
AcDbEntity
8
0
100
AcDbCircle
62
7
6
CONTINUOUS
10
95.3045818202
20
101.2322332502
40
1.0000000000
100
AcDbArc
50
89.9999974506
51
169.9999853181
0
ARC
5
28C
100
AcDbEntity
8
0
100
AcDbCircle
62
7
6
CONTINUOUS
10
86.1201827719
20
124.2322335025
40
2.0000000000
100
AcDbArc
50
90.0000000000
51
150.0000000000
0
ARC
5
28D
100
AcDbEntity
8
0
100
AcDbCircle
62
7
6
CONTINUOUS
10
127.8107816951
20
124.2322335025
40
2.0000000000
100
AcDbArc
50
30.0000000000
51
90.0000000000
0
ARC
5
28E
100
AcDbEntity
8
0
100
AcDbCircle
62
7
6
CONTINUOUS
10
67.4083291423
20
105.8223523123
40
5.0000000000
100
AcDbArc
50
275.0000000000
51
330.0000000000
0
SPLINE
5
28F
100
AcDbEntity
8
0
100
AcDbSpline
62
9
6
CONTINUOUS
70
0
71
3
72
10
73
6
74
4
42
0.0000001000
43
0.0000001000
44
0.0000000001
12
-0.9840451425
22
0.9814699155
32
0.0000000000
13
-0.7163481930
23
1.1909967691
33
0.0000000000
40
0.0000000000
40
0.0000000000
40
0.0000000000
40
0.0000000000
40
0.3378063236
40
0.6716437783
40
1.0000000000
40
1.0000000000
40
1.0000000000
40
1.0000000000
10
120.1489871400
20
102.2322334221
30
0.0000000000
10
120.0381815827
20
102.3427490034
30
0.0000000000
10
119.8267430008
20
102.5715705067
30
0.0000000000
10
119.5397614775
20
102.9358171759
30
0.0000000000
10
119.3701864477
20
103.1919952459
30
0.0000000000
10
119.2917806523
20
103.3223523123
30
0.0000000000
11
120.1489871400
21
102.2322334221
31
0.0000000000
11
119.8302212597
21
102.5769251695
31
0.0000000000
11
119.5433890827
21
102.9416199926
31
0.0000000000
11
119.2917806523
21
103.3223523123
31
0.0000000000
0
SPLINE
5
290
100
AcDbEntity
8
0
100
AcDbSpline
62
9
6
CONTINUOUS
70
0
71
3
72
12
73
8
74
6
42
0.0000001000
43
0.0000001000
44
0.0000000001
12
-0.8347336293
22
-0.2453483604
32
0.0000000000
13
-0.7079208812
23
-0.5057905453
33
0.0000000000
40
0.0000000000
40
0.0000000000
40
0.0000000000
40
0.0000000000
40
0.1894986206
40
0.3899146583
40
0.5956762130
40
0.8009708382
40
1.0000000000
40
1.0000000000
40
1.0000000000
40
1.0000000000
10
119.2917820348
20
103.3223545933
30
0.0000000000
10
119.2390550777
20
103.3068568680
30
0.0000000000
10
119.1318494572
20
103.2704935043
30
0.0000000000
10
118.9723256371
20
103.2038962346
30
0.0000000000
10
118.8132190171
20
103.1253123751
30
0.0000000000
10
118.6596320393
20
103.0372543540
30
0.0000000000
10
118.5617451837
20
102.9725036440
30
0.0000000000
10
118.5147795505
20
102.9389479546
30
0.0000000000
11
119.2917820348
21
103.3223545933
31
0.0000000000
11
119.1355090488
21
103.2698040719
31
0.0000000000
11
118.9745087769
21
103.2028409650
31
0.0000000000
11
118.8139684507
21
103.1236228016
31
0.0000000000
11
118.6590602656
21
103.0347021722
31
0.0000000000
11
118.5147795505
21
102.9389479546
31
0.0000000000
0
SPLINE
5
291
100
AcDbEntity
8
0
100
AcDbSpline
62
9
6
CONTINUOUS
70
0
71
3
72
32
73
28
74
26
42
0.0000001000
43
0.0000001000
44
0.0000000001
12
-14.8697892255
22
29.4961876832
32
0.0000000000
13
-14.8697850444
23
-29.4961897910
33
0.0000000000
40
0.0000000000
40
0.0000000000
40
0.0000000000
40
0.0000000000
40
0.0710323122
40
0.1345177326
40
0.1911650887
40
0.2416468061
40
0.2865461970
40
0.3264022441
40
0.3616686487
40
0.3927955345
40
0.4203564585
40
0.4450770722
40
0.4678136189
40
0.4894106653
40
0.5106214240
40
0.5322209792
40
0.5549589437
40
0.5796826449
40
0.6072437419
40
0.6383703982
40
0.6736381861
40
0.7134933470
40
0.7583894513
40
0.8088658603
40
0.8655055445
40
0.9289809393
40
1.0000000000
40
1.0000000000
40
1.0000000000
40
1.0000000000
10
118.3335400734
20
103.0043073413
30
0.0000000000
10
117.9814615699
20
103.7027014786
30
0.0000000000
10
117.2844588687
20
105.0104061396
30
0.0000000000
10
116.2000543960
20
106.8155702108
30
0.0000000000
10
115.1431352464
20
108.3699829853
30
0.0000000000
10
114.1163822051
20
109.6936074134
30
0.0000000000
10
113.1224556583
20
110.8042402875
30
0.0000000000
10
112.1648684497
20
111.7172818672
30
0.0000000000
10
111.2479582320
20
112.4466132987
30
0.0000000000
10
110.3776029834
20
113.0091927325
30
0.0000000000
10
109.5556290503
20
113.4229498366
30
0.0000000000
10
108.7792742102
20
113.7102468691
30
0.0000000000
10
108.0385858929
20
113.8895578875
30
0.0000000000
10
107.3203699685
20
113.9758469632
30
0.0000000000
10
106.6095065456
20
113.9757429172
30
0.0000000000
10
105.8912560883
20
113.8893885985
30
0.0000000000
10
105.1505365361
20
113.7098689228
30
0.0000000000
10
104.3741732919
20
113.4224540453
30
0.0000000000
10
103.5522400055
20
113.0085393559
30
0.0000000000
10
102.6819433575
20
112.4458460452
30
0.0000000000
10
101.7651115082
20
111.7164120247
30
0.0000000000
10
100.8076154513
20
110.8033207673
30
0.0000000000
10
99.8138387251
20
109.6926946161
30
0.0000000000
10
98.7872478301
20
108.3691726663
30
0.0000000000
10
97.7305140209
20
106.8149406299
30
0.0000000000
10
96.6463141160
20
105.0100519763
30
0.0000000000
10
95.9494371161
20
103.7025712179
30
0.0000000000
10
95.5974243937
20
103.0043073198
30
0.0000000000
11
118.3335400734
21
103.0043073413
31
0.0000000000
11
117.2269336314
21
105.0733276347
31
0.0000000000
11
116.1437461121
21
106.8689937171
31
0.0000000000
11
115.0881989928
21
108.4140473527
31
0.0000000000
11
114.0627617570
21
109.7290123255
31
0.0000000000
11
113.0704300359
21
110.8312639277
31
0.0000000000
11
112.1144769881
21
111.7364864188
31
0.0000000000
11
111.2003620476
21
112.4586085828
31
0.0000000000
11
110.3348091760
21
113.0135870488
31
0.0000000000
11
109.5204595726
21
113.4206083763
31
0.0000000000
11
108.7538829808
21
113.7019674145
31
0.0000000000
11
108.0236637437
21
113.8775893930
31
0.0000000000
11
107.3152732905
21
113.9619933794
31
0.0000000000
11
106.6146322269
21
113.9619157195
31
0.0000000000
11
105.9061718249
21
113.8773984014
31
0.0000000000
11
105.1759434013
21
113.7016144095
31
0.0000000000
11
104.4093158261
21
113.4200983175
31
0.0000000000
11
103.5950257588
21
113.0129451160
31
0.0000000000
11
102.7295511316
21
112.4578586822
31
0.0000000000
11
101.8154776080
21
111.7356103838
31
0.0000000000
11
100.8596194327
21
110.8303302821
31
0.0000000000
11
99.8674350421
21
109.7280921227
31
0.0000000000
11
98.8421626057
21
108.4132210016
31
0.0000000000
11
97.7868016339
21
106.8683471126
31
0.0000000000
11
96.7038143962
21
105.0729469733
31
0.0000000000
11
95.5974243937
21
103.0043073198
31
0.0000000000
0
SPLINE
5
292
100
AcDbEntity
8
0
100
AcDbSpline
62
9
6
CONTINUOUS
70
0
71
3
72
12
73
8
74
6
42
0.0000001000
43
0.0000001000
44
0.0000000001
12
0.8347589644
22
-0.2453555447
32
0.0000000000
13
0.7079386910
23
-0.5058109149
33
0.0000000000
40
0.0000000000
40
0.0000000000
40
0.0000000000
40
0.0000000000
40
0.1894958606
40
0.3899089052
40
0.5956675001
40
0.8009593410
40
1.0000000000
40
1.0000000000
40
1.0000000000
40
1.0000000000
10
94.6391775369
20
103.3223626722
30
0.0000000000
10
94.6919053264
20
103.3068647188
30
0.0000000000
10
94.7991126426
20
103.2705008937
30
0.0000000000
10
94.9586390174
20
103.2039027244
30
0.0000000000
10
95.1177482444
20
103.1253177365
30
0.0000000000
10
95.2713413365
20
103.0372562519
30
0.0000000000
10
95.3692330843
20
102.9725018737
30
0.0000000000
10
95.4162026122
20
102.9389428945
30
0.0000000000
11
94.6391775369
21
103.3223626722
31
0.0000000000
11
94.7954530144
21
103.2698114381
31
0.0000000000
11
94.9564558140
21
103.2028474474
31
0.0000000000
11
95.1169987474
21
103.1236281426
31
0.0000000000
11
95.2719095318
21
103.0347060486
31
0.0000000000
11
95.4162026122
21
102.9389428945
31
0.0000000000
0
SPLINE
5
293
100
AcDbEntity
8
0
100
AcDbSpline
62
9
6
CONTINUOUS
70
0
71
3
72
10
73
6
74
4
42
0.0000001000
43
0.0000001000
44
0.0000000001
12
-0.7165289952
22
-1.1913007580
32
0.0000000000
13
-0.9843460904
23
-0.9816690233
33
0.0000000000
40
0.0000000000
40
0.0000000000
40
0.0000000000
40
0.0000000000
40
0.3283114804
40
0.6621683370
40
1.0000000000
40
1.0000000000
40
1.0000000000
40
1.0000000000
10
94.6391838147
20
103.3223523123
30
0.0000000000
10
94.5607689163
20
103.1919797404
30
0.0000000000
10
94.3911210529
20
102.9357793239
30
0.0000000000
10
94.1042180369
20
102.5712981039
30
0.0000000000
10
93.8923042869
20
102.3427798498
30
0.0000000000
10
93.7814565280
20
102.2322335569
30
0.0000000000
11
94.6391838147
21
103.3223523123
31
0.0000000000
11
94.3875439958
21
102.9415760847
31
0.0000000000
11
94.1006140027
21
102.5767736606
31
0.0000000000
11
93.7814565280
21
102.2322335569
31
0.0000000000
0
SPLINE
5
294
100
AcDbEntity
8
0
100
AcDbSpline
62
9
6
CONTINUOUS
70
0
71
3
72
14
73
10
74
8
42
0.0000001000
43
0.0000001000
44
0.0000000001
12
0.1396986042
22
0.7922701968
32
0.0000000000
13
0.7968882126
23
-0.1103491793
33
0.0000000000
40
0.0000000000
40
0.0000000000
40
0.0000000000
40
0.0000000000
40
0.0436847226
40
0.1200237084
40
0.2344719858
40
0.3850276935
40
0.5670899031
40
0.7744983941
40
1.0000000000
40
1.0000000000
40
1.0000000000
40
1.0000000000
10
94.1770919050
20
100.5966906756
30
0.0000000000
10
94.1791261366
20
100.6082273768
30
0.0000000000
10
94.2078313346
20
100.6316172557
30
0.0000000000
10
94.2681429118
20
100.6451664244
30
0.0000000000
10
94.3598229948
20
100.6557146011
30
0.0000000000
10
94.4796163392
20
100.6568827947
30
0.0000000000
10
94.6244126815
20
100.6506982780
30
0.0000000000
10
94.7887200080
20
100.6362995243
30
0.0000000000
10
94.9039732797
20
100.6221461472
30
0.0000000000
10
94.9638731370
20
100.6138515082
30
0.0000000000
11
94.1770919050
21
100.5966906756
31
0.0000000000
11
94.2003088060
21
100.6230739595
31
0.0000000000
11
94.2586874265
21
100.6421430712
31
0.0000000000
11
94.3500937902
21
100.6532005649
31
0.0000000000
11
94.4711858838
21
100.6558419570
31
0.0000000000
11
94.6175357886
21
100.6499705510
31
0.0000000000
11
94.7837915861
21
100.6358010057
31
0.0000000000
11
94.9638731370
21
100.6138515082
31
0.0000000000
0
SPLINE
5
295
100
AcDbEntity
8
0
100
AcDbSpline
62
9
6
CONTINUOUS
70
0
71
3
72
14
73
10
74
8
42
0.0000001000
43
0.0000001000
44
0.0000000001
12
0.7968881904
22
0.1103489579
32
0.0000000000
13
0.1396985937
23
-0.7922701455
33
0.0000000000
40
0.0000000000
40
0.0000000000
40
0.0000000000
40
0.0000000000
40
0.2255007212
40
0.4329078568
40
0.6149691646
40
0.7655249185
40
0.8799741483
40
0.9563144390
40
1.0000000000
40
1.0000000000
40
1.0000000000
40
1.0000000000
10
118.9670913327
20
100.6138514936
30
0.0000000000
10
119.0269909533
20
100.6221460835
30
0.0000000000
10
119.1422436229
20
100.6362993726
30
0.0000000000
10
119.3065500893
20
100.6506981221
30
0.0000000000
10
119.4513458305
20
100.6568827404
30
0.0000000000
10
119.5711391711
20
100.6557147222
30
0.0000000000
10
119.6628199425
20
100.6451666947
30
0.0000000000
10
119.7231322498
20
100.6316176439
30
0.0000000000
10
119.7518382915
20
100.6082275975
30
0.0000000000
10
119.7538725620
20
100.5966906756
30
0.0000000000
11
118.9670913327
21
100.6138514936
31
0.0000000000
11
119.1471721671
21
100.6358008889
31
0.0000000000
11
119.3134268614
21
100.6499704104
31
0.0000000000
11
119.4597760263
21
100.6558419253
31
0.0000000000
11
119.5808681535
21
100.6532007318
31
0.0000000000
11
119.6722753038
21
100.6421434107
31
0.0000000000
11
119.7306550225
21
100.6230742931
31
0.0000000000
11
119.7538725620
21
100.5966906756
31
0.0000000000
0
SPLINE
5
296
100
AcDbEntity
8
0
100
AcDbSpline
62
9
6
CONTINUOUS
70
0
71
3
72
10
73
6
74
4
42
0.0000001000
43
0.0000001000
44
0.0000000001
12
0.5467825042
22
-3.0610240012
32
0.0000000000
13
0.5466458190
23
-3.0610484138
33
0.0000000000
40
0.0000000000
40
0.0000000000
40
0.0000000000
40
0.0000000000
40
0.3316337736
40
0.6649555418
40
1.0000000000
40
1.0000000000
40
1.0000000000
40
1.0000000000
10
118.9670913324
20
100.6138514933
30
0.0000000000
10
119.0275351808
20
100.2754718464
30
0.0000000000
10
119.1487254285
20
99.5969893102
30
0.0000000000
10
119.3309633680
20
98.5766438869
30
0.0000000000
10
119.4527549282
20
97.8946776587
30
0.0000000000
10
119.5138051456
20
97.5528152230
30
0.0000000000
11
118.9670913324
21
100.6138514933
31
0.0000000000
11
119.1484152690
21
99.5987111936
31
0.0000000000
11
119.3306469106
21
98.5784011761
31
0.0000000000
11
119.5138051456
21
97.5528152230
31
0.0000000000
0
SPLINE
5
297
100
AcDbEntity
8
0
100
AcDbSpline
62
9
6
CONTINUOUS
70
0
71
3
72
16
73
12
74
10
42
0.0000001000
43
0.0000001000
44
0.0000000001
12
-1.3955592670
22
-0.7178592893
32
0.0000000000
13
-0.4272107597
23
-1.5100988689
33
0.0000000000
40
0.0000000000
40
0.0000000000
40
0.0000000000
40
0.0000000000
40
0.1075111460
40
0.2194087262
40
0.3363177831
40
0.4562720925
40
0.5765328164
40
0.6939799458
40
0.8059486206
40
0.9092812560
40
1.0000000000
40
1.0000000000
40
1.0000000000
40
1.0000000000
10
94.7876257059
20
102.2322335247
30
0.0000000000
10
94.7376129806
20
102.2065075664
30
0.0000000000
10
94.6381902981
20
102.1485934556
30
0.0000000000
10
94.4971968800
20
102.0427831678
30
0.0000000000
10
94.3632557613
20
101.9183915406
30
0.0000000000
10
94.2408822926
20
101.7767530481
30
0.0000000000
10
94.1334651748
20
101.6231786370
30
0.0000000000
10
94.0435456965
20
101.4635831749
30
0.0000000000
10
93.9713383587
20
101.3049876376
30
0.0000000000
10
93.9162318548
20
101.1545486072
30
0.0000000000
10
93.8869968496
20
101.0572986885
30
0.0000000000
10
93.8740781751
20
101.0116339309
30
0.0000000000
11
94.7876257059
21
102.2322335247
31
0.0000000000
11
94.6419644971
21
102.1470825359
31
0.0000000000
11
94.5012228984
21
102.0420585511
31
0.0000000000
11
94.3668133122
21
101.9171729488
31
0.0000000000
11
94.2435230332
21
101.7749113080
31
0.0000000000
11
94.1352473730
21
101.6203262764
31
0.0000000000
11
94.0445508236
21
101.4598673701
31
0.0000000000
11
93.9716146280
21
101.2999994709
31
0.0000000000
11
93.9155791740
21
101.1478217688
31
0.0000000000
11
93.8740781751
21
101.0116339309
31
0.0000000000
0
SPLINE
5
298
100
AcDbEntity
8
0
100
AcDbSpline
62
9
6
CONTINUOUS
70
0
71
3
72
13
73
9
74
7
42
0.0000001000
43
0.0000001000
44
0.0000000001
12
-0.1109913525
22
-0.6294940196
32
0.0000000000
13
-0.6372327065
23
-0.0501625247
33
0.0000000000
40
0.0000000000
40
0.0000000000
40
0.0000000000
40
0.0000000000
40
0.1642653658
40
0.3290969992
40
0.4949498015
40
0.6620812396
40
0.8305063246
40
1.0000000000
40
1.0000000000
40
1.0000000000
40
1.0000000000
10
94.3197741117
20
101.4058816802
30
0.0000000000
10
94.3136967666
20
101.3714136584
30
0.0000000000
10
94.2936040575
20
101.3034948461
30
0.0000000000
10
94.2413663812
20
101.2109060402
30
0.0000000000
10
94.1694997014
20
101.1317007020
30
0.0000000000
10
94.0814566565
20
101.0696829866
30
0.0000000000
10
93.9814972188
20
101.0277351588
30
0.0000000000
10
93.9100809120
20
101.0144635542
30
0.0000000000
10
93.8740786075
20
101.0116294773
30
0.0000000000
11
94.3197741117
21
101.4058816802
31
0.0000000000
11
94.2899910563
21
101.3051951495
31
0.0000000000
11
94.2382844397
21
101.2133944104
31
0.0000000000
11
94.1671046763
21
101.1348300227
31
0.0000000000
11
94.0798250935
21
101.0732251835
31
0.0000000000
11
93.9805820012
21
101.0314992641
31
0.0000000000
11
93.8740786075
21
101.0116294773
31
0.0000000000
0
SPLINE
5
299
100
AcDbEntity
8
0
100
AcDbSpline
62
9
6
CONTINUOUS
70
0
71
3
72
13
73
9
74
7
42
0.0000001000
43
0.0000001000
44
0.0000000001
12
-0.1182417161
22
-0.6705817543
32
0.0000000000
13
-0.6806595297
23
-0.0190682264
33
0.0000000000
40
0.0000000000
40
0.0000000000
40
0.0000000000
40
0.0000000000
40
0.1664231313
40
0.3329048428
40
0.4994916487
40
0.6662085428
40
0.8330539288
40
1.0000000000
40
1.0000000000
40
1.0000000000
40
1.0000000000
10
94.2927555994
20
101.2526520820
30
0.0000000000
10
94.2861962139
20
101.2154519769
30
0.0000000000
10
94.2644586078
20
101.1422701183
30
0.0000000000
10
94.2078795164
20
101.0429341196
30
0.0000000000
10
94.1302141517
20
100.9588869696
30
0.0000000000
10
94.0354788417
20
100.8945492090
30
0.0000000000
10
93.9286496176
20
100.8532252885
30
0.0000000000
10
93.8528780473
20
100.8424399857
30
0.0000000000
10
93.8150002358
20
100.8413788639
30
0.0000000000
11
94.2927555994
21
101.2526520820
31
0.0000000000
11
94.2604709280
21
101.1440263013
31
0.0000000000
11
94.2043860832
21
101.0455103505
31
0.0000000000
11
94.1274021046
21
100.9622000916
31
0.0000000000
11
94.0335010730
21
100.8984048544
31
0.0000000000
11
93.9275401305
21
100.8574245273
31
0.0000000000
11
93.8150002358
21
100.8413788639
31
0.0000000000
0
SPLINE
5
29A
100
AcDbEntity
8
0
100
AcDbSpline
62
9
6
CONTINUOUS
70
0
71
3
72
13
73
9
74
7
42
0.0000001000
43
0.0000001000
44
0.0000000001
12
-0.1189972932
22
-0.6750235852
32
0.0000000000
13
-0.6853113591
23
-0.0128661376
33
0.0000000000
40
0.0000000000
40
0.0000000000
40
0.0000000000
40
0.0000000000
40
0.1664054676
40
0.3328742719
40
0.4994562241
40
0.6661776377
40
0.8330358917
40
1.0000000000
40
1.0000000000
40
1.0000000000
40
1.0000000000
10
93.9969096583
20
99.5748609303
30
0.0000000000
10
93.9903090582
20
99.5374183919
30
0.0000000000
10
93.9683706805
20
99.4637650763
30
0.0000000000
10
93.9111788418
20
99.3639019377
30
0.0000000000
10
93.8326602836
20
99.2795987129
30
0.0000000000
10
93.7369308830
20
99.2153497937
30
0.0000000000
10
93.6290869270
20
99.1744984138
30
0.0000000000
10
93.5527072669
20
99.1642879620
30
0.0000000000
10
93.5145664669
20
99.1635719009
30
0.0000000000
11
93.9969096583
21
99.5748609303
31
0.0000000000
11
93.9643317789
21
99.4655527137
31
0.0000000000
11
93.9076471762
21
99.3665256189
31
0.0000000000
11
93.8298274891
21
99.2829713815
31
0.0000000000
11
93.7349525163
21
99.2192705785
31
0.0000000000
11
93.6279963321
21
99.1787628843
31
0.0000000000
11
93.5145664669
21
99.1635719009
31
0.0000000000
0
SPLINE
5
29B
100
AcDbEntity
8
0
100
AcDbSpline
62
9
6
CONTINUOUS
70
0
71
3
72
13
73
9
74
7
42
0.0000001000
43
0.0000001000
44
0.0000000001
12
-0.3327167458
22
-1.8869341797
32
0.0000000000
13
0.6587741086
23
-1.7992325323
33
0.0000000000
40
0.0000000000
40
0.0000000000
40
0.0000000000
40
0.0000000000
40
0.0839848676
40
0.1954534276
40
0.3389235655
40
0.5185799301
40
0.7392505922
40
1.0000000000
40
1.0000000000
40
1.0000000000
40
1.0000000000
10
93.9663325158
20
99.4014142146
30
0.0000000000
10
93.9570181252
20
99.3485895754
30
0.0000000000
10
93.9524923037
20
99.2228227231
30
0.0000000000
10
93.9767812825
20
99.0074219220
30
0.0000000000
10
94.0337741109
20
98.7354360011
30
0.0000000000
10
94.1263795062
20
98.4005629097
30
0.0000000000
10
94.2565015683
20
97.9987951678
30
0.0000000000
10
94.3599010005
20
97.7091981620
30
0.0000000000
10
94.4171593201
20
97.5528152229
30
0.0000000000
11
93.9663325158
21
99.4014142146
31
0.0000000000
11
93.9565505550
21
99.2407931805
31
0.0000000000
11
93.9773865892
21
99.0282333970
31
0.0000000000
11
94.0315228150
21
98.7587217838
31
0.0000000000
11
94.1215347763
21
98.4264693502
31
0.0000000000
11
94.2504280038
21
98.0237801020
31
0.0000000000
11
94.4171593201
21
97.5528152229
31
0.0000000000
0
SPLINE
5
29C
100
AcDbEntity
8
0
100
AcDbSpline
62
9
6
CONTINUOUS
70
0
71
3
72
13
73
9
74
7
42
0.0000001000
43
0.0000001000
44
0.0000000001
12
-0.1096705076
22
-0.6219761802
32
0.0000000000
13
-0.6305890825
23
-0.0352050849
33
0.0000000000
40
0.0000000000
40
0.0000000000
40
0.0000000000
40
0.0000000000
40
0.1614938021
40
0.3242292793
40
0.4891871765
40
0.6568943471
40
0.8273396050
40
1.0000000000
40
1.0000000000
40
1.0000000000
40
1.0000000000
10
93.9663325158
20
99.4014142146
30
0.0000000000
10
93.9604288134
20
99.3679324485
30
0.0000000000
10
93.9404430123
20
99.3018678249
30
0.0000000000
10
93.8878324643
20
99.2122842558
30
0.0000000000
10
93.8151802371
20
99.1361885400
30
0.0000000000
10
93.7261127853
20
99.0772872550
30
0.0000000000
10
93.6250480768
20
99.0383143539
30
0.0000000000
10
93.5531098505
20
99.0268558129
30
0.0000000000
10
93.5168172638
20
99.0248296383
30
0.0000000000
11
93.9663325158
21
99.4014142146
31
0.0000000000
11
93.9368269854
21
99.3037803837
31
0.0000000000
11
93.8849110402
21
99.2150771665
31
0.0000000000
11
93.8130984146
21
99.1395989072
31
0.0000000000
11
93.7248660625
21
99.0809995450
31
0.0000000000
11
93.6244857619
21
99.0421157487
31
0.0000000000
11
93.5168172638
21
99.0248296383
31
0.0000000000
0
SPLINE
5
29D
100
AcDbEntity
8
0
100
AcDbSpline
62
9
6
CONTINUOUS
70
0
71
3
72
14
73
10
74
8
42
0.0000001000
43
0.0000001000
44
0.0000000001
12
-0.1406410674
22
-1.7366998648
32
0.0000000000
13
1.0586050842
23
-1.3839297692
33
0.0000000000
40
0.0000000000
40
0.0000000000
40
0.0000000000
40
0.0000000000
40
0.0544377680
40
0.1320141620
40
0.2392423679
40
0.3810331738
40
0.5586935527
40
0.7682123840
40
1.0000000000
40
1.0000000000
40
1.0000000000
40
1.0000000000
10
93.5168172208
20
99.0248301029
30
0.0000000000
10
93.5142651589
20
98.9933160814
30
0.0000000000
10
93.5252986642
20
98.9159483774
30
0.0000000000
10
93.5741324151
20
98.7855660505
30
0.0000000000
10
93.6619734323
20
98.6170147081
30
0.0000000000
10
93.7929771353
20
98.4065409738
30
0.0000000000
10
93.9675146926
20
98.1536103672
30
0.0000000000
10
94.1803110882
20
97.8638356554
30
0.0000000000
10
94.3353685592
20
97.6597411503
30
0.0000000000
10
94.4171590754
20
97.5528152230
30
0.0000000000
11
93.5168172208
21
99.0248301029
31
0.0000000000
11
93.5260706797
21
98.9304309894
31
0.0000000000
11
93.5701914751
21
98.8026666209
31
0.0000000000
11
93.6544353275
21
98.6359048605
31
0.0000000000
11
93.7834069562
21
98.4251868011
31
0.0000000000
11
93.9581306457
21
98.1696587556
31
0.0000000000
11
94.1734079708
21
97.8748260633
31
0.0000000000
11
94.4171590754
21
97.5528152230
31
0.0000000000
0
SPLINE
5
29E
100
AcDbEntity
8
0
100
AcDbSpline
62
9
6
CONTINUOUS
70
0
71
3
72
14
73
10
74
8
42
0.0000001000
43
0.0000001000
44
0.0000000001
12
1.0585931000
22
1.3839388378
32
0.0000000000
13
-0.1406219106
23
1.7367013377
33
0.0000000000
40
0.0000000000
40
0.0000000000
40
0.0000000000
40
0.0000000000
40
0.2317877285
40
0.4413067970
40
0.6189885826
40
0.7607804722
40
0.8679987113
40
0.9455689068
40
1.0000000000
40
1.0000000000
40
1.0000000000
40
1.0000000000
10
119.5138053649
20
97.5528152230
30
0.0000000000
10
119.5955949949
20
97.6597419028
30
0.0000000000
10
119.7506543989
20
97.8638352159
30
0.0000000000
10
119.9634559973
20
98.1536216579
30
0.0000000000
10
120.1380037256
20
98.4065614865
30
0.0000000000
10
120.2690056977
20
98.6170446468
30
0.0000000000
10
120.3568441228
20
98.7855876906
30
0.0000000000
10
120.4056665275
20
98.9159601260
30
0.0000000000
10
120.4166986476
20
98.9933199188
30
0.0000000000
10
120.4141472462
20
99.0248301030
30
0.0000000000
11
119.5138053649
21
97.5528152230
31
0.0000000000
11
119.7575566165
21
97.8748261751
31
0.0000000000
11
119.9728337229
21
98.1696595187
31
0.0000000000
11
120.1475786147
21
98.4252182344
31
0.0000000000
11
120.2765480039
21
98.6359398652
31
0.0000000000
11
120.3607825621
21
98.8026868553
31
0.0000000000
11
120.4048954719
21
98.9304425146
31
0.0000000000
11
120.4141472462
21
99.0248301030
31
0.0000000000
0
SPLINE
5
29F
100
AcDbEntity
8
0
100
AcDbSpline
62
9
6
CONTINUOUS
70
0
71
3
72
13
73
9
74
7
42
0.0000001000
43
0.0000001000
44
0.0000000001
12
0.1096519199
22
-0.6219831697
32
0.0000000000
13
0.6305925068
23
-0.0352093338
33
0.0000000000
40
0.0000000000
40
0.0000000000
40
0.0000000000
40
0.0000000000
40
0.1614920872
40
0.3242265291
40
0.4891841175
40
0.6568917171
40
0.8273380617
40
1.0000000000
40
1.0000000000
40
1.0000000000
40
1.0000000000
10
119.9646373637
20
99.4014151690
30
0.0000000000
10
119.9705400028
20
99.3679333822
30
0.0000000000
10
119.9905236730
20
99.3018683118
30
0.0000000000
10
120.0431314655
20
99.2122831607
30
0.0000000000
10
120.1157819165
20
99.1361851297
30
0.0000000000
10
120.2048488157
20
99.0772813423
30
0.0000000000
10
120.3059141249
20
99.0383063201
30
0.0000000000
10
120.3778532479
20
99.0268469248
30
0.0000000000
10
120.4141463561
20
99.0248204876
30
0.0000000000
11
119.9646373637
21
99.4014151690
31
0.0000000000
11
119.9941397060
21
99.3037808895
31
0.0000000000
11
120.0460529283
21
99.2150761469
31
0.0000000000
11
120.1178637763
21
99.1395956332
31
0.0000000000
11
120.2060955533
21
99.0809938073
31
0.0000000000
11
120.3064764406
21
99.0421079001
31
0.0000000000
11
120.4141463561
21
99.0248204876
31
0.0000000000
0
SPLINE
5
2A0
100
AcDbEntity
8
0
100
AcDbSpline
62
9
6
CONTINUOUS
70
0
71
3
72
13
73
9
74
7
42
0.0000001000
43
0.0000001000
44
0.0000000001
12
0.1190225847
22
-0.6750104329
32
0.0000000000
13
0.6853028925
23
-0.0128610135
33
0.0000000000
40
0.0000000000
40
0.0000000000
40
0.0000000000
40
0.0000000000
40
0.1664084883
40
0.3328788557
40
0.4994610774
40
0.6661816619
40
0.8330382137
40
1.0000000000
40
1.0000000000
40
1.0000000000
40
1.0000000000
10
119.9340488994
20
99.5748598886
30
0.0000000000
10
119.9406510222
20
99.5374174000
30
0.0000000000
10
119.9625923743
20
99.4637648634
30
0.0000000000
10
120.0197879490
20
99.3639042557
30
0.0000000000
10
120.0983086551
20
99.2796047397
30
0.0000000000
10
120.1940382782
20
99.2153597852
30
0.0000000000
10
120.3018806581
20
99.1745116766
30
0.0000000000
10
120.3782584996
20
99.1643024174
30
0.0000000000
10
120.4163982979
20
99.1635866515
30
0.0000000000
11
119.9340488994
21
99.5748598886
31
0.0000000000
11
119.9666313245
21
99.4655523529
31
0.0000000000
11
120.0233196107
21
99.3665277744
31
0.0000000000
11
120.1011414133
21
99.2829772039
31
0.0000000000
11
120.1960166097
21
99.2192803141
31
0.0000000000
11
120.3029712414
21
99.1787758485
31
0.0000000000
11
120.4163982979
21
99.1635866515
31
0.0000000000
0
SPLINE
5
2A1
100
AcDbEntity
8
0
100
AcDbSpline
62
9
6
CONTINUOUS
70
0
71
3
72
13
73
9
74
7
42
0.0000001000
43
0.0000001000
44
0.0000000001
12
0.1182510052
22
-0.6705738716
32
0.0000000000
13
0.6806534426
23
-0.0190659018
33
0.0000000000
40
0.0000000000
40
0.0000000000
40
0.0000000000
40
0.0000000000
40
0.1664243522
40
0.3329067034
40
0.4994936282
40
0.6662101935
40
0.8330548879
40
1.0000000000
40
1.0000000000
40
1.0000000000
40
1.0000000000
10
119.6382088678
20
101.2526520820
30
0.0000000000
10
119.6447688168
20
101.2154521413
30
0.0000000000
10
119.6665074684
20
101.1422708689
30
0.0000000000
10
119.7230877205
20
101.0429362094
30
0.0000000000
10
119.8007535427
20
100.9588907777
30
0.0000000000
10
119.8954885104
20
100.8945547611
30
0.0000000000
10
120.0023166598
20
100.8532322556
30
0.0000000000
10
120.0780872003
20
100.8424474762
30
0.0000000000
10
120.1159644554
20
100.8413864899
30
0.0000000000
11
119.6382088678
21
101.2526520820
31
0.0000000000
11
119.6704951473
21
101.1440269797
31
0.0000000000
11
119.7265811405
21
101.0455123596
31
0.0000000000
11
119.8035655714
21
100.9622038034
31
0.0000000000
11
119.8974662661
21
100.8984102932
31
0.0000000000
11
120.0034261453
21
100.8574313670
31
0.0000000000
11
120.1159644554
21
100.8413864899
31
0.0000000000
0
SPLINE
5
2A2
100
AcDbEntity
8
0
100
AcDbSpline
62
9
6
CONTINUOUS
70
0
71
3
72
13
73
9
74
7
42
0.0000001000
43
0.0000001000
44
0.0000000001
12
0.1109948176
22
-0.6294903127
32
0.0000000000
13
0.6372294314
23
-0.0501652769
33
0.0000000000
40
0.0000000000
40
0.0000000000
40
0.0000000000
40
0.0000000000
40
0.1642653401
40
0.3290966007
40
0.4949489694
40
0.6620801794
40
0.8305054777
40
1.0000000000
40
1.0000000000
40
1.0000000000
40
1.0000000000
10
119.6111921987
20
101.4058820052
30
0.0000000000
10
119.6172697325
20
101.3714141918
30
0.0000000000
10
119.6373626575
20
101.3034959022
30
0.0000000000
10
119.6896001851
20
101.2109078263
30
0.0000000000
10
119.7614663047
20
101.1317029977
30
0.0000000000
10
119.8495086536
20
101.0696853798
30
0.0000000000
10
119.9494675872
20
101.0277372450
30
0.0000000000
10
120.0208837151
20
101.0144653193
30
0.0000000000
10
120.0568860144
20
101.0116310727
30
0.0000000000
11
119.6111921987
21
101.4058820052
31
0.0000000000
11
119.6409756128
21
101.3051961201
31
0.0000000000
11
119.6926820688
21
101.2133961407
31
0.0000000000
11
119.7638612593
21
101.1348322905
31
0.0000000000
11
119.8511401279
21
101.0732275760
31
0.0000000000
11
119.9503826912
21
101.0315013713
31
0.0000000000
11
120.0568860144
21
101.0116310727
31
0.0000000000
0
SPLINE
5
2A3
100
AcDbEntity
8
0
100
AcDbSpline
62
9
6
CONTINUOUS
70
0
71
3
72
10
73
6
74
4
42
0.0000001000
43
0.0000001000
44
0.0000000001
12
0.5782189425
22
0.1933034126
32
0.0000000000
13
0.5733202862
23
0.2073817839
33
0.0000000000
40
0.0000000000
40
0.0000000000
40
0.0000000000
40
0.0000000000
40
0.3519590048
40
0.6902361797
40
1.0000000000
40
1.0000000000
40
1.0000000000
40
1.0000000000
10
94.8405714149
20
102.7380744205
30
0.0000000000
10
94.9084078694
20
102.7607527128
30
0.0000000000
10
95.0411998893
20
102.8059594838
30
0.0000000000
10
95.2330008439
20
102.8731417681
30
0.0000000000
10
95.3569955006
20
102.9175264549
30
0.0000000000
10
95.4161934613
20
102.9389395794
30
0.0000000000
11
94.8405714149
21
102.7380744205
31
0.0000000000
11
95.0437270268
21
102.8071584479
31
0.0000000000
11
95.2383879262
21
102.8752883754
31
0.0000000000
11
95.4161934613
21
102.9389395794
31
0.0000000000
0
SPLINE
5
2A4
100
AcDbEntity
8
0
100
AcDbSpline
62
9
6
CONTINUOUS
70
0
71
3
72
13
73
9
74
7
42
0.0000001000
43
0.0000001000
44
0.0000000001
12
0.0363879506
22
-0.5346843255
32
0.0000000000
13
0.5359210864
23
-0.0000026305
33
0.0000000000
40
0.0000000000
40
0.0000000000
40
0.0000000000
40
0.0000000000
40
0.2646872769
40
0.4984412219
40
0.6927643562
40
0.8412934478
40
0.9412663817
40
1.0000000000
40
1.0000000000
40
1.0000000000
40
1.0000000000
10
94.8405714149
20
102.7380744205
30
0.0000000000
10
94.8437818907
20
102.6908997078
30
0.0000000000
10
94.8514325049
20
102.6021627906
30
0.0000000000
10
94.8679972860
20
102.4794343877
30
0.0000000000
10
94.8875269659
20
102.3783155651
30
0.0000000000
10
94.9110481503
20
102.3022142803
30
0.0000000000
10
94.9329536721
20
102.2525998421
30
0.0000000000
10
94.9581272352
20
102.2322331227
30
0.0000000000
10
94.9686194300
20
102.2322330712
30
0.0000000000
11
94.8405714149
21
102.7380744205
31
0.0000000000
11
94.8531107588
21
102.5967782390
31
0.0000000000
11
94.8702113042
21
102.4726772185
31
0.0000000000
11
94.8911977672
21
102.3706718438
31
0.0000000000
11
94.9152414356
21
102.2947900827
31
0.0000000000
11
94.9413928759
21
102.2480283276
31
0.0000000000
11
94.9686194300
21
102.2322330712
31
0.0000000000
0
SPLINE
5
2A5
100
AcDbEntity
8
0
100
AcDbSpline
62
9
6
CONTINUOUS
70
0
71
3
72
10
73
6
74
4
42
0.0000001000
43
0.0000001000
44
0.0000000001
12
0.1597875838
22
0.0666811274
32
0.0000000000
13
0.1645022574
23
0.0540134427
33
0.0000000000
40
0.0000000000
40
0.0000000000
40
0.0000000000
40
0.0000000000
40
0.3241313631
40
0.6574599583
40
1.0000000000
40
1.0000000000
40
1.0000000000
40
1.0000000000
10
94.6790835311
20
102.6757161375
30
0.0000000000
10
94.6963475869
20
102.6829206190
30
0.0000000000
10
94.7313975465
20
102.6974630410
30
0.0000000000
10
94.7851360821
20
102.7185132526
30
0.0000000000
10
94.8217885468
20
102.7319071693
30
0.0000000000
10
94.8405714168
20
102.7380744249
30
0.0000000000
11
94.6790835311
21
102.6757161375
31
0.0000000000
11
94.7309755237
21
102.6970887998
31
0.0000000000
11
94.7847218920
21
102.7181166740
31
0.0000000000
11
94.8405714168
21
102.7380744249
31
0.0000000000
0
SPLINE
5
2A6
100
AcDbEntity
8
0
100
AcDbSpline
62
9
6
CONTINUOUS
70
0
71
3
72
12
73
8
74
6
42
0.0000001000
43
0.0000001000
44
0.0000000001
12
0.0616298285
22
-0.4551824366
32
0.0000000000
13
0.3116749640
23
-0.3374136974
33
0.0000000000
40
0.0000000000
40
0.0000000000
40
0.0000000000
40
0.0000000000
40
0.2928034789
40
0.5471141694
40
0.7537458428
40
0.9057796139
40
1.0000000000
40
1.0000000000
40
1.0000000000
40
1.0000000000
10
94.6790835311
20
102.6757161375
30
0.0000000000
10
94.6850986738
20
102.6312898038
30
0.0000000000
10
94.6974793611
20
102.5484001094
30
0.0000000000
10
94.7186544067
20
102.4350066175
30
0.0000000000
10
94.7402890563
20
102.3433975817
30
0.0000000000
10
94.7616530206
20
102.2778359053
30
0.0000000000
10
94.7780532950
20
102.2428261250
30
0.0000000000
10
94.7878420068
20
102.2322290421
30
0.0000000000
11
94.6790835311
21
102.6757161375
31
0.0000000000
11
94.6992066385
21
102.5427349729
31
0.0000000000
11
94.7210042656
21
102.4279727438
31
0.0000000000
11
94.7436301144
21
102.3357957057
31
0.0000000000
11
94.7662036421
21
102.2697101652
31
0.0000000000
11
94.7878420068
21
102.2322290421
31
0.0000000000
0
SPLINE
5
2A7
100
AcDbEntity
8
0
100
AcDbSpline
62
7
6
CONTINUOUS
70
0
71
3
72
10
73
6
74
4
42
0.0000001000
43
0.0000001000
44
0.0000000001
12
0.1807773262
22
0.0001387467
32
0.0000000000
13
0.1807773795
23
-0.0000001206
33
0.0000000000
40
0.0000000000
40
0.0000000000
40
0.0000000000
40
0.0000000000
40
0.3363902813
40
0.6736335652
40
1.0000000000
40
1.0000000000
40
1.0000000000
40
1.0000000000
10
94.7878420068
20
102.2322290421
30
0.0000000000
10
94.8081125853
20
102.2322445998
30
0.0000000000
10
94.8487051644
20
102.2322115894
30
0.0000000000
10
94.9089642860
20
102.2322421405
30
0.0000000000
10
94.9489528290
20
102.2322335157
30
0.0000000000
10
94.9686193853
20
102.2322335025
30
0.0000000000
11
94.7878420068
21
102.2322290421
31
0.0000000000
11
94.8486537602
21
102.2322249949
31
0.0000000000
11
94.9096197164
21
102.2322350093
31
0.0000000000
11
94.9686193853
21
102.2322335025
31
0.0000000000
0
SPLINE
5
2A8
100
AcDbEntity
8
0
100
AcDbSpline
62
9
6
CONTINUOUS
70
0
71
3
72
10
73
6
74
4
42
0.0000001000
43
0.0000001000
44
0.0000000001
12
0.8798950734
22
0.4780384570
32
0.0000000000
13
0.9217988598
23
0.3911815036
33
0.0000000000
40
0.0000000000
40
0.0000000000
40
0.0000000000
40
0.0000000000
40
0.3568502145
40
0.6905596192
40
1.0000000000
40
1.0000000000
40
1.0000000000
40
1.0000000000
10
93.7816545348
20
102.2322335919
30
0.0000000000
10
93.8863181167
20
102.2890963005
30
0.0000000000
10
94.0900417920
20
102.3969554176
30
0.0000000000
10
94.3882244987
20
102.5470795070
30
0.0000000000
10
94.5840023828
20
102.6353639710
30
0.0000000000
10
94.6790829795
20
102.6757130888
30
0.0000000000
11
93.7816545348
21
102.2322335919
31
0.0000000000
11
94.0974532298
21
102.3994510589
31
0.0000000000
11
94.3965384636
21
102.5484969846
31
0.0000000000
11
94.6790829795
21
102.6757130888
31
0.0000000000
0
SPLINE
5
2A9
100
AcDbEntity
8
0
100
AcDbSpline
62
7
6
CONTINUOUS
70
0
71
3
72
10
73
6
74
4
42
0.0000001000
43
0.0000001000
44
0.0000000001
12
1.0059709731
22
0.0199715941
32
0.0000000000
13
1.0061612289
23
0.0040056096
33
0.0000000000
40
0.0000000000
40
0.0000000000
40
0.0000000000
40
0.0000000000
40
0.3428856348
40
0.6762595258
40
1.0000000000
40
1.0000000000
40
1.0000000000
40
1.0000000000
10
93.7814565280
20
102.2322335569
30
0.0000000000
10
93.8964341932
20
102.2345162145
30
0.0000000000
10
94.1232777525
20
102.2309893298
30
0.0000000000
10
94.4586538342
20
102.2328233637
30
0.0000000000
10
94.6790473348
20
102.2318012654
30
0.0000000000
10
94.7876257059
20
102.2322335247
30
0.0000000000
11
93.7814565280
21
102.2322335569
31
0.0000000000
11
94.1264574868
21
102.2321652767
31
0.0000000000
11
94.4618880131
21
102.2322677689
31
0.0000000000
11
94.7876257059
21
102.2322335247
31
0.0000000000
0
SPLINE
5
2AA
100
AcDbEntity
8
0
100
AcDbSpline
62
9
6
CONTINUOUS
70
0
71
3
72
15
73
11
74
9
42
0.0000001000
43
0.0000001000
44
0.0000000001
12
0.0197728340
22
-0.9795367955
32
0.0000000000
13
0.9797363414
23
-0.0000096048
33
0.0000000000
40
0.0000000000
40
0.0000000000
40
0.0000000000
40
0.0000000000
40
0.1556344838
40
0.3068181486
40
0.4501447904
40
0.5828713952
40
0.7033048289
40
0.8112836641
40
0.9087325310
40
1.0000000000
40
1.0000000000
40
1.0000000000
40
1.0000000000
10
95.5974240660
20
103.0043073198
30
0.0000000000
10
95.5984498442
20
102.9534907520
30
0.0000000000
10
95.6059743859
20
102.8533271124
30
0.0000000000
10
95.6335940573
20
102.7086074152
30
0.0000000000
10
95.6765035448
20
102.5754233978
30
0.0000000000
10
95.7332443827
20
102.4584818930
30
0.0000000000
10
95.8019952488
20
102.3618409458
30
0.0000000000
10
95.8808312207
20
102.2889445935
30
0.0000000000
10
95.9675612723
20
102.2429447391
30
0.0000000000
10
96.0295953510
20
102.2322337948
30
0.0000000000
10
96.0594013697
20
102.2322335026
30
0.0000000000
11
95.5974240660
21
103.0043073198
31
0.0000000000
11
95.6089913508
21
102.8522659438
31
0.0000000000
11
95.6371088946
21
102.7068390658
31
0.0000000000
11
95.6807437614
21
102.5733683715
31
0.0000000000
11
95.7382925039
21
102.4567588352
31
0.0000000000
11
95.8076402522
21
102.3612955407
31
0.0000000000
11
95.8862386813
21
102.2904860923
31
0.0000000000
11
95.9711996621
21
102.2469320577
31
0.0000000000
11
96.0594013697
21
102.2322335026
31
0.0000000000
0
SPLINE
5
2AB
100
AcDbEntity
8
0
100
AcDbSpline
62
9
6
CONTINUOUS
70
0
71
3
72
10
73
6
74
4
42
0.0000001000
43
0.0000001000
44
0.0000000001
12
0.5733787472
22
-0.2073852702
32
0.0000000000
13
0.5782774478
23
-0.1933055382
33
0.0000000000
40
0.0000000000
40
0.0000000000
40
0.0000000000
40
0.0000000000
40
0.3099390648
40
0.6482090091
40
1.0000000000
40
1.0000000000
40
1.0000000000
40
1.0000000000
10
118.5147708409
20
102.9389391239
30
0.0000000000
10
118.5740083318
20
102.9175135250
30
0.0000000000
10
118.6980450289
20
102.8731090029
30
0.0000000000
10
118.8898635949
20
102.8059202797
30
0.0000000000
10
119.0226354500
20
102.7607246875
30
0.0000000000
10
119.0904463821
20
102.7380569719
30
0.0000000000
11
118.5147708409
21
102.9389391239
31
0.0000000000
11
118.6926928366
21
102.8752445951
31
0.0000000000
11
118.8873674137
21
102.8071095841
31
0.0000000000
11
119.0904463821
21
102.7380569719
31
0.0000000000
0
SPLINE
5
2AC
100
AcDbEntity
8
0
100
AcDbSpline
62
9
6
CONTINUOUS
70
0
71
3
72
15
73
11
74
9
42
0.0000001000
43
0.0000001000
44
0.0000000001
12
-0.0482765620
22
-0.8615035018
32
0.0000000000
13
-0.8628550921
23
-0.0000013780
33
0.0000000000
40
0.0000000000
40
0.0000000000
40
0.0000000000
40
0.0000000000
40
0.1654721137
40
0.3240955346
40
0.4721597020
40
0.6066626577
40
0.7256846471
40
0.8289386493
40
0.9185748864
40
1.0000000000
40
1.0000000000
40
1.0000000000
40
1.0000000000
10
118.5147613224
20
102.9389425666
30
0.0000000000
10
118.5120985142
20
102.8914242982
30
0.0000000000
10
118.5028752808
20
102.7985200347
30
0.0000000000
10
118.4770851138
20
102.6649848076
30
0.0000000000
10
118.4403520183
20
102.5432542897
30
0.0000000000
10
118.3938291619
20
102.4371656137
30
0.0000000000
10
118.3388734126
20
102.3499374150
30
0.0000000000
10
118.2767515246
20
102.2841716187
30
0.0000000000
10
118.2085385789
20
102.2422272679
30
0.0000000000
10
118.1589755610
20
102.2322328874
30
0.0000000000
10
118.1355562030
20
102.2322328500
30
0.0000000000
11
118.5147613224
21
102.9389425666
31
0.0000000000
11
118.5004699851
21
102.7968811533
31
0.0000000000
11
118.4741588742
21
102.6625649002
31
0.0000000000
11
118.4366945912
21
102.5404235320
31
0.0000000000
11
118.3893108512
21
102.4344805928
31
0.0000000000
11
118.3335682662
21
102.3482263566
31
0.0000000000
11
118.2713033098
21
102.2845028845
31
0.0000000000
11
118.2045676171
21
102.2454094079
31
0.0000000000
11
118.1355562030
21
102.2322328500
31
0.0000000000
0
SPLINE
5
2AD
100
AcDbEntity
8
0
100
AcDbSpline
62
9
6
CONTINUOUS
70
0
71
3
72
10
73
6
74
4
42
0.0000001000
43
0.0000001000
44
0.0000000001
12
0.1653207779
22
-0.0543300781
32
0.0000000000
13
0.1607744531
23
-0.0665904814
33
0.0000000000
40
0.0000000000
40
0.0000000000
40
0.0000000000
40
0.0000000000
40
0.3425481755
40
0.6759873299
40
1.0000000000
40
1.0000000000
40
1.0000000000
40
1.0000000000
10
119.0904464340
20
102.7380568525
30
0.0000000000
10
119.1093232110
20
102.7318532962
30
0.0000000000
10
119.1461672796
20
102.7183893074
30
0.0000000000
10
119.2001808362
20
102.6972379353
30
0.0000000000
10
119.2353779457
20
102.6825506261
30
0.0000000000
10
119.2527422657
20
102.6753585729
30
0.0000000000
11
119.0904464340
21
102.7380568525
31
0.0000000000
11
119.1465786121
21
102.7179937032
31
0.0000000000
11
119.2006091750
21
102.6968375857
31
0.0000000000
11
119.2527422657
21
102.6753585729
31
0.0000000000
0
SPLINE
5
2AE
100
AcDbEntity
8
0
100
AcDbSpline
62
9
6
CONTINUOUS
70
0
71
3
72
13
73
9
74
7
42
0.0000001000
43
0.0000001000
44
0.0000000001
12
-0.0363829297
22
-0.5346584339
32
0.0000000000
13
-0.5358949136
23
-0.0000025094
33
0.0000000000
40
0.0000000000
40
0.0000000000
40
0.0000000000
40
0.0000000000
40
0.2646917519
40
0.4984485883
40
0.6927729974
40
0.8413016419
40
0.9412720228
40
1.0000000000
40
1.0000000000
40
1.0000000000
40
1.0000000000
10
119.0904464340
20
102.7380568525
30
0.0000000000
10
119.0872363469
20
102.6908836267
30
0.0000000000
10
119.0795868350
20
102.6021496800
30
0.0000000000
10
119.0630247057
20
102.4794254405
30
0.0000000000
10
119.0434985876
20
102.3783105152
30
0.0000000000
10
119.0199813298
20
102.3022121638
30
0.0000000000
10
118.9980808567
20
102.2526008069
30
0.0000000000
10
118.9729110832
20
102.2322335517
30
0.0000000000
10
118.9624204084
20
102.2322335025
30
0.0000000000
11
119.0904464340
21
102.7380568525
31
0.0000000000
11
119.0779088465
21
102.5967650624
31
0.0000000000
11
119.0608110821
21
102.4726682704
31
0.0000000000
11
119.0398282476
21
102.3706666443
31
0.0000000000
11
119.0157888555
21
102.2947878576
31
0.0000000000
11
118.9896421042
21
102.2480280457
31
0.0000000000
11
118.9624204084
21
102.2322335025
31
0.0000000000
0
SPLINE
5
2AF
100
AcDbEntity
8
0
100
AcDbSpline
62
7
6
CONTINUOUS
70
0
71
3
72
10
73
6
74
4
42
0.0000001000
43
0.0000001000
44
0.0000000001
12
0.1814461312
22
0.0000000015
32
0.0000000000
13
0.1814461212
23
-0.0000604068
33
0.0000000000
40
0.0000000000
40
0.0000000000
40
0.0000000000
40
0.0000000000
40
0.3215571313
40
0.6598197928
40
1.0000000000
40
1.0000000000
40
1.0000000000
40
1.0000000000
10
118.9624204084
20
102.2322335025
30
0.0000000000
10
118.9818688409
20
102.2322335027
30
0.0000000000
10
119.0217760906
20
102.2322348406
30
0.0000000000
10
119.0822581337
20
102.2322289724
30
0.0000000000
10
119.1232917466
20
102.2322386352
30
0.0000000000
10
119.1438665396
20
102.2322317854
30
0.0000000000
11
118.9624204084
21
102.2322335025
31
0.0000000000
11
119.0207657058
21
102.2322335694
31
0.0000000000
11
119.0821421571
21
102.2322323754
31
0.0000000000
11
119.1438665396
21
102.2322317854
31
0.0000000000
0
SPLINE
5
2B0
100
AcDbEntity
8
0
100
AcDbSpline
62
9
6
CONTINUOUS
70
0
71
3
72
10
73
6
74
4
42
0.0000001000
43
0.0000001000
44
0.0000000001
12
0.9208377576
22
-0.3910540447
32
0.0000000000
13
0.8790738598
23
-0.4775924945
33
0.0000000000
40
0.0000000000
40
0.0000000000
40
0.0000000000
40
0.0000000000
40
0.3094461566
40
0.6431593194
40
1.0000000000
40
1.0000000000
40
1.0000000000
40
1.0000000000
10
119.2527428304
20
102.6753555498
30
0.0000000000
10
119.3477260653
20
102.6350188261
30
0.0000000000
10
119.5433149829
20
102.5467969606
30
0.0000000000
10
119.8412171159
20
102.3968081311
30
0.0000000000
10
120.0447438877
20
102.2890410884
30
0.0000000000
10
120.1493069925
20
102.2322329448
30
0.0000000000
11
119.2527428304
21
102.6753555498
31
0.0000000000
11
119.5350114932
21
102.5482170511
31
0.0000000000
11
119.8338157765
21
102.3992980973
31
0.0000000000
11
120.1493069925
21
102.2322329448
31
0.0000000000
0
SPLINE
5
2B1
100
AcDbEntity
8
0
100
AcDbSpline
62
9
6
CONTINUOUS
70
0
71
3
72
12
73
8
74
6
42
0.0000001000
43
0.0000001000
44
0.0000000001
12
-0.0614787918
22
-0.4549333981
32
0.0000000000
13
-0.3128831000
23
-0.3359288680
33
0.0000000000
40
0.0000000000
40
0.0000000000
40
0.0000000000
40
0.0000000000
40
0.2926607370
40
0.5468616271
40
0.7534478069
40
0.9055398873
40
1.0000000000
40
1.0000000000
40
1.0000000000
40
1.0000000000
10
119.2527428304
20
102.6753555498
30
0.0000000000
10
119.2467453542
20
102.6309751686
30
0.0000000000
10
119.2344017444
20
102.5481682607
30
0.0000000000
10
119.2132700187
20
102.4348811711
30
0.0000000000
10
119.1916368702
20
102.3433418056
30
0.0000000000
10
119.1702318085
20
102.2777956623
30
0.0000000000
10
119.1537179364
20
102.2427997649
30
0.0000000000
10
119.1438662788
20
102.2322224720
30
0.0000000000
11
119.2527428304
21
102.6753555498
31
0.0000000000
11
119.2326761400
21
102.5425112065
31
0.0000000000
11
119.2109177627
21
102.4278619553
31
0.0000000000
11
119.1882926879
21
102.3357630499
31
0.0000000000
11
119.1656572079
21
102.2697133236
31
0.0000000000
11
119.1438662788
21
102.2322224720
31
0.0000000000
0
SPLINE
5
2B2
100
AcDbEntity
8
0
100
AcDbSpline
62
7
6
CONTINUOUS
70
0
71
3
72
10
73
6
74
4
42
0.0000001000
43
0.0000001000
44
0.0000000001
12
1.0048323273
22
-0.0040567487
32
0.0000000000
13
1.0046426710
23
-0.0199390784
33
0.0000000000
40
0.0000000000
40
0.0000000000
40
0.0000000000
40
0.0000000000
40
0.3237807065
40
0.6571216209
40
1.0000000000
40
1.0000000000
40
1.0000000000
40
1.0000000000
10
119.1441466424
20
102.2322335382
30
0.0000000000
10
119.2525950827
20
102.2317957059
30
0.0000000000
10
119.4727000094
20
102.2328153750
30
0.0000000000
10
119.8076332126
20
102.2310091188
30
0.0000000000
10
120.0341637231
20
102.2345123151
30
0.0000000000
10
120.1489871400
20
102.2322334221
30
0.0000000000
11
119.1441466424
21
102.2322335382
31
0.0000000000
11
119.4694946132
21
102.2322648252
31
0.0000000000
11
119.8044490575
21
102.2321744180
31
0.0000000000
11
120.1489871400
21
102.2322334221
31
0.0000000000
0
SPLINE
5
2B3
100
AcDbEntity
8
0
100
AcDbSpline
62
9
6
CONTINUOUS
70
0
71
3
72
15
73
11
74
9
42
0.0000001000
43
0.0000001000
44
0.0000000001
12
0.0482746526
22
-0.8614943378
32
0.0000000000
13
0.8628457875
23
0.0000030963
33
0.0000000000
40
0.0000000000
40
0.0000000000
40
0.0000000000
40
0.0000000000
40
0.1654823150
40
0.3241107314
40
0.4721784584
40
0.6066827131
40
0.7257035219
40
0.8289546102
40
0.9185871626
40
1.0000000000
40
1.0000000000
40
1.0000000000
40
1.0000000000
10
95.4161848667
20
102.9389415424
30
0.0000000000
10
95.4188477337
20
102.8914208500
30
0.0000000000
10
95.4280711418
20
102.7985132102
30
0.0000000000
10
95.4538617110
20
102.6649740622
30
0.0000000000
10
95.4905947754
20
102.5432420032
30
0.0000000000
10
95.5371171443
20
102.4371533159
30
0.0000000000
10
95.5920716930
20
102.3499266086
30
0.0000000000
10
95.6541915409
20
102.2841632824
30
0.0000000000
10
95.7223998638
20
102.2422232178
30
0.0000000000
10
95.7719577468
20
102.2322308441
30
0.0000000000
10
95.7953733214
20
102.2322309282
30
0.0000000000
11
95.4161848667
21
102.9389415424
31
0.0000000000
11
95.4304767050
21
102.7968728742
31
0.0000000000
11
95.4567880473
21
102.6625537781
31
0.0000000000
11
95.4942524159
21
102.5404106646
31
0.0000000000
11
95.5416357667
21
102.4344676945
31
0.0000000000
11
95.5973771056
21
102.3482151844
31
0.0000000000
11
95.6596399282
21
102.2844944857
31
0.0000000000
11
95.7263728332
21
102.2454041906
31
0.0000000000
11
95.7953733214
21
102.2322309282
31
0.0000000000
0
SPLINE
5
2B4
100
AcDbEntity
8
0
100
AcDbSpline
62
9
6
CONTINUOUS
70
0
71
3
72
10
73
6
74
4
42
0.0000001000
43
0.0000001000
44
0.0000000001
12
0.1819838526
22
0.0632568926
32
0.0000000000
13
0.1804577497
23
0.0674874628
33
0.0000000000
40
0.0000000000
40
0.0000000000
40
0.0000000000
40
0.0000000000
40
0.3356392028
40
0.6691297841
40
1.0000000000
40
1.0000000000
40
1.0000000000
40
1.0000000000
10
95.4161845140
20
102.9389478354
30
0.0000000000
10
95.4365448191
20
102.9460249997
30
0.0000000000
10
95.4770812918
20
102.9602893812
30
0.0000000000
10
95.5374962478
20
102.9820724637
30
0.0000000000
10
95.5775190468
20
102.9968585074
30
0.0000000000
10
95.5974217450
20
103.0043017046
30
0.0000000000
11
95.4161845140
21
102.9389478354
31
0.0000000000
11
95.4771835221
21
102.9604135177
31
0.0000000000
11
95.5376256984
21
102.9822087186
31
0.0000000000
11
95.5974217450
21
103.0043017046
31
0.0000000000
0
SPLINE
5
2B5
100
AcDbEntity
8
0
100
AcDbSpline
62
9
6
CONTINUOUS
70
0
71
3
72
15
73
11
74
9
42
0.0000001000
43
0.0000001000
44
0.0000000001
12
-0.0197424272
22
-0.9795402412
32
0.0000000000
13
-0.9797391731
23
-0.0000095936
33
0.0000000000
40
0.0000000000
40
0.0000000000
40
0.0000000000
40
0.0000000000
40
0.1556339778
40
0.3068168617
40
0.4501430327
40
0.5828694589
40
0.7033029410
40
0.8112820946
40
0.9087315993
40
1.0000000000
40
1.0000000000
40
1.0000000000
40
1.0000000000
10
118.3335403995
20
103.0043073413
30
0.0000000000
10
118.3325162021
20
102.9534907600
30
0.0000000000
10
118.3249940292
20
102.8533269715
30
0.0000000000
10
118.2973744857
20
102.7086073407
30
0.0000000000
10
118.2544650731
20
102.5754233646
30
0.0000000000
10
118.1977237216
20
102.4584818864
30
0.0000000000
10
118.1289721948
20
102.3618409094
30
0.0000000000
10
118.0501353641
20
102.2889445328
30
0.0000000000
10
117.9634042854
20
102.2429446991
30
0.0000000000
10
117.9013695130
20
102.2322337944
30
0.0000000000
10
117.8715631038
20
102.2322335026
30
0.0000000000
11
118.3335403995
21
103.0043073413
31
0.0000000000
11
118.3219765003
21
102.8522657630
31
0.0000000000
11
118.2938596703
21
102.7068390902
31
0.0000000000
11
118.2502247969
21
102.5733684563
31
0.0000000000
11
118.1926756063
21
102.4567589171
31
0.0000000000
11
118.1233272137
21
102.3612956104
31
0.0000000000
11
118.0447279736
21
102.2904861395
31
0.0000000000
11
117.9597659962
21
102.2469320746
31
0.0000000000
11
117.8715631038
21
102.2322335026
31
0.0000000000
0
SPLINE
5
2B6
100
AcDbEntity
8
0
100
AcDbSpline
62
9
6
CONTINUOUS
70
0
71
3
72
10
73
6
74
4
42
0.0000001000
43
0.0000001000
44
0.0000000001
12
0.1804445740
22
-0.0674831748
32
0.0000000000
13
0.1819710807
23
-0.0632514739
33
0.0000000000
40
0.0000000000
40
0.0000000000
40
0.0000000000
40
0.0000000000
40
0.3308737397
40
0.6643773491
40
1.0000000000
40
1.0000000000
40
1.0000000000
40
1.0000000000
10
118.3335462239
20
103.0043004669
30
0.0000000000
10
118.3534476809
20
102.9968576634
30
0.0000000000
10
118.3934687294
20
102.9820726673
30
0.0000000000
10
118.4538788680
20
102.9602898239
30
0.0000000000
10
118.4944125192
20
102.9460274000
30
0.0000000000
10
118.5147703914
20
102.9389511909
30
0.0000000000
11
118.3335462239
21
103.0043004669
31
0.0000000000
11
118.3933386047
21
102.9822088161
31
0.0000000000
11
118.4537785902
21
102.9604137499
31
0.0000000000
11
118.5147703914
21
102.9389511909
31
0.0000000000
0
SPLINE
5
2B7
100
AcDbEntity
8
0
100
AcDbSpline
62
9
6
CONTINUOUS
70
0
71
3
72
33
73
29
74
27
42
0.0000001000
43
0.0000001000
44
0.0000000001
12
16.3578214089
22
30.5881705261
32
0.0000000000
13
16.3578210626
23
-30.5881707113
33
0.0000000000
40
0.0000000000
40
0.0000000000
40
0.0000000000
40
0.0000000000
40
0.0709338149
40
0.1338478352
40
0.1894248936
40
0.2384192930
40
0.2815779735
40
0.3195010880
40
0.3528736429
40
0.3825243877
40
0.4092218712
40
0.4337370037
40
0.4566610804
40
0.4785825923
40
0.4999986835
40
0.5214152686
40
0.5433361556
40
0.5662602581
40
0.5907745295
40
0.6174711661
40
0.6471220502
40
0.6804958582
40
0.7184225452
40
0.7615843010
40
0.8105802786
40
0.8661578949
40
0.9290706040
40
1.0000000000
40
1.0000000000
40
1.0000000000
40
1.0000000000
10
94.6391838147
20
103.3223523123
30
0.0000000000
10
95.0259580398
20
104.0455975206
30
0.0000000000
10
95.7894151083
20
105.3927813959
30
0.0000000000
10
96.9726018939
20
107.2372456014
30
0.0000000000
10
98.1132890122
20
108.8037098985
30
0.0000000000
10
99.2062862050
20
110.1180199855
30
0.0000000000
10
100.2474135105
20
111.2052560763
30
0.0000000000
10
101.2339268874
20
112.0894726353
30
0.0000000000
10
102.1658204051
20
112.7945903372
30
0.0000000000
10
103.0458845332
20
113.3465188540
30
0.0000000000
10
103.8824380298
20
113.7673083927
30
0.0000000000
10
104.6835473829
20
114.0762287376
30
0.0000000000
10
105.4586498010
20
114.2877398750
30
0.0000000000
10
106.2164108614
20
114.4099971070
30
0.0000000000
10
106.9654428929
20
114.4511792956
30
0.0000000000
10
107.7144648079
20
114.4099893557
30
0.0000000000
10
108.4722343772
20
114.2877836386
30
0.0000000000
10
109.2473090249
20
114.0762348548
30
0.0000000000
10
110.0484211159
20
113.7673790287
30
0.0000000000
10
110.8849498235
20
113.3465774339
30
0.0000000000
10
111.7650395699
20
112.7946799446
30
0.0000000000
10
112.6969726337
20
112.0895175888
30
0.0000000000
10
113.6835699442
20
111.2052582534
30
0.0000000000
10
114.7247459144
20
110.1179357147
30
0.0000000000
10
115.8177800770
20
108.8035788593
30
0.0000000000
10
116.9584637764
20
107.2370997550
30
0.0000000000
10
118.1416078971
20
105.3926795239
30
0.0000000000
10
118.9050305296
20
104.0455524702
30
0.0000000000
10
119.2917806523
20
103.3223523123
30
0.0000000000
11
94.6391838147
21
103.3223523123
31
0.0000000000
11
95.8555450198
21
105.4611760105
31
0.0000000000
11
97.0372856687
21
107.2958480045
31
0.0000000000
11
98.1754878445
21
108.8518030418
31
0.0000000000
11
99.2652314803
21
110.1559182425
31
0.0000000000
11
100.3034538586
21
111.2344764880
31
0.0000000000
11
101.2855004542
21
112.1096922284
31
0.0000000000
11
102.2103813788
21
112.8058590611
31
0.0000000000
11
103.0832211932
21
113.3498965018
31
0.0000000000
11
103.9114250527
21
113.7642348510
31
0.0000000000
11
104.7054161613
21
114.0687017109
31
0.0000000000
11
105.4729111683
21
114.2766839854
31
0.0000000000
11
106.2236481390
21
114.3975225487
31
0.0000000000
11
106.9654367027
21
114.4375576449
31
0.0000000000
11
107.7072424492
21
114.3975230495
31
0.0000000000
11
108.4579622030
21
114.2767139331
31
0.0000000000
11
109.2254552929
21
114.0687211605
31
0.0000000000
11
110.0194289710
21
113.7642922645
31
0.0000000000
11
110.8476078154
21
113.3499695722
31
0.0000000000
11
111.7204629125
21
112.8059475168
31
0.0000000000
11
112.6453810017
21
112.1097577828
31
0.0000000000
11
113.6275272002
21
111.2344675510
31
0.0000000000
11
114.6658147170
21
110.1558239458
31
0.0000000000
11
115.7555872789
21
108.8516615727
31
0.0000000000
11
116.8937927194
21
107.2956849470
31
0.0000000000
11
118.0754990467
21
105.4610449477
31
0.0000000000
11
119.2917806523
21
103.3223523123
31
0.0000000000
0
SPLINE
5
2B8
100
AcDbEntity
8
0
100
AcDbSpline
62
9
6
CONTINUOUS
70
0
71
3
72
32
73
28
74
26
42
0.0000001000
43
0.0000001000
44
0.0000000001
12
14.8697892169
22
29.4961876661
32
0.0000000000
13
14.8697850468
23
-29.4961897685
33
0.0000000000
40
0.0000000000
40
0.0000000000
40
0.0000000000
40
0.0000000000
40
0.0710323122
40
0.1345177327
40
0.1911650888
40
0.2416468063
40
0.2865461972
40
0.3264022443
40
0.3616686489
40
0.3927955347
40
0.4203564587
40
0.4450770725
40
0.4678136191
40
0.4894106656
40
0.5106214243
40
0.5322209795
40
0.5549589440
40
0.5796826452
40
0.6072437422
40
0.6383703985
40
0.6736381865
40
0.7134933474
40
0.7583894518
40
0.8088658608
40
0.8655055450
40
0.9289809398
40
1.0000000000
40
1.0000000000
40
1.0000000000
40
1.0000000000
10
95.5974243936
20
103.0043073413
30
0.0000000000
10
95.9495028971
20
103.7027014786
30
0.0000000000
10
96.6465055983
20
105.0104061396
30
0.0000000000
10
97.7309100710
20
106.8155702108
30
0.0000000000
10
98.7878292206
20
108.3699829853
30
0.0000000000
10
99.8145822619
20
109.6936074134
30
0.0000000000
10
100.8085088087
20
110.8042402875
30
0.0000000000
10
101.7660960173
20
111.7172818672
30
0.0000000000
10
102.6830062350
20
112.4466132987
30
0.0000000000
10
103.5533614836
20
113.0091927325
30
0.0000000000
10
104.3753354167
20
113.4229498366
30
0.0000000000
10
105.1516902568
20
113.7102468691
30
0.0000000000
10
105.8923785741
20
113.8895578875
30
0.0000000000
10
106.6105944985
20
113.9758469632
30
0.0000000000
10
107.3214579214
20
113.9757429172
30
0.0000000000
10
108.0397083787
20
113.8893885985
30
0.0000000000
10
108.7804279309
20
113.7098689228
30
0.0000000000
10
109.5567911751
20
113.4224540453
30
0.0000000000
10
110.3787244615
20
113.0085393559
30
0.0000000000
10
111.2490211095
20
112.4458460452
30
0.0000000000
10
112.1658529588
20
111.7164120247
30
0.0000000000
10
113.1233490157
20
110.8033207673
30
0.0000000000
10
114.1171257419
20
109.6926946161
30
0.0000000000
10
115.1437166369
20
108.3691726663
30
0.0000000000
10
116.2004504461
20
106.8149406299
30
0.0000000000
10
117.2846503477
20
105.0100519818
30
0.0000000000
10
117.9815273449
20
103.7025712292
30
0.0000000000
10
118.3335400647
20
103.0043073370
30
0.0000000000
11
95.5974243936
21
103.0043073413
31
0.0000000000
11
96.7040308356
21
105.0733276347
31
0.0000000000
11
97.7872183549
21
106.8689937171
31
0.0000000000
11
98.8427654742
21
108.4140473527
31
0.0000000000
11
99.8682027100
21
109.7290123255
31
0.0000000000
11
100.8605344311
21
110.8312639277
31
0.0000000000
11
101.8164874789
21
111.7364864188
31
0.0000000000
11
102.7306024194
21
112.4586085828
31
0.0000000000
11
103.5961552911
21
113.0135870488
31
0.0000000000
11
104.4105048944
21
113.4206083763
31
0.0000000000
11
105.1770814862
21
113.7019674145
31
0.0000000000
11
105.9073007233
21
113.8775893930
31
0.0000000000
11
106.6156911765
21
113.9619933794
31
0.0000000000
11
107.3163322401
21
113.9619157195
31
0.0000000000
11
108.0247926421
21
113.8773984014
31
0.0000000000
11
108.7550210657
21
113.7016144095
31
0.0000000000
11
109.5216486409
21
113.4200983175
31
0.0000000000
11
110.3359387082
21
113.0129451160
31
0.0000000000
11
111.2014133354
21
112.4578586822
31
0.0000000000
11
112.1154868590
21
111.7356103838
31
0.0000000000
11
113.0713450343
21
110.8303302821
31
0.0000000000
11
114.0635294249
21
109.7280921227
31
0.0000000000
11
115.0888018613
21
108.4132210016
31
0.0000000000
11
116.1441628331
21
106.8683471126
31
0.0000000000
11
117.2271500708
21
105.0729469733
31
0.0000000000
11
118.3335400647
21
103.0043073370
31
0.0000000000
0
SPLINE
5
2B9
100
AcDbEntity
8
0
100
AcDbSpline
62
9
6
CONTINUOUS
70
0
71
3
72
12
73
8
74
6
42
0.0000001000
43
0.0000001000
44
0.0000000001
12
-0.8347589644
22
-0.2453555447
32
0.0000000000
13
-0.7079386910
23
-0.5058109150
33
0.0000000000
40
0.0000000000
40
0.0000000000
40
0.0000000000
40
0.0000000000
40
0.1894958606
40
0.3899089052
40
0.5956675001
40
0.8009593410
40
1.0000000000
40
1.0000000000
40
1.0000000000
40
1.0000000000
10
119.2917869301
20
103.3223626722
30
0.0000000000
10
119.2390591406
20
103.3068647188
30
0.0000000000
10
119.1318518244
20
103.2705008937
30
0.0000000000
10
118.9723254496
20
103.2039027244
30
0.0000000000
10
118.8132162226
20
103.1253177365
30
0.0000000000
10
118.6596231306
20
103.0372562519
30
0.0000000000
10
118.5617313827
20
102.9725018737
30
0.0000000000
10
118.5147618548
20
102.9389428945
30
0.0000000000
11
119.2917869301
21
103.3223626722
31
0.0000000000
11
119.1355114526
21
103.2698114381
31
0.0000000000
11
118.9745086530
21
103.2028474474
31
0.0000000000
11
118.8139657196
21
103.1236281426
31
0.0000000000
11
118.6590549352
21
103.0347060486
31
0.0000000000
11
118.5147618548
21
102.9389428945
31
0.0000000000
0
SPLINE
5
2BA
100
AcDbEntity
8
0
100
AcDbSpline
62
9
6
CONTINUOUS
70
0
71
3
72
16
73
12
74
10
42
0.0000001000
43
0.0000001000
44
0.0000000001
12
1.6709204619
22
-0.0007459361
32
0.0000000000
13
0.1811100959
23
-1.6610764220
33
0.0000000000
40
0.0000000000
40
0.0000000000
40
0.0000000000
40
0.0000000000
40
0.0243010268
40
0.0715387371
40
0.1439966827
40
0.2407266692
40
0.3597204368
40
0.4984274835
40
0.6537418784
40
0.8221845784
40
1.0000000000
40
1.0000000000
40
1.0000000000
40
1.0000000000
10
118.6263826023
20
102.2322335025
30
0.0000000000
10
118.6399176300
20
102.2322274602
30
0.0000000000
10
118.6714407897
20
102.1975491197
30
0.0000000000
10
118.7015432185
20
102.1270750716
30
0.0000000000
10
118.7400458328
20
102.0107798531
30
0.0000000000
10
118.7782809526
20
101.8555595623
30
0.0000000000
10
118.8184179179
20
101.6619766693
30
0.0000000000
10
118.8582583871
20
101.4354742369
30
0.0000000000
10
118.8970729183
20
101.1807902579
30
0.0000000000
10
118.9340719666
20
100.9038830160
30
0.0000000000
10
118.9563566097
20
100.7123064947
30
0.0000000000
10
118.9670913324
20
100.6138514933
30
0.0000000000
11
118.6263826023
21
102.2322335025
31
0.0000000000
11
118.6594220855
21
102.2086291461
31
0.0000000000
11
118.6956902870
21
102.1385246827
31
0.0000000000
11
118.7343243776
21
102.0237827578
31
0.0000000000
11
118.7744841517
21
101.8672233604
31
0.0000000000
11
118.8152634783
21
101.6726210125
31
0.0000000000
11
118.8558363118
21
101.4444314711
31
0.0000000000
11
118.8952137816
21
101.1879182727
31
0.0000000000
11
118.9326097013
21
100.9089592894
31
0.0000000000
11
118.9670913324
21
100.6138514933
31
0.0000000000
0
SPLINE
5
2BB
100
AcDbEntity
8
0
100
AcDbSpline
62
9
6
CONTINUOUS
70
0
71
3
72
14
73
10
74
8
42
0.0000001000
43
0.0000001000
44
0.0000000001
12
-0.1396986042
22
0.7922701968
32
0.0000000000
13
-0.7968882126
23
-0.1103491793
33
0.0000000000
40
0.0000000000
40
0.0000000000
40
0.0000000000
40
0.0000000000
40
0.0436847226
40
0.1200237084
40
0.2344719858
40
0.3850276935
40
0.5670899031
40
0.7744983941
40
1.0000000000
40
1.0000000000
40
1.0000000000
40
1.0000000000
10
119.7538725620
20
100.5966906756
30
0.0000000000
10
119.7518383304
20
100.6082273768
30
0.0000000000
10
119.7231331324
20
100.6316172557
30
0.0000000000
10
119.6628215552
20
100.6451664244
30
0.0000000000
10
119.5711414722
20
100.6557146011
30
0.0000000000
10
119.4513481278
20
100.6568827947
30
0.0000000000
10
119.3065517855
20
100.6506982780
30
0.0000000000
10
119.1422444590
20
100.6362995243
30
0.0000000000
10
119.0269911873
20
100.6221461472
30
0.0000000000
10
118.9670913300
20
100.6138515082
30
0.0000000000
11
119.7538725620
21
100.5966906756
31
0.0000000000
11
119.7306556610
21
100.6230739595
31
0.0000000000
11
119.6722770405
21
100.6421430712
31
0.0000000000
11
119.5808706768
21
100.6532005649
31
0.0000000000
11
119.4597785832
21
100.6558419570
31
0.0000000000
11
119.3134286784
21
100.6499705510
31
0.0000000000
11
119.1471728809
21
100.6358010057
31
0.0000000000
11
118.9670913300
21
100.6138515082
31
0.0000000000
0
SPLINE
5
2BC
100
AcDbEntity
8
0
100
AcDbSpline
62
9
6
CONTINUOUS
70
0
71
3
72
16
73
12
74
10
42
0.0000001000
43
0.0000001000
44
0.0000000001
12
-1.6709205899
22
0.0000109804
32
0.0000000000
13
-0.1809352290
23
-1.6610954400
33
0.0000000000
40
0.0000000000
40
0.0000000000
40
0.0000000000
40
0.0000000000
40
0.0243142507
40
0.0715555156
40
0.1440180964
40
0.2407353214
40
0.3597293854
40
0.4984074417
40
0.6537024738
40
0.8221612079
40
1.0000000000
40
1.0000000000
40
1.0000000000
40
1.0000000000
10
95.3045818647
20
102.2322335025
30
0.0000000000
10
95.2910394706
20
102.2322335915
30
0.0000000000
10
95.2595006137
20
102.1975427563
30
0.0000000000
10
95.2294288344
20
102.1270451297
30
0.0000000000
10
95.1909237054
20
102.0107537831
30
0.0000000000
10
95.1527070619
20
101.8555332812
30
0.0000000000
10
95.1125384401
20
101.6619805139
30
0.0000000000
10
95.0727600694
20
101.4354942659
30
0.0000000000
10
95.0338693602
20
101.1808403781
30
0.0000000000
10
94.9969355785
20
100.9039128667
30
0.0000000000
10
94.9745989022
20
100.7123205621
30
0.0000000000
10
94.9638731346
20
100.6138514933
30
0.0000000000
11
95.3045818647
21
102.2322335025
31
0.0000000000
11
95.2715223241
21
102.2086192122
31
0.0000000000
11
95.2352710540
21
102.1384993077
31
0.0000000000
11
95.1966450410
21
102.0237464943
31
0.0000000000
11
95.1564970016
21
101.8672061046
31
0.0000000000
11
95.1157049725
21
101.6726059175
31
0.0000000000
11
95.0751602899
21
101.4444605775
31
0.0000000000
11
95.0357561526
21
101.1879842137
31
0.0000000000
11
94.9983745783
21
100.9089962830
31
0.0000000000
11
94.9638731346
21
100.6138514933
31
0.0000000000
0
SPLINE
5
2BD
100
AcDbEntity
8
0
100
AcDbSpline
62
9
6
CONTINUOUS
70
0
71
3
72
14
73
10
74
8
42
0.0000001000
43
0.0000001000
44
0.0000000001
12
-0.7968881904
22
0.1103489579
32
0.0000000000
13
-0.1396985937
23
-0.7922701455
33
0.0000000000
40
0.0000000000
40
0.0000000000
40
0.0000000000
40
0.0000000000
40
0.2255007212
40
0.4329078568
40
0.6149691646
40
0.7655249185
40
0.8799741483
40
0.9563144390
40
1.0000000000
40
1.0000000000
40
1.0000000000
40
1.0000000000
10
94.9638731343
20
100.6138514936
30
0.0000000000
10
94.9039735137
20
100.6221460835
30
0.0000000000
10
94.7887208442
20
100.6362993726
30
0.0000000000
10
94.6244143777
20
100.6506981221
30
0.0000000000
10
94.4796186365
20
100.6568827404
30
0.0000000000
10
94.3598252959
20
100.6557147222
30
0.0000000000
10
94.2681445245
20
100.6451666947
30
0.0000000000
10
94.2078322172
20
100.6316176439
30
0.0000000000
10
94.1791261755
20
100.6082275975
30
0.0000000000
10
94.1770919050
20
100.5966906756
30
0.0000000000
11
94.9638731343
21
100.6138514936
31
0.0000000000
11
94.7837922999
21
100.6358008889
31
0.0000000000
11
94.6175376056
21
100.6499704104
31
0.0000000000
11
94.4711884407
21
100.6558419253
31
0.0000000000
11
94.3500963135
21
100.6532007318
31
0.0000000000
11
94.2586891632
21
100.6421434107
31
0.0000000000
11
94.2003094445
21
100.6230742931
31
0.0000000000
11
94.1770919050
21
100.5966906756
31
0.0000000000
0
SPLINE
5
2BE
100
AcDbEntity
8
0
100
AcDbSpline
62
9
6
CONTINUOUS
70
0
71
3
72
10
73
6
74
4
42
0.0000001000
43
0.0000001000
44
0.0000000001
12
-0.5467825042
22
-3.0610240012
32
0.0000000000
13
-0.5466458190
23
-3.0610484138
33
0.0000000000
40
0.0000000000
40
0.0000000000
40
0.0000000000
40
0.0000000000
40
0.3316337736
40
0.6649555418
40
1.0000000000
40
1.0000000000
40
1.0000000000
40
1.0000000000
10
94.9638731346
20
100.6138514933
30
0.0000000000
10
94.9034292862
20
100.2754718464
30
0.0000000000
10
94.7822390386
20
99.5969893102
30
0.0000000000
10
94.6000010991
20
98.5766438870
30
0.0000000000
10
94.4782095389
20
97.8946776587
30
0.0000000000
10
94.4171593214
20
97.5528152230
30
0.0000000000
11
94.9638731346
21
100.6138514933
31
0.0000000000
11
94.7825491980
21
99.5987111936
31
0.0000000000
11
94.6003175564
21
98.5784011761
31
0.0000000000
11
94.4171593214
21
97.5528152230
31
0.0000000000
0
SPLINE
5
2BF
100
AcDbEntity
8
0
100
AcDbSpline
62
9
6
CONTINUOUS
70
0
71
3
72
16
73
12
74
10
42
0.0000001000
43
0.0000001000
44
0.0000000001
12
1.4017950910
22
-0.7207699847
32
0.0000000000
13
0.4290823152
23
-1.5167159308
33
0.0000000000
40
0.0000000000
40
0.0000000000
40
0.0000000000
40
0.0000000000
40
0.1105464698
40
0.2235336441
40
0.3408742732
40
0.4600970253
40
0.5793441323
40
0.6959780435
40
0.8071742097
40
0.9098321554
40
1.0000000000
40
1.0000000000
40
1.0000000000
40
1.0000000000
10
119.1379065359
20
102.2365629046
30
0.0000000000
10
119.1895610354
20
102.2100033789
30
0.0000000000
10
119.2906297426
20
102.1496030131
30
0.0000000000
10
119.4344648508
20
102.0424017844
30
0.0000000000
10
119.5691457578
20
101.9169523460
30
0.0000000000
10
119.6913626758
20
101.7750300089
30
0.0000000000
10
119.7983615102
20
101.6218044662
30
0.0000000000
10
119.8878821130
20
101.4626338798
30
0.0000000000
10
119.9598543795
20
101.3044007267
30
0.0000000000
10
120.0148158714
20
101.1542803435
30
0.0000000000
10
120.0439898161
20
101.0572202664
30
0.0000000000
10
120.0568862919
20
101.0116339309
30
0.0000000000
11
119.1379065359
21
102.2365629046
31
0.0000000000
11
119.2878761858
21
102.1478416235
31
0.0000000000
11
119.4305958462
21
102.0413100613
31
0.0000000000
11
119.5659871751
21
101.9153006794
31
0.0000000000
11
119.6888406531
21
101.7730951287
31
0.0000000000
11
119.7965331832
21
101.6190427198
31
0.0000000000
11
119.8868872638
21
101.4589349814
31
0.0000000000
11
119.9595748599
21
101.2994457621
31
0.0000000000
11
120.0154624140
21
101.1475896589
31
0.0000000000
11
120.0568862919
21
101.0116339309
31
0.0000000000
0
SPLINE
5
2C0
100
AcDbEntity
8
0
100
AcDbSpline
62
9
6
CONTINUOUS
70
0
71
3
72
13
73
9
74
7
42
0.0000001000
43
0.0000001000
44
0.0000000001
12
0.1109913525
22
-0.6294940196
32
0.0000000000
13
0.6372327065
23
-0.0501625247
33
0.0000000000
40
0.0000000000
40
0.0000000000
40
0.0000000000
40
0.0000000000
40
0.1642653677
40
0.3290970059
40
0.4949498131
40
0.6620812532
40
0.8305063350
40
1.0000000000
40
1.0000000000
40
1.0000000000
40
1.0000000000
10
119.6111903554
20
101.4058816802
30
0.0000000000
10
119.6172677005
20
101.3714136580
30
0.0000000000
10
119.6373604101
20
101.3034948443
30
0.0000000000
10
119.6895980882
20
101.2109060365
30
0.0000000000
10
119.7614647706
20
101.1317006973
30
0.0000000000
10
119.8495078173
20
101.0696829829
30
0.0000000000
10
119.9494672532
20
101.0277351576
30
0.0000000000
10
120.0208835572
20
101.0144635540
30
0.0000000000
10
120.0568858595
20
101.0116294773
30
0.0000000000
11
119.6111903554
21
101.4058816802
31
0.0000000000
11
119.6409734112
21
101.3051951484
31
0.0000000000
11
119.6926800299
21
101.2133944069
31
0.0000000000
11
119.7638597963
21
101.1348300178
31
0.0000000000
11
119.8511393811
21
101.0732251793
31
0.0000000000
11
119.9503824723
21
101.0314992622
31
0.0000000000
11
120.0568858595
21
101.0116294773
31
0.0000000000
0
SPLINE
5
2C1
100
AcDbEntity
8
0
100
AcDbSpline
62
9
6
CONTINUOUS
70
0
71
3
72
10
73
6
74
4
42
0.0000001000
43
0.0000001000
44
0.0000000001
12
0.0491352346
22
-0.1736161287
32
0.0000000000
13
0.0865324731
23
-0.1583318115
33
0.0000000000
40
0.0000000000
40
0.0000000000
40
0.0000000000
40
0.0000000000
40
0.4395463409
40
0.7731845107
40
1.0000000000
40
1.0000000000
40
1.0000000000
40
1.0000000000
10
120.0568862919
20
101.0116339309
30
0.0000000000
10
120.0640853628
20
100.9861964862
30
0.0000000000
10
120.0772231061
20
100.9415619188
30
0.0000000000
10
120.0965356184
20
100.8846308028
30
0.0000000000
10
120.1094219282
20
100.8533495242
30
0.0000000000
10
120.1159642299
20
100.8413788218
30
0.0000000000
11
120.0568862919
21
101.0116339309
31
0.0000000000
11
120.0796025790
21
100.9356472069
31
0.0000000000
11
120.0993295610
21
100.8787711024
31
0.0000000000
11
120.1159642299
21
100.8413788218
31
0.0000000000
0
SPLINE
5
2C2
100
AcDbEntity
8
0
100
AcDbSpline
62
9
6
CONTINUOUS
70
0
71
3
72
13
73
9
74
7
42
0.0000001000
43
0.0000001000
44
0.0000000001
12
0.1182417908
22
-0.6705816917
32
0.0000000000
13
0.6806594815
23
-0.0190682083
33
0.0000000000
40
0.0000000000
40
0.0000000000
40
0.0000000000
40
0.0000000000
40
0.1664231315
40
0.3329048431
40
0.4994916489
40
0.6662085429
40
0.8330539288
40
1.0000000000
40
1.0000000000
40
1.0000000000
40
1.0000000000
10
119.6382088674
20
101.2526520820
30
0.0000000000
10
119.6447682571
20
101.2154519803
30
0.0000000000
10
119.6665058701
20
101.1422701295
30
0.0000000000
10
119.7230849674
20
101.0429341436
30
0.0000000000
10
119.8007503333
20
100.9588870062
30
0.0000000000
10
119.8954856407
20
100.8945492566
30
0.0000000000
10
120.0023148590
20
100.8532253444
30
0.0000000000
10
120.0780864242
20
100.8424400448
30
0.0000000000
10
120.1159642329
20
100.8413789240
30
0.0000000000
11
119.6382088674
21
101.2526520820
31
0.0000000000
11
119.6704935492
21
101.1440263127
31
0.0000000000
11
119.7265783998
21
101.0455103745
31
0.0000000000
11
119.8035623798
21
100.9622001279
31
0.0000000000
11
119.8974634089
21
100.8984049015
31
0.0000000000
11
120.0034243458
21
100.8574245826
31
0.0000000000
11
120.1159642329
21
100.8413789240
31
0.0000000000
0
SPLINE
5
2C3
100
AcDbEntity
8
0
100
AcDbSpline
62
9
6
CONTINUOUS
70
0
71
3
72
11
73
7
74
5
42
0.0000001000
43
0.0000001000
44
0.0000000001
12
0.3026112186
22
-1.6774011887
32
0.0000000000
13
0.2989715646
23
-1.6780537242
33
0.0000000000
40
0.0000000000
40
0.0000000000
40
0.0000000000
40
0.0000000000
40
0.2043775558
40
0.4365387686
40
0.7004055532
40
1.0000000000
40
1.0000000000
40
1.0000000000
40
1.0000000000
10
120.1159642299
20
100.8413788218
30
0.0000000000
10
120.1365798770
20
100.7271044368
30
0.0000000000
10
120.1805172977
20
100.4830034880
30
0.0000000000
10
120.2507689673
20
100.0913114125
30
0.0000000000
10
120.3303342643
20
99.6463282188
30
0.0000000000
10
120.3865415573
20
99.3311651541
30
0.0000000000
10
120.4163982975
20
99.1635866284
30
0.0000000000
11
120.1159642299
21
100.8413788218
31
0.0000000000
11
120.1776875769
21
100.4985333928
31
0.0000000000
11
120.2475565182
21
100.1090365231
31
0.0000000000
11
120.3267304413
21
99.6663048004
31
0.0000000000
11
120.4163982975
21
99.1635866284
31
0.0000000000
0
SPLINE
5
2C4
100
AcDbEntity
8
0
100
AcDbSpline
62
9
6
CONTINUOUS
70
0
71
3
72
13
73
9
74
7
42
0.0000001000
43
0.0000001000
44
0.0000000001
12
0.1189972932
22
-0.6750235852
32
0.0000000000
13
0.6853113591
23
-0.0128661376
33
0.0000000000
40
0.0000000000
40
0.0000000000
40
0.0000000000
40
0.0000000000
40
0.1664054673
40
0.3328742713
40
0.4994562235
40
0.6661776374
40
0.8330358918
40
1.0000000000
40
1.0000000000
40
1.0000000000
40
1.0000000000
10
119.9340548087
20
99.5748609303
30
0.0000000000
10
119.9406554088
20
99.5374183920
30
0.0000000000
10
119.9625937864
20
99.4637650765
30
0.0000000000
10
120.0197856251
20
99.3639019379
30
0.0000000000
10
120.0983041832
20
99.2795987131
30
0.0000000000
10
120.1940335838
20
99.2153497938
30
0.0000000000
10
120.3018775399
20
99.1744984138
30
0.0000000000
10
120.3782572001
20
99.1642879620
30
0.0000000000
10
120.4163980001
20
99.1635719009
30
0.0000000000
11
119.9340548087
21
99.5748609303
31
0.0000000000
11
119.9666326881
21
99.4655527138
31
0.0000000000
11
120.0233172906
21
99.3665256192
31
0.0000000000
11
120.1011369777
21
99.2829713818
31
0.0000000000
11
120.1960119506
21
99.2192705786
31
0.0000000000
11
120.3029681349
21
99.1787628843
31
0.0000000000
11
120.4163980001
21
99.1635719009
31
0.0000000000
0
SPLINE
5
2C5
100
AcDbEntity
8
0
100
AcDbSpline
62
9
6
CONTINUOUS
70
0
71
3
72
10
73
6
74
4
42
0.0000001000
43
0.0000001000
44
0.0000000001
12
-0.0558493214
22
-0.1277049565
32
0.0000000000
13
0.0112703637
23
-0.1389268927
33
0.0000000000
40
0.0000000000
40
0.0000000000
40
0.0000000000
40
0.0000000000
40
0.1993861271
40
0.5331122684
40
1.0000000000
40
1.0000000000
40
1.0000000000
40
1.0000000000
10
120.4163982975
20
99.1635866284
30
0.0000000000
10
120.4126864375
20
99.1550990962
30
0.0000000000
10
120.4100900840
20
99.1298571634
30
0.0000000000
10
120.4098721008
20
99.0837028188
30
0.0000000000
10
120.4123932480
20
99.0464511901
30
0.0000000000
10
120.4141472462
20
99.0248301029
30
0.0000000000
11
120.4163982975
21
99.1635866284
31
0.0000000000
11
120.4110912643
21
99.1363069589
31
0.0000000000
11
120.4103695102
21
99.0897967099
31
0.0000000000
11
120.4141472462
21
99.0248301029
31
0.0000000000
0
SPLINE
5
2C6
100
AcDbEntity
8
0
100
AcDbSpline
62
9
6
CONTINUOUS
70
0
71
3
72
13
73
9
74
7
42
0.0000001000
43
0.0000001000
44
0.0000000001
12
0.3327167458
22
-1.8869341797
32
0.0000000000
13
-0.6587741086
23
-1.7992325323
33
0.0000000000
40
0.0000000000
40
0.0000000000
40
0.0000000000
40
0.0000000000
40
0.0839848676
40
0.1954534276
40
0.3389235655
40
0.5185799301
40
0.7392505922
40
1.0000000000
40
1.0000000000
40
1.0000000000
40
1.0000000000
10
119.9646319512
20
99.4014142146
30
0.0000000000
10
119.9739463418
20
99.3485895754
30
0.0000000000
10
119.9784721633
20
99.2228227232
30
0.0000000000
10
119.9541831846
20
99.0074219220
30
0.0000000000
10
119.8971903561
20
98.7354360011
30
0.0000000000
10
119.8045849608
20
98.4005629097
30
0.0000000000
10
119.6744628987
20
97.9987951678
30
0.0000000000
10
119.5710634665
20
97.7091981620
30
0.0000000000
10
119.5138051469
20
97.5528152229
30
0.0000000000
11
119.9646319512
21
99.4014142146
31
0.0000000000
11
119.9744139120
21
99.2407931805
31
0.0000000000
11
119.9535778778
21
99.0282333970
31
0.0000000000
11
119.8994416520
21
98.7587217838
31
0.0000000000
11
119.8094296907
21
98.4264693502
31
0.0000000000
11
119.6805364632
21
98.0237801020
31
0.0000000000
11
119.5138051469
21
97.5528152229
31
0.0000000000
0
SPLINE
5
2C7
100
AcDbEntity
8
0
100
AcDbSpline
62
9
6
CONTINUOUS
70
0
71
3
72
13
73
9
74
7
42
0.0000001000
43
0.0000001000
44
0.0000000001
12
0.1096705076
22
-0.6219761802
32
0.0000000000
13
0.6305890825
23
-0.0352050849
33
0.0000000000
40
0.0000000000
40
0.0000000000
40
0.0000000000
40
0.0000000000
40
0.1614938021
40
0.3242292793
40
0.4891871765
40
0.6568943471
40
0.8273396050
40
1.0000000000
40
1.0000000000
40
1.0000000000
40
1.0000000000
10
119.9646319512
20
99.4014142146
30
0.0000000000
10
119.9705356536
20
99.3679324485
30
0.0000000000
10
119.9905214547
20
99.3018678249
30
0.0000000000
10
120.0431320028
20
99.2122842558
30
0.0000000000
10
120.1157842299
20
99.1361885400
30
0.0000000000
10
120.2048516817
20
99.0772872550
30
0.0000000000
10
120.3059163902
20
99.0383143539
30
0.0000000000
10
120.3778546165
20
99.0268558129
30
0.0000000000
10
120.4141472032
20
99.0248296383
30
0.0000000000
11
119.9646319512
21
99.4014142146
31
0.0000000000
11
119.9941374817
21
99.3037803837
31
0.0000000000
11
120.0460534268
21
99.2150771665
31
0.0000000000
11
120.1178660524
21
99.1395989072
31
0.0000000000
11
120.2060984045
21
99.0809995450
31
0.0000000000
11
120.3064787051
21
99.0421157487
31
0.0000000000
11
120.4141472032
21
99.0248296383
31
0.0000000000
0
SPLINE
5
2C8
100
AcDbEntity
8
0
100
AcDbSpline
62
9
6
CONTINUOUS
70
0
71
3
72
14
73
10
74
8
42
0.0000001000
43
0.0000001000
44
0.0000000001
12
-1.0585931000
22
1.3839388378
32
0.0000000000
13
0.1406219106
23
1.7367013377
33
0.0000000000
40
0.0000000000
40
0.0000000000
40
0.0000000000
40
0.0000000000
40
0.2317877285
40
0.4413067970
40
0.6189885826
40
0.7607804722
40
0.8679987113
40
0.9455689068
40
1.0000000000
40
1.0000000000
40
1.0000000000
40
1.0000000000
10
94.4171591021
20
97.5528152230
30
0.0000000000
10
94.3353694721
20
97.6597419028
30
0.0000000000
10
94.1803100681
20
97.8638352159
30
0.0000000000
10
93.9675084697
20
98.1536216579
30
0.0000000000
10
93.7929607414
20
98.4065614865
30
0.0000000000
10
93.6619587693
20
98.6170446468
30
0.0000000000
10
93.5741203442
20
98.7855876906
30
0.0000000000
10
93.5252979395
20
98.9159601260
30
0.0000000000
10
93.5142658194
20
98.9933199188
30
0.0000000000
10
93.5168172208
20
99.0248301030
30
0.0000000000
11
94.4171591021
21
97.5528152230
31
0.0000000000
11
94.1734078505
21
97.8748261751
31
0.0000000000
11
93.9581307441
21
98.1696595187
31
0.0000000000
11
93.7833858523
21
98.4252182344
31
0.0000000000
11
93.6544164631
21
98.6359398652
31
0.0000000000
11
93.5701819049
21
98.8026868553
31
0.0000000000
11
93.5260689951
21
98.9304425146
31
0.0000000000
11
93.5168172208
21
99.0248301030
31
0.0000000000
0
SPLINE
5
2C9
100
AcDbEntity
8
0
100
AcDbSpline
62
9
6
CONTINUOUS
70
0
71
3
72
13
73
9
74
7
42
0.0000001000
43
0.0000001000
44
0.0000000001
12
-0.1096519199
22
-0.6219831696
32
0.0000000000
13
-0.6305925068
23
-0.0352093338
33
0.0000000000
40
0.0000000000
40
0.0000000000
40
0.0000000000
40
0.0000000000
40
0.1614920872
40
0.3242265291
40
0.4891841175
40
0.6568917171
40
0.8273380617
40
1.0000000000
40
1.0000000000
40
1.0000000000
40
1.0000000000
10
93.9663271033
20
99.4014151690
30
0.0000000000
10
93.9604244642
20
99.3679333822
30
0.0000000000
10
93.9404407940
20
99.3018683118
30
0.0000000000
10
93.8878330015
20
99.2122831607
30
0.0000000000
10
93.8151825505
20
99.1361851297
30
0.0000000000
10
93.7261156513
20
99.0772813423
30
0.0000000000
10
93.6250503421
20
99.0383063201
30
0.0000000000
10
93.5531112191
20
99.0268469248
30
0.0000000000
10
93.5168181109
20
99.0248204876
30
0.0000000000
11
93.9663271033
21
99.4014151690
31
0.0000000000
11
93.9368247610
21
99.3037808895
31
0.0000000000
11
93.8849115387
21
99.2150761469
31
0.0000000000
11
93.8131006907
21
99.1395956332
31
0.0000000000
11
93.7248689137
21
99.0809938073
31
0.0000000000
11
93.6244880264
21
99.0421079001
31
0.0000000000
11
93.5168181109
21
99.0248204876
31
0.0000000000
0
SPLINE
5
2CA
100
AcDbEntity
8
0
100
AcDbSpline
62
9
6
CONTINUOUS
70
0
71
3
72
10
73
6
74
4
42
0.0000001000
43
0.0000001000
44
0.0000000001
12
0.0112658950
22
0.1389272789
32
0.0000000000
13
-0.0558475702
23
0.1277057482
33
0.0000000000
40
0.0000000000
40
0.0000000000
40
0.0000000000
40
0.0000000000
40
0.4669966406
40
0.8006838358
40
1.0000000000
40
1.0000000000
40
1.0000000000
40
1.0000000000
10
93.5168172208
20
99.0248301030
30
0.0000000000
10
93.5185709325
20
99.0464562938
30
0.0000000000
10
93.5210930414
20
99.0837110903
30
0.0000000000
10
93.5208739895
20
99.1298656834
30
0.0000000000
10
93.5182766107
20
99.1551020218
30
0.0000000000
10
93.5145661695
20
99.1635866284
30
0.0000000000
11
93.5168172208
21
99.0248301030
31
0.0000000000
11
93.5205953301
21
99.0898119051
31
0.0000000000
11
93.5198723006
21
99.1363167131
31
0.0000000000
11
93.5145661695
21
99.1635866284
31
0.0000000000
0
SPLINE
5
2CB
100
AcDbEntity
8
0
100
AcDbSpline
62
9
6
CONTINUOUS
70
0
71
3
72
13
73
9
74
7
42
0.0000001000
43
0.0000001000
44
0.0000000001
12
-0.1190227270
22
-0.6750103134
32
0.0000000000
13
-0.6853028001
23
-0.0128609813
33
0.0000000000
40
0.0000000000
40
0.0000000000
40
0.0000000000
40
0.0000000000
40
0.1664085064
40
0.3328788831
40
0.4994611065
40
0.6661816863
40
0.8330382280
40
1.0000000000
40
1.0000000000
40
1.0000000000
40
1.0000000000
10
93.9969155679
20
99.5748598886
30
0.0000000000
10
93.9903134365
20
99.5374174026
30
0.0000000000
10
93.9683720685
20
99.4637648750
30
0.0000000000
10
93.9111764764
20
99.3639042877
30
0.0000000000
10
93.8326557638
20
99.2796047975
30
0.0000000000
10
93.7369261461
20
99.2153598690
30
0.0000000000
10
93.6290837826
20
99.1745117812
30
0.0000000000
10
93.5527059567
20
99.1643025296
30
0.0000000000
10
93.5145661668
20
99.1635867655
30
0.0000000000
11
93.9969155679
21
99.5748598886
31
0.0000000000
11
93.9643331183
21
99.4655523634
31
0.0000000000
11
93.9076448150
21
99.3665278051
31
0.0000000000
11
93.8298230059
21
99.2829772603
31
0.0000000000
11
93.7349478148
21
99.2192803962
31
0.0000000000
11
93.6279931993
21
99.1787759513
31
0.0000000000
11
93.5145661668
21
99.1635867655
31
0.0000000000
0
SPLINE
5
2CC
100
AcDbEntity
8
0
100
AcDbSpline
62
9
6
CONTINUOUS
70
0
71
3
72
11
73
7
74
5
42
0.0000001000
43
0.0000001000
44
0.0000000001
12
0.2989715795
22
1.6780537215
32
0.0000000000
13
0.3026112532
23
1.6774011825
33
0.0000000000
40
0.0000000000
40
0.0000000000
40
0.0000000000
40
0.0000000000
40
0.2972067907
40
0.5614565244
40
0.7949923356
40
1.0000000000
40
1.0000000000
40
1.0000000000
40
1.0000000000
10
93.5145661695
20
99.1635866284
30
0.0000000000
10
93.5441849641
20
99.3298296155
30
0.0000000000
10
93.6001918780
20
99.6438714508
30
0.0000000000
10
93.6796923704
20
100.0885025516
30
0.0000000000
10
93.7501820852
20
100.4815301491
30
0.0000000000
10
93.7943210283
20
100.7267521223
30
0.0000000000
10
93.8150002371
20
100.8413788218
30
0.0000000000
11
93.5145661695
21
99.1635866284
31
0.0000000000
11
93.6035185650
21
99.6622984740
31
0.0000000000
11
93.6828055837
21
100.1056730555
31
0.0000000000
11
93.7530869165
21
100.4974763210
31
0.0000000000
11
93.8150002371
21
100.8413788218
31
0.0000000000
0
SPLINE
5
2CD
100
AcDbEntity
8
0
100
AcDbSpline
62
9
6
CONTINUOUS
70
0
71
3
72
13
73
9
74
7
42
0.0000001000
43
0.0000001000
44
0.0000000001
12
-0.1182510052
22
-0.6705738716
32
0.0000000000
13
-0.6806534426
23
-0.0190659018
33
0.0000000000
40
0.0000000000
40
0.0000000000
40
0.0000000000
40
0.0000000000
40
0.1664243436
40
0.3329066903
40
0.4994936142
40
0.6662101818
40
0.8330548810
40
1.0000000000
40
1.0000000000
40
1.0000000000
40
1.0000000000
10
94.2927555992
20
101.2526520820
30
0.0000000000
10
94.2861956506
20
101.2154521432
30
0.0000000000
10
94.2644570003
20
101.1422708737
30
0.0000000000
10
94.2078767513
20
101.0429362161
30
0.0000000000
10
94.1302109312
20
100.9588907835
30
0.0000000000
10
94.0354759633
20
100.8945547645
30
0.0000000000
10
93.9286478114
20
100.8532322564
30
0.0000000000
10
93.8528772682
20
100.8424474763
30
0.0000000000
10
93.8150000116
20
100.8413864899
30
0.0000000000
11
94.2927555992
21
101.2526520820
31
0.0000000000
11
94.2604693220
21
101.1440269852
31
0.0000000000
11
94.2043833319
21
101.0455123669
31
0.0000000000
11
94.1273989029
21
100.9622038097
31
0.0000000000
11
94.0334982080
21
100.8984102969
31
0.0000000000
11
93.9275383262
21
100.8574313681
31
0.0000000000
11
93.8150000116
21
100.8413864899
31
0.0000000000
0
SPLINE
5
2CE
100
AcDbEntity
8
0
100
AcDbSpline
62
9
6
CONTINUOUS
70
0
71
3
72
10
73
6
74
4
42
0.0000001000
43
0.0000001000
44
0.0000000001
12
0.0865324866
22
0.1583318042
32
0.0000000000
13
0.0491352250
23
0.1736161316
33
0.0000000000
40
0.0000000000
40
0.0000000000
40
0.0000000000
40
0.0000000000
40
0.2268152615
40
0.5604533418
40
1.0000000000
40
1.0000000000
40
1.0000000000
40
1.0000000000
10
93.8150002371
20
100.8413788218
30
0.0000000000
10
93.8215425333
20
100.8533495117
30
0.0000000000
10
93.8344288287
20
100.8846307755
30
0.0000000000
10
93.8537413684
20
100.9415618818
30
0.0000000000
10
93.8668791004
20
100.9861964674
30
0.0000000000
10
93.8740781751
20
101.0116339309
30
0.0000000000
11
93.8150002371
21
100.8413788218
31
0.0000000000
11
93.8316348884
21
100.8787710653
31
0.0000000000
11
93.8513618782
21
100.9356471500
31
0.0000000000
11
93.8740781751
21
101.0116339309
31
0.0000000000
0
SPLINE
5
2CF
100
AcDbEntity
8
0
100
AcDbSpline
62
9
6
CONTINUOUS
70
0
71
3
72
13
73
9
74
7
42
0.0000001000
43
0.0000001000
44
0.0000000001
12
-0.1109957769
22
-0.6294899912
32
0.0000000000
13
-0.6372296892
23
-0.0501600902
33
0.0000000000
40
0.0000000000
40
0.0000000000
40
0.0000000000
40
0.0000000000
40
0.1642656145
40
0.3290972288
40
0.4949498972
40
0.6620812061
40
0.8305062465
40
1.0000000000
40
1.0000000000
40
1.0000000000
40
1.0000000000
10
94.3197741998
20
101.4058816647
30
0.0000000000
10
94.3136966032
20
101.3714138113
30
0.0000000000
10
94.2936034321
20
101.3034954518
30
0.0000000000
10
94.2413652636
20
101.2109075142
30
0.0000000000
10
94.1694983953
20
101.1317031601
30
0.0000000000
10
94.0814554461
20
101.0696863745
30
0.0000000000
10
93.9814963107
20
101.0277393055
30
0.0000000000
10
93.9100803074
20
101.0144680602
30
0.0000000000
10
93.8740781568
20
101.0116341195
30
0.0000000000
11
94.3197741998
21
101.4058816647
31
0.0000000000
11
94.2899904386
21
101.3051957250
31
0.0000000000
11
94.2382833524
21
101.2133958695
31
0.0000000000
11
94.1671034185
21
101.1348324678
31
0.0000000000
11
94.0798239396
21
101.0732285518
31
0.0000000000
11
93.9805811475
21
101.0315033819
31
0.0000000000
11
93.8740781568
21
101.0116341195
31
0.0000000000
0
SPLINE
5
2D0
100
AcDbEntity
8
0
100
AcDbSpline
62
9
6
CONTINUOUS
70
0
71
3
72
16
73
12
74
10
42
0.0000001000
43
0.0000001000
44
0.0000000001
12
0.4314851794
22
1.5249930718
32
0.0000000000
13
1.4173891205
23
0.7090778590
33
0.0000000000
40
0.0000000000
40
0.0000000000
40
0.0000000000
40
0.0000000000
40
0.0910060620
40
0.1947585250
40
0.3070759131
40
0.4246170260
40
0.5444607235
40
0.6636003463
40
0.7787959525
40
0.8904623304
40
1.0000000000
40
1.0000000000
40
1.0000000000
40
1.0000000000
10
93.8740781751
20
101.0116339309
30
0.0000000000
10
93.8871674307
20
101.0578951356
30
0.0000000000
10
93.9168450921
20
101.1564513100
30
0.0000000000
10
93.9728434607
20
101.3088400856
30
0.0000000000
10
94.0462231442
20
101.4693180397
30
0.0000000000
10
94.1379814674
20
101.6299484626
30
0.0000000000
10
94.2463887142
20
101.7843958581
30
0.0000000000
10
94.3703042560
20
101.9250170914
30
0.0000000000
10
94.5044659539
20
102.0498010502
30
0.0000000000
10
94.6487422075
20
102.1539793282
30
0.0000000000
10
94.7487804033
20
102.2149789062
30
0.0000000000
10
94.8005329037
20
102.2408691516
30
0.0000000000
11
93.8740781751
21
101.0116339309
31
0.0000000000
11
93.9161775939
21
101.1495849657
31
0.0000000000
11
93.9731545807
21
101.3038311956
31
0.0000000000
11
94.0474030393
21
101.4656143978
31
0.0000000000
11
94.1398029095
21
101.6273699064
31
0.0000000000
11
94.2493553214
21
101.7825272033
31
0.0000000000
11
94.3739787238
21
101.9243788421
31
0.0000000000
11
94.5082405346
21
102.0480930307
31
0.0000000000
11
94.6509720174
21
102.1527262210
31
0.0000000000
11
94.8005329037
21
102.2408691516
31
0.0000000000
0
SPLINE
5
2D1
100
AcDbEntity
8
0
100
AcDbSpline
62
9
6
CONTINUOUS
70
0
71
3
72
13
73
9
74
7
42
0.0000001000
43
0.0000001000
44
0.0000000001
12
-1.4131377922
22
0.3253748086
32
0.0000000000
13
-1.3636435420
23
0.4932580220
33
0.0000000000
40
0.0000000000
40
0.0000000000
40
0.0000000000
40
0.0000000000
40
0.1271651463
40
0.2706152760
40
0.4294768071
40
0.6038329966
40
0.7940571711
40
1.0000000000
40
1.0000000000
40
1.0000000000
40
1.0000000000
10
119.8963585302
20
102.5008067977
30
0.0000000000
10
119.8364579055
20
102.5145989094
30
0.0000000000
10
119.7096479004
20
102.5468299961
30
0.0000000000
10
119.5100103665
20
102.6038259397
30
0.0000000000
10
119.2899201454
20
102.6720558380
30
0.0000000000
10
119.0495737744
20
102.7511487209
30
0.0000000000
10
118.7887928157
20
102.8408602729
30
0.0000000000
10
118.6083818753
20
102.9050785953
30
0.0000000000
10
118.5147710057
20
102.9389395794
30
0.0000000000
11
119.8963585302
21
102.5008067977
31
0.0000000000
11
119.7175037041
21
102.5457035220
31
0.0000000000
11
119.5173860375
21
102.6024905853
31
0.0000000000
11
119.2972684238
21
102.6704409831
31
0.0000000000
11
119.0570327769
21
102.7492632538
31
0.0000000000
11
118.7961329234
21
102.8388320292
31
0.0000000000
11
118.5147710057
21
102.9389395794
31
0.0000000000
0
SPLINE
5
2D2
100
AcDbEntity
8
0
100
AcDbSpline
62
7
6
CONTINUOUS
70
0
71
3
72
11
73
7
74
5
42
0.0000001000
43
0.0000001000
44
0.0000000001
12
-0.6213118863
22
-0.5256017479
32
0.0000000000
13
-0.8110994288
23
-0.0663579237
33
0.0000000000
40
0.0000000000
40
0.0000000000
40
0.0000000000
40
0.0000000000
40
0.1873868725
40
0.4110666985
40
0.6799518916
40
1.0000000000
40
1.0000000000
40
1.0000000000
40
1.0000000000
10
119.8963584551
20
102.5008179448
30
0.0000000000
10
119.8575498914
20
102.4679876556
30
0.0000000000
10
119.7647572217
20
102.4048379017
30
0.0000000000
10
119.5956644135
20
102.3288979698
30
0.0000000000
10
119.3821435265
20
102.2723635292
30
0.0000000000
10
119.2244368152
20
102.2436421473
30
0.0000000000
10
119.1379065359
20
102.2365629046
30
0.0000000000
11
119.8963584551
21
102.5008179448
31
0.0000000000
11
119.7709896790
21
102.4139959281
31
0.0000000000
11
119.6054765768
21
102.3382243692
31
0.0000000000
11
119.3949700886
21
102.2784767936
31
0.0000000000
11
119.1379065359
21
102.2365629046
31
0.0000000000
0
SPLINE
5
2D3
100
AcDbEntity
8
0
100
AcDbSpline
62
9
6
CONTINUOUS
70
0
71
3
72
10
73
6
74
4
42
0.0000001000
43
0.0000001000
44
0.0000000001
12
-0.1819838526
22
0.0632568926
32
0.0000000000
13
-0.1804577497
23
0.0674874628
33
0.0000000000
40
0.0000000000
40
0.0000000000
40
0.0000000000
40
0.0000000000
40
0.3356392028
40
0.6691297841
40
1.0000000000
40
1.0000000000
40
1.0000000000
40
1.0000000000
10
118.5147799530
20
102.9389478354
30
0.0000000000
10
118.4944196479
20
102.9460249997
30
0.0000000000
10
118.4538831752
20
102.9602893812
30
0.0000000000
10
118.3934682192
20
102.9820724637
30
0.0000000000
10
118.3534454202
20
102.9968585074
30
0.0000000000
10
118.3335427220
20
103.0043017046
30
0.0000000000
11
118.5147799530
21
102.9389478354
31
0.0000000000
11
118.4537809449
21
102.9604135177
31
0.0000000000
11
118.3933387686
21
102.9822087186
31
0.0000000000
11
118.3335427220
21
103.0043017046
31
0.0000000000
0
SPLINE
5
2D4
100
AcDbEntity
8
0
100
AcDbSpline
62
9
6
CONTINUOUS
70
0
71
3
72
15
73
11
74
9
42
0.0000001000
43
0.0000001000
44
0.0000000001
12
-0.0482746526
22
-0.8614943378
32
0.0000000000
13
-0.8628457875
23
0.0000030963
33
0.0000000000
40
0.0000000000
40
0.0000000000
40
0.0000000000
40
0.0000000000
40
0.1654823163
40
0.3241107339
40
0.4721784620
40
0.6066827174
40
0.7257035263
40
0.8289546143
40
0.9185871659
40
1.0000000000
40
1.0000000000
40
1.0000000000
40
1.0000000000
10
118.5147796004
20
102.9389415424
30
0.0000000000
10
118.5121167332
20
102.8914208496
30
0.0000000000
10
118.5028933250
20
102.7985132090
30
0.0000000000
10
118.4771027556
20
102.6649740600
30
0.0000000000
10
118.4403696906
20
102.5432420004
30
0.0000000000
10
118.3938473211
20
102.4371533127
30
0.0000000000
10
118.3388927717
20
102.3499266056
30
0.0000000000
10
118.2767729234
20
102.2841632802
30
0.0000000000
10
118.2085646011
20
102.2422232171
30
0.0000000000
10
118.1590067193
20
102.2322308441
30
0.0000000000
10
118.1355911456
20
102.2322309282
30
0.0000000000
11
118.5147796004
21
102.9389415424
31
0.0000000000
11
118.5004877618
21
102.7968728731
31
0.0000000000
11
118.4741764192
21
102.6625537760
31
0.0000000000
11
118.4367120501
21
102.5404106616
31
0.0000000000
11
118.3893286985
21
102.4344676912
31
0.0000000000
11
118.3335873590
21
102.3482151814
31
0.0000000000
11
118.2713245360
21
102.2844944835
31
0.0000000000
11
118.2045916311
21
102.2454041895
31
0.0000000000
11
118.1355911456
21
102.2322309282
31
0.0000000000
0
SPLINE
5
2D5
100
AcDbEntity
8
0
100
AcDbSpline
62
9
6
CONTINUOUS
70
0
71
3
72
15
73
11
74
9
42
0.0000001000
43
0.0000001000
44
0.0000000001
12
-0.0197728340
22
-0.9795367955
32
0.0000000000
13
-0.9797363414
23
-0.0000096048
33
0.0000000000
40
0.0000000000
40
0.0000000000
40
0.0000000000
40
0.0000000000
40
0.1556344838
40
0.3068181486
40
0.4501447904
40
0.5828713952
40
0.7033048289
40
0.8112836641
40
0.9087325310
40
1.0000000000
40
1.0000000000
40
1.0000000000
40
1.0000000000
10
118.3335404010
20
103.0043073198
30
0.0000000000
10
118.3325146228
20
102.9534907520
30
0.0000000000
10
118.3249900811
20
102.8533271124
30
0.0000000000
10
118.2973704097
20
102.7086074152
30
0.0000000000
10
118.2544609222
20
102.5754233978
30
0.0000000000
10
118.1977200843
20
102.4584818930
30
0.0000000000
10
118.1289692182
20
102.3618409458
30
0.0000000000
10
118.0501332463
20
102.2889445935
30
0.0000000000
10
117.9634031947
20
102.2429447391
30
0.0000000000
10
117.9013691160
20
102.2322337948
30
0.0000000000
10
117.8715630973
20
102.2322335026
30
0.0000000000
11
118.3335404010
21
103.0043073198
31
0.0000000000
11
118.3219731162
21
102.8522659438
31
0.0000000000
11
118.2938555724
21
102.7068390658
31
0.0000000000
11
118.2502207056
21
102.5733683715
31
0.0000000000
11
118.1926719631
21
102.4567588352
31
0.0000000000
11
118.1233242148
21
102.3612955407
31
0.0000000000
11
118.0447257857
21
102.2904860923
31
0.0000000000
11
117.9597648049
21
102.2469320577
31
0.0000000000
11
117.8715630973
21
102.2322335026
31
0.0000000000
0
SPLINE
5
2D6
100
AcDbEntity
8
0
100
AcDbSpline
62
9
6
CONTINUOUS
70
0
71
3
72
10
73
6
74
4
42
0.0000001000
43
0.0000001000
44
0.0000000001
12
-0.1804445740
22
-0.0674831748
32
0.0000000000
13
-0.1819710807
23
-0.0632514739
33
0.0000000000
40
0.0000000000
40
0.0000000000
40
0.0000000000
40
0.0000000000
40
0.3308737397
40
0.6643773491
40
1.0000000000
40
1.0000000000
40
1.0000000000
40
1.0000000000
10
95.5974182431
20
103.0043004669
30
0.0000000000
10
95.5775167861
20
102.9968576634
30
0.0000000000
10
95.5374957376
20
102.9820726673
30
0.0000000000
10
95.4770855990
20
102.9602898239
30
0.0000000000
10
95.4365519478
20
102.9460274000
30
0.0000000000
10
95.4161940756
20
102.9389511909
30
0.0000000000
11
95.5974182431
21
103.0043004669
31
0.0000000000
11
95.5376258623
21
102.9822088161
31
0.0000000000
11
95.4771858768
21
102.9604137499
31
0.0000000000
11
95.4161940756
21
102.9389511909
31
0.0000000000
0
SPLINE
5
2D7
100
AcDbEntity
8
0
100
AcDbSpline
62
9
6
CONTINUOUS
70
0
71
3
72
15
73
11
74
9
42
0.0000001000
43
0.0000001000
44
0.0000000001
12
0.0197424272
22
-0.9795402412
32
0.0000000000
13
0.9797391731
23
-0.0000095936
33
0.0000000000
40
0.0000000000
40
0.0000000000
40
0.0000000000
40
0.0000000000
40
0.1556339778
40
0.3068168617
40
0.4501430327
40
0.5828694589
40
0.7033029410
40
0.8112820946
40
0.9087315993
40
1.0000000000
40
1.0000000000
40
1.0000000000
40
1.0000000000
10
95.5974240675
20
103.0043073413
30
0.0000000000
10
95.5984482650
20
102.9534907600
30
0.0000000000
10
95.6059704378
20
102.8533269715
30
0.0000000000
10
95.6335899813
20
102.7086073407
30
0.0000000000
10
95.6764993939
20
102.5754233646
30
0.0000000000
10
95.7332407454
20
102.4584818864
30
0.0000000000
10
95.8019922722
20
102.3618409094
30
0.0000000000
10
95.8808291029
20
102.2889445328
30
0.0000000000
10
95.9675601816
20
102.2429446991
30
0.0000000000
10
96.0295949540
20
102.2322337944
30
0.0000000000
10
96.0594013632
20
102.2322335026
30
0.0000000000
11
95.5974240675
21
103.0043073413
31
0.0000000000
11
95.6089879667
21
102.8522657630
31
0.0000000000
11
95.6371047967
21
102.7068390902
31
0.0000000000
11
95.6807396701
21
102.5733684563
31
0.0000000000
11
95.7382888607
21
102.4567589171
31
0.0000000000
11
95.8076372533
21
102.3612956104
31
0.0000000000
11
95.8862364934
21
102.2904861395
31
0.0000000000
11
95.9711984708
21
102.2469320746
31
0.0000000000
11
96.0594013632
21
102.2322335026
31
0.0000000000
0
SPLINE
5
2D8
100
AcDbEntity
8
0
100
AcDbSpline
62
9
6
CONTINUOUS
70
0
71
3
72
13
73
9
74
7
42
0.0000001000
43
0.0000001000
44
0.0000000001
12
-1.3636445670
22
-0.4932169326
32
0.0000000000
13
-1.4132480988
23
-0.3248372809
33
0.0000000000
40
0.0000000000
40
0.0000000000
40
0.0000000000
40
0.0000000000
40
0.2058863096
40
0.3959971312
40
0.5701882978
40
0.7290036911
40
0.8724156821
40
1.0000000000
40
1.0000000000
40
1.0000000000
40
1.0000000000
10
95.4162031446
20
102.9389425666
30
0.0000000000
10
95.3226178954
20
102.9050936953
30
0.0000000000
10
95.1422861818
20
102.8409031051
30
0.0000000000
10
94.8816630817
20
102.7512370417
30
0.0000000000
10
94.6414611251
20
102.6722161558
30
0.0000000000
10
94.4215164051
20
102.6039304947
30
0.0000000000
10
94.2217190953
20
102.5469094996
30
0.0000000000
10
94.0947262713
20
102.5146529242
30
0.0000000000
10
94.0346235064
20
102.5008382099
30
0.0000000000
11
95.4162031446
21
102.9389425666
31
0.0000000000
11
95.1349206814
21
102.8388641948
31
0.0000000000
11
94.8741789804
21
102.7493485912
31
0.0000000000
11
94.6341742063
21
102.6705975356
31
0.0000000000
11
94.4141393679
21
102.6026128499
31
0.0000000000
11
94.2140757995
21
102.5458445722
31
0.0000000000
11
94.0346235064
21
102.5008382099
31
0.0000000000
0
SPLINE
5
2D9
100
AcDbEntity
8
0
100
AcDbSpline
62
9
6
CONTINUOUS
70
0
71
3
72
15
73
11
74
9
42
0.0000001000
43
0.0000001000
44
0.0000000001
12
0.0482765620
22
-0.8615035018
32
0.0000000000
13
0.8628550921
23
-0.0000013780
33
0.0000000000
40
0.0000000000
40
0.0000000000
40
0.0000000000
40
0.0000000000
40
0.1654721137
40
0.3240955346
40
0.4721597020
40
0.6066626577
40
0.7256846471
40
0.8289386493
40
0.9185748864
40
1.0000000000
40
1.0000000000
40
1.0000000000
40
1.0000000000
10
95.4162031446
20
102.9389425666
30
0.0000000000
10
95.4188659528
20
102.8914242982
30
0.0000000000
10
95.4280891862
20
102.7985200347
30
0.0000000000
10
95.4538793532
20
102.6649848076
30
0.0000000000
10
95.4906124487
20
102.5432542897
30
0.0000000000
10
95.5371353052
20
102.4371656137
30
0.0000000000
10
95.5920910544
20
102.3499374150
30
0.0000000000
10
95.6542129424
20
102.2841716187
30
0.0000000000
10
95.7224258881
20
102.2422272679
30
0.0000000000
10
95.7719889060
20
102.2322328874
30
0.0000000000
10
95.7954082640
20
102.2322328500
30
0.0000000000
11
95.4162031446
21
102.9389425666
31
0.0000000000
11
95.4304944819
21
102.7968811533
31
0.0000000000
11
95.4568055928
21
102.6625649002
31
0.0000000000
11
95.4942698758
21
102.5404235320
31
0.0000000000
11
95.5416536158
21
102.4344805928
31
0.0000000000
11
95.5973962008
21
102.3482263566
31
0.0000000000
11
95.6596611572
21
102.2845028845
31
0.0000000000
11
95.7263968499
21
102.2454094079
31
0.0000000000
11
95.7954082640
21
102.2322328500
31
0.0000000000
0
SPLINE
5
2DA
100
AcDbEntity
8
0
100
AcDbSpline
62
7
6
CONTINUOUS
70
0
71
3
72
10
73
6
74
4
42
0.0000001000
43
0.0000001000
44
0.0000000001
12
-0.1643598964
22
0.0000169118
32
0.0000000000
13
-0.1638412846
23
0.0130464284
33
0.0000000000
40
0.0000000000
40
0.0000000000
40
0.0000000000
40
0.0000000000
40
0.3414202817
40
0.6745420480
40
1.0000000000
40
1.0000000000
40
1.0000000000
40
1.0000000000
10
94.9685703572
20
102.2322320631
30
0.0000000000
10
94.9498650898
20
102.2322339877
30
0.0000000000
10
94.9129062832
20
102.2330525993
30
0.0000000000
10
94.8582012177
20
102.2361435424
30
0.0000000000
10
94.8222238171
20
102.2388944173
30
0.0000000000
10
94.8044493341
20
102.2403097719
30
0.0000000000
11
94.9685703572
21
102.2322320631
31
0.0000000000
11
94.9124664431
21
102.2333870977
31
0.0000000000
11
94.8577948238
21
102.2363502273
31
0.0000000000
11
94.8044493341
21
102.2403097719
31
0.0000000000
0
SPLINE
5
2DB
100
AcDbEntity
8
0
100
AcDbSpline
62
7
6
CONTINUOUS
70
0
71
3
72
11
73
7
74
5
42
0.0000001000
43
0.0000001000
44
0.0000000001
12
-0.8179470368
22
0.0651894812
32
0.0000000000
13
-0.6258265371
23
0.5306865071
33
0.0000000000
40
0.0000000000
40
0.0000000000
40
0.0000000000
40
0.0000000000
40
0.3076308582
40
0.5793929783
40
0.8105181801
40
1.0000000000
40
1.0000000000
40
1.0000000000
40
1.0000000000
10
94.8005329037
20
102.2408691516
30
0.0000000000
10
94.7166576541
20
102.2475539170
30
0.0000000000
10
94.5591364963
20
102.2685171367
30
0.0000000000
10
94.3442743827
20
102.3259156532
30
0.0000000000
10
94.1700653756
20
102.4023072184
30
0.0000000000
10
94.0741542990
20
102.4673234779
30
0.0000000000
10
94.0346267152
20
102.5008419596
30
0.0000000000
11
94.8005329037
21
102.2408691516
31
0.0000000000
11
94.5504922692
21
102.2754722355
31
0.0000000000
11
94.3354814480
21
102.3345968845
31
0.0000000000
11
94.1625824734
21
102.4125210087
31
0.0000000000
11
94.0346267152
21
102.5008419596
31
0.0000000000
0
SPLINE
5
2DC
100
AcDbEntity
8
0
100
AcDbSpline
62
7
6
CONTINUOUS
70
0
71
3
72
19
73
15
74
13
42
0.0000001000
43
0.0000001000
44
0.0000000001
12
-8.4892336310
22
-3.6157222284
32
0.0000000000
13
-8.4892336310
23
3.6157222284
33
0.0000000000
40
0.0000000000
40
0.0000000000
40
0.0000000000
40
0.0000000000
40
0.0921422197
40
0.1792314964
40
0.2624827404
40
0.3429902552
40
0.4218918348
40
0.4999999846
40
0.5781081597
40
0.6570097850
40
0.7375173006
40
0.8207685333
40
0.9078577932
40
1.0000000000
40
1.0000000000
40
1.0000000000
40
1.0000000000
10
111.4376181885
20
128.3322335025
30
0.0000000000
10
111.1768792451
20
128.2211799452
30
0.0000000000
10
110.6639792625
20
128.0182067496
30
0.0000000000
10
109.8967267531
20
127.7654656431
30
0.0000000000
10
109.1494569287
20
127.5712033579
30
0.0000000000
10
108.4153312957
20
127.4332555217
30
0.0000000000
10
107.6888089818
20
127.3506415838
30
0.0000000000
10
106.9654822979
20
127.3231046212
30
0.0000000000
10
106.2421554724
20
127.3506415765
30
0.0000000000
10
105.5156329396
20
127.4332555517
30
0.0000000000
10
104.7815072051
20
127.5712034341
30
0.0000000000
10
104.0342374678
20
127.7654657189
30
0.0000000000
10
103.2669850822
20
128.0182067970
30
0.0000000000
10
102.7540851855
20
128.2211799607
30
0.0000000000
10
102.4933462785
20
128.3322335025
30
0.0000000000
11
111.4376181885
21
128.3322335025
31
0.0000000000
11
110.6466110839
21
128.0205173442
31
0.0000000000
11
109.8830182860
21
127.7701615739
31
0.0000000000
11
109.1393218545
21
127.5777946040
31
0.0000000000
11
108.4091108469
21
127.4413143858
31
0.0000000000
11
107.6856832634
21
127.3595130233
31
0.0000000000
11
106.9654823754
21
127.3322526317
31
0.0000000000
11
106.2452812542
21
127.3595130195
31
0.0000000000
11
105.5218532528
21
127.4413144410
31
0.0000000000
11
104.7916422429
21
127.5777946865
31
0.0000000000
11
104.0479459178
21
127.7701616512
31
0.0000000000
11
103.2843532714
21
128.0205173846
31
0.0000000000
11
102.4933462785
21
128.3322335025
31
0.0000000000
0
ENDSEC
0
SECTION
2
OBJECTS
0
DICTIONARY
5
C
100
AcDbDictionary
280
0
281
1
3
ACAD_GROUP
350
D
3
ACAD_MLINESTYLE
350
17
3
ACAD_LAYOUT
350
1A
3
ACAD_PLOTSETTINGS
350
19
3
ACAD_PLOTSTYLENAME
350
E
0
DICTIONARY
5
D
102
{ACAD_REACTORS
330
C
102
}
100
AcDbDictionary
280
0
281
1
0
ACDBDICTIONARYWDFLT
5
E
102
{ACAD_REACTORS
330
C
102
}
100
AcDbDictionary
281
1
3
Normal
350
F
100
AcDbDictionaryWithDefault
340
F
0
DICTIONARY
5
17
102
{ACAD_REACTORS
330
C
102
}
100
AcDbDictionary
280
0
281
1
3
Standard
350
18
0
DICTIONARY
5
19
102
{ACAD_REACTORS
330
C
102
}
100
AcDbDictionary
281
1
0
DICTIONARY
5
1A
102
{ACAD_REACTORS
330
C
102
}
100
AcDbDictionary
281
1
3
Layout1
350
1E
3
Model
350
22
0
ACDBPLACEHOLDER
5
F
102
{ACAD_REACTORS
330
E
102
}
0
MLINESTYLE
5
18
102
{ACAD_REACTORS
330
17
102
}
100
AcDbMlineStyle
2
STANDARD
70
0
3

62
256
51
90.0
52
90.0
71
2
49
0.5
62
256
6
BYLAYER
49
-0.5
62
256
6
BYLAYER
0
LAYOUT
5
1E
102
{ACAD_REACTORS
330
1A
102
}
100
AcDbPlotSettings
1

2

4

6

40
0.0
41
0.0
42
0.0
43
0.0
44
0.0
45
0.0
46
0.0
47
0.0
48
0.0
49
0.0
140
0.0
141
0.0
142
1.0
143
1.0
70
0
72
0
73
0
74
0
7

75
0
147
1.0
148
0.0
149
0.0
100
AcDbLayout
1
Layout1
70
0
71
0
10
0.0
20
0.0
11
0.0
21
0.0
12
0.0
22
0.0
32
0.0
14
0.0
24
0.0
34
0.0
15
0.0
25
0.0
35
0.0
146
0.0
13
0.0
23
0.0
33
0.0
16
0.0
26
0.0
36
0.0
17
0.0
27
0.0
37
0.0
76
0
330
1B
331
0
345
0
346
0
0
LAYOUT
5
22
102
{ACAD_REACTORS
330
1A
102
}
100
AcDbPlotSettings
1

2

4

6

40
0.0
41
0.0
42
0.0
43
0.0
44
0.0
45
0.0
46
0.0
47
0.0
48
0.0
49
0.0
140
0.0
141
0.0
142
1.0
143
1.0
70
0
72
0
73
0
74
0
7

75
0
147
1.0
148
0.0
149
0.0
100
AcDbLayout
1
Model
70
0
71
0
10
0.0
20
0.0
11
0.0
21
0.0
12
0.0
22
0.0
32
0.0
14
0.0
24
0.0
34
0.0
15
0.0
25
0.0
35
0.0
146
0.0
13
0.0
23
0.0
33
0.0
16
0.0
26
0.0
36
0.0
17
0.0
27
0.0
37
0.0
76
0
330
1F
331
0
345
0
346
0
0
ENDSEC
0
EOF
