0
SECTION
2
HEADER
9
$EXTMAX
10
210.0000000000
20
297.0000000000
30
0.0000000000
9
$EXTMIN
10
0.0000000000
20
0.0000000000
30
0.0000000000
9
$LIMMIN
10
0.0000000000
20
0.0000000000
9
$LIMMAX
10
210.0000000000
20
297.0000000000
9
$VIEWCTR
10
105.0000000000
20
148.5000000000
9
$VIEWSIZE
40
297.0000000000
9
$CLAYER
8
0
9
$LTSCALE
40
19.3600000000
9
$CELTYPE
6
BYLAYER
9
$DIMSCALE
40
1
9
$DIMASZ
40
3.5000000000
9
$DIMEXO
40
2.2000000000
9
$DIMDLI
40
13.3760000000
9
$DIMEXE
40
6.3360000000
9
$DIMCEN
40
3.1680000000
9
$DIMLFAC
40
1.0000000000
9
$DIMBLK
1
_FILLED
9
$DIMTXT
40
3.5000000000
9
$PDMODE
70
3
9
$PDSIZE
40
0.3125000000
0
ENDSEC
0
SECTION
2
TABLES
0
TABLE
2
LTYPE
70
6
0
LTYPE
2
BYBLOCK
70
0
3

72
65
73
0
40
0.0
0
LTYPE
2
BYLAYER
70
0
3

72
65
73
0
40
0.0
0
LTYPE
2
CONTINUOUS
70
64
3
Solid line
72
65
73
0
40
0
0
LTYPE
2
CENTER
70
64
3
____ _ ____ _ ____ _ ____ _ ____ _ ____ _ ____
72
65
73
4
40
0.6
49
0.375
49
-0.075
49
0.075
49
-0.075
0
LTYPE
2
HIDDEN
70
64
3
- - - - - - - - - - - - - - - - - - - -
72
65
73
2
40
0.2
49
0.1
49
-0.1
0
LTYPE
2
PHANTOM
70
64
3
_____ _ _ _____ _ _ _____ _ _ _____
72
65
73
6
40
0.8
49
0.45
49
-0.05
49
0.1
49
-0.05
49
0.1
49
-0.05
0
LTYPE
2
DOT
70
64
3
. . . . . . . . . . . . . . . . . . . .
72
65
73
2
40
0.2
49
0.1
49
-0.1
0
LTYPE
2
DASHED
70
64
3
- - - - - - - - - - - - - - - - - - - -
72
65
73
2
40
0.2
49
0.1
49
-0.1
0
ENDTAB
0
TABLE
2
LAYER
70
36
0
LAYER
2
0
70
0
62
7
6
CONTINUOUS
0
LAYER
2
DEFAULT_1
70
0
62
7
6
CENTER
0
LAYER
2
DEFAULT_2
70
0
62
8
6
HIDDEN
0
LAYER
2
DEFAULT_3
70
0
62
7
6
PHANTOM
0
LAYER
2
ASSI
70
0
62
7
6
CONTINUOUS
0
LAYER
2
PIANI
70
0
62
7
6
CONTINUOUS
0
ENDTAB
0
TABLE
2
STYLE
70
1
0
STYLE
2
STANDARD
70
0
40
0.0
41
0.7143000000
50
0.0
71
0
42
0.2
3
txt
4

0
ENDTAB
0
ENDSEC
0
SECTION
2
BLOCKS
0
BLOCK
8
0
62
2
6
CONTINUOUS
2
*D0
70
65
10
0.0000000000
20
0.0000000000
0
TEXT
8
0
62
2
6
CONTINUOUS
10
74.6445586760
20
179.4976182297
7
STANDARD
40
3.5000000000
1
218.9
50
90.0000000000
41
0.7143000000
72
0
0
LINE
8
0
62
2
6
CONTINUOUS
10
109.9724172518
20
286.9418254764
11
74.0195586760
21
286.9418254764
0
LINE
8
0
62
2
6
CONTINUOUS
10
109.9724172518
20
68.0418254764
11
74.0195586760
21
68.0418254764
0
LINE
8
0
62
2
6
CONTINUOUS
10
75.5195586760
20
286.9418254764
11
75.5195586760
21
177.4918254764
0
LINE
8
0
62
2
6
CONTINUOUS
10
75.5195586760
20
68.0418254764
11
75.5195586760
21
177.4918254764
0
INSERT
8
0
62
2
6
CONTINUOUS
2
_FILLED
10
75.5195586760
20
286.9418254764
41
  3.500000
42
  3.500000
43
  3.500000
50
 90.000000
0
INSERT
8
0
62
2
6
CONTINUOUS
2
_FILLED
10
75.5195586760
20
68.0418254764
41
  3.500000
42
  3.500000
43
  3.500000
50
270.000000
0
ENDBLK
8
0
6
BYBLOCK
62
0
0
BLOCK
8
0
62
2
6
CONTINUOUS
2
*D1
70
65
10
0.0000000000
20
0.0000000000
0
TEXT
8
0
62
2
6
CONTINUOUS
10
33.2541245854
20
152.3086493174
7
STANDARD
40
3.5000000000
1
273
50
90.0000000000
41
0.7143000000
72
0
0
LINE
8
0
62
2
6
CONTINUOUS
10
101.5889980055
20
286.9418254764
11
32.6291245854
21
286.9418254764
0
LINE
8
0
62
2
6
CONTINUOUS
10
48.3986211414
20
13.9418254764
11
32.6291245854
21
13.9418254764
0
LINE
8
0
62
2
6
CONTINUOUS
10
34.1291245854
20
286.9418254764
11
34.1291245854
21
150.4418254764
0
LINE
8
0
62
2
6
CONTINUOUS
10
34.1291245854
20
13.9418254764
11
34.1291245854
21
150.4418254764
0
INSERT
8
0
62
2
6
CONTINUOUS
2
_FILLED
10
34.1291245854
20
286.9418254764
41
  3.500000
42
  3.500000
43
  3.500000
50
 90.000000
0
INSERT
8
0
62
2
6
CONTINUOUS
2
_FILLED
10
34.1291245854
20
13.9418254764
41
  3.500000
42
  3.500000
43
  3.500000
50
270.000000
0
ENDBLK
8
0
6
BYBLOCK
62
0
0
BLOCK
8
0
62
2
6
CONTINUOUS
2
*D2
70
65
10
0.0000000000
20
0.0000000000
0
TEXT
8
0
62
2
6
CONTINUOUS
10
106.0162238967
20
292.5404964895
7
STANDARD
40
3.5000000000
1
M
41
0.7143000000
72
0
0
TEXT
8
0
62
2
6
CONTINUOUS
10
108.5162738967
20
292.5404964895
7
STANDARD
40
3.5000000000
1
20
41
0.7143000000
72
0
0
LINE
8
0
62
2
6
CONTINUOUS
10
100.4724172518
20
284.6418254764
11
100.4724172518
21
293.1654964895
0
LINE
8
0
62
2
6
CONTINUOUS
10
120.4724172518
20
284.6418254764
11
120.4724172518
21
293.1654964895
0
LINE
8
0
62
2
6
CONTINUOUS
10
100.4724172518
20
291.6654964895
11
110.4724172518
21
291.6654964895
0
LINE
8
0
62
2
6
CONTINUOUS
10
120.4724172518
20
291.6654964895
11
110.4724172518
21
291.6654964895
0
INSERT
8
0
62
2
6
CONTINUOUS
2
_FILLED
10
100.4724172518
20
291.6654964895
41
  3.500000
42
  3.500000
43
  3.500000
50
180.000000
0
INSERT
8
0
62
2
6
CONTINUOUS
2
_FILLED
10
120.4724172518
20
291.6654964895
41
  3.500000
42
  3.500000
43
  3.500000
0
ENDBLK
8
0
6
BYBLOCK
62
0
0
BLOCK
8
0
62
2
6
CONTINUOUS
2
*D3
70
65
10
0.0000000000
20
0.0000000000
0
TEXT
8
0
62
2
6
CONTINUOUS
10
107.1295555332
20
5.3319903291
7
STANDARD
40
3.5000000000
1
%%c
41
1.3333333333
72
0
0
TEXT
8
0
62
2
6
CONTINUOUS
10
111.7962221999
20
5.3319903291
7
STANDARD
40
3.5000000000
1
124
41
0.7143000000
72
0
0
LINE
8
0
62
2
6
CONTINUOUS
10
172.5462133621
20
13.9418254764
11
172.5462133621
21
2.9569903291
0
LINE
8
0
62
2
6
CONTINUOUS
10
48.3986211414
20
13.9418254764
11
48.3986211414
21
2.9569903291
0
LINE
8
0
62
2
6
CONTINUOUS
10
172.5462133621
20
4.4569903291
11
110.4724172518
21
4.4569903291
0
LINE
8
0
62
2
6
CONTINUOUS
10
48.3986211414
20
4.4569903291
11
110.4724172518
21
4.4569903291
0
INSERT
8
0
62
2
6
CONTINUOUS
2
_FILLED
10
172.5462133621
20
4.4569903291
41
  3.500000
42
  3.500000
43
  3.500000
0
INSERT
8
0
62
2
6
CONTINUOUS
2
_FILLED
10
48.3986211414
20
4.4569903291
41
  3.500000
42
  3.500000
43
  3.500000
50
180.000000
0
ENDBLK
8
0
6
BYBLOCK
62
0
0
BLOCK
8
0
2
_FILLED
70
64
10
0.0000000000
20
0.0000000000
0
SOLID
8
0
6
BYBLOCK
62
0
10
0.0000000000
20
0.0000000000
11
-1.0000000000
21
0.1857142857
12
-1.0000000000
22
-0.1857142857
13
-1.0000000000
23
-0.1857142857
0
ENDBLK
8
0
6
BYBLOCK
62
0
0
ENDSEC
0
SECTION
2
ENTITIES
0
DIMENSION
8
0
62
2
6
CONTINUOUS
2
*D0
10
75.5195586760
20
68.0418254764
11
72.8945586760
21
185.7477432297
70
128
13
109.9724172518
23
286.9418254764
14
109.9724172518
24
68.0418254764
50
270.000000
0
DIMENSION
8
0
62
2
6
CONTINUOUS
2
*D1
10
34.1291245854
20
13.9418254764
11
31.5041245854
21
156.0587243174
70
128
13
101.5889980055
23
286.9418254764
14
48.3986211414
24
13.9418254764
50
270.000000
0
DIMENSION
8
0
62
2
6
CONTINUOUS
2
*D2
10
120.4724172518
20
291.6654964895
11
109.7662988967
21
294.2904964895
70
128
13
100.4724172518
23
284.6418254764
14
120.4724172518
24
284.6418254764
0
DIMENSION
8
0
62
2
6
CONTINUOUS
2
*D3
10
48.3986211414
20
4.4569903291
11
113.2129638665
21
7.0819903291
70
128
13
172.5462133621
23
13.9418254764
14
48.3986211414
24
13.9418254764
50
180.000000
0
LINE
8
0
62
7
6
CONTINUOUS
10
0.0000000000
20
0.0000000000
11
210.0000000000
21
0.0000000000
0
LINE
8
0
62
7
6
CONTINUOUS
10
0.0000000000
20
0.0000000000
11
0.0000000000
21
297.0000000000
0
LINE
8
0
62
7
6
CONTINUOUS
10
210.0000000000
20
0.0000000000
11
210.0000000000
21
297.0000000000
0
LINE
8
0
62
7
6
CONTINUOUS
10
0.0000000000
20
297.0000000000
11
210.0000000000
21
297.0000000000
0
LINE
8
0
62
7
6
CONTINUOUS
10
48.8986211414
20
13.9418254764
11
48.3986211414
21
14.4418254764
0
LINE
8
0
62
7
6
CONTINUOUS
10
49.0639789732
20
13.9418254764
11
171.8808555303
21
13.9418254764
0
LINE
8
0
62
7
6
CONTINUOUS
10
48.3986211414
20
14.4418254764
11
172.5462133621
21
14.4418254764
0
POLYLINE
8
0
62
9
6
CONTINUOUS
66
1
70
0
0
VERTEX
8
0
62
9
6
CONTINUOUS
10
167.7804030491
20
33.3062826656
0
VERTEX
8
0
62
9
6
CONTINUOUS
10
167.9991799623
20
33.3363708777
0
VERTEX
8
0
62
9
6
CONTINUOUS
10
168.2070833805
20
33.3563331281
0
VERTEX
8
0
62
9
6
CONTINUOUS
10
168.3937802352
20
33.3651772673
0
VERTEX
8
0
62
9
6
CONTINUOUS
10
168.5499914518
20
33.3624637300
0
VERTEX
8
0
62
9
6
CONTINUOUS
10
168.6679531310
20
33.3483273826
0
VERTEX
8
0
62
9
6
CONTINUOUS
10
168.7418485303
20
33.3234434875
0
SEQEND
0
LINE
8
0
62
7
6
CONTINUOUS
10
48.9662297640
20
22.1122053650
11
171.9786047395
21
22.1122053650
0
LINE
8
0
62
9
6
CONTINUOUS
10
169.2351234051
20
30.2624071969
11
51.7097108189
21
30.2624071969
0
LINE
8
0
62
9
6
CONTINUOUS
10
52.7377511230
20
33.3563331281
11
52.5510542683
21
33.3651772673
0
LINE
8
0
62
9
6
CONTINUOUS
10
52.7375689387
20
33.3563464075
11
52.9454575408
21
33.3363939661
0
LINE
8
0
62
9
6
CONTINUOUS
10
53.1644314544
20
33.3062826656
11
52.9456545412
21
33.3363708777
0
LINE
8
0
62
9
6
CONTINUOUS
10
53.7467386443
20
31.8731638748
11
53.6439281010
21
31.8619817724
0
LINE
8
0
62
9
6
CONTINUOUS
10
73.6275152568
20
33.5509784638
11
73.7914345719
21
33.5672186559
0
LINE
8
0
62
9
6
CONTINUOUS
10
60.4620008772
20
32.8599650287
11
53.7043352885
21
32.2844518624
0
LINE
8
0
62
9
6
CONTINUOUS
10
62.3233740266
20
32.6029177643
11
53.7467373791
21
31.8731787369
0
LINE
8
0
62
9
6
CONTINUOUS
10
69.5024654144
20
33.2074677159
11
62.2698697203
21
32.5983870327
0
LINE
8
0
62
9
6
CONTINUOUS
10
73.6275158804
20
33.5509708979
11
69.4796431751
21
33.2055580134
0
POLYLINE
8
0
62
9
6
CONTINUOUS
66
1
70
0
0
VERTEX
8
0
62
9
6
CONTINUOUS
10
73.5864738140
20
33.9622440559
0
VERTEX
8
0
62
9
6
CONTINUOUS
10
70.3560166411
20
33.6935406743
0
VERTEX
8
0
62
9
6
CONTINUOUS
10
67.0918051490
20
33.4200595785
0
VERTEX
8
0
62
9
6
CONTINUOUS
10
60.4620008772
20
32.8599650287
0
SEQEND
0
POLYLINE
8
0
62
9
6
CONTINUOUS
66
1
70
0
0
VERTEX
8
0
62
9
6
CONTINUOUS
10
144.8335723603
20
34.9418215330
0
VERTEX
8
0
62
9
6
CONTINUOUS
10
144.8027937379
20
34.9395962732
0
VERTEX
8
0
62
9
6
CONTINUOUS
10
144.7791513938
20
34.9331792701
0
VERTEX
8
0
62
9
6
CONTINUOUS
10
144.7624786445
20
34.9230329921
0
VERTEX
8
0
62
9
6
CONTINUOUS
10
144.7522244954
20
34.9095980279
0
VERTEX
8
0
62
9
6
CONTINUOUS
10
144.7480442310
20
34.8933058126
0
VERTEX
8
0
62
9
6
CONTINUOUS
10
144.7497326872
20
34.8743093088
0
VERTEX
8
0
62
9
6
CONTINUOUS
10
144.7572082667
20
34.8527211687
0
VERTEX
8
0
62
9
6
CONTINUOUS
10
144.7704094584
20
34.8286538347
0
VERTEX
8
0
62
9
6
CONTINUOUS
10
144.7896018879
20
34.8020591303
0
VERTEX
8
0
62
9
6
CONTINUOUS
10
144.8152134646
20
34.7730157895
0
SEQEND
0
LINE
8
0
62
9
6
CONTINUOUS
10
54.1373044075
20
34.1154736541
11
54.0482398507
21
34.1116505042
0
LINE
8
0
62
9
6
CONTINUOUS
10
54.1373044134
20
34.9417606889
11
53.9837049238
21
34.9358653079
0
POLYLINE
8
0
62
9
6
CONTINUOUS
66
1
70
0
0
VERTEX
8
0
62
9
6
CONTINUOUS
10
54.1373044075
20
34.9418250421
0
VERTEX
8
0
62
9
6
CONTINUOUS
10
53.9836441443
20
34.9359071167
0
VERTEX
8
0
62
9
6
CONTINUOUS
10
53.8312292931
20
34.9182105146
0
SEQEND
0
LINE
8
0
62
9
6
CONTINUOUS
10
167.1980971119
20
31.8731786023
11
53.7467380847
21
31.8731786023
0
LINE
8
0
62
9
6
CONTINUOUS
10
52.2029861250
20
33.3234434672
11
50.9798659474
21
33.3234434672
0
LINE
8
0
62
9
6
CONTINUOUS
10
168.7418483785
20
33.3234434672
11
169.9649685561
21
33.3234434672
0
LINE
8
0
62
9
6
CONTINUOUS
10
147.3173186147
20
33.5509707957
11
73.6275152389
21
33.5509707957
0
LINE
8
0
62
9
6
CONTINUOUS
10
74.4636211056
20
34.1154736541
11
54.1373044075
21
34.1154736541
0
LINE
8
0
62
9
6
CONTINUOUS
10
146.4812133979
20
34.1154736541
11
166.8075300960
21
34.1154736541
0
LINE
8
0
62
7
6
CONTINUOUS
10
139.8254532948
20
34.9418254764
11
168.0016490823
21
34.9418254764
0
LINE
8
0
62
7
6
CONTINUOUS
10
81.1193812065
20
34.9418254764
11
52.9431854213
21
34.9418254764
0
LINE
8
0
62
9
6
CONTINUOUS
10
143.4725041182
20
36.0319442862
11
77.4723307929
21
36.0319442862
0
POLYLINE
8
0
62
9
6
CONTINUOUS
66
1
70
0
0
VERTEX
8
0
62
9
6
CONTINUOUS
10
166.8075300901
20
34.9417606889
0
VERTEX
8
0
62
9
6
CONTINUOUS
10
166.9611295797
20
34.9358653079
0
VERTEX
8
0
62
9
6
CONTINUOUS
10
167.1135437743
20
34.9182194687
0
VERTEX
8
0
62
9
6
CONTINUOUS
10
167.2637909554
20
34.8888804889
0
SEQEND
0
LINE
8
0
62
9
6
CONTINUOUS
10
166.8075300960
20
34.1154736540
11
166.8965946528
21
34.1116505042
0
LINE
8
0
62
9
6
CONTINUOUS
10
151.3784432968
20
33.2128121449
11
147.3173186185
21
33.5509708390
0
POLYLINE
8
0
62
9
6
CONTINUOUS
66
1
70
0
0
VERTEX
8
0
62
9
6
CONTINUOUS
10
153.8498092860
20
33.4203303124
0
VERTEX
8
0
62
9
6
CONTINUOUS
10
150.5868214538
20
33.6937026537
0
VERTEX
8
0
62
9
6
CONTINUOUS
10
147.3583606895
20
33.9622440559
0
SEQEND
0
LINE
8
0
62
9
6
CONTINUOUS
10
155.9998844960
20
32.8244930127
11
151.3784432968
21
33.2128121449
0
LINE
8
0
62
9
6
CONTINUOUS
10
160.4794806726
20
32.8602496179
11
153.8498092860
21
33.4203303124
0
LINE
8
0
62
9
6
CONTINUOUS
10
161.2474372956
20
32.3801968961
11
155.9998844960
21
32.8244930127
0
LINE
8
0
62
9
6
CONTINUOUS
10
167.1980971139
20
31.8731786254
11
161.2474372956
21
32.3801968961
0
LINE
8
0
62
9
6
CONTINUOUS
10
167.2404992149
20
32.2844518625
11
160.4794806726
21
32.8602496179
0
POLYLINE
8
0
62
9
6
CONTINUOUS
66
1
70
0
0
VERTEX
8
0
62
9
6
CONTINUOUS
10
147.3583606895
20
33.9622440559
0
VERTEX
8
0
62
9
6
CONTINUOUS
10
147.2091596247
20
33.9768700685
0
VERTEX
8
0
62
9
6
CONTINUOUS
10
147.0610026058
20
33.9959076287
0
VERTEX
8
0
62
9
6
CONTINUOUS
10
146.9140810836
20
34.0193094629
0
VERTEX
8
0
62
9
6
CONTINUOUS
10
146.7684358818
20
34.0470535669
0
VERTEX
8
0
62
9
6
CONTINUOUS
10
146.6240924547
20
34.0791234532
0
VERTEX
8
0
62
9
6
CONTINUOUS
10
146.4812133980
20
34.1154736541
0
SEQEND
0
POLYLINE
8
0
62
9
6
CONTINUOUS
66
1
70
0
0
VERTEX
8
0
62
9
6
CONTINUOUS
10
147.3173192467
20
33.5509784638
0
VERTEX
8
0
62
9
6
CONTINUOUS
10
147.1533999316
20
33.5672186559
0
VERTEX
8
0
62
9
6
CONTINUOUS
10
146.9905590161
20
33.5883684798
0
VERTEX
8
0
62
9
6
CONTINUOUS
10
146.8289705538
20
33.6143879567
0
VERTEX
8
0
62
9
6
CONTINUOUS
10
146.6687892660
20
33.6452356536
0
VERTEX
8
0
62
9
6
CONTINUOUS
10
146.5101508890
20
33.6808636139
0
VERTEX
8
0
62
9
6
CONTINUOUS
10
146.3531956009
20
33.7212214795
0
SEQEND
0
LINE
8
0
62
9
6
CONTINUOUS
10
168.6680416761
20
33.3483093586
11
168.5501180266
21
33.3624559293
0
POLYLINE
8
0
62
9
6
CONTINUOUS
66
1
70
0
0
VERTEX
8
0
62
9
6
CONTINUOUS
10
76.1811148214
20
34.9240726354
0
VERTEX
8
0
62
9
6
CONTINUOUS
10
76.1642742750
20
34.9337649606
0
VERTEX
8
0
62
9
6
CONTINUOUS
10
76.1409976915
20
34.9397587398
0
VERTEX
8
0
62
9
6
CONTINUOUS
10
76.1112842438
20
34.9418010268
0
SEQEND
0
LINE
8
0
62
9
6
CONTINUOUS
10
75.0363222615
20
34.2468211166
11
74.9050958521
21
34.2114247832
0
POLYLINE
8
0
62
9
6
CONTINUOUS
66
1
70
0
0
VERTEX
8
0
62
9
6
CONTINUOUS
10
53.2068045984
20
32.1922615034
0
VERTEX
8
0
62
9
6
CONTINUOUS
10
53.3281784096
20
32.2242205901
0
VERTEX
8
0
62
9
6
CONTINUOUS
10
53.4516495567
20
32.2503102112
0
VERTEX
8
0
62
9
6
CONTINUOUS
10
53.5771613071
20
32.2704322643
0
VERTEX
8
0
62
9
6
CONTINUOUS
10
53.7043352885
20
32.2844527974
0
SEQEND
0
POLYLINE
8
0
62
9
6
CONTINUOUS
66
1
70
0
0
VERTEX
8
0
62
9
6
CONTINUOUS
10
53.4423687416
20
31.8250047243
0
VERTEX
8
0
62
9
6
CONTINUOUS
10
53.3440968575
20
31.7993919286
0
VERTEX
8
0
62
9
6
CONTINUOUS
10
53.2477909240
20
31.7691616763
0
SEQEND
0
POLYLINE
8
0
62
9
6
CONTINUOUS
66
1
70
0
0
VERTEX
8
0
62
9
6
CONTINUOUS
10
74.5916389104
20
33.7212214512
0
VERTEX
8
0
62
9
6
CONTINUOUS
10
74.4346837678
20
33.6808636142
0
VERTEX
8
0
62
9
6
CONTINUOUS
10
74.2760455182
20
33.6452356865
0
VERTEX
8
0
62
9
6
CONTINUOUS
10
74.1158642816
20
33.6143880126
0
VERTEX
8
0
62
9
6
CONTINUOUS
10
73.9542757390
20
33.5883685348
0
VERTEX
8
0
62
9
6
CONTINUOUS
10
73.7914346726
20
33.5672186917
0
SEQEND
0
LINE
8
0
62
9
6
CONTINUOUS
10
74.7663047417
20
34.1775977644
11
74.9055223014
21
34.2115336536
0
POLYLINE
8
0
62
9
6
CONTINUOUS
66
1
70
0
0
VERTEX
8
0
62
9
6
CONTINUOUS
10
74.1763986218
20
34.0470535669
0
VERTEX
8
0
62
9
6
CONTINUOUS
10
74.3207420488
20
34.0791234532
0
VERTEX
8
0
62
9
6
CONTINUOUS
10
74.4636211056
20
34.1154736541
0
SEQEND
0
POLYLINE
8
0
62
9
6
CONTINUOUS
66
1
70
0
0
VERTEX
8
0
62
9
6
CONTINUOUS
10
74.7660786258
20
34.1775441322
0
VERTEX
8
0
62
9
6
CONTINUOUS
10
74.6188414645
20
34.1454201024
0
VERTEX
8
0
62
9
6
CONTINUOUS
10
74.4636211055
20
34.1154746074
0
SEQEND
0
LINE
8
0
62
9
6
CONTINUOUS
10
53.9631214010
20
34.1007286773
11
53.8743956664
21
34.0814336650
0
POLYLINE
8
0
62
9
6
CONTINUOUS
66
1
70
0
0
VERTEX
8
0
62
9
6
CONTINUOUS
10
53.4424287089
20
31.8250187645
0
VERTEX
8
0
62
9
6
CONTINUOUS
10
53.5424411263
20
31.8459109895
0
VERTEX
8
0
62
9
6
CONTINUOUS
10
53.6439604163
20
31.8619871793
0
SEQEND
0
LINE
8
0
62
9
6
CONTINUOUS
10
53.8312907292
20
34.9182194687
11
53.6810435481
21
34.8888804889
0
POLYLINE
8
0
62
9
6
CONTINUOUS
66
1
70
0
0
VERTEX
8
0
62
9
6
CONTINUOUS
10
74.1763988957
20
34.0470536013
0
VERTEX
8
0
62
9
6
CONTINUOUS
10
74.0307537431
20
34.0193095161
0
VERTEX
8
0
62
9
6
CONTINUOUS
10
73.8838321457
20
33.9959076801
0
VERTEX
8
0
62
9
6
CONTINUOUS
10
73.7356749830
20
33.9768700966
0
VERTEX
8
0
62
9
6
CONTINUOUS
10
73.5864738140
20
33.9622440559
0
SEQEND
0
LINE
8
0
62
9
6
CONTINUOUS
10
54.0500447168
20
34.1117931291
11
53.9603853107
21
34.1002545594
0
LINE
8
0
62
9
6
CONTINUOUS
10
166.8947897867
20
34.1117931291
11
166.9844491929
21
34.1002545594
0
LINE
8
0
62
9
6
CONTINUOUS
10
166.9817131025
20
34.1007286773
11
167.0704388371
21
34.0814336650
0
POLYLINE
8
0
62
9
6
CONTINUOUS
66
1
70
0
0
VERTEX
8
0
62
9
6
CONTINUOUS
10
146.3531960180
20
33.7212230466
0
VERTEX
8
0
62
9
6
CONTINUOUS
10
146.1372328604
20
33.7854913984
0
VERTEX
8
0
62
9
6
CONTINUOUS
10
145.9359333639
20
33.8551627949
0
SEQEND
0
LINE
8
0
62
9
6
CONTINUOUS
10
76.1811720050
20
34.9239652320
11
76.1919449070
21
34.9108678105
0
POLYLINE
8
0
62
9
6
CONTINUOUS
66
1
70
0
0
VERTEX
8
0
62
9
6
CONTINUOUS
10
53.0120019679
20
32.0136134522
0
VERTEX
8
0
62
9
6
CONTINUOUS
10
53.0511537245
20
31.9250938824
0
VERTEX
8
0
62
9
6
CONTINUOUS
10
53.0864384864
20
31.8497110479
0
VERTEX
8
0
62
9
6
CONTINUOUS
10
53.1161567109
20
31.7910958742
0
VERTEX
8
0
62
9
6
CONTINUOUS
10
53.1388769760
20
31.7520716475
0
VERTEX
8
0
62
9
6
CONTINUOUS
10
53.1536624548
20
31.7344215356
0
SEQEND
0
LINE
8
0
62
9
6
CONTINUOUS
10
52.9708692865
20
32.1110066567
11
53.0120023439
21
32.0136138324
0
POLYLINE
8
0
62
9
6
CONTINUOUS
66
1
70
0
0
VERTEX
8
0
62
9
6
CONTINUOUS
10
53.6809757377
20
34.8888701610
0
VERTEX
8
0
62
9
6
CONTINUOUS
10
53.5337464080
20
34.8480909778
0
VERTEX
8
0
62
9
6
CONTINUOUS
10
53.3904028077
20
34.7961356322
0
VERTEX
8
0
62
9
6
CONTINUOUS
10
53.2517570883
20
34.7333381191
0
SEQEND
0
LINE
8
0
62
7
6
CONTINUOUS
10
112.7230936949
20
59.2347259194
11
112.4013654255
21
59.1579508230
0
LINE
8
0
62
7
6
CONTINUOUS
10
112.4079758275
20
59.1594161413
11
112.0899902704
21
59.0944170747
0
LINE
8
0
62
7
6
CONTINUOUS
10
111.7800869348
20
59.0418254764
11
112.0935105584
21
59.0951012350
0
LINE
8
0
62
9
6
CONTINUOUS
10
87.8950669826
20
57.9418254764
11
133.0497675209
21
57.9418254764
0
LINE
8
0
62
7
6
CONTINUOUS
10
89.6271177901
20
58.9418254764
11
131.3177167134
21
58.9418254764
0
LINE
8
0
62
7
6
CONTINUOUS
10
93.4724172518
20
59.0418254764
11
127.4724172518
21
59.0418254764
0
LINE
8
0
62
7
6
CONTINUOUS
10
105.2045903753
20
60.4418254764
11
100.4724174592
21
60.4418254764
0
LINE
8
0
62
7
6
CONTINUOUS
10
115.7402441282
20
60.4418254764
11
120.4724170443
21
60.4418254764
0
LINE
8
0
62
7
6
CONTINUOUS
10
109.1647475687
20
59.0418254764
11
108.8513239451
21
59.0951012350
0
LINE
8
0
62
7
6
CONTINUOUS
10
108.8548442331
20
59.0944170747
11
108.5368586761
21
59.1594161413
0
LINE
8
0
62
7
6
CONTINUOUS
10
108.5434690780
20
59.1579508230
11
108.2217408086
21
59.2347259194
0
LINE
8
0
62
9
6
CONTINUOUS
10
167.2638587658
20
34.8888701610
11
167.4110880956
21
34.8480909778
0
LINE
8
0
62
9
6
CONTINUOUS
10
167.0677107815
20
34.0821478417
11
167.1538977620
21
34.0554074743
0
POLYLINE
8
0
62
9
6
CONTINUOUS
66
1
70
0
0
VERTEX
8
0
62
9
6
CONTINUOUS
10
167.6970109536
20
31.7691717633
0
VERTEX
8
0
62
9
6
CONTINUOUS
10
167.6006847159
20
31.7994071739
0
VERTEX
8
0
62
9
6
CONTINUOUS
10
167.5024057946
20
31.8250187645
0
VERTEX
8
0
62
9
6
CONTINUOUS
10
167.4023933772
20
31.8459109895
0
VERTEX
8
0
62
9
6
CONTINUOUS
10
167.3008740873
20
31.8619871793
0
VERTEX
8
0
62
9
6
CONTINUOUS
10
167.1980959858
20
31.8731653622
0
SEQEND
0
POLYLINE
8
0
62
9
6
CONTINUOUS
66
1
70
0
0
VERTEX
8
0
62
9
6
CONTINUOUS
10
145.5612077366
20
34.3589542014
0
VERTEX
8
0
62
9
6
CONTINUOUS
10
145.6703307395
20
34.3205276077
0
VERTEX
8
0
62
9
6
CONTINUOUS
10
145.7865211869
20
34.2829486831
0
VERTEX
8
0
62
9
6
CONTINUOUS
10
145.9099639438
20
34.2464104875
0
VERTEX
8
0
62
9
6
CONTINUOUS
10
146.0408647455
20
34.2111358786
0
VERTEX
8
0
62
9
6
CONTINUOUS
10
146.1795319186
20
34.1773649724
0
VERTEX
8
0
62
9
6
CONTINUOUS
10
146.3263929846
20
34.1453378937
0
VERTEX
8
0
62
9
6
CONTINUOUS
10
146.4812133980
20
34.1154745972
0
SEQEND
0
POLYLINE
8
0
62
9
6
CONTINUOUS
66
1
70
0
0
VERTEX
8
0
62
9
6
CONTINUOUS
10
167.4110016762
20
34.8480988534
0
VERTEX
8
0
62
9
6
CONTINUOUS
10
167.5543482564
20
34.7961683367
0
VERTEX
8
0
62
9
6
CONTINUOUS
10
167.6929997165
20
34.7333701142
0
SEQEND
0
LINE
8
0
62
9
6
CONTINUOUS
10
167.6970435795
20
31.7691616763
11
167.7911689293
21
31.7344144656
0
POLYLINE
8
0
62
9
6
CONTINUOUS
66
1
70
0
0
VERTEX
8
0
62
9
6
CONTINUOUS
10
167.9739652173
20
32.1110071429
0
VERTEX
8
0
62
9
6
CONTINUOUS
10
167.8572496972
20
32.1544854902
0
VERTEX
8
0
62
9
6
CONTINUOUS
10
167.7380299051
20
32.1922615034
0
VERTEX
8
0
62
9
6
CONTINUOUS
10
167.6166560939
20
32.2242205901
0
VERTEX
8
0
62
9
6
CONTINUOUS
10
167.4931849468
20
32.2503102112
0
VERTEX
8
0
62
9
6
CONTINUOUS
10
167.3676731964
20
32.2704322643
0
VERTEX
8
0
62
9
6
CONTINUOUS
10
167.2404992150
20
32.2844527974
0
SEQEND
0
LINE
8
0
62
9
6
CONTINUOUS
10
145.5612077366
20
34.3589542014
11
145.4573661217
21
34.3987054901
0
LINE
8
0
62
9
6
CONTINUOUS
10
145.7478957862
20
33.9295166290
11
145.9344901349
21
33.8556782104
0
LINE
8
0
62
9
6
CONTINUOUS
10
145.4590073230
20
34.3980382969
11
145.3618089031
21
34.4383596575
0
LINE
8
0
62
9
6
CONTINUOUS
10
145.3635914972
20
34.4376020949
11
145.2729984011
21
34.4782977225
0
LINE
8
0
62
9
6
CONTINUOUS
10
145.2749732386
20
34.4773993074
11
145.1909793745
21
34.5183057550
0
LINE
8
0
62
9
6
CONTINUOUS
10
145.5777556504
20
34.0053084313
11
145.4194919925
21
34.0839392529
0
LINE
8
0
62
7
6
CONTINUOUS
10
113.0400313020
20
59.3211633972
11
112.7137752737
21
59.2323412933
0
LINE
8
0
62
7
6
CONTINUOUS
10
115.7402441282
20
68.0418254764
11
105.2045901420
21
68.0418254764
0
LINE
8
0
62
7
6
CONTINUOUS
10
108.2310592298
20
59.2323412933
11
107.9048032015
21
59.3211633972
0
LINE
8
0
62
7
6
CONTINUOUS
10
107.9163033092
20
59.3178447693
11
107.5853230003
21
59.4187295309
0
LINE
8
0
62
7
6
CONTINUOUS
10
107.5983756096
20
59.4145373059
11
107.2623563918
21
59.5277756593
0
LINE
8
0
62
7
6
CONTINUOUS
10
107.2762562391
20
59.5228741614
11
106.9349564372
21
59.6485223156
0
LINE
8
0
62
7
6
CONTINUOUS
10
106.9489089833
20
59.6431686508
11
106.6024096585
21
59.7813628725
0
POLYLINE
8
0
62
9
6
CONTINUOUS
66
1
70
0
0
VERTEX
8
0
62
9
6
CONTINUOUS
10
167.1517215543
20
34.0561845642
0
VERTEX
8
0
62
9
6
CONTINUOUS
10
167.2328209013
20
34.0230881834
0
VERTEX
8
0
62
9
6
CONTINUOUS
10
167.3102354368
20
33.9831744908
0
VERTEX
8
0
62
9
6
CONTINUOUS
10
167.3830742866
20
33.9370623429
0
VERTEX
8
0
62
9
6
CONTINUOUS
10
167.4511650805
20
33.8850194818
0
SEQEND
0
LINE
8
0
62
7
6
CONTINUOUS
10
106.6155571029
20
59.7759226587
11
106.2639896538
21
59.9265751101
0
LINE
8
0
62
7
6
CONTINUOUS
10
106.2754015394
20
59.9215161302
11
105.9187882557
21
60.0847263384
0
POLYLINE
8
0
62
9
6
CONTINUOUS
66
1
70
0
0
VERTEX
8
0
62
9
6
CONTINUOUS
10
167.9995986267
20
31.6397637010
0
VERTEX
8
0
62
9
6
CONTINUOUS
10
167.8932160086
20
31.6910651854
0
VERTEX
8
0
62
9
6
CONTINUOUS
10
167.7911717093
20
31.7344215148
0
SEQEND
0
LINE
8
0
62
7
6
CONTINUOUS
10
105.9274730354
20
60.0806281992
11
105.5655113752
21
60.2565589484
0
POLYLINE
8
0
62
9
6
CONTINUOUS
66
1
70
0
0
VERTEX
8
0
62
9
6
CONTINUOUS
10
145.4172027795
20
34.0851038822
0
VERTEX
8
0
62
9
6
CONTINUOUS
10
145.5756632348
20
34.0062915480
0
VERTEX
8
0
62
9
6
CONTINUOUS
10
145.7496986916
20
33.9287332152
0
SEQEND
0
LINE
8
0
62
7
6
CONTINUOUS
10
105.2045903753
20
60.4418254764
11
105.5703815295
21
60.2541653708
0
LINE
8
0
62
9
6
CONTINUOUS
10
145.1930764076
20
34.5172286119
11
145.1158529281
21
34.5580809053
0
LINE
8
0
62
9
6
CONTINUOUS
10
145.2722076690
20
34.1650943732
11
145.4194919925
21
34.0839392529
0
LINE
8
0
62
9
6
CONTINUOUS
10
145.1178904319
20
34.5569214760
11
145.0475550190
21
34.5974042235
0
LINE
8
0
62
9
6
CONTINUOUS
10
145.1400669724
20
34.2453560577
11
145.2745292547
21
34.1636941200
0
LINE
8
0
62
9
6
CONTINUOUS
10
145.0495045751
20
34.5962309583
11
144.9862778930
21
34.6359517659
0
LINE
8
0
62
7
6
CONTINUOUS
10
100.4724172518
20
284.1418254764
11
102.0889980055
21
286.9418254764
0
LINE
8
0
62
9
6
CONTINUOUS
10
167.9996094977
20
31.6397575792
11
168.1090325455
21
31.5802397238
0
POLYLINE
8
0
62
9
6
CONTINUOUS
66
1
70
0
0
VERTEX
8
0
62
9
6
CONTINUOUS
10
167.6930774153
20
34.7333381191
0
VERTEX
8
0
62
9
6
CONTINUOUS
10
167.8262242672
20
34.6600755844
0
VERTEX
8
0
62
9
6
CONTINUOUS
10
167.9531252653
20
34.5767974519
0
SEQEND
0
LINE
8
0
62
9
6
CONTINUOUS
10
145.0206594271
20
34.3251034112
11
145.1425555088
21
34.2438252171
0
LINE
8
0
62
9
6
CONTINUOUS
10
144.9882198400
20
34.6346915347
11
144.9322808604
21
34.6732972944
0
POLYLINE
8
0
62
9
6
CONTINUOUS
66
1
70
0
0
VERTEX
8
0
62
9
6
CONTINUOUS
10
143.4725292153
20
36.0319348924
0
VERTEX
8
0
62
9
6
CONTINUOUS
10
143.5406494628
20
35.9822694471
0
VERTEX
8
0
62
9
6
CONTINUOUS
10
143.5836942123
20
35.9180554496
0
SEQEND
0
LINE
8
0
62
9
6
CONTINUOUS
10
144.9136145020
20
34.4036016363
11
145.0230939919
21
34.3234288263
0
LINE
8
0
62
9
6
CONTINUOUS
10
144.9341466125
20
34.6719423368
11
144.8856316588
21
34.7090327590
0
LINE
8
0
62
9
6
CONTINUOUS
10
144.8183601282
20
34.4800344786
11
144.9160052157
21
34.4016714798
0
LINE
8
0
62
7
6
CONTINUOUS
10
101.8724172518
20
59.0418254764
11
100.4724172518
21
60.4418254764
0
POLYLINE
8
0
62
9
6
CONTINUOUS
66
1
70
0
0
VERTEX
8
0
62
9
6
CONTINUOUS
10
53.7402444344
20
31.9153272229
0
VERTEX
8
0
62
9
6
CONTINUOUS
10
53.7442874882
20
31.8846433241
0
VERTEX
8
0
62
9
6
CONTINUOUS
10
53.7467373827
20
31.8731787398
0
SEQEND
0
POLYLINE
8
0
62
9
6
CONTINUOUS
66
1
70
0
0
VERTEX
8
0
62
9
6
CONTINUOUS
10
53.7283753412
20
32.0262269783
0
VERTEX
8
0
62
9
6
CONTINUOUS
10
53.7348927014
20
31.9629981065
0
VERTEX
8
0
62
9
6
CONTINUOUS
10
53.7402462013
20
31.9153197072
0
SEQEND
0
POLYLINE
8
0
62
9
6
CONTINUOUS
66
1
70
0
0
VERTEX
8
0
62
9
6
CONTINUOUS
10
53.7043352895
20
32.2844525040
0
VERTEX
8
0
62
9
6
CONTINUOUS
10
53.7127289700
20
32.1908219004
0
VERTEX
8
0
62
9
6
CONTINUOUS
10
53.7283753412
20
32.0262269783
0
SEQEND
0
POLYLINE
8
0
62
9
6
CONTINUOUS
66
1
70
0
0
VERTEX
8
0
62
9
6
CONTINUOUS
10
167.8261438385
20
34.6600655189
0
VERTEX
8
0
62
9
6
CONTINUOUS
10
167.9530637392
20
34.5767667363
0
VERTEX
8
0
62
9
6
CONTINUOUS
10
168.0730258244
20
34.4839918166
0
VERTEX
8
0
62
9
6
CONTINUOUS
10
168.1853093543
20
34.3822064228
0
SEQEND
0
LINE
8
0
62
9
6
CONTINUOUS
10
167.9739652179
20
32.1110061884
11
168.0823723907
21
32.0362353455
0
LINE
8
0
62
9
6
CONTINUOUS
10
144.8872902862
20
34.7077059788
11
144.8463069047
21
34.7427758346
0
LINE
8
0
62
9
6
CONTINUOUS
10
144.7348591493
20
34.5535151884
11
144.8210756843
21
34.4778092309
0
LINE
8
0
62
9
6
CONTINUOUS
10
144.6629242945
20
34.6233079074
11
144.7376438751
21
34.5511032489
0
LINE
8
0
62
9
6
CONTINUOUS
10
144.8477315928
20
34.7414769588
11
144.8140187764
21
34.7743131137
0
POLYLINE
8
0
62
9
6
CONTINUOUS
66
1
70
0
0
VERTEX
8
0
62
9
6
CONTINUOUS
10
74.4920820243
20
34.0155450812
0
VERTEX
8
0
62
9
6
CONTINUOUS
10
74.5192155824
20
33.9243296750
0
VERTEX
8
0
62
9
6
CONTINUOUS
10
74.5441233922
20
33.8449482837
0
VERTEX
8
0
62
9
6
CONTINUOUS
10
74.5648556837
20
33.7836148399
0
VERTEX
8
0
62
9
6
CONTINUOUS
10
74.5810798990
20
33.7413131673
0
VERTEX
8
0
62
9
6
CONTINUOUS
10
74.5916376011
20
33.7212256668
0
SEQEND
0
LINE
8
0
62
9
6
CONTINUOUS
10
74.4636209993
20
34.1154736253
11
74.4920824877
21
34.0155449795
0
LINE
8
0
62
9
6
CONTINUOUS
10
54.1373081407
20
34.1154736540
11
54.1372971053
21
34.9417851571
0
LINE
8
0
62
7
6
CONTINUOUS
10
48.8006087176
20
22.1122053650
11
48.3986211414
21
14.4418254764
0
LINE
8
0
62
9
6
CONTINUOUS
10
144.6018623761
20
34.6888312665
11
144.6653541576
21
34.6208182123
0
POLYLINE
8
0
62
9
6
CONTINUOUS
66
1
70
0
0
VERTEX
8
0
62
9
6
CONTINUOUS
10
73.6048434742
20
33.7559362918
0
VERTEX
8
0
62
9
6
CONTINUOUS
10
73.6128450974
20
33.6728061063
0
VERTEX
8
0
62
9
6
CONTINUOUS
10
73.6195847438
20
33.6081505000
0
VERTEX
8
0
62
9
6
CONTINUOUS
10
73.6245135717
20
33.5672346882
0
VERTEX
8
0
62
9
6
CONTINUOUS
10
73.6275154397
20
33.5509783599
0
SEQEND
0
LINE
8
0
62
9
6
CONTINUOUS
10
73.5864736567
20
33.9622440429
11
73.6048434742
21
33.7559362918
0
LINE
8
0
62
9
6
CONTINUOUS
10
52.2029859664
20
33.3234434821
11
51.7097110931
21
30.2624071984
0
POLYLINE
8
0
62
9
6
CONTINUOUS
66
1
70
0
0
VERTEX
8
0
62
9
6
CONTINUOUS
10
167.4509534029
20
33.8852030144
0
VERTEX
8
0
62
9
6
CONTINUOUS
10
167.5136796289
20
33.8278002902
0
VERTEX
8
0
62
9
6
CONTINUOUS
10
167.5709367961
20
33.7652132518
0
SEQEND
0
LINE
8
0
62
9
6
CONTINUOUS
10
144.5507878452
20
34.7496080258
11
144.6038256805
21
34.6863696151
0
LINE
8
0
62
9
6
CONTINUOUS
10
144.5524244723
20
34.7474590287
11
144.5089327326
21
34.8052914388
0
POLYLINE
8
0
62
9
6
CONTINUOUS
66
1
70
0
0
VERTEX
8
0
62
9
6
CONTINUOUS
10
53.0676500833
20
32.7090178938
0
VERTEX
8
0
62
9
6
CONTINUOUS
10
53.0353897614
20
32.5097636551
0
VERTEX
8
0
62
9
6
CONTINUOUS
10
52.9708692856
20
32.1110062056
0
SEQEND
0
POLYLINE
8
0
62
9
6
CONTINUOUS
66
1
70
0
0
VERTEX
8
0
62
9
6
CONTINUOUS
10
53.1644314518
20
33.3062826495
0
VERTEX
8
0
62
9
6
CONTINUOUS
10
53.1321709231
20
33.1072773926
0
VERTEX
8
0
62
9
6
CONTINUOUS
10
53.0676500833
20
32.7090178938
0
SEQEND
0
LINE
8
0
62
7
6
CONTINUOUS
10
50.9798526457
20
33.3234434672
11
48.8006087176
21
22.1122053650
0
LINE
8
0
62
9
6
CONTINUOUS
10
53.1818795209
20
33.3900720056
11
53.1644314518
21
33.3062826495
0
LINE
8
0
62
9
6
CONTINUOUS
10
52.2352250653
20
33.4725880912
11
52.2030248106
21
33.3234357731
0
POLYLINE
8
0
62
9
6
CONTINUOUS
66
1
70
0
0
VERTEX
8
0
62
9
6
CONTINUOUS
10
168.1853314640
20
34.3821969357
0
VERTEX
8
0
62
9
6
CONTINUOUS
10
168.2893227607
20
34.2720060365
0
VERTEX
8
0
62
9
6
CONTINUOUS
10
168.3844399532
20
34.1540516443
0
SEQEND
0
POLYLINE
8
0
62
7
6
CONTINUOUS
66
1
70
0
0
VERTEX
8
0
62
7
6
CONTINUOUS
10
144.1196280288
20
34.9418254764
0
VERTEX
8
0
62
7
6
CONTINUOUS
10
143.9954510481
20
35.1263510278
0
VERTEX
8
0
62
7
6
CONTINUOUS
10
143.8798334150
20
35.3172136057
0
VERTEX
8
0
62
7
6
CONTINUOUS
10
143.7726579358
20
35.5135752579
0
SEQEND
0
POLYLINE
8
0
62
9
6
CONTINUOUS
66
1
70
0
0
VERTEX
8
0
62
9
6
CONTINUOUS
10
144.5102728431
20
34.8036791408
0
VERTEX
8
0
62
9
6
CONTINUOUS
10
144.4765326575
20
34.8547908977
0
VERTEX
8
0
62
9
6
CONTINUOUS
10
144.4505449122
20
34.9010010466
0
SEQEND
0
LINE
8
0
62
7
6
CONTINUOUS
10
81.5290138080
20
46.6711967211
11
81.1194151385
21
34.9418254764
0
POLYLINE
8
0
62
7
6
CONTINUOUS
66
1
70
0
0
VERTEX
8
0
62
7
6
CONTINUOUS
10
81.5293927014
20
46.6820492348
0
VERTEX
8
0
62
7
6
CONTINUOUS
10
81.5331928503
20
46.7409537894
0
VERTEX
8
0
62
7
6
CONTINUOUS
10
81.5404605104
20
46.7995229839
0
VERTEX
8
0
62
7
6
CONTINUOUS
10
81.5511688655
20
46.8575530587
0
VERTEX
8
0
62
7
6
CONTINUOUS
10
81.5652791475
20
46.9148422571
0
VERTEX
8
0
62
7
6
CONTINUOUS
10
81.5827407661
20
46.9711914902
0
SEQEND
0
POLYLINE
8
0
62
9
6
CONTINUOUS
66
1
70
0
0
VERTEX
8
0
62
9
6
CONTINUOUS
10
76.1966644169
20
34.8947895862
0
VERTEX
8
0
62
9
6
CONTINUOUS
10
76.1954349496
20
34.8758952587
0
VERTEX
8
0
62
9
6
CONTINUOUS
10
76.1883920202
20
34.8544531420
0
SEQEND
0
LINE
8
0
62
9
6
CONTINUOUS
10
53.2066555766
20
33.4717254770
11
53.1814057402
21
33.3882591374
0
POLYLINE
8
0
62
9
6
CONTINUOUS
66
1
70
0
0
VERTEX
8
0
62
9
6
CONTINUOUS
10
168.2892792413
20
34.2719704134
0
VERTEX
8
0
62
9
6
CONTINUOUS
10
168.3844093782
20
34.1539862573
0
VERTEX
8
0
62
9
6
CONTINUOUS
10
168.4701635106
20
34.0289327717
0
VERTEX
8
0
62
9
6
CONTINUOUS
10
168.5459472889
20
33.8975088463
0
SEQEND
0
LINE
8
0
62
9
6
CONTINUOUS
10
167.5709367961
20
33.7652132518
11
167.6234560712
21
33.6962423763
0
LINE
8
0
62
7
6
CONTINUOUS
10
133.0497675209
20
57.9418254764
11
139.2820813288
21
47.1471413125
0
POLYLINE
8
0
62
9
6
CONTINUOUS
66
1
70
0
0
VERTEX
8
0
62
9
6
CONTINUOUS
10
144.7696305144
20
34.8297896021
0
VERTEX
8
0
62
9
6
CONTINUOUS
10
144.7567517776
20
34.8536952495
0
VERTEX
8
0
62
9
6
CONTINUOUS
10
144.7496074327
20
34.8751478894
0
VERTEX
8
0
62
9
6
CONTINUOUS
10
144.7481333058
20
34.8941230283
0
VERTEX
8
0
62
9
6
CONTINUOUS
10
144.7525274127
20
34.9103241811
0
VERTEX
8
0
62
9
6
CONTINUOUS
10
144.7630498947
20
34.9235367278
0
VERTEX
8
0
62
9
6
CONTINUOUS
10
144.7798933697
20
34.9334488717
0
VERTEX
8
0
62
9
6
CONTINUOUS
10
144.8033866958
20
34.9396912753
0
SEQEND
0
LINE
8
0
62
9
6
CONTINUOUS
10
143.7619332471
20
34.9418412702
11
143.7109126032
21
35.0412543426
0
POLYLINE
8
0
62
9
6
CONTINUOUS
66
1
70
0
0
VERTEX
8
0
62
9
6
CONTINUOUS
10
143.6609960717
20
35.1426676633
0
VERTEX
8
0
62
9
6
CONTINUOUS
10
143.7109028579
20
35.0412788514
0
VERTEX
8
0
62
9
6
CONTINUOUS
10
143.7619421972
20
34.9418409499
0
SEQEND
0
POLYLINE
8
0
62
7
6
CONTINUOUS
66
1
70
0
0
VERTEX
8
0
62
7
6
CONTINUOUS
10
143.7726596001
20
35.5135736605
0
VERTEX
8
0
62
7
6
CONTINUOUS
10
143.6738706078
20
35.7144342059
0
VERTEX
8
0
62
7
6
CONTINUOUS
10
143.5833657676
20
35.9188477271
0
SEQEND
0
POLYLINE
8
0
62
9
6
CONTINUOUS
66
1
70
0
0
VERTEX
8
0
62
9
6
CONTINUOUS
10
143.6610153096
20
35.1426295180
0
VERTEX
8
0
62
9
6
CONTINUOUS
10
143.6122416016
20
35.2460238347
0
VERTEX
8
0
62
9
6
CONTINUOUS
10
143.5647577378
20
35.3512754352
0
VERTEX
8
0
62
9
6
CONTINUOUS
10
143.5187207416
20
35.4582034356
0
VERTEX
8
0
62
9
6
CONTINUOUS
10
143.4741236694
20
35.5668441826
0
SEQEND
0
LINE
8
0
62
7
6
CONTINUOUS
10
93.4724172518
20
58.9418254764
11
93.4724172518
21
59.0418254764
0
LINE
8
0
62
7
6
CONTINUOUS
10
100.4724172518
20
60.4418254764
11
100.4724172518
21
284.1418254764
0
POLYLINE
8
0
62
9
6
CONTINUOUS
66
1
70
0
0
VERTEX
8
0
62
9
6
CONTINUOUS
10
77.3611402912
20
35.9180554496
0
VERTEX
8
0
62
9
6
CONTINUOUS
10
77.3461236633
20
35.8421098792
0
VERTEX
8
0
62
9
6
CONTINUOUS
10
77.3595914296
20
35.7567403034
0
VERTEX
8
0
62
9
6
CONTINUOUS
10
77.4011343789
20
35.6645406336
0
VERTEX
8
0
62
9
6
CONTINUOUS
10
77.4707192336
20
35.5668421364
0
SEQEND
0
POLYLINE
8
0
62
9
6
CONTINUOUS
66
1
70
0
0
VERTEX
8
0
62
9
6
CONTINUOUS
10
52.3334997246
20
33.7605083809
0
VERTEX
8
0
62
9
6
CONTINUOUS
10
52.2788242492
20
33.6185882469
0
VERTEX
8
0
62
9
6
CONTINUOUS
10
52.2352315326
20
33.4726038197
0
SEQEND
0
LINE
8
0
62
9
6
CONTINUOUS
10
53.2385391609
20
33.5506226357
11
53.2056774144
21
33.4689300772
0
LINE
8
0
62
9
6
CONTINUOUS
10
167.6223510452
20
33.6978678244
11
167.6689197224
21
33.6238270689
0
POLYLINE
8
0
62
9
6
CONTINUOUS
66
1
70
0
0
VERTEX
8
0
62
9
6
CONTINUOUS
10
143.5517574159
20
35.8398820442
0
VERTEX
8
0
62
9
6
CONTINUOUS
10
143.6378878005
20
35.6512147763
0
VERTEX
8
0
62
9
6
CONTINUOUS
10
143.7310175122
20
35.4665762527
0
VERTEX
8
0
62
9
6
CONTINUOUS
10
143.8313091826
20
35.2864926195
0
VERTEX
8
0
62
9
6
CONTINUOUS
10
143.9389911984
20
35.1114024672
0
VERTEX
8
0
62
9
6
CONTINUOUS
10
144.0542560264
20
34.9418282376
0
SEQEND
0
POLYLINE
8
0
62
9
6
CONTINUOUS
66
1
70
0
0
VERTEX
8
0
62
9
6
CONTINUOUS
10
144.4320255307
20
34.9418858736
0
VERTEX
8
0
62
9
6
CONTINUOUS
10
144.4504262139
20
34.9014937030
0
VERTEX
8
0
62
9
6
CONTINUOUS
10
144.4757439180
20
34.8558287296
0
SEQEND
0
LINE
8
0
62
7
6
CONTINUOUS
10
143.5833423454
20
35.9188611656
11
143.3374979963
21
36.5076025932
0
LINE
8
0
62
7
6
CONTINUOUS
10
143.3374979963
20
36.5076025932
11
143.0977583247
21
37.0872387966
0
LINE
8
0
62
9
6
CONTINUOUS
10
143.5517538415
20
35.8398915198
11
143.4725209411
21
36.0319546552
0
LINE
8
0
62
7
6
CONTINUOUS
10
143.0988753235
20
37.0845251810
11
142.8657770394
21
37.6534444771
0
LINE
8
0
62
7
6
CONTINUOUS
10
142.8674027080
20
37.6494578765
11
142.6409761562
21
38.2072830513
0
LINE
8
0
62
7
6
CONTINUOUS
10
142.6430780684
20
38.2020805393
11
142.4233159622
21
38.7485315164
0
LINE
8
0
62
7
6
CONTINUOUS
10
142.4258610660
20
38.7421738807
11
142.2127974670
21
39.2768114902
0
LINE
8
0
62
7
6
CONTINUOUS
10
142.2157534046
20
39.2693604977
11
141.8168329739
21
40.2836105038
0
LINE
8
0
62
7
6
CONTINUOUS
10
142.0094051850
20
39.7917801541
11
141.6280199060
21
40.7700014579
0
LINE
8
0
62
7
6
CONTINUOUS
10
141.8131538683
20
40.2930485921
11
141.4463089704
21
41.2420957488
0
LINE
8
0
62
7
6
CONTINUOUS
10
141.6240289010
20
40.7803275351
11
141.2717366192
21
41.6993855764
0
LINE
8
0
62
7
6
CONTINUOUS
10
141.4420389384
20
41.2532368217
11
141.1043452862
21
42.1413852164
0
LINE
8
0
62
7
6
CONTINUOUS
10
141.2672217271
20
41.7112621511
11
140.9441526655
21
42.5677150444
0
LINE
8
0
62
7
6
CONTINUOUS
10
141.0996196775
20
42.1539151919
11
140.7861384739
21
42.9915606161
0
LINE
8
0
62
7
6
CONTINUOUS
10
140.7911802975
20
42.9779863816
11
140.6403684270
21
43.3854962462
0
LINE
8
0
62
7
6
CONTINUOUS
10
105.2045903753
20
60.4418254764
11
105.2045903753
21
68.0418254764
0
LINE
8
0
62
9
6
CONTINUOUS
10
52.3988872146
20
33.8975088463
11
52.3334999105
21
33.7604484706
0
LINE
8
0
62
9
6
CONTINUOUS
10
167.6675714062
20
33.6261950457
11
167.7075852866
21
33.5477737528
0
POLYLINE
8
0
62
9
6
CONTINUOUS
66
1
70
0
0
VERTEX
8
0
62
9
6
CONTINUOUS
10
140.6035139747
20
43.3791056549
0
VERTEX
8
0
62
9
6
CONTINUOUS
10
140.8119178482
20
42.8101578783
0
VERTEX
8
0
62
9
6
CONTINUOUS
10
141.0430272883
20
42.1865720907
0
VERTEX
8
0
62
9
6
CONTINUOUS
10
141.2988150378
20
41.5049822707
0
VERTEX
8
0
62
9
6
CONTINUOUS
10
141.5812603893
20
40.7623687991
0
VERTEX
8
0
62
9
6
CONTINUOUS
10
141.8924529152
20
39.9559534032
0
VERTEX
8
0
62
9
6
CONTINUOUS
10
142.2347400357
20
39.0824531810
0
VERTEX
8
0
62
9
6
CONTINUOUS
10
142.6104719608
20
38.1391016000
0
VERTEX
8
0
62
9
6
CONTINUOUS
10
143.0227697705
20
37.1217972862
0
VERTEX
8
0
62
9
6
CONTINUOUS
10
143.4725077893
20
36.0319465486
0
SEQEND
0
LINE
8
0
62
7
6
CONTINUOUS
10
140.6455140162
20
43.3715416581
11
140.3764986988
21
44.1059050888
0
LINE
8
0
62
7
6
CONTINUOUS
10
140.5020464374
20
43.7619362721
11
140.2479977047
21
44.4603331996
0
LINE
8
0
62
9
6
CONTINUOUS
10
140.2490742451
20
44.3615381638
11
140.6035139747
21
43.3791056549
0
LINE
8
0
62
7
6
CONTINUOUS
10
140.2532176921
20
44.4458902898
11
140.0245356917
21
45.0823455215
0
POLYLINE
8
0
62
9
6
CONTINUOUS
66
1
70
0
0
VERTEX
8
0
62
9
6
CONTINUOUS
10
140.7044694190
20
42.9092022711
0
VERTEX
8
0
62
9
6
CONTINUOUS
10
140.9129066832
20
42.3230473793
0
VERTEX
8
0
62
9
6
CONTINUOUS
10
141.1424091694
20
41.6847183907
0
VERTEX
8
0
62
9
6
CONTINUOUS
10
141.3944320459
20
40.9919476426
0
VERTEX
8
0
62
9
6
CONTINUOUS
10
141.6703773650
20
40.2428903776
0
VERTEX
8
0
62
9
6
CONTINUOUS
10
141.9719386306
20
39.4352437643
0
VERTEX
8
0
62
9
6
CONTINUOUS
10
142.3009751532
20
38.5664652486
0
VERTEX
8
0
62
9
6
CONTINUOUS
10
142.6595513330
20
37.6338635594
0
VERTEX
8
0
62
9
6
CONTINUOUS
10
143.0503655598
20
36.6335018851
0
VERTEX
8
0
62
9
6
CONTINUOUS
10
143.4741108782
20
35.5668436331
0
SEQEND
0
POLYLINE
8
0
62
7
6
CONTINUOUS
66
1
70
0
0
VERTEX
8
0
62
7
6
CONTINUOUS
10
139.3620937375
20
46.9711914902
0
VERTEX
8
0
62
7
6
CONTINUOUS
10
139.3556892142
20
46.9893192033
0
VERTEX
8
0
62
7
6
CONTINUOUS
10
139.3487160458
20
47.0078931707
0
VERTEX
8
0
62
7
6
CONTINUOUS
10
139.3411370504
20
47.0269071676
0
VERTEX
8
0
62
7
6
CONTINUOUS
10
139.3329322383
20
47.0463097250
0
VERTEX
8
0
62
7
6
CONTINUOUS
10
139.3240936837
20
47.0660272606
0
VERTEX
8
0
62
7
6
CONTINUOUS
10
139.3145948028
20
47.0860334612
0
VERTEX
8
0
62
7
6
CONTINUOUS
10
139.3044364267
20
47.1062480011
0
VERTEX
8
0
62
7
6
CONTINUOUS
10
139.2935934280
20
47.1266486030
0
VERTEX
8
0
62
7
6
CONTINUOUS
10
139.2820764293
20
47.1471495609
0
SEQEND
0
LINE
8
0
62
9
6
CONTINUOUS
10
140.2490742451
20
44.3615381638
11
139.9677798126
21
45.1554274429
0
LINE
8
0
62
7
6
CONTINUOUS
10
140.0295869388
20
45.0682032921
11
139.7495232483
21
45.8581342957
0
LINE
8
0
62
9
6
CONTINUOUS
10
140.3463732626
20
43.9309569467
11
140.7044694190
21
42.9092022711
0
LINE
8
0
62
7
6
CONTINUOUS
10
139.7538995475
20
45.8456978261
11
139.4694379829
21
46.6603514187
0
LINE
8
0
62
9
6
CONTINUOUS
10
139.9678661569
20
45.1551842844
11
139.6590739407
21
46.0417964753
0
LINE
8
0
62
9
6
CONTINUOUS
10
140.0594430915
20
44.7637919159
11
140.3463732626
21
43.9309569467
0
LINE
8
0
62
7
6
CONTINUOUS
10
139.5066990856
20
46.5528788616
11
139.3620937375
21
46.9711914902
0
LINE
8
0
62
9
6
CONTINUOUS
10
139.4570310176
20
46.6309084218
11
139.7487545463
21
45.7825761728
0
LINE
8
0
62
9
6
CONTINUOUS
10
139.7465199227
20
45.6871239016
11
140.0594430915
21
44.7637919159
0
LINE
8
0
62
9
6
CONTINUOUS
10
139.4570310176
20
46.6309084218
11
139.2820764316
21
47.1471495434
0
LINE
8
0
62
9
6
CONTINUOUS
10
139.4478829511
20
46.5836988367
11
139.7465199227
21
45.6871239016
0
LINE
8
0
62
9
6
CONTINUOUS
10
139.4478829511
20
46.5836988367
11
139.4154418196
21
46.6820496680
0
POLYLINE
8
0
62
7
6
CONTINUOUS
66
1
70
0
0
VERTEX
8
0
62
7
6
CONTINUOUS
10
139.3620937375
20
46.9711914902
0
VERTEX
8
0
62
7
6
CONTINUOUS
10
139.3795553560
20
46.9148422571
0
VERTEX
8
0
62
7
6
CONTINUOUS
10
139.3936656380
20
46.8575530587
0
VERTEX
8
0
62
7
6
CONTINUOUS
10
139.4043739931
20
46.7995229839
0
VERTEX
8
0
62
7
6
CONTINUOUS
10
139.4116416532
20
46.7409537894
0
VERTEX
8
0
62
7
6
CONTINUOUS
10
139.4154418021
20
46.6820492348
0
SEQEND
0
LINE
8
0
62
7
6
CONTINUOUS
10
115.7402441282
20
60.4418254764
11
115.7402441282
21
68.0418254764
0
LINE
8
0
62
7
6
CONTINUOUS
10
120.4724172518
20
60.4418254764
11
120.4724172518
21
284.1418254764
0
LINE
8
0
62
9
6
CONTINUOUS
10
81.2753470972
20
45.9169155057
11
81.5293926839
21
46.6820496680
0
LINE
8
0
62
9
6
CONTINUOUS
10
81.0048487189
20
45.1143564782
11
81.2753470972
21
45.9169155057
0
LINE
8
0
62
9
6
CONTINUOUS
10
81.4878478095
20
46.6310393853
11
81.6627580719
21
47.1471495434
0
LINE
8
0
62
9
6
CONTINUOUS
10
80.7508542540
20
44.3716949093
11
81.0048487189
21
45.1143564782
0
LINE
8
0
62
9
6
CONTINUOUS
10
81.4878478095
20
46.6310393853
11
81.2856969043
21
46.0416115515
0
LINE
8
0
62
7
6
CONTINUOUS
10
81.5827407661
20
46.9711914902
11
81.3907650515
21
46.4165918200
0
LINE
8
0
62
9
6
CONTINUOUS
10
80.9770546909
20
45.1554274429
11
81.2856969043
21
46.0416115515
0
LINE
8
0
62
7
6
CONTINUOUS
10
81.4352781306
20
46.5446494473
11
81.1953111772
21
45.8581340739
0
LINE
8
0
62
7
6
CONTINUOUS
10
81.2655277221
20
46.0580776909
11
81.0154299854
21
45.3493570037
0
LINE
8
0
62
9
6
CONTINUOUS
10
80.6958720911
20
44.3618524942
11
80.9769683466
21
45.1551842844
0
LINE
8
0
62
7
6
CONTINUOUS
10
81.0203159796
20
45.3631098279
11
80.8124744932
21
44.7813208693
0
LINE
8
0
62
7
6
CONTINUOUS
10
80.9152476583
20
45.0682035541
11
80.6916169082
21
44.4458905575
0
LINE
8
0
62
7
6
CONTINUOUS
10
80.6968367061
20
44.4603329429
11
80.4375772756
21
43.7477062332
0
LINE
8
0
62
7
6
CONTINUOUS
10
80.4427879733
20
43.7619360186
11
80.1586959394
21
42.9915603733
0
LINE
8
0
62
7
6
CONTINUOUS
10
80.2993205830
20
43.3715419177
11
80.0055830380
21
42.5808115494
0
LINE
8
0
62
7
6
CONTINUOUS
10
80.1536543000
20
42.9779866347
11
79.8404893057
21
42.1413854507
0
LINE
8
0
62
7
6
CONTINUOUS
10
79.8452147412
20
42.1539149670
11
79.4985256132
21
41.2420959577
0
LINE
8
0
62
7
6
CONTINUOUS
10
79.5027954882
20
41.2532366210
11
79.1280015988
21
40.2836106813
0
LINE
8
0
62
7
6
CONTINUOUS
10
79.1316805688
20
40.2930484216
11
78.9320956205
21
39.7833021373
0
LINE
8
0
62
7
6
CONTINUOUS
10
78.9354292582
20
39.7917800008
11
78.7290811546
21
39.2693606382
0
LINE
8
0
62
9
6
CONTINUOUS
10
53.2772630973
20
33.6261950457
11
53.2372492169
21
33.5477737528
0
LINE
8
0
62
9
6
CONTINUOUS
10
168.5459135200
20
33.8975757465
11
168.6113347789
21
33.7605083809
0
POLYLINE
8
0
62
9
6
CONTINUOUS
66
1
70
0
0
VERTEX
8
0
62
9
6
CONTINUOUS
10
169.2351234096
20
30.2624071973
0
VERTEX
8
0
62
9
6
CONTINUOUS
10
169.1679896554
20
30.4270914540
0
VERTEX
8
0
62
9
6
CONTINUOUS
10
169.0888752299
20
30.5851704671
0
VERTEX
8
0
62
9
6
CONTINUOUS
10
168.9982442163
20
30.7371396269
0
VERTEX
8
0
62
9
6
CONTINUOUS
10
168.8982930629
20
30.8805848537
0
VERTEX
8
0
62
9
6
CONTINUOUS
10
168.7914062962
20
31.0137716731
0
VERTEX
8
0
62
9
6
CONTINUOUS
10
168.6795310135
20
31.1360948207
0
VERTEX
8
0
62
9
6
CONTINUOUS
10
168.5654843858
20
31.2463625194
0
VERTEX
8
0
62
9
6
CONTINUOUS
10
168.4502199604
20
31.3454558161
0
VERTEX
8
0
62
9
6
CONTINUOUS
10
168.3351302552
20
31.4336993452
0
VERTEX
8
0
62
9
6
CONTINUOUS
10
168.2211066063
20
31.5117648150
0
VERTEX
8
0
62
9
6
CONTINUOUS
10
168.1090190468
20
31.5802470745
0
SEQEND
0
LINE
8
0
62
9
6
CONTINUOUS
10
167.7062953426
20
33.5506226357
11
167.7391570891
21
33.4689300772
0
POLYLINE
8
0
62
9
6
CONTINUOUS
66
1
70
0
0
VERTEX
8
0
62
9
6
CONTINUOUS
10
143.5836753996
20
35.9180612215
0
VERTEX
8
0
62
9
6
CONTINUOUS
10
143.5986935431
20
35.8421125069
0
VERTEX
8
0
62
9
6
CONTINUOUS
10
143.5852271906
20
35.7567396103
0
VERTEX
8
0
62
9
6
CONTINUOUS
10
143.5436855104
20
35.6645365439
0
VERTEX
8
0
62
9
6
CONTINUOUS
10
143.4741103296
20
35.5668448608
0
SEQEND
0
LINE
8
0
62
7
6
CONTINUOUS
10
127.4724172518
20
58.9418254764
11
127.4724172518
21
59.0418254764
0
POLYLINE
8
0
62
9
6
CONTINUOUS
66
1
70
0
0
VERTEX
8
0
62
9
6
CONTINUOUS
10
77.4707236270
20
35.5668436330
0
VERTEX
8
0
62
9
6
CONTINUOUS
10
77.8945829111
20
36.6337911704
0
VERTEX
8
0
62
9
6
CONTINUOUS
10
78.2854927103
20
37.6344042722
0
VERTEX
8
0
62
9
6
CONTINUOUS
10
78.6441477827
20
38.5672213250
0
VERTEX
8
0
62
9
6
CONTINUOUS
10
78.9732487970
20
39.4361821952
0
VERTEX
8
0
62
9
6
CONTINUOUS
10
79.2748633255
20
40.2439857949
0
VERTEX
8
0
62
9
6
CONTINUOUS
10
79.5508497151
20
40.9931697017
0
VERTEX
8
0
62
9
6
CONTINUOUS
10
79.8029012160
20
41.6860341291
0
VERTEX
8
0
62
9
6
CONTINUOUS
10
80.0324243739
20
42.3244367811
0
VERTEX
8
0
62
9
6
CONTINUOUS
10
80.2408723687
20
42.9106364075
0
VERTEX
8
0
62
9
6
CONTINUOUS
10
80.4293131713
20
43.4459499176
0
VERTEX
8
0
62
9
6
CONTINUOUS
10
80.7508542540
20
44.3716949093
0
SEQEND
0
LINE
8
0
62
7
6
CONTINUOUS
10
78.7320369830
20
39.2768113553
11
78.5189734856
21
38.7421740007
0
LINE
8
0
62
7
6
CONTINUOUS
10
78.5215184952
20
38.7485314011
11
78.3017564749
21
38.2020806376
0
LINE
8
0
62
7
6
CONTINUOUS
10
78.3038583091
20
38.2072829568
11
78.0774318262
21
37.6494579519
0
LINE
8
0
62
7
6
CONTINUOUS
10
78.0790574346
20
37.6534444046
11
77.8459592011
21
37.0845252324
0
POLYLINE
8
0
62
9
6
CONTINUOUS
66
1
70
0
0
VERTEX
8
0
62
9
6
CONTINUOUS
10
77.4707109259
20
35.5668441786
0
VERTEX
8
0
62
9
6
CONTINUOUS
10
77.4261212018
20
35.4582204579
0
VERTEX
8
0
62
9
6
CONTINUOUS
10
77.3800900813
20
35.3513044521
0
VERTEX
8
0
62
9
6
CONTINUOUS
10
77.3326116823
20
35.2460617929
0
VERTEX
8
0
62
9
6
CONTINUOUS
10
77.2838384318
20
35.1426676633
0
SEQEND
0
POLYLINE
8
0
62
9
6
CONTINUOUS
66
1
70
0
0
VERTEX
8
0
62
9
6
CONTINUOUS
10
77.3930770876
20
35.8398820442
0
VERTEX
8
0
62
9
6
CONTINUOUS
10
77.9221202928
20
37.1219330697
0
VERTEX
8
0
62
9
6
CONTINUOUS
10
78.3344585849
20
38.1393406319
0
VERTEX
8
0
62
9
6
CONTINUOUS
10
78.7102174032
20
39.0827645496
0
VERTEX
8
0
62
9
6
CONTINUOUS
10
79.0525214223
20
39.9563125706
0
VERTEX
8
0
62
9
6
CONTINUOUS
10
79.3637238593
20
40.7627600823
0
VERTEX
8
0
62
9
6
CONTINUOUS
10
79.6461726204
20
41.5053878092
0
VERTEX
8
0
62
9
6
CONTINUOUS
10
79.9019593982
20
42.1869790056
0
VERTEX
8
0
62
9
6
CONTINUOUS
10
80.1330647095
20
42.8105603664
0
VERTEX
8
0
62
9
6
CONTINUOUS
10
80.3414582586
20
43.3794836704
0
VERTEX
8
0
62
9
6
CONTINUOUS
10
80.6958720911
20
44.3618524942
0
SEQEND
0
POLYLINE
8
0
62
7
6
CONTINUOUS
66
1
70
0
0
VERTEX
8
0
62
7
6
CONTINUOUS
10
77.8470761585
20
37.0872387472
0
VERTEX
8
0
62
7
6
CONTINUOUS
10
77.6079116684
20
36.5089866143
0
VERTEX
8
0
62
7
6
CONTINUOUS
10
77.3614922352
20
35.9188612870
0
SEQEND
0
POLYLINE
8
0
62
7
6
CONTINUOUS
66
1
70
0
0
VERTEX
8
0
62
7
6
CONTINUOUS
10
77.3614678456
20
35.9188455167
0
VERTEX
8
0
62
7
6
CONTINUOUS
10
77.2709639993
20
35.7144331703
0
VERTEX
8
0
62
7
6
CONTINUOUS
10
77.1721765677
20
35.5135752579
0
SEQEND
0
POLYLINE
8
0
62
9
6
CONTINUOUS
66
1
70
0
0
VERTEX
8
0
62
9
6
CONTINUOUS
10
76.5127280804
20
34.9419096375
0
VERTEX
8
0
62
9
6
CONTINUOUS
10
76.4941082750
20
34.9008901599
0
VERTEX
8
0
62
9
6
CONTINUOUS
10
76.4683748218
20
34.8546233931
0
VERTEX
8
0
62
9
6
CONTINUOUS
10
76.4346680184
20
34.8035848495
0
SEQEND
0
LINE
8
0
62
9
6
CONTINUOUS
10
76.4941397652
20
34.9013236242
11
76.5127931736
21
34.9418243375
0
LINE
8
0
62
9
6
CONTINUOUS
10
53.3224834583
20
33.6978678244
11
53.2759147811
21
33.6238270689
0
POLYLINE
8
0
62
9
6
CONTINUOUS
66
1
70
0
0
VERTEX
8
0
62
9
6
CONTINUOUS
10
168.6113345930
20
33.7604484706
0
VERTEX
8
0
62
9
6
CONTINUOUS
10
168.6660042180
20
33.6185455449
0
VERTEX
8
0
62
9
6
CONTINUOUS
10
168.7096094382
20
33.4725880912
0
SEQEND
0
POLYLINE
8
0
62
9
6
CONTINUOUS
66
1
70
0
0
VERTEX
8
0
62
9
6
CONTINUOUS
10
169.2351234096
20
30.2624071973
0
VERTEX
8
0
62
9
6
CONTINUOUS
10
169.1584906745
20
30.5058624012
0
VERTEX
8
0
62
9
6
CONTINUOUS
10
169.0701710802
20
30.7321218270
0
VERTEX
8
0
62
9
6
CONTINUOUS
10
168.9729162851
20
30.9409145144
0
VERTEX
8
0
62
9
6
CONTINUOUS
10
168.8690288416
20
31.1323806978
0
VERTEX
8
0
62
9
6
CONTINUOUS
10
168.7607691464
20
31.3064215400
0
VERTEX
8
0
62
9
6
CONTINUOUS
10
168.6493922235
20
31.4642428175
0
VERTEX
8
0
62
9
6
CONTINUOUS
10
168.5359694890
20
31.6067928732
0
VERTEX
8
0
62
9
6
CONTINUOUS
10
168.4216498737
20
31.7346316447
0
VERTEX
8
0
62
9
6
CONTINUOUS
10
168.3073365843
20
31.8484477818
0
VERTEX
8
0
62
9
6
CONTINUOUS
10
168.1940282953
20
31.9487329806
0
VERTEX
8
0
62
9
6
CONTINUOUS
10
168.0823707170
20
32.0362363155
0
SEQEND
0
LINE
8
0
62
9
6
CONTINUOUS
10
167.7381789269
20
33.4717254770
11
167.7634287633
21
33.3882591374
0
LINE
8
0
62
7
6
CONTINUOUS
10
139.4158206955
20
46.6711967211
11
139.8254193651
21
34.9418254764
0
POLYLINE
8
0
62
9
6
CONTINUOUS
66
1
70
0
0
VERTEX
8
0
62
9
6
CONTINUOUS
10
77.1829012564
20
34.9418412702
0
VERTEX
8
0
62
9
6
CONTINUOUS
10
77.2339219003
20
35.0412543426
0
VERTEX
8
0
62
9
6
CONTINUOUS
10
77.2838191939
20
35.1426295180
0
SEQEND
0
LINE
8
0
62
9
6
CONTINUOUS
10
77.2339316456
20
35.0412788514
11
77.1828923063
21
34.9418409499
0
POLYLINE
8
0
62
7
6
CONTINUOUS
66
1
70
0
0
VERTEX
8
0
62
7
6
CONTINUOUS
10
77.1721749034
20
35.5135736605
0
VERTEX
8
0
62
7
6
CONTINUOUS
10
77.0649987064
20
35.3172101128
0
VERTEX
8
0
62
7
6
CONTINUOUS
10
76.9493813725
20
35.1263469938
0
VERTEX
8
0
62
7
6
CONTINUOUS
10
76.8252074951
20
34.9418254764
0
SEQEND
0
POLYLINE
8
0
62
7
6
CONTINUOUS
66
1
70
0
0
VERTEX
8
0
62
7
6
CONTINUOUS
10
81.6627580742
20
47.1471495609
0
VERTEX
8
0
62
7
6
CONTINUOUS
10
81.6512410755
20
47.1266486030
0
VERTEX
8
0
62
7
6
CONTINUOUS
10
81.6403980768
20
47.1062480011
0
VERTEX
8
0
62
7
6
CONTINUOUS
10
81.6302397007
20
47.0860334612
0
VERTEX
8
0
62
7
6
CONTINUOUS
10
81.6207408198
20
47.0660272606
0
VERTEX
8
0
62
7
6
CONTINUOUS
10
81.6119022652
20
47.0463097250
0
VERTEX
8
0
62
7
6
CONTINUOUS
10
81.6036974531
20
47.0269071676
0
VERTEX
8
0
62
7
6
CONTINUOUS
10
81.5961184577
20
47.0078931707
0
VERTEX
8
0
62
7
6
CONTINUOUS
10
81.5891452893
20
46.9893192033
0
VERTEX
8
0
62
7
6
CONTINUOUS
10
81.5827407661
20
46.9711914902
0
SEQEND
0
LINE
8
0
62
7
6
CONTINUOUS
10
87.8950669826
20
57.9418254764
11
81.6627531747
21
47.1471413125
0
POLYLINE
8
0
62
9
6
CONTINUOUS
66
1
70
0
0
VERTEX
8
0
62
9
6
CONTINUOUS
10
52.6555117429
20
34.2720060365
0
VERTEX
8
0
62
9
6
CONTINUOUS
10
52.5603945503
20
34.1540516443
0
VERTEX
8
0
62
9
6
CONTINUOUS
10
52.4747007783
20
34.0290036061
0
VERTEX
8
0
62
9
6
CONTINUOUS
10
52.3989209835
20
33.8975757465
0
SEQEND
0
LINE
8
0
62
9
6
CONTINUOUS
10
76.4359039376
20
34.8052484459
11
76.4687013062
21
34.8556248559
0
POLYLINE
8
0
62
9
6
CONTINUOUS
66
1
70
0
0
VERTEX
8
0
62
9
6
CONTINUOUS
10
76.8905794994
20
34.9418283091
0
VERTEX
8
0
62
9
6
CONTINUOUS
10
77.0058485186
20
35.1114089065
0
VERTEX
8
0
62
9
6
CONTINUOUS
10
77.1135320733
20
35.2865034837
0
VERTEX
8
0
62
9
6
CONTINUOUS
10
77.2138233386
20
35.4665890519
0
VERTEX
8
0
62
9
6
CONTINUOUS
10
77.3069520545
20
35.6512275844
0
VERTEX
8
0
62
9
6
CONTINUOUS
10
77.3930806620
20
35.8398915198
0
SEQEND
0
LINE
8
0
62
9
6
CONTINUOUS
10
168.7096029709
20
33.4726038197
11
168.7418482806
21
33.3234434161
0
LINE
8
0
62
9
6
CONTINUOUS
10
167.7629549826
20
33.3900720056
11
167.7804030517
21
33.3062826495
0
LINE
8
0
62
7
6
CONTINUOUS
10
169.9649818578
20
33.3234434672
11
172.1442257859
21
22.1122053650
0
LINE
8
0
62
9
6
CONTINUOUS
10
167.7804030517
20
33.3062826495
11
167.8449240348
21
32.9081891400
0
POLYLINE
8
0
62
9
6
CONTINUOUS
66
1
70
0
0
VERTEX
8
0
62
9
6
CONTINUOUS
10
167.8449240348
20
32.9081891400
0
VERTEX
8
0
62
9
6
CONTINUOUS
10
167.9094447421
20
32.5097636551
0
VERTEX
8
0
62
9
6
CONTINUOUS
10
167.9417050063
20
32.3104264250
0
VERTEX
8
0
62
9
6
CONTINUOUS
10
167.9739652179
20
32.1110062056
0
SEQEND
0
LINE
8
0
62
9
6
CONTINUOUS
10
168.7418485371
20
33.3234434821
11
169.2351234105
21
30.2624071984
0
POLYLINE
8
0
62
9
6
CONTINUOUS
66
1
70
0
0
VERTEX
8
0
62
9
6
CONTINUOUS
10
147.3583606907
20
33.9622440558
0
VERTEX
8
0
62
9
6
CONTINUOUS
10
147.3399909546
20
33.7559349424
0
VERTEX
8
0
62
9
6
CONTINUOUS
10
147.3319893168
20
33.6728035778
0
VERTEX
8
0
62
9
6
CONTINUOUS
10
147.3252496184
20
33.6081465118
0
VERTEX
8
0
62
9
6
CONTINUOUS
10
147.3203207050
20
33.5672290786
0
VERTEX
8
0
62
9
6
CONTINUOUS
10
147.3173186168
20
33.5509708374
0
SEQEND
0
LINE
8
0
62
9
6
CONTINUOUS
10
76.4359039376
20
34.8052484459
11
76.3923343932
21
34.7474999993
0
LINE
8
0
62
9
6
CONTINUOUS
10
76.3945659975
20
34.7499933377
11
76.3408539450
21
34.6864358013
0
POLYLINE
8
0
62
9
6
CONTINUOUS
66
1
70
0
0
VERTEX
8
0
62
9
6
CONTINUOUS
10
76.1326831471
20
34.7763159687
0
VERTEX
8
0
62
9
6
CONTINUOUS
10
76.1575599257
20
34.8050877520
0
VERTEX
8
0
62
9
6
CONTINUOUS
10
76.1761467417
20
34.8313515781
0
VERTEX
8
0
62
9
6
CONTINUOUS
10
76.1887444890
20
34.8551077027
0
VERTEX
8
0
62
9
6
CONTINUOUS
10
76.1955215159
20
34.8763254456
0
VERTEX
8
0
62
9
6
CONTINUOUS
10
76.1965454471
20
34.8950145636
0
VERTEX
8
0
62
9
6
CONTINUOUS
10
76.1917993506
20
34.9110052255
0
SEQEND
0
POLYLINE
8
0
62
9
6
CONTINUOUS
66
1
70
0
0
VERTEX
8
0
62
9
6
CONTINUOUS
10
53.4936694230
20
33.8850194818
0
VERTEX
8
0
62
9
6
CONTINUOUS
10
53.4307001371
20
33.8273367283
0
VERTEX
8
0
62
9
6
CONTINUOUS
10
53.3731987028
20
33.7643387992
0
VERTEX
8
0
62
9
6
CONTINUOUS
10
53.3213784323
20
33.6962423763
0
SEQEND
0
POLYLINE
8
0
62
9
6
CONTINUOUS
66
1
70
0
0
VERTEX
8
0
62
9
6
CONTINUOUS
10
52.8718086791
20
34.4839918166
0
VERTEX
8
0
62
9
6
CONTINUOUS
10
52.7595251492
20
34.3822064228
0
VERTEX
8
0
62
9
6
CONTINUOUS
10
52.6555552622
20
34.2719704134
0
VERTEX
8
0
62
9
6
CONTINUOUS
10
52.5604251253
20
34.1539862573
0
SEQEND
0
LINE
8
0
62
7
6
CONTINUOUS
10
172.1442257859
20
22.1122053650
11
172.5462133621
21
14.4418254764
0
LINE
8
0
62
9
6
CONTINUOUS
10
166.8075302404
20
34.9418252241
11
166.8075300224
21
34.1154736030
0
LINE
8
0
62
9
6
CONTINUOUS
10
76.3438108812
20
34.6897224850
11
76.2794798725
21
34.6208070550
0
LINE
8
0
62
9
6
CONTINUOUS
10
76.1326831471
20
34.7763159687
11
76.0995870039
21
34.7437511666
0
LINE
8
0
62
9
6
CONTINUOUS
10
76.2829392816
20
34.6245428725
11
76.2073047375
21
34.5510462146
0
POLYLINE
8
0
62
9
6
CONTINUOUS
66
1
70
0
0
VERTEX
8
0
62
9
6
CONTINUOUS
10
52.8624621128
20
32.0362353455
0
VERTEX
8
0
62
9
6
CONTINUOUS
10
52.7508035393
20
31.9487311809
0
VERTEX
8
0
62
9
6
CONTINUOUS
10
52.6374953911
20
31.8484458868
0
VERTEX
8
0
62
9
6
CONTINUOUS
10
52.5231818920
20
31.7346291199
0
VERTEX
8
0
62
9
6
CONTINUOUS
10
52.4088606563
20
31.6067875190
0
VERTEX
8
0
62
9
6
CONTINUOUS
10
52.2954346951
20
31.4642320131
0
VERTEX
8
0
62
9
6
CONTINUOUS
10
52.1840528151
20
31.3064019991
0
VERTEX
8
0
62
9
6
CONTINUOUS
10
52.0757871174
20
31.1323486316
0
VERTEX
8
0
62
9
6
CONTINUOUS
10
51.9718884574
20
30.9408555390
0
VERTEX
8
0
62
9
6
CONTINUOUS
10
51.8746303584
20
30.7320449154
0
VERTEX
8
0
62
9
6
CONTINUOUS
10
51.7863275306
20
30.5058164342
0
VERTEX
8
0
62
9
6
CONTINUOUS
10
51.7097110926
20
30.2624071967
0
SEQEND
0
POLYLINE
8
0
62
9
6
CONTINUOUS
66
1
70
0
0
VERTEX
8
0
62
9
6
CONTINUOUS
10
167.2404992155
20
32.2844518625
0
VERTEX
8
0
62
9
6
CONTINUOUS
10
167.2240321048
20
32.1040646496
0
VERTEX
8
0
62
9
6
CONTINUOUS
10
167.2164601351
20
32.0262293019
0
VERTEX
8
0
62
9
6
CONTINUOUS
10
167.2099431654
20
31.9630027280
0
VERTEX
8
0
62
9
6
CONTINUOUS
10
167.2045900663
20
31.9153271553
0
SEQEND
0
POLYLINE
8
0
62
9
6
CONTINUOUS
66
1
70
0
0
VERTEX
8
0
62
9
6
CONTINUOUS
10
146.4812112569
20
34.1154745588
0
VERTEX
8
0
62
9
6
CONTINUOUS
10
146.4527499040
20
34.0155458618
0
VERTEX
8
0
62
9
6
CONTINUOUS
10
146.4256165112
20
33.9243301376
0
VERTEX
8
0
62
9
6
CONTINUOUS
10
146.4007089708
20
33.8449483924
0
VERTEX
8
0
62
9
6
CONTINUOUS
10
146.3799770317
20
33.7836145866
0
VERTEX
8
0
62
9
6
CONTINUOUS
10
146.3637532461
20
33.7413125496
0
VERTEX
8
0
62
9
6
CONTINUOUS
10
146.3531961802
20
33.7212248835
0
SEQEND
0
LINE
8
0
62
7
6
CONTINUOUS
10
119.0724172518
20
59.0418254764
11
120.4724172518
21
60.4418254764
0
LINE
8
0
62
9
6
CONTINUOUS
10
76.2114117684
20
34.5549277393
11
76.1236539322
21
34.4776774196
0
LINE
8
0
62
9
6
CONTINUOUS
10
76.1008062000
20
34.7448394761
11
76.0602392497
21
34.7098937945
0
LINE
8
0
62
9
6
CONTINUOUS
10
76.1286843157
20
34.4817634743
11
76.0283651608
21
34.4014096788
0
LINE
8
0
62
9
6
CONTINUOUS
10
76.0616696240
20
34.7110315448
11
76.0135154437
21
34.6739981086
0
LINE
8
0
62
9
6
CONTINUOUS
10
52.8624637865
20
32.0362363155
11
52.9708692862
21
32.1110062058
0
POLYLINE
8
0
62
9
6
CONTINUOUS
66
1
70
0
0
VERTEX
8
0
62
9
6
CONTINUOUS
10
53.1186102363
20
34.6600755844
0
VERTEX
8
0
62
9
6
CONTINUOUS
10
52.9917092383
20
34.5767974519
0
VERTEX
8
0
62
9
6
CONTINUOUS
10
52.8717838925
20
34.4839883028
0
VERTEX
8
0
62
9
6
CONTINUOUS
10
52.7595030396
20
34.3821969357
0
SEQEND
0
POLYLINE
8
0
62
9
6
CONTINUOUS
66
1
70
0
0
VERTEX
8
0
62
9
6
CONTINUOUS
10
167.2045883022
20
31.9153197072
0
VERTEX
8
0
62
9
6
CONTINUOUS
10
167.2005448446
20
31.8846324778
0
VERTEX
8
0
62
9
6
CONTINUOUS
10
167.1980943155
20
31.8731640067
0
SEQEND
0
LINE
8
0
62
9
6
CONTINUOUS
10
76.0339681737
20
34.4056058084
11
75.9213521221
21
34.3231213679
0
POLYLINE
8
0
62
9
6
CONTINUOUS
66
1
70
0
0
VERTEX
8
0
62
9
6
CONTINUOUS
10
77.4723272200
20
36.0319460022
0
VERTEX
8
0
62
9
6
CONTINUOUS
10
77.4042054247
20
35.9822780908
0
VERTEX
8
0
62
9
6
CONTINUOUS
10
77.3611591039
20
35.9180612215
0
SEQEND
0
LINE
8
0
62
9
6
CONTINUOUS
10
76.0150654772
20
34.6751608888
11
75.9595084981
21
34.6365974942
0
POLYLINE
8
0
62
9
6
CONTINUOUS
66
1
70
0
0
VERTEX
8
0
62
9
6
CONTINUOUS
10
75.9270138602
20
34.3271826749
0
VERTEX
8
0
62
9
6
CONTINUOUS
10
75.8019945206
20
34.2435927847
0
VERTEX
8
0
62
9
6
CONTINUOUS
10
75.6699887398
20
34.1635651724
0
SEQEND
0
LINE
8
0
62
9
6
CONTINUOUS
10
75.9611218125
20
34.6376699260
11
75.8983100741
21
34.5980230872
0
POLYLINE
8
0
62
9
6
CONTINUOUS
66
1
70
0
0
VERTEX
8
0
62
9
6
CONTINUOUS
10
52.8358019580
20
31.5802397238
0
VERTEX
8
0
62
9
6
CONTINUOUS
10
52.7237132955
20
31.5117557251
0
VERTEX
8
0
62
9
6
CONTINUOUS
10
52.6096870432
20
31.4336866763
0
VERTEX
8
0
62
9
6
CONTINUOUS
10
52.4945930448
20
31.3454379692
0
VERTEX
8
0
62
9
6
CONTINUOUS
10
52.3793209737
20
31.2463360115
0
VERTEX
8
0
62
9
6
CONTINUOUS
10
52.2652698592
20
31.1360604539
0
VERTEX
8
0
62
9
6
CONTINUOUS
10
52.1533979469
20
31.0137362933
0
VERTEX
8
0
62
9
6
CONTINUOUS
10
52.0465179231
20
30.8805535856
0
VERTEX
8
0
62
9
6
CONTINUOUS
10
51.9465736043
20
30.7371134254
0
VERTEX
8
0
62
9
6
CONTINUOUS
10
51.8559504214
20
30.5851542422
0
VERTEX
8
0
62
9
6
CONTINUOUS
10
51.7768442070
20
30.4270912091
0
VERTEX
8
0
62
9
6
CONTINUOUS
10
51.7097110926
20
30.2624071967
0
SEQEND
0
LINE
8
0
62
9
6
CONTINUOUS
10
75.6758185676
20
34.1668965858
11
75.8078558258
21
34.2473329149
0
POLYLINE
8
0
62
9
6
CONTINUOUS
66
1
70
0
0
VERTEX
8
0
62
9
6
CONTINUOUS
10
53.2518347870
20
34.7333701142
0
VERTEX
8
0
62
9
6
CONTINUOUS
10
53.1186906650
20
34.6600655189
0
VERTEX
8
0
62
9
6
CONTINUOUS
10
52.9917707643
20
34.5767667363
0
SEQEND
0
LINE
8
0
62
9
6
CONTINUOUS
10
52.8358154567
20
31.5802470745
11
52.9452358768
21
31.6397637010
0
POLYLINE
8
0
62
9
6
CONTINUOUS
66
1
70
0
0
VERTEX
8
0
62
9
6
CONTINUOUS
10
53.7106770010
20
34.0224690549
0
VERTEX
8
0
62
9
6
CONTINUOUS
10
53.6340912667
20
33.9829021188
0
VERTEX
8
0
62
9
6
CONTINUOUS
10
53.5616717098
20
33.9370310976
0
VERTEX
8
0
62
9
6
CONTINUOUS
10
53.4938811006
20
33.8852030144
0
SEQEND
0
LINE
8
0
62
7
6
CONTINUOUS
10
120.4724172518
20
284.1418254764
11
118.8558364980
21
286.9418254764
0
LINE
8
0
62
9
6
CONTINUOUS
10
75.9000362648
20
34.5990527099
11
75.8299743596
21
34.5585921673
0
LINE
8
0
62
9
6
CONTINUOUS
10
75.6758185676
20
34.1668965858
11
75.5252141306
21
34.0838340128
0
LINE
8
0
62
9
6
CONTINUOUS
10
75.8318355618
20
34.5596344960
11
75.7547398185
21
34.5187410062
0
LINE
8
0
62
7
6
CONTINUOUS
10
115.7402441282
20
60.4418254764
11
115.3744529740
21
60.2541653708
0
LINE
8
0
62
9
6
CONTINUOUS
10
75.5305670747
20
34.0866875872
11
75.3670517653
21
34.0052937486
0
LINE
8
0
62
9
6
CONTINUOUS
10
75.7566409613
20
34.5197274093
11
75.6727283512
21
34.4787409508
0
LINE
8
0
62
7
6
CONTINUOUS
10
115.3793231283
20
60.2565589484
11
115.0173614681
21
60.0806281992
0
LINE
8
0
62
7
6
CONTINUOUS
10
115.0260462478
20
60.0847263384
11
114.6694329641
21
59.9215161302
0
LINE
8
0
62
7
6
CONTINUOUS
10
114.6808448497
20
59.9265751101
11
114.3292774006
21
59.7759226587
0
POLYLINE
8
0
62
9
6
CONTINUOUS
66
1
70
0
0
VERTEX
8
0
62
9
6
CONTINUOUS
10
53.1536627538
20
31.7344216122
0
VERTEX
8
0
62
9
6
CONTINUOUS
10
53.0516123395
20
31.6910618275
0
VERTEX
8
0
62
9
6
CONTINUOUS
10
52.9452250058
20
31.6397575792
0
SEQEND
0
LINE
8
0
62
9
6
CONTINUOUS
10
53.7931129492
20
34.0561845642
11
53.7120136022
21
34.0230881834
0
LINE
8
0
62
7
6
CONTINUOUS
10
114.3424248450
20
59.7813628725
11
113.9959255202
21
59.6431686508
0
LINE
8
0
62
7
6
CONTINUOUS
10
114.0098780663
20
59.6485223156
11
113.6685782644
21
59.5228741614
0
LINE
8
0
62
7
6
CONTINUOUS
10
113.6824781118
20
59.5277756593
11
113.3464588939
21
59.4145373059
0
LINE
8
0
62
7
6
CONTINUOUS
10
113.3595115032
20
59.4187295309
11
113.0285311943
21
59.3178447693
0
LINE
8
0
62
9
6
CONTINUOUS
10
167.9739654847
20
32.1110060814
11
167.9328325356
21
32.0136134522
0
POLYLINE
8
0
62
9
6
CONTINUOUS
66
1
70
0
0
VERTEX
8
0
62
9
6
CONTINUOUS
10
167.9328321596
20
32.0136138324
0
VERTEX
8
0
62
9
6
CONTINUOUS
10
167.8936800936
20
31.9250934781
0
VERTEX
8
0
62
9
6
CONTINUOUS
10
167.8583948360
20
31.8497093074
0
VERTEX
8
0
62
9
6
CONTINUOUS
10
167.8286759533
20
31.7910923099
0
VERTEX
8
0
62
9
6
CONTINUOUS
10
167.8059548994
20
31.7520658601
0
VERTEX
8
0
62
9
6
CONTINUOUS
10
167.7911676424
20
31.7344126628
0
SEQEND
0
LINE
8
0
62
9
6
CONTINUOUS
10
75.6745545216
20
34.4795938705
11
75.5839459303
21
34.4387703952
0
LINE
8
0
62
9
6
CONTINUOUS
10
75.3718315994
20
34.0075158439
11
75.1952090880
21
33.9287884222
0
LINE
8
0
62
9
6
CONTINUOUS
10
75.5857011188
20
34.4395180869
11
75.4883287064
21
34.3990363969
0
LINE
8
0
62
9
6
CONTINUOUS
10
75.1990818024
20
33.9304068840
11
75.0090945331
21
33.8552142694
0
LINE
8
0
62
9
6
CONTINUOUS
10
53.1536663653
20
31.7344124615
11
53.2478235499
21
31.7691717633
0
POLYLINE
8
0
62
9
6
CONTINUOUS
66
1
70
0
0
VERTEX
8
0
62
9
6
CONTINUOUS
10
52.2029859638
20
33.3234434675
0
VERTEX
8
0
62
9
6
CONTINUOUS
10
52.2767928274
20
33.3483093586
0
VERTEX
8
0
62
9
6
CONTINUOUS
10
52.3947164769
20
33.3624559293
0
VERTEX
8
0
62
9
6
CONTINUOUS
10
52.5508959546
20
33.3651800769
0
SEQEND
0
POLYLINE
8
0
62
9
6
CONTINUOUS
66
1
70
0
0
VERTEX
8
0
62
9
6
CONTINUOUS
10
53.2067397882
20
32.1922426065
0
VERTEX
8
0
62
9
6
CONTINUOUS
10
53.0875451751
20
32.1544718814
0
VERTEX
8
0
62
9
6
CONTINUOUS
10
52.9708692859
20
32.1110069479
0
SEQEND
0
LINE
8
0
62
9
6
CONTINUOUS
10
53.8771237220
20
34.0821478417
11
53.7909367415
21
34.0554074743
0
POLYLINE
8
0
62
9
6
CONTINUOUS
66
1
70
0
0
VERTEX
8
0
62
9
6
CONTINUOUS
10
74.5916376750
20
33.7212260934
0
VERTEX
8
0
62
9
6
CONTINUOUS
10
74.8092024635
20
33.7860024412
0
VERTEX
8
0
62
9
6
CONTINUOUS
10
75.0118204496
20
33.8562352133
0
SEQEND
0
POLYLINE
8
0
62
9
6
CONTINUOUS
66
1
70
0
0
VERTEX
8
0
62
9
6
CONTINUOUS
10
75.0370279200
20
34.2470084418
0
VERTEX
8
0
62
9
6
CONTINUOUS
10
75.1610383813
20
34.2837866867
0
VERTEX
8
0
62
9
6
CONTINUOUS
10
75.2777201266
20
34.3216276989
0
VERTEX
8
0
62
9
6
CONTINUOUS
10
75.3873236325
20
34.3603272198
0
VERTEX
8
0
62
9
6
CONTINUOUS
10
75.4899726735
20
34.3996902688
0
SEQEND
0
LINE
8
0
62
7
6
CONTINUOUS
10
172.0462133621
20
13.9418254764
11
172.5462133621
21
14.4418254764
0
LINE
8
0
62
7
6
CONTINUOUS
10
100.4724172518
20
284.1418254764
11
120.4724172518
21
284.1418254764
0
LINE
8
0
62
7
6
CONTINUOUS
10
102.0889980055
20
286.9418254764
11
118.8558364980
21
286.9418254764
0
ARC
8
0
62
7
6
CONTINUOUS
10
168.0017274909
20
32.9418254764
40
2.0000000000
50
11.0000000000
51
90.0000000000
0
ARC
8
0
62
7
6
CONTINUOUS
10
52.9431070126
20
32.9418254764
40
2.0000000000
50
90.0000000000
51
169.0000000000
0
ARC
8
0
62
7
6
CONTINUOUS
10
89.6271177901
20
56.9418254764
40
2.0000000000
50
90.0000000000
51
150.0000000000
0
ARC
8
0
62
7
6
CONTINUOUS
10
131.3177167134
20
56.9418254764
40
2.0000000000
50
30.0000000000
51
90.0000000000
0
ENDSEC
0
EOF
