0
SECTION
2
HEADER
9
$EXTMAX
10
210.0000000000
20
297.0000000000
30
0.0000000000
9
$EXTMIN
10
0.0000000000
20
0.0000000000
30
0.0000000000
9
$LIMMIN
10
0.0000000000
20
0.0000000000
9
$LIMMAX
10
210.0000000000
20
297.0000000000
9
$VIEWCTR
10
105.0000000000
20
148.5000000000
9
$VIEWSIZE
40
297.0000000000
9
$CLAYER
8
0
9
$LTSCALE
40
19.3600000000
9
$CELTYPE
6
BYLAYER
9
$DIMSCALE
40
1
9
$DIMASZ
40
3.5000000000
9
$DIMEXO
40
2.2000000000
9
$DIMDLI
40
13.3760000000
9
$DIMEXE
40
6.3360000000
9
$DIMCEN
40
3.1680000000
9
$DIMLFAC
40
1.0000000000
9
$DIMBLK
1
_FILLED
9
$DIMTXT
40
3.5000000000
9
$PDMODE
70
3
9
$PDSIZE
40
0.3125000000
0
ENDSEC
0
SECTION
2
TABLES
0
TABLE
2
LTYPE
70
6
0
LTYPE
2
BYBLOCK
70
0
3

72
65
73
0
40
0.0
0
LTYPE
2
BYLAYER
70
0
3

72
65
73
0
40
0.0
0
LTYPE
2
CONTINUOUS
70
64
3
Solid line
72
65
73
0
40
0
0
LTYPE
2
CENTER
70
64
3
____ _ ____ _ ____ _ ____ _ ____ _ ____ _ ____
72
65
73
4
40
0.6
49
0.375
49
-0.075
49
0.075
49
-0.075
0
LTYPE
2
HIDDEN
70
64
3
- - - - - - - - - - - - - - - - - - - -
72
65
73
2
40
0.2
49
0.1
49
-0.1
0
LTYPE
2
PHANTOM
70
64
3
_____ _ _ _____ _ _ _____ _ _ _____
72
65
73
6
40
0.8
49
0.45
49
-0.05
49
0.1
49
-0.05
49
0.1
49
-0.05
0
LTYPE
2
DOT
70
64
3
. . . . . . . . . . . . . . . . . . . .
72
65
73
2
40
0.2
49
0.1
49
-0.1
0
LTYPE
2
DASHED
70
64
3
- - - - - - - - - - - - - - - - - - - -
72
65
73
2
40
0.2
49
0.1
49
-0.1
0
ENDTAB
0
TABLE
2
LAYER
70
36
0
LAYER
2
0
70
0
62
7
6
CONTINUOUS
0
LAYER
2
DEFAULT_1
70
0
62
7
6
CENTER
0
LAYER
2
DEFAULT_2
70
0
62
8
6
HIDDEN
0
LAYER
2
DEFAULT_3
70
0
62
7
6
PHANTOM
0
LAYER
2
ASSI
70
0
62
7
6
CONTINUOUS
0
LAYER
2
CURVE
70
0
62
7
6
CONTINUOUS
0
LAYER
2
PIANI
70
0
62
7
6
CONTINUOUS
0
LAYER
2
PUNTI
70
0
62
7
6
CONTINUOUS
0
LAYER
2
SURF_FILETTI
70
0
62
7
6
CONTINUOUS
0
LAYER
2
TOLL
70
0
62
7
6
CONTINUOUS
0
LAYER
2
XSEC_DATUMS
70
0
62
7
6
CONTINUOUS
0
ENDTAB
0
TABLE
2
STYLE
70
1
0
STYLE
2
STANDARD
70
0
40
0.0
41
0.7143000000
50
0.0
71
0
42
0.2
3
txt
4

0
ENDTAB
0
ENDSEC
0
SECTION
2
BLOCKS
0
BLOCK
8
0
62
2
6
CONTINUOUS
2
*D0
70
65
10
0.0000000000
20
0.0000000000
0
TEXT
8
0
62
2
6
CONTINUOUS
10
100.7203362337
20
255.8223420261
7
STANDARD
40
3.5000000000
1
M
41
0.7143000000
72
0
0
TEXT
8
0
62
2
6
CONTINUOUS
10
103.2203862337
20
255.8223420261
7
STANDARD
40
3.5000000000
1
16
41
0.7143000000
72
0
0
LINE
8
0
62
2
6
CONTINUOUS
10
96.8234704112
20
243.6937087344
11
96.8234704112
21
256.4473420261
0
LINE
8
0
62
2
6
CONTINUOUS
10
112.8234704112
20
243.6937087344
11
112.8234704112
21
256.4473420261
0
LINE
8
0
62
2
6
CONTINUOUS
10
96.8234704112
20
254.9473420261
11
104.8234704112
21
254.9473420261
0
LINE
8
0
62
2
6
CONTINUOUS
10
112.8234704112
20
254.9473420261
11
104.8234704112
21
254.9473420261
0
INSERT
8
0
62
2
6
CONTINUOUS
2
_FILLED
10
96.8234704112
20
254.9473420261
41
  3.500000
42
  3.500000
43
  3.500000
50
180.000000
0
INSERT
8
0
62
2
6
CONTINUOUS
2
_FILLED
10
112.8234704112
20
254.9473420261
41
  3.500000
42
  3.500000
43
  3.500000
0
ENDBLK
8
0
6
BYBLOCK
62
0
0
BLOCK
8
0
62
2
6
CONTINUOUS
2
*D1
70
65
10
0.0000000000
20
0.0000000000
0
TEXT
8
0
62
2
6
CONTINUOUS
10
71.1139669007
20
186.5588017803
7
STANDARD
40
3.5000000000
1
110.9
50
90.0000000000
41
0.7143000000
72
0
0
LINE
8
0
62
2
6
CONTINUOUS
10
98.3235191318
20
245.1936592885
11
70.4889669007
21
245.1936592885
0
LINE
8
0
62
2
6
CONTINUOUS
10
97.8234704112
20
134.3276738189
11
70.4889669007
21
134.3276738189
0
LINE
8
0
62
2
6
CONTINUOUS
10
71.9889669007
20
245.1936592885
11
71.9889669007
21
189.7606665537
0
LINE
8
0
62
2
6
CONTINUOUS
10
71.9889669007
20
134.3276738189
11
71.9889669007
21
189.7606665537
0
INSERT
8
0
62
2
6
CONTINUOUS
2
_FILLED
10
71.9889669007
20
245.1936592885
41
  3.500000
42
  3.500000
43
  3.500000
50
 90.000000
0
INSERT
8
0
62
2
6
CONTINUOUS
2
_FILLED
10
71.9889669007
20
134.3276738189
41
  3.500000
42
  3.500000
43
  3.500000
50
270.000000
0
ENDBLK
8
0
6
BYBLOCK
62
0
0
BLOCK
8
0
62
2
6
CONTINUOUS
2
*D2
70
65
10
0.0000000000
20
0.0000000000
0
TEXT
8
0
62
2
6
CONTINUOUS
10
33.6896940822
20
165.3752511284
7
STANDARD
40
3.5000000000
1
151.9
50
90.0000000000
41
0.7143000000
72
0
0
LINE
8
0
62
2
6
CONTINUOUS
10
98.3235191318
20
245.1936592885
11
33.0646940822
21
245.1936592885
0
LINE
8
0
62
2
6
CONTINUOUS
10
53.3234704112
20
93.2574492227
11
33.0646940822
21
93.2574492227
0
LINE
8
0
62
2
6
CONTINUOUS
10
34.5646940822
20
245.1936592885
11
34.5646940822
21
169.2255542556
0
LINE
8
0
62
2
6
CONTINUOUS
10
34.5646940822
20
93.2574492227
11
34.5646940822
21
169.2255542556
0
INSERT
8
0
62
2
6
CONTINUOUS
2
_FILLED
10
34.5646940822
20
245.1936592885
41
  3.500000
42
  3.500000
43
  3.500000
50
 90.000000
0
INSERT
8
0
62
2
6
CONTINUOUS
2
_FILLED
10
34.5646940822
20
93.2574492227
41
  3.500000
42
  3.500000
43
  3.500000
50
270.000000
0
ENDBLK
8
0
6
BYBLOCK
62
0
0
BLOCK
8
0
62
2
6
CONTINUOUS
2
*D3
70
65
10
0.0000000000
20
0.0000000000
0
TEXT
8
0
62
2
6
CONTINUOUS
10
98.3870029004
20
76.1152206620
7
STANDARD
40
3.5000000000
1
%%c
41
1.3333333333
72
0
0
TEXT
8
0
62
2
6
CONTINUOUS
10
103.0536695670
20
76.1152206620
7
STANDARD
40
3.5000000000
1
102
41
0.7143000000
72
0
0
LINE
8
0
62
2
6
CONTINUOUS
10
53.8234704112
20
92.7574492227
11
53.8234704112
21
73.7402206620
0
LINE
8
0
62
2
6
CONTINUOUS
10
155.8234704112
20
92.7574492227
11
155.8234704112
21
73.7402206620
0
LINE
8
0
62
2
6
CONTINUOUS
10
53.8234704112
20
75.2402206620
11
104.8234704112
21
75.2402206620
0
LINE
8
0
62
2
6
CONTINUOUS
10
155.8234704112
20
75.2402206620
11
104.8234704112
21
75.2402206620
0
INSERT
8
0
62
2
6
CONTINUOUS
2
_FILLED
10
53.8234704112
20
75.2402206620
41
  3.500000
42
  3.500000
43
  3.500000
50
180.000000
0
INSERT
8
0
62
2
6
CONTINUOUS
2
_FILLED
10
155.8234704112
20
75.2402206620
41
  3.500000
42
  3.500000
43
  3.500000
50
360.000000
0
ENDBLK
8
0
6
BYBLOCK
62
0
0
BLOCK
8
0
62
2
6
CONTINUOUS
2
*D4
70
65
10
0.0000000000
20
0.0000000000
0
TEXT
8
0
62
2
6
CONTINUOUS
10
121.1505982340
20
144.6581010584
7
STANDARD
40
3.5000000000
1
Ch.
41
0.7143000000
72
0
0
TEXT
8
0
62
2
6
CONTINUOUS
10
128.6507482340
20
144.6581010584
7
STANDARD
40
3.5000000000
1
13
41
0.7143000000
72
0
0
LINE
8
0
62
2
6
CONTINUOUS
10
98.3234704112
20
134.8276738189
11
98.3234704112
21
145.2831010584
0
LINE
8
0
62
2
6
CONTINUOUS
10
111.3234704112
20
134.8276738189
11
111.3234704112
21
145.2831010584
0
LINE
8
0
62
2
6
CONTINUOUS
10
98.3234704112
20
143.7831010584
11
90.3234704112
21
143.7831010584
0
LINE
8
0
62
2
6
CONTINUOUS
10
90.3234704112
20
143.7831010584
11
104.8234704112
21
143.7831010584
0
LINE
8
0
62
2
6
CONTINUOUS
10
111.3234704112
20
143.7831010584
11
133.6508482340
21
143.7831010584
0
LINE
8
0
62
2
6
CONTINUOUS
10
133.6508482340
20
143.7831010584
11
104.8234704112
21
143.7831010584
0
INSERT
8
0
62
2
6
CONTINUOUS
2
_FILLED
10
98.3234704112
20
143.7831010584
41
  3.500000
42
  3.500000
43
  3.500000
0
INSERT
8
0
62
2
6
CONTINUOUS
2
_FILLED
10
111.3234704112
20
143.7831010584
41
  3.500000
42
  3.500000
43
  3.500000
50
180.000000
0
ENDBLK
8
0
6
BYBLOCK
62
0
0
BLOCK
8
0
2
_FILLED
70
64
10
0.0000000000
20
0.0000000000
0
SOLID
8
0
6
BYBLOCK
62
0
10
0.0000000000
20
0.0000000000
11
-1.0000000000
21
0.1857142857
12
-1.0000000000
22
-0.1857142857
13
-1.0000000000
23
-0.1857142857
0
ENDBLK
8
0
6
BYBLOCK
62
0
0
ENDSEC
0
SECTION
2
ENTITIES
0
DIMENSION
8
0
62
2
6
CONTINUOUS
2
*D0
10
112.8234704112
20
254.9473420261
11
104.4704112337
21
257.5723420261
70
128
13
96.8234704112
23
243.6937087344
14
112.8234704112
24
243.6937087344
0
DIMENSION
8
0
62
2
6
CONTINUOUS
2
*D1
10
71.9889669007
20
134.3276738189
11
69.3639669007
21
192.8089267803
70
128
13
98.3235191318
23
245.1936592885
14
97.8234704112
24
134.3276738189
50
270.000000
0
DIMENSION
8
0
62
2
6
CONTINUOUS
2
*D2
10
34.5646940822
20
93.2574492227
11
31.9396940822
21
171.6253761284
70
128
13
98.3235191318
23
245.1936592885
14
53.3234704112
24
93.2574492227
50
270.000000
0
DIMENSION
8
0
62
2
6
CONTINUOUS
2
*D3
10
155.8234704112
20
75.2402206620
11
104.4704112337
21
77.8652206620
70
128
13
53.8234704112
23
92.7574492227
14
155.8234704112
24
92.7574492227
0
DIMENSION
8
0
62
2
6
CONTINUOUS
2
*D4
10
111.3234704112
20
143.7831010584
11
127.4007232340
21
146.4081010584
70
128
13
98.3234704112
23
134.8276738189
14
111.3234704112
24
134.8276738189
0
LINE
8
0
62
7
6
CONTINUOUS
10
0.0000000000
20
0.0000000000
11
210.0000000000
21
0.0000000000
0
LINE
8
0
62
7
6
CONTINUOUS
10
0.0000000000
20
0.0000000000
11
0.0000000000
21
297.0000000000
0
LINE
8
0
62
7
6
CONTINUOUS
10
210.0000000000
20
0.0000000000
11
210.0000000000
21
297.0000000000
0
LINE
8
0
62
7
6
CONTINUOUS
10
0.0000000000
20
297.0000000000
11
210.0000000000
21
297.0000000000
0
LINE
8
0
62
7
6
CONTINUOUS
10
53.8234704112
20
93.2574492227
11
155.8234704112
21
93.2574492227
0
POLYLINE
8
0
62
7
6
CONTINUOUS
66
1
70
0
0
VERTEX
8
0
62
7
6
CONTINUOUS
10
54.8424007047
20
103.1388599166
0
VERTEX
8
0
62
7
6
CONTINUOUS
10
54.7308412880
20
103.1602385452
0
VERTEX
8
0
62
7
6
CONTINUOUS
10
54.6357519184
20
103.2023042565
0
VERTEX
8
0
62
7
6
CONTINUOUS
10
54.5558966639
20
103.2677356402
0
VERTEX
8
0
62
7
6
CONTINUOUS
10
54.4885564458
20
103.3484969275
0
VERTEX
8
0
62
7
6
CONTINUOUS
10
54.4316490267
20
103.4382944188
0
VERTEX
8
0
62
7
6
CONTINUOUS
10
54.3838898715
20
103.5345804949
0
VERTEX
8
0
62
7
6
CONTINUOUS
10
54.3439549962
20
103.6334976235
0
VERTEX
8
0
62
7
6
CONTINUOUS
10
54.3109272688
20
103.7326818439
0
VERTEX
8
0
62
7
6
CONTINUOUS
10
54.2838159359
20
103.8280271258
0
VERTEX
8
0
62
7
6
CONTINUOUS
10
54.2621210667
20
103.9209021460
0
SEQEND
0
LINE
8
0
62
7
6
CONTINUOUS
10
54.6294923763
20
104.9704369664
11
54.6011346032
21
105.0504137924
0
POLYLINE
8
0
62
7
6
CONTINUOUS
66
1
70
0
0
VERTEX
8
0
62
7
6
CONTINUOUS
10
54.6011346032
20
105.0504137924
0
VERTEX
8
0
62
7
6
CONTINUOUS
10
54.5491590950
20
105.2015852937
0
VERTEX
8
0
62
7
6
CONTINUOUS
10
54.5421936206
20
105.2228895766
0
VERTEX
8
0
62
7
6
CONTINUOUS
10
54.5396331833
20
105.2295920923
0
SEQEND
0
LINE
8
0
62
7
6
CONTINUOUS
10
98.8235147414
20
245.1936548981
11
96.8235295182
21
243.1936401232
0
LINE
8
0
62
7
6
CONTINUOUS
10
130.3068228435
20
108.6554934840
11
130.3209128030
21
108.6574492227
0
POLYLINE
8
0
62
7
6
CONTINUOUS
66
1
70
0
0
VERTEX
8
0
62
7
6
CONTINUOUS
10
155.0175168021
20
104.9704729849
0
VERTEX
8
0
62
7
6
CONTINUOUS
10
154.9262350769
20
104.9627959482
0
VERTEX
8
0
62
7
6
CONTINUOUS
10
154.8161566364
20
104.9562695019
0
VERTEX
8
0
62
7
6
CONTINUOUS
10
154.6851378257
20
104.9516375639
0
VERTEX
8
0
62
7
6
CONTINUOUS
10
154.5324203266
20
104.9497039237
0
VERTEX
8
0
62
7
6
CONTINUOUS
10
154.3571519590
20
104.9513110772
0
VERTEX
8
0
62
7
6
CONTINUOUS
10
154.1597313174
20
104.9572380086
0
VERTEX
8
0
62
7
6
CONTINUOUS
10
153.9406272993
20
104.9682918320
0
VERTEX
8
0
62
7
6
CONTINUOUS
10
153.7017664462
20
104.9851550910
0
VERTEX
8
0
62
7
6
CONTINUOUS
10
153.4467965615
20
105.0082952472
0
VERTEX
8
0
62
7
6
CONTINUOUS
10
153.1750377936
20
105.0386522047
0
SEQEND
0
POLYLINE
8
0
62
7
6
CONTINUOUS
66
1
70
0
0
VERTEX
8
0
62
7
6
CONTINUOUS
10
130.1519506410
20
108.5658333219
0
VERTEX
8
0
62
7
6
CONTINUOUS
10
130.1700645297
20
108.5672376336
0
VERTEX
8
0
62
7
6
CONTINUOUS
10
130.1871811474
20
108.5712134382
0
VERTEX
8
0
62
7
6
CONTINUOUS
10
130.2032953388
20
108.5773563950
0
VERTEX
8
0
62
7
6
CONTINUOUS
10
130.2183927722
20
108.5853324035
0
VERTEX
8
0
62
7
6
CONTINUOUS
10
130.2325222359
20
108.5948375062
0
VERTEX
8
0
62
7
6
CONTINUOUS
10
130.2456608793
20
108.6055820761
0
VERTEX
8
0
62
7
6
CONTINUOUS
10
130.2578251145
20
108.6173150151
0
VERTEX
8
0
62
7
6
CONTINUOUS
10
130.2691326212
20
108.6297538389
0
SEQEND
0
LINE
8
0
62
7
6
CONTINUOUS
10
154.8045335321
20
103.1388528187
11
54.8424007047
21
103.1388599166
0
LINE
8
0
62
7
6
CONTINUOUS
10
153.1750232109
20
105.0386835980
11
56.4718949544
21
105.0386829600
0
POLYLINE
8
0
62
7
6
CONTINUOUS
66
1
70
0
0
VERTEX
8
0
62
7
6
CONTINUOUS
10
79.3260280195
20
108.6574492227
0
VERTEX
8
0
62
7
6
CONTINUOUS
10
79.3401176029
20
108.6554937478
0
VERTEX
8
0
62
7
6
CONTINUOUS
10
79.3534449468
20
108.6502278055
0
VERTEX
8
0
62
7
6
CONTINUOUS
10
79.3660057687
20
108.6416513956
0
VERTEX
8
0
62
7
6
CONTINUOUS
10
79.3777960414
20
108.6297645181
0
SEQEND
0
POLYLINE
8
0
62
7
6
CONTINUOUS
66
1
70
0
0
VERTEX
8
0
62
7
6
CONTINUOUS
10
79.4578230646
20
108.5718289186
0
VERTEX
8
0
62
7
6
CONTINUOUS
10
79.4766342761
20
108.5672412857
0
VERTEX
8
0
62
7
6
CONTINUOUS
10
79.4949836234
20
108.5658372170
0
SEQEND
0
LINE
8
0
62
7
6
CONTINUOUS
10
54.2621210667
20
103.9209021460
11
54.2440057408
21
104.0044062732
0
POLYLINE
8
0
62
7
6
CONTINUOUS
66
1
70
0
0
VERTEX
8
0
62
7
6
CONTINUOUS
10
54.2440057408
20
104.0044062732
0
VERTEX
8
0
62
7
6
CONTINUOUS
10
54.2186735957
20
104.1245920529
0
VERTEX
8
0
62
7
6
CONTINUOUS
10
54.2111011427
20
104.1615249269
0
VERTEX
8
0
62
7
6
CONTINUOUS
10
54.2066979938
20
104.1835202335
0
VERTEX
8
0
62
7
6
CONTINUOUS
10
54.2052592937
20
104.1904523617
0
SEQEND
0
LINE
8
0
62
7
6
CONTINUOUS
10
79.2842966483
20
108.5277260429
11
79.1849175659
21
108.5112940598
0
POLYLINE
8
0
62
7
6
CONTINUOUS
66
1
70
0
0
VERTEX
8
0
62
7
6
CONTINUOUS
10
68.2809048237
20
106.7701354448
0
VERTEX
8
0
62
7
6
CONTINUOUS
10
67.5149515728
20
106.6452823788
0
VERTEX
8
0
62
7
6
CONTINUOUS
10
66.7483071528
20
106.5223603494
0
VERTEX
8
0
62
7
6
CONTINUOUS
10
65.9790750546
20
106.4010419922
0
VERTEX
8
0
62
7
6
CONTINUOUS
10
65.2144391479
20
106.2823094005
0
VERTEX
8
0
62
7
6
CONTINUOUS
10
64.4616959455
20
106.1671446675
0
SEQEND
0
LINE
8
0
62
7
6
CONTINUOUS
10
76.1288785713
20
108.1434289932
11
70.3886699916
21
107.2095854039
0
POLYLINE
8
0
62
7
6
CONTINUOUS
66
1
70
0
0
VERTEX
8
0
62
7
6
CONTINUOUS
10
67.5147889717
20
106.7365965138
0
VERTEX
8
0
62
7
6
CONTINUOUS
10
66.7604587208
20
106.6149223078
0
VERTEX
8
0
62
7
6
CONTINUOUS
10
66.0047742524
20
106.4967399813
0
VERTEX
8
0
62
7
6
CONTINUOUS
10
65.2541839062
20
106.3827635082
0
VERTEX
8
0
62
7
6
CONTINUOUS
10
64.5149072328
20
106.2735329369
0
SEQEND
0
LINE
8
0
62
7
6
CONTINUOUS
10
74.2605068529
20
107.7410638267
11
68.2809048237
21
106.7701354448
0
LINE
8
0
62
7
6
CONTINUOUS
10
79.1849175659
20
108.5112940598
11
79.0326765894
21
108.4870508913
0
LINE
8
0
62
7
6
CONTINUOUS
10
77.4837981717
20
108.2502627833
11
74.2605068529
21
107.7410638267
0
LINE
8
0
62
7
6
CONTINUOUS
10
79.0326765894
20
108.4870508913
11
78.8068369151
21
108.4522971024
0
LINE
8
0
62
7
6
CONTINUOUS
10
78.4619514762
20
108.4005033116
11
77.4837981717
21
108.2502627833
0
LINE
8
0
62
7
6
CONTINUOUS
10
78.8068369151
20
108.4522971024
11
78.4619514762
21
108.4005033116
0
LINE
8
0
62
7
6
CONTINUOUS
10
64.4616959455
20
106.1671446675
11
63.2638267820
21
105.9872882346
0
LINE
8
0
62
7
6
CONTINUOUS
10
63.2638267820
20
105.9872882346
11
62.3120077206
21
105.8473739430
0
LINE
8
0
62
7
6
CONTINUOUS
10
62.3120077206
20
105.8473739430
11
61.3084564545
21
105.7025336512
0
LINE
8
0
62
7
6
CONTINUOUS
10
61.3084564545
20
105.7025336512
11
60.2596469612
21
105.5539541500
0
LINE
8
0
62
7
6
CONTINUOUS
10
64.5149072328
20
106.2735329369
11
63.3054216750
21
106.1016253114
0
LINE
8
0
62
7
6
CONTINUOUS
10
60.2596469612
20
105.5539541500
11
59.1776220087
21
105.4034656847
0
LINE
8
0
62
7
6
CONTINUOUS
10
63.3054216750
20
106.1016253114
11
62.2927543225
21
105.9612718428
0
LINE
8
0
62
7
6
CONTINUOUS
10
59.1776220087
20
105.4034656847
11
58.0818113237
21
105.2538116955
0
LINE
8
0
62
7
6
CONTINUOUS
10
62.2927543225
20
105.9612718428
11
61.2234245960
21
105.8158689800
0
POLYLINE
8
0
62
7
6
CONTINUOUS
66
1
70
0
0
VERTEX
8
0
62
7
6
CONTINUOUS
10
58.0818113237
20
105.2538116955
0
VERTEX
8
0
62
7
6
CONTINUOUS
10
56.9995712093
20
105.1087439228
0
VERTEX
8
0
62
7
6
CONTINUOUS
10
56.4718949544
20
105.0386829600
0
SEQEND
0
LINE
8
0
62
7
6
CONTINUOUS
10
61.2234245960
20
105.8158689800
11
60.1051316722
21
105.6665945284
0
LINE
8
0
62
7
6
CONTINUOUS
10
60.1051316722
20
105.6665945284
11
58.9562355132
21
105.5159102518
0
LINE
8
0
62
7
6
CONTINUOUS
10
58.9562355132
20
105.5159102518
11
57.8034966562
21
105.3673600809
0
LINE
8
0
62
7
6
CONTINUOUS
10
57.8034966562
20
105.3673600809
11
56.6826988883
21
105.2251695723
0
LINE
8
0
62
7
6
CONTINUOUS
10
56.6826988883
20
105.2251695723
11
55.6709013613
21
105.0986752826
0
LINE
8
0
62
7
6
CONTINUOUS
10
55.6709013613
20
105.0986752826
11
54.6294923763
21
104.9704369664
0
POLYLINE
8
0
62
7
6
CONTINUOUS
66
1
70
0
0
VERTEX
8
0
62
7
6
CONTINUOUS
10
56.4717691214
20
105.0386504854
0
VERTEX
8
0
62
7
6
CONTINUOUS
10
56.1708031586
20
105.0053255281
0
VERTEX
8
0
62
7
6
CONTINUOUS
10
55.9015384623
20
104.9817047173
0
VERTEX
8
0
62
7
6
CONTINUOUS
10
55.6618166338
20
104.9657044210
0
VERTEX
8
0
62
7
6
CONTINUOUS
10
55.4487743820
20
104.9557614464
0
VERTEX
8
0
62
7
6
CONTINUOUS
10
55.2600813959
20
104.9507937889
0
VERTEX
8
0
62
7
6
CONTINUOUS
10
55.0941599511
20
104.9497695386
0
VERTEX
8
0
62
7
6
CONTINUOUS
10
54.9494319854
20
104.9519607585
0
VERTEX
8
0
62
7
6
CONTINUOUS
10
54.8246392541
20
104.9565708113
0
VERTEX
8
0
62
7
6
CONTINUOUS
10
54.7184249157
20
104.9629492959
0
VERTEX
8
0
62
7
6
CONTINUOUS
10
54.6294264438
20
104.9704732147
0
SEQEND
0
POLYLINE
8
0
62
7
6
CONTINUOUS
66
1
70
0
0
VERTEX
8
0
62
7
6
CONTINUOUS
10
79.3777968662
20
108.6297637816
0
VERTEX
8
0
62
7
6
CONTINUOUS
10
79.3664556171
20
108.6285314701
0
VERTEX
8
0
62
7
6
CONTINUOUS
10
79.3531969397
20
108.6272565810
0
VERTEX
8
0
62
7
6
CONTINUOUS
10
79.3381128471
20
108.6259366498
0
VERTEX
8
0
62
7
6
CONTINUOUS
10
79.3211868731
20
108.6245756158
0
VERTEX
8
0
62
7
6
CONTINUOUS
10
79.3023951980
20
108.6231766701
0
SEQEND
0
LINE
8
0
62
7
6
CONTINUOUS
10
79.3023951980
20
108.6231766701
11
79.2593887119
21
108.6202731984
0
LINE
8
0
62
7
6
CONTINUOUS
10
79.2593887119
20
108.6202731984
11
79.2092153952
21
108.6172248625
0
LINE
8
0
62
7
6
CONTINUOUS
10
79.2092153952
20
108.6172248625
11
79.1203936078
21
108.6123290545
0
LINE
8
0
62
7
6
CONTINUOUS
10
79.1203936078
20
108.6123290545
11
78.9350946854
21
108.6031188552
0
LINE
8
0
62
7
6
CONTINUOUS
10
78.9350946854
20
108.6031188552
11
78.5936263505
21
108.5875497432
0
LINE
8
0
62
7
6
CONTINUOUS
10
131.1403952637
20
108.5904217890
11
131.0533147190
21
108.5875496970
0
LINE
8
0
62
7
6
CONTINUOUS
10
131.2348306786
20
108.5930634479
11
131.1403952637
21
108.5904217890
0
LINE
8
0
62
7
6
CONTINUOUS
10
131.3932249680
20
108.5966589492
11
131.2348306786
21
108.5930634479
0
LINE
8
0
62
7
6
CONTINUOUS
10
131.5742475056
20
108.5998444897
11
131.3932249680
21
108.5966589492
0
LINE
8
0
62
7
6
CONTINUOUS
10
131.9201771828
20
108.6041821438
11
131.5742475056
21
108.5998444897
0
LINE
8
0
62
7
6
CONTINUOUS
10
132.6207702646
20
108.6092795842
11
131.9201771828
21
108.6041821438
0
LINE
8
0
62
7
6
CONTINUOUS
10
66.2218659848
20
108.6109660919
11
62.3566698291
21
108.5910744579
0
LINE
8
0
62
7
6
CONTINUOUS
10
62.3566698291
20
108.5910744579
11
58.5497326674
21
108.5749857731
0
LINE
8
0
62
7
6
CONTINUOUS
10
58.5497326674
20
108.5749857731
11
56.7641364653
21
108.5683410682
0
LINE
8
0
62
7
6
CONTINUOUS
10
134.4403662302
20
108.6146016925
11
132.6207702646
21
108.6092795842
0
LINE
8
0
62
7
6
CONTINUOUS
10
68.7466481835
20
108.6179957568
11
66.2218659848
21
108.6109660919
0
LINE
8
0
62
7
6
CONTINUOUS
10
152.7163626953
20
108.6574492227
11
130.3209128031
21
108.6574492227
0
LINE
8
0
62
7
6
CONTINUOUS
10
79.3260280233
20
108.6574492227
11
56.9305781271
21
108.6574492227
0
LINE
8
0
62
7
6
CONTINUOUS
10
88.8234704112
20
110.8580825982
11
120.8234704112
21
110.8580825982
0
LINE
8
0
62
7
6
CONTINUOUS
10
142.1064603700
20
108.6160463447
11
134.4403662302
21
108.6146016925
0
LINE
8
0
62
7
6
CONTINUOUS
10
152.8828043571
20
108.5683410682
11
151.6299496996
21
108.5729317657
0
LINE
8
0
62
7
6
CONTINUOUS
10
151.6299496996
20
108.5729317657
11
150.4806659695
21
108.5774085713
0
LINE
8
0
62
7
6
CONTINUOUS
10
150.4806659695
20
108.5774085713
11
147.2902709974
21
108.5910744580
0
LINE
8
0
62
7
6
CONTINUOUS
10
77.1003648746
20
108.6088816955
11
68.7466481835
21
108.6179957568
0
LINE
8
0
62
7
6
CONTINUOUS
10
147.2902709974
20
108.5910744580
11
142.1064603700
21
108.6160463447
0
LINE
8
0
62
7
6
CONTINUOUS
10
77.7009383669
20
108.6044391195
11
77.1003648746
21
108.6088816955
0
LINE
8
0
62
7
6
CONTINUOUS
10
78.0269425616
20
108.6005319229
11
77.7009383669
21
108.6044391195
0
LINE
8
0
62
7
6
CONTINUOUS
10
78.2383413112
20
108.5969635212
11
78.0269425616
21
108.6005319229
0
LINE
8
0
62
7
6
CONTINUOUS
10
78.3660310010
20
108.5942055822
11
78.2383413112
21
108.5969635212
0
LINE
8
0
62
7
6
CONTINUOUS
10
78.4842340423
20
108.5910861951
11
78.3660310010
21
108.5942055822
0
LINE
8
0
62
7
6
CONTINUOUS
10
78.5936262598
20
108.5875497462
11
78.4842340423
21
108.5910861951
0
LINE
8
0
62
7
6
CONTINUOUS
10
130.6442622426
20
108.6063758665
11
131.0533147623
21
108.5875497459
0
LINE
8
0
62
7
6
CONTINUOUS
10
130.5123094442
20
108.6130832442
11
130.6442622426
21
108.6063758665
0
LINE
8
0
62
7
6
CONTINUOUS
10
130.4319394805
20
108.6175629836
11
130.5123094442
21
108.6130832442
0
LINE
8
0
62
7
6
CONTINUOUS
10
130.3866837340
20
108.6203287277
11
130.4319394805
21
108.6175629836
0
POLYLINE
8
0
62
7
6
CONTINUOUS
66
1
70
0
0
VERTEX
8
0
62
7
6
CONTINUOUS
10
130.2691325531
20
108.6297540261
0
VERTEX
8
0
62
7
6
CONTINUOUS
10
130.2787033451
20
108.6287158763
0
VERTEX
8
0
62
7
6
CONTINUOUS
10
130.2897046847
20
108.6276384545
0
VERTEX
8
0
62
7
6
CONTINUOUS
10
130.3020309496
20
108.6265200870
0
VERTEX
8
0
62
7
6
CONTINUOUS
10
130.3158126193
20
108.6253618783
0
VERTEX
8
0
62
7
6
CONTINUOUS
10
130.3311259728
20
108.6241651718
0
VERTEX
8
0
62
7
6
CONTINUOUS
10
130.3480083205
20
108.6229281226
0
VERTEX
8
0
62
7
6
CONTINUOUS
10
130.3866837340
20
108.6203287277
0
SEQEND
0
LINE
8
0
62
7
6
CONTINUOUS
10
153.3541624471
20
105.1761803338
11
155.0174444486
21
104.9704332891
0
LINE
8
0
62
7
6
CONTINUOUS
10
152.0125113524
20
105.3457791916
11
153.3541624471
21
105.1761803338
0
LINE
8
0
62
7
6
CONTINUOUS
10
151.8104037442
20
105.2206975581
11
153.1750232109
21
105.0386835980
0
POLYLINE
8
0
62
7
6
CONTINUOUS
66
1
70
0
0
VERTEX
8
0
62
7
6
CONTINUOUS
10
145.8585143627
20
106.1695076004
0
VERTEX
8
0
62
7
6
CONTINUOUS
10
146.5769084762
20
106.0687515963
0
VERTEX
8
0
62
7
6
CONTINUOUS
10
147.3191590533
20
105.9660811478
0
VERTEX
8
0
62
7
6
CONTINUOUS
10
148.0794197189
20
105.8623729295
0
VERTEX
8
0
62
7
6
CONTINUOUS
10
148.8594580932
20
105.7573652275
0
VERTEX
8
0
62
7
6
CONTINUOUS
10
149.6552937623
20
105.6515811629
0
VERTEX
8
0
62
7
6
CONTINUOUS
10
150.4535243419
20
105.5468032779
0
VERTEX
8
0
62
7
6
CONTINUOUS
10
152.0125113524
20
105.3457791916
0
SEQEND
0
POLYLINE
8
0
62
7
6
CONTINUOUS
66
1
70
0
0
VERTEX
8
0
62
7
6
CONTINUOUS
10
148.0375730875
20
105.7456702842
0
VERTEX
8
0
62
7
6
CONTINUOUS
10
148.7770810683
20
105.6400726898
0
VERTEX
8
0
62
7
6
CONTINUOUS
10
149.5330490191
20
105.5335136495
0
VERTEX
8
0
62
7
6
CONTINUOUS
10
150.2959927802
20
105.4273955805
0
VERTEX
8
0
62
7
6
CONTINUOUS
10
151.8104037442
20
105.2206975581
0
SEQEND
0
LINE
8
0
62
7
6
CONTINUOUS
10
146.6113385193
20
105.9534224369
11
148.0375730875
21
105.7456702842
0
LINE
8
0
62
7
6
CONTINUOUS
10
130.7321956068
20
108.4687684722
11
131.4724230877
21
108.3568426562
0
LINE
8
0
62
7
6
CONTINUOUS
10
131.4724230877
20
108.3568426562
11
132.4324396911
21
108.2083314394
0
LINE
8
0
62
7
6
CONTINUOUS
10
130.5580842749
20
108.4958959564
11
130.7321956068
21
108.4687684722
0
LINE
8
0
62
7
6
CONTINUOUS
10
132.4324396911
20
108.2083314394
11
133.7406750902
21
108.0027865256
0
LINE
8
0
62
7
6
CONTINUOUS
10
133.7406750902
20
108.0027865256
11
135.2388631995
21
107.7646511393
0
POLYLINE
8
0
62
7
6
CONTINUOUS
66
1
70
0
0
VERTEX
8
0
62
7
6
CONTINUOUS
10
142.1322840540
20
106.6452352025
0
VERTEX
8
0
62
7
6
CONTINUOUS
10
142.8991243234
20
106.5222824682
0
VERTEX
8
0
62
7
6
CONTINUOUS
10
143.6684694248
20
106.4009476285
0
VERTEX
8
0
62
7
6
CONTINUOUS
10
144.4330839671
20
106.2822195240
0
VERTEX
8
0
62
7
6
CONTINUOUS
10
145.1856202663
20
106.1670869953
0
VERTEX
8
0
62
7
6
CONTINUOUS
10
146.6113385193
20
105.9534224369
0
SEQEND
0
LINE
8
0
62
7
6
CONTINUOUS
10
135.2388631995
20
107.7646511393
11
136.9966662471
21
107.4823580584
0
LINE
8
0
62
7
6
CONTINUOUS
10
130.4467992965
20
108.5137730434
11
130.5580842749
21
108.4958959564
0
LINE
8
0
62
7
6
CONTINUOUS
10
136.9966662471
20
107.4823580584
11
138.9227559844
21
107.1700573495
0
LINE
8
0
62
7
6
CONTINUOUS
10
137.9168512554
20
107.4286053016
11
139.3053333184
21
107.2018844740
0
LINE
8
0
62
7
6
CONTINUOUS
10
133.4626082303
20
108.1525183283
11
137.9168512554
21
107.4286053016
0
LINE
8
0
62
7
6
CONTINUOUS
10
138.9227559844
20
107.1700573495
11
142.1322840540
21
106.6452352025
0
LINE
8
0
62
7
6
CONTINUOUS
10
130.3805606477
20
108.5247158263
11
130.4467992965
21
108.5137730434
0
POLYLINE
8
0
62
7
6
CONTINUOUS
66
1
70
0
0
VERTEX
8
0
62
7
6
CONTINUOUS
10
79.3777968635
20
108.6297640196
0
VERTEX
8
0
62
7
6
CONTINUOUS
10
79.3984401137
20
108.6085033311
0
VERTEX
8
0
62
7
6
CONTINUOUS
10
79.4184034169
20
108.5919541747
0
VERTEX
8
0
62
7
6
CONTINUOUS
10
79.4382556495
20
108.5798945184
0
VERTEX
8
0
62
7
6
CONTINUOUS
10
79.4578230646
20
108.5718289186
0
SEQEND
0
LINE
8
0
62
7
6
CONTINUOUS
10
54.2052592937
20
104.1904523617
11
53.8234704112
21
93.2574492227
0
POLYLINE
8
0
62
7
6
CONTINUOUS
66
1
70
0
0
VERTEX
8
0
62
7
6
CONTINUOUS
10
54.2052600536
20
104.1904523351
0
VERTEX
8
0
62
7
6
CONTINUOUS
10
54.2201604433
20
104.3740562356
0
VERTEX
8
0
62
7
6
CONTINUOUS
10
54.2518903620
20
104.5555104182
0
VERTEX
8
0
62
7
6
CONTINUOUS
10
54.3001806409
20
104.7332755816
0
VERTEX
8
0
62
7
6
CONTINUOUS
10
54.3646216279
20
104.9058437191
0
VERTEX
8
0
62
7
6
CONTINUOUS
10
54.4446666619
20
105.0717509106
0
VERTEX
8
0
62
7
6
CONTINUOUS
10
54.5396367109
20
105.2295897419
0
SEQEND
0
POLYLINE
8
0
62
7
6
CONTINUOUS
66
1
70
0
0
VERTEX
8
0
62
7
6
CONTINUOUS
10
54.2621222198
20
103.9209021056
0
VERTEX
8
0
62
7
6
CONTINUOUS
10
54.2797392367
20
104.1071435406
0
VERTEX
8
0
62
7
6
CONTINUOUS
10
54.3153940247
20
104.2910501911
0
VERTEX
8
0
62
7
6
CONTINUOUS
10
54.3687615267
20
104.4709454513
0
VERTEX
8
0
62
7
6
CONTINUOUS
10
54.4393552052
20
104.6451892865
0
VERTEX
8
0
62
7
6
CONTINUOUS
10
54.5265314768
20
104.8121931837
0
VERTEX
8
0
62
7
6
CONTINUOUS
10
54.6294955797
20
104.9704346329
0
SEQEND
0
POLYLINE
8
0
62
7
6
CONTINUOUS
66
1
70
0
0
VERTEX
8
0
62
7
6
CONTINUOUS
10
78.5936262598
20
108.5875497462
0
VERTEX
8
0
62
7
6
CONTINUOUS
10
78.5491797856
20
108.5768352322
0
VERTEX
8
0
62
7
6
CONTINUOUS
10
78.5034399719
20
108.5661117811
0
VERTEX
8
0
62
7
6
CONTINUOUS
10
78.4565021768
20
108.5554597284
0
VERTEX
8
0
62
7
6
CONTINUOUS
10
78.4080183392
20
108.5447767510
0
VERTEX
8
0
62
7
6
CONTINUOUS
10
78.3577528826
20
108.5339769428
0
VERTEX
8
0
62
7
6
CONTINUOUS
10
78.3054737381
20
108.5230239012
0
SEQEND
0
LINE
8
0
62
7
6
CONTINUOUS
10
78.3054737381
20
108.5230239012
11
78.1939447717
21
108.5004175614
0
POLYLINE
8
0
62
7
6
CONTINUOUS
66
1
70
0
0
VERTEX
8
0
62
7
6
CONTINUOUS
10
79.4949842546
20
108.5658331179
0
VERTEX
8
0
62
7
6
CONTINUOUS
10
79.4731469686
20
108.5615401425
0
VERTEX
8
0
62
7
6
CONTINUOUS
10
79.4499627338
20
108.5571024911
0
SEQEND
0
LINE
8
0
62
7
6
CONTINUOUS
10
78.1939447717
20
108.5004175614
11
78.0718409655
21
108.4766241162
0
LINE
8
0
62
7
6
CONTINUOUS
10
78.0718409655
20
108.4766241162
11
77.9386483378
21
108.4515345781
0
LINE
8
0
62
7
6
CONTINUOUS
10
79.4499627338
20
108.5571024911
11
79.3995476662
21
108.5477931603
0
LINE
8
0
62
7
6
CONTINUOUS
10
77.9386483378
20
108.4515345781
11
77.7941201315
21
108.4250820863
0
LINE
8
0
62
7
6
CONTINUOUS
10
88.8234704112
20
110.8580825982
11
76.3430583569
21
108.6574492227
0
LINE
8
0
62
7
6
CONTINUOUS
10
77.7941201315
20
108.4250820863
11
77.5555046974
21
108.3826780613
0
LINE
8
0
62
7
6
CONTINUOUS
10
79.3995476662
20
108.5477931603
11
79.3442610814
21
108.5379940266
0
LINE
8
0
62
7
6
CONTINUOUS
10
77.5555046974
20
108.3826780613
11
77.1951888333
21
108.3206144116
0
LINE
8
0
62
7
6
CONTINUOUS
10
79.3442610814
20
108.5379940266
11
79.2842966483
21
108.5277260429
0
LINE
8
0
62
7
6
CONTINUOUS
10
77.1951888333
20
108.3206144116
11
76.5363175749
21
108.2104426948
0
LINE
8
0
62
7
6
CONTINUOUS
10
76.5363175749
20
108.2104426948
11
76.1288785713
21
108.1434289932
0
LINE
8
0
62
7
6
CONTINUOUS
10
70.3886699916
20
107.2095854039
11
67.5147889717
21
106.7365965138
0
LINE
8
0
62
7
6
CONTINUOUS
10
118.2234704112
20
115.0936992227
11
91.4234704112
21
115.0936992227
0
LINE
8
0
62
7
6
CONTINUOUS
10
118.3234704112
20
115.1936992227
11
91.3234704112
21
115.1936992227
0
LINE
8
0
62
7
6
CONTINUOUS
10
91.3234704112
20
118.4409224729
11
118.3234704112
21
118.4409224729
0
LINE
8
0
62
7
6
CONTINUOUS
10
91.8234704112
20
119.3069478767
11
117.8234704112
21
119.3069478767
0
LINE
8
0
62
7
6
CONTINUOUS
10
139.3053333184
20
107.2018844740
11
141.3808316759
21
106.8611158725
0
POLYLINE
8
0
62
7
6
CONTINUOUS
66
1
70
0
0
VERTEX
8
0
62
7
6
CONTINUOUS
10
141.3808316759
20
106.8611158725
0
VERTEX
8
0
62
7
6
CONTINUOUS
10
142.1323835197
20
106.7365598742
0
VERTEX
8
0
62
7
6
CONTINUOUS
10
142.8868708901
20
106.6148616187
0
VERTEX
8
0
62
7
6
CONTINUOUS
10
143.6426550896
20
106.4966646608
0
VERTEX
8
0
62
7
6
CONTINUOUS
10
144.3932343223
20
106.3826908211
0
VERTEX
8
0
62
7
6
CONTINUOUS
10
145.1323396363
20
106.2734869569
0
VERTEX
8
0
62
7
6
CONTINUOUS
10
145.8585143627
20
106.1695076004
0
SEQEND
0
LINE
8
0
62
7
6
CONTINUOUS
10
132.5407525333
20
108.3055358933
11
133.4626082303
21
108.1525183283
0
LINE
8
0
62
7
6
CONTINUOUS
10
130.3200978407
20
108.5349778485
11
130.3805606477
21
108.5247158263
0
LINE
8
0
62
7
6
CONTINUOUS
10
132.1828273832
20
108.3667519196
11
132.5407525333
21
108.3055358933
0
LINE
8
0
62
7
6
CONTINUOUS
10
120.8234704112
20
110.8580825982
11
133.3038824656
21
108.6574492227
0
LINE
8
0
62
7
6
CONTINUOUS
10
130.2652661438
20
108.5445844086
11
130.3200978407
21
108.5349778485
0
LINE
8
0
62
7
6
CONTINUOUS
10
131.9444684852
20
108.4086348012
11
132.1828273832
21
108.3667519196
0
LINE
8
0
62
7
6
CONTINUOUS
10
131.7306987484
20
108.4473868054
11
131.9444684852
21
108.4086348012
0
LINE
8
0
62
7
6
CONTINUOUS
10
130.2159890315
20
108.5535432910
11
130.2652661438
21
108.5445844086
0
LINE
8
0
62
7
6
CONTINUOUS
10
131.6014993183
20
108.4715879558
11
131.7306987484
21
108.4473868054
0
LINE
8
0
62
7
6
CONTINUOUS
10
131.4827617350
20
108.4945354056
11
131.6014993183
21
108.4715879558
0
POLYLINE
8
0
62
7
6
CONTINUOUS
66
1
70
0
0
VERTEX
8
0
62
7
6
CONTINUOUS
10
130.1519506097
20
108.5658331181
0
VERTEX
8
0
62
7
6
CONTINUOUS
10
130.1720125563
20
108.5618855589
0
VERTEX
8
0
62
7
6
CONTINUOUS
10
130.2159890315
20
108.5535432910
0
SEQEND
0
LINE
8
0
62
7
6
CONTINUOUS
10
131.3741456767
20
108.5162971648
11
131.4827617350
21
108.4945354056
0
POLYLINE
8
0
62
7
6
CONTINUOUS
66
1
70
0
0
VERTEX
8
0
62
7
6
CONTINUOUS
10
131.0533147190
20
108.5875496970
0
VERTEX
8
0
62
7
6
CONTINUOUS
10
131.0952053726
20
108.5774397962
0
VERTEX
8
0
62
7
6
CONTINUOUS
10
131.1382063001
20
108.5673328578
0
VERTEX
8
0
62
7
6
CONTINUOUS
10
131.1822214019
20
108.5573017916
0
VERTEX
8
0
62
7
6
CONTINUOUS
10
131.2275917984
20
108.5472493085
0
VERTEX
8
0
62
7
6
CONTINUOUS
10
131.2745471699
20
108.5370937885
0
VERTEX
8
0
62
7
6
CONTINUOUS
10
131.3741456767
20
108.5162971648
0
SEQEND
0
LINE
8
0
62
7
6
CONTINUOUS
10
91.4234704112
20
115.0936992227
11
91.3234704112
21
115.1936992227
0
POLYLINE
8
0
62
7
6
CONTINUOUS
66
1
70
0
0
VERTEX
8
0
62
7
6
CONTINUOUS
10
68.2661096187
20
106.8611130089
0
VERTEX
8
0
62
7
6
CONTINUOUS
10
68.2801120064
20
106.7751331083
0
VERTEX
8
0
62
7
6
CONTINUOUS
10
68.2809050345
20
106.7701341631
0
SEQEND
0
POLYLINE
8
0
62
7
6
CONTINUOUS
66
1
70
0
0
VERTEX
8
0
62
7
6
CONTINUOUS
10
54.8424007047
20
103.1388599166
0
VERTEX
8
0
62
7
6
CONTINUOUS
10
54.8825476940
20
103.4763436836
0
VERTEX
8
0
62
7
6
CONTINUOUS
10
54.9785071441
20
103.8020622064
0
VERTEX
8
0
62
7
6
CONTINUOUS
10
55.1275069604
20
104.1066061935
0
VERTEX
8
0
62
7
6
CONTINUOUS
10
55.3252429288
20
104.3811781314
0
VERTEX
8
0
62
7
6
CONTINUOUS
10
55.5660029776
20
104.6178462796
0
VERTEX
8
0
62
7
6
CONTINUOUS
10
55.8428321659
20
104.8097738075
0
VERTEX
8
0
62
7
6
CONTINUOUS
10
56.1477336355
20
104.9514163121
0
VERTEX
8
0
62
7
6
CONTINUOUS
10
56.4718994586
20
105.0386819374
0
SEQEND
0
POLYLINE
8
0
62
7
6
CONTINUOUS
66
1
70
0
0
VERTEX
8
0
62
7
6
CONTINUOUS
10
56.8662100733
20
108.6468010800
0
VERTEX
8
0
62
7
6
CONTINUOUS
10
56.8979569764
20
108.6547675892
0
VERTEX
8
0
62
7
6
CONTINUOUS
10
56.9305781271
20
108.6574492217
0
SEQEND
0
LINE
8
0
62
7
6
CONTINUOUS
10
112.8234704112
20
122.1936992227
11
96.8234704112
21
122.1936992227
0
LINE
8
0
62
7
6
CONTINUOUS
10
112.6558119802
20
123.1938211230
11
96.8234704112
21
123.1936992227
0
LINE
8
0
62
7
6
CONTINUOUS
10
112.8234704112
20
123.1936992227
11
112.6558119802
21
123.1938211230
0
POLYLINE
8
0
62
7
6
CONTINUOUS
66
1
70
0
0
VERTEX
8
0
62
7
6
CONTINUOUS
10
152.7807306887
20
108.6468009886
0
VERTEX
8
0
62
7
6
CONTINUOUS
10
152.7489838193
20
108.6547675383
0
VERTEX
8
0
62
7
6
CONTINUOUS
10
152.7163626953
20
108.6574492216
0
SEQEND
0
LINE
8
DEFAULT_1
62
2
6
CENTER
10
67.8234704112
20
91.4574492227
11
67.8234704112
21
113.3706118355
0
POLYLINE
8
0
62
7
6
CONTINUOUS
66
1
70
0
0
VERTEX
8
0
62
7
6
CONTINUOUS
10
145.9276885219
20
106.0552206537
0
VERTEX
8
0
62
7
6
CONTINUOUS
10
145.9133338649
20
106.0627320540
0
VERTEX
8
0
62
7
6
CONTINUOUS
10
145.8999431410
20
106.0750674845
0
VERTEX
8
0
62
7
6
CONTINUOUS
10
145.8876495646
20
106.0921042251
0
VERTEX
8
0
62
7
6
CONTINUOUS
10
145.8765754348
20
106.1136727842
0
VERTEX
8
0
62
7
6
CONTINUOUS
10
145.8668309192
20
106.1395585843
0
VERTEX
8
0
62
7
6
CONTINUOUS
10
145.8585129572
20
106.1695040977
0
SEQEND
0
LINE
8
0
62
7
6
CONTINUOUS
10
117.8234704112
20
119.3069478767
11
112.8234704112
21
122.1936992227
0
LINE
8
0
62
7
6
CONTINUOUS
10
97.8235447231
20
122.1937735087
11
96.8235553391
21
123.1937841210
0
POLYLINE
8
0
62
7
6
CONTINUOUS
66
1
70
0
0
VERTEX
8
0
62
7
6
CONTINUOUS
10
78.5936262987
20
108.5875497463
0
VERTEX
8
0
62
7
6
CONTINUOUS
10
78.5970020821
20
108.5431158913
0
VERTEX
8
0
62
7
6
CONTINUOUS
10
78.5991177686
20
108.5045979177
0
VERTEX
8
0
62
7
6
CONTINUOUS
10
78.5999395015
20
108.4726122088
0
VERTEX
8
0
62
7
6
CONTINUOUS
10
78.5994541308
20
108.4476706152
0
VERTEX
8
0
62
7
6
CONTINUOUS
10
78.5976694235
20
108.4301722645
0
VERTEX
8
0
62
7
6
CONTINUOUS
10
78.5946139389
20
108.4203971737
0
SEQEND
0
LINE
8
0
62
7
6
CONTINUOUS
10
112.8234704112
20
125.1936992227
11
111.3234704112
21
126.0597246265
0
LINE
8
0
62
7
6
CONTINUOUS
10
98.3234704112
20
134.3276738189
11
96.8234704109
21
135.1936992229
0
POLYLINE
8
0
62
7
6
CONTINUOUS
66
1
70
0
0
VERTEX
8
0
62
7
6
CONTINUOUS
10
63.7884271767
20
106.1695058136
0
VERTEX
8
0
62
7
6
CONTINUOUS
10
63.7801093745
20
106.1395601507
0
VERTEX
8
0
62
7
6
CONTINUOUS
10
63.7703649915
20
106.1136741528
0
VERTEX
8
0
62
7
6
CONTINUOUS
10
63.7592909729
20
106.0921053497
0
VERTEX
8
0
62
7
6
CONTINUOUS
10
63.7469974918
20
106.0750683206
0
VERTEX
8
0
62
7
6
CONTINUOUS
10
63.7336068532
20
106.0627325603
0
VERTEX
8
0
62
7
6
CONTINUOUS
10
63.7192522773
20
106.0552207926
0
SEQEND
0
POLYLINE
8
0
62
7
6
CONTINUOUS
66
1
70
0
0
VERTEX
8
0
62
7
6
CONTINUOUS
10
65.2938008623
20
108.6053063749
0
VERTEX
8
0
62
7
6
CONTINUOUS
10
65.2982671882
20
108.6207262794
0
VERTEX
8
0
62
7
6
CONTINUOUS
10
65.3031407564
20
108.6336744768
0
VERTEX
8
0
62
7
6
CONTINUOUS
10
65.3083477874
20
108.6439549557
0
VERTEX
8
0
62
7
6
CONTINUOUS
10
65.3138094536
20
108.6514120893
0
VERTEX
8
0
62
7
6
CONTINUOUS
10
65.3194430729
20
108.6559329906
0
VERTEX
8
0
62
7
6
CONTINUOUS
10
65.3251633599
20
108.6574492217
0
SEQEND
0
POLYLINE
8
0
62
7
6
CONTINUOUS
66
1
70
0
0
VERTEX
8
0
62
7
6
CONTINUOUS
10
152.8382466900
20
108.6160026086
0
VERTEX
8
0
62
7
6
CONTINUOUS
10
152.8107530128
20
108.6337629440
0
VERTEX
8
0
62
7
6
CONTINUOUS
10
152.7807306887
20
108.6468009886
0
SEQEND
0
LINE
8
0
62
7
6
CONTINUOUS
10
91.3234704112
20
115.1936992227
11
91.3234704112
21
118.4409224729
0
POLYLINE
8
0
62
7
6
CONTINUOUS
66
1
70
0
0
VERTEX
8
0
62
7
6
CONTINUOUS
10
69.0575440625
20
108.6180511105
0
VERTEX
8
0
62
7
6
CONTINUOUS
10
69.0615677226
20
108.6298022901
0
VERTEX
8
0
62
7
6
CONTINUOUS
10
69.0658518391
20
108.6396036895
0
VERTEX
8
0
62
7
6
CONTINUOUS
10
69.0703479470
20
108.6473444285
0
VERTEX
8
0
62
7
6
CONTINUOUS
10
69.0750051832
20
108.6529369384
0
VERTEX
8
0
62
7
6
CONTINUOUS
10
69.0797708618
20
108.6563179525
0
VERTEX
8
0
62
7
6
CONTINUOUS
10
69.0845910699
20
108.6574492227
0
SEQEND
0
LINE
8
0
62
7
6
CONTINUOUS
10
96.8234704112
20
243.1936992227
11
96.8234704112
21
135.1936992227
0
LINE
8
0
62
7
6
CONTINUOUS
10
96.8234704112
20
125.1936992227
11
96.8234704112
21
123.1936992227
0
LINE
8
0
62
7
6
CONTINUOUS
10
98.3234704112
20
134.3276738189
11
98.3234704112
21
126.0597246265
0
LINE
8
0
62
7
6
CONTINUOUS
10
68.2661091465
20
106.8611158725
11
69.0575440631
21
108.6180511071
0
LINE
8
0
62
7
6
CONTINUOUS
10
56.7641095780
20
108.5683518338
11
54.5396289587
21
105.2295865307
0
LINE
8
0
62
7
6
CONTINUOUS
10
152.8624753445
20
108.5939956656
11
152.8382466900
21
108.6160026086
0
LINE
8
DEFAULT_1
62
2
6
CENTER
10
104.8234704112
20
248.1936992227
11
104.8234704112
21
87.9503510532
0
LINE
8
0
62
7
6
CONTINUOUS
10
63.7884264598
20
106.1695076004
11
65.2937987716
21
108.6053162266
0
LINE
8
0
62
7
6
CONTINUOUS
10
56.7641505573
20
108.5683316806
11
56.7844652994
21
108.5939958121
0
LINE
8
0
62
7
6
CONTINUOUS
10
111.3234704112
20
134.3276738189
11
111.3234704112
21
126.0597246265
0
LINE
8
0
62
7
6
CONTINUOUS
10
152.8827900492
20
108.5683315368
11
152.8624753445
21
108.5939956656
0
LINE
8
0
62
7
6
CONTINUOUS
10
144.3531420509
20
108.6053162266
11
145.8585143627
21
106.1695076004
0
LINE
8
0
62
7
6
CONTINUOUS
10
112.8234704112
20
243.1936992227
11
112.8234704112
21
135.1936992227
0
LINE
8
0
62
7
6
CONTINUOUS
10
112.8234704112
20
125.1936992227
11
112.8234704112
21
123.1936992227
0
LINE
8
0
62
7
6
CONTINUOUS
10
118.3234704112
20
115.1936992227
11
118.3234704112
21
118.4409224729
0
LINE
8
0
62
7
6
CONTINUOUS
10
56.7844652994
20
108.5939958121
11
56.8086939938
21
108.6160027479
0
LINE
8
0
62
7
6
CONTINUOUS
10
152.8828043571
20
108.5683410682
11
155.1073076392
21
105.2295920923
0
LINE
8
0
62
7
6
CONTINUOUS
10
140.5893967593
20
108.6180511071
11
141.3808316759
21
106.8611158725
0
POLYLINE
8
0
62
7
6
CONTINUOUS
66
1
70
0
0
VERTEX
8
0
62
7
6
CONTINUOUS
10
131.0523269532
20
108.4203971592
0
VERTEX
8
0
62
7
6
CONTINUOUS
10
131.0492714925
20
108.4301722226
0
VERTEX
8
0
62
7
6
CONTINUOUS
10
131.0474868078
20
108.4476705477
0
VERTEX
8
0
62
7
6
CONTINUOUS
10
131.0470014577
20
108.4726121178
0
VERTEX
8
0
62
7
6
CONTINUOUS
10
131.0478232084
20
108.5045978059
0
VERTEX
8
0
62
7
6
CONTINUOUS
10
131.0499389092
20
108.5431157615
0
VERTEX
8
0
62
7
6
CONTINUOUS
10
131.0533147029
20
108.5875496018
0
SEQEND
0
POLYLINE
8
0
62
7
6
CONTINUOUS
66
1
70
0
0
VERTEX
8
0
62
7
6
CONTINUOUS
10
140.5893967596
20
108.6180511086
0
VERTEX
8
0
62
7
6
CONTINUOUS
10
140.5853730996
20
108.6298022884
0
VERTEX
8
0
62
7
6
CONTINUOUS
10
140.5810889832
20
108.6396036881
0
VERTEX
8
0
62
7
6
CONTINUOUS
10
140.5765928753
20
108.6473444274
0
VERTEX
8
0
62
7
6
CONTINUOUS
10
140.5719356392
20
108.6529369376
0
VERTEX
8
0
62
7
6
CONTINUOUS
10
140.5671699607
20
108.6563179521
0
VERTEX
8
0
62
7
6
CONTINUOUS
10
140.5623497526
20
108.6574492227
0
SEQEND
0
POLYLINE
8
0
62
7
6
CONTINUOUS
66
1
70
0
0
VERTEX
8
0
62
7
6
CONTINUOUS
10
56.8086939938
20
108.6160027479
0
VERTEX
8
0
62
7
6
CONTINUOUS
10
56.8361877111
20
108.6337630650
0
VERTEX
8
0
62
7
6
CONTINUOUS
10
56.8662100733
20
108.6468010800
0
SEQEND
0
POLYLINE
8
0
62
7
6
CONTINUOUS
66
1
70
0
0
VERTEX
8
0
62
7
6
CONTINUOUS
10
144.3531420599
20
108.6053162689
0
VERTEX
8
0
62
7
6
CONTINUOUS
10
144.3486752749
20
108.6207352547
0
VERTEX
8
0
62
7
6
CONTINUOUS
10
144.3438012802
20
108.6336822273
0
VERTEX
8
0
62
7
6
CONTINUOUS
10
144.3385938638
20
108.6439611804
0
VERTEX
8
0
62
7
6
CONTINUOUS
10
144.3331318617
20
108.6514164995
0
VERTEX
8
0
62
7
6
CONTINUOUS
10
144.3274979638
20
108.6559353173
0
VERTEX
8
0
62
7
6
CONTINUOUS
10
144.3217774625
20
108.6574492227
0
SEQEND
0
LINE
8
0
62
7
6
CONTINUOUS
10
112.8234704112
20
135.1936992227
11
111.3234704112
21
134.3276738189
0
LINE
8
0
62
7
6
CONTINUOUS
10
98.3234704112
20
126.0597246265
11
96.8234704112
21
125.1936992227
0
LINE
8
0
62
7
6
CONTINUOUS
10
91.8234704112
20
119.3069478767
11
96.8234704112
21
122.1936992227
0
LINE
8
DEFAULT_1
62
2
6
CENTER
10
141.8234704112
20
91.4574492227
11
141.8234704112
21
113.3706118355
0
LINE
8
0
62
7
6
CONTINUOUS
10
111.8233961030
20
122.1937735124
11
112.8233854876
21
123.1937841253
0
POLYLINE
8
0
62
7
6
CONTINUOUS
66
1
70
0
0
VERTEX
8
0
62
7
6
CONTINUOUS
10
155.3848186546
20
103.9209001837
0
VERTEX
8
0
62
7
6
CONTINUOUS
10
155.3672172888
20
104.1071471124
0
VERTEX
8
0
62
7
6
CONTINUOUS
10
155.3315777883
20
104.2910605467
0
VERTEX
8
0
62
7
6
CONTINUOUS
10
155.2782250682
20
104.4709637821
0
VERTEX
8
0
62
7
6
CONTINUOUS
10
155.2076455302
20
104.6452166748
0
VERTEX
8
0
62
7
6
CONTINUOUS
10
155.1204826287
20
104.8122305935
0
VERTEX
8
0
62
7
6
CONTINUOUS
10
155.0175310049
20
104.9704829028
0
SEQEND
0
POLYLINE
8
0
62
7
6
CONTINUOUS
66
1
70
0
0
VERTEX
8
0
62
7
6
CONTINUOUS
10
155.4416804981
20
104.1904523257
0
VERTEX
8
0
62
7
6
CONTINUOUS
10
155.4267799159
20
104.3740561152
0
VERTEX
8
0
62
7
6
CONTINUOUS
10
155.3950497946
20
104.5555101636
0
VERTEX
8
0
62
7
6
CONTINUOUS
10
155.3467593046
20
104.7332751695
0
VERTEX
8
0
62
7
6
CONTINUOUS
10
155.2823181004
20
104.9058431258
0
VERTEX
8
0
62
7
6
CONTINUOUS
10
155.2022728450
20
105.0717501129
0
VERTEX
8
0
62
7
6
CONTINUOUS
10
155.1073025729
20
105.2295887168
0
SEQEND
0
LINE
8
0
62
7
6
CONTINUOUS
10
141.3660358290
20
106.7701344127
11
141.3733030608
21
106.8150179110
0
LINE
8
0
62
7
6
CONTINUOUS
10
141.3733030608
20
106.8150179110
11
141.3808312901
21
106.8611135327
0
LINE
8
0
62
7
6
CONTINUOUS
10
118.2234704112
20
115.0936992227
11
118.3234704112
21
115.1936992227
0
POLYLINE
8
0
62
7
6
CONTINUOUS
66
1
70
0
0
VERTEX
8
0
62
7
6
CONTINUOUS
10
154.8045335321
20
103.1388528187
0
VERTEX
8
0
62
7
6
CONTINUOUS
10
154.7643864575
20
103.4763386124
0
VERTEX
8
0
62
7
6
CONTINUOUS
10
154.6684263406
20
103.8020592464
0
VERTEX
8
0
62
7
6
CONTINUOUS
10
154.5194252544
20
104.1066052580
0
VERTEX
8
0
62
7
6
CONTINUOUS
10
154.3216874972
20
104.3811789185
0
VERTEX
8
0
62
7
6
CONTINUOUS
10
154.0809252669
20
104.6178483077
0
VERTEX
8
0
62
7
6
CONTINUOUS
10
153.8040936679
20
104.8097764492
0
VERTEX
8
0
62
7
6
CONTINUOUS
10
153.4991897775
20
104.9514188395
0
VERTEX
8
0
62
7
6
CONTINUOUS
10
153.1750216849
20
105.0386835980
0
SEQEND
0
LINE
8
0
62
7
6
CONTINUOUS
10
155.4416815293
20
104.1904523475
11
155.8234704112
21
93.2574492227
0
POLYLINE
8
0
62
7
6
CONTINUOUS
66
1
70
0
0
VERTEX
8
0
62
7
6
CONTINUOUS
10
130.2691331582
20
108.6297545982
0
VERTEX
8
0
62
7
6
CONTINUOUS
10
130.2809288742
20
108.6416461717
0
VERTEX
8
0
62
7
6
CONTINUOUS
10
130.2934934426
20
108.6502258003
0
VERTEX
8
0
62
7
6
CONTINUOUS
10
130.3068228435
20
108.6554934840
0
SEQEND
0
POLYLINE
8
0
62
7
6
CONTINUOUS
66
1
70
0
0
VERTEX
8
0
62
7
6
CONTINUOUS
10
155.4416815288
20
104.1904523617
0
VERTEX
8
0
62
7
6
CONTINUOUS
10
155.4402424460
20
104.1835174187
0
VERTEX
8
0
62
7
6
CONTINUOUS
10
155.4358382517
20
104.1615180990
0
SEQEND
0
POLYLINE
8
0
62
7
6
CONTINUOUS
66
1
70
0
0
VERTEX
8
0
62
7
6
CONTINUOUS
10
155.4358382517
20
104.1615180990
0
VERTEX
8
0
62
7
6
CONTINUOUS
10
155.4173480788
20
104.0723263299
0
VERTEX
8
0
62
7
6
CONTINUOUS
10
155.4029311682
20
104.0043925426
0
VERTEX
8
0
62
7
6
CONTINUOUS
10
155.3848177901
20
103.9209001535
0
SEQEND
0
POLYLINE
8
0
62
7
6
CONTINUOUS
66
1
70
0
0
VERTEX
8
0
62
7
6
CONTINUOUS
10
155.3848177901
20
103.9209001535
0
VERTEX
8
0
62
7
6
CONTINUOUS
10
155.3625637115
20
103.8256866320
0
VERTEX
8
0
62
7
6
CONTINUOUS
10
155.3344079629
20
103.7274419471
0
VERTEX
8
0
62
7
6
CONTINUOUS
10
155.2996280646
20
103.6243972730
0
VERTEX
8
0
62
7
6
CONTINUOUS
10
155.2573084940
20
103.5218590873
0
VERTEX
8
0
62
7
6
CONTINUOUS
10
155.2065029342
20
103.4230315854
0
VERTEX
8
0
62
7
6
CONTINUOUS
10
155.1465010991
20
103.3324527894
0
VERTEX
8
0
62
7
6
CONTINUOUS
10
155.0764799923
20
103.2541937120
0
VERTEX
8
0
62
7
6
CONTINUOUS
10
154.9962086901
20
103.1928595771
0
VERTEX
8
0
62
7
6
CONTINUOUS
10
154.9057769843
20
103.1551578912
0
VERTEX
8
0
62
7
6
CONTINUOUS
10
154.8045335321
20
103.1388528187
0
SEQEND
0
LINE
8
0
62
7
6
CONTINUOUS
10
110.8234260808
20
245.1936548984
11
112.8234113039
21
243.1936401236
0
LINE
8
0
62
7
6
CONTINUOUS
10
155.0977785240
20
105.2015765992
11
155.0457985723
21
105.0503996392
0
LINE
8
0
62
7
6
CONTINUOUS
10
155.0457985723
20
105.0503996392
11
155.0174444486
21
104.9704332891
0
POLYLINE
8
0
62
7
6
CONTINUOUS
66
1
70
0
0
VERTEX
8
0
62
7
6
CONTINUOUS
10
155.1073076392
20
105.2295920923
0
VERTEX
8
0
62
7
6
CONTINUOUS
10
155.1047473191
20
105.2228852226
0
VERTEX
8
0
62
7
6
CONTINUOUS
10
155.0977785240
20
105.2015765992
0
SEQEND
0
LINE
8
0
62
7
6
CONTINUOUS
10
110.8234704111
20
245.1936992227
11
98.8234704114
21
245.1936992227
0
LINE
8
0
62
7
6
CONTINUOUS
10
112.8234704112
20
243.1936992227
11
96.8234704112
21
243.1936992227
0
ARC
8
0
62
7
6
CONTINUOUS
10
92.3234704112
20
118.4409224729
40
1.0000000000
50
120.0000000000
51
180.0000000000
0
ARC
8
0
62
7
6
CONTINUOUS
10
117.3234704112
20
118.4409224729
40
1.0000000000
50
0.0000000000
51
60.0000000000
0
ARC
8
0
62
7
6
CONTINUOUS
10
56.9305670246
20
108.4574492227
40
0.2000000000
50
90.0000007984
51
135.4319633505
0
ARC
8
0
62
7
6
CONTINUOUS
10
152.7163738037
20
108.4574492227
40
0.2000000000
50
33.6736046414
51
89.9999992438
0
ARC
8
0
62
7
6
CONTINUOUS
10
104.8234704112
20
101.2096705009
40
18.6840000000
50
31.0910592203
51
48.0157127080
0
ARC
8
0
62
7
6
CONTINUOUS
10
104.8234704112
20
101.2096705009
40
18.6840000000
50
131.9842872920
51
148.9089407797
0
ENDSEC
0
EOF
