999
DXF file: r0133-677032.dxf
999
Pro/ENGINEER 2009380 by Parametric Technology Corporation
  0
SECTION
  2
HEADER
  9
$ACADVER
  1
AC1015
  9
$DWGCODEPAGE
  3
ANSI_1252
  9
$EXTMAX
 10
210.0
 20
297.0
 30
0.0
  9
$EXTMIN
 10
0.0
 20
0.0
 30
0.0
  9
$LIMMIN
 10
0.0
 20
0.0
  9
$LIMMAX
 10
210.0
 20
297.0
  9
$VIEWCTR
 10
105.0
 20
148.5
  9
$VIEWSIZE
 40
297.0
  9
$CLAYER
  8
0
  9
$LTSCALE
 40
19.36
  9
$CELTYPE
  6
BYLAYER
  9
$DIMSCALE
 40
1.0
  9
$DIMASZ
 40
3.5
  9
$DIMEXO
 40
2.2
  9
$DIMDLI
 40
13.376
  9
$DIMEXE
 40
6.336
  9
$DIMCEN
 40
3.168
  9
$DIMLFAC
 40
1.0
  9
$DIMBLK
  1
_FILLED
  9
$DIMTXT
 40
3.5
  9
$DIMTOL
 70
1
  9
$DIMLIM
 70
0
  9
$DIMTFAC
 40
1.0
  9
$DIMTP
 40
0.01
  9
$DIMTM
 40
0.01
  9
$PDMODE
 70
3
  9
$PDSIZE
 40
0.3125
  9
$HANDSEED
  5
306
  9
$TILEMODE
 70
1
  9
$MEASUREMENT
 70
1
  9
$INSUNITS
 70
4
  0
ENDSEC
  0
SECTION
  2
CLASSES
  0
CLASS
  1
ACDBDICTIONARYWDFLT
  2
AcDbDictionaryWithDefault
  3
AutoCAD 2000
 90
0
280
0
281
0
  0
CLASS
  1
ACDBPLACEHOLDER
  2
AcDbPlaceHolder
  3
AutoCAD 2000
 90
0
280
0
281
0
  0
CLASS
  1
LAYOUT
  2
AcDbLayout
  3
AutoCAD 2000
 90
0
280
0
281
0
  0
ENDSEC
  0
SECTION
  2
TABLES
  0
TABLE
  2
VPORT
  5
8
100
AcDbSymbolTable
 70
2
  0
VPORT
  5
1F4
100
AcDbSymbolTableRecord
100
AcDbViewportTableRecord
  2
*ACTIVE
 70
0
 10
0.0
 20
0.0
 11
1.0
 21
1.0
 12
105.0
 22
148.5
 13
0.0
 23
0.0
 14
1.0
 24
1.0
 15
0.0
 25
0.0
 16
0.0
 26
0.0
 36
1.0
 17
0.0
 27
0.0
 37
0.0
 40
297.0
 41
0.7070707071
 42
50.0
 43
0.0
 44
0.0
 50
0.0
 51
0.0
 71
0
 72
100
 73
1
 74
1
 75
0
 76
0
 77
0
 78
0
  0
ENDTAB
  0
TABLE
  2
LTYPE
  5
5
100
AcDbSymbolTable
 70
6
  0
LTYPE
  5
14
100
AcDbSymbolTableRecord
100
AcDbLinetypeTableRecord
  2
BYBLOCK
 70
0
  3

 72
65
 73
0
 40
0.0
  0
LTYPE
  5
15
100
AcDbSymbolTableRecord
100
AcDbLinetypeTableRecord
  2
BYLAYER
 70
0
  3

 72
65
 73
0
 40
0.0
  0
LTYPE
  5
16
100
AcDbSymbolTableRecord
100
AcDbLinetypeTableRecord
  2
CONTINUOUS
 70
64
  3
Solid line
 72
65
 73
0
 40
0.0
  0
LTYPE
  5
1F5
100
AcDbSymbolTableRecord
100
AcDbLinetypeTableRecord
  2
CENTER
 70
64
  3
____ _ ____ _ ____ _ ____ _ ____ _ ____ _ ____
 72
65
 73
4
 40
0.6
 49
0.375
 74
0
 49
-0.075
 74
0
 49
0.075
 74
0
 49
-0.075
 74
0
  0
LTYPE
  5
1F6
100
AcDbSymbolTableRecord
100
AcDbLinetypeTableRecord
  2
HIDDEN
 70
64
  3
- - - - - - - - - - - - - - - - - - - -
 72
65
 73
2
 40
0.2
 49
0.1
 74
0
 49
-0.1
 74
0
  0
LTYPE
  5
1F7
100
AcDbSymbolTableRecord
100
AcDbLinetypeTableRecord
  2
PHANTOM
 70
64
  3
_____ _ _ _____ _ _ _____ _ _ _____
 72
65
 73
6
 40
0.8
 49
0.45
 74
0
 49
-0.05
 74
0
 49
0.1
 74
0
 49
-0.05
 74
0
 49
0.1
 74
0
 49
-0.05
 74
0
  0
LTYPE
  5
1F8
100
AcDbSymbolTableRecord
100
AcDbLinetypeTableRecord
  2
DOT
 70
64
  3
. . . . . . . . . . . . . . . . . . . .
 72
65
 73
2
 40
0.2
 49
0.1
 74
0
 49
-0.1
 74
0
  0
LTYPE
  5
1F9
100
AcDbSymbolTableRecord
100
AcDbLinetypeTableRecord
  2
DASHED
 70
64
  3
- - - - - - - - - - - - - - - - - - - -
 72
65
 73
2
 40
0.2
 49
0.1
 74
0
 49
-0.1
 74
0
  0
ENDTAB
  0
TABLE
  2
LAYER
  5
2
100
AcDbSymbolTable
 70
36
  0
LAYER
  5
10
100
AcDbSymbolTableRecord
100
AcDbLayerTableRecord
  2
0
 70
0
 62
7
  6
CONTINUOUS
370
-3
390
F
  0
LAYER
  5
1FA
100
AcDbSymbolTableRecord
100
AcDbLayerTableRecord
  2
DEFAULT_1
 70
0
 62
7
  6
CENTER
370
-3
390
F
  0
LAYER
  5
1FB
100
AcDbSymbolTableRecord
100
AcDbLayerTableRecord
  2
DEFAULT_2
 70
0
 62
8
  6
HIDDEN
370
-3
390
F
  0
LAYER
  5
1FC
100
AcDbSymbolTableRecord
100
AcDbLayerTableRecord
  2
DEFAULT_3
 70
0
 62
7
  6
PHANTOM
370
-3
390
F
  0
LAYER
  5
1FD
100
AcDbSymbolTableRecord
100
AcDbLayerTableRecord
  2
ASSI
 70
0
 62
7
  6
CONTINUOUS
370
-3
390
F
  0
LAYER
  5
1FE
100
AcDbSymbolTableRecord
100
AcDbLayerTableRecord
  2
PIANI
 70
0
 62
7
  6
CONTINUOUS
370
-3
390
F
  0
ENDTAB
  0
TABLE
  2
STYLE
  5
3
100
AcDbSymbolTable
 70
1
  0
STYLE
  5
11
100
AcDbSymbolTableRecord
100
AcDbTextStyleTableRecord
  2
STANDARD
 70
0
 40
0.0
 41
0.5
 50
0.0
 71
0
 42
0.2
  3
txt
  4

  0
STYLE
  5
1FF
100
AcDbSymbolTableRecord
100
AcDbTextStyleTableRecord
  2
TEXTSTYLE_1
 70
0
 40
0.0
 41
0.8
 50
0.0
 71
0
 42
0.2
  3
gdt
  4

  0
STYLE
  5
200
100
AcDbSymbolTableRecord
100
AcDbTextStyleTableRecord
  2
TEXTSTYLE_2
 70
0
 40
0.0
 41
0.5
 50
0.0
 71
0
 42
0.2
  3
gdt
  4

  0
ENDTAB
  0
TABLE
  2
VIEW
  5
6
100
AcDbSymbolTable
 70
0
  0
ENDTAB
  0
TABLE
  2
UCS
  5
7
100
AcDbSymbolTable
 70
0
  0
ENDTAB
  0
TABLE
  2
APPID
  5
9
100
AcDbSymbolTable
 70
1
  0
APPID
  5
201
100
AcDbSymbolTableRecord
100
AcDbRegAppTableRecord
  2
ACAD
 70
0
  0
ENDTAB
  0
TABLE
  2
BLOCK_RECORD
  5
1
100
AcDbSymbolTable
 70
0
  0
BLOCK_RECORD
  5
202
100
AcDbSymbolTableRecord
100
AcDbBlockTableRecord
  2
*Model_Space
  0
BLOCK_RECORD
  5
203
100
AcDbSymbolTableRecord
100
AcDbBlockTableRecord
  2
*Paper_Space
  0
BLOCK_RECORD
  5
204
100
AcDbSymbolTableRecord
100
AcDbBlockTableRecord
  2
_FILLED
  0
BLOCK_RECORD
  5
205
100
AcDbSymbolTableRecord
100
AcDbBlockTableRecord
  2
*D0
  0
BLOCK_RECORD
  5
206
100
AcDbSymbolTableRecord
100
AcDbBlockTableRecord
  2
*D1
  0
BLOCK_RECORD
  5
207
100
AcDbSymbolTableRecord
100
AcDbBlockTableRecord
  2
*D2
  0
ENDTAB
  0
TABLE
  2
DIMSTYLE
  5
A
100
AcDbSymbolTable
 70
1
100
AcDbDimStyleTable
 71
0
  0
DIMSTYLE
105
208
100
AcDbSymbolTableRecord
100
AcDbDimStyleTableRecord
  2
STANDARD
 70
0
  3

  4

 40
1.0
 41
3.5
 42
0.0625
 43
0.38
 44
0.18
 45
0.0
 46
0.0
 47
0.01
 48
0.01
140
3.5
141
0.09
142
0.0
143
25.4
144
1.0
145
0.0
146
1.0
147
0.09
 71
1.0
 72
0.0
 73
0
 74
0
 75
0
 76
0
 77
1
 78
8
170
0
171
2
172
0
173
0
174
0
175
0
176
0
177
0
178
0
270
2
271
2
272
2
273
2
274
2
275
0
280
0
281
0
282
0
283
1
284
8
285
0
286
0
287
3
288
0
340
11
341
204
342
204
343
204
344
204
  0
DIMSTYLE
105
209
100
AcDbSymbolTableRecord
100
AcDbDimStyleTableRecord
  2
DIMSTYLE_1
 70
0
  3

  4

 40
1.0
 41
3.5
 42
0.0625
 43
0.38
 44
0.18
 45
0.0
 46
0.0
 47
0.2
 48
0.2
140
3.5
141
0.09
142
0.0
143
25.4
144
1.0
145
0.0
146
1.0
147
0.09
 71
0.0
 72
0.0
 73
0
 74
0
 75
0
 76
0
 77
1
 78
8
170
0
171
2
172
0
173
0
174
0
175
0
176
0
177
0
178
0
270
2
271
2
272
2
273
2
274
2
275
0
280
0
281
0
282
0
283
1
284
8
285
0
286
0
287
3
288
0
340
11
341
204
342
204
343
204
344
204
  0
DIMSTYLE
105
20A
100
AcDbSymbolTableRecord
100
AcDbDimStyleTableRecord
  2
DIMSTYLE_2
 70
0
  3

  4

 40
1.0
 41
3.5
 42
0.0625
 43
0.38
 44
0.18
 45
0.0
 46
0.0
 47
0.1
 48
0.1
140
3.5
141
0.09
142
0.0
143
25.4
144
1.0
145
0.0
146
1.0
147
0.09
 71
0.0
 72
0.0
 73
0
 74
0
 75
0
 76
0
 77
1
 78
8
170
0
171
2
172
0
173
0
174
0
175
0
176
0
177
0
178
0
270
2
271
2
272
2
273
2
274
2
275
0
280
0
281
0
282
0
283
1
284
8
285
0
286
0
287
3
288
0
340
11
341
204
342
204
343
204
344
204
  0
DIMSTYLE
105
20B
100
AcDbSymbolTableRecord
100
AcDbDimStyleTableRecord
  2
DIMSTYLE_3
 70
0
  3

  4

 40
1.0
 41
3.5
 42
0.0625
 43
0.38
 44
0.18
 45
0.0
 46
0.0
 47
0.15
 48
0.15
140
3.5
141
0.09
142
0.0
143
25.4
144
1.0
145
0.0
146
1.0
147
0.09
 71
0.0
 72
0.0
 73
0
 74
0
 75
0
 76
0
 77
1
 78
8
170
0
171
2
172
0
173
0
174
0
175
0
176
0
177
0
178
0
270
2
271
1
272
1
273
2
274
2
275
0
280
0
281
0
282
0
283
1
284
8
285
0
286
0
287
3
288
0
340
11
341
204
342
204
343
204
344
204
  0
ENDTAB
  0
ENDSEC
  0
SECTION
  2
BLOCKS
  0
BLOCK
  5
20
100
AcDbEntity
  8
0
100
AcDbBlockBegin
  2
*Model_Space
 70
0
 10
0.0
 20
0.0
 30
0.0
  3
*Model_Space
  1

  0
ENDBLK
  5
21
100
AcDbEntity
  8
0
100
AcDbBlockEnd
  0
BLOCK
  5
1C
100
AcDbEntity
  8
0
100
AcDbBlockBegin
  2
*Paper_Space
 70
0
 10
0.0
 20
0.0
 30
0.0
  3
*Paper_Space
  1

  0
ENDBLK
  5
1D
100
AcDbEntity
  8
0
100
AcDbBlockEnd
  0
BLOCK
  5
20C
100
AcDbEntity
  8
0
100
AcDbBlockBegin
  2
_FILLED
 70
64
 10
0.0
 20
0.0
  3
_FILLED
  1

  0
SOLID
  5
20D
100
AcDbEntity
  8
0
  6
BYBLOCK
 62
0
100
AcDbTrace
 10
0.0
 20
0.0
 11
-1.0
 21
0.1857142857
 12
-1.0
 22
-0.1857142857
 13
-1.0
 23
-0.1857142857
  0
ENDBLK
  5
20E
100
AcDbEntity
  8
0
  6
BYBLOCK
 62
0
100
AcDbBlockEnd
  0
BLOCK
  5
20F
100
AcDbEntity
  8
0
100
AcDbBlockBegin
 62
2
  6
CONTINUOUS
  2
*D0
 70
65
 10
0.0
 20
0.0
  3
*D0
  1

  0
MTEXT
  5
210
100
AcDbEntity
  8
0
100
AcDbMText
 62
2
  6
CONTINUOUS
  7
STANDARD
 71
2
 72
1
 10
23.0993810478
 20
209.2113494191
 30
0.0
 11
0.0
 21
1.0
 31
0.0
 44
0.9
  1
154.5
 40
3.5
 41
8.75
  0
LINE
  5
211
100
AcDbEntity
  8
0
100
AcDbLine
 62
2
  6
CONTINUOUS
 10
82.548404695
 20
286.4613494191
 11
25.9743810478
 21
286.4613494191
  0
LINE
  5
212
100
AcDbEntity
  8
0
100
AcDbLine
 62
2
  6
CONTINUOUS
 10
44.5663538874
 20
131.9613494191
 11
25.9743810478
 21
131.9613494191
  0
LINE
  5
213
100
AcDbEntity
  8
0
100
AcDbLine
 62
2
  6
CONTINUOUS
 10
27.4743810478
 20
286.4613494191
 11
27.4743810478
 21
209.2113494191
  0
LINE
  5
214
100
AcDbEntity
  8
0
100
AcDbLine
 62
2
  6
CONTINUOUS
 10
27.4743810478
 20
131.9613494191
 11
27.4743810478
 21
209.2113494191
  0
INSERT
  5
215
100
AcDbEntity
  8
0
100
AcDbBlockReference
 62
2
  6
CONTINUOUS
  2
_FILLED
 10
27.4743810478
 20
286.4613494191
 41
3.5
 42
3.5
 43
3.5
 50
90.0
  0
INSERT
  5
216
100
AcDbEntity
  8
0
100
AcDbBlockReference
 62
2
  6
CONTINUOUS
  2
_FILLED
 10
27.4743810478
 20
131.9613494191
 41
3.5
 42
3.5
 43
3.5
 50
270.0
  0
ENDBLK
  5
217
100
AcDbEntity
  8
0
  6
BYBLOCK
 62
0
100
AcDbBlockEnd
  0
BLOCK
  5
218
100
AcDbEntity
  8
0
100
AcDbBlockBegin
 62
2
  6
CONTINUOUS
  2
*D1
 70
65
 10
0.0
 20
0.0
  3
*D1
  1

  0
MTEXT
  5
219
100
AcDbEntity
  8
0
100
AcDbMText
 62
2
  6
CONTINUOUS
  7
STANDARD
 71
2
 72
1
 10
91.3163538874
 20
295.7924544048
 30
0.0
 11
1.0
 21
0.0
 31
0.0
 44
0.9
  1
M20
 40
3.5
 41
5.25
  0
LINE
  5
21A
100
AcDbEntity
  8
0
100
AcDbLine
 62
2
  6
CONTINUOUS
 10
81.3163538874
 20
283.9613494191
 11
81.3163538874
 21
292.9174544048
  0
LINE
  5
21B
100
AcDbEntity
  8
0
100
AcDbLine
 62
2
  6
CONTINUOUS
 10
101.3163538874
 20
283.9613494191
 11
101.3163538874
 21
292.9174544048
  0
LINE
  5
21C
100
AcDbEntity
  8
0
100
AcDbLine
 62
2
  6
CONTINUOUS
 10
81.3163538874
 20
291.4174544048
 11
73.3163538874
 21
291.4174544048
  0
LINE
  5
21D
100
AcDbEntity
  8
0
100
AcDbLine
 62
2
  6
CONTINUOUS
 10
73.3163538874
 20
291.4174544048
 11
91.3163538874
 21
291.4174544048
  0
LINE
  5
21E
100
AcDbEntity
  8
0
100
AcDbLine
 62
2
  6
CONTINUOUS
 10
101.3163538874
 20
291.4174544048
 11
109.3163538874
 21
291.4174544048
  0
LINE
  5
21F
100
AcDbEntity
  8
0
100
AcDbLine
 62
2
  6
CONTINUOUS
 10
109.3163538874
 20
291.4174544048
 11
91.3163538874
 21
291.4174544048
  0
INSERT
  5
220
100
AcDbEntity
  8
0
100
AcDbBlockReference
 62
2
  6
CONTINUOUS
  2
_FILLED
 10
81.3163538874
 20
291.4174544048
 41
3.5
 42
3.5
 43
3.5
  0
INSERT
  5
221
100
AcDbEntity
  8
0
100
AcDbBlockReference
 62
2
  6
CONTINUOUS
  2
_FILLED
 10
101.3163538874
 20
291.4174544048
 41
3.5
 42
3.5
 43
3.5
 50
180.0
  0
ENDBLK
  5
222
100
AcDbEntity
  8
0
  6
BYBLOCK
 62
0
100
AcDbBlockEnd
  0
BLOCK
  5
223
100
AcDbEntity
  8
0
100
AcDbBlockBegin
 62
2
  6
CONTINUOUS
  2
*D2
 70
65
 10
0.0
 20
0.0
  3
*D2
  1

  0
MTEXT
  5
224
100
AcDbEntity
  8
0
100
AcDbMText
 62
2
  6
CONTINUOUS
  7
TEXTSTYLE_2
 71
2
 72
1
 10
91.3163538874
 20
126.4759294132
 30
0.0
 11
1.0
 21
0.0
 31
0.0
 44
0.9
  1
{\Fgdt;n}\Ftxt;102
 40
3.5
 41
9.9166666667
  0
LINE
  5
225
100
AcDbEntity
  8
0
100
AcDbLine
 62
2
  6
CONTINUOUS
 10
40.3338036358
 20
134.6610448326
 11
40.3338036358
 21
120.6009294132
  0
LINE
  5
226
100
AcDbEntity
  8
0
100
AcDbLine
 62
2
  6
CONTINUOUS
 10
142.298904139
 20
134.6610448326
 11
142.298904139
 21
120.6009294132
  0
LINE
  5
227
100
AcDbEntity
  8
0
100
AcDbLine
 62
2
  6
CONTINUOUS
 10
40.3338036358
 20
122.1009294132
 11
91.3163538874
 21
122.1009294132
  0
LINE
  5
228
100
AcDbEntity
  8
0
100
AcDbLine
 62
2
  6
CONTINUOUS
 10
142.298904139
 20
122.1009294132
 11
91.3163538874
 21
122.1009294132
  0
INSERT
  5
229
100
AcDbEntity
  8
0
100
AcDbBlockReference
 62
2
  6
CONTINUOUS
  2
_FILLED
 10
40.3338036358
 20
122.1009294132
 41
3.5
 42
3.5
 43
3.5
 50
180.0
  0
INSERT
  5
22A
100
AcDbEntity
  8
0
100
AcDbBlockReference
 62
2
  6
CONTINUOUS
  2
_FILLED
 10
142.298904139
 20
122.1009294132
 41
3.5
 42
3.5
 43
3.5
  0
ENDBLK
  5
22B
100
AcDbEntity
  8
0
  6
BYBLOCK
 62
0
100
AcDbBlockEnd
  0
ENDSEC
  0
SECTION
  2
ENTITIES
  0
DIMENSION
  5
22C
100
AcDbEntity
  8
0
100
AcDbDimension
 62
2
  6
CONTINUOUS
  2
*D0
 10
27.4743810478
 20
131.9613494191
 11
26.8097031183
 21
205.3001140159
 70
160
 71
2
 42
154.5
  3
DIMSTYLE_1
100
AcDbAlignedDimension
 13
82.548404695
 23
286.4613494191
 14
44.5663538874
 24
131.9613494191
 50
270.0
100
AcDbRotatedDimension
  0
DIMENSION
  5
22D
100
AcDbEntity
  8
0
100
AcDbDimension
 62
2
  6
CONTINUOUS
  2
*D1
 10
101.3163538874
 20
291.4174544048
 11
90.0038538874
 21
294.0424544048
 70
160
 71
2
 42
20.0
  1
M<>
  3
DIMSTYLE_2
100
AcDbAlignedDimension
 13
81.3163538874
 23
283.9613494191
 14
101.3163538874
 24
283.9613494191
100
AcDbRotatedDimension
  0
DIMENSION
  5
22E
100
AcDbEntity
  8
0
100
AcDbDimension
 62
2
  6
CONTINUOUS
  2
*D2
 10
142.298904139
 20
122.1009294132
 11
88.8371872207
 21
124.7259294132
 70
160
 71
2
 42
101.9651005033
  1
%%c<>
  3
DIMSTYLE_3
100
AcDbAlignedDimension
 13
40.3338036358
 23
134.6610448326
 14
142.298904139
 24
134.6610448326
100
AcDbRotatedDimension
  0
LINE
  5
22F
100
AcDbEntity
  8
0
100
AcDbLine
 62
7
  6
CONTINUOUS
 10
0.0
 20
0.0
 11
210.0
 21
0.0
  0
LINE
  5
230
100
AcDbEntity
  8
0
100
AcDbLine
 62
7
  6
CONTINUOUS
 10
0.0
 20
0.0
 11
0.0
 21
297.0
  0
LINE
  5
231
100
AcDbEntity
  8
0
100
AcDbLine
 62
7
  6
CONTINUOUS
 10
210.0
 20
0.0
 11
210.0
 21
297.0
  0
LINE
  5
232
100
AcDbEntity
  8
0
100
AcDbLine
 62
7
  6
CONTINUOUS
 10
0.0
 20
297.0
 11
210.0
 21
297.0
  0
LINE
  5
233
100
AcDbEntity
  8
0
100
AcDbLine
 62
7
  6
CONTINUOUS
 10
40.3338036358
 20
135.1610448326
 11
40.8163538874
 21
134.6613494191
  0
LINE
  5
234
100
AcDbEntity
  8
0
100
AcDbLine
 62
7
  6
CONTINUOUS
 10
45.0663538874
 20
131.9613494191
 11
137.5663538874
 21
131.9613494191
  0
LINE
  5
235
100
AcDbEntity
  8
0
100
AcDbLine
 62
7
  6
CONTINUOUS
 10
141.8163538874
 20
134.6613494191
 11
40.8163538874
 21
134.6613494191
  0
LINE
  5
236
100
AcDbEntity
  8
0
100
AcDbLine
 62
7
  6
CONTINUOUS
 10
142.298904139
 20
135.1610448326
 11
40.3338036358
 21
135.1610448326
  0
LINE
  5
237
100
AcDbEntity
  8
0
100
AcDbLine
 62
7
  6
CONTINUOUS
 10
141.2916295357
 20
141.9649589212
 11
41.3410782391
 21
141.9649589212
  0
LINE
  5
238
100
AcDbEntity
  8
0
100
AcDbLine
 62
7
  6
CONTINUOUS
 10
138.6236430306
 20
145.5841314175
 11
44.0090647442
 21
145.5841314175
  0
LINE
  5
239
100
AcDbEntity
  8
0
100
AcDbLine
 62
7
  6
CONTINUOUS
 10
139.0848838188
 20
152.827759478
 11
118.2863439961
 21
152.8277594853
  0
LINE
  5
23A
100
AcDbEntity
  8
0
100
AcDbLine
 62
7
  6
CONTINUOUS
 10
64.3463634499
 20
152.8277594857
 11
43.547823956
 21
152.827759478
  0
LINE
  5
23B
100
AcDbEntity
  8
0
100
AcDbLine
 62
7
  6
CONTINUOUS
 10
138.613106417
 20
153.1613494191
 11
116.4407601683
 21
153.1613494191
  0
LINE
  5
23C
100
AcDbEntity
  8
0
100
AcDbLine
 62
7
  6
CONTINUOUS
 10
66.191980002
 20
153.1613494191
 11
44.0193191228
 21
153.1613494191
  0
LINE
  5
23D
100
AcDbEntity
  8
0
100
AcDbLine
 62
7
  6
CONTINUOUS
 10
78.3163538874
 20
156.6613494191
 11
71.9418716327
 21
155.9039091939
  0
LINE
  5
23E
100
AcDbEntity
  8
0
100
AcDbLine
 62
7
  6
CONTINUOUS
 10
70.8217396182
 20
155.6373006034
 11
111.8109681566
 21
155.6373006034
  0
LINE
  5
23F
100
AcDbEntity
  8
0
100
AcDbLine
 62
7
  6
CONTINUOUS
 10
71.9418716327
 20
155.9039091939
 11
110.6908361421
 21
155.9039091939
  0
LINE
  5
240
100
AcDbEntity
  8
0
100
AcDbLine
 62
7
  6
CONTINUOUS
 10
104.3163538874
 20
156.6613494191
 11
78.3163538874
 21
156.6613494191
  0
LINE
  5
241
100
AcDbEntity
  8
0
100
AcDbLine
 62
7
  6
CONTINUOUS
 10
110.6908361421
 20
155.9039091939
 11
104.3163538874
 21
156.6613494191
  0
LINE
  5
242
100
AcDbEntity
  8
0
100
AcDbLine
 62
7
  6
CONTINUOUS
 10
45.0663538874
 20
131.9613494191
 11
45.0663538874
 21
134.6613494191
  0
LINE
  5
243
100
AcDbEntity
  8
0
100
AcDbLine
 62
7
  6
CONTINUOUS
 10
40.6441501726
 20
144.0482068663
 11
40.3338036358
 21
135.1610448326
  0
LINE
  5
244
100
AcDbEntity
  8
0
100
AcDbLine
 62
7
  6
CONTINUOUS
 10
83.048404695
 20
286.4613494191
 11
81.3163538874
 21
283.4613494191
  0
LINE
  5
245
100
AcDbEntity
  8
0
100
AcDbLine
 62
7
  6
CONTINUOUS
 10
100.0993727554
 20
161.2007334463
 11
82.5333350192
 21
161.2007334461
  0
LINE
  5
246
100
AcDbEntity
  8
0
100
AcDbLine
 62
7
  6
CONTINUOUS
 10
99.8163538874
 20
161.8978260201
 11
82.8163538874
 21
161.8978260201
  0
LINE
  5
247
100
AcDbEntity
  8
0
100
AcDbLine
 62
7
  6
CONTINUOUS
 10
99.8163538874
 20
163.1434002267
 11
82.8163538874
 21
163.1434002267
  0
LINE
  5
248
100
AcDbEntity
  8
0
100
AcDbLine
 62
7
  6
CONTINUOUS
 10
99.9503284836
 20
163.6434002267
 11
82.6823792912
 21
163.6434002267
  0
LINE
  5
249
100
AcDbEntity
  8
0
100
AcDbLine
 62
7
  6
CONTINUOUS
 10
101.3163538874
 20
166.0094256305
 11
81.3163538874
 21
166.0094256305
  0
LINE
  5
24A
100
AcDbEntity
  8
0
100
AcDbLine
 62
7
  6
CONTINUOUS
 10
118.6135881271
 20
153.1613494191
 11
111.8109681566
 21
155.6373006034
  0
LINE
  5
24B
100
AcDbEntity
  8
0
100
AcDbLine
 62
7
  6
CONTINUOUS
 10
54.3163538874
 20
149.247319756
 11
54.3163538874
 21
153.1613494191
  0
LINE
  5
24C
100
AcDbEntity
  8
0
100
AcDbLine
 62
7
  6
CONTINUOUS
 10
81.3163538874
 20
166.0094256305
 11
82.6823792912
 21
163.6434002267
  0
LINE
  5
24D
100
AcDbEntity
  8
0
100
AcDbLine
 62
7
  6
CONTINUOUS
 10
64.3463634454
 20
152.8277594857
 11
64.3463634353
 21
153.1613494191
  0
LINE
  5
24E
100
AcDbEntity
  8
0
100
AcDbLine
 62
7
  6
CONTINUOUS
 10
43.547823956
 20
152.827759478
 11
40.8697521463
 21
145.2398893504
  0
LINE
  5
24F
100
AcDbEntity
  8
0
100
AcDbLine
 62
7
  6
CONTINUOUS
 10
81.3163538874
 20
283.4613494191
 11
81.3163538874
 21
166.0094256305
  0
LINE
  5
250
100
AcDbEntity
  8
0
100
AcDbLine
 62
7
  6
CONTINUOUS
 10
82.8163538874
 20
163.1434002267
 11
82.8163538874
 21
161.8978260201
  0
LINE
  5
251
100
AcDbEntity
  8
ASSI
100
AcDbLine
 62
2
  6
CENTER
 10
91.3163538874
 20
289.4613494191
 11
91.3163538874
 21
128.9613494191
  0
LINE
  5
252
100
AcDbEntity
  8
0
100
AcDbLine
 62
7
  6
CONTINUOUS
 10
99.8163538874
 20
163.1434002267
 11
99.8163538874
 21
161.8978260201
  0
LINE
  5
253
100
AcDbEntity
  8
0
100
AcDbLine
 62
7
  6
CONTINUOUS
 10
101.3163538874
 20
283.4613494191
 11
101.3163538874
 21
166.0094256305
  0
LINE
  5
254
100
AcDbEntity
  8
0
100
AcDbLine
 62
7
  6
CONTINUOUS
 10
118.2863439985
 20
152.8277594853
 11
118.2863440085
 21
153.1613494191
  0
LINE
  5
255
100
AcDbEntity
  8
0
100
AcDbLine
 62
7
  6
CONTINUOUS
 10
101.3163538874
 20
166.0094256305
 11
99.9503284836
 21
163.6434002267
  0
LINE
  5
256
100
AcDbEntity
  8
0
100
AcDbLine
 62
7
  6
CONTINUOUS
 10
141.762962386
 20
145.2398702041
 11
139.0848838188
 21
152.827759478
  0
LINE
  5
257
100
AcDbEntity
  8
0
100
AcDbLine
 62
7
  6
CONTINUOUS
 10
128.3163538874
 20
149.247319756
 11
128.3163538874
 21
153.1613494191
  0
LINE
  5
258
100
AcDbEntity
  8
0
100
AcDbLine
 62
7
  6
CONTINUOUS
 10
70.8217396182
 20
155.6373006034
 11
64.0191196477
 21
153.1613494191
  0
LINE
  5
259
100
AcDbEntity
  8
0
100
AcDbLine
 62
7
  6
CONTINUOUS
 10
142.298904139
 20
135.1610448326
 11
141.9885576022
 21
144.0482068663
  0
LINE
  5
25A
100
AcDbEntity
  8
0
100
AcDbLine
 62
7
  6
CONTINUOUS
 10
137.5663538874
 20
131.9613494191
 11
137.5663538874
 21
134.6613494191
  0
LINE
  5
25B
100
AcDbEntity
  8
0
100
AcDbLine
 62
7
  6
CONTINUOUS
 10
99.5843030798
 20
286.4613494191
 11
101.3163538874
 21
283.4613494191
  0
LINE
  5
25C
100
AcDbEntity
  8
0
100
AcDbLine
 62
7
  6
CONTINUOUS
 10
101.3163538874
 20
283.4613494191
 11
81.3163538874
 21
283.4613494191
  0
LINE
  5
25D
100
AcDbEntity
  8
0
100
AcDbLine
 62
7
  6
CONTINUOUS
 10
83.048404695
 20
286.4613494191
 11
99.5843030798
 21
286.4613494191
  0
LINE
  5
25E
100
AcDbEntity
  8
0
100
AcDbLine
 62
7
  6
CONTINUOUS
 10
142.298904139
 20
135.1610448326
 11
141.8163538874
 21
134.6613494191
  0
LINE
  5
25F
100
AcDbEntity
  8
0
100
AcDbLine
 62
7
  6
CONTINUOUS
 10
54.3163538874
 20
71.5098731629
 11
54.3163538874
 21
69.7746933883
  0
LINE
  5
260
100
AcDbEntity
  8
0
100
AcDbLine
 62
7
  6
CONTINUOUS
 10
54.3163538874
 20
47.4454440847
 11
54.3163538874
 21
49.1806238592
  0
LINE
  5
261
100
AcDbEntity
  8
0
100
AcDbLine
 62
7
  6
CONTINUOUS
 10
64.3463634454
 20
48.7091286951
 11
64.3463634353
 21
49.1806238726
  0
LINE
  5
262
100
AcDbEntity
  8
0
100
AcDbLine
 62
7
  6
CONTINUOUS
 10
64.3463665784
 20
70.2461885552
 11
64.346366579
 21
69.7746933878
  0
LINE
  5
263
100
AcDbEntity
  8
0
100
AcDbLine
 62
7
  6
CONTINUOUS
 10
128.3163538874
 20
48.7091286924
 11
118.2863439961
 21
48.709128695
  0
LINE
  5
264
100
AcDbEntity
  8
0
100
AcDbLine
 62
7
  6
CONTINUOUS
 10
64.3463634499
 20
48.7091286951
 11
54.3163538874
 21
48.7091286924
  0
LINE
  5
265
100
AcDbEntity
  8
0
100
AcDbLine
 62
7
  6
CONTINUOUS
 10
128.3163538874
 20
49.1806238592
 11
118.2863440085
 21
49.1806238713
  0
LINE
  5
266
100
AcDbEntity
  8
0
100
AcDbLine
 62
7
  6
CONTINUOUS
 10
64.3463634353
 20
49.1806238726
 11
54.3163538874
 21
49.1806238592
  0
LINE
  5
267
100
AcDbEntity
  8
ASSI
100
AcDbLine
 62
2
  6
CENTER
 10
91.3163538874
 20
59.4776586238
 11
91.3163538874
 21
4.1139410188
  0
LINE
  5
268
100
AcDbEntity
  8
ASSI
100
AcDbLine
 62
2
  6
CENTER
 10
91.3163538874
 20
59.4776586238
 11
91.3163538874
 21
114.8413762288
  0
LINE
  5
269
100
AcDbEntity
  8
0
100
AcDbLine
 62
7
  6
CONTINUOUS
 10
41.3410782391
 20
50.6730001139
 11
43.6768597207
 21
51.0845167749
  0
LINE
  5
26A
100
AcDbEntity
  8
0
100
AcDbLine
 62
7
  6
CONTINUOUS
 10
141.2916295357
 20
68.2823171336
 11
138.9558480541
 21
67.8708004727
  0
LINE
  5
26B
100
AcDbEntity
  8
ASSI
100
AcDbLine
 62
2
  6
CENTER
 10
91.3163538874
 20
59.4776586238
 11
35.3235031278
 21
59.4776586238
  0
LINE
  5
26C
100
AcDbEntity
  8
ASSI
100
AcDbLine
 62
2
  6
CENTER
 10
91.3163538874
 20
59.4776586238
 11
150.1403038427
 21
59.4776586238
  0
LINE
  5
26D
100
AcDbEntity
  8
0
100
AcDbLine
 62
7
  6
CONTINUOUS
 10
141.2916295357
 20
50.6730001139
 11
138.9558495063
 21
51.0845185147
  0
LINE
  5
26E
100
AcDbEntity
  8
0
100
AcDbLine
 62
7
  6
CONTINUOUS
 10
41.3410782391
 20
68.2823171336
 11
43.6768582685
 21
67.8707987329
  0
LINE
  5
26F
100
AcDbEntity
  8
0
100
AcDbLine
 62
7
  6
CONTINUOUS
 10
54.3163538874
 20
69.7746933883
 11
64.346366579
 21
69.7746933878
  0
LINE
  5
270
100
AcDbEntity
  8
0
100
AcDbLine
 62
7
  6
CONTINUOUS
 10
118.2863442457
 20
69.7746933753
 11
128.3163538874
 21
69.7746933883
  0
LINE
  5
271
100
AcDbEntity
  8
0
100
AcDbLine
 62
7
  6
CONTINUOUS
 10
54.3163538874
 20
70.2461885551
 11
64.3463665768
 21
70.2461885552
  0
LINE
  5
272
100
AcDbEntity
  8
0
100
AcDbLine
 62
7
  6
CONTINUOUS
 10
118.2863442299
 20
70.2461885524
 11
128.3163538874
 21
70.2461885551
  0
LINE
  5
273
100
AcDbEntity
  8
0
100
AcDbLine
 62
7
  6
CONTINUOUS
 10
118.2863442357
 20
70.2461885524
 11
118.2863442457
 21
69.7746933753
  0
LINE
  5
274
100
AcDbEntity
  8
0
100
AcDbLine
 62
7
  6
CONTINUOUS
 10
118.2863439985
 20
48.709128695
 11
118.2863440085
 21
49.1806238713
  0
LINE
  5
275
100
AcDbEntity
  8
0
100
AcDbLine
 62
7
  6
CONTINUOUS
 10
128.3163538874
 20
47.4454440847
 11
128.3163538874
 21
49.1806238592
  0
LINE
  5
276
100
AcDbEntity
  8
0
100
AcDbLine
 62
7
  6
CONTINUOUS
 10
128.3163538874
 20
69.7746933883
 11
128.3163538874
 21
71.5098731629
  0
ARC
  5
277
100
AcDbEntity
  8
0
100
AcDbCircle
 62
7
  6
CONTINUOUS
 10
-530.5202620626
 20
-1680.5355970322
 40
1944.7805040895
100
AcDbArc
 50
70.1979423604
 51
70.5117031312
  0
ARC
  5
278
100
AcDbEntity
  8
0
100
AcDbCircle
 62
7
  6
CONTINUOUS
 10
-480.6277097136
 20
-1540.2177773263
 40
1795.5173923344
100
AcDbArc
 50
70.1805914372
 51
70.5785169894
  0
ARC
  5
279
100
AcDbEntity
  8
0
100
AcDbCircle
 62
7
  6
CONTINUOUS
 10
45.9719531199
 20
139.9639444957
 40
6.1824774405
100
AcDbArc
 50
106.6383816586
 51
110.0837306767
  0
ARC
  5
27A
100
AcDbEntity
  8
0
100
AcDbCircle
 62
7
  6
CONTINUOUS
 10
45.6456821875
 20
139.7782442429
 40
6.0321507392
100
AcDbArc
 50
105.7425760676
 51
109.0496963241
  0
ARC
  5
27B
100
AcDbEntity
  8
0
100
AcDbCircle
 62
7
  6
CONTINUOUS
 10
44.6417145156
 20
143.9085823907
 40
3.9999998315
100
AcDbArc
 50
160.5596123175
 51
177.999621325
  0
ARC
  5
27C
100
AcDbEntity
  8
0
100
AcDbCircle
 62
7
  6
CONTINUOUS
 10
44.0193191228
 20
152.6613494191
 40
0.5
100
AcDbArc
 50
90.0
 51
160.5599651718
  0
ARC
  5
27D
100
AcDbEntity
  8
0
100
AcDbCircle
 62
7
  6
CONTINUOUS
 10
72.5318403349
 20
150.9388374995
 40
5.0
100
AcDbArc
 50
96.7763297437
 51
110.0
  0
ARC
  5
27E
100
AcDbEntity
  8
0
100
AcDbCircle
 62
7
  6
CONTINUOUS
 10
91.3163538874
 20
152.6613494191
 40
12.25
100
AcDbArc
 50
135.8057962771
 51
160.9416675171
  0
ARC
  5
27F
100
AcDbEntity
  8
0
100
AcDbCircle
 62
7
  6
CONTINUOUS
 10
91.3163538874
 20
152.6613494191
 40
12.25
100
AcDbArc
 50
19.0583324829
 51
44.1942037229
  0
ARC
  5
280
100
AcDbEntity
  8
0
100
AcDbCircle
 62
7
  6
CONTINUOUS
 10
81.8163538874
 20
163.1434002267
 40
1.0
100
AcDbArc
 50
0.0
 51
30.0000000227
  0
ARC
  5
281
100
AcDbEntity
  8
0
100
AcDbCircle
 62
7
  6
CONTINUOUS
 10
81.8163538874
 20
161.8978260201
 40
1.0
100
AcDbArc
 50
315.8057962547
 51
360.0
  0
ARC
  5
282
100
AcDbEntity
  8
0
100
AcDbCircle
 62
7
  6
CONTINUOUS
 10
713.1552518127
 20
-1680.5419298078
 40
1944.7872354679
100
AcDbArc
 50
109.4882980133
 51
109.8020576889
  0
ARC
  5
283
100
AcDbEntity
  8
0
100
AcDbCircle
 62
7
  6
CONTINUOUS
 10
663.2602441468
 20
-1540.2172904887
 40
1795.5168755615
100
AcDbArc
 50
109.4214834703
 51
109.8194086263
  0
ARC
  5
284
100
AcDbEntity
  8
0
100
AcDbCircle
 62
7
  6
CONTINUOUS
 10
106.5358747381
 20
-101.0884266793
 40
257.3973279587
100
AcDbArc
 50
99.0730320685
 51
99.4338106337
  0
ARC
  5
285
100
AcDbEntity
  8
0
100
AcDbCircle
 62
7
  6
CONTINUOUS
 10
136.6715528767
 20
139.9966090557
 40
6.148088736
100
AcDbArc
 50
69.9062047392
 51
73.3708747991
  0
ARC
  5
286
100
AcDbEntity
  8
0
100
AcDbCircle
 62
7
  6
CONTINUOUS
 10
136.9993570855
 20
139.8176034123
 40
5.9909223051
100
AcDbArc
 50
70.9389062605
 51
74.268806597
  0
ARC
  5
287
100
AcDbEntity
  8
0
100
AcDbCircle
 62
7
  6
CONTINUOUS
 10
110.1008674399
 20
150.9388374995
 40
5.0
100
AcDbArc
 50
70.0
 51
83.2236702563
  0
ARC
  5
288
100
AcDbEntity
  8
0
100
AcDbCircle
 62
7
  6
CONTINUOUS
 10
137.9909922708
 20
143.9085563878
 40
3.9999996683
100
AcDbArc
 50
2.000750418
 51
19.4378964964
  0
ARC
  5
289
100
AcDbEntity
  8
0
100
AcDbCircle
 62
7
  6
CONTINUOUS
 10
100.8163538874
 20
163.1434002267
 40
1.0
100
AcDbArc
 50
149.999999982
 51
180.0
  0
ARC
  5
28A
100
AcDbEntity
  8
0
100
AcDbCircle
 62
7
  6
CONTINUOUS
 10
100.8163538874
 20
161.8978260201
 40
1.0
100
AcDbArc
 50
180.0
 51
224.1942037331
  0
ARC
  5
28B
100
AcDbEntity
  8
0
100
AcDbCircle
 62
7
  6
CONTINUOUS
 10
138.613388652
 20
152.6613494191
 40
0.5
100
AcDbArc
 50
19.4400348282
 51
90.0
  0
ARC
  5
28C
100
AcDbEntity
  8
0
100
AcDbCircle
 62
7
  6
CONTINUOUS
 10
59.9980370811
 20
59.4757589845
 40
81.9905205431
100
AcDbArc
 50
358.5075862163
 51
0.0013274865
  0
ARC
  5
28D
100
AcDbEntity
  8
0
100
AcDbCircle
 62
7
  6
CONTINUOUS
 10
60.5184165403
 20
59.4863299178
 40
81.4701415234
100
AcDbArc
 50
359.99390171
 51
1.4971845872
  0
CIRCLE
  5
28E
100
AcDbEntity
  8
0
100
AcDbCircle
 62
7
  6
CONTINUOUS
 10
91.3163538874
 20
59.4776586238
 40
50.9825502516
  0
ARC
  5
28F
100
AcDbEntity
  8
0
100
AcDbCircle
 62
7
  6
CONTINUOUS
 10
91.3163538874
 20
59.4776586238
 40
50.7449523361
100
AcDbArc
 50
9.9918484197
 51
170.0081515803
  0
ARC
  5
290
100
AcDbEntity
  8
0
100
AcDbCircle
 62
7
  6
CONTINUOUS
 10
91.3163538874
 20
59.4776586238
 40
50.7449523361
100
AcDbArc
 50
189.9918484197
 51
350.0081515803
  0
ARC
  5
291
100
AcDbEntity
  8
0
100
AcDbCircle
 62
7
  6
CONTINUOUS
 10
91.3163538874
 20
59.4776586238
 40
48.1154696013
100
AcDbArc
 50
10.516209063
 51
169.483790937
  0
ARC
  5
292
100
AcDbEntity
  8
0
100
AcDbCircle
 62
7
  6
CONTINUOUS
 10
91.3163538874
 20
59.4776586238
 40
48.1154696013
100
AcDbArc
 50
190.516209063
 51
349.483790937
  0
ARC
  5
293
100
AcDbEntity
  8
0
100
AcDbCircle
 62
7
  6
CONTINUOUS
 10
86.0192522892
 20
60.4312979847
 40
45.3627351262
100
AcDbArc
 50
170.033520279
 51
178.5047864596
  0
ARC
  5
294
100
AcDbEntity
  8
0
100
AcDbCircle
 62
7
  6
CONTINUOUS
 10
85.8508799504
 20
58.5071219137
 40
45.193980935
100
AcDbArc
 50
181.4793686621
 51
189.9823245993
  0
ARC
  5
295
100
AcDbEntity
  8
0
100
AcDbCircle
 62
7
  6
CONTINUOUS
 10
78.0964632091
 20
59.4879305367
 40
37.2267124799
100
AcDbArc
 50
180.0158095418
 51
184.2151815867
  0
ARC
  5
296
100
AcDbEntity
  8
0
100
AcDbCircle
 62
7
  6
CONTINUOUS
 10
77.923864677
 20
59.4747558653
 40
37.0541126444
100
AcDbArc
 50
175.7816142323
 51
179.9955115424
  0
ARC
  5
297
100
AcDbEntity
  8
0
100
AcDbCircle
 62
7
  6
CONTINUOUS
 10
91.3163538874
 20
59.4776586238
 40
27.2972342397
100
AcDbArc
 50
336.9845520156
 51
23.0154500535
  0
ARC
  5
298
100
AcDbEntity
  8
0
100
AcDbCircle
 62
7
  6
CONTINUOUS
 10
91.3163538874
 20
59.4776586238
 40
27.2972342397
100
AcDbArc
 50
156.9844432692
 51
203.0155825021
  0
ARC
  5
299
100
AcDbEntity
  8
0
100
AcDbCircle
 62
7
  6
CONTINUOUS
 10
60.2728947423
 20
54.0191589199
 40
21.6170384685
100
AcDbArc
 50
138.795364569
 51
140.1504285827
  0
ARC
  5
29A
100
AcDbEntity
  8
0
100
AcDbCircle
 62
7
  6
CONTINUOUS
 10
59.3147855332
 20
53.2401103399
 40
21.1158082867
100
AcDbArc
 50
135.7024565725
 51
137.090515024
  0
CIRCLE
  5
29B
100
AcDbEntity
  8
0
100
AcDbCircle
 62
7
  6
CONTINUOUS
 10
91.3163538874
 20
59.4776586238
 40
20.4946142692
  0
CIRCLE
  5
29C
100
AcDbEntity
  8
0
100
AcDbCircle
 62
7
  6
CONTINUOUS
 10
91.3163538874
 20
59.4776586238
 40
19.3744822547
  0
CIRCLE
  5
29D
100
AcDbEntity
  8
0
100
AcDbCircle
 62
7
  6
CONTINUOUS
 10
91.3163538874
 20
59.4776586238
 40
13.0
  0
CIRCLE
  5
29E
100
AcDbEntity
  8
0
100
AcDbCircle
 62
7
  6
CONTINUOUS
 10
91.3163538874
 20
59.4776586238
 40
11.5785361769
  0
ARC
  5
29F
100
AcDbEntity
  8
0
100
AcDbCircle
 62
7
  6
CONTINUOUS
 10
54.3163538874
 20
59.4776586238
 40
10.7685299314
100
AcDbArc
 50
90.0
 51
270.0
  0
ARC
  5
2A0
100
AcDbEntity
  8
0
100
AcDbCircle
 62
7
  6
CONTINUOUS
 10
54.3163538874
 20
59.4776586238
 40
10.2970347646
100
AcDbArc
 50
90.0
 51
270.0
  0
CIRCLE
  5
2A1
100
AcDbEntity
  8
0
100
AcDbCircle
 62
7
  6
CONTINUOUS
 10
91.3163538874
 20
59.4776586238
 40
10.0
  0
CIRCLE
  5
2A2
100
AcDbEntity
  8
0
100
AcDbCircle
 62
7
  6
CONTINUOUS
 10
91.3163538874
 20
59.4776586238
 40
8.2679491924
  0
ARC
  5
2A3
100
AcDbEntity
  8
0
100
AcDbCircle
 62
7
  6
CONTINUOUS
 10
-603.8746464863
 20
5789.6655351215
 40
5764.4084478826
100
AcDbArc
 50
277.1780697914
 51
277.2957580941
  0
ARC
  5
2A4
100
AcDbEntity
  8
0
100
AcDbCircle
 62
7
  6
CONTINUOUS
 10
-434.0291497097
 20
4494.4741076653
 40
4458.5698475075
100
AcDbArc
 50
277.1159246
 51
277.2458363202
  0
ARC
  5
2A5
100
AcDbEntity
  8
0
100
AcDbCircle
 62
7
  6
CONTINUOUS
 10
60.2703522493
 20
64.9339847436
 40
21.6136937452
100
AcDbArc
 50
219.8494725538
 51
221.204740266
  0
ARC
  5
2A6
100
AcDbEntity
  8
0
100
AcDbCircle
 62
7
  6
CONTINUOUS
 10
59.3132084843
 20
65.713646049
 40
21.1135894775
100
AcDbArc
 50
222.9093079145
 51
224.2975006727
  0
ARC
  5
2A7
100
AcDbEntity
  8
0
100
AcDbCircle
 62
7
  6
CONTINUOUS
 10
786.5078355874
 20
-5670.7140307705
 40
5764.4122910335
100
AcDbArc
 50
97.1780704063
 51
97.2957580267
  0
ARC
  5
2A8
100
AcDbEntity
  8
0
100
AcDbCircle
 62
7
  6
CONTINUOUS
 10
616.6640054751
 20
-4375.5357976103
 40
4458.586989802
100
AcDbArc
 50
97.1159249179
 51
97.2458361374
  0
ARC
  5
2A9
100
AcDbEntity
  8
0
100
AcDbCircle
 62
7
  6
CONTINUOUS
 10
122.623885467
 20
59.4796986103
 40
81.9797353199
100
AcDbArc
 50
178.5074879527
 51
180.0014257501
  0
ARC
  5
2AA
100
AcDbEntity
  8
0
100
AcDbCircle
 62
7
  6
CONTINUOUS
 10
122.101986725
 20
59.4688272122
 40
81.4578370311
100
AcDbArc
 50
179.9937881654
 51
181.4972981318
  0
ARC
  5
2AB
100
AcDbEntity
  8
0
100
AcDbCircle
 62
7
  6
CONTINUOUS
 10
96.6134532287
 20
58.5240194894
 40
45.3627373882
100
AcDbArc
 50
350.0335204906
 51
358.504786248
  0
ARC
  5
2AC
100
AcDbEntity
  8
0
100
AcDbCircle
 62
7
  6
CONTINUOUS
 10
104.7613808008
 20
59.4744524453
 40
37.0015696274
100
AcDbArc
 50
0.0058387734
 51
4.2307836098
  0
ARC
  5
2AD
100
AcDbEntity
  8
0
100
AcDbCircle
 62
7
  6
CONTINUOUS
 10
122.3623551217
 20
54.0213321587
 40
21.6136942765
100
AcDbArc
 50
39.8494725705
 51
41.2047402493
  0
ARC
  5
2AE
100
AcDbEntity
  8
0
100
AcDbCircle
 62
7
  6
CONTINUOUS
 10
123.3194993056
 20
53.2416712129
 40
21.1135894565
100
AcDbArc
 50
42.9093079139
 51
44.2975006734
  0
ARC
  5
2AF
100
AcDbEntity
  8
0
100
AcDbCircle
 62
7
  6
CONTINUOUS
 10
128.3163538874
 20
59.4776586238
 40
10.7685299314
100
AcDbArc
 50
270.0
 51
90.0
  0
ARC
  5
2B0
100
AcDbEntity
  8
0
100
AcDbCircle
 62
7
  6
CONTINUOUS
 10
128.3163538874
 20
59.4776586238
 40
10.2970347646
100
AcDbArc
 50
270.0
 51
90.0
  0
ARC
  5
2B1
100
AcDbEntity
  8
0
100
AcDbCircle
 62
7
  6
CONTINUOUS
 10
786.7517048553
 20
5791.5884501307
 40
5766.3468250469
100
AcDbArc
 50
262.7042599992
 51
262.8219093546
  0
ARC
  5
2B2
100
AcDbEntity
  8
0
100
AcDbCircle
 62
7
  6
CONTINUOUS
 10
616.5178969414
 20
4493.3328106027
 40
4457.4195074147
100
AcDbArc
 50
262.7541490603
 51
262.8840943459
  0
ARC
  5
2B3
100
AcDbEntity
  8
0
100
AcDbCircle
 62
7
  6
CONTINUOUS
 10
96.7818278244
 20
60.4481953338
 40
45.193980935
100
AcDbArc
 50
1.4793686621
 51
9.9823245993
  0
ARC
  5
2B4
100
AcDbEntity
  8
0
100
AcDbCircle
 62
7
  6
CONTINUOUS
 10
122.360287213
 20
64.9357529511
 40
21.6164146714
100
AcDbArc
 50
318.7953450162
 51
320.1504481355
  0
ARC
  5
2B5
100
AcDbEntity
  8
0
100
AcDbCircle
 62
7
  6
CONTINUOUS
 10
123.3183349005
 20
65.7148138907
 40
21.1152384603
100
AcDbArc
 50
315.7024378399
 51
317.090533752
  0
LINE
  5
2B6
100
AcDbEntity
  8
0
100
AcDbLine
 62
7
  6
CONTINUOUS
 10
40.9704476319
 20
144.74445522
 11
40.8697535384
 21
145.2398917356
  0
SPLINE
  5
2B7
100
AcDbEntity
  8
0
100
AcDbSpline
 62
7
  6
CONTINUOUS
 70
0
 71
3
 72
9
 73
5
 74
3
 42
0.0000001
 43
0.0000001
 44
0.0000000001
 12
0.0688447072
 22
1.2319272618
 32
0.0
 13
0.5149863233
 23
1.1212374677
 33
0.0
 40
0.0
 40
0.0
 40
0.0
 40
0.0
 40
0.4973780596
 40
1.0
 40
1.0
 40
1.0
 40
1.0
 10
40.6719623768
 20
143.5537454211
 30
0.0
 10
40.6833763258
 20
143.7579899515
 30
0.0
 10
40.74580517
 20
144.1673388587
 30
0.0
 10
40.8838143026
 20
144.5575890831
 30
0.0
 10
40.9700954443
 20
144.7454419337
 30
0.0
 11
40.6719623768
 21
143.5537454211
 31
0.0
 11
40.7641752252
 21
144.1604675554
 31
0.0
 11
40.9700954443
 21
144.7454419337
 31
0.0
  0
SPLINE
  5
2B8
100
AcDbEntity
  8
0
100
AcDbSpline
 62
7
  6
CONTINUOUS
 70
0
 71
3
 72
9
 73
5
 74
3
 42
0.0000001
 43
0.0000001
 44
0.0000000001
 12
-1.5989064683
 22
0.2640241407
 32
0.0
 13
-1.6005503129
 23
0.2538687394
 33
0.0
 40
0.0
 40
0.0
 40
0.0
 40
0.0
 40
0.2505942082
 40
1.0
 40
1.0
 40
1.0
 40
1.0
 10
118.2863439885
 20
152.8277594743
 30
0.0
 10
118.1527850884
 20
152.8498137811
 30
0.0
 10
117.6197726028
 20
152.9375532182
 30
0.0
 10
117.086695664
 20
153.0249327297
 30
0.0
 10
116.6868751057
 20
153.0883496309
 30
0.0
 11
118.2863439885
 21
152.8277594743
 31
0.0
 11
117.8856413574
 21
152.8937651682
 31
0.0
 11
116.6868751057
 21
153.0883496309
 31
0.0
  0
SPLINE
  5
2B9
100
AcDbEntity
  8
0
100
AcDbSpline
 62
7
  6
CONTINUOUS
 70
0
 71
3
 72
9
 73
5
 74
3
 42
0.0000001
 43
0.0000001
 44
0.0000000001
 12
-0.2783281018
 22
0.0441465687
 32
0.0
 13
-0.2793686576
 23
0.0369946605
 33
0.0
 40
0.0
 40
0.0
 40
0.0
 40
0.0
 40
0.2708496917
 40
1.0
 40
1.0
 40
1.0
 40
1.0
 10
116.6868751057
 20
153.0883496309
 30
0.0
 10
116.6617467456
 20
153.0923353257
 30
0.0
 10
116.5689458242
 20
153.1068719692
 30
0.0
 10
116.4762411407
 20
153.1221766497
 30
0.0
 10
116.4083405597
 20
153.1311682058
 30
0.0
 11
116.6868751057
 21
153.0883496309
 31
0.0
 11
116.6114836036
 21
153.1002661594
 31
0.0
 11
116.4083405597
 21
153.1311682058
 31
0.0
  0
SPLINE
  5
2BA
100
AcDbEntity
  8
0
100
AcDbSpline
 62
7
  6
CONTINUOUS
 70
0
 71
3
 72
14
 73
10
 74
8
 42
0.0000001
 43
0.0000001
 44
0.0000000001
 12
-0.0564091641
 22
0.0435607666
 32
0.0
 13
0.0712708508
 23
0.0
 33
0.0
 40
0.0
 40
0.0
 40
0.0
 40
0.0
 40
0.1629479464
 40
0.2674552607
 40
0.3405382098
 40
0.4165370735
 40
0.5177638594
 40
0.6495832832
 40
1.0
 40
1.0
 40
1.0
 40
1.0
 10
116.4083415436
 20
153.1311706683
 30
0.0
 10
116.4052776245
 20
153.1335367141
 30
0.0
 10
116.4004931558
 20
153.1377170137
 30
0.0
 10
116.3957280394
 20
153.1445696714
 30
0.0
 10
116.3957703352
 20
153.1511275698
 30
0.0
 10
116.4003566864
 20
153.1555384335
 30
0.0
 10
116.4072116114
 20
153.1582370557
 30
0.0
 10
116.4208503964
 20
153.1610106747
 30
0.0
 10
116.432361514
 20
153.1613494191
 30
0.0
 10
116.4406863465
 20
153.1613494191
 30
0.0
 11
116.4083415436
 21
153.1311706683
 31
0.0
 11
116.399834497
 21
153.1390764964
 31
0.0
 11
116.3961591404
 21
153.1455548683
 31
0.0
 11
116.3964203194
 21
153.150757
 31
0.0
 11
116.4000201802
 21
153.1548041612
 31
0.0
 11
116.4065855618
 21
153.1577949891
 31
0.0
 11
116.4157583835
 21
153.1598255454
 31
0.0
 11
116.4406863465
 21
153.1613494191
 31
0.0
  0
LINE
  5
2BB
100
AcDbEntity
  8
0
100
AcDbLine
 62
7
  6
CONTINUOUS
 10
40.671962798
 20
143.5537454064
 11
40.6441501835
 21
144.0482071255
  0
SPLINE
  5
2BC
100
AcDbEntity
  8
0
100
AcDbSpline
 62
7
  6
CONTINUOUS
 70
0
 71
3
 72
11
 73
7
 74
5
 42
0.0000001
 43
0.0000001
 44
0.0000000001
 12
0.1523096418
 22
4.4287514754
 32
0.0
 13
4.03847787
 23
1.8242078694
 33
0.0
 40
0.0
 40
0.0
 40
0.0
 40
0.0
 40
0.2512218497
 40
0.5017969565
 40
0.7514006497
 40
1.0
 40
1.0
 40
1.0
 40
1.0
 10
41.3410782391
 20
141.9649589212
 30
0.0
 10
41.3538327425
 20
142.3358253004
 30
0.0
 10
41.4821255087
 20
143.0771065691
 30
0.0
 10
41.9687666715
 20
144.089922657
 30
0.0
 10
42.7110519777
 20
144.9285467409
 30
0.0
 10
43.3422053958
 20
145.3288836456
 30
0.0
 10
43.6768597207
 20
145.4800492759
 30
0.0
 11
41.3410782391
 21
141.9649589212
 31
0.0
 11
41.5315911249
 21
143.0617933561
 31
0.0
 11
42.0125386775
 21
144.0626217676
 31
0.0
 11
42.7465037197
 21
144.8901011458
 31
0.0
 11
43.6768597207
 21
145.4800492759
 31
0.0
  0
SPLINE
  5
2BD
100
AcDbEntity
  8
0
100
AcDbSpline
 62
7
  6
CONTINUOUS
 70
0
 71
3
 72
14
 73
10
 74
8
 42
0.0000001
 43
0.0000001
 44
0.0000000001
 12
-1.8531714674
 22
0.0001375425
 32
0.0
 13
-0.106434707
 23
1.8501124722
 33
0.0
 40
0.0
 40
0.0
 40
0.0
 40
0.0
 40
0.0782445746
 40
0.15944051
 40
0.252837613
 40
0.3635915778
 40
0.4938633905
 40
0.644047746
 40
1.0
 40
1.0
 40
1.0
 40
1.0
 10
41.3410782391
 20
141.9649589212
 30
0.0
 10
41.2927447014
 20
141.9649625085
 30
0.0
 10
41.1928640041
 20
141.9846392001
 30
0.0
 10
41.0620366432
 20
142.0760695985
 30
0.0
 10
40.9542087362
 20
142.2178646957
 30
0.0
 10
40.8652539712
 20
142.4053481316
 30
0.0
 10
40.7930379679
 20
142.6365431899
 30
0.0
 10
40.7136498057
 20
143.021993329
 30
0.0
 10
40.684591356
 20
143.3342281715
 30
0.0
 10
40.671962798
 20
143.5537454064
 30
0.0
 11
41.3410782391
 21
141.9649589212
 31
0.0
 11
41.1988985931
 21
141.9934216372
 31
0.0
 11
41.0736196039
 21
142.0767666615
 31
0.0
 11
40.9655484109
 21
142.2119613241
 31
0.0
 11
40.8745881986
 21
142.395950988
 31
0.0
 11
40.8003354949
 21
142.6256643407
 31
0.0
 11
40.7423186822
 21
142.8978675812
 31
0.0
 11
40.671962798
 21
143.5537454064
 31
0.0
  0
SPLINE
  5
2BE
100
AcDbEntity
  8
0
100
AcDbSpline
 62
7
  6
CONTINUOUS
 70
0
 71
3
 72
11
 73
7
 74
5
 42
0.0000001
 43
0.0000001
 44
0.0000000001
 12
-0.1523096157
 22
4.4287500426
 32
0.0
 13
-4.0384758966
 23
1.8242087576
 33
0.0
 40
0.0
 40
0.0
 40
0.0
 40
0.0
 40
0.2512218516
 40
0.5017969606
 40
0.7514006509
 40
1.0
 40
1.0
 40
1.0
 40
1.0
 10
141.2916295357
 20
141.9649589212
 30
0.0
 10
141.2788750344
 20
142.3358251832
 30
0.0
 10
141.1505823556
 20
143.0771062158
 30
0.0
 10
140.663941545
 20
144.0899220585
 30
0.0
 10
139.9216567334
 20
144.9285460816
 30
0.0
 10
139.2905036661
 20
145.3288830707
 30
0.0
 10
138.9558495063
 20
145.480048774
 30
0.0
 11
141.2916295357
 21
141.9649589212
 31
0.0
 11
141.1011167762
 21
143.0617930211
 31
0.0
 11
140.6201695589
 21
144.0626212066
 31
0.0
 11
139.8862049987
 21
144.8901005169
 31
0.0
 11
138.9558495063
 21
145.480048774
 31
0.0
  0
SPLINE
  5
2BF
100
AcDbEntity
  8
0
100
AcDbSpline
 62
7
  6
CONTINUOUS
 70
0
 71
3
 72
9
 73
5
 74
3
 42
0.0000001
 43
0.0000001
 44
0.0000000001
 12
-0.0688639925
 22
1.2318613102
 32
0.0
 13
-0.5150354345
 23
1.1211436297
 33
0.0
 40
0.0
 40
0.0
 40
0.0
 40
0.0
 40
0.4973753843
 40
1.0
 40
1.0
 40
1.0
 40
1.0
 10
141.9605490998
 20
143.5537385921
 30
0.0
 10
141.9491320149
 20
143.7579710897
 30
0.0
 10
141.8866920407
 20
144.1672971772
 30
0.0
 10
141.7486667132
 20
144.5575192392
 30
0.0
 10
141.6623768841
 20
144.7453573679
 30
0.0
 11
141.9605490998
 21
143.5537385921
 31
0.0
 11
141.8683213261
 21
144.1604225326
 31
0.0
 11
141.6623768841
 21
144.7453573679
 31
0.0
  0
SPLINE
  5
2C0
100
AcDbEntity
  8
0
100
AcDbSpline
 62
7
  6
CONTINUOUS
 70
0
 71
3
 72
14
 73
10
 74
8
 42
0.0000001
 43
0.0000001
 44
0.0000000001
 12
-0.1064303813
 22
-1.8500884312
 32
0.0
 13
-1.853147199
 23
0.0002966005
 33
0.0
 40
0.0
 40
0.0
 40
0.0
 40
0.0
 40
0.3559723275
 40
0.5060162641
 40
0.6362816029
 40
0.7471065761
 40
0.8405564075
 40
0.9217593003
 40
1.0
 40
1.0
 40
1.0
 40
1.0
 10
141.9607449768
 20
143.5537454064
 30
0.0
 10
141.9481162199
 20
143.3342186447
 30
0.0
 10
141.9190892787
 20
143.0220553763
 30
0.0
 10
141.8396253161
 20
142.6367058615
 30
0.0
 10
141.7674151686
 20
142.4055645308
 30
0.0
 10
141.678498065
 20
142.2179915694
 30
0.0
 10
141.5707017688
 20
142.0760695838
 30
0.0
 10
141.4398494215
 20
141.984600049
 30
0.0
 10
141.3399600468
 20
141.9649511858
 30
0.0
 10
141.2916295357
 20
141.9649589212
 30
0.0
 11
141.9607449768
 21
143.5537454064
 31
0.0
 11
141.8903670561
 21
142.897841214
 31
0.0
 11
141.83235802
 21
142.6259061059
 31
0.0
 11
141.7581128956
 21
142.3962062315
 31
0.0
 11
141.6671572429
 21
142.2120705309
 31
0.0
 11
141.5590860801
 21
142.0767536691
 31
0.0
 11
141.4338062013
 21
141.9933902607
 31
0.0
 11
141.2916295357
 21
141.9649589212
 31
0.0
  0
LINE
  5
2C1
100
AcDbEntity
  8
0
100
AcDbLine
 62
7
  6
CONTINUOUS
 10
141.9885576022
 20
144.0482068663
 11
141.9607449768
 21
143.5537454064
  0
SPLINE
  5
2C2
100
AcDbEntity
  8
0
100
AcDbSpline
 62
7
  6
CONTINUOUS
 70
0
 71
3
 72
9
 73
5
 74
3
 42
0.0000001
 43
0.0000001
 44
0.0000000001
 12
-9.9850556015
 22
-3.7313491481
 32
0.0
 13
-10.2128777429
 23
-3.0531017079
 33
0.0
 40
0.0
 40
0.0
 40
0.0
 40
0.0
 40
0.5379476889
 40
1.0
 40
1.0
 40
1.0
 40
1.0
 10
54.3163538874
 20
149.247319756
 30
0.0
 10
52.5258746927
 20
148.5782295392
 30
0.0
 10
49.1674064742
 20
147.4144873006
 30
0.0
 10
45.7746839372
 20
146.3577985692
 30
0.0
 10
44.2017226824
 20
145.8875676691
 30
0.0
 11
54.3163538874
 21
149.247319756
 31
0.0
 11
48.9026014811
 21
147.3571446137
 31
0.0
 11
44.2017226824
 21
145.8875676691
 31
0.0
  0
SPLINE
  5
2C3
100
AcDbEntity
  8
0
100
AcDbSpline
 62
7
  6
CONTINUOUS
 70
0
 71
3
 72
12
 73
8
 74
6
 42
0.0000001
 43
0.0000001
 44
0.0000000001
 12
0.1298810463
 22
-0.3211719239
 32
0.0
 13
0.318148233
 23
-0.137121088
 33
0.0
 40
0.0
 40
0.0
 40
0.0
 40
0.0
 40
0.3680172335
 40
0.6714731456
 40
0.8861051832
 40
0.9557251165
 40
1.0
 40
1.0
 40
1.0
 40
1.0
 10
54.3163538874
 20
149.247319643
 30
0.0
 10
54.3322867085
 20
149.2079207087
 30
0.0
 10
54.3625721461
 20
149.1364501371
 30
0.0
 10
54.4069403426
 20
149.0443982801
 30
0.0
 10
54.4404697854
 20
148.9848691404
 30
0.0
 10
54.4636754285
 20
148.9550916791
 30
0.0
 10
54.4736677453
 20
148.9459072412
 30
0.0
 10
54.4783630707
 20
148.9438835678
 30
0.0
 11
54.3163538874
 21
149.247319643
 31
0.0
 11
54.3664861137
 21
149.1300936339
 31
0.0
 11
54.4126285093
 21
149.0356318685
 31
0.0
 11
54.4509444135
 21
148.9719069533
 31
0.0
 11
54.4661932885
 21
148.95321997
 31
0.0
 11
54.4783630707
 21
148.9438835678
 31
0.0
  0
SPLINE
  5
2C4
100
AcDbEntity
  8
0
100
AcDbSpline
 62
7
  6
CONTINUOUS
 70
0
 71
3
 72
9
 73
5
 74
3
 42
0.0000001
 43
0.0000001
 44
0.0000000001
 12
-10.3474539902
 22
-3.7220099712
 32
0.0
 13
-10.5623084459
 23
-3.0595428742
 33
0.0
 40
0.0
 40
0.0
 40
0.0
 40
0.0
 40
0.5382449787
 40
1.0
 40
1.0
 40
1.0
 40
1.0
 10
54.4783630925
 20
148.9438835045
 30
0.0
 10
52.6218747082
 20
148.2760991119
 30
0.0
 10
49.1445408815
 20
147.1132421286
 30
0.0
 10
45.6347977312
 20
146.0550511792
 30
0.0
 10
44.0090647442
 20
145.5841314175
 30
0.0
 11
54.4783630925
 21
148.9438835045
 31
0.0
 11
48.8691705359
 21
147.0546177989
 31
0.0
 11
44.0090647442
 21
145.5841314175
 31
0.0
  0
SPLINE
  5
2C5
100
AcDbEntity
  8
0
100
AcDbSpline
 62
7
  6
CONTINUOUS
 70
0
 71
3
 72
9
 73
5
 74
3
 42
0.0000001
 43
0.0000001
 44
0.0000000001
 12
-0.0456594244
 22
-0.3689980142
 32
0.0
 13
-0.3415242922
 23
-0.146988011
 33
0.0
 40
0.0
 40
0.0
 40
0.0
 40
0.0
 40
0.5396990047
 40
1.0
 40
1.0
 40
1.0
 40
1.0
 10
44.2017227143
 20
145.8875676544
 30
0.0
 10
44.193508599
 20
145.821185034
 30
0.0
 10
44.157661727
 20
145.6980855001
 30
0.0
 10
44.0614660692
 20
145.6066843236
 30
0.0
 10
44.0090647454
 20
145.5841314143
 30
0.0
 11
44.2017227143
 21
145.8875676544
 31
0.0
 11
44.1372374632
 21
145.6975445817
 31
0.0
 11
44.0090647454
 21
145.5841314143
 31
0.0
  0
SPLINE
  5
2C6
100
AcDbEntity
  8
0
100
AcDbSpline
 62
7
  6
CONTINUOUS
 70
0
 71
3
 72
20
 73
16
 74
14
 42
0.0000001
 43
0.0000001
 44
0.0000000001
 12
-2.8709548988
 22
-1.0504946843
 32
0.0
 13
-2.408662724
 23
-1.8826218406
 33
0.0
 40
0.0
 40
0.0
 40
0.0
 40
0.0
 40
0.1746573813
 40
0.3363103383
 40
0.4842709254
 40
0.6179660081
 40
0.736869065
 40
0.7905970813
 40
0.8403587941
 40
0.8860024395
 40
0.9274929957
 40
0.9464441041
 40
0.963903486
 40
0.980741666
 40
1.0
 40
1.0
 40
1.0
 40
1.0
 10
43.848933509
 20
145.7704765962
 30
0.0
 10
43.6817890209
 20
145.7093177126
 30
0.0
 10
43.3594754129
 20
145.5928355243
 30
0.0
 10
42.8944368488
 20
145.4276909546
 30
0.0
 10
42.4681734614
 20
145.2781047652
 30
0.0
 10
42.0828079613
 20
145.1435400831
 30
0.0
 10
41.7882519294
 20
145.0402003276
 30
0.0
 10
41.5745964867
 20
144.9646275603
 30
0.0
 10
41.431387519
 20
144.9137725801
 30
0.0
 10
41.2997550836
 20
144.8675600924
 30
0.0
 10
41.1978704337
 20
144.8314735429
 30
0.0
 10
41.1227137981
 20
144.8057999969
 30
0.0
 10
41.070558361
 20
144.790948853
 30
0.0
 10
41.017959328
 20
144.7757814163
 30
0.0
 10
40.9859099089
 20
144.7565406067
 30
0.0
 10
40.9704476319
 20
144.74445522
 30
0.0
 11
43.848933509
 21
145.7704765962
 31
0.0
 11
43.3468394697
 21
145.5888154383
 31
0.0
 11
42.8811815755
 21
145.4233242563
 31
0.0
 11
42.4544160509
 21
145.273406859
 31
0.0
 11
42.0686119135
 21
145.138471068
 31
0.0
 11
41.7256519328
 21
145.0180115527
 31
0.0
 11
41.5707982192
 21
144.9632466426
 31
0.0
 11
41.4273999051
 21
144.912457316
 31
0.0
 11
41.2957891294
 21
144.8660961567
 31
0.0
 11
41.1760990861
 21
144.8241082852
 31
0.0
 11
41.1211296395
 21
144.8058081165
 31
0.0
 11
41.0699262348
 21
144.7907373286
 31
0.0
 11
41.0210765562
 21
144.774504501
 31
0.0
 11
40.9704476319
 21
144.74445522
 31
0.0
  0
SPLINE
  5
2C7
100
AcDbEntity
  8
0
100
AcDbSpline
 62
7
  6
CONTINUOUS
 70
0
 71
3
 72
9
 73
5
 74
3
 42
0.0000001
 43
0.0000001
 44
0.0000000001
 12
-0.0386879262
 22
-0.345697394
 32
0.0
 13
-0.3082870267
 23
-0.161128995
 33
0.0
 40
0.0
 40
0.0
 40
0.0
 40
0.0
 40
0.5352431537
 40
1.0
 40
1.0
 40
1.0
 40
1.0
 10
43.8489351547
 20
145.7704777295
 30
0.0
 10
43.8420326721
 20
145.7088003417
 30
0.0
 10
43.8100379324
 20
145.5935026861
 30
0.0
 10
43.7246237755
 20
145.5050142752
 30
0.0
 10
43.6768642734
 20
145.4800523407
 30
0.0
 11
43.8489351547
 21
145.7704777295
 31
0.0
 11
43.7924788671
 21
145.5930562328
 31
0.0
 11
43.6768642734
 21
145.4800523407
 31
0.0
  0
SPLINE
  5
2C8
100
AcDbEntity
  8
0
100
AcDbSpline
 62
7
  6
CONTINUOUS
 70
0
 71
3
 72
20
 73
16
 74
14
 42
0.0000001
 43
0.0000001
 44
0.0000000001
 12
-2.6582891845
 22
-0.9063844668
 32
0.0
 13
-2.4116193814
 23
-1.4394881553
 33
0.0
 40
0.0
 40
0.0
 40
0.0
 40
0.0
 40
0.1762163448
 40
0.3389813118
 40
0.4876454902
 40
0.6216433846
 40
0.7403877595
 40
0.7938431953
 40
0.8432067069
 40
0.8883422359
 40
0.9292244257
 40
0.9478780024
 40
0.9651340341
 40
0.9816742677
 40
1.0
 40
1.0
 40
1.0
 40
1.0
 10
43.6768642734
 20
145.4800523407
 30
0.0
 10
43.5207196055
 20
145.4268124214
 30
0.0
 10
43.2191931866
 20
145.3277590584
 30
0.0
 10
42.7827117562
 20
145.193877761
 30
0.0
 10
42.3818844959
 20
145.0787815538
 30
0.0
 10
42.0190344988
 20
144.9809551331
 30
0.0
 10
41.7411473703
 20
144.9105301032
 30
0.0
 10
41.539432722
 20
144.8621856788
 30
0.0
 10
41.4044108684
 20
144.8312635421
 30
0.0
 10
41.2803383533
 20
144.8053277026
 30
0.0
 10
41.1842636725
 20
144.7861328112
 30
0.0
 10
41.1133438579
 20
144.7740047698
 30
0.0
 10
41.0644741232
 20
144.7694370037
 30
0.0
 10
41.015651871
 20
144.7656938004
 30
0.0
 10
40.9845957081
 20
144.7533739443
 30
0.0
 10
40.9698641444
 20
144.7445807195
 30
0.0
 11
43.6768642734
 21
145.4800523407
 31
0.0
 11
43.2067176746
 21
145.3254464145
 31
0.0
 11
42.7696827487
 21
145.1913803771
 31
0.0
 11
42.3683681196
 21
145.076140143
 31
0.0
 11
42.0049907409
 21
144.9782117449
 31
0.0
 11
41.68165963
 21
144.8964800979
 31
0.0
 11
41.53564692
 21
144.8615484933
 31
0.0
 11
41.4004524766
 21
144.8308291304
 31
0.0
 11
41.2764070835
 21
144.8047069218
 31
0.0
 11
41.1637016995
 21
144.7827708892
 31
0.0
 11
41.1119736391
 21
144.7744705295
 31
0.0
 11
41.0637635739
 21
144.7695092247
 31
0.0
 11
41.0176849774
 21
144.763612952
 31
0.0
 11
40.9698641444
 21
144.7445807195
 31
0.0
  0
SPLINE
  5
2C9
100
AcDbEntity
  8
0
100
AcDbSpline
 62
7
  6
CONTINUOUS
 70
0
 71
3
 72
17
 73
13
 74
11
 42
0.0000001
 43
0.0000001
 44
0.0000000001
 12
0.0983590753
 22
0.4899832448
 32
0.0
 13
-0.1004427072
 23
0.4895603644
 33
0.0
 40
0.0
 40
0.0
 40
0.0
 40
0.0
 40
0.2269999883
 40
0.4300798491
 40
0.6039829201
 40
0.7457559588
 40
0.8559191401
 40
0.9351897223
 40
0.9632348596
 40
0.9834420956
 40
0.9957256118
 40
1.0
 40
1.0
 40
1.0
 40
1.0
 10
141.6670568002
 20
144.7494508002
 30
0.0
 10
141.6744993031
 20
144.7865261971
 30
0.0
 10
141.6880389107
 20
144.8568829792
 30
0.0
 10
141.7061781539
 20
144.955849554
 30
0.0
 10
141.7219942528
 20
145.0408069771
 30
0.0
 10
141.7359944041
 20
145.1103587175
 30
0.0
 10
141.7473158158
 20
145.164343595
 30
0.0
 10
141.7549487231
 20
145.1997924093
 30
0.0
 10
141.7590418938
 20
145.2205955131
 30
0.0
 10
141.7613546151
 20
145.2304876301
 30
0.0
 10
141.7619824851
 20
145.2364811861
 30
0.0
 10
141.763093437
 20
145.2392066729
 30
0.0
 10
141.7629503267
 20
145.2399041966
 30
0.0
 11
141.6670568002
 21
144.7494508002
 31
0.0
 11
141.6886183579
 21
144.860828008
 31
0.0
 11
141.7071042765
 21
144.9606210512
 31
0.0
 11
141.7232026329
 21
145.0460265338
 31
0.0
 11
141.7371377981
 21
145.1154948537
 31
0.0
 11
141.7484304101
 21
145.1693791994
 31
0.0
 11
141.7565709476
 21
145.2081499076
 31
0.0
 11
141.7593930108
 21
145.221878641
 31
0.0
 11
141.7613918264
 21
145.231777583
 31
0.0
 11
141.7625750473
 21
145.2378012596
 31
0.0
 11
141.7629503267
 21
145.2399041966
 31
0.0
  0
SPLINE
  5
2CA
100
AcDbEntity
  8
0
100
AcDbSpline
 62
7
  6
CONTINUOUS
 70
0
 71
3
 72
13
 73
9
 74
7
 42
0.0000001
 43
0.0000001
 44
0.0000000001
 12
0.0102807912
 22
-0.024034066
 32
0.0
 13
-0.0063396476
 23
0.0253602024
 33
0.0
 40
0.0
 40
0.0
 40
0.0
 40
0.0
 40
0.1884927246
 40
0.3533329937
 40
0.4421393459
 40
0.4821407406
 40
0.7032129865
 40
1.0
 40
1.0
 40
1.0
 40
1.0
 10
141.6626846054
 20
144.7453867846
 30
0.0
 10
141.6633305568
 20
144.7438767024
 30
0.0
 10
141.6646308942
 20
144.7408176617
 30
0.0
 10
141.6662042454
 20
144.7382216702
 30
0.0
 10
141.6678480193
 20
144.7345638455
 30
0.0
 10
141.6699898183
 20
144.737686024
 30
0.0
 10
141.6680439956
 20
144.7425003983
 30
0.0
 10
141.6676839752
 20
144.7469419406
 30
0.0
 10
141.6670568002
 20
144.7494508002
 30
0.0
 11
141.6626846054
 21
144.7453867846
 31
0.0
 11
141.6647057017
 21
144.7408930575
 31
0.0
 11
141.6666932723
 21
144.7370698066
 31
0.0
 11
141.6681532864
 21
144.7352649533
 31
0.0
 11
141.6688224921
 21
144.7360684267
 31
0.0
 11
141.6685716596
 21
144.7418419418
 31
0.0
 11
141.6670568002
 21
144.7494508002
 31
0.0
  0
SPLINE
  5
2CB
100
AcDbEntity
  8
0
100
AcDbSpline
 62
7
  6
CONTINUOUS
 70
0
 71
3
 72
12
 73
8
 74
6
 42
0.0000001
 43
0.0000001
 44
0.0000000001
 12
-0.1298810701
 22
-0.3211720094
 32
0.0
 13
-0.3181478328
 23
-0.1371222393
 33
0.0
 40
0.0
 40
0.0
 40
0.0
 40
0.0
 40
0.3680170611
 40
0.6714729071
 40
0.8861050097
 40
0.955725022
 40
1.0
 40
1.0
 40
1.0
 40
1.0
 10
128.3163538874
 20
149.2473197558
 30
0.0
 10
128.3004210708
 20
149.2079208294
 30
0.0
 10
128.2701356392
 20
149.1364502646
 30
0.0
 10
128.2257674475
 20
149.0443983964
 30
0.0
 10
128.1922380033
 20
148.984869232
 30
0.0
 10
128.1690323526
 20
148.9550917256
 30
0.0
 10
128.1590400335
 20
148.9459072622
 30
0.0
 10
128.154344704
 20
148.9438835675
 30
0.0
 11
128.3163538874
 21
149.2473197558
 31
0.0
 11
128.2662216771
 21
149.1300937695
 31
0.0
 11
128.2200792892
 21
149.0356319961
 31
0.0
 11
128.1817633803
 21
148.9719070353
 31
0.0
 11
128.1665144975
 21
148.9532200152
 31
0.0
 11
128.154344704
 21
148.9438835675
 31
0.0
  0
SPLINE
  5
2CC
100
AcDbEntity
  8
0
100
AcDbSpline
 62
7
  6
CONTINUOUS
 70
0
 71
3
 72
9
 73
5
 74
3
 42
0.0000001
 43
0.0000001
 44
0.0000000001
 12
-10.2128566341
 22
3.0531721309
 32
0.0
 13
-9.9850565942
 23
3.7313463388
 33
0.0
 40
0.0
 40
0.0
 40
0.0
 40
0.0
 40
0.4620522876
 40
1.0
 40
1.0
 40
1.0
 40
1.0
 10
138.4309850923
 20
145.8875676691
 30
0.0
 10
136.8580271689
 20
146.3578093915
 30
0.0
 10
133.4653004343
 20
147.41448385
 30
0.0
 10
130.1068333386
 20
148.5782300136
 30
0.0
 10
128.3163538874
 20
149.247319756
 30
0.0
 11
138.4309850923
 21
145.8875676691
 31
0.0
 11
133.730107041
 21
147.3571460794
 31
0.0
 11
128.3163538874
 21
149.247319756
 31
0.0
  0
SPLINE
  5
2CD
100
AcDbEntity
  8
0
100
AcDbSpline
 62
7
  6
CONTINUOUS
 70
0
 71
3
 72
9
 73
5
 74
3
 42
0.0000001
 43
0.0000001
 44
0.0000000001
 12
0.0456729136
 22
-0.3690031777
 32
0.0
 13
0.341547505
 23
-0.1469512232
 33
0.0
 40
0.0
 40
0.0
 40
0.0
 40
0.0
 40
0.5396996964
 40
1.0
 40
1.0
 40
1.0
 40
1.0
 10
138.4309612056
 20
145.8875566494
 30
0.0
 10
138.4391777581
 20
145.8211730151
 30
0.0
 10
138.4750306564
 20
145.6980718801
 30
0.0
 10
138.5712376931
 20
145.606677165
 30
0.0
 10
138.6236424999
 20
145.5841299341
 30
0.0
 11
138.4309612056
 21
145.8875566494
 31
0.0
 11
138.4954570524
 21
145.6975330364
 31
0.0
 11
138.6236424999
 21
145.5841299341
 31
0.0
  0
SPLINE
  5
2CE
100
AcDbEntity
  8
0
100
AcDbSpline
 62
7
  6
CONTINUOUS
 70
0
 71
3
 72
9
 73
5
 74
3
 42
0.0000001
 43
0.0000001
 44
0.0000000001
 12
-10.5623021458
 22
3.0595645853
 32
0.0
 13
-10.3474545094
 23
3.7220084963
 33
0.0
 40
0.0
 40
0.0
 40
0.0
 40
0.0
 40
0.4617550509
 40
1.0
 40
1.0
 40
1.0
 40
1.0
 10
138.6236430306
 20
145.5841314175
 30
0.0
 10
136.9979109089
 20
146.0550545512
 30
0.0
 10
133.488166394
 20
147.1132407583
 30
0.0
 10
130.0108330576
 20
148.2760994133
 30
0.0
 10
128.1543446823
 20
148.9438835045
 30
0.0
 11
138.6236430306
 21
145.5841314175
 31
0.0
 11
133.7635370324
 21
147.0546182245
 31
0.0
 11
128.1543446823
 21
148.9438835045
 31
0.0
  0
SPLINE
  5
2CF
100
AcDbEntity
  8
0
100
AcDbSpline
 62
7
  6
CONTINUOUS
 70
0
 71
3
 72
9
 73
5
 74
3
 42
0.0000001
 43
0.0000001
 44
0.0000000001
 12
0.0386881632
 22
-0.3456987841
 32
0.0
 13
0.3082897019
 23
-0.1611269158
 33
0.0
 40
0.0
 40
0.0
 40
0.0
 40
0.0
 40
0.5352433194
 40
1.0
 40
1.0
 40
1.0
 40
1.0
 10
138.7837769776
 20
145.7704746468
 30
0.0
 10
138.7906795046
 20
145.7087969919
 30
0.0
 10
138.8226745172
 20
145.593498832
 30
0.0
 10
138.9080896616
 20
145.5050105025
 30
0.0
 10
138.9558495611
 20
145.480048899
 30
0.0
 11
138.7837769776
 21
145.7704746468
 31
0.0
 11
138.8402338265
 21
145.5930524776
 31
0.0
 11
138.9558495611
 21
145.480048899
 31
0.0
  0
SPLINE
  5
2D0
100
AcDbEntity
  8
0
100
AcDbSpline
 62
7
  6
CONTINUOUS
 70
0
 71
3
 72
11
 73
7
 74
5
 42
0.0000001
 43
0.0000001
 44
0.0000000001
 12
-2.8912841776
 22
0.9897358164
 32
0.0
 13
-2.8698935552
 23
1.0501486389
 33
0.0
 40
0.0
 40
0.0
 40
0.0
 40
0.0
 40
0.1588196521
 40
0.3817226589
 40
0.6634144279
 40
1.0
 40
1.0
 40
1.0
 40
1.0
 10
141.6626846054
 20
144.7453867846
 30
0.0
 10
141.5096203563
 20
144.797783284
 30
0.0
 10
141.1462276726
 20
144.9364348365
 30
0.0
 10
140.5081653626
 20
145.1591523381
 30
0.0
 10
139.6985902413
 20
145.4399098357
 30
0.0
 10
139.1057661713
 20
145.6526509956
 30
0.0
 10
138.7837779166
 20
145.7704726224
 30
0.0
 11
141.6626846054
 21
144.7453867846
 31
0.0
 11
141.2065859364
 21
144.911340156
 31
0.0
 11
140.5646443075
 21
145.1392243283
 31
0.0
 11
139.7518830075
 21
145.4229127281
 31
0.0
 11
138.7837779166
 21
145.7704726224
 31
0.0
  0
SPLINE
  5
2D1
100
AcDbEntity
  8
0
100
AcDbSpline
 62
7
  6
CONTINUOUS
 70
0
 71
3
 72
9
 73
5
 74
3
 42
0.0000001
 43
0.0000001
 44
0.0000000001
 12
-0.2791601242
 22
-0.0368484802
 32
0.0
 13
-0.2781058478
 23
-0.044105814
 33
0.0
 40
0.0
 40
0.0
 40
0.0
 40
0.0
 40
0.2126870911
 40
1.0
 40
1.0
 40
1.0
 40
1.0
 10
66.224352314
 20
153.1311623207
 30
0.0
 10
66.2045610624
 20
153.128549922
 30
0.0
 10
66.1117536927
 20
153.1144792614
 30
0.0
 10
66.0190275086
 20
153.0999567377
 30
0.0
 10
65.9460420673
 20
153.0883817121
 30
0.0
 11
66.224352314
 21
153.1311623207
 31
0.0
 11
66.1650868759
 21
153.1225441858
 31
0.0
 11
65.9460420673
 21
153.0883817121
 31
0.0
  0
SPLINE
  5
2D2
100
AcDbEntity
  8
0
100
AcDbSpline
 62
7
  6
CONTINUOUS
 70
0
 71
3
 72
12
 73
8
 74
6
 42
0.0000001
 43
0.0000001
 44
0.0000000001
 12
-2.7868788527
 22
0.3359359803
 32
0.0
 13
-2.6568538861
 23
0.9059106746
 33
0.0
 40
0.0
 40
0.0
 40
0.0
 40
0.0
 40
0.0690615056
 40
0.1559448373
 40
0.3779684199
 40
0.660700248
 40
1.0
 40
1.0
 40
1.0
 40
1.0
 10
141.6626764495
 20
144.745389571
 30
0.0
 10
141.5985210997
 20
144.7531229858
 30
0.0
 10
141.4547791687
 20
144.7792760656
 30
0.0
 10
141.1099484825
 20
144.8576215794
 30
0.0
 10
140.5723580317
 20
144.9901217417
 30
0.0
 10
139.8109946441
 20
145.2004984463
 30
0.0
 10
139.2563406607
 20
145.3775826202
 30
0.0
 10
138.9558507058
 20
145.4800410426
 30
0.0
 11
141.6626764495
 21
144.745389571
 31
0.0
 11
141.4714945741
 21
144.7774975459
 31
0.0
 11
141.2333304772
 21
144.8300170879
 31
0.0
 11
140.6281664931
 21
144.9789957495
 31
0.0
 11
139.8633505764
 21
145.1909537606
 31
0.0
 11
138.9558507058
 21
145.4800410426
 31
0.0
  0
SPLINE
  5
2D3
100
AcDbEntity
  8
0
100
AcDbSpline
 62
7
  6
CONTINUOUS
 70
0
 71
3
 72
14
 73
10
 74
8
 42
0.0000001
 43
0.0000001
 44
0.0000000001
 12
0.0711697658
 22
0.0000247175
 32
0.0
 13
-0.0563892238
 23
-0.0434210965
 33
0.0
 40
0.0
 40
0.0
 40
0.0
 40
0.0
 40
0.3502322925
 40
0.4817954307
 40
0.5828971506
 40
0.6588874187
 40
0.7320104768
 40
0.8366235454
 40
1.0
 40
1.0
 40
1.0
 40
1.0
 10
66.1921437334
 20
153.1613494191
 30
0.0
 10
66.2004523835
 20
153.1613523047
 30
0.0
 10
66.2119381587
 20
153.1610106982
 30
0.0
 10
66.2255398663
 20
153.1582215093
 30
0.0
 10
66.2323722582
 20
153.1555186078
 30
0.0
 10
66.2369431661
 20
153.1511103598
 30
0.0
 10
66.2369857736
 20
153.1445591741
 30
0.0
 10
66.2322155698
 20
153.1377056592
 30
0.0
 10
66.2274220304
 20
153.1335300105
 30
0.0
 10
66.2243511399
 20
153.1311653489
 30
0.0
 11
66.1921437334
 21
153.1613494191
 31
0.0
 11
66.2170225917
 21
153.1598179226
 31
0.0
 11
66.2261615005
 21
153.1577802585
 31
0.0
 11
66.2327048636
 21
153.1547872698
 31
0.0
 11
66.2362946089
 21
153.1507422157
 31
0.0
 11
66.236554734
 21
153.1455445696
 31
0.0
 11
66.2328779534
 21
153.1390704983
 31
0.0
 11
66.2243511399
 21
153.1311653489
 31
0.0
  0
SPLINE
  5
2D4
100
AcDbEntity
  8
0
100
AcDbSpline
 62
7
  6
CONTINUOUS
 70
0
 71
3
 72
10
 73
6
 74
4
 42
0.0000001
 43
0.0000001
 44
0.0000000001
 12
0.1942257128
 22
2.6891924105
 32
0.0
 13
-0.0004510237
 23
2.6961971821
 33
0.0
 40
0.0
 40
0.0
 40
0.0
 40
0.0
 40
0.2430559857
 40
0.4918341954
 40
1.0
 40
1.0
 40
1.0
 40
1.0
 10
141.6670568002
 20
56.7841669912
 30
0.0
 10
141.6827927075
 20
57.0020417619
 30
0.0
 10
141.7089109987
 20
57.4433329112
 30
0.0
 10
141.7495619915
 20
58.3411504002
 30
0.0
 10
141.7630266343
 20
59.0215180504
 30
0.0
 10
141.762950236
 20
59.4782231206
 30
0.0
 11
141.6670568002
 21
56.7841669912
 31
0.0
 11
141.7071113626
 21
57.4382686213
 31
0.0
 11
141.737148277
 21
58.1083508632
 31
0.0
 11
141.762950236
 21
59.4782231206
 31
0.0
  0
SPLINE
  5
2D5
100
AcDbEntity
  8
0
100
AcDbSpline
 62
7
  6
CONTINUOUS
 70
0
 71
3
 72
9
 73
5
 74
3
 42
0.0000001
 43
0.0000001
 44
0.0000000001
 12
0.0238674025
 22
0.0184786116
 32
0.0
 13
-0.0125737066
 23
0.0274410986
 33
0.0
 40
0.0
 40
0.0
 40
0.0
 40
0.0
 40
0.4966368713
 40
1.0
 40
1.0
 40
1.0
 40
1.0
 10
141.6626846054
 20
56.7553994665
 30
0.0
 10
141.6666357494
 20
56.7584585198
 30
0.0
 10
141.6697609594
 20
56.7692835602
 30
0.0
 10
141.6691665136
 20
56.7795627121
 30
0.0
 10
141.6670568002
 20
56.7841669912
 30
0.0
 11
141.6626846054
 21
56.7553994665
 31
0.0
 11
141.6688224921
 21
56.7690761058
 31
0.0
 11
141.6670568002
 21
56.7841669912
 31
0.0
  0
SPLINE
  5
2D6
100
AcDbEntity
  8
0
100
AcDbSpline
 62
7
  6
CONTINUOUS
 70
0
 71
3
 72
9
 73
5
 74
3
 42
0.0000001
 43
0.0000001
 44
0.0000000001
 12
0.0745451346
 22
0.6615387848
 32
0.0
 13
0.4572784857
 23
0.4838253067
 33
0.0
 40
0.0
 40
0.0
 40
0.0
 40
0.0
 40
0.4707617371
 40
1.0
 40
1.0
 40
1.0
 40
1.0
 10
40.6721586176
 20
61.6149593383
 30
0.0
 10
40.6838562833
 20
61.7187683874
 30
0.0
 10
40.7539365157
 20
61.9353099831
 30
0.0
 10
40.8896609975
 20
62.1149964903
 30
0.0
 10
40.9703307547
 20
62.2003494453
 30
0.0
 11
40.6721586176
 21
61.6149593383
 31
0.0
 11
40.7643863234
 21
61.914479683
 31
0.0
 11
40.9703307547
 21
62.2003494453
 31
0.0
  0
SPLINE
  5
2D7
100
AcDbEntity
  8
0
100
AcDbSpline
 62
7
  6
CONTINUOUS
 70
0
 71
3
 72
9
 73
5
 74
3
 42
0.0000001
 43
0.0000001
 44
0.0000000001
 12
0.0745260089
 22
-0.661557511
 32
0.0
 13
0.4572346413
 23
-0.4838893976
 33
0.0
 40
0.0
 40
0.0
 40
0.0
 40
0.0
 40
0.4707622912
 40
1.0
 40
1.0
 40
1.0
 40
1.0
 10
40.6719623768
 20
57.3403495574
 30
0.0
 10
40.683657055
 20
57.2365374476
 30
0.0
 10
40.7537258116
 20
57.0199879997
 30
0.0
 10
40.8894335063
 20
56.840282824
 30
0.0
 10
40.9700954443
 20
56.754918652
 30
0.0
 11
40.6719623768
 21
57.3403495574
 31
0.0
 11
40.7641752252
 21
57.0408161411
 31
0.0
 11
40.9700954443
 21
56.754918652
 31
0.0
  0
SPLINE
  5
2D8
100
AcDbEntity
  8
0
100
AcDbSpline
 62
7
  6
CONTINUOUS
 70
0
 71
3
 72
9
 73
5
 74
3
 42
0.0000001
 43
0.0000001
 44
0.0000000001
 12
-0.0745451011
 22
-0.6615388677
 32
0.0
 13
-0.457278763
 23
-0.4838251529
 33
0.0
 40
0.0
 40
0.0
 40
0.0
 40
0.0
 40
0.4707619554
 40
1.0
 40
1.0
 40
1.0
 40
1.0
 10
141.9605490998
 20
57.3403579117
 30
0.0
 10
141.948851434
 20
57.2365488014
 30
0.0
 10
141.878771182
 20
57.0200071779
 30
0.0
 10
141.7430466569
 20
56.840320663
 30
0.0
 10
141.6623768841
 20
56.7549677703
 30
0.0
 11
141.9605490998
 21
57.3403579117
 31
0.0
 11
141.8683213261
 21
57.0408373971
 31
0.0
 11
141.6623768841
 21
56.7549677703
 31
0.0
  0
SPLINE
  5
2D9
100
AcDbEntity
  8
0
100
AcDbSpline
 62
7
  6
CONTINUOUS
 70
0
 71
3
 72
9
 73
5
 74
3
 42
0.0000001
 43
0.0000001
 44
0.0000000001
 12
-0.0745541414
 22
0.6617231096
 32
0.0
 13
-0.4574137743
 23
0.4839508579
 33
0.0
 40
0.0
 40
0.0
 40
0.0
 40
0.0
 40
0.4707475375
 40
1.0
 40
1.0
 40
1.0
 40
1.0
 10
141.9607433893
 20
61.6149676053
 30
0.0
 10
141.9490446631
 20
61.7188024468
 30
0.0
 10
141.8789411996
 20
61.9354037716
 30
0.0
 10
141.7431748554
 20
62.1151364971
 30
0.0
 10
141.6624790666
 20
62.2005138915
 30
0.0
 11
141.9607433893
 21
61.6149676053
 31
0.0
 11
141.8684914901
 21
61.9145613261
 31
0.0
 11
141.6624790666
 21
62.2005138915
 31
0.0
  0
SPLINE
  5
2DA
100
AcDbEntity
  8
0
100
AcDbSpline
 62
7
  6
CONTINUOUS
 70
0
 71
3
 72
9
 73
5
 74
3
 42
0.0000001
 43
0.0000001
 44
0.0000000001
 12
-10.0288522708
 22
1.2728462688
 32
0.0
 13
-10.0315587513
 23
1.2513370904
 33
0.0
 40
0.0
 40
0.0
 40
0.0
 40
0.0
 40
0.2498378965
 40
1.0
 40
1.0
 40
1.0
 40
1.0
 10
128.3163538874
 20
47.4454440847
 30
0.0
 10
127.4811581022
 20
47.5514458294
 30
0.0
 10
124.1381342943
 20
47.9751505585
 30
0.0
 10
120.7947757342
 20
48.396226807
 30
0.0
 10
118.2863439961
 20
48.709128695
 30
0.0
 11
128.3163538874
 21
47.4454440847
 31
0.0
 11
125.8107091351
 21
47.7629967589
 31
0.0
 11
118.2863439961
 21
48.709128695
 31
0.0
  0
SPLINE
  5
2DB
100
AcDbEntity
  8
0
100
AcDbSpline
 62
7
  6
CONTINUOUS
 70
0
 71
3
 72
10
 73
6
 74
4
 42
0.0000001
 43
0.0000001
 44
0.0000000001
 12
-0.3413373637
 22
-0.2979052867
 32
0.0
 13
-0.067292908
 23
-0.4480294859
 33
0.0
 40
0.0
 40
0.0
 40
0.0
 40
0.0
 40
0.1774595539
 40
0.412395996
 40
1.0
 40
1.0
 40
1.0
 40
1.0
 10
128.3163538874
 20
47.4454440855
 30
0.0
 10
128.2961626953
 20
47.427822039
 30
0.0
 10
128.258959438
 20
47.3763885979
 30
0.0
 10
128.1959473387
 20
47.2389947288
 30
0.0
 10
128.1675252314
 20
47.1164526334
 30
0.0
 10
128.154344704
 20
47.0286979935
 30
0.0
 11
128.3163538874
 21
47.4454440855
 31
0.0
 11
128.2662216771
 21
47.3825891071
 31
0.0
 11
128.2200792892
 21
47.286671621
 31
0.0
 11
128.154344704
 21
47.0286979935
 31
0.0
  0
SPLINE
  5
2DC
100
AcDbEntity
  8
0
100
AcDbSpline
 62
7
  6
CONTINUOUS
 70
0
 71
3
 72
9
 73
5
 74
3
 42
0.0000001
 43
0.0000001
 44
0.0000000001
 12
-11.7448268149
 22
1.5007952576
 32
0.0
 13
-11.7477015229
 23
1.4781245712
 33
0.0
 40
0.0
 40
0.0
 40
0.0
 40
0.0
 40
0.2497986534
 40
1.0
 40
1.0
 40
1.0
 40
1.0
 10
128.1543446823
 20
47.0286980008
 30
0.0
 10
127.1763973748
 20
47.1536635456
 30
0.0
 10
123.2613848515
 20
47.6533768242
 30
0.0
 10
119.3460553776
 20
48.1506220249
 30
0.0
 10
116.4083415436
 20
48.5202523728
 30
0.0
 11
128.1543446823
 21
47.0286980008
 31
0.0
 11
125.2204478847
 21
47.4031649472
 31
0.0
 11
116.4083415436
 21
48.5202523728
 31
0.0
  0
SPLINE
  5
2DD
100
AcDbEntity
  8
0
100
AcDbSpline
 62
7
  6
CONTINUOUS
 70
0
 71
3
 72
11
 73
7
 74
5
 42
0.0000001
 43
0.0000001
 44
0.0000000001
 12
-7.7390889564
 22
-7.9300026815
 32
0.0
 13
-10.9854086727
 23
1.448874286
 33
0.0
 40
0.0
 40
0.0
 40
0.0
 40
0.0
 40
0.2544041146
 40
0.5056564697
 40
0.7539782849
 40
1.0
 40
1.0
 40
1.0
 40
1.0
 10
138.4309850923
 20
50.9682515992
 30
0.0
 10
137.7746997343
 20
50.2957764954
 30
0.0
 10
136.3081778478
 20
49.106953168
 30
0.0
 10
133.7753057251
 20
47.8920365864
 30
0.0
 10
131.0619894219
 20
47.2973946362
 30
0.0
 10
129.2172369149
 20
47.3266259057
 30
0.0
 10
128.3163538874
 20
47.4454440847
 30
0.0
 11
138.4309850923
 21
50.9682515992
 31
0.0
 11
136.2402732677
 21
49.1942220537
 31
0.0
 11
133.730107041
 21
47.9901490881
 31
0.0
 11
131.0420686265
 21
47.4024201264
 31
0.0
 11
128.3163538874
 21
47.4454440847
 31
0.0
  0
SPLINE
  5
2DE
100
AcDbEntity
  8
0
100
AcDbSpline
 62
7
  6
CONTINUOUS
 70
0
 71
3
 72
10
 73
6
 74
4
 42
0.0000001
 43
0.0000001
 44
0.0000000001
 12
0.0988308944
 22
-0.3203425555
 32
0.0
 13
0.2264283207
 23
-0.2472187577
 33
0.0
 40
0.0
 40
0.0
 40
0.0
 40
0.0
 40
0.1672970059
 40
0.3969697969
 40
1.0
 40
1.0
 40
1.0
 40
1.0
 10
138.4309612056
 20
50.9682716972
 30
0.0
 10
138.4364725765
 20
50.9504075804
 30
0.0
 10
138.4563538924
 20
50.9103121788
 30
0.0
 10
138.5175977006
 20
50.8168611318
 30
0.0
 10
138.5781281278
 20
50.7456206392
 30
0.0
 10
138.6236424999
 20
50.69592718
 30
0.0
 11
138.4309612056
 21
50.9682716972
 31
0.0
 11
138.4540168578
 21
50.9171448569
 31
0.0
 11
138.4954570524
 21
50.8522520746
 31
0.0
 11
138.6236424999
 21
50.69592718
 31
0.0
  0
SPLINE
  5
2DF
100
AcDbEntity
  8
0
100
AcDbSpline
 62
7
  6
CONTINUOUS
 70
0
 71
3
 72
11
 73
7
 74
5
 42
0.0000001
 43
0.0000001
 44
0.0000000001
 12
-8.0065132088
 22
-8.2182248542
 32
0.0
 13
-11.381059406
 23
1.454290313
 33
0.0
 40
0.0
 40
0.0
 40
0.0
 40
0.0
 40
0.2540945616
 40
0.505249103
 40
0.7536831819
 40
1.0
 40
1.0
 40
1.0
 40
1.0
 10
138.6236430306
 20
50.6959270815
 30
0.0
 10
137.945505876
 20
49.9998583343
 30
0.0
 10
136.4294471739
 20
48.768397664
 30
0.0
 10
133.8096272532
 20
47.507272915
 30
0.0
 10
131.0004233529
 20
46.8852530761
 30
0.0
 10
129.0887934623
 20
46.9092926133
 30
0.0
 10
128.1543446823
 20
47.0286980008
 30
0.0
 11
138.6236430306
 21
50.6959270815
 31
0.0
 11
136.3598747413
 21
48.8588673535
 31
0.0
 11
133.7635370324
 21
47.6087005674
 31
0.0
 11
130.9802668554
 21
46.9935783267
 31
0.0
 11
128.1543446823
 21
47.0286980008
 31
0.0
  0
SPLINE
  5
2E0
100
AcDbEntity
  8
0
100
AcDbSpline
 62
7
  6
CONTINUOUS
 70
0
 71
3
 72
10
 73
6
 74
4
 42
0.0000001
 43
0.0000001
 44
0.0000000001
 12
0.0776129434
 22
-0.2989405797
 32
0.0
 13
0.2082450966
 23
-0.2280859902
 33
0.0
 40
0.0
 40
0.0
 40
0.0
 40
0.0
 40
0.1725826772
 40
0.4024343117
 40
1.0
 40
1.0
 40
1.0
 40
1.0
 10
138.7837769776
 20
51.3386752708
 30
0.0
 10
138.7882418608
 20
51.321477949
 30
0.0
 10
138.8051716575
 20
51.2832218729
 30
0.0
 10
138.8593896875
 20
51.1956565606
 30
0.0
 10
138.9143695196
 20
51.1299506256
 30
0.0
 10
138.9558495611
 20
51.084518505
 30
0.0
 11
138.7837769776
 21
51.3386752708
 31
0.0
 11
138.8036616474
 21
51.289220772
 31
0.0
 11
138.8402338265
 21
51.2283762289
 31
0.0
 11
138.9558495611
 21
51.084518505
 31
0.0
  0
SPLINE
  5
2E1
100
AcDbEntity
  8
0
100
AcDbSpline
 62
7
  6
CONTINUOUS
 70
0
 71
3
 72
11
 73
7
 74
5
 42
0.0000001
 43
0.0000001
 44
0.0000000001
 12
-1.405283118
 22
-6.0370710054
 32
0.0
 13
-4.2203012032
 23
-4.5398353186
 33
0.0
 40
0.0
 40
0.0
 40
0.0
 40
0.0
 40
0.2521404228
 40
0.5031643214
 40
0.7526595681
 40
1.0
 40
1.0
 40
1.0
 40
1.0
 10
141.6626846054
 20
56.7553994665
 30
0.0
 10
141.5445750455
 20
56.2480029212
 30
0.0
 10
141.2382850742
 20
55.2507703006
 30
0.0
 10
140.595339201
 20
53.8304782082
 30
0.0
 10
139.7819128415
 20
52.5118170103
 30
0.0
 10
139.1317282908
 20
51.7129700072
 30
0.0
 10
138.7837779166
 20
51.3386750644
 30
0.0
 11
141.6626846054
 21
56.7553994665
 31
0.0
 11
141.2065859364
 21
55.2605469302
 31
0.0
 11
140.5646443075
 21
53.8431774345
 31
0.0
 11
139.7518830075
 21
52.5274845686
 31
0.0
 11
138.7837779166
 21
51.3386750644
 31
0.0
  0
SPLINE
  5
2E2
100
AcDbEntity
  8
0
100
AcDbSpline
 62
7
  6
CONTINUOUS
 70
0
 71
3
 72
11
 73
7
 74
5
 42
0.0000001
 43
0.0000001
 44
0.0000000001
 12
-1.3233946431
 22
-6.1957043529
 32
0.0
 13
-3.9410543112
 23
-4.960465374
 33
0.0
 40
0.0
 40
0.0
 40
0.0
 40
0.0
 40
0.2515394577
 40
0.5024498812
 40
0.7522115067
 40
1.0
 40
1.0
 40
1.0
 40
1.0
 10
141.6626764495
 20
56.7553644365
 30
0.0
 10
141.5517144592
 20
56.2358763988
 30
0.0
 10
141.26281028
 20
55.2116319594
 30
0.0
 10
140.6563617117
 20
53.739898504
 30
0.0
 10
139.8906237648
 20
52.3533774266
 30
0.0
 10
139.2813666758
 20
51.4942302868
 30
0.0
 10
138.9558507058
 20
51.084514873
 30
0.0
 11
141.6626764495
 21
56.7553644365
 31
0.0
 11
141.2333304772
 21
55.2206704937
 31
0.0
 11
140.6281664931
 21
53.7507337503
 31
0.0
 11
139.8633505764
 21
52.3654872724
 31
0.0
 11
138.9558507058
 21
51.084514873
 31
0.0
  0
SPLINE
  5
2E3
100
AcDbEntity
  8
0
100
AcDbSpline
 62
7
  6
CONTINUOUS
 70
0
 71
3
 72
11
 73
7
 74
5
 42
0.0000001
 43
0.0000001
 44
0.0000000001
 12
10.9854080237
 22
1.4488775872
 32
0.0
 13
7.7389870775
 23
-7.9301018104
 33
0.0
 40
0.0
 40
0.0
 40
0.0
 40
0.0
 40
0.2460216647
 40
0.4943434374
 40
0.7455958377
 40
1.0
 40
1.0
 40
1.0
 40
1.0
 10
128.3163538874
 20
71.5098731629
 30
0.0
 10
129.2172366773
 20
71.6286915882
 30
0.0
 10
131.061988326
 20
71.6579215681
 30
0.0
 10
133.775306786
 20
71.0632841783
 30
0.0
 10
136.3081714404
 20
69.8483574904
 30
0.0
 10
137.7747082508
 20
68.6595492845
 30
0.0
 10
138.4309850924
 20
67.9870656484
 30
0.0
 11
128.3163538874
 21
71.5098731629
 31
0.0
 11
131.0420680156
 21
71.5528971674
 31
0.0
 11
133.7301061497
 21
70.9651693737
 31
0.0
 11
136.2402717564
 21
69.7610940817
 31
0.0
 11
138.4309850924
 21
67.9870656484
 31
0.0
  0
SPLINE
  5
2E4
100
AcDbEntity
  8
0
100
AcDbSpline
 62
7
  6
CONTINUOUS
 70
0
 71
3
 72
10
 73
6
 74
4
 42
0.0000001
 43
0.0000001
 44
0.0000000001
 12
-0.341337456
 22
0.2979056054
 32
0.0
 13
-0.0672928448
 23
0.4480297776
 33
0.0
 40
0.0
 40
0.0
 40
0.0
 40
0.0
 40
0.1774595741
 40
0.4123960375
 40
1.0
 40
1.0
 40
1.0
 40
1.0
 10
128.3163538874
 20
71.5098728636
 30
0.0
 10
128.2961626876
 20
71.5274949309
 30
0.0
 10
128.2589594209
 20
71.5789284205
 30
0.0
 10
128.1959473166
 20
71.7163223895
 30
0.0
 10
128.1675252165
 20
71.8388645626
 30
0.0
 10
128.1543447024
 20
71.9266192535
 30
0.0
 11
128.3163538874
 21
71.5098728636
 31
0.0
 11
128.2662216618
 21
71.5727279049
 31
0.0
 11
128.2200792662
 21
71.6686454706
 31
0.0
 11
128.1543447024
 21
71.9266192535
 31
0.0
  0
SPLINE
  5
2E5
100
AcDbEntity
  8
0
100
AcDbSpline
 62
7
  6
CONTINUOUS
 70
0
 71
3
 72
11
 73
7
 74
5
 42
0.0000001
 43
0.0000001
 44
0.0000000001
 12
11.3810583363
 22
1.4542961091
 32
0.0
 13
8.0063354588
 23
-8.2183975656
 33
0.0
 40
0.0
 40
0.0
 40
0.0
 40
0.0
 40
0.2463167629
 40
0.4947508395
 40
0.7459053273
 40
1.0
 40
1.0
 40
1.0
 40
1.0
 10
128.1543446823
 20
71.9266192467
 30
0.0
 10
129.0887931648
 20
72.0460250833
 30
0.0
 10
131.0004215384
 20
72.070061288
 30
0.0
 10
133.8096309348
 20
71.4480547582
 30
0.0
 10
136.4294334936
 20
70.1869038781
 30
0.0
 10
137.9455206347
 20
68.9554738458
 30
0.0
 10
138.6236430306
 20
68.259390166
 30
0.0
 11
128.1543446823
 21
71.9266192467
 31
0.0
 11
130.980266139
 21
71.9617390832
 31
0.0
 11
133.7635370253
 21
71.346620548
 31
0.0
 11
136.3598704818
 21
70.0964465357
 31
0.0
 11
138.6236430306
 21
68.259390166
 31
0.0
  0
SPLINE
  5
2E6
100
AcDbEntity
  8
0
100
AcDbSpline
 62
7
  6
CONTINUOUS
 70
0
 71
3
 72
10
 73
6
 74
4
 42
0.0000001
 43
0.0000001
 44
0.0000000001
 12
0.0988042982
 22
0.3203196969
 32
0.0
 13
0.2264039652
 23
0.2472008132
 33
0.0
 40
0.0
 40
0.0
 40
0.0
 40
0.0
 40
0.1672924079
 40
0.3969625271
 40
1.0
 40
1.0
 40
1.0
 40
1.0
 10
138.4309850606
 20
67.9870656216
 30
0.0
 10
138.4364947969
 20
68.0049279728
 30
0.0
 10
138.4563726199
 20
68.0450198706
 30
0.0
 10
138.5176087119
 20
68.138464122
 30
0.0
 10
138.5781330044
 20
68.2096997146
 30
0.0
 10
138.6236430294
 20
68.2593901658
 30
0.0
 11
138.4309850606
 21
67.9870656216
 31
0.0
 11
138.4540359633
 21
68.0381874655
 31
0.0
 11
138.4954703117
 21
68.1030748297
 31
0.0
 11
138.6236430294
 21
68.2593901658
 31
0.0
  0
SPLINE
  5
2E7
100
AcDbEntity
  8
0
100
AcDbSpline
 62
7
  6
CONTINUOUS
 70
0
 71
3
 72
16
 73
12
 74
10
 42
0.0000001
 43
0.0000001
 44
0.0000000001
 12
4.2191209594
 22
-4.5385161149
 32
0.0
 13
1.7076330843
 23
-5.956769212
 33
0.0
 40
0.0
 40
0.0
 40
0.0
 40
0.0
 40
0.2472972785
 40
0.3718094527
 40
0.4967647901
 40
0.6221004522
 40
0.7477798202
 40
0.8107666449
 40
0.873802603
 40
0.9370385693
 40
1.0
 40
1.0
 40
1.0
 40
1.0
 10
138.7837742658
 20
67.6166445937
 30
0.0
 10
139.1315666427
 20
67.2425236991
 30
0.0
 10
139.6180437974
 20
66.6445342555
 30
0.0
 10
140.1857017637
 20
65.7891973547
 30
0.0
 10
140.5716707646
 20
65.1174092456
 30
0.0
 10
140.9147275677
 20
64.4201455581
 30
0.0
 10
141.1635702411
 20
63.8206357959
 30
0.0
 10
141.3386892896
 20
63.3310370346
 30
0.0
 10
141.4590108274
 20
62.9589972548
 30
0.0
 10
141.5647442962
 20
62.5826082426
 30
0.0
 10
141.6262822258
 20
62.3292225171
 30
0.0
 10
141.6621205665
 20
62.2042069465
 30
0.0
 11
138.7837742658
 21
67.6166445937
 31
0.0
 11
139.7514425845
 21
66.4283887897
 31
0.0
 11
140.1781779767
 21
65.7855753478
 31
0.0
 11
140.5639594848
 21
65.1142110277
 31
0.0
 11
140.9069060408
 21
64.4173607111
 31
0.0
 11
141.2051534331
 21
63.697934485
 31
0.0
 11
141.336766626
 21
63.3304834046
 31
0.0
 11
141.4564604725
 21
62.9586588805
 31
0.0
 11
141.5626443146
 21
62.5814654672
 31
0.0
 11
141.6621205665
 21
62.2042069465
 31
0.0
  0
SPLINE
  5
2E8
100
AcDbEntity
  8
0
100
AcDbSpline
 62
7
  6
CONTINUOUS
 70
0
 71
3
 72
10
 73
6
 74
4
 42
0.0000001
 43
0.0000001
 44
0.0000000001
 12
0.0776123965
 22
0.2989378601
 32
0.0
 13
0.2082429192
 23
0.2280842277
 33
0.0
 40
0.0
 40
0.0
 40
0.0
 40
0.0
 40
0.1725826182
 40
0.4024341356
 40
1.0
 40
1.0
 40
1.0
 40
1.0
 10
138.7837726477
 20
67.6166451144
 30
0.0
 10
138.7882374979
 20
67.633842274
 30
0.0
 10
138.8051671271
 20
67.6720979906
 30
0.0
 10
138.859384623
 20
67.7596625477
 30
0.0
 10
138.9143638964
 20
67.8253679508
 30
0.0
 10
138.9558435164
 20
67.8707997336
 30
0.0
 11
138.7837726477
 21
67.6166451144
 31
0.0
 11
138.8036571318
 21
67.6660991531
 31
0.0
 11
138.8402289323
 21
67.7269431388
 31
0.0
 11
138.9558435164
 21
67.8707997336
 31
0.0
  0
SPLINE
  5
2E9
100
AcDbEntity
  8
0
100
AcDbSpline
 62
7
  6
CONTINUOUS
 70
0
 71
3
 72
16
 73
12
 74
10
 42
0.0000001
 43
0.0000001
 44
0.0000000001
 12
3.9404131394
 22
-4.9593789562
 32
0.0
 13
1.6058647715
 23
-6.1272745716
 33
0.0
 40
0.0
 40
0.0
 40
0.0
 40
0.0
 40
0.2477491156
 40
0.3724293931
 40
0.4974764036
 40
0.6228093634
 40
0.7483732032
 40
0.8112463818
 40
0.8741335707
 40
0.9371388413
 40
1.0
 40
1.0
 40
1.0
 40
1.0
 10
138.9558435164
 20
67.8707997336
 30
0.0
 10
139.2812548066
 20
67.4612391501
 30
0.0
 10
139.7372264719
 20
66.8179973334
 30
0.0
 10
140.2712038783
 20
65.9130435144
 30
0.0
 10
140.6347966826
 20
65.2090191971
 30
0.0
 10
140.9582951601
 20
64.4837126386
 30
0.0
 10
141.1929687553
 20
63.8637137626
 30
0.0
 10
141.3581051459
 20
63.3593551305
 30
0.0
 10
141.4713580917
 20
62.977145868
 30
0.0
 10
141.5708921643
 20
62.5911670213
 30
0.0
 10
141.6291947319
 20
62.3318236226
 30
0.0
 10
141.662843572
 20
62.2034344295
 30
0.0
 11
138.9558435164
 21
67.8707997336
 31
0.0
 11
139.8630247364
 21
66.5902866927
 31
0.0
 11
140.2643396664
 21
65.9100997386
 31
0.0
 11
140.6277166829
 21
65.2062960444
 31
0.0
 11
140.9510479346
 21
64.4812360527
 31
0.0
 11
141.2322547363
 21
63.7372589078
 31
0.0
 11
141.3563011328
 21
63.3588181692
 31
0.0
 11
141.4690052267
 21
62.9767535384
 31
0.0
 11
141.5689461201
 21
62.5903808502
 31
0.0
 11
141.662843572
 21
62.2034344295
 31
0.0
  0
SPLINE
  5
2EA
100
AcDbEntity
  8
0
100
AcDbSpline
 62
7
  6
CONTINUOUS
 70
0
 71
3
 72
16
 73
12
 74
10
 42
0.0000001
 43
0.0000001
 44
0.0000000001
 12
-1.913358771
 22
0.1115150142
 32
0.0
 13
-1.1215562568
 23
-1.5541843352
 33
0.0
 40
0.0
 40
0.0
 40
0.0
 40
0.0
 40
0.2498583977
 40
0.3748062677
 40
0.4997667763
 40
0.6247451705
 40
0.7497504699
 40
0.8122881038
 40
0.874855435
 40
0.9374262322
 40
1.0
 40
1.0
 40
1.0
 40
1.0
 10
118.2863439885
 20
48.7091287374
 30
0.0
 10
118.1269877363
 20
48.7184163916
 30
0.0
 10
117.8876473171
 20
48.7281756055
 30
0.0
 10
117.5683448256
 20
48.7302788247
 30
0.0
 10
117.32884677
 20
48.7251963433
 30
0.0
 10
117.089663937
 20
48.7115360107
 30
0.0
 10
116.8909234064
 20
48.6901634057
 30
0.0
 10
116.7335138621
 20
48.6630037348
 30
0.0
 10
116.6164064066
 20
48.6351542359
 30
0.0
 10
116.5041941398
 20
48.5957360074
 30
0.0
 10
116.4317338933
 20
48.5526706157
 30
0.0
 10
116.4083405597
 20
48.5202535591
 30
0.0
 11
118.2863439885
 21
48.7091287374
 31
0.0
 11
117.8078277784
 21
48.7277920004
 31
0.0
 11
117.5683559378
 21
48.7291689296
 31
0.0
 11
117.3289168343
 21
48.7237674149
 31
0.0
 11
117.0898054096
 21
48.7095403827
 31
0.0
 11
116.8517456384
 21
48.6825416107
 31
0.0
 11
116.7337005017
 21
48.6617627321
 31
0.0
 11
116.6172281261
 21
48.6332276774
 31
0.0
 11
116.5047833639
 21
48.5915403606
 31
0.0
 11
116.4083405597
 21
48.5202535591
 31
0.0
  0
SPLINE
  5
2EB
100
AcDbEntity
  8
0
100
AcDbSpline
 62
7
  6
CONTINUOUS
 70
0
 71
3
 72
9
 73
5
 74
3
 42
0.0000001
 43
0.0000001
 44
0.0000000001
 12
-0.0914638527
 22
0.2759211941
 32
0.0
 13
0.1136527577
 23
0.2675466172
 33
0.0
 40
0.0
 40
0.0
 40
0.0
 40
0.0
 40
0.4960252854
 40
1.0
 40
1.0
 40
1.0
 40
1.0
 10
116.4083415436
 20
48.5202523728
 30
0.0
 10
116.3932187491
 20
48.5658736692
 30
0.0
 10
116.3928588103
 20
48.6670081517
 30
0.0
 10
116.4215936411
 20
48.7599947606
 30
0.0
 10
116.4406863465
 20
48.8049403372
 30
0.0
 11
116.4083415436
 21
48.5202523728
 31
0.0
 11
116.4000201802
 21
48.6641994787
 31
0.0
 11
116.4406863465
 21
48.8049403372
 31
0.0
  0
SPLINE
  5
2EC
100
AcDbEntity
  8
0
100
AcDbSpline
 62
7
  6
CONTINUOUS
 70
0
 71
3
 72
12
 73
8
 74
6
 42
0.0000001
 43
0.0000001
 44
0.0000000001
 12
-1.9066397882
 22
0.0000160565
 32
0.0
 13
-1.5472307279
 23
-1.1141599334
 33
0.0
 40
0.0
 40
0.0
 40
0.0
 40
0.0
 40
0.2499719579
 40
0.4999363805
 40
0.74977242
 40
0.8749817329
 40
1.0
 40
1.0
 40
1.0
 40
1.0
 10
118.2863440085
 20
49.1806238713
 30
0.0
 10
118.1274751815
 20
49.1806252092
 30
0.0
 10
117.809572242
 20
49.1708509912
 30
0.0
 10
117.3353944325
 20
49.120012328
 30
0.0
 10
116.9454080268
 20
49.0363926625
 30
0.0
 10
116.6463704041
 20
48.927535763
 30
0.0
 10
116.5052375365
 20
48.8514155567
 30
0.0
 10
116.4407601683
 20
48.804985442
 30
0.0
 11
118.2863440085
 21
49.1806238713
 31
0.0
 11
117.8099996341
 21
49.1648196126
 31
0.0
 11
117.3363709221
 21
49.1117546892
 31
0.0
 11
116.8719669004
 21
49.0057561665
 31
0.0
 11
116.6483851596
 21
48.9220736224
 31
0.0
 11
116.4407601683
 21
48.804985442
 31
0.0
  0
SPLINE
  5
2ED
100
AcDbEntity
  8
0
100
AcDbSpline
 62
7
  6
CONTINUOUS
 70
0
 71
3
 72
16
 73
12
 74
10
 42
0.0000001
 43
0.0000001
 44
0.0000000001
 12
1.143154878
 22
-1.5384218379
 32
0.0
 13
1.9134024412
 23
0.1115164752
 33
0.0
 40
0.0
 40
0.0
 40
0.0
 40
0.0
 40
0.0625655466
 40
0.1251515996
 40
0.1877194832
 40
0.250255589
 40
0.3752599135
 40
0.5002374818
 40
0.6251968263
 40
0.750143669
 40
1.0
 40
1.0
 40
1.0
 40
1.0
 10
116.4082997046
 20
70.4350599374
 30
0.0
 10
116.4321404079
 20
70.4029758697
 30
0.0
 10
116.5039104283
 20
70.3593613042
 30
0.0
 10
116.6164485454
 20
70.3202701477
 30
0.0
 10
116.7334718442
 20
70.2922864242
 30
0.0
 10
116.8909144217
 20
70.2651650616
 30
0.0
 10
117.0896435163
 20
70.2437845104
 30
0.0
 10
117.328833936
 20
70.23011921
 30
0.0
 10
117.5683344751
 20
70.2250388406
 30
0.0
 10
117.8876418616
 20
70.2271421773
 30
0.0
 10
118.1269856645
 20
70.2369006437
 30
0.0
 10
118.2863442357
 20
70.2461883428
 30
0.0
 11
116.4082997046
 21
70.4350599374
 31
0.0
 11
116.5047130404
 21
70.3637551865
 31
0.0
 11
116.6172102913
 21
70.3221175212
 31
0.0
 11
116.7336795734
 21
70.2935539187
 31
0.0
 11
116.8517242652
 21
70.2727736501
 31
0.0
 11
117.0897883364
 21
70.2457809199
 31
0.0
 11
117.3289033718
 21
70.2315493096
 31
0.0
 11
117.5683457169
 21
70.2261483985
 31
0.0
 11
117.8078210446
 21
70.2275256601
 31
0.0
 11
118.2863442357
 21
70.2461883428
 31
0.0
  0
SPLINE
  5
2EE
100
AcDbEntity
  8
0
100
AcDbSpline
 62
7
  6
CONTINUOUS
 70
0
 71
3
 72
12
 73
8
 74
6
 42
0.0000001
 43
0.0000001
 44
0.0000000001
 12
1.5474885906
 22
-1.1138066619
 32
0.0
 13
1.9066426559
 23
0.000031451
 33
0.0
 40
0.0
 40
0.0
 40
0.0
 40
0.0
 40
0.1250192624
 40
0.2502207292
 40
0.5000611891
 40
0.7500264191
 40
1.0
 40
1.0
 40
1.0
 40
1.0
 10
116.4407597436
 20
70.1503326962
 30
0.0
 10
116.505248371
 20
70.1039169337
 30
0.0
 10
116.6463642302
 20
70.0277830388
 30
0.0
 10
116.9453951696
 20
69.9189005546
 30
0.0
 10
117.3353882747
 20
69.8353148532
 30
0.0
 10
117.8095687274
 20
69.7844671781
 30
0.0
 10
118.1274741483
 20
69.7746907547
 30
0.0
 10
118.2863442457
 20
69.7746933753
 30
0.0
 11
116.4407597436
 21
70.1503326962
 31
0.0
 11
116.648386702
 21
70.0332434108
 31
0.0
 11
116.8719488798
 21
69.9495502527
 31
0.0
 11
117.3363650968
 21
69.8435640669
 31
0.0
 11
117.80999612
 21
69.790499507
 31
0.0
 11
118.2863442457
 21
69.7746933753
 31
0.0
  0
SPLINE
  5
2EF
100
AcDbEntity
  8
0
100
AcDbSpline
 62
7
  6
CONTINUOUS
 70
0
 71
3
 72
9
 73
5
 74
3
 42
0.0000001
 43
0.0000001
 44
0.0000000001
 12
-0.1134941177
 22
0.2671731114
 32
0.0
 13
0.086585865
 23
0.2770654692
 33
0.0
 40
0.0
 40
0.0
 40
0.0
 40
0.0
 40
0.7516944283
 40
1.0
 40
1.0
 40
1.0
 40
1.0
 10
116.4406855493
 20
70.1503787869
 30
0.0
 10
116.4122479173
 20
70.2173229666
 30
0.0
 10
116.3861280365
 20
70.3153807543
 30
0.0
 10
116.4011297862
 20
70.4121269402
 30
0.0
 10
116.4082963705
 20
70.4350592402
 30
0.0
 11
116.4406855493
 21
70.1503787869
 31
0.0
 11
116.3962151313
 21
70.3640008386
 31
0.0
 11
116.4082963705
 21
70.4350592402
 31
0.0
  0
SPLINE
  5
2F0
100
AcDbEntity
  8
0
100
AcDbSpline
 62
7
  6
CONTINUOUS
 70
0
 71
3
 72
11
 73
7
 74
5
 42
0.0000001
 43
0.0000001
 44
0.0000000001
 12
-10.9854078437
 22
-1.448879025
 32
0.0
 13
-7.7389892577
 23
7.9300996961
 33
0.0
 40
0.0
 40
0.0
 40
0.0
 40
0.0
 40
0.2460216738
 40
0.49434345
 40
0.7455958395
 40
1.0
 40
1.0
 40
1.0
 40
1.0
 10
54.3163538874
 20
47.4454440847
 30
0.0
 10
53.415471079
 20
47.326625537
 30
0.0
 10
51.570719352
 20
47.2973957615
 30
0.0
 10
48.8574009213
 20
47.8920330868
 30
0.0
 10
46.3245361744
 20
49.1069596685
 30
0.0
 10
44.8579997043
 20
50.2957681471
 30
0.0
 10
44.2017226824
 20
50.9682515992
 30
0.0
 11
54.3163538874
 21
47.4454440847
 31
0.0
 11
51.5906396559
 21
47.4024201044
 31
0.0
 11
48.9026014811
 21
47.9901479032
 31
0.0
 11
46.392435981
 21
49.1942231473
 31
0.0
 11
44.2017226824
 21
50.9682515992
 31
0.0
  0
SPLINE
  5
2F1
100
AcDbEntity
  8
0
100
AcDbSpline
 62
7
  6
CONTINUOUS
 70
0
 71
3
 72
10
 73
6
 74
4
 42
0.0000001
 43
0.0000001
 44
0.0000000001
 12
0.3413374568
 22
-0.2979056339
 32
0.0
 13
0.0672928394
 23
-0.448029798
 33
0.0
 40
0.0
 40
0.0
 40
0.0
 40
0.0
 40
0.1774595768
 40
0.4123960422
 40
1.0
 40
1.0
 40
1.0
 40
1.0
 10
54.3163538874
 20
47.445444405
 30
0.0
 10
54.3365450876
 20
47.4278223358
 30
0.0
 10
54.3737483545
 20
47.3763888423
 30
0.0
 10
54.4367604584
 20
47.238994866
 30
0.0
 10
54.4651825577
 20
47.1164526876
 30
0.0
 10
54.4783630707
 20
47.0286979935
 30
0.0
 11
54.3163538874
 21
47.445444405
 31
0.0
 11
54.3664861137
 21
47.3825893583
 31
0.0
 11
54.4126285093
 21
47.2866717865
 31
0.0
 11
54.4783630707
 21
47.0286979935
 31
0.0
  0
SPLINE
  5
2F2
100
AcDbEntity
  8
0
100
AcDbSpline
 62
7
  6
CONTINUOUS
 70
0
 71
3
 72
11
 73
7
 74
5
 42
0.0000001
 43
0.0000001
 44
0.0000000001
 12
-11.3810580641
 22
-1.4542985153
 32
0.0
 13
-8.0063392827
 23
8.2183938893
 33
0.0
 40
0.0
 40
0.0
 40
0.0
 40
0.0
 40
0.2463167747
 40
0.494750856
 40
0.7459053312
 40
1.0
 40
1.0
 40
1.0
 40
1.0
 10
54.4783630925
 20
47.0286980008
 30
0.0
 10
53.5439145875
 20
46.9092919609
 30
0.0
 10
51.6322860948
 20
46.885256091
 30
0.0
 10
48.8230767423
 20
47.507262497
 30
0.0
 10
46.2032739674
 20
48.7684131396
 30
0.0
 10
44.6871874537
 20
49.9998437237
 30
0.0
 10
44.0090647442
 20
50.6959270815
 30
0.0
 11
54.4783630925
 21
47.0286980008
 31
0.0
 11
51.6524414911
 21
46.9935781967
 31
0.0
 11
48.8691705359
 21
47.6086967132
 31
0.0
 11
46.2728371922
 21
48.858870644
 31
0.0
 11
44.0090647442
 21
50.6959270815
 31
0.0
  0
SPLINE
  5
2F3
100
AcDbEntity
  8
0
100
AcDbSpline
 62
7
  6
CONTINUOUS
 70
0
 71
3
 72
10
 73
6
 74
4
 42
0.0000001
 43
0.0000001
 44
0.0000000001
 12
-0.0988042983
 22
-0.3203196969
 32
0.0
 13
-0.2264039653
 23
-0.2472008133
 33
0.0
 40
0.0
 40
0.0
 40
0.0
 40
0.0
 40
0.1672924078
 40
0.3969625268
 40
1.0
 40
1.0
 40
1.0
 40
1.0
 10
44.2017227143
 20
50.968251626
 30
0.0
 10
44.196212978
 20
50.9503892748
 30
0.0
 10
44.176335155
 20
50.910297377
 30
0.0
 10
44.115099063
 20
50.8168531256
 30
0.0
 10
44.0545747704
 20
50.745617533
 30
0.0
 10
44.0090647454
 20
50.6959270817
 30
0.0
 11
44.2017227143
 21
50.968251626
 31
0.0
 11
44.1786718115
 21
50.9171297821
 31
0.0
 11
44.1372374632
 21
50.852242418
 31
0.0
 11
44.0090647454
 21
50.6959270817
 31
0.0
  0
SPLINE
  5
2F4
100
AcDbEntity
  8
0
100
AcDbSpline
 62
7
  6
CONTINUOUS
 70
0
 71
3
 72
16
 73
12
 74
10
 42
0.0000001
 43
0.0000001
 44
0.0000000001
 12
-4.2195167839
 22
4.538942797
 32
0.0
 13
-1.7088560304
 23
5.9570239777
 33
0.0
 40
0.0
 40
0.0
 40
0.0
 40
0.0
 40
0.2472972373
 40
0.3718094764
 40
0.49676484
 40
0.6221005673
 40
0.7477799761
 40
0.8107669791
 40
0.8738027898
 40
0.9370392163
 40
1.0
 40
1.0
 40
1.0
 40
1.0
 10
43.848933509
 20
51.3386726539
 30
0.0
 10
43.5011085613
 20
51.7128286585
 30
0.0
 10
43.0145883419
 20
52.3108772387
 30
0.0
 10
42.4468912574
 20
53.1663040893
 30
0.0
 10
42.0608987225
 20
53.8381631168
 30
0.0
 10
41.7178294835
 20
54.5355023873
 30
0.0
 10
41.46898096
 20
55.1350765437
 30
0.0
 10
41.2938668391
 20
55.6247290935
 30
0.0
 10
41.1735477942
 20
55.9968093848
 30
0.0
 10
41.0678207509
 20
56.3732374563
 30
0.0
 10
41.0063112702
 20
56.6266562698
 30
0.0
 10
40.9704476319
 20
56.7516759026
 30
0.0
 11
43.848933509
 21
51.3386726539
 31
0.0
 11
42.8811815755
 21
52.5270456533
 31
0.0
 11
42.4544160509
 21
53.169926556
 31
0.0
 11
42.0686119135
 21
53.8413619364
 31
0.0
 11
41.7256519328
 21
54.5382873985
 31
0.0
 11
41.4273999051
 21
55.257791159
 31
0.0
 11
41.2957891294
 21
55.6252832182
 31
0.0
 11
41.1760990861
 21
55.9971465481
 31
0.0
 11
41.0699262348
 21
56.3743842518
 31
0.0
 11
40.9704476319
 21
56.7516759026
 31
0.0
  0
SPLINE
  5
2F5
100
AcDbEntity
  8
0
100
AcDbSpline
 62
7
  6
CONTINUOUS
 70
0
 71
3
 72
10
 73
6
 74
4
 42
0.0000001
 43
0.0000001
 44
0.0000000001
 12
-0.0776123954
 22
-0.2989378841
 32
0.0
 13
-0.2082429365
 23
-0.2280842429
 33
0.0
 40
0.0
 40
0.0
 40
0.0
 40
0.0
 40
0.1725826158
 40
0.4024341329
 40
1.0
 40
1.0
 40
1.0
 40
1.0
 10
43.8489351547
 20
51.3386721545
 30
0.0
 10
43.8444703046
 20
51.3214749939
 30
0.0
 10
43.8275406747
 20
51.2832192744
 30
0.0
 10
43.773323175
 20
51.1956547107
 30
0.0
 10
43.718343897
 20
51.1299493027
 30
0.0
 10
43.6768642734
 20
51.0845175166
 30
0.0
 11
43.8489351547
 21
51.3386721545
 31
0.0
 11
43.82905067
 21
51.2892181127
 31
0.0
 11
43.7924788671
 21
51.2283741223
 31
0.0
 11
43.6768642734
 21
51.0845175166
 31
0.0
  0
SPLINE
  5
2F6
100
AcDbEntity
  8
0
100
AcDbSpline
 62
7
  6
CONTINUOUS
 70
0
 71
3
 72
16
 73
12
 74
10
 42
0.0000001
 43
0.0000001
 44
0.0000000001
 12
-3.9404129593
 22
4.9593793509
 32
0.0
 13
-1.6069462145
 23
6.1269912436
 33
0.0
 40
0.0
 40
0.0
 40
0.0
 40
0.0
 40
0.2477491896
 40
0.3724294952
 40
0.4974764965
 40
0.6228094525
 40
0.7483732395
 40
0.8112465139
 40
0.8741335304
 40
0.9371389278
 40
1.0
 40
1.0
 40
1.0
 40
1.0
 10
43.6768642734
 20
51.0845175166
 30
0.0
 10
43.3514529009
 20
51.4940782549
 30
0.0
 10
42.8954806262
 20
52.1373199959
 30
0.0
 10
42.3615042698
 20
53.0422746685
 30
0.0
 10
41.9979103676
 20
53.746298504
 30
0.0
 10
41.6744130768
 20
54.4716054192
 30
0.0
 10
41.4397372348
 20
55.0916036097
 30
0.0
 10
41.274603847
 20
55.5959629696
 30
0.0
 10
41.1613494195
 20
55.9781718507
 30
0.0
 10
41.0618094367
 20
56.3641488643
 30
0.0
 10
41.0035355984
 20
56.6234999484
 30
0.0
 10
40.9698641444
 20
56.751883028
 30
0.0
 11
43.6768642734
 21
51.0845175166
 31
0.0
 11
42.7696827487
 21
52.3650309757
 31
0.0
 11
42.3683681196
 21
53.0452183427
 31
0.0
 11
42.0049907409
 21
53.749021812
 31
0.0
 11
41.68165963
 21
54.4740818671
 31
0.0
 11
41.4004524766
 21
55.2180585476
 31
0.0
 11
41.2764070835
 21
55.5965002673
 31
0.0
 11
41.1637016995
 21
55.9785633919
 31
0.0
 11
41.0637635739
 21
56.3649376382
 31
0.0
 11
40.9698641444
 21
56.751883028
 31
0.0
  0
SPLINE
  5
2F7
100
AcDbEntity
  8
0
100
AcDbSpline
 62
7
  6
CONTINUOUS
 70
0
 71
3
 72
11
 73
7
 74
5
 42
0.0000001
 43
0.0000001
 44
0.0000000001
 12
-3.9407729091
 22
-4.9601063384
 32
0.0
 13
-1.3259457129
 23
-6.1946924036
 33
0.0
 40
0.0
 40
0.0
 40
0.0
 40
0.0
 40
0.247784766
 40
0.497541863
 40
0.7484558177
 40
1.0
 40
1.0
 40
1.0
 40
1.0
 10
43.6768537476
 20
67.8707995294
 30
0.0
 10
43.3513659165
 20
67.4611199332
 30
0.0
 10
42.7421773838
 20
66.6020395696
 30
0.0
 10
41.9764273852
 20
65.2156734808
 30
0.0
 10
41.3700071843
 20
63.7440209073
 30
0.0
 10
41.081312405
 20
62.7198035198
 30
0.0
 10
40.9701344283
 20
62.2003905747
 30
0.0
 11
43.6768537476
 21
67.8707995294
 31
0.0
 11
42.769431744
 21
66.5899394259
 31
0.0
 11
42.0046379568
 21
65.204843645
 31
0.0
 11
41.399536439
 21
63.7349807687
 31
0.0
 11
40.9701344283
 21
62.2003905747
 31
0.0
  0
SPLINE
  5
2F8
100
AcDbEntity
  8
0
100
AcDbSpline
 62
7
  6
CONTINUOUS
 70
0
 71
3
 72
10
 73
6
 74
4
 42
0.0000001
 43
0.0000001
 44
0.0000000001
 12
0.2082489267
 22
-0.228087549
 32
0.0
 13
0.0776173575
 23
-0.2989432912
 33
0.0
 40
0.0
 40
0.0
 40
0.0
 40
0.0
 40
0.5975665573
 40
0.8274180934
 40
1.0
 40
1.0
 40
1.0
 40
1.0
 10
43.6768537476
 20
67.8707995294
 30
0.0
 10
43.7183346123
 20
67.8253670322
 30
0.0
 10
43.7733155843
 20
67.7596606158
 30
0.0
 10
43.8275350703
 20
67.67209475
 30
0.0
 10
43.8444654717
 20
67.6338384924
 30
0.0
 10
43.8489305889
 20
67.6166410914
 30
0.0
 11
43.6768537476
 21
67.8707995294
 31
0.0
 11
43.7924720435
 21
67.7269406573
 31
0.0
 11
43.8290452162
 21
67.6660957456
 31
0.0
 11
43.8489305889
 21
67.6166410914
 31
0.0
  0
SPLINE
  5
2F9
100
AcDbEntity
  8
0
100
AcDbSpline
 62
7
  6
CONTINUOUS
 70
0
 71
3
 72
11
 73
7
 74
5
 42
0.0000001
 43
0.0000001
 44
0.0000000001
 12
-4.2199633989
 22
-4.5394835781
 32
0.0
 13
-1.4081074772
 23
-6.0359121578
 33
0.0
 40
0.0
 40
0.0
 40
0.0
 40
0.0
 40
0.2473385035
 40
0.4968278025
 40
0.7478547087
 40
1.0
 40
1.0
 40
1.0
 40
1.0
 10
43.8489298582
 20
67.6166421832
 30
0.0
 10
43.5010100475
 20
67.2423791581
 30
0.0
 10
42.8509085411
 20
66.4435930152
 30
0.0
 10
42.0374490688
 20
65.1251143766
 30
0.0
 10
41.3945645723
 20
63.7048968925
 30
0.0
 10
41.0884836516
 20
62.7076995179
 30
0.0
 10
40.9701344283
 20
62.2003905747
 30
0.0
 11
43.8489298582
 21
67.6166421832
 31
0.0
 11
42.8809084563
 21
66.4279354807
 31
0.0
 11
42.0681693685
 21
65.112415225
 31
0.0
 11
41.4263081989
 21
63.6951231973
 31
0.0
 11
40.9701344283
 21
62.2003905747
 31
0.0
  0
SPLINE
  5
2FA
100
AcDbEntity
  8
0
100
AcDbSpline
 62
7
  6
CONTINUOUS
 70
0
 71
3
 72
10
 73
6
 74
4
 42
0.0000001
 43
0.0000001
 44
0.0000000001
 12
0.2264039352
 22
-0.2472007895
 32
0.0
 13
0.098804275
 23
-0.3203196645
 33
0.0
 40
0.0
 40
0.0
 40
0.0
 40
0.0
 40
0.6030374531
 40
0.8327075837
 40
1.0
 40
1.0
 40
1.0
 40
1.0
 10
44.0090647397
 20
68.2593901669
 30
0.0
 10
44.0545747572
 20
68.209699722
 30
0.0
 10
44.1150990416
 20
68.1384641375
 30
0.0
 10
44.1763351244
 20
68.0450198953
 30
0.0
 10
44.1962129458
 20
68.0049279997
 30
0.0
 10
44.2017226811
 20
67.9870656495
 30
0.0
 11
44.0090647397
 21
68.2593901669
 31
0.0
 11
44.1372374363
 21
68.1030748515
 31
0.0
 11
44.1786717808
 21
68.0381874906
 31
0.0
 11
44.2017226811
 21
67.9870656495
 31
0.0
  0
SPLINE
  5
2FB
100
AcDbEntity
  8
0
100
AcDbSpline
 62
7
  6
CONTINUOUS
 70
0
 71
3
 72
11
 73
7
 74
5
 42
0.0000001
 43
0.0000001
 44
0.0000000001
 12
-11.3810567934
 22
1.4543116424
 32
0.0
 13
-8.0064062939
 23
-8.21832917
 33
0.0
 40
0.0
 40
0.0
 40
0.0
 40
0.0
 40
0.2463168661
 40
0.4947510835
 40
0.7459054729
 40
1.0
 40
1.0
 40
1.0
 40
1.0
 10
54.4783630925
 20
71.9266192467
 30
0.0
 10
53.5439143449
 20
72.0460264088
 30
0.0
 10
51.6322843782
 20
72.0700610302
 30
0.0
 10
48.8230759567
 20
71.4480528292
 30
0.0
 10
46.2032683892
 20
70.1869083935
 30
0.0
 10
44.6871927511
 20
68.9554676539
 30
0.0
 10
44.0090647442
 20
68.259390166
 30
0.0
 11
54.4783630925
 21
71.9266192467
 31
0.0
 11
51.6524403409
 21
71.9617389337
 31
0.0
 11
48.8691678653
 21
71.3466196012
 31
0.0
 11
46.2728347906
 21
70.0964471447
 31
0.0
 11
44.0090647442
 21
68.259390166
 31
0.0
  0
SPLINE
  5
2FC
100
AcDbEntity
  8
0
100
AcDbSpline
 62
7
  6
CONTINUOUS
 70
0
 71
3
 72
10
 73
6
 74
4
 42
0.0000001
 43
0.0000001
 44
0.0000000001
 12
-0.0672928304
 22
-0.4480298311
 32
0.0
 13
-0.3413374577
 23
-0.2979056807
 33
0.0
 40
0.0
 40
0.0
 40
0.0
 40
0.0
 40
0.58760395
 40
0.8225404186
 40
1.0
 40
1.0
 40
1.0
 40
1.0
 10
54.4783630675
 20
71.9266192551
 30
0.0
 10
54.4651825565
 20
71.8388645556
 30
0.0
 10
54.4367604586
 20
71.7163223688
 30
0.0
 10
54.3737483554
 20
71.5789283807
 30
0.0
 10
54.3365450882
 20
71.5274948808
 30
0.0
 10
54.3163538874
 20
71.5098728084
 30
0.0
 11
54.4783630675
 21
71.9266192551
 31
0.0
 11
54.4126285103
 21
71.6686454457
 31
0.0
 11
54.3664861147
 21
71.5727278641
 31
0.0
 11
54.3163538874
 21
71.5098728084
 31
0.0
  0
SPLINE
  5
2FD
100
AcDbEntity
  8
0
100
AcDbSpline
 62
7
  6
CONTINUOUS
 70
0
 71
3
 72
11
 73
7
 74
5
 42
0.0000001
 43
0.0000001
 44
0.0000000001
 12
-10.9854069466
 22
1.4488867524
 32
0.0
 13
-7.7390272028
 23
-7.9300628345
 33
0.0
 40
0.0
 40
0.0
 40
0.0
 40
0.0
 40
0.2460217419
 40
0.494343638
 40
0.7455959593
 40
1.0
 40
1.0
 40
1.0
 40
1.0
 10
54.3163538874
 20
71.5098731629
 30
0.0
 10
53.4154709033
 20
71.6286923771
 30
0.0
 10
51.5707181618
 20
71.6579213268
 30
0.0
 10
48.8574000844
 20
71.0632830142
 30
0.0
 10
46.3245330846
 20
69.8483592942
 30
0.0
 10
44.8580026129
 20
68.6595456577
 30
0.0
 10
44.2017226824
 20
67.9870656484
 30
0.0
 11
54.3163538874
 21
71.5098731629
 31
0.0
 11
51.5906388696
 21
71.5528970274
 31
0.0
 11
48.9025994493
 21
70.9651685628
 31
0.0
 11
46.3924344754
 21
69.7610938981
 31
0.0
 11
44.2017226824
 21
67.9870656484
 31
0.0
  0
SPLINE
  5
2FE
100
AcDbEntity
  8
0
100
AcDbSpline
 62
7
  6
CONTINUOUS
 70
0
 71
3
 72
16
 73
12
 74
10
 42
0.0000001
 43
0.0000001
 44
0.0000000001
 12
1.9134472307
 22
-0.1115055269
 32
0.0
 13
1.1365739569
 23
1.5433448829
 33
0.0
 40
0.0
 40
0.0
 40
0.0
 40
0.0
 40
0.2498570954
 40
0.3748043428
 40
0.4997641917
 40
0.624741966
 40
0.7497466245
 40
0.8122834422
 40
0.8748510692
 40
0.937432301
 40
1.0
 40
1.0
 40
1.0
 40
1.0
 10
64.3463665777
 20
70.2461884685
 30
0.0
 10
64.5057293668
 20
70.2369016528
 30
0.0
 10
64.7450793724
 20
70.2271404702
 30
0.0
 10
65.0643950688
 20
70.2250394066
 30
0.0
 10
65.3039022356
 20
70.2301213948
 30
0.0
 10
65.5430971212
 20
70.2437858884
 30
0.0
 10
65.7418374239
 20
70.2651610713
 30
0.0
 10
65.8992703236
 20
70.2923125568
 30
0.0
 10
66.0163292484
 20
70.3202420154
 30
0.0
 10
66.1287450293
 20
70.3594914522
 30
0.0
 10
66.200755041
 20
70.402896408
 30
0.0
 10
66.2244593134
 20
70.4350842541
 30
0.0
 11
64.3463665777
 21
70.2461884685
 31
0.0
 11
64.8249022261
 21
70.227525013
 31
0.0
 11
65.0643838437
 21
70.2261489502
 31
0.0
 11
65.3038326372
 21
70.2315510978
 31
0.0
 11
65.5429536675
 21
70.2457813459
 31
0.0
 11
65.7810232558
 21
70.2727800036
 31
0.0
 11
65.8990708606
 21
70.2935674927
 31
0.0
 11
66.0155438368
 21
70.3221255456
 31
0.0
 11
66.1280188316
 21
70.3638046416
 31
0.0
 11
66.2244593134
 21
70.4350842541
 31
0.0
  0
SPLINE
  5
2FF
100
AcDbEntity
  8
0
100
AcDbSpline
 62
7
  6
CONTINUOUS
 70
0
 71
3
 72
9
 73
5
 74
3
 42
0.0000001
 43
0.0000001
 44
0.0000000001
 12
0.0883144446
 22
-0.2762850253
 32
0.0
 13
-0.1134769439
 23
-0.2669378944
 33
0.0
 40
0.0
 40
0.0
 40
0.0
 40
0.0
 40
0.2482781748
 40
1.0
 40
1.0
 40
1.0
 40
1.0
 10
66.224472684
 20
70.4350511711
 30
0.0
 10
66.2317815337
 20
70.4121859905
 30
0.0
 10
66.2462993089
 20
70.3153834071
 30
0.0
 10
66.2205404043
 20
70.2174637684
 30
0.0
 10
66.1921060392
 20
70.150576088
 30
0.0
 11
66.224472684
 21
70.4350511711
 31
0.0
 11
66.23650769
 21
70.3640491955
 31
0.0
 11
66.1921060392
 21
70.150576088
 31
0.0
  0
SPLINE
  5
300
100
AcDbEntity
  8
0
100
AcDbSpline
 62
7
  6
CONTINUOUS
 70
0
 71
3
 72
12
 73
8
 74
6
 42
0.0000001
 43
0.0000001
 44
0.0000000001
 12
1.9066808143
 22
0.0000224114
 32
0.0
 13
1.5481183937
 23
1.1129964811
 33
0.0
 40
0.0
 40
0.0
 40
0.0
 40
0.0
 40
0.249973636
 40
0.4999385492
 40
0.7497815214
 40
0.8749797235
 40
1.0
 40
1.0
 40
1.0
 40
1.0
 10
64.346366579
 20
69.7746933878
 30
0.0
 10
64.505239891
 20
69.7746952552
 30
0.0
 10
64.8231521354
 20
69.7844589155
 30
0.0
 10
65.2973409922
 20
69.8353296628
 30
0.0
 10
65.6873459246
 20
69.9188858291
 30
0.0
 10
65.9863780588
 20
70.0278101703
 30
0.0
 10
66.1274570593
 20
70.1039951643
 30
0.0
 10
66.1919724558
 20
70.1503775403
 30
0.0
 11
64.346366579
 21
69.7746933878
 31
0.0
 11
64.8227243951
 21
69.7904982676
 31
0.0
 11
65.2963637246
 21
69.8435689308
 31
0.0
 11
65.7607952335
 21
69.949552487
 31
0.0
 11
65.9843440807
 21
70.0332771196
 31
0.0
 11
66.1919724558
 21
70.1503775403
 31
0.0
  0
SPLINE
  5
301
100
AcDbEntity
  8
0
100
AcDbSpline
 62
7
  6
CONTINUOUS
 70
0
 71
3
 72
17
 73
13
 74
11
 42
0.0000001
 43
0.0000001
 44
0.0000000001
 12
-1.1199622551
 22
1.556347259
 32
0.0
 13
-1.9141802198
 23
-0.111563119
 33
0.0
 40
0.0
 40
0.0
 40
0.0
 40
0.0
 40
0.0314718052
 40
0.0629798811
 40
0.1255226981
 40
0.1880630618
 40
0.2505738191
 40
0.3755248909
 40
0.5004493478
 40
0.6253557725
 40
0.7502496186
 40
1.0
 40
1.0
 40
1.0
 40
1.0
 10
66.224352314
 20
48.5202516818
 30
0.0
 10
66.212603236
 20
48.536578701
 30
0.0
 10
66.181364659
 20
48.5634432861
 30
0.0
 10
66.1110241777
 20
48.602147308
 30
0.0
 10
66.0159288756
 20
48.6351896501
 30
0.0
 10
65.8992839534
 20
48.6629928462
 30
0.0
 10
65.7417252156
 20
48.6901759446
 30
0.0
 10
65.5430579442
 20
48.7115308953
 30
0.0
 10
65.3038526955
 20
48.7251980897
 30
0.0
 10
65.0643615847
 20
48.7302788382
 30
0.0
 10
64.7450580913
 20
48.7281750842
 30
0.0
 10
64.505719192
 20
48.7184164534
 30
0.0
 10
64.3463634454
 20
48.7091288096
 30
0.0
 11
66.224352314
 21
48.5202516818
 31
0.0
 11
66.1803702855
 21
48.56156866
 31
0.0
 11
66.1279203564
 21
48.5915505687
 31
0.0
 11
66.0154735933
 21
48.6332262637
 31
0.0
 11
65.8990017274
 21
48.661762457
 31
0.0
 11
65.7809573472
 21
48.6825452017
 31
0.0
 11
65.5428982404
 21
48.7095399289
 31
0.0
 11
65.3037874445
 21
48.7237677318
 31
0.0
 11
65.0643492169
 21
48.729169165
 31
0.0
 11
64.8248781521
 21
48.7277917223
 31
0.0
 11
64.3463634454
 21
48.7091288096
 31
0.0
  0
SPLINE
  5
302
100
AcDbEntity
  8
0
100
AcDbSpline
 62
7
  6
CONTINUOUS
 70
0
 71
3
 72
12
 73
8
 74
6
 42
0.0000001
 43
0.0000001
 44
0.0000000001
 12
-1.5480010315
 22
1.1131836786
 32
0.0
 13
-1.9066948091
 23
-0.0000272808
 33
0.0
 40
0.0
 40
0.0
 40
0.0
 40
0.0
 40
0.1250195334
 40
0.2502255396
 40
0.5000643332
 40
0.7500281779
 40
1.0
 40
1.0
 40
1.0
 40
1.0
 10
66.191980002
 20
48.8049295728
 30
0.0
 10
66.1274698798
 20
48.8513194742
 30
0.0
 10
65.9863840122
 20
48.9275078136
 30
0.0
 10
65.6873433423
 20
49.036417858
 30
0.0
 10
65.2973389726
 20
49.1199956681
 30
0.0
 10
64.8231490059
 20
49.1708529771
 30
0.0
 10
64.5052367606
 20
49.1806261457
 30
0.0
 10
64.3463634353
 20
49.1806238726
 30
0.0
 11
66.191980002
 21
48.8049295728
 31
0.0
 11
65.9843548104
 21
48.9220363154
 31
0.0
 11
65.7607877722
 21
49.0057597976
 31
0.0
 11
65.2963623094
 21
49.1117497537
 31
0.0
 11
64.8227212665
 21
49.1648182438
 31
0.0
 11
64.3463634353
 21
49.1806238726
 31
0.0
  0
SPLINE
  5
303
100
AcDbEntity
  8
0
100
AcDbSpline
 62
7
  6
CONTINUOUS
 70
0
 71
3
 72
9
 73
5
 74
3
 42
0.0000001
 43
0.0000001
 44
0.0000000001
 12
0.1136352417
 22
-0.2672195401
 32
0.0
 13
-0.091755061
 23
-0.2755000173
 33
0.0
 40
0.0
 40
0.0
 40
0.0
 40
0.0
 40
0.5039802667
 40
1.0
 40
1.0
 40
1.0
 40
1.0
 10
66.1921437334
 20
48.804652427
 30
0.0
 10
66.2112337065
 20
48.759761302
 30
0.0
 10
66.2398076424
 20
48.6668449708
 30
0.0
 10
66.2395219135
 20
48.5658015602
 30
0.0
 10
66.2243511399
 20
48.5202504118
 30
0.0
 11
66.1921437334
 21
48.804652427
 31
0.0
 11
66.2327048636
 21
48.6640410607
 31
0.0
 11
66.2243511399
 21
48.5202504118
 31
0.0
  0
ENDSEC
  0
SECTION
  2
OBJECTS
  0
DICTIONARY
  5
C
100
AcDbDictionary
280
0
281
1
  3
ACAD_GROUP
350
D
  3
ACAD_MLINESTYLE
350
17
  3
ACAD_LAYOUT
350
1A
  3
ACAD_PLOTSETTINGS
350
19
  3
ACAD_PLOTSTYLENAME
350
E
  0
DICTIONARY
  5
D
102
{ACAD_REACTORS
330
C
102
}
100
AcDbDictionary
280
0
281
1
  0
ACDBDICTIONARYWDFLT
  5
E
102
{ACAD_REACTORS
330
C
102
}
100
AcDbDictionary
281
1
  3
Normal
350
F
100
AcDbDictionaryWithDefault
340
F
  0
DICTIONARY
  5
17
102
{ACAD_REACTORS
330
C
102
}
100
AcDbDictionary
280
0
281
1
  3
Standard
350
18
  0
DICTIONARY
  5
19
102
{ACAD_REACTORS
330
C
102
}
100
AcDbDictionary
281
1
  0
DICTIONARY
  5
1A
102
{ACAD_REACTORS
330
C
102
}
100
AcDbDictionary
281
1
  3
Model
350
304
  3
Layout1
350
305
  0
ACDBPLACEHOLDER
  5
F
102
{ACAD_REACTORS
330
E
102
}
  0
MLINESTYLE
  5
18
102
{ACAD_REACTORS
330
17
102
}
100
AcDbMlineStyle
  2
STANDARD
 70
0
  3

 62
256
 51
90.0
 52
90.0
 71
2
 49
0.5
 62
256
  6
BYLAYER
 49
-0.5
 62
256
  6
BYLAYER
  0
LAYOUT
  5
304
102
{ACAD_REACTORS
330
1A
102
}
100
AcDbPlotSettings
  1

  2
none_device
  4

  6

 40
0.0
 41
0.0
 42
0.0
 43
0.0
 44
210.0
 45
297.0
 46
0.0
 47
0.0
 48
0.0
 49
0.0
140
0.0
141
0.0
142
1.0
143
1.0
 70
1024
 72
1
 73
0
 74
0
  7

 75
0
147
1.0
148
0.0
149
0.0
100
AcDbLayout
  1
Model
 70
0
 71
0
 10
0.0
 20
0.0
 11
210.0
 21
297.0
 12
0.0
 22
0.0
 32
0.0
 14
0.0
 24
0.0
 34
0.0
 15
0.0
 25
0.0
 35
0.0
146
0.0
 13
0.0
 23
0.0
 33
0.0
 16
1.0
 26
0.0
 36
0.0
 17
0.0
 27
1.0
 37
0.0
 76
0
330
202
345
0
346
0
  0
LAYOUT
  5
305
102
{ACAD_REACTORS
330
1A
102
}
100
AcDbPlotSettings
  1

  2
none_device
  4

  6

 40
0.0
 41
0.0
 42
0.0
 43
0.0
 44
210.0
 45
297.0
 46
0.0
 47
0.0
 48
0.0
 49
0.0
140
0.0
141
0.0
142
1.0
143
1.0
 70
0
 72
1
 73
0
 74
0
  7

 75
0
147
1.0
148
0.0
149
0.0
100
AcDbLayout
  1
Layout1
 70
0
 71
1
 10
0.0
 20
0.0
 11
210.0
 21
297.0
 12
0.0
 22
0.0
 32
0.0
 14
0.0
 24
0.0
 34
0.0
 15
0.0
 25
0.0
 35
0.0
146
0.0
 13
0.0
 23
0.0
 33
0.0
 16
1.0
 26
0.0
 36
0.0
 17
0.0
 27
1.0
 37
0.0
 76
0
330
203
345
0
346
0
  0
ENDSEC
  0
EOF
