999
DXF file: R0133635113.dxf
999
Pro/ENGINEER 2009380 by Parametric Technology Corporation
  0
SECTION
  2
HEADER
  9
$ACADVER
  1
AC1014
  9
$DWGCODEPAGE
  3
ANSI_1252
  9
$EXTMAX
 10
210.0
 20
297.0
 30
0.0
  9
$EXTMIN
 10
0.0
 20
0.0
 30
0.0
  9
$LIMMIN
 10
0.0
 20
0.0
  9
$LIMMAX
 10
210.0
 20
297.0
  9
$VIEWCTR
 10
105.0
 20
148.5
  9
$VIEWSIZE
 40
297.0
  9
$CLAYER
  8
0
  9
$LTSCALE
 40
19.36
  9
$CELTYPE
  6
BYLAYER
  9
$DIMSCALE
 40
1.0
  9
$DIMASZ
 40
3.5
  9
$DIMEXO
 40
2.2
  9
$DIMDLI
 40
13.376
  9
$DIMEXE
 40
6.336
  9
$DIMCEN
 40
3.168
  9
$DIMLFAC
 40
1.0
  9
$DIMBLK
  1
_ARROW_FILLED
  9
$DIMTXT
 40
3.5
  9
$DIMTOL
 70
1
  9
$DIMLIM
 70
0
  9
$DIMTFAC
 40
1.0
  9
$DIMTP
 40
0.01
  9
$DIMTM
 40
0.01
  9
$PDMODE
 70
3
  9
$PDSIZE
 40
0.3125
  9
$HANDSEED
  5
2B5
  9
$TILEMODE
 70
1
  9
$MEASUREMENT
 70
1
  0
ENDSEC
  0
SECTION
  2
CLASSES
  0
ENDSEC
  0
SECTION
  2
TABLES
  0
TABLE
  2
VPORT
  5
8
100
AcDbSymbolTable
 70
2
  0
VPORT
  5
1F4
100
AcDbSymbolTableRecord
100
AcDbViewportTableRecord
  2
*ACTIVE
 70
0
 10
0.0
 20
0.0
 11
1.0
 21
1.0
 12
105.0
 22
148.5
 13
0.0
 23
0.0
 14
1.0
 24
1.0
 15
0.0
 25
0.0
 16
0.0
 26
0.0
 36
1.0
 17
0.0
 27
0.0
 37
0.0
 40
297.0
 41
0.7070707071
 42
50.0
 43
0.0
 44
0.0
 50
0.0
 51
0.0
 71
0
 72
100
 73
1
 74
1
 75
0
 76
0
 77
0
 78
0
  0
ENDTAB
  0
TABLE
  2
LTYPE
  5
5
100
AcDbSymbolTable
 70
6
  0
LTYPE
  5
14
100
AcDbSymbolTableRecord
100
AcDbLinetypeTableRecord
  2
BYBLOCK
 70
0
  3

 72
65
 73
0
 40
0.0
  0
LTYPE
  5
15
100
AcDbSymbolTableRecord
100
AcDbLinetypeTableRecord
  2
BYLAYER
 70
0
  3

 72
65
 73
0
 40
0.0
  0
LTYPE
  5
16
100
AcDbSymbolTableRecord
100
AcDbLinetypeTableRecord
  2
CONTINUOUS
 70
64
  3
Solid line
 72
65
 73
0
 40
0.0
  0
LTYPE
  5
1F5
100
AcDbSymbolTableRecord
100
AcDbLinetypeTableRecord
  2
CENTER
 70
64
  3
____ _ ____ _ ____ _ ____ _ ____ _ ____ _ ____
 72
65
 73
4
 40
0.6
 49
0.375
 74
0
 49
-0.075
 74
0
 49
0.075
 74
0
 49
-0.075
 74
0
  0
LTYPE
  5
1F6
100
AcDbSymbolTableRecord
100
AcDbLinetypeTableRecord
  2
HIDDEN
 70
64
  3
- - - - - - - - - - - - - - - - - - - -
 72
65
 73
2
 40
0.2
 49
0.1
 74
0
 49
-0.1
 74
0
  0
LTYPE
  5
1F7
100
AcDbSymbolTableRecord
100
AcDbLinetypeTableRecord
  2
PHANTOM
 70
64
  3
_____ _ _ _____ _ _ _____ _ _ _____
 72
65
 73
6
 40
0.8
 49
0.45
 74
0
 49
-0.05
 74
0
 49
0.1
 74
0
 49
-0.05
 74
0
 49
0.1
 74
0
 49
-0.05
 74
0
  0
LTYPE
  5
1F8
100
AcDbSymbolTableRecord
100
AcDbLinetypeTableRecord
  2
DOT
 70
64
  3
. . . . . . . . . . . . . . . . . . . .
 72
65
 73
2
 40
0.2
 49
0.1
 74
0
 49
-0.1
 74
0
  0
LTYPE
  5
1F9
100
AcDbSymbolTableRecord
100
AcDbLinetypeTableRecord
  2
DASHED
 70
64
  3
- - - - - - - - - - - - - - - - - - - -
 72
65
 73
2
 40
0.2
 49
0.1
 74
0
 49
-0.1
 74
0
  0
ENDTAB
  0
TABLE
  2
LAYER
  5
2
100
AcDbSymbolTable
 70
36
  0
LAYER
  5
10
100
AcDbSymbolTableRecord
100
AcDbLayerTableRecord
  2
0
 70
0
 62
7
  6
CONTINUOUS
  0
LAYER
  5
1FA
100
AcDbSymbolTableRecord
100
AcDbLayerTableRecord
  2
DEFAULT_1
 70
0
 62
7
  6
CENTER
  0
LAYER
  5
1FB
100
AcDbSymbolTableRecord
100
AcDbLayerTableRecord
  2
DEFAULT_2
 70
0
 62
8
  6
HIDDEN
  0
LAYER
  5
1FC
100
AcDbSymbolTableRecord
100
AcDbLayerTableRecord
  2
DEFAULT_3
 70
0
 62
7
  6
PHANTOM
  0
LAYER
  5
1FD
100
AcDbSymbolTableRecord
100
AcDbLayerTableRecord
  2
ASSI
 70
0
 62
7
  6
CONTINUOUS
  0
LAYER
  5
1FE
100
AcDbSymbolTableRecord
100
AcDbLayerTableRecord
  2
PIANI
 70
0
 62
7
  6
CONTINUOUS
  0
ENDTAB
  0
TABLE
  2
STYLE
  5
3
100
AcDbSymbolTable
 70
1
  0
STYLE
  5
11
100
AcDbSymbolTableRecord
100
AcDbTextStyleTableRecord
  2
STANDARD
 70
0
 40
0.0
 41
0.5
 50
0.0
 71
0
 42
0.2
  3
txt
  4

  0
STYLE
  5
1FF
100
AcDbSymbolTableRecord
100
AcDbTextStyleTableRecord
  2
TEXTSTYLE_1
 70
0
 40
0.0
 41
0.8
 50
0.0
 71
0
 42
0.2
  3
gdt
  4

  0
STYLE
  5
200
100
AcDbSymbolTableRecord
100
AcDbTextStyleTableRecord
  2
TEXTSTYLE_2
 70
0
 40
0.0
 41
0.5
 50
0.0
 71
0
 42
0.2
  3
gdt
  4

  0
ENDTAB
  0
TABLE
  2
VIEW
  5
6
100
AcDbSymbolTable
 70
0
  0
ENDTAB
  0
TABLE
  2
UCS
  5
7
100
AcDbSymbolTable
 70
0
  0
ENDTAB
  0
TABLE
  2
APPID
  5
9
100
AcDbSymbolTable
 70
1
  0
APPID
  5
201
100
AcDbSymbolTableRecord
100
AcDbRegAppTableRecord
  2
ACAD
 70
0
  0
ENDTAB
  0
TABLE
  2
BLOCK_RECORD
  5
1
100
AcDbSymbolTable
 70
0
  0
BLOCK_RECORD
  5
1F
100
AcDbSymbolTableRecord
100
AcDbBlockTableRecord
  2
*MODEL_SPACE
  0
BLOCK_RECORD
  5
1B
100
AcDbSymbolTableRecord
100
AcDbBlockTableRecord
  2
*PAPER_SPACE
  0
BLOCK_RECORD
  5
202
100
AcDbSymbolTableRecord
100
AcDbBlockTableRecord
  2
_ARROW_FILLED
  0
BLOCK_RECORD
  5
203
100
AcDbSymbolTableRecord
100
AcDbBlockTableRecord
  2
*D0
  0
BLOCK_RECORD
  5
204
100
AcDbSymbolTableRecord
100
AcDbBlockTableRecord
  2
*D1
  0
BLOCK_RECORD
  5
205
100
AcDbSymbolTableRecord
100
AcDbBlockTableRecord
  2
*D2
  0
BLOCK_RECORD
  5
206
100
AcDbSymbolTableRecord
100
AcDbBlockTableRecord
  2
*D3
  0
ENDTAB
  0
TABLE
  2
DIMSTYLE
  5
A
100
AcDbSymbolTable
 70
1
  0
DIMSTYLE
105
207
100
AcDbSymbolTableRecord
100
AcDbDimStyleTableRecord
  2
STANDARD
 70
0
  3

  4

  5
_ARROW_FILLED
  6
_ARROW_FILLED
  7
_ARROW_FILLED
 40
1.0
 41
3.5
 42
0.0625
 43
0.38
 44
0.18
 45
0.0
 46
0.0
 47
0.01
 48
0.01
140
3.5
141
0.09
142
0.0
143
25.4
144
1.0
145
0.0
146
1.0
147
0.09
 71
1.0
 72
0.0
 73
0
 74
0
 75
0
 76
0
 77
1
 78
8
170
0
171
2
172
0
173
0
174
0
175
0
176
0
177
0
178
0
270
2
271
2
272
2
273
2
274
2
275
0
280
0
281
0
282
0
283
1
284
8
285
0
286
0
287
3
288
0
340
11
  0
DIMSTYLE
105
208
100
AcDbSymbolTableRecord
100
AcDbDimStyleTableRecord
  2
DIMSTYLE_1
 70
0
  3

  4

  5
_ARROW_FILLED
  6
_ARROW_FILLED
  7
_ARROW_FILLED
 40
1.0
 41
3.5
 42
0.0625
 43
0.38
 44
0.18
 45
0.0
 46
0.0
 47
0.1
 48
0.1
140
3.5
141
0.09
142
0.0
143
25.4
144
1.0
145
0.0
146
1.0
147
0.09
 71
0.0
 72
0.0
 73
0
 74
0
 75
0
 76
0
 77
1
 78
8
170
0
171
2
172
0
173
0
174
0
175
0
176
0
177
0
178
0
270
2
271
2
272
2
273
2
274
2
275
0
280
0
281
0
282
0
283
1
284
8
285
0
286
0
287
3
288
0
340
11
  0
DIMSTYLE
105
209
100
AcDbSymbolTableRecord
100
AcDbDimStyleTableRecord
  2
DIMSTYLE_2
 70
0
  3

  4

  5
_ARROW_FILLED
  6
_ARROW_FILLED
  7
_ARROW_FILLED
 40
1.0
 41
3.5
 42
0.0625
 43
0.38
 44
0.18
 45
0.0
 46
0.0
 47
0.2
 48
0.2
140
3.5
141
0.09
142
0.0
143
25.4
144
1.0
145
0.0
146
1.0
147
0.09
 71
0.0
 72
0.0
 73
0
 74
0
 75
0
 76
0
 77
1
 78
8
170
0
171
2
172
0
173
0
174
0
175
0
176
0
177
0
178
0
270
2
271
2
272
2
273
2
274
2
275
0
280
0
281
0
282
0
283
1
284
8
285
0
286
0
287
3
288
0
340
11
  0
DIMSTYLE
105
20A
100
AcDbSymbolTableRecord
100
AcDbDimStyleTableRecord
  2
DIMSTYLE_3
 70
0
  3

  4

  5
_ARROW_FILLED
  6
_ARROW_FILLED
  7
_ARROW_FILLED
 40
1.0
 41
3.5
 42
0.0625
 43
0.38
 44
0.18
 45
0.0
 46
0.0
 47
0.15
 48
0.15
140
3.5
141
0.09
142
0.0
143
25.4
144
1.0
145
0.0
146
1.0
147
0.09
 71
0.0
 72
0.0
 73
0
 74
0
 75
0
 76
0
 77
1
 78
8
170
0
171
2
172
0
173
0
174
0
175
0
176
0
177
0
178
0
270
2
271
1
272
1
273
2
274
2
275
0
280
0
281
0
282
0
283
1
284
8
285
0
286
0
287
3
288
0
340
11
  0
DIMSTYLE
105
20B
100
AcDbSymbolTableRecord
100
AcDbDimStyleTableRecord
  2
DIMSTYLE_4
 70
0
  3

  4

  5
_ARROW_FILLED
  6
_ARROW_FILLED
  7
_ARROW_FILLED
 40
1.0
 41
3.5
 42
0.0625
 43
0.38
 44
0.18
 45
0.0
 46
0.0
 47
0.2
 48
0.2
140
3.5
141
0.09
142
0.0
143
25.4
144
1.0
145
0.0
146
1.0
147
0.09
 71
0.0
 72
0.0
 73
0
 74
0
 75
0
 76
0
 77
1
 78
8
170
0
171
2
172
0
173
0
174
0
175
0
176
0
177
0
178
0
270
2
271
1
272
1
273
2
274
2
275
0
280
0
281
0
282
0
283
1
284
8
285
0
286
0
287
3
288
0
340
11
  0
ENDTAB
  0
ENDSEC
  0
SECTION
  2
BLOCKS
  0
BLOCK
  5
20
100
AcDbEntity
  8
0
100
AcDbBlockBegin
  2
*MODEL_SPACE
 70
0
 10
0.0
 20
0.0
 30
0.0
  3
*MODEL_SPACE
  1

  0
ENDBLK
  5
21
100
AcDbEntity
  8
0
100
AcDbBlockEnd
  0
BLOCK
  5
1C
100
AcDbEntity
  8
0
100
AcDbBlockBegin
  2
*PAPER_SPACE
 70
0
 10
0.0
 20
0.0
 30
0.0
  3
*PAPER_SPACE
  1

  0
ENDBLK
  5
1D
100
AcDbEntity
  8
0
100
AcDbBlockEnd
  0
BLOCK
  5
20C
100
AcDbEntity
  8
0
100
AcDbBlockBegin
  2
_ARROW_FILLED
 70
64
 10
0.0
 20
0.0
  3
_ARROW_FILLED
  1

  0
SOLID
  5
20D
100
AcDbEntity
  8
0
  6
BYBLOCK
 62
0
100
AcDbTrace
 10
0.0
 20
0.0
 11
-1.0
 21
0.1857142857
 12
-1.0
 22
-0.1857142857
 13
-1.0
 23
-0.1857142857
  0
ENDBLK
  5
20E
100
AcDbEntity
  8
0
  6
BYBLOCK
 62
0
100
AcDbBlockEnd
  0
BLOCK
  5
20F
100
AcDbEntity
  8
0
100
AcDbBlockBegin
 62
2
  6
CONTINUOUS
  2
*D0
 70
65
 10
0.0
 20
0.0
  3
*D0
  1

  0
MTEXT
  5
210
100
AcDbEntity
  8
0
100
AcDbMText
 62
2
  6
CONTINUOUS
  7
STANDARD
 71
2
 72
1
 10
104.8563861817
 20
291.1603011963
 30
0.0
 11
1.0
 21
0.0
 31
0.0
  1
3/4"
 40
3.5
 41
7.0
  0
LINE
  5
211
100
AcDbEntity
  8
0
100
AcDbLine
 62
2
  6
CONTINUOUS
 10
95.3563861817
 20
271.8497560667
 11
95.3563861817
 21
288.2853011963
  0
LINE
  5
212
100
AcDbEntity
  8
0
100
AcDbLine
 62
2
  6
CONTINUOUS
 10
114.3563861817
 20
271.8497560667
 11
114.3563861817
 21
288.2853011963
  0
LINE
  5
213
100
AcDbEntity
  8
0
100
AcDbLine
 62
2
  6
CONTINUOUS
 10
95.3563861817
 20
286.7853011963
 11
87.3563861817
 21
286.7853011963
  0
LINE
  5
214
100
AcDbEntity
  8
0
100
AcDbLine
 62
2
  6
CONTINUOUS
 10
87.3563861817
 20
286.7853011963
 11
104.8563861817
 21
286.7853011963
  0
LINE
  5
215
100
AcDbEntity
  8
0
100
AcDbLine
 62
2
  6
CONTINUOUS
 10
114.3563861817
 20
286.7853011963
 11
122.3563861817
 21
286.7853011963
  0
LINE
  5
216
100
AcDbEntity
  8
0
100
AcDbLine
 62
2
  6
CONTINUOUS
 10
122.3563861817
 20
286.7853011963
 11
104.8563861817
 21
286.7853011963
  0
INSERT
  5
217
100
AcDbEntity
  8
0
100
AcDbBlockReference
 62
2
  6
CONTINUOUS
  2
_ARROW_FILLED
 10
95.3563861817
 20
286.7853011963
 41
3.5
 42
3.5
 43
3.5
  0
INSERT
  5
218
100
AcDbEntity
  8
0
100
AcDbBlockReference
 62
2
  6
CONTINUOUS
  2
_ARROW_FILLED
 10
114.3563861817
 20
286.7853011963
 41
3.5
 42
3.5
 43
3.5
 50
180.0
  0
ENDBLK
  5
219
100
AcDbEntity
  8
0
  6
BYBLOCK
 62
0
100
AcDbBlockEnd
  0
BLOCK
  5
21A
100
AcDbEntity
  8
0
100
AcDbBlockBegin
 62
2
  6
CONTINUOUS
  2
*D1
 70
65
 10
0.0
 20
0.0
  3
*D1
  1

  0
MTEXT
  5
21B
100
AcDbEntity
  8
0
100
AcDbMText
 62
2
  6
CONTINUOUS
  7
STANDARD
 71
2
 72
1
 10
176.1692931445
 20
147.7997560667
 30
0.0
 11
0.0
 21
1.0
 31
0.0
  1
252.7
 40
3.5
 41
8.75
  0
LINE
  5
21C
100
AcDbEntity
  8
0
100
AcDbLine
 62
2
  6
CONTINUOUS
 10
113.239805428
 20
274.1497560667
 11
182.0442931445
 21
274.1497560667
  0
LINE
  5
21D
100
AcDbEntity
  8
0
100
AcDbLine
 62
2
  6
CONTINUOUS
 10
156.1063861817
 20
21.4497560667
 11
182.0442931445
 21
21.4497560667
  0
LINE
  5
21E
100
AcDbEntity
  8
0
100
AcDbLine
 62
2
  6
CONTINUOUS
 10
180.5442931445
 20
274.1497560667
 11
180.5442931445
 21
147.7997560667
  0
LINE
  5
21F
100
AcDbEntity
  8
0
100
AcDbLine
 62
2
  6
CONTINUOUS
 10
180.5442931445
 20
21.4497560667
 11
180.5442931445
 21
147.7997560667
  0
INSERT
  5
220
100
AcDbEntity
  8
0
100
AcDbBlockReference
 62
2
  6
CONTINUOUS
  2
_ARROW_FILLED
 10
180.5442931445
 20
274.1497560667
 41
3.5
 42
3.5
 43
3.5
 50
90.0
  0
INSERT
  5
221
100
AcDbEntity
  8
0
100
AcDbBlockReference
 62
2
  6
CONTINUOUS
  2
_ARROW_FILLED
 10
180.5442931445
 20
21.4497560667
 41
3.5
 42
3.5
 43
3.5
 50
270.0
  0
ENDBLK
  5
222
100
AcDbEntity
  8
0
  6
BYBLOCK
 62
0
100
AcDbBlockEnd
  0
BLOCK
  5
223
100
AcDbEntity
  8
0
100
AcDbBlockBegin
 62
2
  6
CONTINUOUS
  2
*D2
 70
65
 10
0.0
 20
0.0
  3
*D2
  1

  0
MTEXT
  5
224
100
AcDbEntity
  8
0
100
AcDbMText
 62
2
  6
CONTINUOUS
  7
TEXTSTYLE_2
 71
2
 72
1
 10
104.8563861817
 20
17.5022026371
 30
0.0
 11
1.0
 21
0.0
 31
0.0
  1
{\Fgdt;n}\Ftxt;102.5
 40
3.5
 41
13.4166666667
  0
LINE
  5
225
100
AcDbEntity
  8
0
100
AcDbLine
 62
2
  6
CONTINUOUS
 10
53.6238359301
 20
21.4494514802
 11
53.6238359301
 21
11.6272026371
  0
LINE
  5
226
100
AcDbEntity
  8
0
100
AcDbLine
 62
2
  6
CONTINUOUS
 10
156.0889364334
 20
21.4494514802
 11
156.0889364334
 21
11.6272026371
  0
LINE
  5
227
100
AcDbEntity
  8
0
100
AcDbLine
 62
2
  6
CONTINUOUS
 10
53.6238359301
 20
13.1272026371
 11
104.8563861817
 21
13.1272026371
  0
LINE
  5
228
100
AcDbEntity
  8
0
100
AcDbLine
 62
2
  6
CONTINUOUS
 10
156.0889364334
 20
13.1272026371
 11
104.8563861817
 21
13.1272026371
  0
INSERT
  5
229
100
AcDbEntity
  8
0
100
AcDbBlockReference
 62
2
  6
CONTINUOUS
  2
_ARROW_FILLED
 10
53.6238359301
 20
13.1272026371
 41
3.5
 42
3.5
 43
3.5
 50
180.0
  0
INSERT
  5
22A
100
AcDbEntity
  8
0
100
AcDbBlockReference
 62
2
  6
CONTINUOUS
  2
_ARROW_FILLED
 10
156.0889364334
 20
13.1272026371
 41
3.5
 42
3.5
 43
3.5
  0
ENDBLK
  5
22B
100
AcDbEntity
  8
0
  6
BYBLOCK
 62
0
100
AcDbBlockEnd
  0
BLOCK
  5
22C
100
AcDbEntity
  8
0
100
AcDbBlockBegin
 62
2
  6
CONTINUOUS
  2
*D3
 70
65
 10
0.0
 20
0.0
  3
*D3
  1

  0
MTEXT
  5
22D
100
AcDbEntity
  8
0
100
AcDbMText
 62
2
  6
CONTINUOUS
  7
STANDARD
 71
2
 72
1
 10
147.941270331
 20
168.4247560667
 30
0.0
 11
0.0
 21
1.0
 31
0.0
  1
211.5
 40
3.5
 41
8.75
  0
LINE
  5
22E
100
AcDbEntity
  8
0
100
AcDbLine
 62
2
  6
CONTINUOUS
 10
113.239805428
 20
274.1497560667
 11
153.816270331
 21
274.1497560667
  0
LINE
  5
22F
100
AcDbEntity
  8
0
100
AcDbLine
 62
2
  6
CONTINUOUS
 10
115.1576609229
 20
62.6997560667
 11
153.816270331
 21
62.6997560667
  0
LINE
  5
230
100
AcDbEntity
  8
0
100
AcDbLine
 62
2
  6
CONTINUOUS
 10
152.316270331
 20
274.1497560667
 11
152.316270331
 21
168.4247560667
  0
LINE
  5
231
100
AcDbEntity
  8
0
100
AcDbLine
 62
2
  6
CONTINUOUS
 10
152.316270331
 20
62.6997560667
 11
152.316270331
 21
168.4247560667
  0
INSERT
  5
232
100
AcDbEntity
  8
0
100
AcDbBlockReference
 62
2
  6
CONTINUOUS
  2
_ARROW_FILLED
 10
152.316270331
 20
274.1497560667
 41
3.5
 42
3.5
 43
3.5
 50
90.0
  0
INSERT
  5
233
100
AcDbEntity
  8
0
100
AcDbBlockReference
 62
2
  6
CONTINUOUS
  2
_ARROW_FILLED
 10
152.316270331
 20
62.6997560667
 41
3.5
 42
3.5
 43
3.5
 50
270.0
  0
ENDBLK
  5
234
100
AcDbEntity
  8
0
  6
BYBLOCK
 62
0
100
AcDbBlockEnd
  0
ENDSEC
  0
SECTION
  2
ENTITIES
  0
DIMENSION
  5
235
100
AcDbEntity
  8
0
100
AcDbDimension
 62
2
  6
CONTINUOUS
  2
*D0
 10
114.3563861817
 20
286.7853011963
 11
101.3563861817
 21
289.4103011963
 70
160
  1
3/4"
  3
DIMSTYLE_1
100
AcDbAlignedDimension
 13
95.3563861817
 23
271.8497560667
 14
114.3563861817
 24
271.8497560667
100
AcDbRotatedDimension
  0
DIMENSION
  5
236
100
AcDbEntity
  8
0
100
AcDbDimension
 62
2
  6
CONTINUOUS
  2
*D1
 10
180.5442931445
 20
21.4497560667
 11
179.8796152151
 21
143.8885206634
 70
160
  3
DIMSTYLE_2
100
AcDbAlignedDimension
 13
113.239805428
 23
274.1497560667
 14
156.1063861817
 24
21.4497560667
 50
270.0
100
AcDbRotatedDimension
  0
DIMENSION
  5
237
100
AcDbEntity
  8
0
100
AcDbDimension
 62
2
  6
CONTINUOUS
  2
*D2
 10
156.0889364334
 20
13.1272026371
 11
101.502219515
 21
15.7522026371
 70
160
  1
%%c<>
  3
DIMSTYLE_3
100
AcDbAlignedDimension
 13
53.6238359301
 23
21.4494514802
 14
156.0889364334
 24
21.4494514802
100
AcDbRotatedDimension
  0
DIMENSION
  5
238
100
AcDbEntity
  8
0
100
AcDbDimension
 62
2
  6
CONTINUOUS
  2
*D3
 10
152.316270331
 20
62.6997560667
 11
151.6515924016
 21
164.5135206634
 70
160
  3
DIMSTYLE_4
100
AcDbAlignedDimension
 13
113.239805428
 23
274.1497560667
 14
115.1576609229
 24
62.6997560667
 50
270.0
100
AcDbRotatedDimension
  0
LINE
  5
239
100
AcDbEntity
  8
0
100
AcDbLine
 62
7
  6
CONTINUOUS
 10
0.0
 20
0.0
 11
210.0
 21
0.0
  0
LINE
  5
23A
100
AcDbEntity
  8
0
100
AcDbLine
 62
7
  6
CONTINUOUS
 10
0.0
 20
0.0
 11
0.0
 21
297.0
  0
LINE
  5
23B
100
AcDbEntity
  8
0
100
AcDbLine
 62
7
  6
CONTINUOUS
 10
210.0
 20
0.0
 11
210.0
 21
297.0
  0
LINE
  5
23C
100
AcDbEntity
  8
0
100
AcDbLine
 62
7
  6
CONTINUOUS
 10
0.0
 20
297.0
 11
210.0
 21
297.0
  0
LINE
  5
23D
100
AcDbEntity
  8
0
100
AcDbLine
 62
7
  6
CONTINUOUS
 10
155.6063861817
 20
21.4497560667
 11
54.1063861817
 21
21.4497560667
  0
LINE
  5
23E
100
AcDbEntity
  8
0
100
AcDbLine
 62
7
  6
CONTINUOUS
 10
156.0889364334
 20
21.9494514802
 11
53.6238359301
 21
21.9494514802
  0
LINE
  5
23F
100
AcDbEntity
  8
0
100
AcDbLine
 62
7
  6
CONTINUOUS
 10
154.9606552226
 20
28.0792679443
 11
54.7521171408
 21
28.0792679443
  0
LINE
  5
240
100
AcDbEntity
  8
0
100
AcDbLine
 62
7
  6
CONTINUOUS
 10
53.6238359301
 20
21.9494514802
 11
54.1063861817
 21
21.4497560667
  0
LINE
  5
241
100
AcDbEntity
  8
0
100
AcDbLine
 62
7
  6
CONTINUOUS
 10
151.6550574866
 20
32.6032335647
 11
58.0577148769
 21
32.6032335647
  0
LINE
  5
242
100
AcDbEntity
  8
0
100
AcDbLine
 62
7
  6
CONTINUOUS
 10
152.8749161131
 20
39.6161661256
 11
132.1988383246
 21
39.6161661278
  0
LINE
  5
243
100
AcDbEntity
  8
0
100
AcDbLine
 62
7
  6
CONTINUOUS
 10
77.5139339538
 20
39.616166128
 11
56.8378562504
 21
39.6161661256
  0
LINE
  5
244
100
AcDbEntity
  8
0
100
AcDbLine
 62
7
  6
CONTINUOUS
 10
91.8563861817
 20
43.9497560667
 11
85.3338453569
 21
42.7908714865
  0
LINE
  5
245
100
AcDbEntity
  8
0
100
AcDbLine
 62
7
  6
CONTINUOUS
 10
152.4034209463
 20
39.9497560667
 11
130.3542964246
 21
39.9497560667
  0
LINE
  5
246
100
AcDbEntity
  8
0
100
AcDbLine
 62
7
  6
CONTINUOUS
 10
79.3584982632
 20
39.9497560667
 11
57.3093514171
 21
39.9497560667
  0
LINE
  5
247
100
AcDbEntity
  8
0
100
AcDbLine
 62
7
  6
CONTINUOUS
 10
84.4984150945
 20
42.5664338605
 11
125.2143572689
 21
42.5664338605
  0
LINE
  5
248
100
AcDbEntity
  8
0
100
AcDbLine
 62
7
  6
CONTINUOUS
 10
85.3338453569
 20
42.7908714865
 11
124.3789270065
 21
42.7908714865
  0
LINE
  5
249
100
AcDbEntity
  8
0
100
AcDbLine
 62
7
  6
CONTINUOUS
 10
117.8563861817
 20
43.9497560667
 11
91.8563861817
 21
43.9497560667
  0
LINE
  5
24A
100
AcDbEntity
  8
0
100
AcDbLine
 62
7
  6
CONTINUOUS
 10
96.0733673137
 20
48.4891400939
 11
113.6394050497
 21
48.4891400939
  0
LINE
  5
24B
100
AcDbEntity
  8
0
100
AcDbLine
 62
7
  6
CONTINUOUS
 10
124.3789270065
 20
42.7908714865
 11
117.8563861817
 21
43.9497560667
  0
LINE
  5
24C
100
AcDbEntity
  8
0
100
AcDbLine
 62
7
  6
CONTINUOUS
 10
85.3338453569
 20
42.7908714865
 11
84.4984150945
 21
42.5664338605
  0
LINE
  5
24D
100
AcDbEntity
  8
0
100
AcDbLine
 62
7
  6
CONTINUOUS
 10
96.3563861817
 20
49.1862326676
 11
113.3563861817
 21
49.1862326676
  0
LINE
  5
24E
100
AcDbEntity
  8
0
100
AcDbLine
 62
7
  6
CONTINUOUS
 10
96.3563861817
 20
51.6997560667
 11
113.3563861817
 21
51.6997560667
  0
LINE
  5
24F
100
AcDbEntity
  8
0
100
AcDbLine
 62
7
  6
CONTINUOUS
 10
92.8013862001
 20
52.6997560667
 11
116.9113861633
 21
52.6997560667
  0
LINE
  5
250
100
AcDbEntity
  8
0
100
AcDbLine
 62
7
  6
CONTINUOUS
 10
124.3789270065
 20
42.7908714865
 11
125.2143572689
 21
42.5664338605
  0
LINE
  5
251
100
AcDbEntity
  8
0
100
AcDbLine
 62
7
  6
CONTINUOUS
 10
132.4036204214
 20
39.9497560667
 11
125.2143572689
 21
42.5664338605
  0
LINE
  5
252
100
AcDbEntity
  8
0
100
AcDbLine
 62
7
  6
CONTINUOUS
 10
92.8013862001
 20
62.6997560667
 11
116.9113861633
 21
62.6997560667
  0
LINE
  5
253
100
AcDbEntity
  8
0
100
AcDbLine
 62
7
  6
CONTINUOUS
 10
92.8013861817
 20
52.6997560667
 11
91.0013861817
 21
54.4997560667
  0
LINE
  5
254
100
AcDbEntity
  8
0
100
AcDbLine
 62
7
  6
CONTINUOUS
 10
96.9729669354
 20
274.1497560667
 11
95.3563861817
 21
271.3497560667
  0
LINE
  5
255
100
AcDbEntity
  8
0
100
AcDbLine
 62
7
  6
CONTINUOUS
 10
53.9288296144
 20
30.6833278757
 11
53.6238359301
 21
21.9494514802
  0
LINE
  5
256
100
AcDbEntity
  8
0
100
AcDbLine
 62
7
  6
CONTINUOUS
 10
118.7113861817
 20
60.8997560667
 11
116.9113861817
 21
62.6997560667
  0
LINE
  5
257
100
AcDbEntity
  8
0
100
AcDbLine
 62
7
  6
CONTINUOUS
 10
67.3563861817
 20
35.9805123628
 11
67.3563861817
 21
39.9497560667
  0
LINE
  5
258
100
AcDbEntity
  8
0
100
AcDbLine
 62
7
  6
CONTINUOUS
 10
77.5139339571
 20
39.616166128
 11
77.5139339607
 21
39.9497560667
  0
LINE
  5
259
100
AcDbEntity
  8
0
100
AcDbLine
 62
7
  6
CONTINUOUS
 10
91.0013861817
 20
60.8997560667
 11
91.0013861817
 21
54.4997560667
  0
LINE
  5
25A
100
AcDbEntity
  8
0
100
AcDbLine
 62
7
  6
CONTINUOUS
 10
95.3563861817
 20
271.3497560667
 11
95.3563861817
 21
62.6997560667
  0
LINE
  5
25B
100
AcDbEntity
  8
0
100
AcDbLine
 62
7
  6
CONTINUOUS
 10
96.3563861817
 20
51.6997560667
 11
96.3563861817
 21
49.1862326676
  0
LINE
  5
25C
100
AcDbEntity
  8
0
100
AcDbLine
 62
7
  6
CONTINUOUS
 10
56.8378562504
 20
39.6161661256
 11
54.2108320816
 21
32.1729309808
  0
LINE
  5
25D
100
AcDbEntity
  8
0
100
AcDbLine
 62
7
  6
CONTINUOUS
 10
97.9331072777
 20
60.8997560667
 11
97.9331072777
 21
54.4997560667
  0
LINE
  5
25E
100
AcDbEntity
  8
0
100
AcDbLine
 62
7
  6
CONTINUOUS
 10
111.7796650857
 20
60.8997560667
 11
111.7796650857
 21
54.4997560667
  0
LINE
  5
25F
100
AcDbEntity
  8
0
100
AcDbLine
 62
7
  6
CONTINUOUS
 10
113.3563861817
 20
51.6997560667
 11
113.3563861817
 21
49.1862326676
  0
LINE
  5
260
100
AcDbEntity
  8
0
100
AcDbLine
 62
7
  6
CONTINUOUS
 10
114.3563861817
 20
271.3497560667
 11
114.3563861817
 21
62.6997560667
  0
LINE
  5
261
100
AcDbEntity
  8
0
100
AcDbLine
 62
7
  6
CONTINUOUS
 10
155.5019402818
 20
32.1729309808
 11
152.8749161131
 21
39.6161661256
  0
LINE
  5
262
100
AcDbEntity
  8
0
100
AcDbLine
 62
7
  6
CONTINUOUS
 10
118.7113861817
 20
60.8997560667
 11
118.7113861817
 21
54.4997560667
  0
LINE
  5
263
100
AcDbEntity
  8
0
100
AcDbLine
 62
7
  6
CONTINUOUS
 10
132.1988383272
 20
39.6161661278
 11
132.1988383232
 21
39.9497560667
  0
LINE
  5
264
100
AcDbEntity
  8
0
100
AcDbLine
 62
7
  6
CONTINUOUS
 10
142.3563861817
 20
35.9805123628
 11
142.3563861817
 21
39.9497560667
  0
LINE
  5
265
100
AcDbEntity
  8
0
100
AcDbLine
 62
7
  6
CONTINUOUS
 10
155.783942749
 20
30.6833278757
 11
156.0889364334
 21
21.9494514802
  0
LINE
  5
266
100
AcDbEntity
  8
0
100
AcDbLine
 62
7
  6
CONTINUOUS
 10
91.0013861817
 20
60.8997560667
 11
92.8013861817
 21
62.6997560667
  0
LINE
  5
267
100
AcDbEntity
  8
0
100
AcDbLine
 62
7
  6
CONTINUOUS
 10
112.739805428
 20
274.1497560667
 11
114.3563861817
 21
271.3497560667
  0
LINE
  5
268
100
AcDbEntity
  8
0
100
AcDbLine
 62
7
  6
CONTINUOUS
 10
116.9113861817
 20
52.6997560667
 11
118.7113861817
 21
54.4997560667
  0
LINE
  5
269
100
AcDbEntity
  8
0
100
AcDbLine
 62
7
  6
CONTINUOUS
 10
84.4984150945
 20
42.5664338605
 11
77.309151942
 21
39.9497560667
  0
LINE
  5
26A
100
AcDbEntity
  8
0
100
AcDbLine
 62
7
  6
CONTINUOUS
 10
156.0889364334
 20
21.9494514802
 11
155.6063861817
 21
21.4497560667
  0
LINE
  5
26B
100
AcDbEntity
  8
0
100
AcDbLine
 62
7
  6
CONTINUOUS
 10
95.3563861817
 20
271.3497560667
 11
114.3563861817
 21
271.3497560667
  0
LINE
  5
26C
100
AcDbEntity
  8
0
100
AcDbLine
 62
7
  6
CONTINUOUS
 10
96.9729669354
 20
274.1497560667
 11
112.739805428
 21
274.1497560667
  0
ARC
  5
26D
100
AcDbEntity
  8
0
100
AcDbCircle
 62
7
  6
CONTINUOUS
 10
803.518450391
 20
-2004.7540946499
 40
2169.4543832587
100
AcDbArc
 50
109.5511609463
 51
109.8360904338
  0
ARC
  5
26E
100
AcDbEntity
  8
0
100
AcDbCircle
 62
7
  6
CONTINUOUS
 10
-593.7909769417
 20
-2004.7130388316
 40
2169.4107748696
100
AcDbArc
 50
70.1639068548
 51
70.4488420719
  0
ARC
  5
26F
100
AcDbEntity
  8
0
100
AcDbCircle
 62
7
  6
CONTINUOUS
 10
-540.3728444209
 20
-1854.9010058947
 40
2010.0205942211
100
AcDbArc
 50
70.1485940195
 51
70.5073812964
  0
ARC
  5
270
100
AcDbEntity
  8
0
100
AcDbCircle
 62
7
  6
CONTINUOUS
 10
750.0808147564
 20
-1854.8877225017
 40
2010.0064694923
100
AcDbArc
 50
109.4926154236
 51
109.8514058131
  0
ARC
  5
271
100
AcDbEntity
  8
0
100
AcDbCircle
 62
7
  6
CONTINUOUS
 10
121.6823875801
 20
-225.5632481403
 40
268.8326133892
100
AcDbArc
 50
99.1197375114
 51
99.4564115539
  0
ARC
  5
272
100
AcDbEntity
  8
0
100
AcDbCircle
 62
7
  6
CONTINUOUS
 10
104.8563861817
 20
39.9497560667
 40
12.25
100
AcDbArc
 50
19.059082502
 51
44.1942037229
  0
ARC
  5
273
100
AcDbEntity
  8
0
100
AcDbCircle
 62
7
  6
CONTINUOUS
 10
104.8563861817
 20
39.9497560667
 40
12.25
100
AcDbArc
 50
135.8057962771
 51
160.940917498
  0
ARC
  5
274
100
AcDbEntity
  8
0
100
AcDbCircle
 62
7
  6
CONTINUOUS
 10
149.3435156075
 20
25.8831652406
 40
7.3437717176
100
AcDbArc
 50
69.9512302342
 51
73.0165727314
  0
ARC
  5
275
100
AcDbEntity
  8
0
100
AcDbCircle
 62
7
  6
CONTINUOUS
 10
60.369067274
 20
25.8833560617
 40
7.3435338727
100
AcDbArc
 50
106.982448243
 51
110.0478053254
  0
ARC
  5
276
100
AcDbEntity
  8
0
100
AcDbCircle
 62
7
  6
CONTINUOUS
 10
149.6361658914
 20
25.6343752609
 40
7.255405525
100
AcDbArc
 50
70.8870082039
 51
73.8435963399
  0
ARC
  5
277
100
AcDbEntity
  8
0
100
AcDbCircle
 62
7
  6
CONTINUOUS
 10
60.0765994688
 20
25.6343972995
 40
7.255382408
100
AcDbArc
 50
106.1563989683
 51
109.1130068173
  0
ARC
  5
278
100
AcDbEntity
  8
0
100
AcDbCircle
 62
7
  6
CONTINUOUS
 10
123.5042565523
 20
37.8679707566
 40
5.0
100
AcDbArc
 50
70.0
 51
79.9251773739
  0
ARC
  5
279
100
AcDbEntity
  8
0
100
AcDbCircle
 62
7
  6
CONTINUOUS
 10
86.2085158111
 20
37.8679707566
 40
5.0
100
AcDbArc
 50
100.0748226261
 51
110.0
  0
ARC
  5
27A
100
AcDbEntity
  8
0
100
AcDbCircle
 62
7
  6
CONTINUOUS
 10
150.7869861116
 20
30.5087400945
 40
4.9999993822
100
AcDbArc
 50
2.0010331023
 51
19.4410009756
  0
ARC
  5
27B
100
AcDbEntity
  8
0
100
AcDbCircle
 62
7
  6
CONTINUOUS
 10
58.9257864738
 20
30.5087317165
 40
4.999999326
100
AcDbArc
 50
160.5589093485
 51
177.9988710405
  0
ARC
  5
27C
100
AcDbEntity
  8
0
100
AcDbCircle
 62
7
  6
CONTINUOUS
 10
94.3512956764
 20
56.2037330512
 40
3.5745865833
100
AcDbArc
 50
285.1263905038
 51
288.9829153753
  0
ARC
  5
27D
100
AcDbEntity
  8
0
100
AcDbCircle
 62
7
  6
CONTINUOUS
 10
115.3602098351
 20
56.1995952851
 40
3.5702612986
100
AcDbArc
 50
251.0873708411
 51
254.9141959551
  0
ARC
  5
27E
100
AcDbEntity
  8
0
100
AcDbCircle
 62
7
  6
CONTINUOUS
 10
94.4199928837
 20
55.95015613
 40
3.3118689818
100
AcDbArc
 50
281.056122848
 51
285.1238589027
  0
ARC
  5
27F
100
AcDbEntity
  8
0
100
AcDbCircle
 62
7
  6
CONTINUOUS
 10
115.2925540453
 20
55.9491706401
 40
3.3108585514
100
AcDbArc
 50
254.9167456569
 51
258.9444354677
  0
ARC
  5
280
100
AcDbEntity
  8
0
100
AcDbCircle
 62
7
  6
CONTINUOUS
 10
114.3563861817
 20
49.1862326676
 40
1.0
100
AcDbArc
 50
180.0
 51
224.1942037275
  0
ARC
  5
281
100
AcDbEntity
  8
0
100
AcDbCircle
 62
7
  6
CONTINUOUS
 10
95.3563861817
 20
49.1862326676
 40
1.0
100
AcDbArc
 50
315.8057962725
 51
360.0
  0
ARC
  5
282
100
AcDbEntity
  8
0
100
AcDbCircle
 62
7
  6
CONTINUOUS
 10
114.3563861817
 20
51.6997560667
 40
1.0
100
AcDbArc
 50
90.0000000766
 51
180.0
  0
ARC
  5
283
100
AcDbEntity
  8
0
100
AcDbCircle
 62
7
  6
CONTINUOUS
 10
95.3563861817
 20
51.6997560667
 40
1.0
100
AcDbArc
 50
0.0
 51
89.9999999388
  0
ARC
  5
284
100
AcDbEntity
  8
0
100
AcDbCircle
 62
7
  6
CONTINUOUS
 10
57.3093514171
 20
39.4497560667
 40
0.5
100
AcDbArc
 50
90.0
 51
160.5599651718
  0
ARC
  5
285
100
AcDbEntity
  8
0
100
AcDbCircle
 62
7
  6
CONTINUOUS
 10
152.4034209463
 20
39.4497560667
 40
0.5
100
AcDbArc
 50
19.4400348282
 51
90.0
  0
SPLINE
  5
286
100
AcDbEntity
  8
0
100
AcDbSpline
 62
7
  6
CONTINUOUS
 70
0
 71
3
 72
14
 73
10
 74
8
 42
0.0000001
 43
0.0000001
 44
0.0000000001
 12
-0.1086017343
 22
-2.3062029744
 32
0.0
 13
-2.308758634
 23
-0.0002565842
 33
0.0
 40
0.0
 40
0.0
 40
0.0
 40
0.0
 40
0.361951717
 40
0.5130552654
 40
0.6431875183
 40
0.7529164643
 40
0.8445985895
 40
0.9237603129
 40
1.0
 40
1.0
 40
1.0
 40
1.0
 10
155.7562295573
 20
30.0737326169
 30
0.0
 10
155.7431266959
 20
29.7954879081
 30
0.0
 10
155.7117987741
 20
29.400805079
 30
0.0
 10
155.6198070687
 20
28.9139227963
 30
0.0
 10
155.5349196862
 20
28.6245577299
 30
0.0
 10
155.4291169009
 20
28.391102063
 30
0.0
 10
155.299476756
 20
28.2154250854
 30
0.0
 10
155.1406912565
 20
28.1030492785
 30
0.0
 10
155.0193282345
 20
28.0792744649
 30
0.0
 10
154.9606552226
 20
28.0792679443
 30
0.0
 11
155.7562295573
 21
30.0737326169
 31
0.0
 11
155.6779947027
 21
29.2417437143
 31
0.0
 11
155.6107919564
 21
28.8994160589
 31
0.0
 11
155.5232884327
 21
28.6119970111
 31
0.0
 11
155.4148131509
 21
28.3830579806
 31
0.0
 11
155.2848068229
 21
28.216015029
 31
0.0
 11
155.1332354393
 21
28.1138912046
 31
0.0
 11
154.9606552226
 21
28.0792679443
 31
0.0
  0
LINE
  5
287
100
AcDbEntity
  8
0
100
AcDbLine
 62
7
  6
CONTINUOUS
 10
155.3492032775
 20
31.5633229421
 11
155.5019402818
 21
32.1729309808
  0
SPLINE
  5
288
100
AcDbEntity
  8
0
100
AcDbSpline
 62
7
  6
CONTINUOUS
 70
0
 71
3
 72
11
 73
7
 74
5
 42
0.0000001
 43
0.0000001
 44
0.0000000001
 12
3.3766138196
 22
-0.6582441605
 32
0.0
 13
2.4325713002
 23
-2.4325713002
 33
0.0
 40
0.0
 40
0.0
 40
0.0
 40
0.0
 40
0.2281945429
 40
0.4702346368
 40
0.7278847725
 40
1.0
 40
1.0
 40
1.0
 40
1.0
 10
95.0551114406
 20
62.6997560667
 30
0.0
 10
95.3119530563
 20
62.6496868249
 30
0.0
 10
95.8294635576
 20
62.4806625426
 30
0.0
 10
96.5611212424
 20
62.0718518391
 30
0.0
 10
97.2674717529
 20
61.5351466319
 30
0.0
 10
97.7124607134
 20
61.1204026309
 30
0.0
 10
97.9331072777
 20
60.8997560667
 30
0.0
 11
95.0551114406
 21
62.6997560667
 31
0.0
 11
95.8036667982
 21
62.4632486091
 31
0.0
 11
96.5348797966
 21
62.06493865
 31
0.0
 11
97.2448079341
 21
61.5342419431
 31
0.0
 11
97.9331072777
 21
60.8997560667
 31
0.0
  0
SPLINE
  5
289
100
AcDbEntity
  8
0
100
AcDbSpline
 62
7
  6
CONTINUOUS
 70
0
 71
3
 72
11
 73
7
 74
5
 42
0.0000001
 43
0.0000001
 44
0.0000000001
 12
2.4325713659
 22
2.4325713659
 32
0.0
 13
3.3766139108
 23
0.6582441783
 33
0.0
 40
0.0
 40
0.0
 40
0.0
 40
0.0
 40
0.2721166924
 40
0.5297678632
 40
0.7718070441
 40
1.0
 40
1.0
 40
1.0
 40
1.0
 10
91.0013861817
 20
60.8997560667
 30
0.0
 10
91.2220339398
 20
61.1204038247
 30
0.0
 10
91.667024416
 20
61.5351504723
 30
0.0
 10
92.3733775158
 20
62.071855456
 30
0.0
 10
93.1050343562
 20
62.480664158
 30
0.0
 10
93.6225421825
 20
62.6496871718
 30
0.0
 10
93.8793820189
 20
62.6997560667
 30
0.0
 11
91.0013861817
 21
60.8997560667
 31
0.0
 11
91.6896890035
 21
61.5342456425
 31
0.0
 11
92.3996207796
 21
62.0649434696
 31
0.0
 11
93.1308316914
 21
62.4632507405
 31
0.0
 11
93.8793820189
 21
62.6997560667
 31
0.0
  0
SPLINE
  5
28A
100
AcDbEntity
  8
0
100
AcDbSpline
 62
7
  6
CONTINUOUS
 70
0
 71
3
 72
10
 73
6
 74
4
 42
0.0000001
 43
0.0000001
 44
0.0000000001
 12
5.4477049896
 22
-2.7221927846
 32
0.0
 13
6.0630478415
 23
-0.5720787378
 33
0.0
 40
0.0
 40
0.0
 40
0.0
 40
0.0
 40
0.499852588
 40
0.7499302382
 40
1.0
 40
1.0
 40
1.0
 40
1.0
 10
97.9331072777
 20
54.4997560667
 30
0.0
 10
98.8407904237
 20
54.0461910305
 30
0.0
 10
100.2470334147
 20
53.4428321682
 30
0.0
 10
102.207745683
 20
52.9058907106
 30
0.0
 10
103.2135419612
 20
52.7474425979
 30
0.0
 10
103.7189369377
 20
52.6997560667
 30
0.0
 11
97.9331072777
 21
54.4997560667
 31
0.0
 11
100.7439042252
 21
53.3310345689
 31
0.0
 11
102.2140491263
 21
52.9334127852
 31
0.0
 11
103.7189369377
 21
52.6997560667
 31
0.0
  0
SPLINE
  5
28B
100
AcDbEntity
  8
0
100
AcDbSpline
 62
7
  6
CONTINUOUS
 70
0
 71
3
 72
10
 73
6
 74
4
 42
0.0000001
 43
0.0000001
 44
0.0000000001
 12
6.0630478539
 22
0.5720787389
 32
0.0
 13
5.4477050007
 23
2.7221927901
 33
0.0
 40
0.0
 40
0.0
 40
0.0
 40
0.0
 40
0.250071481
 40
0.5001499283
 40
1.0
 40
1.0
 40
1.0
 40
1.0
 10
105.9938354258
 20
52.6997560667
 30
0.0
 10
106.4992338778
 20
52.7474429259
 30
0.0
 10
107.5050352262
 20
52.9058921021
 30
0.0
 10
109.4657468757
 20
53.4428358655
 30
0.0
 10
110.8719865073
 20
54.0461933129
 30
0.0
 10
111.7796650857
 20
54.4997560667
 30
0.0
 11
105.9938354258
 21
52.6997560667
 31
0.0
 11
107.4987335027
 21
52.9334149305
 31
0.0
 11
108.9688826911
 21
53.3310394669
 31
0.0
 11
111.7796650857
 21
54.4997560667
 31
0.0
  0
SPLINE
  5
28C
100
AcDbEntity
  8
0
100
AcDbSpline
 62
7
  6
CONTINUOUS
 70
0
 71
3
 72
12
 73
8
 74
6
 42
0.0000001
 43
0.0000001
 44
0.0000000001
 12
-0.1302145619
 22
-0.3213621486
 32
0.0
 13
-0.3205824006
 23
-0.1321226215
 33
0.0
 40
0.0
 40
0.0
 40
0.0
 40
0.0
 40
0.3686693518
 40
0.6724086549
 40
0.8868044187
 40
0.9561098266
 40
1.0
 40
1.0
 40
1.0
 40
1.0
 10
142.3563861817
 20
35.9805123579
 30
0.0
 10
142.3403841423
 20
35.9410202329
 30
0.0
 10
142.3099754127
 20
35.8694079114
 30
0.0
 10
142.2654436813
 20
35.7772559424
 30
0.0
 10
142.2318096217
 20
35.7177319906
 30
0.0
 10
142.2085631823
 20
35.688099172
 30
0.0
 10
142.1985498049
 20
35.6790101234
 30
0.0
 10
142.1938596658
 20
35.6770771618
 30
0.0
 11
142.3563861817
 21
35.9805123579
 31
0.0
 11
142.3060299119
 21
35.8630156136
 31
0.0
 11
142.2597038121
 21
35.7684324764
 31
0.0
 11
142.2212817045
 21
35.7047916541
 31
0.0
 11
142.2060171309
 21
35.686231382
 31
0.0
 11
142.1938596658
 21
35.6770771618
 31
0.0
  0
LINE
  5
28D
100
AcDbEntity
  8
0
100
AcDbLine
 62
7
  6
CONTINUOUS
 10
130.3417175823
 20
39.914226657
 11
130.3265761454
 21
39.9195766923
  0
SPLINE
  5
28E
100
AcDbEntity
  8
0
100
AcDbSpline
 62
7
  6
CONTINUOUS
 70
0
 71
3
 72
9
 73
5
 74
3
 42
0.0000001
 43
0.0000001
 44
0.0000000001
 12
-9.2162665389
 22
2.8156264366
 32
0.0
 13
-9.0240578047
 23
3.3813757385
 33
0.0
 40
0.0
 40
0.0
 40
0.0
 40
0.0
 40
0.4711431426
 40
1.0
 40
1.0
 40
1.0
 40
1.0
 10
151.4885952137
 20
32.9066698162
 30
0.0
 10
150.0412016202
 20
33.3488575122
 30
0.0
 10
146.9794259606
 20
34.3214606899
 30
0.0
 10
143.9471977988
 20
35.3844244473
 30
0.0
 10
142.3563861817
 20
35.9805123628
 30
0.0
 11
151.4885952137
 21
32.9066698162
 31
0.0
 11
147.1626912388
 21
34.285386015
 31
0.0
 11
142.3563861817
 21
35.9805123628
 31
0.0
  0
SPLINE
  5
28F
100
AcDbEntity
  8
0
100
AcDbSpline
 62
7
  6
CONTINUOUS
 70
0
 71
3
 72
9
 73
5
 74
3
 42
0.0000001
 43
0.0000001
 44
0.0000000001
 12
0.0255625986
 22
-0.3575851062
 32
0.0
 13
0.3267287625
 23
-0.1475427746
 33
0.0
 40
0.0
 40
0.0
 40
0.0
 40
0.0
 40
0.5530711834
 40
1.0
 40
1.0
 40
1.0
 40
1.0
 10
151.4885896917
 20
32.9066670659
 30
0.0
 10
151.4933023372
 20
32.8407437266
 30
0.0
 10
151.5189593952
 20
32.720414568
 30
0.0
 10
151.6063825601
 20
32.6252136756
 30
0.0
 10
151.6550573932
 20
32.6032333031
 30
0.0
 11
151.4885896917
 21
32.9066670659
 31
0.0
 11
151.5405761905
 21
32.7153289747
 31
0.0
 11
151.6550573932
 21
32.6032333031
 31
0.0
  0
SPLINE
  5
290
100
AcDbEntity
  8
0
100
AcDbSpline
 62
7
  6
CONTINUOUS
 70
0
 71
3
 72
9
 73
5
 74
3
 42
0.0000001
 43
0.0000001
 44
0.0000000001
 12
-9.5405744775
 22
2.8214557806
 32
0.0
 13
-9.3597092303
 23
3.3732798888
 33
0.0
 40
0.0
 40
0.0
 40
0.0
 40
0.0
 40
0.4708523688
 40
1.0
 40
1.0
 40
1.0
 40
1.0
 10
151.6550574866
 20
32.6032335647
 30
0.0
 10
150.1576567892
 20
33.0460632773
 30
0.0
 10
146.9872584925
 20
34.0199555404
 30
0.0
 10
143.8447486252
 20
35.0820884238
 30
0.0
 10
142.1938593024
 20
35.6770761113
 30
0.0
 11
151.6550574866
 21
32.6032335647
 31
0.0
 11
147.1782606126
 21
33.9827453532
 31
0.0
 11
142.1938593024
 21
35.6770761113
 31
0.0
  0
SPLINE
  5
291
100
AcDbEntity
  8
0
100
AcDbSpline
 62
7
  6
CONTINUOUS
 70
0
 71
3
 72
9
 73
5
 74
3
 42
0.0000001
 43
0.0000001
 44
0.0000000001
 12
0.0197580647
 22
-0.3388180938
 32
0.0
 13
0.2992007284
 23
-0.1602092567
 33
0.0
 40
0.0
 40
0.0
 40
0.0
 40
0.0
 40
0.5479009063
 40
1.0
 40
1.0
 40
1.0
 40
1.0
 10
151.86110155
 20
32.7819196248
 30
0.0
 10
151.8647100372
 20
32.7200400446
 30
0.0
 10
151.8877761027
 20
32.6059543431
 30
0.0
 10
151.966729528
 20
32.5139678319
 30
0.0
 10
152.0118189874
 20
32.4898243453
 30
0.0
 11
151.86110155
 21
32.7819196248
 31
0.0
 11
151.9067630021
 21
32.6016588014
 31
0.0
 11
152.0118189874
 21
32.4898243453
 31
0.0
  0
SPLINE
  5
292
100
AcDbEntity
  8
0
100
AcDbSpline
 62
7
  6
CONTINUOUS
 70
0
 71
3
 72
16
 73
12
 74
10
 42
0.0000001
 43
0.0000001
 44
0.0000000001
 12
-3.6100502359
 22
0.788238463
 32
0.0
 13
-3.4710683346
 23
1.2670703204
 33
0.0
 40
0.0
 40
0.0
 40
0.0
 40
0.0
 40
0.0332261281
 40
0.0724163071
 40
0.1627923254
 40
0.2674390122
 40
0.3870173436
 40
0.5208223691
 40
0.6681173006
 40
0.8281695375
 40
1.0
 40
1.0
 40
1.0
 40
1.0
 10
155.3492032775
 20
31.5633229421
 30
0.0
 10
155.3092206136
 20
31.5720529795
 30
0.0
 10
155.2239495861
 20
31.5991130018
 30
0.0
 10
155.0369380513
 20
31.6712080941
 30
0.0
 10
154.7658625065
 20
31.7701522766
 30
0.0
 10
154.3985896577
 20
31.8936752627
 30
0.0
 10
153.9814820338
 20
32.0368296879
 30
0.0
 10
153.5146687858
 20
32.196961654
 30
0.0
 10
153.0012936809
 20
32.3749960985
 30
0.0
 10
152.4445471989
 20
32.5708956161
 30
0.0
 10
152.059918299
 20
32.7093391164
 30
0.0
 10
151.8611065399
 20
32.7819128761
 30
0.0
 11
155.3492032775
 21
31.5633229421
 31
0.0
 11
155.2314104266
 21
31.597939224
 31
0.0
 11
155.0956368626
 21
31.6482977005
 31
0.0
 11
154.781958966
 21
31.7628746587
 31
0.0
 11
154.4161392557
 21
31.888164499
 31
0.0
 11
153.9980534048
 21
32.0311307502
 31
0.0
 11
153.5304708552
 21
32.1918197197
 31
0.0
 11
153.016269084
 21
32.3702187995
 31
0.0
 11
152.4584596845
 21
32.5667226904
 31
0.0
 11
151.8611065399
 21
32.7819128761
 31
0.0
  0
SPLINE
  5
293
100
AcDbEntity
  8
0
100
AcDbSpline
 62
7
  6
CONTINUOUS
 70
0
 71
3
 72
17
 73
13
 74
11
 42
0.0000001
 43
0.0000001
 44
0.0000000001
 12
-3.4633185786
 22
0.139941656
 32
0.0
 13
-3.2798894185
 23
1.1209302595
 33
0.0
 40
0.0
 40
0.0
 40
0.0
 40
0.0
 40
0.0327919652
 40
0.0713279753
 40
0.1142660391
 40
0.1608031518
 40
0.2650997277
 40
0.384644869
 40
0.5186835162
 40
0.6664426743
 40
0.8271838146
 40
1.0
 40
1.0
 40
1.0
 40
1.0
 10
155.3491977721
 20
31.5633379699
 30
0.0
 10
155.3113414314
 20
31.5648676239
 30
0.0
 10
155.2295386482
 20
31.5778172633
 30
0.0
 10
155.1014109659
 20
31.6093330192
 30
0.0
 10
154.9581063699
 20
31.6460313208
 30
0.0
 10
154.7403643992
 20
31.6980740174
 30
0.0
 10
154.436653359
 20
31.7712471571
 30
0.0
 10
154.0364806982
 20
31.8754157989
 30
0.0
 10
153.5893044608
 20
31.9981616387
 30
0.0
 10
153.098289764
 20
32.1408345138
 30
0.0
 10
152.5668147728
 20
32.3045880898
 30
0.0
 10
152.200764924
 20
32.4252392224
 30
0.0
 10
152.011825598
 20
32.4898108529
 30
0.0
 11
155.3491977721
 21
31.5633379699
 31
0.0
 11
155.2365113194
 21
31.5781954512
 31
0.0
 11
155.1063805885
 21
31.6083170157
 31
0.0
 11
154.9620481503
 21
31.6446265209
 31
0.0
 11
154.8052749862
 21
31.6825906363
 31
0.0
 11
154.4540298568
 21
31.7681136696
 31
0.0
 11
154.0529109581
 21
31.872029352
 31
0.0
 11
153.6048889387
 21
31.9950210895
 31
0.0
 11
153.1130709307
 21
32.137910586
 31
0.0
 11
152.5806748265
 21
32.3021445676
 31
0.0
 11
152.011825598
 21
32.4898108529
 31
0.0
  0
SPLINE
  5
294
100
AcDbEntity
  8
0
100
AcDbSpline
 62
7
  6
CONTINUOUS
 70
0
 71
3
 72
10
 73
6
 74
4
 42
0.0000001
 43
0.0000001
 44
0.0000000001
 12
6.0630478539
 22
-0.5720787389
 32
0.0
 13
5.4477050007
 23
-2.7221927901
 33
0.0
 40
0.0
 40
0.0
 40
0.0
 40
0.0
 40
0.250071481
 40
0.5001499283
 40
1.0
 40
1.0
 40
1.0
 40
1.0
 10
105.9938354258
 20
62.6997560667
 30
0.0
 10
106.4992338778
 20
62.6520692075
 30
0.0
 10
107.5050352262
 20
62.4936200313
 30
0.0
 10
109.4657468757
 20
61.9566762679
 30
0.0
 10
110.8719865073
 20
61.3533188205
 30
0.0
 10
111.7796650857
 20
60.8997560667
 30
0.0
 11
105.9938354258
 21
62.6997560667
 31
0.0
 11
107.4987335027
 21
62.4660972029
 31
0.0
 11
108.9688826911
 21
62.0684726664
 31
0.0
 11
111.7796650857
 21
60.8997560667
 31
0.0
  0
SPLINE
  5
295
100
AcDbEntity
  8
0
100
AcDbSpline
 62
7
  6
CONTINUOUS
 70
0
 71
3
 72
10
 73
6
 74
4
 42
0.0000001
 43
0.0000001
 44
0.0000000001
 12
5.4477049897
 22
2.7221927846
 32
0.0
 13
6.0630478415
 23
0.5720787378
 33
0.0
 40
0.0
 40
0.0
 40
0.0
 40
0.0
 40
0.499852588
 40
0.7499302382
 40
1.0
 40
1.0
 40
1.0
 40
1.0
 10
97.9331072777
 20
60.8997560667
 30
0.0
 10
98.8407904237
 20
61.3533211029
 30
0.0
 10
100.2470334147
 20
61.9566799651
 30
0.0
 10
102.207745683
 20
62.4936214228
 30
0.0
 10
103.2135419612
 20
62.6520695355
 30
0.0
 10
103.7189369377
 20
62.6997560667
 30
0.0
 11
97.9331072777
 21
60.8997560667
 31
0.0
 11
100.7439042252
 21
62.0684775645
 31
0.0
 11
102.2140491263
 21
62.4660993482
 31
0.0
 11
103.7189369377
 21
62.6997560667
 31
0.0
  0
SPLINE
  5
296
100
AcDbEntity
  8
0
100
AcDbSpline
 62
7
  6
CONTINUOUS
 70
0
 71
3
 72
10
 73
6
 74
4
 42
0.0000001
 43
0.0000001
 44
0.0000000001
 12
2.097973609
 22
-2.097973609
 32
0.0
 13
2.807222817
 23
-0.9604616513
 33
0.0
 40
0.0
 40
0.0
 40
0.0
 40
0.0
 40
0.2688199736
 40
0.5258167106
 40
1.0
 40
1.0
 40
1.0
 40
1.0
 10
111.7796650857
 20
54.4997560667
 30
0.0
 10
111.9676574891
 20
54.3117636633
 30
0.0
 10
112.3469333577
 20
53.9547556404
 30
0.0
 10
113.1191665937
 20
53.3377811129
 30
0.0
 10
113.7592827947
 20
52.9738899566
 30
0.0
 10
114.2029955112
 20
52.8220783349
 30
0.0
 11
111.7796650857
 21
54.4997560667
 31
0.0
 11
112.3624603065
 21
53.955246822
 31
0.0
 11
112.9607720401
 21
53.4825558418
 31
0.0
 11
114.2029955112
 21
52.8220783349
 31
0.0
  0
SPLINE
  5
297
100
AcDbEntity
  8
0
100
AcDbSpline
 62
7
  6
CONTINUOUS
 70
0
 71
3
 72
11
 73
7
 74
5
 42
0.0000001
 43
0.0000001
 44
0.0000000001
 12
3.3766138196
 22
0.6582441605
 32
0.0
 13
2.4325713002
 23
2.4325713002
 33
0.0
 40
0.0
 40
0.0
 40
0.0
 40
0.0
 40
0.2281945429
 40
0.4702346368
 40
0.7278847725
 40
1.0
 40
1.0
 40
1.0
 40
1.0
 10
115.8333903446
 20
52.6997560667
 30
0.0
 10
116.0902319603
 20
52.7498253085
 30
0.0
 10
116.6077424616
 20
52.9188495908
 30
0.0
 10
117.3394001464
 20
53.3276602943
 30
0.0
 10
118.045750657
 20
53.8643655014
 30
0.0
 10
118.4907396175
 20
54.2791095024
 30
0.0
 10
118.7113861817
 20
54.4997560667
 30
0.0
 11
115.8333903446
 21
52.6997560667
 31
0.0
 11
116.5819457022
 21
52.9362635243
 31
0.0
 11
117.3131587007
 21
53.3345734834
 31
0.0
 11
118.0230868381
 21
53.8652701903
 31
0.0
 11
118.7113861817
 21
54.4997560667
 31
0.0
  0
SPLINE
  5
298
100
AcDbEntity
  8
0
100
AcDbSpline
 62
7
  6
CONTINUOUS
 70
0
 71
3
 72
11
 73
7
 74
5
 42
0.0000001
 43
0.0000001
 44
0.0000000001
 12
3.3766138196
 22
-0.6582441605
 32
0.0
 13
2.4325713002
 23
-2.4325713002
 33
0.0
 40
0.0
 40
0.0
 40
0.0
 40
0.0
 40
0.2281945429
 40
0.4702346368
 40
0.7278847725
 40
1.0
 40
1.0
 40
1.0
 40
1.0
 10
115.8333903446
 20
62.6997560667
 30
0.0
 10
116.0902319603
 20
62.6496868249
 30
0.0
 10
116.6077424616
 20
62.4806625426
 30
0.0
 10
117.3394001464
 20
62.0718518391
 30
0.0
 10
118.045750657
 20
61.5351466319
 30
0.0
 10
118.4907396175
 20
61.1204026309
 30
0.0
 10
118.7113861817
 20
60.8997560667
 30
0.0
 11
115.8333903446
 21
62.6997560667
 31
0.0
 11
116.5819457022
 21
62.4632486091
 31
0.0
 11
117.3131587007
 21
62.06493865
 31
0.0
 11
118.0230868381
 21
61.5342419431
 31
0.0
 11
118.7113861817
 21
60.8997560667
 31
0.0
  0
SPLINE
  5
299
100
AcDbEntity
  8
0
100
AcDbSpline
 62
7
  6
CONTINUOUS
 70
0
 71
3
 72
11
 73
7
 74
5
 42
0.0000001
 43
0.0000001
 44
0.0000000001
 12
2.4325713659
 22
2.4325713659
 32
0.0
 13
3.3766139108
 23
0.6582441783
 33
0.0
 40
0.0
 40
0.0
 40
0.0
 40
0.0
 40
0.2721166924
 40
0.5297678632
 40
0.7718070441
 40
1.0
 40
1.0
 40
1.0
 40
1.0
 10
111.7796650857
 20
60.8997560667
 30
0.0
 10
112.0003128438
 20
61.1204038247
 30
0.0
 10
112.4453033201
 20
61.5351504723
 30
0.0
 10
113.1516564198
 20
62.071855456
 30
0.0
 10
113.8833132602
 20
62.480664158
 30
0.0
 10
114.4008210865
 20
62.6496871718
 30
0.0
 10
114.6576609229
 20
62.6997560667
 30
0.0
 11
111.7796650857
 21
60.8997560667
 31
0.0
 11
112.4679679075
 21
61.5342456425
 31
0.0
 11
113.1778996836
 21
62.0649434696
 31
0.0
 11
113.9091105954
 21
62.4632507405
 31
0.0
 11
114.6576609229
 21
62.6997560667
 31
0.0
  0
SPLINE
  5
29A
100
AcDbEntity
  8
0
100
AcDbSpline
 62
7
  6
CONTINUOUS
 70
0
 71
3
 72
9
 73
5
 74
3
 42
0.0000001
 43
0.0000001
 44
0.0000000001
 12
-1.5590259085
 22
0.2582428097
 32
0.0
 13
-1.5605259018
 23
0.2490181555
 33
0.0
 40
0.0
 40
0.0
 40
0.0
 40
0.0
 40
0.2504826688
 40
1.0
 40
1.0
 40
1.0
 40
1.0
 10
132.1988383312
 20
39.6161661079
 30
0.0
 10
132.0686686744
 20
39.6377278906
 30
0.0
 10
131.5489532637
 20
39.7235633198
 30
0.0
 10
131.0291673283
 20
39.8089971472
 30
0.0
 10
130.6392869252
 20
39.8712116216
 30
0.0
 11
132.1988383312
 21
39.6161661079
 31
0.0
 11
131.8083048434
 21
39.6807032682
 31
0.0
 11
130.6392869252
 21
39.8712116216
 31
0.0
  0
SPLINE
  5
29B
100
AcDbEntity
  8
0
100
AcDbSpline
 62
7
  6
CONTINUOUS
 70
0
 71
3
 72
9
 73
5
 74
3
 42
0.0000001
 43
0.0000001
 44
0.0000000001
 12
-0.3124783914
 22
0.0498631856
 32
0.0
 13
-0.3137403575
 23
0.0411833765
 33
0.0
 40
0.0
 40
0.0
 40
0.0
 40
0.0
 40
0.5356407453
 40
1.0
 40
1.0
 40
1.0
 40
1.0
 10
130.6392869252
 20
39.8712116216
 30
0.0
 10
130.5834948724
 20
39.8801145396
 30
0.0
 10
130.4792877983
 20
39.8963880369
 30
0.0
 10
130.3751378618
 20
39.9132001478
 30
0.0
 10
130.3265751156
 20
39.9195747752
 30
0.0
 11
130.6392869252
 21
39.8712116216
 31
0.0
 11
130.4718761561
 21
39.8977025702
 31
0.0
 11
130.3265751156
 21
39.9195747752
 31
0.0
  0
SPLINE
  5
29C
100
AcDbEntity
  8
0
100
AcDbSpline
 62
7
  6
CONTINUOUS
 70
0
 71
3
 72
14
 73
10
 74
8
 42
0.0000001
 43
0.0000001
 44
0.0000000001
 12
-0.0557916431
 22
0.0411127133
 32
0.0
 13
0.0693034095
 23
-0.0000081208
 33
0.0
 40
0.0
 40
0.0
 40
0.0
 40
0.0
 40
0.173156831
 40
0.2850003788
 40
0.36025339
 40
0.4328675005
 40
0.5290333068
 40
0.6561616729
 40
1.0
 40
1.0
 40
1.0
 40
1.0
 10
130.3265761454
 20
39.9195766923
 30
0.0
 10
130.3233559107
 20
39.9219496747
 30
0.0
 10
130.3182733127
 20
39.9261662296
 30
0.0
 10
130.3130517304
 20
39.9328312218
 30
0.0
 10
130.3121797877
 20
39.9392953491
 30
0.0
 10
130.3161109278
 20
39.9439538136
 30
0.0
 10
130.3224694017
 20
39.9466433611
 30
0.0
 10
130.3353080168
 20
39.9494440614
 30
0.0
 10
130.346260387
 20
39.9497569974
 30
0.0
 10
130.3542034431
 20
39.9497560667
 30
0.0
 11
130.3265761454
 21
39.9195766923
 31
0.0
 11
130.3175311987
 21
39.9274632348
 31
0.0
 11
130.313265971
 21
39.9339353281
 31
0.0
 11
130.3129164529
 21
39.9391388932
 31
0.0
 11
130.3158995741
 21
39.9431918049
 31
0.0
 11
130.3218516974
 21
39.9461900318
 31
0.0
 11
130.3304233702
 21
39.9482272088
 31
0.0
 11
130.3542034431
 21
39.9497560667
 31
0.0
  0
SPLINE
  5
29D
100
AcDbEntity
  8
0
100
AcDbSpline
 62
7
  6
CONTINUOUS
 70
0
 71
3
 72
11
 73
7
 74
5
 42
0.0000001
 43
0.0000001
 44
0.0000000001
 12
2.4325713659
 22
-2.4325713659
 32
0.0
 13
3.3766139108
 23
-0.6582441783
 33
0.0
 40
0.0
 40
0.0
 40
0.0
 40
0.0
 40
0.2721166924
 40
0.5297678632
 40
0.7718070441
 40
1.0
 40
1.0
 40
1.0
 40
1.0
 10
91.0013861817
 20
54.4997560667
 30
0.0
 10
91.2220339398
 20
54.2791083087
 30
0.0
 10
91.667024416
 20
53.8643616611
 30
0.0
 10
92.3733775158
 20
53.3276566774
 30
0.0
 10
93.1050343562
 20
52.9188479754
 30
0.0
 10
93.6225421825
 20
52.7498249616
 30
0.0
 10
93.8793820189
 20
52.6997560667
 30
0.0
 11
91.0013861817
 21
54.4997560667
 31
0.0
 11
91.6896890035
 21
53.8652664909
 31
0.0
 11
92.3996207796
 21
53.3345686637
 31
0.0
 11
93.1308316914
 21
52.9362613929
 31
0.0
 11
93.8793820189
 21
52.6997560667
 31
0.0
  0
LINE
  5
29E
100
AcDbEntity
  8
0
100
AcDbLine
 62
7
  6
CONTINUOUS
 10
155.783942749
 20
30.6833278757
 11
155.7562295573
 21
30.0737326169
  0
LINE
  5
29F
100
AcDbEntity
  8
0
100
AcDbLine
 62
7
  6
CONTINUOUS
 10
79.3860131543
 20
39.9195116898
 11
79.3710744407
 21
39.9142332832
  0
SPLINE
  5
2A0
100
AcDbEntity
  8
0
100
AcDbSpline
 62
7
  6
CONTINUOUS
 70
0
 71
3
 72
9
 73
5
 74
3
 42
0.0000001
 43
0.0000001
 44
0.0000000001
 12
-9.0240575613
 22
-3.3813764037
 32
0.0
 13
-9.2162614049
 23
-2.8156432605
 33
0.0
 40
0.0
 40
0.0
 40
0.0
 40
0.0
 40
0.5288568821
 40
1.0
 40
1.0
 40
1.0
 40
1.0
 10
67.3563861817
 20
35.9805123628
 30
0.0
 10
65.765574533
 20
35.3844243021
 30
0.0
 10
62.7333468761
 20
34.3214588894
 30
0.0
 10
59.6715698609
 20
33.3488601311
 30
0.0
 10
58.2241771497
 20
32.9066698162
 30
0.0
 11
67.3563861817
 21
35.9805123628
 31
0.0
 11
62.5500809557
 21
34.2853857678
 31
0.0
 11
58.2241771497
 21
32.9066698162
 31
0.0
  0
SPLINE
  5
2A1
100
AcDbEntity
  8
0
100
AcDbSpline
 62
7
  6
CONTINUOUS
 70
0
 71
3
 72
12
 73
8
 74
6
 42
0.0000001
 43
0.0000001
 44
0.0000000001
 12
0.1302148341
 22
-0.3213630811
 32
0.0
 13
0.3205830786
 23
-0.1321235128
 33
0.0
 40
0.0
 40
0.0
 40
0.0
 40
0.0
 40
0.3686692142
 40
0.6724085237
 40
0.8868043594
 40
0.9561098039
 40
1.0
 40
1.0
 40
1.0
 40
1.0
 10
67.3563861817
 20
35.9805122714
 30
0.0
 10
67.3723882486
 20
35.9410200466
 30
0.0
 10
67.4027970368
 20
35.869407531
 30
0.0
 10
67.4473288612
 20
35.7772552973
 30
0.0
 10
67.4809629972
 20
35.7177311559
 30
0.0
 10
67.504209492
 20
35.6880982276
 30
0.0
 10
67.5142228916
 20
35.679009139
 30
0.0
 10
67.518913043
 20
35.6770761634
 30
0.0
 11
67.3563861817
 21
35.9805122714
 31
0.0
 11
67.4067425392
 21
35.863015229
 31
0.0
 11
67.4530687386
 21
35.7684318111
 31
0.0
 11
67.4914909379
 21
35.7047907732
 31
0.0
 11
67.5067555488
 21
35.6862304285
 31
0.0
 11
67.518913043
 21
35.6770761634
 31
0.0
  0
SPLINE
  5
2A2
100
AcDbEntity
  8
0
100
AcDbSpline
 62
7
  6
CONTINUOUS
 70
0
 71
3
 72
9
 73
5
 74
3
 42
0.0000001
 43
0.0000001
 44
0.0000000001
 12
-9.3597091034
 22
-3.3732802438
 32
0.0
 13
-9.5405728579
 23
-2.8214612607
 33
0.0
 40
0.0
 40
0.0
 40
0.0
 40
0.0
 40
0.5291476545
 40
1.0
 40
1.0
 40
1.0
 40
1.0
 10
67.518913061
 20
35.6770761113
 30
0.0
 10
65.8680236881
 20
35.082088335
 30
0.0
 10
62.7255139521
 20
34.0199549941
 30
0.0
 10
59.5551152461
 20
33.0460641155
 30
0.0
 10
58.0577148769
 20
32.6032335647
 30
0.0
 11
67.518913061
 21
35.6770761113
 31
0.0
 11
62.5345115415
 21
33.9827452487
 31
0.0
 11
58.0577148769
 21
32.6032335647
 31
0.0
  0
SPLINE
  5
2A3
100
AcDbEntity
  8
0
100
AcDbSpline
 62
7
  6
CONTINUOUS
 70
0
 71
3
 72
9
 73
5
 74
3
 42
0.0000001
 43
0.0000001
 44
0.0000000001
 12
-0.0255597996
 22
-0.3575842246
 32
0.0
 13
-0.3267231654
 23
-0.1475525473
 33
0.0
 40
0.0
 40
0.0
 40
0.0
 40
0.0
 40
0.5530707681
 40
1.0
 40
1.0
 40
1.0
 40
1.0
 10
58.2241772465
 20
32.906669768
 30
0.0
 10
58.2194651205
 20
32.8407466408
 30
0.0
 10
58.1938092187
 20
32.7204178446
 30
0.0
 10
58.1063889104
 20
32.6252154443
 30
0.0
 10
58.0577148659
 20
32.6032335954
 30
0.0
 11
58.2241772465
 21
32.906669768
 31
0.0
 11
58.1721931159
 21
32.7153318061
 31
0.0
 11
58.0577148659
 21
32.6032335954
 31
0.0
  0
SPLINE
  5
2A4
100
AcDbEntity
  8
0
100
AcDbSpline
 62
7
  6
CONTINUOUS
 70
0
 71
3
 72
19
 73
15
 74
13
 42
0.0000001
 43
0.0000001
 44
0.0000000001
 12
-3.4715492563
 22
-1.2672279757
 32
0.0
 13
-3.0940347517
 23
-2.0210071588
 33
0.0
 40
0.0
 40
0.0
 40
0.0
 40
0.0
 40
0.1717441475
 40
0.3316687373
 40
0.4788628477
 40
0.6126099085
 40
0.7322813353
 40
0.7865115154
 40
0.8369154599
 40
0.8835550661
 40
0.9258547825
 40
0.9450080384
 40
0.9630526562
 40
1.0
 40
1.0
 40
1.0
 40
1.0
 10
57.8516740005
 20
32.7819226408
 30
0.0
 10
57.652934578
 20
32.7093763114
 30
0.0
 10
57.2684891398
 20
32.5710365986
 30
0.0
 10
56.712059799
 20
32.3751605522
 30
0.0
 10
56.1989281297
 20
32.1972741267
 30
0.0
 10
55.7320626065
 20
32.0373324896
 30
0.0
 10
55.3737893652
 20
31.9137650681
 30
0.0
 10
55.1123675326
 20
31.8242758233
 30
0.0
 10
54.9359427521
 20
31.7642650764
 30
0.0
 10
54.7738551275
 20
31.7077771927
 30
0.0
 10
54.6480070502
 20
31.6642312348
 30
0.0
 10
54.5540091696
 20
31.6365446062
 30
0.0
 10
54.4658128205
 20
31.6133502753
 30
0.0
 10
54.4020781287
 20
31.5871265946
 30
0.0
 10
54.3639726735
 20
31.5622363125
 30
0.0
 11
57.8516740005
 21
32.7819226408
 31
0.0
 11
57.2545348195
 21
32.5668232448
 31
0.0
 11
56.6971058746
 21
32.3704154729
 31
0.0
 11
56.1831642027
 21
32.1921761473
 31
0.0
 11
55.7157174514
 21
32.03154289
 31
0.0
 11
55.2975038889
 21
31.8877020273
 31
0.0
 11
55.1078859615
 21
31.8228127769
 31
0.0
 11
54.9316320414
 21
31.7625444217
 31
0.0
 11
54.7687815051
 21
31.7060797024
 31
0.0
 11
54.6205304249
 21
31.6564958822
 31
0.0
 11
54.5526282062
 21
31.6365080809
 31
0.0
 11
54.4884785159
 21
31.6182921947
 31
0.0
 11
54.3639726735
 21
31.5622363125
 31
0.0
  0
SPLINE
  5
2A5
100
AcDbEntity
  8
0
100
AcDbSpline
 62
7
  6
CONTINUOUS
 70
0
 71
3
 72
9
 73
5
 74
3
 42
0.0000001
 43
0.0000001
 44
0.0000000001
 12
-0.0197597096
 22
-0.3388145584
 32
0.0
 13
-0.299193703
 23
-0.1602151028
 33
0.0
 40
0.0
 40
0.0
 40
0.0
 40
0.0
 40
0.5478996971
 40
1.0
 40
1.0
 40
1.0
 40
1.0
 10
57.8516784979
 20
32.7819260054
 30
0.0
 10
57.8480697183
 20
32.7200472074
 30
0.0
 10
57.8250034001
 20
32.6059629686
 30
0.0
 10
57.7460523383
 20
32.5139767368
 30
0.0
 10
57.700963817
 20
32.4898323047
 30
0.0
 11
57.8516784979
 21
32.7819260054
 31
0.0
 11
57.8060173917
 21
32.6016674585
 31
0.0
 11
57.700963817
 21
32.4898323047
 31
0.0
  0
SPLINE
  5
2A6
100
AcDbEntity
  8
0
100
AcDbSpline
 62
7
  6
CONTINUOUS
 70
0
 71
3
 72
19
 73
15
 74
13
 42
0.0000001
 43
0.0000001
 44
0.0000000001
 12
-3.2801464545
 22
-1.1210110883
 32
0.0
 13
-3.0946311759
 23
-1.561820895
 33
0.0
 40
0.0
 40
0.0
 40
0.0
 40
0.0
 40
0.1727583176
 40
0.3334003537
 40
0.4810824287
 40
0.6150933732
 40
0.7347332228
 40
0.788815343
 40
0.8389820944
 40
0.8852952284
 40
0.9272128328
 40
0.9461986754
 40
0.964066682
 40
1.0
 40
1.0
 40
1.0
 40
1.0
 10
57.700963817
 20
32.4898323047
 30
0.0
 10
57.5120729561
 20
32.4252776415
 30
0.0
 10
57.1461528639
 20
32.3047175876
 30
0.0
 10
56.6149261717
 20
32.140932378
 30
0.0
 10
56.1240836246
 20
31.9983598706
 30
0.0
 10
55.6768193475
 20
31.8758547091
 30
0.0
 10
55.3329248722
 20
31.7854055712
 30
0.0
 10
55.0818048211
 20
31.7232352856
 30
0.0
 10
54.9124877912
 20
31.6832487538
 30
0.0
 10
54.7568470897
 20
31.6465750849
 30
0.0
 10
54.6358673092
 20
31.6197195639
 30
0.0
 10
54.5458350731
 20
31.6057543381
 30
0.0
 10
54.462448358
 20
31.5963697908
 30
0.0
 10
54.4008522714
 20
31.5808579415
 30
0.0
 10
54.3637854826
 20
31.5621508059
 30
0.0
 11
57.700963817
 21
32.4898323047
 31
0.0
 11
57.1322556583
 21
32.3022301
 31
0.0
 11
56.6001608765
 21
32.1380378674
 31
0.0
 11
56.1085428216
 21
31.9952752249
 31
0.0
 11
55.660586698
 21
31.8722698139
 31
0.0
 11
55.2593240763
 21
31.767474623
 31
0.0
 11
55.0773308021
 21
31.7224875939
 31
0.0
 11
54.9081534849
 21
31.6822407941
 31
0.0
 11
54.7518121109
 21
31.6457630338
 31
0.0
 11
54.6095710007
 21
31.6160872287
 31
0.0
 11
54.5445313343
 21
31.6060291279
 31
0.0
 11
54.483148821
 21
31.5977531543
 31
0.0
 11
54.3637854826
 21
31.5621508059
 31
0.0
  0
SPLINE
  5
2A7
100
AcDbEntity
  8
0
100
AcDbSpline
 62
7
  6
CONTINUOUS
 70
0
 71
3
 72
10
 73
6
 74
4
 42
0.0000001
 43
0.0000001
 44
0.0000000001
 12
2.8018046742
 22
0.9624227788
 32
0.0
 13
2.0947991595
 23
2.0947991595
 33
0.0
 40
0.0
 40
0.0
 40
0.0
 40
0.0
 40
0.4742355379
 40
0.731218626
 40
1.0
 40
1.0
 40
1.0
 40
1.0
 10
95.5140593715
 20
52.82354817
 30
0.0
 10
95.9569644871
 20
52.9756865314
 30
0.0
 10
96.5958485414
 20
53.3394134141
 30
0.0
 10
97.3667818911
 20
53.9556271399
 30
0.0
 10
97.7454262789
 20
54.3120750679
 30
0.0
 10
97.9331072777
 20
54.4997560667
 30
0.0
 11
95.5140593715
 21
52.82354817
 31
0.0
 11
96.7540520232
 21
53.4840157512
 31
0.0
 11
97.3513110059
 21
53.9561128663
 31
0.0
 11
97.9331072777
 21
54.4997560667
 31
0.0
  0
LINE
  5
2A8
100
AcDbEntity
  8
0
100
AcDbLine
 62
7
  6
CONTINUOUS
 10
54.3639726735
 20
31.5622363125
 11
54.2108320816
 21
32.1729309808
  0
SPLINE
  5
2A9
100
AcDbEntity
  8
0
100
AcDbSpline
 62
7
  6
CONTINUOUS
 70
0
 71
3
 72
9
 73
5
 74
3
 42
0.0000001
 43
0.0000001
 44
0.0000000001
 12
0.0946345456
 22
1.5493167661
 32
0.0
 13
0.6975788399
 23
1.3866224797
 33
0.0
 40
0.0
 40
0.0
 40
0.0
 40
0.0
 40
0.4961082899
 40
1.0
 40
1.0
 40
1.0
 40
1.0
 10
53.9565410714
 20
30.0737326776
 30
0.0
 10
53.9721907322
 20
30.329942308
 30
0.0
 10
54.0580020567
 20
30.8444110226
 30
0.0
 10
54.2463194132
 20
31.3304610945
 30
0.0
 10
54.3634874781
 20
31.5633636187
 30
0.0
 11
53.9565410714
 21
30.0737326776
 31
0.0
 11
54.0825632879
 21
30.8334122025
 31
0.0
 11
54.3634874781
 21
31.5633636187
 31
0.0
  0
LINE
  5
2AA
100
AcDbEntity
  8
0
100
AcDbLine
 62
7
  6
CONTINUOUS
 10
53.9565428061
 20
30.0737326169
 11
53.9288296434
 21
30.6833285717
  0
SPLINE
  5
2AB
100
AcDbEntity
  8
0
100
AcDbSpline
 62
7
  6
CONTINUOUS
 70
0
 71
3
 72
11
 73
7
 74
5
 42
0.0000001
 43
0.0000001
 44
0.0000000001
 12
0.1910620329
 22
5.5710842317
 32
0.0
 13
5.0968383589
 23
2.2573708072
 33
0.0
 40
0.0
 40
0.0
 40
0.0
 40
0.0
 40
0.2514562483
 40
0.5021443929
 40
0.7516720547
 40
1.0
 40
1.0
 40
1.0
 40
1.0
 10
54.7521171408
 20
28.0792679443
 30
0.0
 10
54.7681317215
 20
28.5462292577
 30
0.0
 10
54.9301164591
 20
29.4794046802
 30
0.0
 10
55.5450002025
 20
30.7529339956
 30
0.0
 10
56.4824610036
 20
31.8043120264
 30
0.0
 10
57.279056358
 20
32.3029678052
 30
0.0
 10
57.7009521571
 20
32.48982389
 30
0.0
 11
54.7521171408
 21
28.0792679443
 31
0.0
 11
54.9927496735
 21
29.4601662023
 31
0.0
 11
55.6005200297
 21
30.7185040733
 31
0.0
 11
56.5274451174
 21
31.7556014554
 31
0.0
 11
57.7009521571
 21
32.48982389
 31
0.0
  0
SPLINE
  5
2AC
100
AcDbEntity
  8
0
100
AcDbSpline
 62
7
  6
CONTINUOUS
 70
0
 71
3
 72
14
 73
10
 74
8
 42
0.0000001
 43
0.0000001
 44
0.0000000001
 12
-2.3088158098
 22
0.0001407477
 32
0.0
 13
-0.1085203213
 23
2.3062640359
 33
0.0
 40
0.0
 40
0.0
 40
0.0
 40
0.0
 40
0.0762492163
 40
0.1554026544
 40
0.2470125813
 40
0.3566357186
 40
0.4867761007
 40
0.6381012634
 40
1.0
 40
1.0
 40
1.0
 40
1.0
 10
54.7521171408
 20
28.0792679443
 30
0.0
 10
54.6934353421
 20
28.0792715216
 30
0.0
 10
54.5720698886
 20
28.1030783679
 30
0.0
 10
54.4133424957
 20
28.2154220487
 30
0.0
 10
54.283659248
 20
28.3908831369
 30
0.0
 10
54.1777852463
 20
28.6241796483
 30
0.0
 10
54.0928797348
 20
28.9136519984
 30
0.0
 10
54.001020491
 20
29.40070988
 30
0.0
 10
53.9696339285
 20
29.79552127
 30
0.0
 10
53.9565428061
 20
30.0737326169
 30
0.0
 11
54.7521171408
 21
28.0792679443
 31
0.0
 11
54.5795153187
 21
28.1139175122
 31
0.0
 11
54.4279536981
 21
28.216029691
 31
0.0
 11
54.297955073
 21
28.3828740109
 31
0.0
 11
54.1894729348
 21
28.6115463746
 31
0.0
 11
54.1019510416
 21
28.8989872252
 31
0.0
 11
54.0347280217
 21
29.2418411266
 31
0.0
 11
53.9565428061
 21
30.0737326169
 31
0.0
  0
SPLINE
  5
2AD
100
AcDbEntity
  8
0
100
AcDbSpline
 62
7
  6
CONTINUOUS
 70
0
 71
3
 72
14
 73
10
 74
8
 42
0.0000001
 43
0.0000001
 44
0.0000000001
 12
0.0692959191
 22
0.0000626257
 32
0.0
 13
-0.0557340746
 23
-0.0411781649
 33
0.0
 40
0.0
 40
0.0
 40
0.0
 40
0.0
 40
0.3418072028
 40
0.4682041531
 40
0.5646939378
 40
0.6373915842
 40
0.7129186037
 40
0.8264524335
 40
1.0
 40
1.0
 40
1.0
 40
1.0
 10
79.3587704273
 20
39.9497560667
 30
0.0
 10
79.3666657088
 20
39.949763202
 30
0.0
 10
79.377554558
 20
39.9494287732
 30
0.0
 10
79.3903256573
 20
39.946568779
 30
0.0
 10
79.3966706015
 20
39.9439197843
 30
0.0
 10
79.4006954093
 20
39.9392869596
 30
0.0
 10
79.3996912488
 20
39.9327586068
 30
0.0
 10
79.3943451498
 20
39.9261516768
 30
0.0
 10
79.3892373253
 20
39.9218938132
 30
0.0
 10
79.3860131543
 20
39.9195116898
 30
0.0
 11
79.3587704273
 21
39.9497560667
 31
0.0
 11
79.3824044083
 21
39.9481893436
 31
0.0
 11
79.3909195919
 21
39.9461379626
 31
0.0
 11
79.3969051361
 21
39.9431579374
 31
0.0
 11
79.3999256789
 21
39.9391262799
 31
0.0
 11
79.3995079584
 21
39.93390926
 31
0.0
 11
79.3950930684
 21
39.9273973272
 31
0.0
 11
79.3860131543
 21
39.9195116898
 31
0.0
  0
SPLINE
  5
2AE
100
AcDbEntity
  8
0
100
AcDbSpline
 62
7
  6
CONTINUOUS
 70
0
 71
3
 72
11
 73
7
 74
5
 42
0.0000001
 43
0.0000001
 44
0.0000000001
 12
-0.1910604215
 22
5.5710857528
 32
0.0
 13
-5.0968405642
 23
2.2573694455
 33
0.0
 40
0.0
 40
0.0
 40
0.0
 40
0.0
 40
0.2514562032
 40
0.5021443174
 40
0.751671983
 40
1.0
 40
1.0
 40
1.0
 40
1.0
 10
154.9606552226
 20
28.0792679443
 30
0.0
 10
154.9446407799
 20
28.5462293012
 30
0.0
 10
154.7826562029
 20
29.4794048821
 30
0.0
 10
154.1677723095
 20
30.7529344169
 30
0.0
 10
153.2303109624
 20
31.8043126021
 30
0.0
 10
152.4337150784
 20
32.3029682908
 30
0.0
 10
152.0118189751
 20
32.4898243168
 30
0.0
 11
154.9606552226
 21
28.0792679443
 31
0.0
 11
154.7200229374
 21
29.4601663637
 31
0.0
 11
154.1122524731
 21
30.7185044022
 31
0.0
 11
153.1853269169
 21
31.7556018854
 31
0.0
 11
152.0118189751
 21
32.4898243168
 31
0.0
  0
SPLINE
  5
2AF
100
AcDbEntity
  8
0
100
AcDbSpline
 62
7
  6
CONTINUOUS
 70
0
 71
3
 72
9
 73
5
 74
3
 42
0.0000001
 43
0.0000001
 44
0.0000000001
 12
-0.0946657221
 22
1.5492015099
 32
0.0
 13
-0.6976595239
 23
1.3864552304
 33
0.0
 40
0.0
 40
0.0
 40
0.0
 40
0.0
 40
0.4961035021
 40
1.0
 40
1.0
 40
1.0
 40
1.0
 10
155.7559091138
 20
30.073721514
 30
0.0
 10
155.7402544484
 20
30.3299096122
 30
0.0
 10
155.6544238619
 20
30.8443383042
 30
0.0
 10
155.466079044
 20
31.3303381367
 30
0.0
 10
155.3488963137
 20
31.5632147817
 30
0.0
 11
155.7559091138
 21
30.073721514
 31
0.0
 11
155.6298620715
 21
30.8333324901
 31
0.0
 11
155.3488963137
 21
31.5632147817
 31
0.0
  0
SPLINE
  5
2B0
100
AcDbEntity
  8
0
100
AcDbSpline
 62
7
  6
CONTINUOUS
 70
0
 71
3
 72
9
 73
5
 74
3
 42
0.0000001
 43
0.0000001
 44
0.0000000001
 12
-0.3141313046
 22
-0.0412685455
 32
0.0
 13
-0.3128730689
 23
-0.0499200573
 33
0.0
 40
0.0
 40
0.0
 40
0.0
 40
0.0
 40
0.4642563956
 40
1.0
 40
1.0
 40
1.0
 40
1.0
 10
79.38601004
 20
39.9195235825
 30
0.0
 10
79.3373975509
 20
39.9131371871
 30
0.0
 10
79.2331150524
 20
39.8963141581
 30
0.0
 10
79.128773711
 20
39.8800382484
 30
0.0
 10
79.0729004625
 20
39.8711234646
 30
0.0
 11
79.38601004
 21
39.9195235825
 31
0.0
 11
79.2405572345
 21
39.8976347123
 31
0.0
 11
79.0729004625
 21
39.8711234646
 31
0.0
  0
ENDSEC
  0
SECTION
  2
OBJECTS
  0
DICTIONARY
  5
2B1
100
AcDbDictionary
  3
ACAD_GROUP
350
2B2
  3
ACAD_MLINESTYLE
350
2B3
  0
DICTIONARY
  5
2B2
102
{ACAD_REACTORS
330
2B1
102
}
100
AcDbDictionary
  0
DICTIONARY
  5
2B3
102
{ACAD_REACTORS
330
2B1
102
}
100
AcDbDictionary
  3
STANDARD
350
2B4
  0
MLINESTYLE
  5
2B4
102
{ACAD_REACTORS
330
2B3
102
}
100
AcDbMlineStyle
  2
STANDARD
 70
0
  3

 62
256
 51
90.0
 52
90.0
 71
2
 49
0.5
 62
256
  6
BYLAYER
 49
-0.5
 62
256
  6
BYLAYER
  0
ENDSEC
  0
EOF
