0
SECTION
2
HEADER
9
$ACADVER
1
AC1015
9
$DWGCODEPAGE
3
ANSI_1252
9
$EXTMAX
10
210.0000000000
20
297.0000000000
30
0.0000000000
9
$EXTMIN
10
0.0000000000
20
0.0000000000
30
0.0000000000
9
$LIMMIN
10
0.0000000000
20
0.0000000000
9
$LIMMAX
10
210.0000000000
20
297.0000000000
9
$VIEWCTR
10
105.0000000000
20
148.5000000000
9
$VIEWSIZE
40
297.0000000000
9
$CLAYER
8
0
9
$LTSCALE
40
19.3600000000
9
$CELTYPE
6
BYLAYER
9
$DIMSCALE
40
1
9
$DIMASZ
40
3.5000000000
9
$DIMEXO
40
2.2000000000
9
$DIMDLI
40
13.3760000000
9
$DIMEXE
40
6.3360000000
9
$DIMCEN
40
3.1680000000
9
$DIMLFAC
40
1.0000000000
9
$DIMBLK
1
_FILLED
9
$DIMTXT
40
3.5000000000
9
$DIMTOL
70
1
9
$DIMLIM
70
0
9
$DIMTFAC
40
1.0000000000
9
$DIMTP
40
0.0010000000
9
$DIMTM
40
0.0010000000
9
$PDMODE
70
3
9
$PDSIZE
40
0.3125000000
9
$HANDSEED
5
2AA
9
$MEASUREMENT
70
1
9
$INSUNITS
70
4
0
ENDSEC
0
SECTION
2
CLASSES
0
CLASS
1
ACDBDICTIONARYWDFLT
2
AcDbDictionaryWithDefault
3
AutoCAD 2000
90
0
280
0
281
0
0
CLASS
1
ACDBPLACEHOLDER
2
AcDbPlaceHolder
3
AutoCAD 2000
90
0
280
0
281
0
0
CLASS
1
LAYOUT
2
AcDbLayout
3
AutoCAD 2000
90
0
280
0
281
0
0
ENDSEC
0
SECTION
2
TABLES
0
TABLE
2
VPORT
5
8
100
AcDbSymbolTable
70
2
0
VPORT
5
1F4
100
AcDbSymbolTableRecord
100
AcDbViewportTableRecord
2
*ACTIVE
70
0
10
0.0
20
0.0
11
1.0
21
1.0
12
105.0000000000
22
148.5000000000
13
0.0
23
0.0
14
1.0
24
1.0
15
0.0
25
0.0
16
0.0
26
0.0
36
1.0
17
0.0
27
0.0
37
0.0
40
297.0000000000
41
0.7070707071
42
50.0
43
0.0
44
0.0
50
0.0
51
0.0
71
0
72
100
73
1
74
1
75
0
76
0
77
0
78
0
0
ENDTAB
0
TABLE
2
LTYPE
5
5
100
AcDbSymbolTable
70
6
0
LTYPE
5
14
100
AcDbSymbolTableRecord
100
AcDbLinetypeTableRecord
2
BYBLOCK
70
0
3

72
65
73
0
40
0.0
0
LTYPE
5
15
100
AcDbSymbolTableRecord
100
AcDbLinetypeTableRecord
2
BYLAYER
70
0
3

72
65
73
0
40
0.0
0
LTYPE
5
16
100
AcDbSymbolTableRecord
100
AcDbLinetypeTableRecord
2
CONTINUOUS
70
64
3
Solid line
72
65
73
0
40
0
0
LTYPE
5
1F5
100
AcDbSymbolTableRecord
100
AcDbLinetypeTableRecord
2
CENTER
70
64
3
____ _ ____ _ ____ _ ____ _ ____ _ ____ _ ____
72
65
73
4
40
0.6
49
0.375
74
0
49
-0.075
74
0
49
0.075
74
0
49
-0.075
74
0
0
LTYPE
5
1F6
100
AcDbSymbolTableRecord
100
AcDbLinetypeTableRecord
2
HIDDEN
70
64
3
- - - - - - - - - - - - - - - - - - - -
72
65
73
2
40
0.2
49
0.1
74
0
49
-0.1
74
0
0
LTYPE
5
1F7
100
AcDbSymbolTableRecord
100
AcDbLinetypeTableRecord
2
PHANTOM
70
64
3
_____ _ _ _____ _ _ _____ _ _ _____
72
65
73
6
40
0.8
49
0.45
74
0
49
-0.05
74
0
49
0.1
74
0
49
-0.05
74
0
49
0.1
74
0
49
-0.05
74
0
0
LTYPE
5
1F8
100
AcDbSymbolTableRecord
100
AcDbLinetypeTableRecord
2
DOT
70
64
3
. . . . . . . . . . . . . . . . . . . .
72
65
73
2
40
0.2
49
0.1
74
0
49
-0.1
74
0
0
LTYPE
5
1F9
100
AcDbSymbolTableRecord
100
AcDbLinetypeTableRecord
2
DASHED
70
64
3
- - - - - - - - - - - - - - - - - - - -
72
65
73
2
40
0.2
49
0.1
74
0
49
-0.1
74
0
0
ENDTAB
0
TABLE
2
LAYER
5
2
100
AcDbSymbolTable
70
36
0
LAYER
5
10
100
AcDbSymbolTableRecord
100
AcDbLayerTableRecord
2
0
70
0
62
7
6
CONTINUOUS
370
-3
390
F
0
LAYER
5
1FA
100
AcDbSymbolTableRecord
100
AcDbLayerTableRecord
2
DEFAULT_1
70
0
62
7
6
CENTER
370
-3
390
F
0
LAYER
5
1FB
100
AcDbSymbolTableRecord
100
AcDbLayerTableRecord
2
DEFAULT_2
70
0
62
8
6
HIDDEN
370
-3
390
F
0
LAYER
5
1FC
100
AcDbSymbolTableRecord
100
AcDbLayerTableRecord
2
DEFAULT_3
70
0
62
7
6
PHANTOM
370
-3
390
F
0
LAYER
5
1FD
100
AcDbSymbolTableRecord
100
AcDbLayerTableRecord
2
_2D_DELETED_OBJS
70
0
62
7
6
CONTINUOUS
370
-3
390
F
0
LAYER
5
1FE
100
AcDbSymbolTableRecord
100
AcDbLayerTableRecord
2
ASSI
70
0
62
7
6
CONTINUOUS
370
-3
390
F
0
LAYER
5
1FF
100
AcDbSymbolTableRecord
100
AcDbLayerTableRecord
2
PIANI
70
0
62
7
6
CONTINUOUS
370
-3
390
F
0
ENDTAB
0
TABLE
2
STYLE
5
3
100
AcDbSymbolTable
70
1
0
STYLE
5
11
100
AcDbSymbolTableRecord
100
AcDbTextStyleTableRecord
2
STANDARD
70
0
40
0.0
41
0.7143000000
50
0.0
71
0
42
0.2
3
txt
4

0
ENDTAB
0
TABLE
2
VIEW
5
6
100
AcDbSymbolTable
70
0
0
ENDTAB
0
TABLE
2
UCS
5
7
100
AcDbSymbolTable
70
0
0
ENDTAB
0
TABLE
2
APPID
5
9
100
AcDbSymbolTable
70
1
0
APPID
5
200
100
AcDbSymbolTableRecord
100
AcDbRegAppTableRecord
2
ACAD
70
0
0
ENDTAB
0
TABLE
2
BLOCK_RECORD
5
1
100
AcDbSymbolTable
70
0
0
BLOCK_RECORD
5
1F
100
AcDbSymbolTableRecord
100
AcDbBlockTableRecord
2
*MODEL_SPACE
0
BLOCK_RECORD
5
1B
100
AcDbSymbolTableRecord
100
AcDbBlockTableRecord
2
*PAPER_SPACE
0
BLOCK_RECORD
5
201
100
AcDbSymbolTableRecord
100
AcDbBlockTableRecord
2
_FILLED
0
BLOCK_RECORD
5
202
100
AcDbSymbolTableRecord
100
AcDbBlockTableRecord
2
*D0
0
BLOCK_RECORD
5
203
100
AcDbSymbolTableRecord
100
AcDbBlockTableRecord
2
*D1
0
BLOCK_RECORD
5
204
100
AcDbSymbolTableRecord
100
AcDbBlockTableRecord
2
*D2
0
BLOCK_RECORD
5
205
100
AcDbSymbolTableRecord
100
AcDbBlockTableRecord
2
*D3
0
BLOCK_RECORD
5
206
100
AcDbSymbolTableRecord
100
AcDbBlockTableRecord
2
*D4
0
BLOCK_RECORD
5
207
100
AcDbSymbolTableRecord
100
AcDbBlockTableRecord
2
*D5
0
ENDTAB
0
TABLE
2
DIMSTYLE
5
A
100
AcDbSymbolTable
70
1
100
AcDbDimStyleTable
71
0
0
DIMSTYLE
105
208
100
AcDbSymbolTableRecord
100
AcDbDimStyleTableRecord
2
STANDARD
70
0
3

4

40
1.0
41
3.5000000000
42
0.0625
43
0.38
44
0.18
45
0.0
46
0.0
47
0.0010000000
48
0.0010000000
140
3.5000000000
141
0.09
142
0.0
143
25.4
144
1.0000000000
145
0.0
146
1.0000000000
147
0.09
71
1
72
0
73
0
74
0
75
0
76
0
77
1
78
8
170
0
171
2
172
0
173
0
174
0
175
0
176
0
177
0
178
0
270
2
271
3
272
3
273
2
274
2
275
0
280
0
281
0
282
0
283
1
284
8
285
0
286
0
287
3
288
0
340
11
341
201
342
201
343
201
344
201
0
DIMSTYLE
105
209
100
AcDbSymbolTableRecord
100
AcDbDimStyleTableRecord
2
DIMSTYLE_1
70
0
3

4

40
1.0
41
3.5000000000
42
0.0625
43
0.38
44
0.18
45
0.0
46
0.0
47
0.1500000000
48
0.1500000000
140
3.5000000000
141
0.09
142
0.0
143
25.4
144
1.0000000000
145
0.0
146
1.0000000000
147
0.09
71
0
72
0
73
0
74
0
75
0
76
0
77
1
78
8
170
0
171
2
172
0
173
0
174
0
175
0
176
0
177
0
178
0
270
2
271
3
272
3
273
2
274
2
275
0
280
0
281
0
282
0
283
1
284
8
285
0
286
0
287
3
288
0
340
11
341
201
342
201
343
201
344
201
0
DIMSTYLE
105
20A
100
AcDbSymbolTableRecord
100
AcDbDimStyleTableRecord
2
DIMSTYLE_2
70
0
3

4

40
1.0
41
3.5000000000
42
0.0625
43
0.38
44
0.18
45
0.0
46
0.0
47
0.1500000000
48
0.1500000000
140
3.5000000000
141
0.09
142
0.0
143
25.4
144
1.0000000000
145
0.0
146
1.0000000000
147
0.09
71
0
72
0
73
0
74
0
75
0
76
0
77
1
78
8
170
0
171
2
172
0
173
0
174
0
175
0
176
0
177
0
178
0
270
2
271
1
272
1
273
2
274
2
275
0
280
0
281
0
282
0
283
1
284
8
285
0
286
0
287
3
288
0
340
11
341
201
342
201
343
201
344
201
0
DIMSTYLE
105
20B
100
AcDbSymbolTableRecord
100
AcDbDimStyleTableRecord
2
DIMSTYLE_3
70
0
3

4

40
1.0
41
3.5000000000
42
0.0625
43
0.38
44
0.18
45
0.0
46
0.0
47
0.2000000000
48
0.2000000000
140
3.5000000000
141
0.09
142
0.0
143
25.4
144
1.0000000000
145
0.0
146
1.0000000000
147
0.09
71
0
72
0
73
0
74
0
75
0
76
0
77
1
78
8
170
0
171
2
172
0
173
0
174
0
175
0
176
0
177
0
178
0
270
2
271
3
272
3
273
2
274
2
275
0
280
0
281
0
282
0
283
1
284
8
285
0
286
0
287
3
288
0
340
11
341
201
342
201
343
201
344
201
0
DIMSTYLE
105
20C
100
AcDbSymbolTableRecord
100
AcDbDimStyleTableRecord
2
DIMSTYLE_4
70
0
3

4

40
1.0
41
3.5000000000
42
0.0625
43
0.38
44
0.18
45
0.0
46
0.0
47
0.1000000000
48
0.1000000000
140
3.5000000000
141
0.09
142
0.0
143
25.4
144
1.0000000000
145
0.0
146
1.0000000000
147
0.09
71
0
72
0
73
0
74
0
75
0
76
0
77
1
78
8
170
0
171
2
172
0
173
0
174
0
175
0
176
0
177
0
178
0
270
2
271
3
272
3
273
2
274
2
275
0
280
0
281
0
282
0
283
1
284
8
285
0
286
0
287
3
288
0
340
11
341
201
342
201
343
201
344
201
0
ENDTAB
0
ENDSEC
0
SECTION
2
BLOCKS
0
BLOCK
5
20
100
AcDbEntity
8
0
100
AcDbBlockBegin
2
*MODEL_SPACE
70
0
10
0.0
20
0.0
30
0.0
3
*MODEL_SPACE
1

0
ENDBLK
5
21
100
AcDbEntity
8
0
100
AcDbBlockEnd
0
BLOCK
5
1C
100
AcDbEntity
8
0
100
AcDbBlockBegin
2
*PAPER_SPACE
70
0
10
0.0
20
0.0
30
0.0
3
*PAPER_SPACE
1

0
ENDBLK
5
1D
100
AcDbEntity
8
0
100
AcDbBlockEnd
0
BLOCK
5
20D
100
AcDbEntity
8
0
100
AcDbBlockBegin
62
2
6
CONTINUOUS
2
*D0
70
65
10
0.0000000000
20
0.0000000000
3
*D0
1

0
TEXT
5
20E
100
AcDbEntity
8
0
100
AcDbText
62
2
6
CONTINUOUS
10
104.0887162989
20
88.4722918756
7
STANDARD
40
3.5000000000
1
74
41
0.7143000000
72
0
100
AcDbText
0
LINE
5
20F
100
AcDbEntity
8
0
100
AcDbLine
62
2
6
CONTINUOUS
10
69.5887662989
20
97.9212637914
11
69.5887662989
21
86.0972918756
0
LINE
5
210
100
AcDbEntity
8
0
100
AcDbLine
62
2
6
CONTINUOUS
10
143.5887662989
20
97.9212637914
11
143.5887662989
21
86.0972918756
0
LINE
5
211
100
AcDbEntity
8
0
100
AcDbLine
62
2
6
CONTINUOUS
10
69.5887662989
20
87.5972918756
11
106.5887662989
21
87.5972918756
0
LINE
5
212
100
AcDbEntity
8
0
100
AcDbLine
62
2
6
CONTINUOUS
10
143.5887662989
20
87.5972918756
11
106.5887662989
21
87.5972918756
0
INSERT
5
213
100
AcDbEntity
8
0
100
AcDbBlockReference
62
2
6
CONTINUOUS
2
_FILLED
10
69.5887662989
20
87.5972918756
41
  3.500000
42
  3.500000
43
  3.500000
50
180.000000
0
INSERT
5
214
100
AcDbEntity
8
0
100
AcDbBlockReference
62
2
6
CONTINUOUS
2
_FILLED
10
143.5887662989
20
87.5972918756
41
  3.500000
42
  3.500000
43
  3.500000
0
ENDBLK
5
215
100
AcDbEntity
8
0
6
BYBLOCK
62
0
100
AcDbBlockEnd
0
BLOCK
5
216
100
AcDbEntity
8
0
100
AcDbBlockBegin
62
2
6
CONTINUOUS
2
*D1
70
65
10
0.0000000000
20
0.0000000000
3
*D1
1

0
TEXT
5
217
100
AcDbEntity
8
0
100
AcDbText
62
2
6
CONTINUOUS
10
96.5242339623
20
77.0702864612
7
STANDARD
40
3.5000000000
1
%%c
41
1.3333333333
72
0
100
AcDbText
0
TEXT
5
218
100
AcDbEntity
8
0
100
AcDbText
62
2
6
CONTINUOUS
10
101.1909006290
20
77.0702864612
7
STANDARD
40
3.5000000000
1
102.8
41
0.7143000000
72
0
100
AcDbText
0
LINE
5
219
100
AcDbEntity
8
0
100
AcDbLine
62
2
6
CONTINUOUS
10
157.9765711769
20
101.4090686694
11
157.9765711769
21
74.6952864612
0
LINE
5
21A
100
AcDbEntity
8
0
100
AcDbLine
62
2
6
CONTINUOUS
10
55.2009614208
20
101.4090686694
11
55.2009614208
21
74.6952864612
0
LINE
5
21B
100
AcDbEntity
8
0
100
AcDbLine
62
2
6
CONTINUOUS
10
157.9765711769
20
76.1952864612
11
106.5887662989
21
76.1952864612
0
LINE
5
21C
100
AcDbEntity
8
0
100
AcDbLine
62
2
6
CONTINUOUS
10
55.2009614208
20
76.1952864612
11
106.5887662989
21
76.1952864612
0
INSERT
5
21D
100
AcDbEntity
8
0
100
AcDbBlockReference
62
2
6
CONTINUOUS
2
_FILLED
10
157.9765711769
20
76.1952864612
41
  3.500000
42
  3.500000
43
  3.500000
0
INSERT
5
21E
100
AcDbEntity
8
0
100
AcDbBlockReference
62
2
6
CONTINUOUS
2
_FILLED
10
55.2009614208
20
76.1952864612
41
  3.500000
42
  3.500000
43
  3.500000
50
180.000000
0
ENDBLK
5
21F
100
AcDbEntity
8
0
6
BYBLOCK
62
0
100
AcDbBlockEnd
0
BLOCK
5
220
100
AcDbEntity
8
0
100
AcDbBlockBegin
62
2
6
CONTINUOUS
2
*D2
70
65
10
0.0000000000
20
0.0000000000
3
*D2
1

0
TEXT
5
221
100
AcDbEntity
8
0
100
AcDbText
62
2
6
CONTINUOUS
10
37.5733450351
20
172.8181296138
7
STANDARD
40
3.5000000000
1
151
50
90.0000000000
41
0.7143000000
72
0
100
AcDbText
0
LINE
5
222
100
AcDbEntity
8
0
100
AcDbLine
62
2
6
CONTINUOUS
10
55.1887662989
20
101.4212637914
11
36.9483450351
21
101.4212637914
0
LINE
5
223
100
AcDbEntity
8
0
100
AcDbLine
62
2
6
CONTINUOUS
10
97.5321419719
20
252.4212637914
11
36.9483450351
21
252.4212637914
0
LINE
5
224
100
AcDbEntity
8
0
100
AcDbLine
62
2
6
CONTINUOUS
10
38.4483450351
20
101.4212637914
11
38.4483450351
21
176.9212637914
0
LINE
5
225
100
AcDbEntity
8
0
100
AcDbLine
62
2
6
CONTINUOUS
10
38.4483450351
20
252.4212637914
11
38.4483450351
21
176.9212637914
0
INSERT
5
226
100
AcDbEntity
8
0
100
AcDbBlockReference
62
2
6
CONTINUOUS
2
_FILLED
10
38.4483450351
20
101.4212637914
41
  3.500000
42
  3.500000
43
  3.500000
50
270.000000
0
INSERT
5
227
100
AcDbEntity
8
0
100
AcDbBlockReference
62
2
6
CONTINUOUS
2
_FILLED
10
38.4483450351
20
252.4212637914
41
  3.500000
42
  3.500000
43
  3.500000
50
 90.000000
0
ENDBLK
5
228
100
AcDbEntity
8
0
6
BYBLOCK
62
0
100
AcDbBlockEnd
0
BLOCK
5
229
100
AcDbEntity
8
0
100
AcDbBlockBegin
62
2
6
CONTINUOUS
2
*D3
70
65
10
0.0000000000
20
0.0000000000
3
*D3
1

0
TEXT
5
22A
100
AcDbEntity
8
0
100
AcDbText
62
2
6
CONTINUOUS
10
103.1917504764
20
265.7079989970
7
STANDARD
40
3.5000000000
1
M
41
0.7143000000
72
0
100
AcDbText
0
TEXT
5
22B
100
AcDbEntity
8
0
100
AcDbText
62
2
6
CONTINUOUS
10
105.6918004764
20
265.7079989970
7
STANDARD
40
3.5000000000
1
20
41
0.7143000000
72
0
100
AcDbText
0
LINE
5
22C
100
AcDbEntity
8
0
100
AcDbLine
62
2
6
CONTINUOUS
10
96.5887662989
20
250.4212637914
11
96.5887662989
21
266.3329989970
0
LINE
5
22D
100
AcDbEntity
8
0
100
AcDbLine
62
2
6
CONTINUOUS
10
116.5887662989
20
250.4212637914
11
116.5887662989
21
266.3329989970
0
LINE
5
22E
100
AcDbEntity
8
0
100
AcDbLine
62
2
6
CONTINUOUS
10
96.5887662989
20
264.8329989970
11
106.5887662989
21
264.8329989970
0
LINE
5
22F
100
AcDbEntity
8
0
100
AcDbLine
62
2
6
CONTINUOUS
10
116.5887662989
20
264.8329989970
11
106.5887662989
21
264.8329989970
0
INSERT
5
230
100
AcDbEntity
8
0
100
AcDbBlockReference
62
2
6
CONTINUOUS
2
_FILLED
10
96.5887662989
20
264.8329989970
41
  3.500000
42
  3.500000
43
  3.500000
50
180.000000
0
INSERT
5
231
100
AcDbEntity
8
0
100
AcDbBlockReference
62
2
6
CONTINUOUS
2
_FILLED
10
116.5887662989
20
264.8329989970
41
  3.500000
42
  3.500000
43
  3.500000
0
ENDBLK
5
232
100
AcDbEntity
8
0
6
BYBLOCK
62
0
100
AcDbBlockEnd
0
BLOCK
5
233
100
AcDbEntity
8
0
100
AcDbBlockBegin
62
2
6
CONTINUOUS
2
*D4
70
65
10
0.0000000000
20
0.0000000000
3
*D4
1

0
TEXT
5
234
100
AcDbEntity
8
0
100
AcDbText
62
2
6
CONTINUOUS
10
172.0043615514
20
108.2400486533
7
STANDARD
40
3.5000000000
1
19
50
90.0000000000
41
0.7143000000
72
0
100
AcDbText
0
LINE
5
235
100
AcDbEntity
8
0
100
AcDbLine
62
2
6
CONTINUOUS
10
154.7998254201
20
120.4212637914
11
174.3793615514
21
120.4212637914
0
LINE
5
236
100
AcDbEntity
8
0
100
AcDbLine
62
2
6
CONTINUOUS
10
157.9887662989
20
101.4212637914
11
174.3793615514
21
101.4212637914
0
LINE
5
237
100
AcDbEntity
8
0
100
AcDbLine
62
2
6
CONTINUOUS
10
172.8793615514
20
120.4212637914
11
172.8793615514
21
110.9212637914
0
LINE
5
238
100
AcDbEntity
8
0
100
AcDbLine
62
2
6
CONTINUOUS
10
172.8793615514
20
101.4212637914
11
172.8793615514
21
110.9212637914
0
INSERT
5
239
100
AcDbEntity
8
0
100
AcDbBlockReference
62
2
6
CONTINUOUS
2
_FILLED
10
172.8793615514
20
120.4212637914
41
  3.500000
42
  3.500000
43
  3.500000
50
 90.000000
0
INSERT
5
23A
100
AcDbEntity
8
0
100
AcDbBlockReference
62
2
6
CONTINUOUS
2
_FILLED
10
172.8793615514
20
101.4212637914
41
  3.500000
42
  3.500000
43
  3.500000
50
270.000000
0
ENDBLK
5
23B
100
AcDbEntity
8
0
6
BYBLOCK
62
0
100
AcDbBlockEnd
0
BLOCK
5
23C
100
AcDbEntity
8
0
100
AcDbBlockBegin
62
2
6
CONTINUOUS
2
*D5
70
65
10
0.0000000000
20
0.0000000000
3
*D5
1

0
TEXT
5
23D
100
AcDbEntity
8
0
100
AcDbText
62
2
6
CONTINUOUS
10
73.7194161471
20
194.9284644293
7
STANDARD
40
3.5000000000
1
116.6
50
90.0000000000
41
0.7143000000
72
0
100
AcDbText
0
LINE
5
23E
100
AcDbEntity
8
0
100
AcDbLine
62
2
6
CONTINUOUS
10
97.5321419719
20
252.4212637914
11
73.0944161471
21
252.4212637914
0
LINE
5
23F
100
AcDbEntity
8
0
100
AcDbLine
62
2
6
CONTINUOUS
10
96.0887662989
20
135.8164543198
11
73.0944161471
21
135.8164543198
0
LINE
5
240
100
AcDbEntity
8
0
100
AcDbLine
62
2
6
CONTINUOUS
10
74.5944161471
20
252.4212637914
11
74.5944161471
21
194.1188590556
0
LINE
5
241
100
AcDbEntity
8
0
100
AcDbLine
62
2
6
CONTINUOUS
10
74.5944161471
20
135.8164543198
11
74.5944161471
21
194.1188590556
0
INSERT
5
242
100
AcDbEntity
8
0
100
AcDbBlockReference
62
2
6
CONTINUOUS
2
_FILLED
10
74.5944161471
20
252.4212637914
41
  3.500000
42
  3.500000
43
  3.500000
50
 90.000000
0
INSERT
5
243
100
AcDbEntity
8
0
100
AcDbBlockReference
62
2
6
CONTINUOUS
2
_FILLED
10
74.5944161471
20
135.8164543198
41
  3.500000
42
  3.500000
43
  3.500000
50
270.000000
0
ENDBLK
5
244
100
AcDbEntity
8
0
6
BYBLOCK
62
0
100
AcDbBlockEnd
0
BLOCK
5
245
100
AcDbEntity
8
0
100
AcDbBlockBegin
2
_FILLED
70
64
10
0.0000000000
20
0.0000000000
3
_FILLED
1

0
SOLID
5
246
100
AcDbEntity
8
0
6
BYBLOCK
62
0
100
AcDbTrace
10
0.0000000000
20
0.0000000000
11
-1.0000000000
21
0.1857142857
12
-1.0000000000
22
-0.1857142857
13
-1.0000000000
23
-0.1857142857
0
ENDBLK
5
247
100
AcDbEntity
8
0
6
BYBLOCK
62
0
100
AcDbBlockEnd
0
ENDSEC
0
SECTION
2
ENTITIES
0
DIMENSION
5
248
100
AcDbEntity
8
0
100
AcDbDimension
62
2
6
CONTINUOUS
2
*D0
10
143.5887662989
20
87.5972918756
11
106.5887662989
21
90.2222918756
70
160
42
74.000000
3
DIMSTYLE_1
100
AcDbAlignedDimension
13
69.5887662989
23
97.9212637914
14
143.5887662989
24
97.9212637914
100
AcDbRotatedDimension
0
DIMENSION
5
249
100
AcDbEntity
8
0
100
AcDbDimension
62
2
6
CONTINUOUS
2
*D1
10
55.2009614208
20
76.1952864612
11
105.1076922957
21
78.8202864612
70
160
42
102.775610
1
%%c<>
3
DIMSTYLE_2
100
AcDbAlignedDimension
13
157.9765711769
23
101.4090686694
14
55.2009614208
24
101.4090686694
50
180.000000
100
AcDbRotatedDimension
0
DIMENSION
5
24A
100
AcDbEntity
8
0
100
AcDbDimension
62
2
6
CONTINUOUS
2
*D2
10
38.4483450351
20
252.4212637914
11
35.8233450351
21
176.5682046138
70
160
42
151.000000
3
DIMSTYLE_3
100
AcDbAlignedDimension
13
55.1887662989
23
101.4212637914
14
97.5321419719
24
252.4212637914
50
90.000000
100
AcDbRotatedDimension
0
DIMENSION
5
24B
100
AcDbEntity
8
0
100
AcDbDimension
62
2
6
CONTINUOUS
2
*D3
10
116.5887662989
20
264.8329989970
11
106.9418254764
21
267.4579989970
70
160
42
20.000000
1
M<>
3
DIMSTYLE_4
100
AcDbAlignedDimension
13
96.5887662989
23
250.4212637914
14
116.5887662989
24
250.4212637914
100
AcDbRotatedDimension
0
DIMENSION
5
24C
100
AcDbEntity
8
0
100
AcDbDimension
62
2
6
CONTINUOUS
2
*D4
10
172.8793615514
20
101.4212637914
11
170.2543615514
21
110.7400986533
70
160
42
19.000000
3
DIMSTYLE_4
100
AcDbAlignedDimension
13
154.7998254201
23
120.4212637914
14
157.9887662989
24
101.4212637914
50
270.000000
100
AcDbRotatedDimension
0
DIMENSION
5
24D
100
AcDbEntity
8
0
100
AcDbDimension
62
2
6
CONTINUOUS
2
*D5
10
74.5944161471
20
135.8164543198
11
71.9694161471
21
201.1785894293
70
160
42
116.604809
3
DIMSTYLE_2
100
AcDbAlignedDimension
13
97.5321419719
23
252.4212637914
14
96.0887662989
24
135.8164543198
50
270.000000
100
AcDbRotatedDimension
0
LINE
5
24E
100
AcDbEntity
8
0
100
AcDbLine
62
7
6
CONTINUOUS
10
0.0000000000
20
0.0000000000
11
210.0000000000
21
0.0000000000
0
LINE
5
24F
100
AcDbEntity
8
0
100
AcDbLine
62
7
6
CONTINUOUS
10
0.0000000000
20
0.0000000000
11
0.0000000000
21
297.0000000000
0
LINE
5
250
100
AcDbEntity
8
0
100
AcDbLine
62
7
6
CONTINUOUS
10
210.0000000000
20
0.0000000000
11
210.0000000000
21
297.0000000000
0
LINE
5
251
100
AcDbEntity
8
0
100
AcDbLine
62
7
6
CONTINUOUS
10
0.0000000000
20
297.0000000000
11
210.0000000000
21
297.0000000000
0
LINE
5
252
100
AcDbEntity
8
0
100
AcDbLine
62
7
6
CONTINUOUS
10
55.2009614208
20
101.9090686694
11
55.6887662989
21
101.4212637914
0
LINE
5
253
100
AcDbEntity
8
0
100
AcDbLine
62
7
6
CONTINUOUS
10
157.4887662989
20
101.4212637914
11
55.6887662989
21
101.4212637914
0
LINE
5
254
100
AcDbEntity
8
0
100
AcDbLine
62
7
6
CONTINUOUS
10
157.9765711769
20
101.9090686694
11
55.2009614208
21
101.9090686694
0
LINE
5
255
100
AcDbEntity
8
0
100
AcDbLine
62
7
6
CONTINUOUS
10
55.3703267292
20
108.6836810054
11
157.8072058685
21
108.6836810054
0
LINE
5
256
100
AcDbEntity
8
0
100
AcDbLine
62
7
6
CONTINUOUS
10
58.7893572815
20
112.3478007378
11
154.3881753163
21
112.3478007378
0
LINE
5
257
100
AcDbEntity
8
0
100
AcDbLine
62
7
6
CONTINUOUS
10
155.2723690642
20
119.6539843542
11
134.1309621296
21
119.6539843377
0
LINE
5
258
100
AcDbEntity
8
0
100
AcDbLine
62
7
6
CONTINUOUS
10
79.0465640840
20
119.6539843231
11
57.9051635336
21
119.6539843542
0
LINE
5
259
100
AcDbEntity
8
0
100
AcDbLine
62
7
6
CONTINUOUS
10
154.2994690444
20
120.4212637914
11
130.1768057809
21
120.4212637914
0
LINE
5
25A
100
AcDbEntity
8
0
100
AcDbLine
62
7
6
CONTINUOUS
10
83.0006476552
20
120.4212637914
11
58.8777071777
21
120.4212637914
0
LINE
5
25B
100
AcDbEntity
8
0
100
AcDbLine
62
7
6
CONTINUOUS
10
80.7980807327
20
120.5392195429
11
84.2873291553
21
120.5392195429
0
LINE
5
25C
100
AcDbEntity
8
0
100
AcDbLine
62
7
6
CONTINUOUS
10
128.8915541898
20
120.5392420020
11
132.3794518651
21
120.5392195429
0
LINE
5
25D
100
AcDbEntity
8
0
100
AcDbLine
62
7
6
CONTINUOUS
10
86.2236377825
20
122.4899816282
11
126.9538948153
21
122.4899816282
0
LINE
5
25E
100
AcDbEntity
8
0
100
AcDbLine
62
7
6
CONTINUOUS
10
86.9697771072
20
122.6946436508
11
126.2077554906
21
122.6946436508
0
LINE
5
25F
100
AcDbEntity
8
0
100
AcDbLine
62
7
6
CONTINUOUS
10
55.3703267292
20
108.6836810054
11
55.2009614208
21
101.9090686694
0
LINE
5
260
100
AcDbEntity
8
0
100
AcDbLine
62
7
6
CONTINUOUS
10
93.3387662989
20
123.9212637914
11
86.9697771072
21
122.6946436508
0
LINE
5
261
100
AcDbEntity
8
0
100
AcDbLine
62
7
6
CONTINUOUS
10
119.8387662989
20
123.9212637914
11
93.3387662989
21
123.9212637914
0
LINE
5
262
100
AcDbEntity
8
0
100
AcDbLine
62
7
6
CONTINUOUS
10
112.8387662989
20
124.0333961256
11
100.3387662989
21
124.0333961256
0
LINE
5
263
100
AcDbEntity
8
0
100
AcDbLine
62
7
6
CONTINUOUS
10
119.8387662989
20
123.9212637914
11
126.2077554906
21
122.6946436508
0
LINE
5
264
100
AcDbEntity
8
0
100
AcDbLine
62
7
6
CONTINUOUS
10
96.5887662989
20
249.9212637914
11
98.0321419719
21
252.4212637914
0
LINE
5
265
100
AcDbEntity
8
0
100
AcDbLine
62
7
6
CONTINUOUS
10
86.9697771072
20
122.6946436508
11
86.2236377825
21
122.4899816282
0
LINE
5
266
100
AcDbEntity
8
0
100
AcDbLine
62
7
6
CONTINUOUS
10
112.8387662989
20
129.0533145989
11
100.3387662989
21
129.0533145989
0
LINE
5
267
100
AcDbEntity
8
0
100
AcDbLine
62
7
6
CONTINUOUS
10
112.9727408951
20
129.5533145989
11
100.2047917027
21
129.5533145989
0
LINE
5
268
100
AcDbEntity
8
0
100
AcDbLine
62
7
6
CONTINUOUS
10
126.2077554906
20
122.6946436508
11
126.9538948152
21
122.4899816282
0
LINE
5
269
100
AcDbEntity
8
0
100
AcDbLine
62
7
6
CONTINUOUS
10
126.9538948153
20
122.4899816282
11
132.3794518651
21
120.5392195429
0
LINE
5
26A
100
AcDbEntity
8
DEFAULT_1
100
AcDbLine
62
2
6
CENTER
10
69.5887662989
20
131.0235707121
11
69.5887662989
21
98.4212637914
0
LINE
5
26B
100
AcDbEntity
8
0
100
AcDbLine
62
7
6
CONTINUOUS
10
68.1140510933
20
119.6539843542
11
68.0375782933
21
115.9872003758
0
LINE
5
26C
100
AcDbEntity
8
0
100
AcDbLine
62
7
6
CONTINUOUS
10
116.5887662989
20
135.8164543198
11
112.5887662989
21
135.8164543198
0
LINE
5
26D
100
AcDbEntity
8
0
100
AcDbLine
62
7
6
CONTINUOUS
10
100.5887662989
20
135.8164543198
11
96.5887662989
21
135.8164543198
0
LINE
5
26E
100
AcDbEntity
8
0
100
AcDbLine
62
7
6
CONTINUOUS
10
112.5887662989
20
139.8212637914
11
100.5887662989
21
139.8212637914
0
LINE
5
26F
100
AcDbEntity
8
0
100
AcDbLine
62
7
6
CONTINUOUS
10
57.9051635336
20
119.6539843542
11
55.4789413841
21
109.5147559926
0
LINE
5
270
100
AcDbEntity
8
0
100
AcDbLine
62
7
6
CONTINUOUS
10
96.5887662989
20
135.8164543198
11
100.2047917027
21
129.5533145989
0
LINE
5
271
100
AcDbEntity
8
0
100
AcDbLine
62
7
6
CONTINUOUS
10
96.5887662989
20
249.9212637914
11
96.5887662989
21
135.8164543198
0
LINE
5
272
100
AcDbEntity
8
0
100
AcDbLine
62
7
6
CONTINUOUS
10
100.3387662989
20
129.0533145989
11
100.3387662989
21
124.0333961256
0
LINE
5
273
100
AcDbEntity
8
0
100
AcDbLine
62
7
6
CONTINUOUS
10
100.5887662989
20
139.8212637914
11
100.5887662989
21
135.8164543198
0
LINE
5
274
100
AcDbEntity
8
DEFAULT_1
100
AcDbLine
62
2
6
CENTER
10
106.5887662989
20
255.4212637914
11
106.5887662989
21
98.4212637914
0
LINE
5
275
100
AcDbEntity
8
0
100
AcDbLine
62
7
6
CONTINUOUS
10
100.3324595814
20
123.9212637914
11
100.3387662989
21
124.0333961256
0
LINE
5
276
100
AcDbEntity
8
0
100
AcDbLine
62
7
6
CONTINUOUS
10
112.8450730164
20
123.9212637914
11
112.8387662989
21
124.0333961256
0
LINE
5
277
100
AcDbEntity
8
0
100
AcDbLine
62
7
6
CONTINUOUS
10
112.5887662989
20
135.8164543198
11
112.5887662989
21
139.8212637914
0
LINE
5
278
100
AcDbEntity
8
0
100
AcDbLine
62
7
6
CONTINUOUS
10
112.8387662989
20
129.0533145989
11
112.8387662989
21
124.0333961256
0
LINE
5
279
100
AcDbEntity
8
0
100
AcDbLine
62
7
6
CONTINUOUS
10
116.5887662989
20
249.9212637914
11
116.5887662989
21
135.8164543198
0
LINE
5
27A
100
AcDbEntity
8
0
100
AcDbLine
62
7
6
CONTINUOUS
10
116.5887662989
20
135.8164543198
11
112.9727408951
21
129.5533145989
0
LINE
5
27B
100
AcDbEntity
8
0
100
AcDbLine
62
7
6
CONTINUOUS
10
145.0634815045
20
119.6539843542
11
145.1399543045
21
115.9872003758
0
LINE
5
27C
100
AcDbEntity
8
DEFAULT_1
100
AcDbLine
62
2
6
CENTER
10
143.5887662989
20
129.6113340020
11
143.5887662989
21
98.4212637914
0
LINE
5
27D
100
AcDbEntity
8
0
100
AcDbLine
62
7
6
CONTINUOUS
10
155.2723690642
20
119.6539843542
11
157.6973018357
21
109.5201253403
0
LINE
5
27E
100
AcDbEntity
8
0
100
AcDbLine
62
7
6
CONTINUOUS
10
157.8072058685
20
108.6836810054
11
157.9765711769
21
101.9090686694
0
LINE
5
27F
100
AcDbEntity
8
0
100
AcDbLine
62
7
6
CONTINUOUS
10
86.2236377825
20
122.4899816282
11
80.7980807327
21
120.5392195429
0
LINE
5
280
100
AcDbEntity
8
0
100
AcDbLine
62
7
6
CONTINUOUS
10
116.5887662989
20
249.9212637914
11
115.1453906259
21
252.4212637914
0
LINE
5
281
100
AcDbEntity
8
0
100
AcDbLine
62
7
6
CONTINUOUS
10
116.5887662989
20
249.9212637914
11
96.5887662989
21
249.9212637914
0
LINE
5
282
100
AcDbEntity
8
0
100
AcDbLine
62
7
6
CONTINUOUS
10
98.0321419719
20
252.4212637914
11
115.1453906259
21
252.4212637914
0
LINE
5
283
100
AcDbEntity
8
0
100
AcDbLine
62
7
6
CONTINUOUS
10
157.9765711769
20
101.9090686694
11
157.4887662989
21
101.4212637914
0
ARC
5
284
100
AcDbEntity
8
0
100
AcDbCircle
62
7
6
CONTINUOUS
10
113.8387662989
20
129.0533145989
40
1.0000000000
100
AcDbArc
50
149.9999999999
51
180.0000000000
0
ARC
5
285
100
AcDbEntity
8
0
100
AcDbCircle
62
7
6
CONTINUOUS
10
99.3387662989
20
129.0533145989
40
1.0000000000
100
AcDbArc
50
0.0000000000
51
30.0000000000
0
ARC
5
286
100
AcDbEntity
8
0
100
AcDbCircle
62
7
6
CONTINUOUS
10
58.8777071777
20
119.4212637914
40
1.0000000000
100
AcDbArc
50
90.0000000000
51
166.5427042525
0
ARC
5
287
100
AcDbEntity
8
0
100
AcDbCircle
62
7
6
CONTINUOUS
10
80.1213906658
20
122.4212637914
40
2.0000000000
100
AcDbArc
50
270.0000000000
51
289.7760766026
0
ARC
5
288
100
AcDbEntity
8
0
100
AcDbCircle
62
7
6
CONTINUOUS
10
154.2998254201
20
119.4212637914
40
1.0000000000
100
AcDbArc
50
13.4572957475
51
90.0000000000
0
ARC
5
289
100
AcDbEntity
8
0
100
AcDbCircle
62
7
6
CONTINUOUS
10
133.0561419320
20
122.4212637914
40
2.0000000000
100
AcDbArc
50
250.2239233974
51
270.0000000000
0
ARC
5
28A
100
AcDbEntity
8
0
100
AcDbCircle
62
7
6
CONTINUOUS
10
153.8084552829
20
108.5837122408
40
4.0000000000
100
AcDbArc
50
1.4320961842
51
13.4572957475
0
ARC
5
28B
100
AcDbEntity
8
0
100
AcDbCircle
62
7
6
CONTINUOUS
10
59.3690773149
20
108.5837122408
40
4.0000000000
100
AcDbArc
50
166.5430741210
51
178.5679038158
0
SPLINE
5
28C
100
AcDbEntity
8
0
100
AcDbSpline
62
7
6
CONTINUOUS
70
0
71
3
72
11
73
7
74
5
42
0.0000001000
43
0.0000001000
44
0.0000000001
12
0.2394372766
22
-0.7071437086
32
0.0000000000
13
0.2044833332
23
-0.7180313367
33
0.0000000000
40
0.0000000000
40
0.0000000000
40
0.0000000000
40
0.0000000000
40
0.3722796515
40
0.6803644411
40
0.8961611732
40
1.0000000000
40
1.0000000000
40
1.0000000000
40
1.0000000000
10
68.0375783281
20
115.9872002801
30
0.0000000000
10
68.0672908701
20
115.8994485423
30
0.0000000000
10
68.1213881906
20
115.7390116948
30
0.0000000000
10
68.1925536738
20
115.5276379646
30
0.0000000000
10
68.2411769218
20
115.3792089444
30
0.0000000000
10
68.2664567511
20
115.3037520803
30
0.0000000000
10
68.2735345209
20
115.2788989031
30
0.0000000000
11
68.0375783281
21
115.9872002801
31
0.0000000000
11
68.1264719383
21
115.7238625695
31
0.0000000000
11
68.1995288469
21
115.5057632077
31
0.0000000000
11
68.2500865899
21
115.3527918778
31
0.0000000000
11
68.2735345209
21
115.2788989031
31
0.0000000000
0
SPLINE
5
28D
100
AcDbEntity
8
0
100
AcDbSpline
62
7
6
CONTINUOUS
70
0
71
3
72
12
73
8
74
6
42
0.0000001000
43
0.0000001000
44
0.0000000001
12
-9.3981346179
22
-3.1995861269
32
0.0000000000
13
-9.5528532650
23
-2.7028281813
33
0.0000000000
40
0.0000000000
40
0.0000000000
40
0.0000000000
40
0.0000000000
40
0.2288520927
40
0.4486396412
40
0.6536855059
40
0.8389597418
40
1.0000000000
40
1.0000000000
40
1.0000000000
40
1.0000000000
10
68.2735345512
20
115.2788988143
30
0.0000000000
10
67.5566069596
20
115.0348214873
30
0.0000000000
10
66.1474384470
20
114.5671740479
30
0.0000000000
10
64.0853929599
20
113.9131458441
30
0.0000000000
10
62.1540979387
20
113.3243432469
30
0.0000000000
10
60.4038972568
20
112.8085242069
30
0.0000000000
10
59.3021552669
20
112.4928887872
30
0.0000000000
10
58.7893572815
20
112.3478007378
30
0.0000000000
11
68.2735345512
21
115.2788988143
31
0.0000000000
11
66.1173896586
21
114.5626101710
31
0.0000000000
11
64.0376388553
21
113.9024267120
31
0.0000000000
11
62.0905594199
21
113.3084440902
31
0.0000000000
11
60.3262765348
21
112.7882437557
31
0.0000000000
11
58.7893572815
21
112.3478007378
31
0.0000000000
0
SPLINE
5
28E
100
AcDbEntity
8
0
100
AcDbSpline
62
7
6
CONTINUOUS
70
0
71
3
72
11
73
7
74
5
42
0.0000001000
43
0.0000001000
44
0.0000000001
12
-5.1337157141
22
-1.5545154812
32
0.0000000000
13
-1.2524989181
23
-5.2156351306
33
0.0000000000
40
0.0000000000
40
0.0000000000
40
0.0000000000
40
0.0000000000
40
0.2589242405
40
0.5147984691
40
0.7621177071
40
1.0000000000
40
1.0000000000
40
1.0000000000
40
1.0000000000
10
59.2092568679
20
113.0561022993
30
0.0000000000
10
58.7661757205
20
112.9219350525
30
0.0000000000
10
57.9094736292
20
112.5640521632
30
0.0000000000
10
56.7884350327
20
111.7678420770
30
0.0000000000
10
55.9240148481
20
110.7425817811
30
0.0000000000
10
55.5782585689
20
109.9283306575
30
0.0000000000
10
55.4789427974
20
109.5147615763
30
0.0000000000
11
59.2092568679
21
113.0561022993
31
0.0000000000
11
57.9295580101
21
112.5164110788
31
0.0000000000
11
56.8154718301
21
111.7148299224
31
0.0000000000
11
55.9702199712
21
110.6923753123
31
0.0000000000
11
55.4789427974
21
109.5147615763
31
0.0000000000
0
SPLINE
5
28F
100
AcDbEntity
8
0
100
AcDbSpline
62
7
6
CONTINUOUS
70
0
71
3
72
10
73
6
74
4
42
0.0000001000
43
0.0000001000
44
0.0000000001
12
-0.0507304325
22
-0.8607199397
32
0.0000000000
13
-0.7955552257
23
-0.3324218319
33
0.0000000000
40
0.0000000000
40
0.0000000000
40
0.0000000000
40
0.0000000000
40
0.3675311062
40
0.6989956039
40
1.0000000000
40
1.0000000000
40
1.0000000000
40
1.0000000000
10
59.2092592310
20
113.0561015688
30
0.0000000000
10
59.2030442270
20
112.9506544516
30
0.0000000000
10
59.1645677698
20
112.7499955019
30
0.0000000000
10
59.0206581150
20
112.4943300890
30
0.0000000000
10
58.8691789265
20
112.3811548611
30
0.0000000000
10
58.7893570530
20
112.3478013835
30
0.0000000000
11
59.2092592310
21
113.0561015688
31
0.0000000000
11
59.1454096708
21
112.7457103304
31
0.0000000000
11
58.9996684359
21
112.4998704327
31
0.0000000000
11
58.7893570530
21
112.3478013835
31
0.0000000000
0
SPLINE
5
290
100
AcDbEntity
8
0
100
AcDbSpline
62
7
6
CONTINUOUS
70
0
71
3
72
11
73
7
74
5
42
0.0000001000
43
0.0000001000
44
0.0000000001
12
-4.3976160866
22
-1.1777936582
32
0.0000000000
13
-1.0641405489
23
-4.4264918433
33
0.0000000000
40
0.0000000000
40
0.0000000000
40
0.0000000000
40
0.0000000000
40
0.2748997919
40
0.5355114703
40
0.7764044051
40
1.0000000000
40
1.0000000000
40
1.0000000000
40
1.0000000000
10
58.7893572815
20
112.3478007378
30
0.0000000000
10
58.3863893658
20
112.2398756606
30
0.0000000000
10
57.6183019903
20
111.9559799321
30
0.0000000000
10
56.6153896758
20
111.3182916705
30
0.0000000000
10
55.8559760988
20
110.5021629367
30
0.0000000000
10
55.5582091091
20
109.8444840715
30
0.0000000000
10
55.4788967294
20
109.5145693792
30
0.0000000000
11
58.7893572815
21
112.3478007378
31
0.0000000000
11
57.6179270533
21
111.9073124961
31
0.0000000000
11
56.6230194790
21
111.2608978148
31
0.0000000000
11
55.8886147684
21
110.4464162275
31
0.0000000000
11
55.4788967294
21
109.5145693792
31
0.0000000000
0
SPLINE
5
291
100
AcDbEntity
8
0
100
AcDbSpline
62
7
6
CONTINUOUS
70
0
71
3
72
10
73
6
74
4
42
0.0000001000
43
0.0000001000
44
0.0000000001
12
11.0402878734
22
-3.5717544186
32
0.0000000000
13
10.9855317654
23
-3.7367737134
33
0.0000000000
40
0.0000000000
40
0.0000000000
40
0.0000000000
40
0.0000000000
40
0.3263304786
40
0.6597480446
40
1.0000000000
40
1.0000000000
40
1.0000000000
40
1.0000000000
10
134.1309621296
20
119.6539843377
30
0.0000000000
10
135.3318896046
20
119.2654602281
30
0.0000000000
10
137.7568703224
20
118.4708273359
30
0.0000000000
10
141.4258079945
20
117.2462510623
30
0.0000000000
10
143.8940047498
20
116.4110152301
30
0.0000000000
10
145.1399543045
20
115.9872003758
30
0.0000000000
11
134.1309621296
21
119.6539843377
31
0.0000000000
11
137.7297428810
21
118.4761145828
31
0.0000000000
11
141.3998867986
21
117.2521031246
31
0.0000000000
11
145.1399543045
21
115.9872003758
31
0.0000000000
0
SPLINE
5
292
100
AcDbEntity
8
0
100
AcDbSpline
62
7
6
CONTINUOUS
70
0
71
3
72
10
73
6
74
4
42
0.0000001000
43
0.0000001000
44
0.0000000001
12
16.1010487235
22
-4.9840906104
32
0.0000000000
13
15.9555056605
23
-5.4320132850
33
0.0000000000
40
0.0000000000
40
0.0000000000
40
0.0000000000
40
0.0000000000
40
0.2901185736
40
0.6225230952
40
1.0000000000
40
1.0000000000
40
1.0000000000
40
1.0000000000
10
128.8915541898
20
120.5392420020
30
0.0000000000
10
130.4486252863
20
120.0572495825
30
0.0000000000
10
133.7815406116
20
118.9965896601
30
0.0000000000
10
139.1177325489
20
117.2385672296
30
0.0000000000
10
142.8963864162
20
115.9623853349
30
0.0000000000
10
144.9039980466
20
115.2788988143
30
0.0000000000
11
128.8915541898
21
120.5392420020
31
0.0000000000
11
133.5527547978
21
119.0613067128
31
0.0000000000
11
138.8751544820
21
117.3116235409
31
0.0000000000
11
144.9039980466
21
115.2788988143
31
0.0000000000
0
SPLINE
5
293
100
AcDbEntity
8
0
100
AcDbSpline
62
7
6
CONTINUOUS
70
0
71
3
72
10
73
6
74
4
42
0.0000001000
43
0.0000001000
44
0.0000000001
12
-1.2934742723
22
0.0000313336
32
0.0000000000
13
-1.2741623254
23
0.2226792821
33
0.0000000000
40
0.0000000000
40
0.0000000000
40
0.0000000000
40
0.0000000000
40
0.3230466852
40
0.6559755375
40
1.0000000000
40
1.0000000000
40
1.0000000000
40
1.0000000000
10
130.1768046131
20
120.4212637914
30
0.0000000000
10
130.0375204211
20
120.4212671654
30
0.0000000000
10
129.7546267387
20
120.4307624582
30
0.0000000000
10
129.3251244339
20
120.4707772419
30
0.0000000000
10
129.0362583003
20
120.5137063196
30
0.0000000000
10
128.8901439639
20
120.5392420263
30
0.0000000000
11
130.1768046131
21
120.4212637914
31
0.0000000000
11
129.7591675542
21
120.4346825264
31
0.0000000000
11
129.3303464062
21
120.4741647312
31
0.0000000000
11
128.8901439639
21
120.5392420263
31
0.0000000000
0
SPLINE
5
294
100
AcDbEntity
8
0
100
AcDbSpline
62
7
6
CONTINUOUS
70
0
71
3
72
10
73
6
74
4
42
0.0000001000
43
0.0000001000
44
0.0000000001
12
-0.1655721127
22
0.2990151223
32
0.0000000000
13
-0.3417955058
23
0.0000078993
33
0.0000000000
40
0.0000000000
40
0.0000000000
40
0.0000000000
40
0.0000000000
40
0.3999923309
40
0.7249749823
40
1.0000000000
40
1.0000000000
40
1.0000000000
40
1.0000000000
10
130.4329498902
20
120.2163574927
30
0.0000000000
10
130.4108740318
20
120.2562254113
30
0.0000000000
10
130.3646079867
20
120.3255033054
30
0.0000000000
10
130.2769654145
20
120.4015698511
30
0.0000000000
10
130.2081387176
20
120.4212519854
30
0.0000000000
10
130.1768046126
20
120.4212527095
30
0.0000000000
11
130.4329498902
21
120.2163574927
31
0.0000000000
11
130.3545631205
21
120.3283693869
31
0.0000000000
11
130.2678226271
21
120.3977547037
31
0.0000000000
11
130.1768046126
21
120.4212527095
31
0.0000000000
0
SPLINE
5
295
100
AcDbEntity
8
0
100
AcDbSpline
62
7
6
CONTINUOUS
70
0
71
3
72
10
73
6
74
4
42
0.0000001000
43
0.0000001000
44
0.0000000001
12
-1.5593914643
22
0.2343344267
32
0.0000000000
13
-1.5250482473
23
0.4010513755
33
0.0000000000
40
0.0000000000
40
0.0000000000
40
0.0000000000
40
0.0000000000
40
0.3239615041
40
0.6572305593
40
1.0000000000
40
1.0000000000
40
1.0000000000
40
1.0000000000
10
130.4329498902
20
120.2163574927
30
0.0000000000
10
130.2645556222
20
120.2416626038
30
0.0000000000
10
129.9239885600
20
120.3002547766
30
0.0000000000
10
129.4095252080
20
120.4085058607
30
0.0000000000
10
129.0643916331
20
120.4934191274
30
0.0000000000
10
128.8901449881
20
120.5392418460
30
0.0000000000
11
130.4329498902
21
120.2163574927
31
0.0000000000
11
129.9294059030
21
120.3024751821
31
0.0000000000
11
129.4150600888
21
120.4103284240
31
0.0000000000
11
128.8901449881
21
120.5392418460
31
0.0000000000
0
SPLINE
5
296
100
AcDbEntity
8
0
100
AcDbSpline
62
7
6
CONTINUOUS
70
0
71
3
72
10
73
6
74
4
42
0.0000001000
43
0.0000001000
44
0.0000000001
12
-3.6971037655
22
0.5685905549
32
0.0000000000
13
-3.6991899760
23
0.5548558306
33
0.0000000000
40
0.0000000000
40
0.0000000000
40
0.0000000000
40
0.0000000000
40
0.3599785300
40
0.6938244595
40
1.0000000000
40
1.0000000000
40
1.0000000000
40
1.0000000000
10
134.1309621037
20
119.6539838427
30
0.0000000000
10
133.6873361108
20
119.7222106400
30
0.0000000000
10
132.8322128157
20
119.8532155495
30
0.0000000000
10
131.5995317037
20
120.0407003886
30
0.0000000000
10
130.8104074573
20
120.1594931779
30
0.0000000000
10
130.4328736272
20
120.2161209392
30
0.0000000000
11
134.1309621037
21
119.6539838427
31
0.0000000000
11
132.7999670053
21
119.8579012415
31
0.0000000000
11
131.5653734542
21
120.0455612490
31
0.0000000000
11
130.4328736272
21
120.2161209392
31
0.0000000000
0
SPLINE
5
297
100
AcDbEntity
8
0
100
AcDbSpline
62
7
6
CONTINUOUS
70
0
71
3
72
11
73
7
74
5
42
0.0000001000
43
0.0000001000
44
0.0000000001
12
0.0162057133
22
0.7770455679
32
0.0000000000
13
0.7772145390
23
-0.0000000000
33
0.0000000000
40
0.0000000000
40
0.0000000000
40
0.0000000000
40
0.0000000000
40
0.3939152850
40
0.7119547694
40
0.9199651040
40
1.0000000000
40
1.0000000000
40
1.0000000000
40
1.0000000000
10
68.1140510933
20
119.6539843542
30
0.0000000000
10
68.1161789860
20
119.7560143963
30
0.0000000000
10
68.1233415385
20
119.9359546242
30
0.0000000000
10
68.1379939891
20
120.1887271709
30
0.0000000000
10
68.1636734182
20
120.3155117211
30
0.0000000000
10
68.1780790953
20
120.4212637914
30
0.0000000000
10
68.1988138569
20
120.4212637914
30
0.0000000000
11
68.1140510933
21
119.6539843542
31
0.0000000000
11
68.1253835331
21
119.9599312329
31
0.0000000000
11
68.1448307607
21
120.2063499531
31
0.0000000000
11
68.1702436622
21
120.3660087733
31
0.0000000000
11
68.1988138569
21
120.4212637914
31
0.0000000000
0
SPLINE
5
298
100
AcDbEntity
8
0
100
AcDbSpline
62
7
6
CONTINUOUS
70
0
71
3
72
11
73
7
74
5
42
0.0000001000
43
0.0000001000
44
0.0000000001
12
0.0162057969
22
0.7770456488
32
0.0000000000
13
0.7772145061
23
-0.0000003835
33
0.0000000000
40
0.0000000000
40
0.0000000000
40
0.0000000000
40
0.0000000000
40
0.3939169401
40
0.7119572088
40
0.9199666092
40
1.0000000000
40
1.0000000000
40
1.0000000000
40
1.0000000000
10
79.0465640256
20
119.6539843231
30
0.0000000000
10
79.0486919383
20
119.7560148045
30
0.0000000000
10
79.0558545003
20
119.9359556685
30
0.0000000000
10
79.0705072277
20
120.1887286307
30
0.0000000000
10
79.0961864118
20
120.3155129697
30
0.0000000000
10
79.1105925603
20
120.4212638016
30
0.0000000000
10
79.1313269310
20
120.4212637914
30
0.0000000000
11
79.0465640256
21
119.6539843231
31
0.0000000000
11
79.0578965729
21
119.9599325177
31
0.0000000000
11
79.0773439751
21
120.2063518620
31
0.0000000000
11
79.1027569952
21
120.3660099455
31
0.0000000000
11
79.1313269310
21
120.4212637914
31
0.0000000000
0
SPLINE
5
299
100
AcDbEntity
8
0
100
AcDbSpline
62
7
6
CONTINUOUS
70
0
71
3
72
10
73
6
74
4
42
0.0000001000
43
0.0000001000
44
0.0000000001
12
-3.6988856426
22
-0.5568480499
32
0.0000000000
13
-3.6971118664
23
-0.5685055801
33
0.0000000000
40
0.0000000000
40
0.0000000000
40
0.0000000000
40
0.0000000000
40
0.3067428251
40
0.6406362700
40
1.0000000000
40
1.0000000000
40
1.0000000000
40
1.0000000000
10
82.7446256240
20
120.2162701384
30
0.0000000000
10
82.3664234135
20
120.1593337571
30
0.0000000000
10
81.5765304298
20
120.0405057707
30
0.0000000000
10
80.3438587287
20
119.8529692248
30
0.0000000000
10
79.4894341568
20
119.7220821199
30
0.0000000000
10
79.0465648533
20
119.6539820247
30
0.0000000000
11
82.7446256240
21
120.2162701384
31
0.0000000000
11
81.6100522278
21
120.0452403726
31
0.0000000000
11
80.3752862956
21
119.8575426193
31
0.0000000000
11
79.0465648533
21
119.6539820247
31
0.0000000000
0
SPLINE
5
29A
100
AcDbEntity
8
0
100
AcDbSpline
62
7
6
CONTINUOUS
70
0
71
3
72
11
73
7
74
5
42
0.0000001000
43
0.0000001000
44
0.0000000001
12
-0.0162053231
22
0.7770456417
32
0.0000000000
13
-0.7772146047
23
-0.0000004843
33
0.0000000000
40
0.0000000000
40
0.0000000000
40
0.0000000000
40
0.0000000000
40
0.3939140412
40
0.7119537628
40
0.9199648087
40
1.0000000000
40
1.0000000000
40
1.0000000000
40
1.0000000000
10
134.1309621844
20
119.6539843377
30
0.0000000000
10
134.1288343497
20
119.7560140673
30
0.0000000000
10
134.1216718968
20
119.9359540743
30
0.0000000000
10
134.1070194136
20
120.1887265486
30
0.0000000000
10
134.0813399801
20
120.3155113685
30
0.0000000000
10
134.0669341672
20
120.4212638043
30
0.0000000000
10
134.0461993274
20
120.4212637914
30
0.0000000000
11
134.1309621844
21
119.6539843377
31
0.0000000000
11
134.1196298967
21
119.9599302806
31
0.0000000000
11
134.1001826698
21
120.2063492067
31
0.0000000000
11
134.0747696684
21
120.3660085847
31
0.0000000000
11
134.0461993274
21
120.4212637914
31
0.0000000000
0
SPLINE
5
29B
100
AcDbEntity
8
0
100
AcDbSpline
62
7
6
CONTINUOUS
70
0
71
3
72
10
73
6
74
4
42
0.0000001000
43
0.0000001000
44
0.0000000001
12
0.1655623221
22
0.2992882836
32
0.0000000000
13
0.3420284847
23
0.0009353521
33
0.0000000000
40
0.0000000000
40
0.0000000000
40
0.0000000000
40
0.0000000000
40
0.3998484679
40
0.7248889873
40
1.0000000000
40
1.0000000000
40
1.0000000000
40
1.0000000000
10
82.7446256240
20
120.2162701384
30
0.0000000000
10
82.7666922376
20
120.2561601256
30
0.0000000000
10
82.8129449677
20
120.3255006953
30
0.0000000000
10
82.9005425370
20
120.4017183550
30
0.0000000000
10
82.9693734742
20
120.4215835404
30
0.0000000000
10
83.0007387418
20
120.4216693157
30
0.0000000000
11
82.7446256240
21
120.2162701384
31
0.0000000000
11
82.8229654498
21
120.3283691586
31
0.0000000000
11
82.9096854922
21
120.3979334345
31
0.0000000000
11
83.0007387418
21
120.4216693157
31
0.0000000000
0
SPLINE
5
29C
100
AcDbEntity
8
0
100
AcDbSpline
62
7
6
CONTINUOUS
70
0
71
3
72
10
73
6
74
4
42
0.0000001000
43
0.0000001000
44
0.0000000001
12
-1.5250164914
22
-0.4010006926
32
0.0000000000
13
-1.5593487018
23
-0.2343255870
33
0.0000000000
40
0.0000000000
40
0.0000000000
40
0.0000000000
40
0.0000000000
40
0.3427673909
40
0.6760361534
40
1.0000000000
40
1.0000000000
40
1.0000000000
40
1.0000000000
10
84.2873593038
20
120.5392306839
30
0.0000000000
10
84.1131173292
20
120.4934140301
30
0.0000000000
10
83.7679943461
20
120.4085042924
30
0.0000000000
10
83.2535441299
20
120.3002612258
30
0.0000000000
10
82.9129854033
20
120.2416708460
30
0.0000000000
10
82.7445945355
20
120.2163665065
30
0.0000000000
11
84.2873593038
21
120.5392306839
31
0.0000000000
11
83.7624603676
21
120.4103276580
31
0.0000000000
11
83.2481284645
21
120.3024811286
31
0.0000000000
11
82.7445945355
21
120.2163665065
31
0.0000000000
0
SPLINE
5
29D
100
AcDbEntity
8
0
100
AcDbSpline
62
7
6
CONTINUOUS
70
0
71
3
72
10
73
6
74
4
42
0.0000001000
43
0.0000001000
44
0.0000000001
12
-1.2740652850
22
-0.2226112673
32
0.0000000000
13
-1.2933669726
23
-0.0000310540
33
0.0000000000
40
0.0000000000
40
0.0000000000
40
0.0000000000
40
0.0000000000
40
0.3440153017
40
0.6769498253
40
1.0000000000
40
1.0000000000
40
1.0000000000
40
1.0000000000
10
84.2872952527
20
120.5392195429
30
0.0000000000
10
84.1411959350
20
120.5136923154
30
0.0000000000
10
83.8523547421
20
120.4707719143
30
0.0000000000
10
83.4228880710
20
120.4307602009
30
0.0000000000
10
83.1400138552
20
120.4212671354
30
0.0000000000
10
83.0007397130
20
120.4212637914
30
0.0000000000
11
84.2872952527
21
120.5392195429
31
0.0000000000
11
83.8471396794
21
120.4741586389
31
0.0000000000
11
83.4183466755
21
120.4346803880
31
0.0000000000
11
83.0007397130
21
120.4212637914
31
0.0000000000
0
SPLINE
5
29E
100
AcDbEntity
8
0
100
AcDbSpline
62
7
6
CONTINUOUS
70
0
71
3
72
15
73
11
74
9
42
0.0000001000
43
0.0000001000
44
0.0000000001
12
-11.2849886560
22
4.8865434287
32
0.0000000000
13
-11.2849886560
23
-4.8865434287
33
0.0000000000
40
0.0000000000
40
0.0000000000
40
0.0000000000
40
0.0000000000
40
0.1213280067
40
0.2459564407
40
0.3725408257
40
0.5000000000
40
0.6274591745
40
0.7540435597
40
0.8786719935
40
1.0000000000
40
1.0000000000
40
1.0000000000
40
1.0000000000
10
112.5887662989
20
139.8212637914
30
0.0000000000
10
112.1323712392
20
140.0188886493
30
0.0000000000
10
111.1806308003
20
140.3600070577
30
0.0000000000
10
109.6931583247
20
140.7164238010
30
0.0000000000
10
108.1531497519
20
140.9289783011
30
0.0000000000
10
106.5887662983
20
140.9995382414
30
0.0000000000
10
105.0243828437
20
140.9289783010
30
0.0000000000
10
103.4843742702
20
140.7164238004
30
0.0000000000
10
101.9969017954
20
140.3600070570
30
0.0000000000
10
101.0451613580
20
140.0188886491
30
0.0000000000
10
100.5887662989
20
139.8212637914
30
0.0000000000
11
112.5887662989
21
139.8212637914
31
0.0000000000
11
111.1860267525
21
140.3296829880
31
0.0000000000
11
109.6963871038
21
140.6901051191
31
0.0000000000
11
108.1545808101
21
140.9047484574
31
0.0000000000
11
106.5887662990
21
140.9759643298
31
0.0000000000
11
105.0229517856
21
140.9047484572
31
0.0000000000
11
103.4811454892
21
140.6901051182
31
0.0000000000
11
101.9915058437
21
140.3296829876
31
0.0000000000
11
100.5887662989
21
139.8212637914
31
0.0000000000
0
SPLINE
5
29F
100
AcDbEntity
8
0
100
AcDbSpline
62
7
6
CONTINUOUS
70
0
71
3
72
11
73
7
74
5
42
0.0000001000
43
0.0000001000
44
0.0000000001
12
-0.0162057134
22
0.7770455678
32
0.0000000000
13
-0.7772145390
23
0.0000000000
33
0.0000000000
40
0.0000000000
40
0.0000000000
40
0.0000000000
40
0.0000000000
40
0.3939152850
40
0.7119547694
40
0.9199651040
40
1.0000000000
40
1.0000000000
40
1.0000000000
40
1.0000000000
10
145.0634815045
20
119.6539843542
30
0.0000000000
10
145.0613536118
20
119.7560143963
30
0.0000000000
10
145.0541910593
20
119.9359546242
30
0.0000000000
10
145.0395386087
20
120.1887271709
30
0.0000000000
10
145.0138591795
20
120.3155117211
30
0.0000000000
10
144.9994535025
20
120.4212637914
30
0.0000000000
10
144.9787187408
20
120.4212637914
30
0.0000000000
11
145.0634815045
21
119.6539843542
31
0.0000000000
11
145.0521490647
21
119.9599312329
31
0.0000000000
11
145.0327018371
21
120.2063499531
31
0.0000000000
11
145.0072889356
21
120.3660087733
31
0.0000000000
11
144.9787187408
21
120.4212637914
31
0.0000000000
0
SPLINE
5
2A0
100
AcDbEntity
8
0
100
AcDbSpline
62
7
6
CONTINUOUS
70
0
71
3
72
11
73
7
74
5
42
0.0000001000
43
0.0000001000
44
0.0000000001
12
4.3975883669
22
-1.1777977018
32
0.0000000000
13
1.0601059516
23
-4.4274333697
33
0.0000000000
40
0.0000000000
40
0.0000000000
40
0.0000000000
40
0.0000000000
40
0.2748917663
40
0.5354854244
40
0.7764115028
40
1.0000000000
40
1.0000000000
40
1.0000000000
40
1.0000000000
10
154.3881753163
20
112.3478007378
30
0.0000000000
10
154.7911289275
20
112.2398784409
30
0.0000000000
10
155.5591611232
20
111.9559978396
30
0.0000000000
10
156.5621453692
20
111.3183402211
30
0.0000000000
10
157.3213828383
20
110.5021695580
30
0.0000000000
10
157.6196206938
20
109.8445688826
30
0.0000000000
10
157.6986298594
20
109.5145944915
30
0.0000000000
11
154.3881753163
21
112.3478007378
31
0.0000000000
11
155.5595662198
21
111.9073318224
31
0.0000000000
11
156.5544112391
21
111.2609837475
31
0.0000000000
11
157.2889247556
21
110.4464054441
31
0.0000000000
11
157.6986298594
21
109.5145944915
31
0.0000000000
0
SPLINE
5
2A1
100
AcDbEntity
8
0
100
AcDbSpline
62
7
6
CONTINUOUS
70
0
71
3
72
10
73
6
74
4
42
0.0000001000
43
0.0000001000
44
0.0000000001
12
-0.7955542600
22
0.3324237923
32
0.0000000000
13
-0.0507293329
23
0.8607198691
33
0.0000000000
40
0.0000000000
40
0.0000000000
40
0.0000000000
40
0.0000000000
40
0.3010048736
40
0.6324694328
40
1.0000000000
40
1.0000000000
40
1.0000000000
40
1.0000000000
10
154.3881754178
20
112.3478010247
30
0.0000000000
10
154.3083535146
20
112.3811547519
30
0.0000000000
10
154.1568745257
20
112.4943304714
30
0.0000000000
10
154.0129654762
20
112.7499961409
30
0.0000000000
10
153.9744893510
20
112.9506549624
30
0.0000000000
10
153.9682744908
20
113.0561019163
30
0.0000000000
11
154.3881754178
21
112.3478010247
31
0.0000000000
11
154.1778641334
21
112.4998708432
31
0.0000000000
11
154.0321234552
21
112.7457110805
31
0.0000000000
11
153.9682744908
21
113.0561019163
31
0.0000000000
0
SPLINE
5
2A2
100
AcDbEntity
8
0
100
AcDbSpline
62
7
6
CONTINUOUS
70
0
71
3
72
11
73
7
74
5
42
0.0000001000
43
0.0000001000
44
0.0000000001
12
5.1284921561
22
-1.5529712242
32
0.0000000000
13
1.2515589369
23
-5.2102544704
33
0.0000000000
40
0.0000000000
40
0.0000000000
40
0.0000000000
40
0.0000000000
40
0.2591516423
40
0.5152274535
40
0.7627305178
40
1.0000000000
40
1.0000000000
40
1.0000000000
40
1.0000000000
10
153.9682757299
20
113.0561022993
30
0.0000000000
10
154.4112947848
20
112.9219506182
30
0.0000000000
10
155.2678197634
20
112.5641394881
30
0.0000000000
10
156.3887654883
20
111.7682035087
30
0.0000000000
10
157.2518236415
20
110.7443139958
30
0.0000000000
10
157.5983162554
20
109.9322034671
30
0.0000000000
10
157.6973018357
20
109.5201253403
30
0.0000000000
11
153.9682757299
21
113.0561022993
31
0.0000000000
11
155.2478052997
21
112.5165032917
31
0.0000000000
11
156.3616885238
21
111.7151769353
31
0.0000000000
11
157.2068555084
21
110.6931219939
31
0.0000000000
11
157.6973018357
21
109.5201253403
31
0.0000000000
0
SPLINE
5
2A3
100
AcDbEntity
8
0
100
AcDbSpline
62
7
6
CONTINUOUS
70
0
71
3
72
12
73
8
74
6
42
0.0000001000
43
0.0000001000
44
0.0000000001
12
9.3981363186
22
-3.1995811014
32
0.0000000000
13
9.5528427685
23
-2.7028652438
33
0.0000000000
40
0.0000000000
40
0.0000000000
40
0.0000000000
40
0.0000000000
40
0.2288940671
40
0.4487212866
40
0.6537335713
40
0.8389845676
40
1.0000000000
40
1.0000000000
40
1.0000000000
40
1.0000000000
10
144.9039980466
20
115.2788988143
30
0.0000000000
10
145.6210572617
20
115.0347771039
30
0.0000000000
10
147.0304826081
20
114.5670456679
30
0.0000000000
10
149.0926823873
20
113.9129777318
30
0.0000000000
10
151.0239246593
20
113.3241968163
30
0.0000000000
10
152.7738670397
20
112.8084570646
30
0.0000000000
10
153.8754569465
20
112.4928684098
30
0.0000000000
10
154.3881753163
20
112.3478007378
30
0.0000000000
11
144.9039980466
21
115.2788988143
31
0.0000000000
11
147.0605393069
21
114.5624815199
31
0.0000000000
11
149.1406678779
21
113.9021863994
31
0.0000000000
11
151.0874302209
21
113.3083068879
31
0.0000000000
11
152.8514928381
21
112.7881753134
31
0.0000000000
11
154.3881753163
21
112.3478007378
31
0.0000000000
0
SPLINE
5
2A4
100
AcDbEntity
8
0
100
AcDbSpline
62
7
6
CONTINUOUS
70
0
71
3
72
11
73
7
74
5
42
0.0000001000
43
0.0000001000
44
0.0000000001
12
0.2044830902
22
0.7180312115
32
0.0000000000
13
0.2394372146
23
0.7071435322
33
0.0000000000
40
0.0000000000
40
0.0000000000
40
0.0000000000
40
0.0000000000
40
0.1038386836
40
0.3196353697
40
0.6277202211
40
1.0000000000
40
1.0000000000
40
1.0000000000
40
1.0000000000
10
144.9039981010
20
115.2788989741
30
0.0000000000
10
144.9110758527
20
115.3037521127
30
0.0000000000
10
144.9363556679
20
115.3792089113
30
0.0000000000
10
144.9849788878
20
115.5276378659
30
0.0000000000
10
145.0561443660
20
115.7390115766
30
0.0000000000
10
145.1102416869
20
115.8994484289
30
0.0000000000
10
145.1399542313
20
115.9872001749
30
0.0000000000
11
144.9039981010
21
115.2788989741
31
0.0000000000
11
144.9274459908
21
115.3527918293
31
0.0000000000
11
144.9780037098
21
115.5057630886
31
0.0000000000
11
145.0510606138
21
115.7238624399
31
0.0000000000
11
145.1399542313
21
115.9872001749
31
0.0000000000
0
SPLINE
5
2A5
100
AcDbEntity
8
0
100
AcDbSpline
62
7
6
CONTINUOUS
70
0
71
3
72
19
73
15
74
13
42
0.0000001000
43
0.0000001000
44
0.0000000001
12
-9.8590301444
22
-10.2458046741
32
0.0000000000
13
-9.8590301444
23
10.2458046741
33
0.0000000000
40
0.0000000000
40
0.0000000000
40
0.0000000000
40
0.0000000000
40
0.1087478895
40
0.2059400348
40
0.2923491828
40
0.3686556187
40
0.4366657343
40
0.5000041090
40
0.5633412878
40
0.6313492727
40
0.7076547907
40
0.7940667392
40
0.8912571396
40
1.0000000000
40
1.0000000000
40
1.0000000000
40
1.0000000000
10
112.5887662989
20
135.8164543198
30
0.0000000000
10
112.2313833920
20
135.4450511082
30
0.0000000000
10
111.5345241332
20
134.7603481825
30
0.0000000000
10
110.4711279606
20
133.8691368441
30
0.0000000000
10
109.4468142508
20
133.1795390548
30
0.0000000000
10
108.4612936655
20
132.6959458667
30
0.0000000000
10
107.5127481299
20
132.4142007555
30
0.0000000000
10
106.5887129371
20
132.3225234931
30
0.0000000000
10
105.6646903720
20
132.4142214163
30
0.0000000000
10
104.7161690943
20
132.6959751869
30
0.0000000000
10
103.7306539530
20
133.1795762356
30
0.0000000000
10
102.7063449585
20
133.8691823866
30
0.0000000000
10
101.6429681057
20
134.7603870806
30
0.0000000000
10
100.9461326783
20
135.4450682841
30
0.0000000000
10
100.5887662989
20
135.8164543198
30
0.0000000000
11
112.5887662989
21
135.8164543198
31
0.0000000000
11
111.4808576568
21
134.7377956943
31
0.0000000000
11
110.4162829191
21
133.8565989136
31
0.0000000000
11
109.3918409962
21
133.1783058390
31
0.0000000000
11
108.4138941272
21
132.7083800529
31
0.0000000000
11
107.4851258580
21
132.4390585716
31
0.0000000000
11
106.5887076703
21
132.3523527050
31
0.0000000000
11
105.6923084005
21
132.4390775384
31
0.0000000000
11
104.7635734406
21
132.7084051063
31
0.0000000000
11
103.7856425210
21
133.1783339499
31
0.0000000000
11
102.7611724523
21
133.8566566431
31
0.0000000000
11
101.6966218473
21
134.7378436703
31
0.0000000000
11
100.5887662989
21
135.8164543198
31
0.0000000000
0
SPLINE
5
2A6
100
AcDbEntity
8
0
100
AcDbSpline
62
7
6
CONTINUOUS
70
0
71
3
72
12
73
8
74
6
42
0.0000001000
43
0.0000001000
44
0.0000000001
12
8.7327563362
22
-3.2081950362
32
0.0000000000
13
8.9041162126
23
-2.6963425395
33
0.0000000000
40
0.0000000000
40
0.0000000000
40
0.0000000000
40
0.0000000000
40
0.2286363080
40
0.4483870471
40
0.6534387840
40
0.8387959929
40
1.0000000000
40
1.0000000000
40
1.0000000000
40
1.0000000000
10
145.1399543045
20
115.9872003758
30
0.0000000000
10
145.8054960269
20
115.7426970863
30
0.0000000000
10
147.1148534950
20
115.2743978755
30
0.0000000000
10
149.0328024843
20
114.6201679613
30
0.0000000000
10
150.8311555301
20
114.0315535169
30
0.0000000000
10
152.4623277521
20
113.5161821868
30
0.0000000000
10
153.4898159922
20
113.2009893732
30
0.0000000000
10
153.9682757299
20
113.0561022993
30
0.0000000000
11
145.1399543045
21
115.9872003758
31
0.0000000000
11
147.1425508872
21
115.2701538556
31
0.0000000000
11
149.0773316850
21
114.6096028319
31
0.0000000000
11
150.8902519338
21
114.0158273960
31
0.0000000000
11
152.5345158922
21
113.4960756970
31
0.0000000000
11
153.9682757299
21
113.0561022993
31
0.0000000000
0
SPLINE
5
2A7
100
AcDbEntity
8
0
100
AcDbSpline
62
7
6
CONTINUOUS
70
0
71
3
72
11
73
7
74
5
42
0.0000001000
43
0.0000001000
44
0.0000000001
12
-16.1023821461
22
-4.9842052339
32
0.0000000000
13
-15.9567393268
23
-5.4324472063
33
0.0000000000
40
0.0000000000
40
0.0000000000
40
0.0000000000
40
0.0000000000
40
0.2136136637
40
0.4506914422
40
0.7124690339
40
1.0000000000
40
1.0000000000
40
1.0000000000
40
1.0000000000
10
84.2873291553
20
120.5392195429
30
0.0000000000
10
83.1407662072
20
120.1843214293
30
0.0000000000
10
80.7259974383
20
119.4216266227
30
0.0000000000
10
76.9191399815
20
118.1833375460
30
0.0000000000
10
72.7264969355
20
116.7887411673
30
0.0000000000
10
69.8028867761
20
115.7995644122
30
0.0000000000
10
68.2735345512
20
115.2788988143
30
0.0000000000
11
84.2873291553
21
120.5392195429
31
0.0000000000
11
80.8532076606
21
119.4567025937
31
0.0000000000
11
77.0524294116
21
118.2222780644
31
0.0000000000
11
72.8649476940
21
116.8310017058
31
0.0000000000
11
68.2735345512
21
115.2788988143
31
0.0000000000
0
SPLINE
5
2A8
100
AcDbEntity
8
0
100
AcDbSpline
62
7
6
CONTINUOUS
70
0
71
3
72
10
73
6
74
4
42
0.0000001000
43
0.0000001000
44
0.0000000001
12
-11.0403012270
22
-3.5716934679
32
0.0000000000
13
-10.9855202715
23
-3.7367886981
33
0.0000000000
40
0.0000000000
40
0.0000000000
40
0.0000000000
40
0.0000000000
40
0.3263682966
40
0.6597843035
40
1.0000000000
40
1.0000000000
40
1.0000000000
40
1.0000000000
10
79.0465640840
20
119.6539843231
30
0.0000000000
10
77.8454959824
20
119.2654218188
30
0.0000000000
10
75.4203899497
20
118.4707251799
30
0.0000000000
10
71.7514465393
20
117.2461726339
30
0.0000000000
10
69.2833937701
20
116.4109717657
30
0.0000000000
10
68.0375782933
20
115.9872003758
30
0.0000000000
11
79.0465640840
21
119.6539843231
31
0.0000000000
11
75.4473698878
21
118.4759733817
31
0.0000000000
11
71.7772427792
21
117.2519750878
31
0.0000000000
11
68.0375782933
21
115.9872003758
31
0.0000000000
0
SPLINE
5
2A9
100
AcDbEntity
8
0
100
AcDbSpline
62
7
6
CONTINUOUS
70
0
71
3
72
12
73
8
74
6
42
0.0000001000
43
0.0000001000
44
0.0000000001
12
-8.7327534568
22
-3.2082029131
32
0.0000000000
13
-8.9041377163
23
-2.6962715735
33
0.0000000000
40
0.0000000000
40
0.0000000000
40
0.0000000000
40
0.0000000000
40
0.2286052200
40
0.4483190874
40
0.6534072755
40
0.8387858559
40
1.0000000000
40
1.0000000000
40
1.0000000000
40
1.0000000000
10
68.0375782933
20
115.9872003758
30
0.0000000000
10
67.3721272848
20
115.7427297315
30
0.0000000000
10
66.0629681391
20
115.2745019248
30
0.0000000000
10
64.1451148761
20
114.6202940977
30
0.0000000000
10
62.3467003533
20
114.0316584813
30
0.0000000000
10
60.7153283502
20
113.5162200227
30
0.0000000000
10
59.6877478481
20
113.2009946706
30
0.0000000000
10
59.2092568679
20
113.0561022993
30
0.0000000000
11
68.0375782933
21
115.9872003758
31
0.0000000000
11
66.0352546778
21
115.2702494679
31
0.0000000000
11
64.1008009130
21
114.6098022456
31
0.0000000000
11
62.2875594785
21
114.0159179212
31
0.0000000000
11
60.6431070512
21
113.4961027635
31
0.0000000000
11
59.2092568679
21
113.0561022993
31
0.0000000000
0
ENDSEC
0
SECTION
2
OBJECTS
0
DICTIONARY
5
C
100
AcDbDictionary
280
0
281
1
3
ACAD_GROUP
350
D
3
ACAD_MLINESTYLE
350
17
3
ACAD_LAYOUT
350
1A
3
ACAD_PLOTSETTINGS
350
19
3
ACAD_PLOTSTYLENAME
350
E
0
DICTIONARY
5
D
102
{ACAD_REACTORS
330
C
102
}
100
AcDbDictionary
280
0
281
1
0
ACDBDICTIONARYWDFLT
5
E
102
{ACAD_REACTORS
330
C
102
}
100
AcDbDictionary
281
1
3
Normal
350
F
100
AcDbDictionaryWithDefault
340
F
0
DICTIONARY
5
17
102
{ACAD_REACTORS
330
C
102
}
100
AcDbDictionary
280
0
281
1
3
Standard
350
18
0
DICTIONARY
5
19
102
{ACAD_REACTORS
330
C
102
}
100
AcDbDictionary
281
1
0
DICTIONARY
5
1A
102
{ACAD_REACTORS
330
C
102
}
100
AcDbDictionary
281
1
3
Layout1
350
1E
3
Model
350
22
0
ACDBPLACEHOLDER
5
F
102
{ACAD_REACTORS
330
E
102
}
0
MLINESTYLE
5
18
102
{ACAD_REACTORS
330
17
102
}
100
AcDbMlineStyle
2
STANDARD
70
0
3

62
256
51
90.0
52
90.0
71
2
49
0.5
62
256
6
BYLAYER
49
-0.5
62
256
6
BYLAYER
0
LAYOUT
5
1E
102
{ACAD_REACTORS
330
1A
102
}
100
AcDbPlotSettings
1

2

4

6

40
0.0
41
0.0
42
0.0
43
0.0
44
0.0
45
0.0
46
0.0
47
0.0
48
0.0
49
0.0
140
0.0
141
0.0
142
1.0
143
1.0
70
0
72
0
73
0
74
0
7

75
0
147
1.0
148
0.0
149
0.0
100
AcDbLayout
1
Layout1
70
0
71
0
10
0.0
20
0.0
11
0.0
21
0.0
12
0.0
22
0.0
32
0.0
14
0.0
24
0.0
34
0.0
15
0.0
25
0.0
35
0.0
146
0.0
13
0.0
23
0.0
33
0.0
16
0.0
26
0.0
36
0.0
17
0.0
27
0.0
37
0.0
76
0
330
1B
331
0
345
0
346
0
0
LAYOUT
5
22
102
{ACAD_REACTORS
330
1A
102
}
100
AcDbPlotSettings
1

2

4

6

40
0.0
41
0.0
42
0.0
43
0.0
44
0.0
45
0.0
46
0.0
47
0.0
48
0.0
49
0.0
140
0.0
141
0.0
142
1.0
143
1.0
70
0
72
0
73
0
74
0
7

75
0
147
1.0
148
0.0
149
0.0
100
AcDbLayout
1
Model
70
0
71
0
10
0.0
20
0.0
11
0.0
21
0.0
12
0.0
22
0.0
32
0.0
14
0.0
24
0.0
34
0.0
15
0.0
25
0.0
35
0.0
146
0.0
13
0.0
23
0.0
33
0.0
16
0.0
26
0.0
36
0.0
17
0.0
27
0.0
37
0.0
76
0
330
1F
331
0
345
0
346
0
0
ENDSEC
0
EOF
