0
SECTION
2
HEADER
9
$EXTMAX
10
420.0000000000
20
297.0000000000
30
0.0000000000
9
$EXTMIN
10
0.0000000000
20
-0.0000000000
30
0.0000000000
9
$LIMMIN
10
0.0000000000
20
-0.0000000000
9
$LIMMAX
10
420.0000000000
20
297.0000000000
9
$VIEWCTR
10
210.0000000000
20
148.5000000000
9
$VIEWSIZE
40
297.0000000000
9
$CLAYER
8
0
9
$LTSCALE
40
23.1000000000
9
$CELTYPE
6
BYLAYER
9
$DIMSCALE
40
1
9
$DIMASZ
40
3.5000000000
9
$DIMEXO
40
2.6250000000
9
$DIMDLI
40
15.9600000000
9
$DIMEXE
40
7.5600000000
9
$DIMCEN
40
3.7800000000
9
$DIMLFAC
40
1.0000000000
9
$DIMBLK
1
_FILLED
9
$DIMTXT
40
3.5000000000
9
$PDMODE
70
3
9
$PDSIZE
40
0.3125000000
0
ENDSEC
0
SECTION
2
TABLES
0
TABLE
2
LTYPE
70
6
0
LTYPE
2
BYBLOCK
70
0
3

72
65
73
0
40
0.0
0
LTYPE
2
BYLAYER
70
0
3

72
65
73
0
40
0.0
0
LTYPE
2
CONTINUOUS
70
64
3
Solid line
72
65
73
0
40
0
0
LTYPE
2
CENTER
70
64
3
____ _ ____ _ ____ _ ____ _ ____ _ ____ _ ____
72
65
73
4
40
0.6
49
0.375
49
-0.075
49
0.075
49
-0.075
0
LTYPE
2
HIDDEN
70
64
3
- - - - - - - - - - - - - - - - - - - -
72
65
73
2
40
0.2
49
0.1
49
-0.1
0
LTYPE
2
PHANTOM
70
64
3
_____ _ _ _____ _ _ _____ _ _ _____
72
65
73
6
40
0.8
49
0.45
49
-0.05
49
0.1
49
-0.05
49
0.1
49
-0.05
0
LTYPE
2
DOT
70
64
3
. . . . . . . . . . . . . . . . . . . .
72
65
73
2
40
0.2
49
0.1
49
-0.1
0
LTYPE
2
DASHED
70
64
3
- - - - - - - - - - - - - - - - - - - -
72
65
73
2
40
0.2
49
0.1
49
-0.1
0
ENDTAB
0
TABLE
2
LAYER
70
36
0
LAYER
2
0
70
0
62
7
6
CONTINUOUS
0
LAYER
2
DEFAULT_1
70
0
62
7
6
CENTER
0
LAYER
2
DEFAULT_2
70
0
62
8
6
HIDDEN
0
LAYER
2
DEFAULT_3
70
0
62
7
6
PHANTOM
0
LAYER
2
ASSI
70
0
62
7
6
CONTINUOUS
0
LAYER
2
AXES
70
0
62
7
6
CONTINUOUS
0
LAYER
2
CURVE
70
0
62
7
6
CONTINUOUS
0
LAYER
2
DIMS
70
0
62
7
6
CONTINUOUS
0
LAYER
2
GEOM
70
0
62
7
6
CONTINUOUS
0
LAYER
2
NOGEOM
70
0
62
7
6
CONTINUOUS
0
LAYER
2
PIANI
70
0
62
7
6
CONTINUOUS
0
LAYER
2
PLANES
70
0
62
7
6
CONTINUOUS
0
LAYER
2
PUNTI
70
0
62
7
6
CONTINUOUS
0
LAYER
2
SURF_FILETTI
70
0
62
7
6
CONTINUOUS
0
LAYER
2
TOLL
70
0
62
7
6
CONTINUOUS
0
LAYER
2
XSEC_DATUMS
70
0
62
7
6
CONTINUOUS
0
ENDTAB
0
TABLE
2
STYLE
70
1
0
STYLE
2
STANDARD
70
0
40
0.0
41
0.7143000000
50
0.0
71
0
42
0.2
3
txt
4

0
ENDTAB
0
ENDSEC
0
SECTION
2
BLOCKS
0
BLOCK
8
0
62
2
6
CONTINUOUS
2
*D0
70
65
10
0.0000000000
20
0.0000000000
0
TEXT
8
0
62
2
6
CONTINUOUS
10
131.7035608325
20
21.0259528586
7
STANDARD
40
3.5000000000
1
75
41
0.7143000000
72
0
0
LINE
8
0
62
2
6
CONTINUOUS
10
95.2913741224
20
28.4520746892
11
95.2913741224
21
18.6509528586
0
LINE
8
0
62
2
6
CONTINUOUS
10
170.2913741224
20
28.4520746892
11
170.2913741224
21
18.6509528586
0
LINE
8
0
62
2
6
CONTINUOUS
10
95.2913741224
20
20.1509528586
11
132.7913741224
21
20.1509528586
0
LINE
8
0
62
2
6
CONTINUOUS
10
170.2913741224
20
20.1509528586
11
132.7913741224
21
20.1509528586
0
INSERT
8
0
62
2
6
CONTINUOUS
2
_FILLED
10
95.2913741224
20
20.1509528586
41
  3.500000
42
  3.500000
43
  3.500000
50
180.000000
0
INSERT
8
0
62
2
6
CONTINUOUS
2
_FILLED
10
170.2913741224
20
20.1509528586
41
  3.500000
42
  3.500000
43
  3.500000
0
ENDBLK
8
0
6
BYBLOCK
62
0
0
BLOCK
8
0
62
2
6
CONTINUOUS
2
*D1
70
65
10
0.0000000000
20
0.0000000000
0
TEXT
8
0
62
2
6
CONTINUOUS
10
58.8331243731
20
155.8306172267
7
STANDARD
40
3.5000000000
1
252.4
50
90.0000000000
41
0.7143000000
72
0
0
LINE
8
0
62
2
6
CONTINUOUS
10
121.9413741224
20
286.0702709940
11
58.2081243731
21
286.0702709940
0
LINE
8
0
62
2
6
CONTINUOUS
10
81.5413741224
20
33.7123871615
11
58.2081243731
21
33.7123871615
0
LINE
8
0
62
2
6
CONTINUOUS
10
59.7081243731
20
286.0702709940
11
59.7081243731
21
159.8913290777
0
LINE
8
0
62
2
6
CONTINUOUS
10
59.7081243731
20
33.7123871615
11
59.7081243731
21
159.8913290777
0
INSERT
8
0
62
2
6
CONTINUOUS
2
_FILLED
10
59.7081243731
20
286.0702709940
41
  3.500000
42
  3.500000
43
  3.500000
50
 90.000000
0
INSERT
8
0
62
2
6
CONTINUOUS
2
_FILLED
10
59.7081243731
20
33.7123871615
41
  3.500000
42
  3.500000
43
  3.500000
50
270.000000
0
ENDBLK
8
0
6
BYBLOCK
62
0
0
BLOCK
8
0
62
2
6
CONTINUOUS
2
*D2
70
65
10
0.0000000000
20
0.0000000000
0
TEXT
8
0
62
2
6
CONTINUOUS
10
79.6621993614
20
163.7324853184
7
STANDARD
40
3.5000000000
1
207.5
50
90.0000000000
41
0.7143000000
72
0
0
LINE
8
0
62
2
6
CONTINUOUS
10
121.9413741224
20
286.0702709940
11
79.0371993614
21
286.0702709940
0
LINE
8
0
62
2
6
CONTINUOUS
10
132.2913741224
20
78.5557628345
11
79.0371993614
21
78.5557628345
0
LINE
8
0
62
2
6
CONTINUOUS
10
80.5371993614
20
286.0702709940
11
80.5371993614
21
182.3130169142
0
LINE
8
0
62
2
6
CONTINUOUS
10
80.5371993614
20
78.5557628345
11
80.5371993614
21
182.3130169142
0
INSERT
8
0
62
2
6
CONTINUOUS
2
_FILLED
10
80.5371993614
20
286.0702709940
41
  3.500000
42
  3.500000
43
  3.500000
50
 90.000000
0
INSERT
8
0
62
2
6
CONTINUOUS
2
_FILLED
10
80.5371993614
20
78.5557628345
41
  3.500000
42
  3.500000
43
  3.500000
50
270.000000
0
ENDBLK
8
0
6
BYBLOCK
62
0
0
BLOCK
8
0
62
2
6
CONTINUOUS
2
*D3
70
65
10
0.0000000000
20
0.0000000000
0
TEXT
8
0
62
2
6
CONTINUOUS
10
124.4012661511
20
10.0991785537
7
STANDARD
40
3.5000000000
1
%%c
41
1.3333333333
72
0
0
TEXT
8
0
62
2
6
CONTINUOUS
10
129.0679328177
20
10.0991785537
7
STANDARD
40
3.5000000000
1
102.5
41
0.7143000000
72
0
0
LINE
8
0
62
2
6
CONTINUOUS
10
184.0239243740
20
33.7120825750
11
184.0239243740
21
7.7241785537
0
LINE
8
0
62
2
6
CONTINUOUS
10
81.5588238707
20
33.7120825750
11
81.5588238707
21
7.7241785537
0
LINE
8
0
62
2
6
CONTINUOUS
10
184.0239243740
20
9.2241785537
11
132.7913741224
21
9.2241785537
0
LINE
8
0
62
2
6
CONTINUOUS
10
81.5588238707
20
9.2241785537
11
132.7913741224
21
9.2241785537
0
INSERT
8
0
62
2
6
CONTINUOUS
2
_FILLED
10
184.0239243740
20
9.2241785537
41
  3.500000
42
  3.500000
43
  3.500000
0
INSERT
8
0
62
2
6
CONTINUOUS
2
_FILLED
10
81.5588238707
20
9.2241785537
41
  3.500000
42
  3.500000
43
  3.500000
50
180.000000
0
ENDBLK
8
0
6
BYBLOCK
62
0
0
BLOCK
8
0
62
2
6
CONTINUOUS
2
*D4
70
65
10
0.0000000000
20
0.0000000000
0
TEXT
8
0
62
2
6
CONTINUOUS
10
242.6019303849
20
90.2817848443
7
STANDARD
40
3.5000000000
1
Ch.
41
0.7143000000
72
0
0
TEXT
8
0
62
2
6
CONTINUOUS
10
250.1020803849
20
90.2817848443
7
STANDARD
40
3.5000000000
1
19
41
0.7143000000
72
0
0
LINE
8
0
62
2
6
CONTINUOUS
10
270.2241725176
20
77.6123871615
11
270.2241725176
21
90.9067848443
0
LINE
8
0
62
2
6
CONTINUOUS
10
289.2241725176
20
77.6123871615
11
289.2241725176
21
90.9067848443
0
LINE
8
0
62
2
6
CONTINUOUS
10
270.2241725176
20
89.4067848443
11
279.7241725176
21
89.4067848443
0
LINE
8
0
62
2
6
CONTINUOUS
10
279.7241725176
20
89.4067848443
11
242.6019303849
21
89.4067848443
0
LINE
8
0
62
2
6
CONTINUOUS
10
289.2241725176
20
89.4067848443
11
279.7241725176
21
89.4067848443
0
INSERT
8
0
62
2
6
CONTINUOUS
2
_FILLED
10
270.2241725176
20
89.4067848443
41
  3.500000
42
  3.500000
43
  3.500000
50
180.000000
0
INSERT
8
0
62
2
6
CONTINUOUS
2
_FILLED
10
289.2241725176
20
89.4067848443
41
  3.500000
42
  3.500000
43
  3.500000
0
ENDBLK
8
0
6
BYBLOCK
62
0
0
BLOCK
8
0
62
2
6
CONTINUOUS
2
*D5
70
65
10
0.0000000000
20
0.0000000000
0
TEXT
8
0
62
2
6
CONTINUOUS
10
129.1050410000
20
292.7315490856
7
STANDARD
40
3.5000000000
1
M
41
0.7143000000
72
0
0
TEXT
8
0
62
2
6
CONTINUOUS
10
131.6050910000
20
292.7315490856
7
STANDARD
40
3.5000000000
1
24
41
0.7143000000
72
0
0
LINE
8
0
62
2
6
CONTINUOUS
10
120.7913741224
20
283.7123871615
11
120.7913741224
21
293.3565490856
0
LINE
8
0
62
2
6
CONTINUOUS
10
144.7913741224
20
283.7123871615
11
144.7913741224
21
293.3565490856
0
LINE
8
0
62
2
6
CONTINUOUS
10
120.7913741224
20
291.8565490856
11
132.7913741224
21
291.8565490856
0
LINE
8
0
62
2
6
CONTINUOUS
10
144.7913741224
20
291.8565490856
11
132.7913741224
21
291.8565490856
0
INSERT
8
0
62
2
6
CONTINUOUS
2
_FILLED
10
120.7913741224
20
291.8565490856
41
  3.500000
42
  3.500000
43
  3.500000
50
180.000000
0
INSERT
8
0
62
2
6
CONTINUOUS
2
_FILLED
10
144.7913741224
20
291.8565490856
41
  3.500000
42
  3.500000
43
  3.500000
0
ENDBLK
8
0
6
BYBLOCK
62
0
0
BLOCK
8
0
2
_FILLED
70
64
10
0.0000000000
20
0.0000000000
0
SOLID
8
0
6
BYBLOCK
62
0
10
0.0000000000
20
0.0000000000
11
-1.0000000000
21
0.1857142857
12
-1.0000000000
22
-0.1857142857
13
-1.0000000000
23
-0.1857142857
0
ENDBLK
8
0
6
BYBLOCK
62
0
0
ENDSEC
0
SECTION
2
ENTITIES
0
DIMENSION
8
0
62
2
6
CONTINUOUS
2
*D0
10
170.2913741224
20
20.1509528586
11
134.2036108325
21
22.7759528586
70
128
13
95.2913741224
23
28.4520746892
14
170.2913741224
24
28.4520746892
0
DIMENSION
8
0
62
2
6
CONTINUOUS
2
*D1
10
59.7081243731
20
33.7123871615
11
57.0831243731
21
162.0807422267
70
128
13
121.9413741224
23
286.0702709940
14
81.5413741224
24
33.7123871615
50
270.000000
0
DIMENSION
8
0
62
2
6
CONTINUOUS
2
*D2
10
80.5371993614
20
78.5557628345
11
77.9121993614
21
169.9826103184
70
128
13
121.9413741224
23
286.0702709940
14
132.2913741224
24
78.5557628345
50
270.000000
0
DIMENSION
8
0
62
2
6
CONTINUOUS
2
*D3
10
81.5588238707
20
9.2241785537
11
132.9847244844
21
11.8491785537
70
128
13
184.0239243740
23
33.7120825750
14
81.5588238707
24
33.7120825750
50
180.000000
0
DIMENSION
8
0
62
2
6
CONTINUOUS
2
*D4
10
289.2241725176
20
89.4067848443
11
248.8520553849
21
92.0317848443
70
128
13
270.2241725176
23
77.6123871615
14
289.2241725176
24
77.6123871615
0
DIMENSION
8
0
62
2
6
CONTINUOUS
2
*D5
10
144.7913741224
20
291.8565490856
11
132.8551160000
21
294.4815490856
70
128
13
120.7913741224
23
283.7123871615
14
144.7913741224
24
283.7123871615
0
LINE
8
0
62
7
6
CONTINUOUS
10
0.0000000000
20
-0.0000000000
11
0.0000000000
21
297.0000000000
0
LINE
8
0
62
7
6
CONTINUOUS
10
0.0000000000
20
-0.0000000000
11
420.0000000000
21
-0.0000000000
0
LINE
8
0
62
7
6
CONTINUOUS
10
0.0000000000
20
297.0000000000
11
420.0000000000
21
297.0000000000
0
LINE
8
0
62
7
6
CONTINUOUS
10
420.0000000000
20
-0.0000000000
11
420.0000000000
21
297.0000000000
0
LINE
8
0
62
7
6
CONTINUOUS
10
183.5413741224
20
33.7123871615
11
82.0413741224
21
33.7123871615
0
LINE
8
0
62
7
6
CONTINUOUS
10
184.0239243740
20
34.2120825750
11
81.5588238707
21
34.2120825750
0
LINE
8
0
62
7
6
CONTINUOUS
10
182.8956431633
20
40.3418990391
11
82.6871050815
21
40.3418990391
0
POLYLINE
8
0
62
7
6
CONTINUOUS
66
1
70
0
0
VERTEX
8
0
62
7
6
CONTINUOUS
10
82.6871050815
20
40.3418990391
0
VERTEX
8
0
62
7
6
CONTINUOUS
10
82.5611668499
20
40.3591866587
0
VERTEX
8
0
62
7
6
CONTINUOUS
10
82.4443668284
20
40.4137004499
0
VERTEX
8
0
62
7
6
CONTINUOUS
10
82.3371215053
20
40.5047297402
0
VERTEX
8
0
62
7
6
CONTINUOUS
10
82.2398276012
20
40.6344065472
0
VERTEX
8
0
62
7
6
CONTINUOUS
10
82.1529574031
20
40.8037043253
0
VERTEX
8
0
62
7
6
CONTINUOUS
10
82.0768631462
20
41.0153880919
0
VERTEX
8
0
62
7
6
CONTINUOUS
10
82.0119860692
20
41.2715225906
0
VERTEX
8
0
62
7
6
CONTINUOUS
10
81.9590125990
20
41.5751820979
0
VERTEX
8
0
62
7
6
CONTINUOUS
10
81.9186523677
20
41.9305994539
0
VERTEX
8
0
62
7
6
CONTINUOUS
10
81.8915307467
20
42.3363637117
0
SEQEND
0
LINE
8
0
62
7
6
CONTINUOUS
10
81.5588238707
20
34.2120825750
11
82.0413741224
21
33.7123871615
0
LINE
8
CURVE
62
2
6
PHANTOM
10
183.6921661071
20
43.7123871615
11
183.6319243291
21
43.7123871615
0
LINE
8
CURVE
62
2
6
PHANTOM
10
81.8905822765
20
43.7123871615
11
81.9507559280
21
43.7123871615
0
LINE
8
0
62
7
6
CONTINUOUS
10
179.5900454272
20
44.8658646595
11
85.9927028175
21
44.8658646595
0
LINE
8
0
62
7
6
CONTINUOUS
10
180.8099040524
20
51.8787972242
11
160.1338262652
21
51.8787972226
0
LINE
8
0
62
7
6
CONTINUOUS
10
105.4489218945
20
51.8787972228
11
84.7728441924
21
51.8787972242
0
POLYLINE
8
0
62
7
6
CONTINUOUS
66
1
70
0
0
VERTEX
8
0
62
7
6
CONTINUOUS
10
107.2937583680
20
52.2123871615
0
VERTEX
8
0
62
7
6
CONTINUOUS
10
107.3114494595
20
52.2116711274
0
VERTEX
8
0
62
7
6
CONTINUOUS
10
107.3242516778
20
52.2092975244
0
VERTEX
8
0
62
7
6
CONTINUOUS
10
107.3325081247
20
52.2053341425
0
VERTEX
8
0
62
7
6
CONTINUOUS
10
107.3351841696
20
52.1995776118
0
VERTEX
8
0
62
7
6
CONTINUOUS
10
107.3312369997
20
52.1918245625
0
VERTEX
8
0
62
7
6
CONTINUOUS
10
107.3210010950
20
52.1821427846
0
SEQEND
0
POLYLINE
8
0
62
7
6
CONTINUOUS
66
1
70
0
0
VERTEX
8
0
62
7
6
CONTINUOUS
10
183.2841857127
20
43.8259690647
0
VERTEX
8
0
62
7
6
CONTINUOUS
10
183.1823777239
20
43.8392576859
0
VERTEX
8
0
62
7
6
CONTINUOUS
10
183.0645188137
20
43.8663187142
0
SEQEND
0
LINE
8
0
62
7
6
CONTINUOUS
10
119.7913741224
20
56.2123871615
11
113.2688332976
21
55.0535025813
0
LINE
8
0
62
7
6
CONTINUOUS
10
106.8324158246
20
52.1055887027
11
105.4489218977
21
51.8787971749
0
LINE
8
0
62
7
6
CONTINUOUS
10
107.1613158666
20
52.1580527707
11
106.8324158246
21
52.1055887027
0
POLYLINE
8
0
62
7
6
CONTINUOUS
66
1
70
0
0
VERTEX
8
0
62
7
6
CONTINUOUS
10
107.3209979806
20
52.1821546772
0
VERTEX
8
0
62
7
6
CONTINUOUS
10
107.2949152732
20
52.1784956698
0
VERTEX
8
0
62
7
6
CONTINUOUS
10
107.2583356046
20
52.1730571914
0
VERTEX
8
0
62
7
6
CONTINUOUS
10
107.1613158666
20
52.1580527707
0
SEQEND
0
LINE
8
0
62
7
6
CONTINUOUS
10
180.3384088761
20
52.2123871615
11
158.2892843653
21
52.2123871615
0
LINE
8
0
62
7
6
CONTINUOUS
10
107.2934862038
20
52.2123871615
11
85.2443393687
21
52.2123871615
0
LINE
8
0
62
7
6
CONTINUOUS
10
112.4334030351
20
54.8290649553
11
153.1493452096
21
54.8290649553
0
LINE
8
0
62
7
6
CONTINUOUS
10
113.2688332976
20
55.0535025813
11
152.3139149472
21
55.0535025813
0
LINE
8
0
62
7
6
CONTINUOUS
10
145.7913741224
20
56.2123871615
11
119.7913741224
21
56.2123871615
0
LINE
8
0
62
7
6
CONTINUOUS
10
120.6913741224
20
56.7123871615
11
144.8913741224
21
56.7123871615
0
LINE
8
0
62
7
6
CONTINUOUS
10
139.1463123955
20
57.3785772292
11
126.4364358491
21
57.3785772289
0
LINE
8
0
62
7
6
CONTINUOUS
10
139.0413741224
20
57.8245194957
11
126.5413741224
21
57.8245194957
0
LINE
8
0
62
7
6
CONTINUOUS
10
158.2870187965
20
52.1786077655
11
158.2615630563
21
52.1822058700
0
LINE
8
0
62
7
6
CONTINUOUS
10
158.3657318705
20
52.1667116070
11
158.2870187965
21
52.1786077655
0
LINE
8
0
62
7
6
CONTINUOUS
10
158.5963445339
20
52.1303202715
11
158.3657318705
21
52.1667116070
0
LINE
8
0
62
7
6
CONTINUOUS
10
159.7341600370
20
51.9448403857
11
158.5963445339
21
52.1303202715
0
LINE
8
0
62
7
6
CONTINUOUS
10
160.1338262718
20
51.8787972027
11
159.7341600370
21
51.9448403857
0
LINE
8
0
62
7
6
CONTINUOUS
10
145.7913741224
20
56.2123871615
11
152.3139149472
21
55.0535025813
0
POLYLINE
8
0
62
7
6
CONTINUOUS
66
1
70
0
0
VERTEX
8
0
62
7
6
CONTINUOUS
10
183.0645188137
20
43.8663187142
0
VERTEX
8
0
62
7
6
CONTINUOUS
10
182.6372631478
20
43.9694940354
0
VERTEX
8
0
62
7
6
CONTINUOUS
10
182.4793671139
20
44.0083206767
0
VERTEX
8
0
62
7
6
CONTINUOUS
10
182.3198181081
20
44.0483592108
0
VERTEX
8
0
62
7
6
CONTINUOUS
10
182.1594498323
20
44.0895659004
0
VERTEX
8
0
62
7
6
CONTINUOUS
10
182.0004306735
20
44.1313765021
0
VERTEX
8
0
62
7
6
CONTINUOUS
10
181.8432594140
20
44.1736154296
0
VERTEX
8
0
62
7
6
CONTINUOUS
10
181.6886660754
20
44.2160237187
0
VERTEX
8
0
62
7
6
CONTINUOUS
10
181.5370561641
20
44.2584169856
0
VERTEX
8
0
62
7
6
CONTINUOUS
10
181.3887114505
20
44.3006631358
0
VERTEX
8
0
62
7
6
CONTINUOUS
10
181.2438058821
20
44.3426568173
0
VERTEX
8
0
62
7
6
CONTINUOUS
10
181.1023833774
20
44.3843420475
0
VERTEX
8
0
62
7
6
CONTINUOUS
10
180.9643766293
20
44.4256908477
0
SEQEND
0
LINE
8
0
62
7
6
CONTINUOUS
10
113.2688332976
20
55.0535025813
11
112.4334030351
21
54.8290649553
0
LINE
8
0
62
7
6
CONTINUOUS
10
139.0413741224
20
62.8444379691
11
126.5413741224
21
62.8444379691
0
LINE
8
0
62
7
6
CONTINUOUS
10
139.1753487186
20
63.3444379691
11
126.4073995262
21
63.3444379691
0
LINE
8
0
62
7
6
CONTINUOUS
10
122.4413741224
20
70.2137954725
11
128.6837595626
21
70.2137954725
0
LINE
8
0
62
7
6
CONTINUOUS
10
136.8989890021
20
70.2137954725
11
143.1413741224
21
70.2137954725
0
LINE
8
0
62
7
6
CONTINUOUS
10
152.3139149472
20
55.0535025813
11
153.1493452096
21
54.8290649553
0
POLYLINE
8
0
62
7
6
CONTINUOUS
66
1
70
0
0
VERTEX
8
0
62
7
6
CONTINUOUS
10
179.6824201237
20
44.8384338132
0
VERTEX
8
0
62
7
6
CONTINUOUS
10
178.6225671409
20
45.1544098678
0
VERTEX
8
0
62
7
6
CONTINUOUS
10
178.1216875369
20
45.3057645082
0
VERTEX
8
0
62
7
6
CONTINUOUS
10
177.6138736414
20
45.4606120055
0
VERTEX
8
0
62
7
6
CONTINUOUS
10
177.1025543378
20
45.6180237278
0
VERTEX
8
0
62
7
6
CONTINUOUS
10
176.5907555375
20
45.7771000695
0
VERTEX
8
0
62
7
6
CONTINUOUS
10
176.0815863849
20
45.9369363163
0
VERTEX
8
0
62
7
6
CONTINUOUS
10
175.5779050304
20
46.0966191621
0
VERTEX
8
0
62
7
6
CONTINUOUS
10
175.0820479517
20
46.2554213296
0
VERTEX
8
0
62
7
6
CONTINUOUS
10
174.5983093746
20
46.4118800180
0
VERTEX
8
0
62
7
6
CONTINUOUS
10
174.1313372493
20
46.5644338681
0
VERTEX
8
0
62
7
6
CONTINUOUS
10
173.6820256857
20
46.7126512780
0
SEQEND
0
POLYLINE
8
0
62
7
6
CONTINUOUS
66
1
70
0
0
VERTEX
8
0
62
7
6
CONTINUOUS
10
180.9643766293
20
44.4256908477
0
VERTEX
8
0
62
7
6
CONTINUOUS
10
180.6978556913
20
44.5074578584
0
VERTEX
8
0
62
7
6
CONTINUOUS
10
180.5687544890
20
44.5479942108
0
VERTEX
8
0
62
7
6
CONTINUOUS
10
180.4419168900
20
44.5884296920
0
VERTEX
8
0
62
7
6
CONTINUOUS
10
180.3168958256
20
44.6288980075
0
VERTEX
8
0
62
7
6
CONTINUOUS
10
180.1931210470
20
44.6695787033
0
VERTEX
8
0
62
7
6
CONTINUOUS
10
180.0695897602
20
44.7108129932
0
SEQEND
0
POLYLINE
8
0
62
7
6
CONTINUOUS
66
1
70
0
0
VERTEX
8
0
62
7
6
CONTINUOUS
10
179.4235831544
20
45.1693009110
0
VERTEX
8
0
62
7
6
CONTINUOUS
10
178.4866972138
20
45.4580272968
0
VERTEX
8
0
62
7
6
CONTINUOUS
10
178.0021389260
20
45.6093935832
0
VERTEX
8
0
62
7
6
CONTINUOUS
10
177.5110423367
20
45.7642276490
0
VERTEX
8
0
62
7
6
CONTINUOUS
10
177.0166969118
20
45.9216316243
0
VERTEX
8
0
62
7
6
CONTINUOUS
10
176.5220476213
20
46.0806962705
0
VERTEX
8
0
62
7
6
CONTINUOUS
10
176.0300809939
20
46.2405173144
0
VERTEX
8
0
62
7
6
CONTINUOUS
10
175.5436151019
20
46.4001819896
0
VERTEX
8
0
62
7
6
CONTINUOUS
10
175.0648220387
20
46.5589628368
0
VERTEX
8
0
62
7
6
CONTINUOUS
10
174.5979315505
20
46.7153996612
0
VERTEX
8
0
62
7
6
CONTINUOUS
10
174.1472886174
20
46.8679333497
0
VERTEX
8
0
62
7
6
CONTINUOUS
10
173.7139186101
20
47.0161331984
0
VERTEX
8
0
62
7
6
CONTINUOUS
10
173.3004381242
20
47.1588903949
0
SEQEND
0
POLYLINE
8
0
62
7
6
CONTINUOUS
66
1
70
0
0
VERTEX
8
0
62
7
6
CONTINUOUS
10
183.2841912181
20
43.8259540369
0
VERTEX
8
0
62
7
6
CONTINUOUS
10
183.1751794877
20
43.8614498805
0
VERTEX
8
0
62
7
6
CONTINUOUS
10
183.0517056057
20
43.9038730062
0
VERTEX
8
0
62
7
6
CONTINUOUS
10
182.7607415045
20
44.0095011043
0
SEQEND
0
LINE
8
0
62
7
6
CONTINUOUS
10
173.6820256857
20
46.7126512780
11
172.8433832473
21
46.9932206120
0
POLYLINE
8
0
62
7
6
CONTINUOUS
66
1
70
0
0
VERTEX
8
0
62
7
6
CONTINUOUS
10
180.0695897602
20
44.7108129932
0
VERTEX
8
0
62
7
6
CONTINUOUS
10
179.8607888950
20
44.7816657215
0
VERTEX
8
0
62
7
6
CONTINUOUS
10
179.7726641945
20
44.8103461063
0
VERTEX
8
0
62
7
6
CONTINUOUS
10
179.6824201237
20
44.8384338132
0
SEQEND
0
LINE
8
0
62
7
6
CONTINUOUS
10
172.8433832473
20
46.9932206120
11
172.0771564542
21
47.2542295849
0
LINE
8
0
62
7
6
CONTINUOUS
10
182.6004976729
20
44.0654162226
11
181.6045984193
21
44.4064720462
0
LINE
8
0
62
7
6
CONTINUOUS
10
172.0771564542
20
47.2542295849
11
171.3757523163
21
47.4972743706
0
LINE
8
0
62
7
6
CONTINUOUS
10
181.6045984193
20
44.4064720462
11
180.9927988594
21
44.6183336617
0
LINE
8
0
62
7
6
CONTINUOUS
10
182.7607415045
20
44.0095011043
11
182.6004976729
21
44.0654162226
0
LINE
8
0
62
7
6
CONTINUOUS
10
173.3004381242
20
47.1588903949
11
172.5277301611
21
47.4295218313
0
LINE
8
0
62
7
6
CONTINUOUS
10
171.3757523163
20
47.4972743706
11
170.7299831032
21
47.7246981145
0
LINE
8
0
62
7
6
CONTINUOUS
10
180.9927988594
20
44.6183336617
11
180.4385857606
21
44.8133482988
0
LINE
8
0
62
7
6
CONTINUOUS
10
160.3580873648
20
51.4393949170
11
158.2615640860
21
52.1822077871
0
LINE
8
0
62
7
6
CONTINUOUS
10
162.4459233979
20
51.0565654531
11
160.1338262652
21
51.8787972226
0
LINE
8
0
62
7
6
CONTINUOUS
10
162.5953975284
20
50.6427867493
11
160.3580873648
21
51.4393949170
0
LINE
8
0
62
7
6
CONTINUOUS
10
164.9215066276
20
50.1721603814
11
162.4459233979
21
51.0565654531
0
LINE
8
0
62
7
6
CONTINUOUS
10
164.9744727332
20
49.7921385709
11
162.5953975284
21
50.6427867493
0
POLYLINE
8
0
62
7
6
CONTINUOUS
66
1
70
0
0
VERTEX
8
0
62
7
6
CONTINUOUS
10
179.7960944805
20
45.0445439709
0
VERTEX
8
0
62
7
6
CONTINUOUS
10
179.7062268581
20
45.0767144576
0
VERTEX
8
0
62
7
6
CONTINUOUS
10
179.6142122365
20
45.1082307766
0
VERTEX
8
0
62
7
6
CONTINUOUS
10
179.5200109313
20
45.1390929277
0
VERTEX
8
0
62
7
6
CONTINUOUS
10
179.4235831544
20
45.1693009110
0
SEQEND
0
LINE
8
0
62
7
6
CONTINUOUS
10
172.5277301611
20
47.4295218313
11
171.8218086470
21
47.6812892214
0
LINE
8
0
62
7
6
CONTINUOUS
10
167.5333197313
20
49.2354824475
11
164.9215066276
21
50.1721603814
0
LINE
8
0
62
7
6
CONTINUOUS
10
167.4860918302
20
48.8908885533
11
164.9744727332
21
49.7921385709
0
LINE
8
0
62
7
6
CONTINUOUS
10
170.7299831032
20
47.7246981145
11
170.1288472431
21
47.9397072061
0
LINE
8
0
62
7
6
CONTINUOUS
10
180.4385857606
20
44.8133482988
11
180.0500705525
21
44.9523844299
0
LINE
8
0
62
7
6
CONTINUOUS
10
170.2913741224
20
48.2431434576
11
167.5333197313
21
49.2354824475
0
LINE
8
0
62
7
6
CONTINUOUS
10
170.1288472431
20
47.9397072061
11
167.4860918302
21
48.8908885533
0
LINE
8
0
62
7
6
CONTINUOUS
10
153.1493452096
20
54.8290649553
11
160.3386083621
21
52.2123871615
0
LINE
8
0
62
7
6
CONTINUOUS
10
180.0500705525
20
44.9523844299
11
179.7960944805
21
45.0445439709
0
LINE
8
0
62
7
6
CONTINUOUS
10
171.8218086470
20
47.6812892214
11
171.1744857843
21
47.9161628967
0
POLYLINE
8
0
62
7
6
CONTINUOUS
66
1
70
0
0
VERTEX
8
0
62
7
6
CONTINUOUS
10
171.1744857843
20
47.9161628967
0
VERTEX
8
0
62
7
6
CONTINUOUS
10
170.5751463702
20
48.1371792780
0
VERTEX
8
0
62
7
6
CONTINUOUS
10
170.2913741224
20
48.2431434576
0
SEQEND
0
LINE
8
0
62
7
6
CONTINUOUS
10
144.7913741224
20
73.0716793050
11
140.1228132717
21
73.0716793050
0
LINE
8
0
62
7
6
CONTINUOUS
10
125.4599349731
20
73.0716793050
11
120.7913741224
21
73.0716793050
0
LINE
8
0
62
7
6
CONTINUOUS
10
140.1228132717
20
77.1123871615
11
125.4599349731
21
77.1123871615
0
LINE
8
0
62
7
6
CONTINUOUS
10
120.7913741224
20
283.2123871615
11
122.5234249299
21
286.2123871615
0
POLYLINE
8
0
62
2
6
CONTINUOUS
66
1
70
0
0
VERTEX
8
0
62
2
6
CONTINUOUS
10
128.6837592427
20
77.1123871615
0
VERTEX
8
0
62
2
6
CONTINUOUS
10
130.2822896015
20
77.4248864269
0
VERTEX
8
0
62
2
6
CONTINUOUS
10
131.9475336930
20
77.5832412984
0
VERTEX
8
0
62
2
6
CONTINUOUS
10
133.6352145517
20
77.5832412984
0
VERTEX
8
0
62
2
6
CONTINUOUS
10
135.3004586433
20
77.4248864269
0
VERTEX
8
0
62
2
6
CONTINUOUS
10
136.8989890021
20
77.1123871615
0
SEQEND
0
POLYLINE
8
0
62
7
6
CONTINUOUS
66
1
70
0
0
VERTEX
8
0
62
7
6
CONTINUOUS
10
140.1228132717
20
77.1123871615
0
VERTEX
8
0
62
7
6
CONTINUOUS
10
139.1589189803
20
77.4980995911
0
VERTEX
8
0
62
7
6
CONTINUOUS
10
138.1606884076
20
77.8235385181
0
VERTEX
8
0
62
7
6
CONTINUOUS
10
137.1240917883
20
78.0884435314
0
VERTEX
8
0
62
7
6
CONTINUOUS
10
136.0612184182
20
78.2935958647
0
VERTEX
8
0
62
7
6
CONTINUOUS
10
134.9810203309
20
78.4395394097
0
VERTEX
8
0
62
7
6
CONTINUOUS
10
133.8888795493
20
78.5267257818
0
VERTEX
8
0
62
7
6
CONTINUOUS
10
132.7913738487
20
78.5558670196
0
VERTEX
8
0
62
7
6
CONTINUOUS
10
131.6938680052
20
78.5267257452
0
VERTEX
8
0
62
7
6
CONTINUOUS
10
130.6017265773
20
78.4395392298
0
VERTEX
8
0
62
7
6
CONTINUOUS
10
129.5215279924
20
78.2935955648
0
VERTEX
8
0
62
7
6
CONTINUOUS
10
128.4586551051
20
78.0884432602
0
VERTEX
8
0
62
7
6
CONTINUOUS
10
127.4220591920
20
77.8235383318
0
VERTEX
8
0
62
7
6
CONTINUOUS
10
126.4238290098
20
77.4980994888
0
VERTEX
8
0
62
7
6
CONTINUOUS
10
125.4599349731
20
77.1123871615
0
SEQEND
0
LINE
8
0
62
7
6
CONTINUOUS
10
129.2838655784
20
69.8280054421
11
128.5403773287
21
70.3137975818
0
POLYLINE
8
0
62
7
6
CONTINUOUS
66
1
70
0
0
VERTEX
8
0
62
7
6
CONTINUOUS
10
128.5403773287
20
70.3137975818
0
VERTEX
8
0
62
7
6
CONTINUOUS
10
127.7875260698
20
70.8846468685
0
VERTEX
8
0
62
7
6
CONTINUOUS
10
127.0234952552
20
71.5368820776
0
VERTEX
8
0
62
7
6
CONTINUOUS
10
126.2475498902
20
72.2653165999
0
VERTEX
8
0
62
7
6
CONTINUOUS
10
125.4599349731
20
73.0716793050
0
SEQEND
0
POLYLINE
8
0
62
7
6
CONTINUOUS
66
1
70
0
0
VERTEX
8
0
62
7
6
CONTINUOUS
10
95.2913741224
20
48.2431433662
0
VERTEX
8
0
62
7
6
CONTINUOUS
10
95.3252238935
20
48.1626247777
0
VERTEX
8
0
62
7
6
CONTINUOUS
10
95.3578447325
20
48.0910710418
0
VERTEX
8
0
62
7
6
CONTINUOUS
10
95.3880523263
20
48.0310799463
0
VERTEX
8
0
62
7
6
CONTINUOUS
10
95.4147499756
20
47.9848294929
0
VERTEX
8
0
62
7
6
CONTINUOUS
10
95.4369684113
20
47.9539988235
0
VERTEX
8
0
62
7
6
CONTINUOUS
10
95.4539009836
20
47.9397072582
0
SEQEND
0
LINE
8
0
62
7
6
CONTINUOUS
10
82.2989606141
20
43.8248674073
11
82.1458200223
21
44.4355620756
0
LINE
8
0
62
7
6
CONTINUOUS
10
81.8915307467
20
42.3363637117
11
81.8638175551
21
42.9459589705
0
POLYLINE
8
0
62
7
6
CONTINUOUS
66
1
70
0
0
VERTEX
8
0
62
7
6
CONTINUOUS
10
158.2615640860
20
52.1822077871
0
VERTEX
8
0
62
7
6
CONTINUOUS
10
158.2514876925
20
52.1918490496
0
VERTEX
8
0
62
7
6
CONTINUOUS
10
158.2476244927
20
52.1995861011
0
VERTEX
8
0
62
7
6
CONTINUOUS
10
158.2502740159
20
52.2053630064
0
VERTEX
8
0
62
7
6
CONTINUOUS
10
158.2584984589
20
52.2093475712
0
VERTEX
8
0
62
7
6
CONTINUOUS
10
158.2713681989
20
52.2117076013
0
VERTEX
8
0
62
7
6
CONTINUOUS
10
158.2891913838
20
52.2123871615
0
SEQEND
0
LINE
8
0
62
7
6
CONTINUOUS
10
120.7913741224
20
73.0716793050
11
126.4073995262
21
63.3444379691
0
LINE
8
0
62
7
6
CONTINUOUS
10
81.8638175551
20
42.9459589705
11
81.5588238707
21
34.2120825750
0
LINE
8
DEFAULT_1
62
2
6
CENTER
10
95.2913741224
20
38.4726996337
11
95.2913741224
21
28.9520746892
0
LINE
8
0
62
7
6
CONTINUOUS
10
95.2913741224
20
48.2431434576
11
95.2913741224
21
52.2123871615
0
POLYLINE
8
0
62
7
6
CONTINUOUS
66
1
70
0
0
VERTEX
8
0
62
7
6
CONTINUOUS
10
82.6871050815
20
40.3418990391
0
VERTEX
8
0
62
7
6
CONTINUOUS
10
82.7374107855
20
40.9020770015
0
VERTEX
8
0
62
7
6
CONTINUOUS
10
82.8491922654
20
41.4529553711
0
VERTEX
8
0
62
7
6
CONTINUOUS
10
83.0210344345
20
41.9875618140
0
VERTEX
8
0
62
7
6
CONTINUOUS
10
83.2507620203
20
42.4991299569
0
VERTEX
8
0
62
7
6
CONTINUOUS
10
83.5354671108
20
42.9811850782
0
VERTEX
8
0
62
7
6
CONTINUOUS
10
83.8715459994
20
43.4276260921
0
VERTEX
8
0
62
7
6
CONTINUOUS
10
84.2547453478
20
43.8328032428
0
VERTEX
8
0
62
7
6
CONTINUOUS
10
84.6802132096
20
44.1915869582
0
VERTEX
8
0
62
7
6
CONTINUOUS
10
85.1425620714
20
44.4994357295
0
VERTEX
8
0
62
7
6
CONTINUOUS
10
85.6359400978
20
44.7524549848
0
SEQEND
0
POLYLINE
8
0
62
7
6
CONTINUOUS
66
1
70
0
0
VERTEX
8
0
62
7
6
CONTINUOUS
10
81.8915290120
20
42.3363637724
0
VERTEX
8
0
62
7
6
CONTINUOUS
10
81.9159757503
20
42.5914131424
0
VERTEX
8
0
62
7
6
CONTINUOUS
10
81.9580339546
20
42.8449400510
0
VERTEX
8
0
62
7
6
CONTINUOUS
10
82.0175545226
20
43.0960457119
0
VERTEX
8
0
62
7
6
CONTINUOUS
10
82.0943264394
20
43.3438398919
0
VERTEX
8
0
62
7
6
CONTINUOUS
10
82.1880775273
20
43.5874440962
0
VERTEX
8
0
62
7
6
CONTINUOUS
10
82.2984754187
20
43.8259947135
0
SEQEND
0
LINE
8
0
62
7
6
CONTINUOUS
10
105.4489218977
20
51.8787972228
11
105.4489219014
21
52.2123871615
0
POLYLINE
8
0
62
7
6
CONTINUOUS
66
1
70
0
0
VERTEX
8
0
62
7
6
CONTINUOUS
10
85.7866664385
20
45.0445571002
0
VERTEX
8
0
62
7
6
CONTINUOUS
10
85.7788702349
20
44.9788582252
0
VERTEX
8
0
62
7
6
CONTINUOUS
10
85.7635342615
20
44.9183251059
0
VERTEX
8
0
62
7
6
CONTINUOUS
10
85.7409998318
20
44.8643049523
0
VERTEX
8
0
62
7
6
CONTINUOUS
10
85.7117684662
20
44.8180000234
0
VERTEX
8
0
62
7
6
CONTINUOUS
10
85.6764907308
20
44.7804408701
0
VERTEX
8
0
62
7
6
CONTINUOUS
10
85.6359517577
20
44.7524633995
0
SEQEND
0
POLYLINE
8
0
62
7
6
CONTINUOUS
66
1
70
0
0
VERTEX
8
0
62
7
6
CONTINUOUS
10
86.1591651872
20
45.1693008628
0
VERTEX
8
0
62
7
6
CONTINUOUS
10
86.1498158246
20
45.0990665837
0
VERTEX
8
0
62
7
6
CONTINUOUS
10
86.1323398718
20
45.0347535752
0
VERTEX
8
0
62
7
6
CONTINUOUS
10
86.1071746086
20
44.9779710644
0
VERTEX
8
0
62
7
6
CONTINUOUS
10
86.0749497153
20
44.9301398520
0
VERTEX
8
0
62
7
6
CONTINUOUS
10
86.0364715167
20
44.8924567610
0
VERTEX
8
0
62
7
6
CONTINUOUS
10
85.9927028066
20
44.8658646902
0
SEQEND
0
LINE
8
0
62
7
6
CONTINUOUS
10
120.6913741224
20
56.2123871615
11
120.6913741224
21
56.7123871615
0
LINE
8
0
62
7
6
CONTINUOUS
10
120.7913741224
20
283.2123871615
11
120.7913741224
21
73.0716793050
0
LINE
8
0
62
2
6
CONTINUOUS
10
122.4413741224
20
70.2137954725
11
122.4413741224
21
286.0702709940
0
POLYLINE
8
0
62
7
6
CONTINUOUS
66
1
70
0
0
VERTEX
8
0
62
7
6
CONTINUOUS
10
82.1458821233
20
44.4355245211
0
VERTEX
8
0
62
7
6
CONTINUOUS
10
82.0611138336
20
44.1724412505
0
VERTEX
8
0
62
7
6
CONTINUOUS
10
81.9696804636
20
43.8091908507
0
VERTEX
8
0
62
7
6
CONTINUOUS
10
81.9060743780
20
43.4428640303
0
VERTEX
8
0
62
7
6
CONTINUOUS
10
81.8700395670
20
43.0756074557
0
VERTEX
8
0
62
7
6
CONTINUOUS
10
81.8638238478
20
42.9459612279
0
SEQEND
0
LINE
8
0
62
7
6
CONTINUOUS
10
84.7728441924
20
51.8787972242
11
82.1458200223
21
44.4355620756
0
LINE
8
0
62
7
6
CONTINUOUS
10
125.4599349731
20
77.1123871615
11
125.4599349731
21
73.0716793050
0
LINE
8
0
62
7
6
CONTINUOUS
10
126.5413741224
20
62.8444379691
11
126.5413741224
21
57.8245194957
0
LINE
8
0
62
2
6
CONTINUOUS
10
128.6837592427
20
70.2137954725
11
128.6837592427
21
77.1123871615
0
LINE
8
DEFAULT_1
62
2
6
CENTER
10
132.7913741224
20
289.2123871615
11
132.7913741224
21
30.7123871615
0
LINE
8
0
62
2
6
CONTINUOUS
10
136.8989890021
20
70.2137954725
11
136.8989890021
21
77.1123871615
0
LINE
8
0
62
7
6
CONTINUOUS
10
139.0413741224
20
62.8444379691
11
139.0413741224
21
57.8245194957
0
LINE
8
0
62
7
6
CONTINUOUS
10
140.1228132717
20
73.0716793050
11
140.1228132717
21
77.1123871615
0
LINE
8
0
62
7
6
CONTINUOUS
10
183.4369282225
20
44.4355620756
11
180.8099040524
21
51.8787972242
0
LINE
8
0
62
2
6
CONTINUOUS
10
143.1413741224
20
70.2137954725
11
143.1413741224
21
286.0702709940
0
LINE
8
0
62
7
6
CONTINUOUS
10
144.7913741224
20
283.2123871615
11
144.7913741224
21
73.0716793050
0
LINE
8
0
62
7
6
CONTINUOUS
10
144.8913741224
20
56.2123871615
11
144.8913741224
21
56.7123871615
0
LINE
8
0
62
7
6
CONTINUOUS
10
160.1338262678
20
51.8787972226
11
160.1338262638
21
52.2123871615
0
LINE
8
DEFAULT_1
62
2
6
CENTER
10
170.2913741224
20
38.4726996337
11
170.2913741224
21
28.9520746892
0
LINE
8
0
62
7
6
CONTINUOUS
10
170.2913741224
20
48.2431434576
11
170.2913741224
21
52.2123871615
0
POLYLINE
8
0
62
7
6
CONTINUOUS
66
1
70
0
0
VERTEX
8
0
62
7
6
CONTINUOUS
10
179.4235776323
20
45.1692981607
0
VERTEX
8
0
62
7
6
CONTINUOUS
10
179.4329276542
20
45.0990635936
0
VERTEX
8
0
62
7
6
CONTINUOUS
10
179.4504044015
20
45.0347505389
0
VERTEX
8
0
62
7
6
CONTINUOUS
10
179.4755705659
20
44.9779682578
0
VERTEX
8
0
62
7
6
CONTINUOUS
10
179.5077964318
20
44.9301375741
0
VERTEX
8
0
62
7
6
CONTINUOUS
10
179.5462756340
20
44.8924553218
0
VERTEX
8
0
62
7
6
CONTINUOUS
10
179.5900453339
20
44.8658643979
0
SEQEND
0
POLYLINE
8
0
62
7
6
CONTINUOUS
66
1
70
0
0
VERTEX
8
0
62
7
6
CONTINUOUS
10
179.7960894907
20
45.0445507196
0
VERTEX
8
0
62
7
6
CONTINUOUS
10
179.8038855288
20
44.9788508586
0
VERTEX
8
0
62
7
6
CONTINUOUS
10
179.8192216182
20
44.9183169667
0
VERTEX
8
0
62
7
6
CONTINUOUS
10
179.8417564301
20
44.8642963199
0
VERTEX
8
0
62
7
6
CONTINUOUS
10
179.8709884173
20
44.8179912319
0
VERTEX
8
0
62
7
6
CONTINUOUS
10
179.9062669764
20
44.7804322944
0
VERTEX
8
0
62
7
6
CONTINUOUS
10
179.9468069280
20
44.7524554401
0
SEQEND
0
POLYLINE
8
0
62
7
6
CONTINUOUS
66
1
70
0
0
VERTEX
8
0
62
7
6
CONTINUOUS
10
183.6908970544
20
42.3363526088
0
VERTEX
8
0
62
7
6
CONTINUOUS
10
183.6664443252
20
42.5913781478
0
VERTEX
8
0
62
7
6
CONTINUOUS
10
183.6243777883
20
42.8448824394
0
VERTEX
8
0
62
7
6
CONTINUOUS
10
183.5648464843
20
43.0959668120
0
VERTEX
8
0
62
7
6
CONTINUOUS
10
183.4880618554
20
43.3437394202
0
VERTEX
8
0
62
7
6
CONTINUOUS
10
183.3942968778
20
43.5873202391
0
VERTEX
8
0
62
7
6
CONTINUOUS
10
183.2838842544
20
43.8258458765
0
SEQEND
0
POLYLINE
8
0
62
7
6
CONTINUOUS
66
1
70
0
0
VERTEX
8
0
62
7
6
CONTINUOUS
10
182.8956431633
20
40.3418990391
0
VERTEX
8
0
62
7
6
CONTINUOUS
10
182.8453383565
20
40.9020718724
0
VERTEX
8
0
62
7
6
CONTINUOUS
10
182.7335586348
20
41.4529462016
0
VERTEX
8
0
62
7
6
CONTINUOUS
10
182.5617187617
20
41.9875497797
0
VERTEX
8
0
62
7
6
CONTINUOUS
10
182.3319936650
20
42.4991162918
0
VERTEX
8
0
62
7
6
CONTINUOUS
10
182.0472909080
20
42.9811709972
0
VERTEX
8
0
62
7
6
CONTINUOUS
10
181.7112138892
20
43.4276126782
0
VERTEX
8
0
62
7
6
CONTINUOUS
10
181.3280162156
20
43.8327908795
0
VERTEX
8
0
62
7
6
CONTINUOUS
10
180.9025479649
20
44.1915773312
0
VERTEX
8
0
62
7
6
CONTINUOUS
10
180.4401942426
20
44.4994309594
0
VERTEX
8
0
62
7
6
CONTINUOUS
10
179.9468069157
20
44.7524554116
0
SEQEND
0
POLYLINE
8
0
62
7
6
CONTINUOUS
66
1
70
0
0
VERTEX
8
0
62
7
6
CONTINUOUS
10
183.7189253027
20
42.9459605284
0
VERTEX
8
0
62
7
6
CONTINUOUS
10
183.7125930538
20
43.0775183720
0
VERTEX
8
0
62
7
6
CONTINUOUS
10
183.6762653571
20
43.4458898331
0
VERTEX
8
0
62
7
6
CONTINUOUS
10
183.6123573739
20
43.8125532366
0
VERTEX
8
0
62
7
6
CONTINUOUS
10
183.5207796673
20
44.1753883108
0
VERTEX
8
0
62
7
6
CONTINUOUS
10
183.4368724031
20
44.4355312208
0
SEQEND
0
LINE
8
0
62
7
6
CONTINUOUS
10
183.7189306896
20
42.9459589705
11
184.0239243740
21
34.2120825750
0
LINE
8
0
62
7
6
CONTINUOUS
10
144.7913741224
20
73.0716793050
11
139.1753487186
21
63.3444379691
0
LINE
8
0
62
7
6
CONTINUOUS
10
183.7189306896
20
42.9459589705
11
183.7181802691
21
42.9290693527
0
LINE
8
0
62
7
6
CONTINUOUS
10
183.7181802691
20
42.9290693527
11
183.6912174980
21
42.3363637117
0
POLYLINE
8
0
62
7
6
CONTINUOUS
66
1
70
0
0
VERTEX
8
0
62
7
6
CONTINUOUS
10
183.6912174980
20
42.3363637117
0
VERTEX
8
0
62
7
6
CONTINUOUS
10
183.6642553589
20
41.9326405340
0
VERTEX
8
0
62
7
6
CONTINUOUS
10
183.6241450650
20
41.5784672735
0
VERTEX
8
0
62
7
6
CONTINUOUS
10
183.5714954103
20
41.2751659603
0
VERTEX
8
0
62
7
6
CONTINUOUS
10
183.5069170422
20
41.0187705043
0
VERTEX
8
0
62
7
6
CONTINUOUS
10
183.4309586306
20
40.8063489256
0
VERTEX
8
0
62
7
6
CONTINUOUS
10
183.3440300450
20
40.6361209234
0
VERTEX
8
0
62
7
6
CONTINUOUS
10
183.2463511443
20
40.5056358537
0
VERTEX
8
0
62
7
6
CONTINUOUS
10
183.1386251482
20
40.4139727657
0
VERTEX
8
0
62
7
6
CONTINUOUS
10
183.0215959543
20
40.3591765985
0
VERTEX
8
0
62
7
6
CONTINUOUS
10
182.8956431633
20
40.3418990391
0
SEQEND
0
POLYLINE
8
0
62
7
6
CONTINUOUS
66
1
70
0
0
VERTEX
8
0
62
7
6
CONTINUOUS
10
140.1228132717
20
73.0716793050
0
VERTEX
8
0
62
7
6
CONTINUOUS
10
139.3340950572
20
72.2641932850
0
VERTEX
8
0
62
7
6
CONTINUOUS
10
138.5568658057
20
71.5347365651
0
VERTEX
8
0
62
7
6
CONTINUOUS
10
137.7914543471
20
70.8815773202
0
VERTEX
8
0
62
7
6
CONTINUOUS
10
137.0368741919
20
70.3099110250
0
SEQEND
0
LINE
8
0
62
7
6
CONTINUOUS
10
144.7913741224
20
283.2123871615
11
143.0593233148
21
286.2123871615
0
POLYLINE
8
0
62
7
6
CONTINUOUS
66
1
70
0
0
VERTEX
8
0
62
7
6
CONTINUOUS
10
183.2841912181
20
43.8259540369
0
VERTEX
8
0
62
7
6
CONTINUOUS
10
183.4326162610
20
44.4186777015
0
VERTEX
8
0
62
7
6
CONTINUOUS
10
183.4369282225
20
44.4355620756
0
SEQEND
0
POLYLINE
8
0
62
7
6
CONTINUOUS
66
1
70
0
0
VERTEX
8
0
62
7
6
CONTINUOUS
10
170.2913741224
20
48.2431434527
0
VERTEX
8
0
62
7
6
CONTINUOUS
10
170.2575243762
20
48.1626249906
0
VERTEX
8
0
62
7
6
CONTINUOUS
10
170.2249035861
20
48.0910714267
0
VERTEX
8
0
62
7
6
CONTINUOUS
10
170.1946960600
20
48.0310805262
0
VERTEX
8
0
62
7
6
CONTINUOUS
10
170.1679984860
20
47.9848302588
0
VERTEX
8
0
62
7
6
CONTINUOUS
10
170.1457801215
20
47.9539997369
0
VERTEX
8
0
62
7
6
CONTINUOUS
10
170.1288476064
20
47.9397082566
0
SEQEND
0
POLYLINE
8
0
62
7
6
CONTINUOUS
66
1
70
0
0
VERTEX
8
0
62
7
6
CONTINUOUS
10
137.0368741919
20
70.3099110250
0
VERTEX
8
0
62
7
6
CONTINUOUS
10
136.2907346890
20
69.8232369504
0
VERTEX
8
0
62
7
6
CONTINUOUS
10
135.5575771524
20
69.4249118824
0
VERTEX
8
0
62
7
6
CONTINUOUS
10
134.8418354887
20
69.1209153370
0
VERTEX
8
0
62
7
6
CONTINUOUS
10
134.1414412698
20
68.9068783949
0
VERTEX
8
0
62
7
6
CONTINUOUS
10
133.4594466532
20
68.7813124805
0
VERTEX
8
0
62
7
6
CONTINUOUS
10
132.7849237897
20
68.7415560790
0
VERTEX
8
0
62
7
6
CONTINUOUS
10
132.1103393165
20
68.7829391768
0
VERTEX
8
0
62
7
6
CONTINUOUS
10
131.4285619324
20
68.9099986941
0
VERTEX
8
0
62
7
6
CONTINUOUS
10
130.7288916723
20
69.1253390122
0
VERTEX
8
0
62
7
6
CONTINUOUS
10
130.0145011648
20
69.4300877343
0
VERTEX
8
0
62
7
6
CONTINUOUS
10
129.2838655784
20
69.8280054421
0
SEQEND
0
POLYLINE
8
0
62
7
6
CONTINUOUS
66
1
70
0
0
VERTEX
8
0
62
7
6
CONTINUOUS
10
95.2913741224
20
48.2431434576
0
VERTEX
8
0
62
7
6
CONTINUOUS
10
94.7313416730
20
48.0348920423
0
VERTEX
8
0
62
7
6
CONTINUOUS
10
94.4351619973
20
47.9260093359
0
SEQEND
0
LINE
8
0
62
7
6
CONTINUOUS
10
112.4334030351
20
54.8290649553
11
105.2441398826
21
52.2123871615
0
LINE
8
0
62
7
6
CONTINUOUS
10
85.7866619411
20
45.0445537356
11
85.6134805777
21
44.9815302431
0
LINE
8
0
62
7
6
CONTINUOUS
10
94.4351619973
20
47.9260093359
11
93.8043263013
21
47.6969100765
0
LINE
8
0
62
7
6
CONTINUOUS
10
98.0671709423
20
49.2418561747
11
95.2913741224
21
48.2431434576
0
LINE
8
0
62
7
6
CONTINUOUS
10
98.1182831732
20
48.8986611298
11
95.1686275154
21
47.8372342216
0
LINE
8
0
62
7
6
CONTINUOUS
10
100.6400745285
20
49.8035294046
11
98.1182831732
21
48.8986611298
0
LINE
8
0
62
7
6
CONTINUOUS
10
100.6853464066
20
50.1807890648
11
98.0671709423
21
49.2418561747
0
LINE
8
0
62
7
6
CONTINUOUS
10
103.0169592479
20
50.6533518723
11
100.6400745285
21
49.8035294046
0
LINE
8
0
62
7
6
CONTINUOUS
10
103.1537275474
20
51.0625907574
11
100.6853464066
21
50.1807890648
0
LINE
8
0
62
7
6
CONTINUOUS
10
93.8043263013
20
47.6969100765
11
93.1149262439
21
47.4507177683
0
LINE
8
0
62
7
6
CONTINUOUS
10
105.2420820380
20
51.4455830830
11
103.0169592479
21
50.6533518723
0
LINE
8
0
62
7
6
CONTINUOUS
10
85.6134805777
20
44.9815302431
11
85.0765572328
21
44.7893563810
0
LINE
8
0
62
7
6
CONTINUOUS
10
105.4489218945
20
51.8787972228
11
103.1537275474
21
51.0625907574
0
LINE
8
0
62
7
6
CONTINUOUS
10
107.3210010950
20
52.1821427846
11
105.2420820380
21
51.4455830830
0
LINE
8
0
62
7
6
CONTINUOUS
10
95.1686275154
20
47.8372342216
11
94.5640745587
21
47.6225788609
0
LINE
8
0
62
7
6
CONTINUOUS
10
93.1149262439
20
47.4507177683
11
92.3596240960
21
47.1857448615
0
LINE
8
0
62
7
6
CONTINUOUS
10
85.0765572328
20
44.7893563810
11
84.5097426853
21
44.5903833659
0
LINE
8
0
62
7
6
CONTINUOUS
10
94.5640745587
20
47.6225788609
11
93.9088547473
21
47.3934656649
0
LINE
8
0
62
7
6
CONTINUOUS
10
84.5097426853
20
44.5903833659
11
83.1062998155
21
44.1070587978
0
POLYLINE
8
0
62
7
6
CONTINUOUS
66
1
70
0
0
VERTEX
8
0
62
7
6
CONTINUOUS
10
92.3596240960
20
47.1857448615
0
VERTEX
8
0
62
7
6
CONTINUOUS
10
91.5325172831
20
46.9009849284
0
VERTEX
8
0
62
7
6
CONTINUOUS
10
91.0915929034
20
46.7514051442
0
VERTEX
8
0
62
7
6
CONTINUOUS
10
90.6322606977
20
46.5971128356
0
VERTEX
8
0
62
7
6
CONTINUOUS
10
90.1581856564
20
46.4395091488
0
VERTEX
8
0
62
7
6
CONTINUOUS
10
89.6726625636
20
46.2797366266
0
VERTEX
8
0
62
7
6
CONTINUOUS
10
89.1775262926
20
46.1185009899
0
VERTEX
8
0
62
7
6
CONTINUOUS
10
88.6751917184
20
45.9565774737
0
VERTEX
8
0
62
7
6
CONTINUOUS
10
88.1684222067
20
45.7949000785
0
VERTEX
8
0
62
7
6
CONTINUOUS
10
87.6600184117
20
45.6343154244
0
VERTEX
8
0
62
7
6
CONTINUOUS
10
87.1533822236
20
45.4758608872
0
SEQEND
0
LINE
8
0
62
7
6
CONTINUOUS
10
93.9088547473
20
47.3934656649
11
93.1932096538
21
47.1472596873
0
POLYLINE
8
0
62
7
6
CONTINUOUS
66
1
70
0
0
VERTEX
8
0
62
7
6
CONTINUOUS
10
83.1062998155
20
44.1070587978
0
VERTEX
8
0
62
7
6
CONTINUOUS
10
82.7379060940
20
43.9808651299
0
VERTEX
8
0
62
7
6
CONTINUOUS
10
82.5863417496
20
43.9322200139
0
VERTEX
8
0
62
7
6
CONTINUOUS
10
82.4619931143
20
43.8910733620
0
VERTEX
8
0
62
7
6
CONTINUOUS
10
82.3685648721
20
43.8550221580
0
VERTEX
8
0
62
7
6
CONTINUOUS
10
82.2989606141
20
43.8248674073
0
SEQEND
0
POLYLINE
8
0
62
7
6
CONTINUOUS
66
1
70
0
0
VERTEX
8
0
62
7
6
CONTINUOUS
10
85.7216206123
20
44.7815530573
0
VERTEX
8
0
62
7
6
CONTINUOUS
10
85.4678450528
20
44.6956256930
0
VERTEX
8
0
62
7
6
CONTINUOUS
10
85.2968982642
20
44.6390423312
0
VERTEX
8
0
62
7
6
CONTINUOUS
10
85.1240004619
20
44.5830143527
0
VERTEX
8
0
62
7
6
CONTINUOUS
10
84.9483053952
20
44.5272664983
0
VERTEX
8
0
62
7
6
CONTINUOUS
10
84.7695127752
20
44.4717244175
0
VERTEX
8
0
62
7
6
CONTINUOUS
10
84.5875640686
20
44.4163926036
0
VERTEX
8
0
62
7
6
CONTINUOUS
10
84.4025147871
20
44.3613275197
0
VERTEX
8
0
62
7
6
CONTINUOUS
10
84.2145638726
20
44.3066233937
0
VERTEX
8
0
62
7
6
CONTINUOUS
10
84.0240903256
20
44.2524260827
0
VERTEX
8
0
62
7
6
CONTINUOUS
10
83.8316434468
20
44.1989032848
0
VERTEX
8
0
62
7
6
CONTINUOUS
10
83.6379086949
20
44.1462293804
0
VERTEX
8
0
62
7
6
CONTINUOUS
10
83.4440558307
20
44.0946972481
0
VERTEX
8
0
62
7
6
CONTINUOUS
10
83.2503604782
20
44.0444587868
0
VERTEX
8
0
62
7
6
CONTINUOUS
10
83.0616685737
20
43.9970481354
0
VERTEX
8
0
62
7
6
CONTINUOUS
10
82.8785678305
20
43.9528424819
0
VERTEX
8
0
62
7
6
CONTINUOUS
10
82.7123124895
20
43.9146272346
0
VERTEX
8
0
62
7
6
CONTINUOUS
10
82.5681257968
20
43.8838734814
0
VERTEX
8
0
62
7
6
CONTINUOUS
10
82.4516005737
20
43.8638667902
0
VERTEX
8
0
62
7
6
CONTINUOUS
10
82.3660779417
20
43.8496480539
0
VERTEX
8
0
62
7
6
CONTINUOUS
10
82.2987734233
20
43.8247819007
0
SEQEND
0
LINE
8
0
62
7
6
CONTINUOUS
10
93.1932096538
20
47.1472596873
11
92.4095996876
21
46.8822696000
0
POLYLINE
8
0
62
7
6
CONTINUOUS
66
1
70
0
0
VERTEX
8
0
62
7
6
CONTINUOUS
10
92.4095996876
20
46.8822696000
0
VERTEX
8
0
62
7
6
CONTINUOUS
10
91.5519869795
20
46.5974822566
0
VERTEX
8
0
62
7
6
CONTINUOUS
10
91.0950628368
20
46.4478836277
0
VERTEX
8
0
62
7
6
CONTINUOUS
10
90.6190976263
20
46.2935690608
0
VERTEX
8
0
62
7
6
CONTINUOUS
10
90.1281011588
20
46.1359422275
0
VERTEX
8
0
62
7
6
CONTINUOUS
10
89.6253189604
20
45.9761479708
0
VERTEX
8
0
62
7
6
CONTINUOUS
10
89.1128425592
20
45.8148923462
0
VERTEX
8
0
62
7
6
CONTINUOUS
10
88.5930021013
20
45.6529513354
0
VERTEX
8
0
62
7
6
CONTINUOUS
10
88.0688160512
20
45.4912600025
0
VERTEX
8
0
62
7
6
CONTINUOUS
10
87.5430074461
20
45.3306531827
0
VERTEX
8
0
62
7
6
CONTINUOUS
10
87.0193176125
20
45.1722075451
0
SEQEND
0
POLYLINE
8
0
62
7
6
CONTINUOUS
66
1
70
0
0
VERTEX
8
0
62
7
6
CONTINUOUS
10
86.1591650904
20
45.1693009110
0
VERTEX
8
0
62
7
6
CONTINUOUS
10
86.0623894535
20
45.1389763042
0
VERTEX
8
0
62
7
6
CONTINUOUS
10
85.9680770551
20
45.1080769060
0
VERTEX
8
0
62
7
6
CONTINUOUS
10
85.8761828333
20
45.0766027165
0
VERTEX
8
0
62
7
6
CONTINUOUS
10
85.7866619411
20
45.0445537356
0
SEQEND
0
LINE
8
0
62
7
6
CONTINUOUS
10
87.1533822236
20
45.4758608872
11
86.1591650904
21
45.1693009110
0
LINE
8
0
62
7
6
CONTINUOUS
10
87.0193176125
20
45.1722075451
11
85.9927028175
21
44.8658646595
0
POLYLINE
8
0
62
7
6
CONTINUOUS
66
1
70
0
0
VERTEX
8
0
62
7
6
CONTINUOUS
10
85.9927028175
20
44.8658646595
0
VERTEX
8
0
62
7
6
CONTINUOUS
10
85.8999855922
20
44.8383296525
0
VERTEX
8
0
62
7
6
CONTINUOUS
10
85.8096300596
20
44.8102015590
0
VERTEX
8
0
62
7
6
CONTINUOUS
10
85.7216206123
20
44.7815530573
0
SEQEND
0
LINE
8
0
62
7
6
CONTINUOUS
10
184.0239243740
20
34.2120825750
11
183.5413741224
21
33.7123871615
0
LINE
8
0
62
7
6
CONTINUOUS
10
144.7913741224
20
283.2123871615
11
120.7913741224
21
283.2123871615
0
LINE
8
0
62
7
6
CONTINUOUS
10
143.1413741224
20
286.0702709940
11
122.4413741224
21
286.0702709940
0
LINE
8
0
62
7
6
CONTINUOUS
10
122.5234249299
20
286.2123871615
11
143.0593233148
21
286.2123871615
0
LINE
8
0
62
7
6
CONTINUOUS
10
228.9741725176
20
33.7123871615
11
330.4741725176
21
33.7123871615
0
POLYLINE
8
0
62
7
6
CONTINUOUS
66
1
70
0
0
VERTEX
8
0
62
7
6
CONTINUOUS
10
279.7241725176
20
42.9459589705
0
VERTEX
8
0
62
7
6
CONTINUOUS
10
279.3640969591
20
42.9304359722
0
VERTEX
8
0
62
7
6
CONTINUOUS
10
278.9990734304
20
42.8809139722
0
VERTEX
8
0
62
7
6
CONTINUOUS
10
278.6290452239
20
42.7977974855
0
VERTEX
8
0
62
7
6
CONTINUOUS
10
278.2541587843
20
42.6798729668
0
VERTEX
8
0
62
7
6
CONTINUOUS
10
277.8745601631
20
42.5259268704
0
VERTEX
8
0
62
7
6
CONTINUOUS
10
277.4901940603
20
42.3363637117
0
SEQEND
0
LINE
8
0
62
7
6
CONTINUOUS
10
228.4916222659
20
34.2120825750
11
330.9567227692
21
34.2120825750
0
LINE
8
0
62
7
6
CONTINUOUS
10
330.7426648425
20
40.3418995503
11
289.3392016345
21
40.3418990391
0
LINE
8
0
62
7
6
CONTINUOUS
10
270.1091434006
20
40.3418990391
11
228.7056801926
21
40.3418995503
0
POLYLINE
8
0
62
7
6
CONTINUOUS
66
1
70
0
0
VERTEX
8
0
62
7
6
CONTINUOUS
10
289.3392016345
20
40.3418990391
0
VERTEX
8
0
62
7
6
CONTINUOUS
10
288.6545274576
20
40.3591866587
0
VERTEX
8
0
62
7
6
CONTINUOUS
10
287.9588297882
20
40.4137004499
0
VERTEX
8
0
62
7
6
CONTINUOUS
10
287.2524383365
20
40.5047297402
0
VERTEX
8
0
62
7
6
CONTINUOUS
10
286.5348658754
20
40.6344065472
0
VERTEX
8
0
62
7
6
CONTINUOUS
10
285.8062826820
20
40.8037043253
0
VERTEX
8
0
62
7
6
CONTINUOUS
10
285.0651188453
20
41.0153880919
0
VERTEX
8
0
62
7
6
CONTINUOUS
10
284.3099025453
20
41.2715225906
0
VERTEX
8
0
62
7
6
CONTINUOUS
10
283.5405832954
20
41.5751820979
0
VERTEX
8
0
62
7
6
CONTINUOUS
10
282.7564896104
20
41.9305994539
0
VERTEX
8
0
62
7
6
CONTINUOUS
10
281.9581509748
20
42.3363637117
0
SEQEND
0
LINE
8
0
62
7
6
CONTINUOUS
10
228.4916222659
20
34.2120825750
11
228.9741725176
21
33.7123871615
0
POLYLINE
8
0
62
7
6
CONTINUOUS
66
1
70
0
0
VERTEX
8
0
62
7
6
CONTINUOUS
10
267.5041681401
20
47.9397073298
0
VERTEX
8
0
62
7
6
CONTINUOUS
10
267.5968255804
20
47.9539988233
0
VERTEX
8
0
62
7
6
CONTINUOUS
10
267.6841878968
20
47.9848294360
0
VERTEX
8
0
62
7
6
CONTINUOUS
10
267.7630833619
20
48.0310798490
0
VERTEX
8
0
62
7
6
CONTINUOUS
10
267.8306476408
20
48.0910709207
0
VERTEX
8
0
62
7
6
CONTINUOUS
10
267.8844277828
20
48.1626246488
0
VERTEX
8
0
62
7
6
CONTINUOUS
10
267.9224712760
20
48.2431432437
0
SEQEND
0
POLYLINE
8
0
62
7
6
CONTINUOUS
66
1
70
0
0
VERTEX
8
0
62
7
6
CONTINUOUS
10
290.4337560661
20
52.1821546772
0
VERTEX
8
0
62
7
6
CONTINUOUS
10
290.4050866526
20
52.1784956698
0
VERTEX
8
0
62
7
6
CONTINUOUS
10
290.3789379142
20
52.1730571914
0
VERTEX
8
0
62
7
6
CONTINUOUS
10
290.3554454252
20
52.1661407103
0
VERTEX
8
0
62
7
6
CONTINUOUS
10
290.3347034769
20
52.1580527707
0
VERTEX
8
0
62
7
6
CONTINUOUS
10
290.3164790094
20
52.1490546160
0
VERTEX
8
0
62
7
6
CONTINUOUS
10
290.3004011492
20
52.1392487374
0
VERTEX
8
0
62
7
6
CONTINUOUS
10
290.2862656538
20
52.1287355919
0
VERTEX
8
0
62
7
6
CONTINUOUS
10
290.2737869103
20
52.1175200293
0
VERTEX
8
0
62
7
6
CONTINUOUS
10
290.2628131366
20
52.1055887027
0
VERTEX
8
0
62
7
6
CONTINUOUS
10
290.2532200383
20
52.0929353820
0
VERTEX
8
0
62
7
6
CONTINUOUS
10
290.2449477198
20
52.0795262049
0
SEQEND
0
POLYLINE
8
0
62
7
6
CONTINUOUS
66
1
70
0
0
VERTEX
8
0
62
7
6
CONTINUOUS
10
279.7241725176
20
44.4355620756
0
VERTEX
8
0
62
7
6
CONTINUOUS
10
279.2175808167
20
44.4199103195
0
VERTEX
8
0
62
7
6
CONTINUOUS
10
278.7057884384
20
44.3703097691
0
VERTEX
8
0
62
7
6
CONTINUOUS
10
278.1871968107
20
44.2871637236
0
VERTEX
8
0
62
7
6
CONTINUOUS
10
277.6642116217
20
44.1692622859
0
VERTEX
8
0
62
7
6
CONTINUOUS
10
277.1391767546
20
44.0153955588
0
VERTEX
8
0
62
7
6
CONTINUOUS
10
276.6104884750
20
43.8259668414
0
SEQEND
0
LINE
8
CURVE
62
2
6
PHANTOM
10
293.1249648226
20
43.7123871615
11
266.3233802125
21
43.7123871615
0
LINE
8
0
62
7
6
CONTINUOUS
10
327.4558114421
20
44.8658646595
11
289.1153235975
21
44.8658646595
0
LINE
8
0
62
7
6
CONTINUOUS
10
270.3330214376
20
44.8658646595
11
231.9925335930
21
44.8658646595
0
LINE
8
0
62
7
6
CONTINUOUS
10
290.2427024489
20
51.8787972204
11
269.2056425862
21
51.8787972204
0
POLYLINE
8
0
62
7
6
CONTINUOUS
66
1
70
0
0
VERTEX
8
0
62
7
6
CONTINUOUS
10
270.3330214376
20
44.8658646595
0
VERTEX
8
0
62
7
6
CONTINUOUS
10
270.4174879969
20
44.8392467480
0
VERTEX
8
0
62
7
6
CONTINUOUS
10
270.5026418376
20
44.8114735191
0
VERTEX
8
0
62
7
6
CONTINUOUS
10
270.5884867191
20
44.7825434653
0
VERTEX
8
0
62
7
6
CONTINUOUS
10
270.6750262470
20
44.7524554116
0
SEQEND
0
POLYLINE
8
0
62
7
6
CONTINUOUS
66
1
70
0
0
VERTEX
8
0
62
7
6
CONTINUOUS
10
270.6750232105
20
44.7524386907
0
VERTEX
8
0
62
7
6
CONTINUOUS
10
270.8741708032
20
44.6891619334
0
VERTEX
8
0
62
7
6
CONTINUOUS
10
271.0845190444
20
44.6264461054
0
VERTEX
8
0
62
7
6
CONTINUOUS
10
271.3057930263
20
44.5646464252
0
VERTEX
8
0
62
7
6
CONTINUOUS
10
271.5401779540
20
44.5034059508
0
VERTEX
8
0
62
7
6
CONTINUOUS
10
271.7894100945
20
44.4426348085
0
VERTEX
8
0
62
7
6
CONTINUOUS
10
272.0551679388
20
44.3823350178
0
VERTEX
8
0
62
7
6
CONTINUOUS
10
272.3393802456
20
44.3225634325
0
VERTEX
8
0
62
7
6
CONTINUOUS
10
272.6435531195
20
44.2635243460
0
VERTEX
8
0
62
7
6
CONTINUOUS
10
272.9703769701
20
44.2052991376
0
VERTEX
8
0
62
7
6
CONTINUOUS
10
273.3186187255
20
44.1487193801
0
VERTEX
8
0
62
7
6
CONTINUOUS
10
273.6889419434
20
44.0942236814
0
VERTEX
8
0
62
7
6
CONTINUOUS
10
274.0775697983
20
44.0428620760
0
VERTEX
8
0
62
7
6
CONTINUOUS
10
274.4814003021
20
43.9951172438
0
VERTEX
8
0
62
7
6
CONTINUOUS
10
274.8971977556
20
43.9511607537
0
VERTEX
8
0
62
7
6
CONTINUOUS
10
275.3214421680
20
43.9109628442
0
VERTEX
8
0
62
7
6
CONTINUOUS
10
275.7503735071
20
43.8741978459
0
VERTEX
8
0
62
7
6
CONTINUOUS
10
276.1791623750
20
43.8428753897
0
VERTEX
8
0
62
7
6
CONTINUOUS
10
276.6104884750
20
43.8259668414
0
SEQEND
0
POLYLINE
8
0
62
7
6
CONTINUOUS
66
1
70
0
0
VERTEX
8
0
62
7
6
CONTINUOUS
10
282.8412236777
20
43.8248674073
0
VERTEX
8
0
62
7
6
CONTINUOUS
10
282.3187904890
20
44.0126446453
0
VERTEX
8
0
62
7
6
CONTINUOUS
10
281.7978201064
20
44.1658010095
0
VERTEX
8
0
62
7
6
CONTINUOUS
10
281.2772368267
20
44.2841274780
0
VERTEX
8
0
62
7
6
CONTINUOUS
10
280.7578572273
20
44.3682511161
0
VERTEX
8
0
62
7
6
CONTINUOUS
10
280.2405281058
20
44.4187989893
0
VERTEX
8
0
62
7
6
CONTINUOUS
10
279.7241725176
20
44.4355620756
0
SEQEND
0
POLYLINE
8
0
62
7
6
CONTINUOUS
66
1
70
0
0
VERTEX
8
0
62
7
6
CONTINUOUS
10
271.1338647733
20
44.9742614887
0
VERTEX
8
0
62
7
6
CONTINUOUS
10
271.3222395249
20
44.9036070055
0
VERTEX
8
0
62
7
6
CONTINUOUS
10
271.5220329091
20
44.8326655291
0
VERTEX
8
0
62
7
6
CONTINUOUS
10
271.7354097825
20
44.7611820363
0
VERTEX
8
0
62
7
6
CONTINUOUS
10
271.9640719599
20
44.6889112416
0
VERTEX
8
0
62
7
6
CONTINUOUS
10
272.2097765199
20
44.6159089397
0
VERTEX
8
0
62
7
6
CONTINUOUS
10
272.4744694149
20
44.5420552763
0
VERTEX
8
0
62
7
6
CONTINUOUS
10
272.7598148360
20
44.4676319136
0
VERTEX
8
0
62
7
6
CONTINUOUS
10
273.0685543943
20
44.3925557855
0
VERTEX
8
0
62
7
6
CONTINUOUS
10
273.3997369121
20
44.3178012232
0
VERTEX
8
0
62
7
6
CONTINUOUS
10
273.7542316507
20
44.2439828601
0
VERTEX
8
0
62
7
6
CONTINUOUS
10
274.1284993115
20
44.1720967232
0
VERTEX
8
0
62
7
6
CONTINUOUS
10
274.5197600849
20
44.1033611611
0
VERTEX
8
0
62
7
6
CONTINUOUS
10
274.9246896130
20
44.0377238433
0
VERTEX
8
0
62
7
6
CONTINUOUS
10
275.3395354146
20
43.9745436688
0
VERTEX
8
0
62
7
6
CONTINUOUS
10
275.7612168358
20
43.9168052973
0
VERTEX
8
0
62
7
6
CONTINUOUS
10
276.1846757162
20
43.8676260581
0
VERTEX
8
0
62
7
6
CONTINUOUS
10
276.6104884750
20
43.8259668414
0
SEQEND
0
POLYLINE
8
0
62
7
6
CONTINUOUS
66
1
70
0
0
VERTEX
8
0
62
7
6
CONTINUOUS
10
270.7122722471
20
45.1400210993
0
VERTEX
8
0
62
7
6
CONTINUOUS
10
270.7931939633
20
45.1094683388
0
VERTEX
8
0
62
7
6
CONTINUOUS
10
270.8748084437
20
45.0776426294
0
VERTEX
8
0
62
7
6
CONTINUOUS
10
271.1338647733
20
44.9742614887
0
SEQEND
0
POLYLINE
8
0
62
7
6
CONTINUOUS
66
1
70
0
0
VERTEX
8
0
62
7
6
CONTINUOUS
10
269.0146249646
20
52.1822396143
0
VERTEX
8
0
62
7
6
CONTINUOUS
10
269.0590395741
20
52.1918625416
0
VERTEX
8
0
62
7
6
CONTINUOUS
10
269.1048853358
20
52.1995827770
0
VERTEX
8
0
62
7
6
CONTINUOUS
10
269.1525226970
20
52.2053409229
0
VERTEX
8
0
62
7
6
CONTINUOUS
10
269.2009536351
20
52.2093151720
0
VERTEX
8
0
62
7
6
CONTINUOUS
10
269.2491792994
20
52.2116837175
0
VERTEX
8
0
62
7
6
CONTINUOUS
10
269.2975659038
20
52.2123871615
0
SEQEND
0
LINE
8
0
62
7
6
CONTINUOUS
10
266.7241725176
20
56.2123871615
11
260.2016317476
21
55.0535025910
0
LINE
8
0
62
7
6
CONTINUOUS
10
290.1505482435
20
52.2123871615
11
269.2978076669
21
52.2123871615
0
LINE
8
0
62
7
6
CONTINUOUS
10
259.3662014859
20
54.8290649755
11
300.0821435492
21
54.8290649755
0
LINE
8
0
62
7
6
CONTINUOUS
10
260.2016317484
20
55.0535025912
11
299.2467132868
21
55.0535025912
0
LINE
8
0
62
7
6
CONTINUOUS
10
266.7241725176
20
56.2123871615
11
292.7241725176
21
56.2123871615
0
LINE
8
0
62
7
6
CONTINUOUS
10
267.6242244395
20
56.7123871615
11
291.8241205956
21
56.7123871615
0
LINE
8
0
62
7
6
CONTINUOUS
10
286.0791105786
20
57.3785776540
11
273.3692344565
21
57.3785776540
0
LINE
8
0
62
7
6
CONTINUOUS
10
285.9741725171
20
57.8245194957
11
273.4741725180
21
57.8245194957
0
POLYLINE
8
0
62
7
6
CONTINUOUS
66
1
70
0
0
VERTEX
8
0
62
7
6
CONTINUOUS
10
290.1511426000
20
52.2123871615
0
VERTEX
8
0
62
7
6
CONTINUOUS
10
290.1994741342
20
52.2116711274
0
VERTEX
8
0
62
7
6
CONTINUOUS
10
290.2476482535
20
52.2092975244
0
VERTEX
8
0
62
7
6
CONTINUOUS
10
290.2960338988
20
52.2053341425
0
VERTEX
8
0
62
7
6
CONTINUOUS
10
290.3436234380
20
52.1995776118
0
VERTEX
8
0
62
7
6
CONTINUOUS
10
290.3894104847
20
52.1918245625
0
VERTEX
8
0
62
7
6
CONTINUOUS
10
290.4337585404
20
52.1821427846
0
SEQEND
0
LINE
8
0
62
7
6
CONTINUOUS
10
292.7241725176
20
56.2123871615
11
299.2467132875
21
55.0535025910
0
POLYLINE
8
0
62
7
6
CONTINUOUS
66
1
70
0
0
VERTEX
8
0
62
7
6
CONTINUOUS
10
281.9581509748
20
42.3363637117
0
VERTEX
8
0
62
7
6
CONTINUOUS
10
281.5799541958
20
42.5234669039
0
VERTEX
8
0
62
7
6
CONTINUOUS
10
281.2042221437
20
42.6762638787
0
VERTEX
8
0
62
7
6
CONTINUOUS
10
280.8310536663
20
42.7946565506
0
VERTEX
8
0
62
7
6
CONTINUOUS
10
280.4601316243
20
42.8789391760
0
VERTEX
8
0
62
7
6
CONTINUOUS
10
280.0911386488
20
42.9294060111
0
VERTEX
8
0
62
7
6
CONTINUOUS
10
279.7241725176
20
42.9459589705
0
SEQEND
0
LINE
8
0
62
7
6
CONTINUOUS
10
260.2016317476
20
55.0535025910
11
259.3662014851
21
54.8290649752
0
LINE
8
0
62
7
6
CONTINUOUS
10
285.9741648985
20
62.8444379691
11
273.4741801366
21
62.8444379691
0
LINE
8
0
62
7
6
CONTINUOUS
10
286.1081338958
20
63.3444285542
11
273.3402111393
21
63.3444285542
0
LINE
8
0
62
7
6
CONTINUOUS
10
270.2241725176
20
70.2137954725
11
289.2241726559
21
70.2137954725
0
LINE
8
0
62
7
6
CONTINUOUS
10
299.2467132875
20
55.0535025910
11
300.0821435500
21
54.8290649752
0
LINE
8
0
62
7
6
CONTINUOUS
10
300.0821435500
20
54.8290649752
11
327.4558114430
21
44.8658646595
0
POLYLINE
8
0
62
7
6
CONTINUOUS
66
1
70
0
0
VERTEX
8
0
62
7
6
CONTINUOUS
10
269.1601530589
20
52.1302825379
0
VERTEX
8
0
62
7
6
CONTINUOUS
10
269.1476189673
20
52.1394509621
0
VERTEX
8
0
62
7
6
CONTINUOUS
10
269.1337841551
20
52.1479693654
0
VERTEX
8
0
62
7
6
CONTINUOUS
10
269.1183749069
20
52.1558765727
0
VERTEX
8
0
62
7
6
CONTINUOUS
10
269.1012878238
20
52.1630746456
0
VERTEX
8
0
62
7
6
CONTINUOUS
10
269.0822875039
20
52.1694819719
0
VERTEX
8
0
62
7
6
CONTINUOUS
10
269.0613961986
20
52.1749272179
0
VERTEX
8
0
62
7
6
CONTINUOUS
10
269.0387625797
20
52.1792135004
0
VERTEX
8
0
62
7
6
CONTINUOUS
10
269.0146054858
20
52.1822366533
0
SEQEND
0
LINE
8
0
62
7
6
CONTINUOUS
10
270.2241725176
20
73.0716793050
11
289.2241725176
21
73.0716793050
0
LINE
8
0
62
7
6
CONTINUOUS
10
267.7241725176
20
283.2123871615
11
269.4562233251
21
286.2123871615
0
LINE
8
0
62
7
6
CONTINUOUS
10
270.2241725176
20
77.1123871615
11
267.7239920637
21
78.5558670196
0
LINE
8
0
62
7
6
CONTINUOUS
10
277.4902082256
20
42.3363526638
11
277.0397159297
21
43.0959664106
0
LINE
8
0
62
7
6
CONTINUOUS
10
277.0397159297
20
43.0959664106
11
276.6105652021
21
43.8258523812
0
LINE
8
0
62
7
6
CONTINUOUS
10
270.2237134373
20
68.7423474364
11
273.3402031178
21
63.3444289684
0
LINE
8
0
62
7
6
CONTINUOUS
10
228.7056801916
20
40.3418995535
11
228.4916222659
21
34.2120825750
0
POLYLINE
8
0
62
7
6
CONTINUOUS
66
1
70
0
0
VERTEX
8
0
62
7
6
CONTINUOUS
10
288.4912315057
20
45.0445571002
0
VERTEX
8
0
62
7
6
CONTINUOUS
10
288.5256816845
20
44.9788582252
0
VERTEX
8
0
62
7
6
CONTINUOUS
10
288.5664798115
20
44.9183251059
0
VERTEX
8
0
62
7
6
CONTINUOUS
10
288.6127178937
20
44.8643049523
0
VERTEX
8
0
62
7
6
CONTINUOUS
10
288.6633668676
20
44.8180000234
0
VERTEX
8
0
62
7
6
CONTINUOUS
10
288.7172995022
20
44.7804408701
0
VERTEX
8
0
62
7
6
CONTINUOUS
10
288.7733154862
20
44.7524633995
0
SEQEND
0
POLYLINE
8
0
62
7
6
CONTINUOUS
66
1
70
0
0
VERTEX
8
0
62
7
6
CONTINUOUS
10
288.8163060741
20
45.1693008628
0
VERTEX
8
0
62
7
6
CONTINUOUS
10
288.8514512814
20
45.0990665837
0
VERTEX
8
0
62
7
6
CONTINUOUS
10
288.8940409301
20
45.0347535752
0
VERTEX
8
0
62
7
6
CONTINUOUS
10
288.9430093506
20
44.9779710644
0
VERTEX
8
0
62
7
6
CONTINUOUS
10
288.9971312649
20
44.9301398520
0
VERTEX
8
0
62
7
6
CONTINUOUS
10
289.0550524453
20
44.8924567610
0
VERTEX
8
0
62
7
6
CONTINUOUS
10
289.1153235997
20
44.8658646902
0
SEQEND
0
POLYLINE
8
0
62
7
6
CONTINUOUS
66
1
70
0
0
VERTEX
8
0
62
7
6
CONTINUOUS
10
291.5258741061
20
48.2431433662
0
VERTEX
8
0
62
7
6
CONTINUOUS
10
291.5639175427
20
48.1626247777
0
VERTEX
8
0
62
7
6
CONTINUOUS
10
291.6176976216
20
48.0910710418
0
VERTEX
8
0
62
7
6
CONTINUOUS
10
291.6852618349
20
48.0310799463
0
VERTEX
8
0
62
7
6
CONTINUOUS
10
291.7641572359
20
47.9848294929
0
VERTEX
8
0
62
7
6
CONTINUOUS
10
291.8515194942
20
47.9539988235
0
VERTEX
8
0
62
7
6
CONTINUOUS
10
291.9441768869
20
47.9397072582
0
SEQEND
0
POLYLINE
8
0
62
7
6
CONTINUOUS
66
1
70
0
0
VERTEX
8
0
62
7
6
CONTINUOUS
10
290.4337585404
20
52.1821427846
0
VERTEX
8
0
62
7
6
CONTINUOUS
10
291.1279986517
20
50.2354804550
0
VERTEX
8
0
62
7
6
CONTINUOUS
10
291.2817005589
20
49.8035294046
0
VERTEX
8
0
62
7
6
CONTINUOUS
10
291.4402248405
20
49.3579159832
0
SEQEND
0
LINE
8
0
62
7
6
CONTINUOUS
10
291.5258743652
20
48.2431434576
11
290.2427024489
21
51.8787972204
0
LINE
8
0
62
7
6
CONTINUOUS
10
291.4402248405
20
49.3579159832
11
291.9441768810
21
47.9397072061
0
POLYLINE
8
0
62
7
6
CONTINUOUS
66
1
70
0
0
VERTEX
8
0
62
7
6
CONTINUOUS
10
291.9441768810
20
47.9397072061
0
VERTEX
8
0
62
7
6
CONTINUOUS
10
291.9775446078
20
47.8372342216
0
VERTEX
8
0
62
7
6
CONTINUOUS
10
292.0044425805
20
47.7314662550
0
VERTEX
8
0
62
7
6
CONTINUOUS
10
292.0249337689
20
47.6225788609
0
VERTEX
8
0
62
7
6
CONTINUOUS
10
292.0378463122
20
47.5100453754
0
VERTEX
8
0
62
7
6
CONTINUOUS
10
292.0423790324
20
47.3934656649
0
VERTEX
8
0
62
7
6
CONTINUOUS
10
292.0371586565
20
47.2726356931
0
VERTEX
8
0
62
7
6
CONTINUOUS
10
292.0210005514
20
47.1472596873
0
VERTEX
8
0
62
7
6
CONTINUOUS
10
291.9921219060
20
47.0172127237
0
VERTEX
8
0
62
7
6
CONTINUOUS
10
291.9489181909
20
46.8822696000
0
VERTEX
8
0
62
7
6
CONTINUOUS
10
291.8891466330
20
46.7424353786
0
VERTEX
8
0
62
7
6
CONTINUOUS
10
291.8106388071
20
46.5974822566
0
VERTEX
8
0
62
7
6
CONTINUOUS
10
291.7109392932
20
46.4478836277
0
VERTEX
8
0
62
7
6
CONTINUOUS
10
291.5872348564
20
46.2935690608
0
VERTEX
8
0
62
7
6
CONTINUOUS
10
291.4378893286
20
46.1359422275
0
VERTEX
8
0
62
7
6
CONTINUOUS
10
291.2609742485
20
45.9761479708
0
VERTEX
8
0
62
7
6
CONTINUOUS
10
291.0546587618
20
45.8148923462
0
VERTEX
8
0
62
7
6
CONTINUOUS
10
290.8169661964
20
45.6529513354
0
VERTEX
8
0
62
7
6
CONTINUOUS
10
290.5465510945
20
45.4912600025
0
VERTEX
8
0
62
7
6
CONTINUOUS
10
290.2417371135
20
45.3306531827
0
VERTEX
8
0
62
7
6
CONTINUOUS
10
289.9019922056
20
45.1722075451
0
VERTEX
8
0
62
7
6
CONTINUOUS
10
289.5266988524
20
45.0174474058
0
VERTEX
8
0
62
7
6
CONTINUOUS
10
289.1153235975
20
44.8658646595
0
SEQEND
0
POLYLINE
8
0
62
7
6
CONTINUOUS
66
1
70
0
0
VERTEX
8
0
62
7
6
CONTINUOUS
10
291.5258743652
20
48.2431434576
0
VERTEX
8
0
62
7
6
CONTINUOUS
10
291.5588631562
20
48.1406623948
0
VERTEX
8
0
62
7
6
CONTINUOUS
10
291.5861619983
20
48.0348920423
0
VERTEX
8
0
62
7
6
CONTINUOUS
10
291.6069969803
20
47.9260093359
0
VERTEX
8
0
62
7
6
CONTINUOUS
10
291.6206318828
20
47.8134834681
0
VERTEX
8
0
62
7
6
CONTINUOUS
10
291.6261253628
20
47.6969100765
0
VERTEX
8
0
62
7
6
CONTINUOUS
10
291.6223175522
20
47.5760867614
0
VERTEX
8
0
62
7
6
CONTINUOUS
10
291.6078947310
20
47.4507177683
0
VERTEX
8
0
62
7
6
CONTINUOUS
10
291.5813030325
20
47.3206787985
0
VERTEX
8
0
62
7
6
CONTINUOUS
10
291.5408160646
20
47.1857448615
0
VERTEX
8
0
62
7
6
CONTINUOUS
10
291.4844343302
20
47.0459222782
0
VERTEX
8
0
62
7
6
CONTINUOUS
10
291.4099142436
20
46.9009849284
0
VERTEX
8
0
62
7
6
CONTINUOUS
10
291.3149575129
20
46.7514051442
0
VERTEX
8
0
62
7
6
CONTINUOUS
10
291.1968695856
20
46.5971128356
0
VERTEX
8
0
62
7
6
CONTINUOUS
10
291.0538305997
20
46.4395091488
0
VERTEX
8
0
62
7
6
CONTINUOUS
10
290.8842277571
20
46.2797366266
0
VERTEX
8
0
62
7
6
CONTINUOUS
10
290.6860572213
20
46.1185009899
0
VERTEX
8
0
62
7
6
CONTINUOUS
10
290.4575820389
20
45.9565774737
0
VERTEX
8
0
62
7
6
CONTINUOUS
10
290.1972682985
20
45.7949000785
0
VERTEX
8
0
62
7
6
CONTINUOUS
10
289.9037362422
20
45.6343154244
0
VERTEX
8
0
62
7
6
CONTINUOUS
10
289.5760928423
20
45.4758608872
0
VERTEX
8
0
62
7
6
CONTINUOUS
10
289.2139238148
20
45.3210209972
0
VERTEX
8
0
62
7
6
CONTINUOUS
10
288.8163061704
20
45.1693009110
0
SEQEND
0
LINE
8
0
62
7
6
CONTINUOUS
10
267.6241725176
20
56.2123871615
11
267.6241725176
21
56.7123871615
0
LINE
8
0
62
7
6
CONTINUOUS
10
267.7241725176
20
283.2123871615
11
267.7241725176
21
78.5267257635
0
LINE
8
0
62
2
6
CONTINUOUS
10
269.3741725176
20
77.6031193471
11
269.3741725176
21
286.0702709940
0
LINE
8
0
62
7
6
CONTINUOUS
10
270.2241725176
20
77.1123871615
11
270.2241725176
21
68.7415522187
0
LINE
8
0
62
7
6
CONTINUOUS
10
273.4741725176
20
62.8444379691
11
273.4741725176
21
57.8245194957
0
LINE
8
DEFAULT_1
62
2
6
CENTER
10
279.7241725176
20
289.2123871615
11
279.7241725176
21
30.7123871615
0
POLYLINE
8
0
62
7
6
CONTINUOUS
66
1
70
0
0
VERTEX
8
0
62
7
6
CONTINUOUS
10
270.1091434006
20
40.3418990391
0
VERTEX
8
0
62
7
6
CONTINUOUS
10
270.1187969188
20
40.9020718942
0
VERTEX
8
0
62
7
6
CONTINUOUS
10
270.1402474959
20
41.4529462442
0
VERTEX
8
0
62
7
6
CONTINUOUS
10
270.1732236375
20
41.9875498413
0
VERTEX
8
0
62
7
6
CONTINUOUS
10
270.2173079761
20
42.4991163698
0
VERTEX
8
0
62
7
6
CONTINUOUS
10
270.2719425508
20
42.9811710883
0
VERTEX
8
0
62
7
6
CONTINUOUS
10
270.3364358673
20
43.4276127784
0
VERTEX
8
0
62
7
6
CONTINUOUS
10
270.4099716588
20
43.8327909938
0
VERTEX
8
0
62
7
6
CONTINUOUS
10
270.4916191877
20
44.1915774358
0
VERTEX
8
0
62
7
6
CONTINUOUS
10
270.5803450421
20
44.4994310172
0
VERTEX
8
0
62
7
6
CONTINUOUS
10
270.6750262470
20
44.7524554116
0
SEQEND
0
POLYLINE
8
0
62
7
6
CONTINUOUS
66
1
70
0
0
VERTEX
8
0
62
7
6
CONTINUOUS
10
289.3392016345
20
40.3418990391
0
VERTEX
8
0
62
7
6
CONTINUOUS
10
289.3295487495
20
40.9020770015
0
VERTEX
8
0
62
7
6
CONTINUOUS
10
289.3080984344
20
41.4529553711
0
VERTEX
8
0
62
7
6
CONTINUOUS
10
289.2751222466
20
41.9875618140
0
VERTEX
8
0
62
7
6
CONTINUOUS
10
289.2310376146
20
42.4991299569
0
VERTEX
8
0
62
7
6
CONTINUOUS
10
289.1764025635
20
42.9811850782
0
VERTEX
8
0
62
7
6
CONTINUOUS
10
289.1119086485
20
43.4276260921
0
VERTEX
8
0
62
7
6
CONTINUOUS
10
289.0383720968
20
43.8328032428
0
VERTEX
8
0
62
7
6
CONTINUOUS
10
288.9567239797
20
44.1915869582
0
VERTEX
8
0
62
7
6
CONTINUOUS
10
288.8679981445
20
44.4994357295
0
VERTEX
8
0
62
7
6
CONTINUOUS
10
288.7733175787
20
44.7524549848
0
SEQEND
0
LINE
8
0
62
7
6
CONTINUOUS
10
285.9741725176
20
62.8444379691
11
285.9741725176
21
57.8245194957
0
LINE
8
0
62
7
6
CONTINUOUS
10
289.2241725176
20
68.7415522187
11
289.2241725176
21
77.1123871615
0
LINE
8
0
62
2
6
CONTINUOUS
10
290.0741725176
20
77.6031193471
11
290.0741725176
21
286.0702709940
0
LINE
8
0
62
7
6
CONTINUOUS
10
291.7241725176
20
283.2123871615
11
291.7241725176
21
78.5267257635
0
LINE
8
0
62
7
6
CONTINUOUS
10
291.8241725176
20
56.2123871615
11
291.8241725176
21
56.7123871615
0
POLYLINE
8
0
62
7
6
CONTINUOUS
66
1
70
0
0
VERTEX
8
0
62
7
6
CONTINUOUS
10
267.9224706699
20
48.2431434576
0
VERTEX
8
0
62
7
6
CONTINUOUS
10
267.8806205935
20
48.1091456814
0
VERTEX
8
0
62
7
6
CONTINUOUS
10
267.8489940213
20
47.9706680571
0
VERTEX
8
0
62
7
6
CONTINUOUS
10
267.8290128218
20
47.8280245936
0
VERTEX
8
0
62
7
6
CONTINUOUS
10
267.8221686047
20
47.6802732642
0
VERTEX
8
0
62
7
6
CONTINUOUS
10
267.8303948007
20
47.5267947284
0
VERTEX
8
0
62
7
6
CONTINUOUS
10
267.8562077877
20
47.3669349368
0
VERTEX
8
0
62
7
6
CONTINUOUS
10
267.9029981472
20
47.1989026170
0
VERTEX
8
0
62
7
6
CONTINUOUS
10
267.9734105345
20
47.0254900974
0
VERTEX
8
0
62
7
6
CONTINUOUS
10
268.0710173049
20
46.8464517473
0
VERTEX
8
0
62
7
6
CONTINUOUS
10
268.1937581845
20
46.6691101711
0
VERTEX
8
0
62
7
6
CONTINUOUS
10
268.3368277710
20
46.5001736038
0
VERTEX
8
0
62
7
6
CONTINUOUS
10
268.4957991076
20
46.3412395231
0
VERTEX
8
0
62
7
6
CONTINUOUS
10
268.6619507176
20
46.1972654128
0
VERTEX
8
0
62
7
6
CONTINUOUS
10
268.8345592675
20
46.0648794905
0
VERTEX
8
0
62
7
6
CONTINUOUS
10
269.0119733614
20
45.9425845959
0
VERTEX
8
0
62
7
6
CONTINUOUS
10
269.1921571130
20
45.8297143469
0
VERTEX
8
0
62
7
6
CONTINUOUS
10
269.3736611437
20
45.7253621656
0
VERTEX
8
0
62
7
6
CONTINUOUS
10
269.5554496434
20
45.6287514793
0
VERTEX
8
0
62
7
6
CONTINUOUS
10
269.7367867830
20
45.5390348352
0
VERTEX
8
0
62
7
6
CONTINUOUS
10
269.9172822957
20
45.4555182956
0
VERTEX
8
0
62
7
6
CONTINUOUS
10
270.0967618808
20
45.3774386657
0
VERTEX
8
0
62
7
6
CONTINUOUS
10
270.2754257097
20
45.3041562645
0
VERTEX
8
0
62
7
6
CONTINUOUS
10
270.4542752194
20
45.2346652531
0
VERTEX
8
0
62
7
6
CONTINUOUS
10
270.7122722471
20
45.1400210993
0
SEQEND
0
POLYLINE
8
0
62
7
6
CONTINUOUS
66
1
70
0
0
VERTEX
8
0
62
7
6
CONTINUOUS
10
267.5041681541
20
47.9397072061
0
VERTEX
8
0
62
7
6
CONTINUOUS
10
267.4617439271
20
47.8057341068
0
VERTEX
8
0
62
7
6
CONTINUOUS
10
267.4309158831
20
47.6672697384
0
VERTEX
8
0
62
7
6
CONTINUOUS
10
267.4115928685
20
47.5246253174
0
VERTEX
8
0
62
7
6
CONTINUOUS
10
267.4061268861
20
47.3768671947
0
VERTEX
8
0
62
7
6
CONTINUOUS
10
267.4160667646
20
47.2233842797
0
VERTEX
8
0
62
7
6
CONTINUOUS
10
267.4445338179
20
47.0635201128
0
VERTEX
8
0
62
7
6
CONTINUOUS
10
267.4948019362
20
46.8954815728
0
VERTEX
8
0
62
7
6
CONTINUOUS
10
267.5691970429
20
46.7220675544
0
VERTEX
8
0
62
7
6
CONTINUOUS
10
267.6726710585
20
46.5430424174
0
VERTEX
8
0
62
7
6
CONTINUOUS
10
267.8005333440
20
46.3657166452
0
VERTEX
8
0
62
7
6
CONTINUOUS
10
267.9504139776
20
46.1967897877
0
VERTEX
8
0
62
7
6
CONTINUOUS
10
268.1158865035
20
46.0378590047
0
VERTEX
8
0
62
7
6
CONTINUOUS
10
268.2887478758
20
45.8938755334
0
VERTEX
8
0
62
7
6
CONTINUOUS
10
268.4685807414
20
45.7614766915
0
VERTEX
8
0
62
7
6
CONTINUOUS
10
268.6528985941
20
45.6391733244
0
VERTEX
8
0
62
7
6
CONTINUOUS
10
268.8402169156
20
45.5262960866
0
VERTEX
8
0
62
7
6
CONTINUOUS
10
269.0285642022
20
45.4219381683
0
VERTEX
8
0
62
7
6
CONTINUOUS
10
269.2173050346
20
45.3253228089
0
VERTEX
8
0
62
7
6
CONTINUOUS
10
269.4053199288
20
45.2356023283
0
VERTEX
8
0
62
7
6
CONTINUOUS
10
269.5925379157
20
45.1520826756
0
VERTEX
8
0
62
7
6
CONTINUOUS
10
269.7785059221
20
45.0740000504
0
VERTEX
8
0
62
7
6
CONTINUOUS
10
269.9636861190
20
45.0007160215
0
VERTEX
8
0
62
7
6
CONTINUOUS
10
270.1486998716
20
44.9312259290
0
VERTEX
8
0
62
7
6
CONTINUOUS
10
270.3330214376
20
44.8658646595
0
SEQEND
0
POLYLINE
8
0
62
7
6
CONTINUOUS
66
1
70
0
0
VERTEX
8
0
62
7
6
CONTINUOUS
10
269.2056426993
20
51.8787971808
0
VERTEX
8
0
62
7
6
CONTINUOUS
10
269.2126724770
20
51.9005794192
0
VERTEX
8
0
62
7
6
CONTINUOUS
10
269.2181498458
20
51.9215829587
0
VERTEX
8
0
62
7
6
CONTINUOUS
10
269.2221356894
20
51.9418205439
0
VERTEX
8
0
62
7
6
CONTINUOUS
10
269.2246721280
20
51.9612400159
0
VERTEX
8
0
62
7
6
CONTINUOUS
10
269.2258154219
20
51.9797876605
0
VERTEX
8
0
62
7
6
CONTINUOUS
10
269.2256267538
20
51.9974841847
0
VERTEX
8
0
62
7
6
CONTINUOUS
10
269.2241669999
20
52.0143220169
0
VERTEX
8
0
62
7
6
CONTINUOUS
10
269.2214861477
20
52.0303327758
0
VERTEX
8
0
62
7
6
CONTINUOUS
10
269.2176285625
20
52.0455413573
0
VERTEX
8
0
62
7
6
CONTINUOUS
10
269.2126307071
20
52.0599573539
0
VERTEX
8
0
62
7
6
CONTINUOUS
10
269.2065234944
20
52.0735978348
0
VERTEX
8
0
62
7
6
CONTINUOUS
10
269.1993371024
20
52.0864607579
0
VERTEX
8
0
62
7
6
CONTINUOUS
10
269.1911066426
20
52.0985389208
0
VERTEX
8
0
62
7
6
CONTINUOUS
10
269.1818364302
20
52.1098591839
0
VERTEX
8
0
62
7
6
CONTINUOUS
10
269.1715362899
20
52.1204249069
0
VERTEX
8
0
62
7
6
CONTINUOUS
10
269.1601530589
20
52.1302825379
0
SEQEND
0
LINE
8
0
62
7
6
CONTINUOUS
10
267.9224706699
20
48.2431434576
11
269.2056425862
21
51.8787972204
0
LINE
8
0
62
7
6
CONTINUOUS
10
269.0146249646
20
52.1822396143
11
267.5041681541
21
47.9397072061
0
LINE
8
0
62
7
6
CONTINUOUS
10
330.7426648435
20
40.3418995535
11
330.9567227692
21
34.2120825750
0
LINE
8
0
62
7
6
CONTINUOUS
10
289.2246315978
20
68.7423474364
11
286.1081419173
21
63.3444289684
0
POLYLINE
8
0
62
7
6
CONTINUOUS
66
1
70
0
0
VERTEX
8
0
62
7
6
CONTINUOUS
10
290.2449477198
20
52.0795262049
0
VERTEX
8
0
62
7
6
CONTINUOUS
10
290.2379606469
20
52.0653635506
0
VERTEX
8
0
62
7
6
CONTINUOUS
10
290.2322568607
20
52.0504310778
0
VERTEX
8
0
62
7
6
CONTINUOUS
10
290.2278316781
20
52.0347180250
0
VERTEX
8
0
62
7
6
CONTINUOUS
10
290.2247083360
20
52.0182122228
0
VERTEX
8
0
62
7
6
CONTINUOUS
10
290.2229074467
20
52.0008846659
0
VERTEX
8
0
62
7
6
CONTINUOUS
10
290.2224716405
20
51.9827021234
0
VERTEX
8
0
62
7
6
CONTINUOUS
10
290.2234504877
20
51.9636551674
0
VERTEX
8
0
62
7
6
CONTINUOUS
10
290.2259056112
20
51.9437089674
0
VERTEX
8
0
62
7
6
CONTINUOUS
10
290.2298953856
20
51.9229030115
0
VERTEX
8
0
62
7
6
CONTINUOUS
10
290.2354722334
20
51.9012674202
0
VERTEX
8
0
62
7
6
CONTINUOUS
10
290.2427023143
20
51.8787971749
0
SEQEND
0
LINE
8
0
62
7
6
CONTINUOUS
10
282.2601688306
20
42.8449400510
11
282.8378750488
21
43.8259947135
0
LINE
8
0
62
7
6
CONTINUOUS
10
281.9581510509
20
42.3363637724
11
282.2601688306
21
42.8449400510
0
LINE
8
0
62
7
6
CONTINUOUS
10
291.7241725176
20
283.2123871615
11
289.9921217100
21
286.2123871615
0
LINE
8
0
62
7
6
CONTINUOUS
10
291.7243529714
20
78.5558670196
11
289.2241725176
21
77.1123871615
0
LINE
8
0
62
7
6
CONTINUOUS
10
259.3662014851
20
54.8290649752
11
231.9925335921
21
44.8658646595
0
POLYLINE
8
0
62
7
6
CONTINUOUS
66
1
70
0
0
VERTEX
8
0
62
7
6
CONTINUOUS
10
270.6750232105
20
44.7524386907
0
VERTEX
8
0
62
7
6
CONTINUOUS
10
270.7310419008
20
44.7804149962
0
VERTEX
8
0
62
7
6
CONTINUOUS
10
270.7849773612
20
44.8179738781
0
VERTEX
8
0
62
7
6
CONTINUOUS
10
270.8356291226
20
44.8642793690
0
VERTEX
8
0
62
7
6
CONTINUOUS
10
270.8818698027
20
44.9183008237
0
VERTEX
8
0
62
7
6
CONTINUOUS
10
270.9226701989
20
44.9788358588
0
VERTEX
8
0
62
7
6
CONTINUOUS
10
270.9571221960
20
45.0445371148
0
SEQEND
0
POLYLINE
8
0
62
7
6
CONTINUOUS
66
1
70
0
0
VERTEX
8
0
62
7
6
CONTINUOUS
10
277.4901940603
20
42.3363637117
0
VERTEX
8
0
62
7
6
CONTINUOUS
10
276.6957370635
20
41.9326434029
0
VERTEX
8
0
62
7
6
CONTINUOUS
10
275.9147622903
20
41.5784714891
0
VERTEX
8
0
62
7
6
CONTINUOUS
10
275.1479945967
20
41.2751696166
0
VERTEX
8
0
62
7
6
CONTINUOUS
10
274.3941703478
20
41.0187728466
0
VERTEX
8
0
62
7
6
CONTINUOUS
10
273.6525737764
20
40.8063502515
0
VERTEX
8
0
62
7
6
CONTINUOUS
10
272.9221713555
20
40.6361214444
0
VERTEX
8
0
62
7
6
CONTINUOUS
10
272.2009807550
20
40.5056361924
0
VERTEX
8
0
62
7
6
CONTINUOUS
10
271.4910666662
20
40.4139731071
0
VERTEX
8
0
62
7
6
CONTINUOUS
10
270.7938986162
20
40.3591767894
0
VERTEX
8
0
62
7
6
CONTINUOUS
10
270.1091434006
20
40.3418990391
0
SEQEND
0
POLYLINE
8
0
62
7
6
CONTINUOUS
66
1
70
0
0
VERTEX
8
0
62
7
6
CONTINUOUS
10
270.3330214380
20
44.8658646531
0
VERTEX
8
0
62
7
6
CONTINUOUS
10
270.3932925823
20
44.8924567477
0
VERTEX
8
0
62
7
6
CONTINUOUS
10
270.4512137497
20
44.9301398587
0
VERTEX
8
0
62
7
6
CONTINUOUS
10
270.5053356486
20
44.9779710872
0
VERTEX
8
0
62
7
6
CONTINUOUS
10
270.5543040518
20
45.0347536098
0
VERTEX
8
0
62
7
6
CONTINUOUS
10
270.5968936819
20
45.0990666259
0
VERTEX
8
0
62
7
6
CONTINUOUS
10
270.6320388701
20
45.1693009083
0
SEQEND
0
POLYLINE
8
0
62
7
6
CONTINUOUS
66
1
70
0
0
VERTEX
8
0
62
7
6
CONTINUOUS
10
288.5707877333
20
45.0766027165
0
VERTEX
8
0
62
7
6
CONTINUOUS
10
288.3331762079
20
44.9815302431
0
VERTEX
8
0
62
7
6
CONTINUOUS
10
288.1652559703
20
44.9179895198
0
VERTEX
8
0
62
7
6
CONTINUOUS
10
287.9876285185
20
44.8539994669
0
VERTEX
8
0
62
7
6
CONTINUOUS
10
287.7985621149
20
44.7893563810
0
VERTEX
8
0
62
7
6
CONTINUOUS
10
287.5966849983
20
44.7238680859
0
VERTEX
8
0
62
7
6
CONTINUOUS
10
287.3806475019
20
44.6575679019
0
VERTEX
8
0
62
7
6
CONTINUOUS
10
287.1490214725
20
44.5903833659
0
VERTEX
8
0
62
7
6
CONTINUOUS
10
286.9002801923
20
44.5224396520
0
VERTEX
8
0
62
7
6
CONTINUOUS
10
286.6328549737
20
44.4537750816
0
VERTEX
8
0
62
7
6
CONTINUOUS
10
286.3450914397
20
44.3845777503
0
VERTEX
8
0
62
7
6
CONTINUOUS
10
286.0352120618
20
44.3148992511
0
VERTEX
8
0
62
7
6
CONTINUOUS
10
285.7017442465
20
44.2451874127
0
VERTEX
8
0
62
7
6
CONTINUOUS
10
285.3411003321
20
44.1752983134
0
VERTEX
8
0
62
7
6
CONTINUOUS
10
284.9578377525
20
44.1070587978
0
VERTEX
8
0
62
7
6
CONTINUOUS
10
284.5484152903
20
44.0409409109
0
VERTEX
8
0
62
7
6
CONTINUOUS
10
284.1356368847
20
43.9808651299
0
VERTEX
8
0
62
7
6
CONTINUOUS
10
283.7353972203
20
43.9322200139
0
VERTEX
8
0
62
7
6
CONTINUOUS
10
283.3713540961
20
43.8910733620
0
VERTEX
8
0
62
7
6
CONTINUOUS
10
283.0761168408
20
43.8550221580
0
VERTEX
8
0
62
7
6
CONTINUOUS
10
282.8412236777
20
43.8248674073
0
SEQEND
0
POLYLINE
8
0
62
7
6
CONTINUOUS
66
1
70
0
0
VERTEX
8
0
62
7
6
CONTINUOUS
10
288.8163061704
20
45.1693009110
0
VERTEX
8
0
62
7
6
CONTINUOUS
10
288.7333865730
20
45.1389763042
0
VERTEX
8
0
62
7
6
CONTINUOUS
10
288.6515267631
20
45.1080769060
0
VERTEX
8
0
62
7
6
CONTINUOUS
10
288.5707877333
20
45.0766027165
0
SEQEND
0
POLYLINE
8
0
62
7
6
CONTINUOUS
66
1
70
0
0
VERTEX
8
0
62
7
6
CONTINUOUS
10
288.7733154862
20
44.7524633995
0
VERTEX
8
0
62
7
6
CONTINUOUS
10
288.5950625194
20
44.6956256930
0
VERTEX
8
0
62
7
6
CONTINUOUS
10
288.4071997930
20
44.6390423312
0
VERTEX
8
0
62
7
6
CONTINUOUS
10
288.2099310349
20
44.5830143527
0
VERTEX
8
0
62
7
6
CONTINUOUS
10
288.0015092869
20
44.5272664983
0
VERTEX
8
0
62
7
6
CONTINUOUS
10
287.7805372999
20
44.4717244175
0
VERTEX
8
0
62
7
6
CONTINUOUS
10
287.5457275655
20
44.4163926036
0
VERTEX
8
0
62
7
6
CONTINUOUS
10
287.2956716775
20
44.3613275197
0
VERTEX
8
0
62
7
6
CONTINUOUS
10
287.0289468578
20
44.3066233937
0
VERTEX
8
0
62
7
6
CONTINUOUS
10
286.7440644572
20
44.2524260827
0
VERTEX
8
0
62
7
6
CONTINUOUS
10
286.4394923848
20
44.1989032848
0
VERTEX
8
0
62
7
6
CONTINUOUS
10
286.1135475725
20
44.1462293804
0
VERTEX
8
0
62
7
6
CONTINUOUS
10
285.7649102179
20
44.0946972481
0
VERTEX
8
0
62
7
6
CONTINUOUS
10
285.3899412785
20
44.0444587868
0
VERTEX
8
0
62
7
6
CONTINUOUS
10
284.9935763082
20
43.9970481354
0
VERTEX
8
0
62
7
6
CONTINUOUS
10
284.5724162650
20
43.9528424819
0
VERTEX
8
0
62
7
6
CONTINUOUS
10
284.1500526369
20
43.9146272346
0
VERTEX
8
0
62
7
6
CONTINUOUS
10
283.7429043210
20
43.8838734814
0
VERTEX
8
0
62
7
6
CONTINUOUS
10
283.3731594971
20
43.8638667902
0
VERTEX
8
0
62
7
6
CONTINUOUS
10
283.0747946600
20
43.8496480539
0
VERTEX
8
0
62
7
6
CONTINUOUS
10
282.8405726717
20
43.8247819007
0
SEQEND
0
POLYLINE
8
0
62
7
6
CONTINUOUS
66
1
70
0
0
VERTEX
8
0
62
7
6
CONTINUOUS
10
289.1153235975
20
44.8658646595
0
VERTEX
8
0
62
7
6
CONTINUOUS
10
289.0279958219
20
44.8383296525
0
VERTEX
8
0
62
7
6
CONTINUOUS
10
288.9418691800
20
44.8102015590
0
VERTEX
8
0
62
7
6
CONTINUOUS
10
288.8569683148
20
44.7815530573
0
VERTEX
8
0
62
7
6
CONTINUOUS
10
288.7733175787
20
44.7524549848
0
SEQEND
0
LINE
8
0
62
7
6
CONTINUOUS
10
330.9567227692
20
34.2120825750
11
330.4741725176
21
33.7123871615
0
LINE
8
0
62
7
6
CONTINUOUS
10
291.7241725176
20
283.2123871615
11
267.7241725176
21
283.2123871615
0
LINE
8
0
62
7
6
CONTINUOUS
10
290.0741725176
20
286.0702709940
11
269.3741725176
21
286.0702709940
0
LINE
8
0
62
7
6
CONTINUOUS
10
269.4562233251
20
286.2123871615
11
289.9921217100
21
286.2123871615
0
ARC
8
0
62
7
6
CONTINUOUS
10
85.2443393578
20
51.7123871615
40
0.5000000000
50
90.0000000000
51
160.5599647045
0
ARC
8
0
62
7
6
CONTINUOUS
10
180.3384088869
20
51.7123871615
40
0.5000000000
50
19.4400352955
51
90.0000000000
0
ARC
8
0
62
7
6
CONTINUOUS
10
140.0413741224
20
57.8245194957
40
1.0000000000
50
180.0000000000
51
206.4836404987
0
ARC
8
0
62
7
6
CONTINUOUS
10
125.5413741224
20
57.8245194957
40
1.0000000000
50
333.5163595252
51
360.0000000000
0
ARC
8
0
62
7
6
CONTINUOUS
10
140.0413741224
20
62.8444379691
40
1.0000000000
50
149.9999999047
51
180.0000000000
0
ARC
8
0
62
7
6
CONTINUOUS
10
125.5413741224
20
62.8444379691
40
1.0000000000
50
0.0000000000
51
30.0000000000
0
ARC
8
0
62
7
6
CONTINUOUS
10
132.7913741224
20
54.2123871615
40
7.1000000000
50
153.5163597171
51
159.3538649998
0
ARC
8
0
62
7
6
CONTINUOUS
10
132.7913741224
20
54.2123871615
40
7.1000000000
50
20.6461350002
51
26.4836402829
0
ARC
8
0
62
7
6
CONTINUOUS
10
289.7712072821
20
51.7123871615
40
0.5000000000
50
19.4400348519
51
90.0000000000
0
ARC
8
0
62
7
6
CONTINUOUS
10
269.6771377530
20
51.7123871615
40
0.5000000000
50
90.0000000000
51
160.5599651531
0
ARC
8
0
62
7
6
CONTINUOUS
10
325.7457107263
20
40.1674015556
40
5.0000000000
50
2.0000058978
51
70.0000000000
0
ARC
8
0
62
7
6
CONTINUOUS
10
233.7026343088
20
40.1674015556
40
5.0000000000
50
110.0000000000
51
177.9999941021
0
ARC
8
0
62
7
6
CONTINUOUS
10
286.9741725176
20
57.8245194957
40
1.0000000000
50
180.0000000000
51
206.4836070772
0
ARC
8
0
62
7
6
CONTINUOUS
10
279.7241725176
20
54.2123871615
40
7.1000000000
50
20.6461350262
51
26.4836449598
0
ARC
8
0
62
7
6
CONTINUOUS
10
272.4741725176
20
57.8245194957
40
1.0000000000
50
333.5163929228
51
360.0000000000
0
ARC
8
0
62
7
6
CONTINUOUS
10
286.9741725176
20
62.8444379691
40
1.0000000000
50
150.0005954679
51
180.0000000000
0
ARC
8
0
62
7
6
CONTINUOUS
10
272.4741725176
20
62.8444379691
40
1.0000000000
50
0.0000000000
51
29.9994045321
0
ARC
8
0
62
7
6
CONTINUOUS
10
279.7241725176
20
54.2123871615
40
7.1000000000
50
153.5163550402
51
159.3538649738
0
ENDSEC
0
EOF
