  0
SECTION
  2
HEADER
  9
$ACADVER
  1
AC1009
  9
$INSBASE
 10
0
 20
0
  9
$EXTMIN
 10
-790.0973579455172
 20
143.283634549084
  9
$EXTMAX
 10
-466.2780084349941
 20
347.472074659009
  9
$LIMMIN
 10
-790.0973579455172
 20
143.283634549084
  9
$LIMMAX
 10
-466.2780084349941
 20
347.472074659009
  9
$VIEWCTR
 10
10
 20
10
  9
$VIEWSIZE
 40
10
  9
$SNAPMODE
 70
0
  9
$SNAPUNIT
 10
1
 20
1
  9
$SNAPBASE
 10
0
 20
0
  9
$SNAPANG
 50
0
  9
$SNAPSTYLE
 70
0
  9
$SNAPISOPAIR
 70
0
  9
$GRIDMODE
 70
0
  9
$GRIDUNIT
 10
0
 20
0
  9
$ORTHOMODE
 70
0
  9
$REGENMODE
 70
1
  9
$FILLMODE
 70
1
  9
$QTEXTMODE
 70
0
  9
$DRAGMODE
 70
2
  9
$LTSCALE
 40
1
  9
$OSMODE
 70
0
  9
$ATTMODE
 70
1
  9
$TEXTSIZE
 40
3.5
  9
$TRACEWID
 40
0.5
  9
$TEXTSTYLE
  7
STANDARD
  9
$CLAYER
  8
0
  9
$CELTYPE
  6
BYLAYER
  9
$CECOLOR
 62
256
  9
$DIMSCALE
 40
1
  9
$DIMASZ
 40
0.18
  9
$DIMEXO
 40
0.0625
  9
$DIMDLI
 40
0.38
  9
$DIMRND
 40
0
  9
$DIMDLE
 40
0
  9
$DIMEXE
 40
0.18
  9
$DIMTP
 40
0
  9
$DIMTM
 40
0
  9
$DIMTXT
 40
0.18
  9
$DIMCEN
 40
0.09
  9
$DIMTSZ
 40
0
  9
$DIMTOL
 70
0
  9
$DIMLIM
 70
0
  9
$DIMTIH
 70
1
  9
$DIMTOH
 70
1
  9
$DIMSE1
 70
0
  9
$DIMSE2
 70
0
  9
$DIMTAD
 70
0
  9
$DIMZIN
 70
0
  9
$DIMBLK
  1

  9
$DIMASO
 70
1
  9
$DIMSHO
 70
1
  9
$DIMPOST
  1

  9
$DIMAPOST
  1

  9
$DIMALT
 70
0
  9
$DIMALTD
 70
2
  9
$DIMALTF
 40
25.4
  9
$DIMLFAC
 40
1
  9
$DIMTOFL
 70
0
  9
$DIMTVP
 40
0
  9
$DIMTIX
 70
0
  9
$DIMSOXD
 70
0
  9
$DIMSAH
 70
0
  9
$DIMBLK1
  1

  9
$DIMBLK2
  1

  9
$DIMSTYLE
  2
*UNNAMED
  9
$DIMCLRD
 70
0
  9
$DIMCLRE
 70
0
  9
$DIMCLRT
 70
0
  9
$DIMTFAC
 40
1
  9
$DIMGAP
 40
0.09
  9
$LUNITS
 70
2
  9
$LUPREC
 70
4
  9
$AXISMODE
 70
0
  9
$AXISUNIT
 10
0
 20
0
  9
$SKETCHINC
 40
0.1
  9
$FILLETRAD
 40
2
  9
$AUNITS
 70
0
  9
$AUPREC
 70
0
  9
$MENU
  1
ACAD
  9
$ELEVATION
 40
0
  9
$THICKNESS
 40
0
  9
$VIEWDIR
 10
0
 20
0
 30
1
  9
$LIMCHECK
 70
0
  9
$BLIPMODE
 70
1
  9
$CHAMFERA
 40
0
  9
$CHAMFERB
 40
0
  9
$FASTZOOM
 70
1
  9
$SKPOLY
 70
0
  9
$ANGBASE
 50
0
  9
$ANGDIR
 70
0
  9
$PDMODE
 70
0
  9
$PDSIZE
 40
0
  9
$PLINEWID
 40
0
  9
$COORDS
 70
2
  0
ENDSEC
  0
SECTION
  2
TABLES
  0
TABLE
  2
DIMSTYLE
 70
1
  0
DIMSTYLE
  2
DMST_1
 70
0
  3

  4

  5

  6

  7

 40
1
 41
3.2
 42
1
 43
7
 44
1
 45
0
 46
0
 47
0
 48
0
140
3.2
141
0
142
0
143
25.4
144
1
145
0
146
1
147
0.09
 71
0
 72
0
 73
0
 74
0
 75
0
 76
0
 77
1
 78
9
170
0
171
2
172
0
173
0
174
0
175
0
176
2
177
2
178
2
  0
ENDTAB
  0
TABLE
  2
LTYPE
 70
9
  0
LTYPE
  2
CONTINUOUS
 70
64
  3
Solid line
 72
65
 73
0
 40
0
  0
LTYPE
  2
BORDER
 70
64
  3
__ __ . __ __ .
 72
65
 73
6
 40
14.91273320114251
 49
4.260780914612146
 49
-2.130390457306073
 49
4.260780914612146
 49
-2.130390457306073
 49
0
 49
-2.130390457306073
  0
LTYPE
  2
CENTER
 70
64
  3
____ _ ____ _
 72
65
 73
4
 40
17.04312365844858
 49
10.65195228653036
 49
-2.130390457306073
 49
2.130390457306073
 49
-2.130390457306073
  0
LTYPE
  2
DASHDOT
 70
64
  3
__ . __ . __ .
 72
65
 73
4
 40
8.521561829224291
 49
4.260780914612146
 49
-2.130390457306073
 49
0
 49
-2.130390457306073
  0
LTYPE
  2
DASHED
 70
64
  3
__ __ __ __ __
 72
65
 73
2
 40
6.391171371918219
 49
4.260780914612146
 49
-2.130390457306073
  0
LTYPE
  2
DIVIDE
 70
64
  3
__ . . __ . . 
 72
65
 73
6
 40
10.65195228653036
 49
4.260780914612146
 49
-2.130390457306073
 49
0
 49
-2.130390457306073
 49
0
 49
-2.130390457306073
  0
LTYPE
  2
DOT
 70
64
  3
..............
 72
65
 73
4
 40
4.260780914612146
 49
0
 49
-2.130390457306073
 49
0
 49
-2.130390457306073
  0
LTYPE
  2
HIDDEN
 70
64
  3
_ _ _ _ _ _ _
 72
65
 73
2
 40
3.195585685959109
 49
2.130390457306073
 49
-1.065195228653036
  0
LTYPE
  2
PHANTOM
 70
64
  3
_____ _ _ _____ _ _ 
 72
65
 73
6
 40
21.30390457306073
 49
10.65195228653036
 49
-2.130390457306073
 49
2.130390457306073
 49
-2.130390457306073
 49
2.130390457306073
 49
-2.130390457306073
  0
ENDTAB
  0
TABLE
  2
LAYER
 70
4
  0
LAYER
  2
1
 70
0
 62
7
  6
CONTINUOUS
  0
LAYER
  2
CONSTRUCTION
 70
0
 62
7
  6
CONTINUOUS
  0
LAYER
  2
0
 70
0
 62
7
  6
CONTINUOUS
  0
ENDTAB
  0
TABLE
  2
STYLE
 70
4
  0
STYLE
  2
STANDARD
 70
0
 40
0
 41
1
 50
0
 71
0
 42
3.5
  3
txt
  4

  0
STYLE
  2
SIMPLEX
 70
0
 40
0
 41
1
 50
0
 71
0
 42
3.5
  3
simplex
  4

  0
STYLE
  2
COMPLEX
 70
0
 40
0
 41
1
 50
0
 71
0
 42
3.5
  3
complex
  4

  0
STYLE
  2
ITALIC
 70
0
 40
0
 41
1
 50
0
 71
0
 42
3.5
  3
italic
  4

  0
ENDTAB
  0
TABLE
  2
VIEW
 70
0
  0
ENDTAB
  0
ENDSEC
  0
SECTION
  2
BLOCKS
  0
BLOCK
  8
1
  2
*D0
 70
1
 10
0
 20
0
 30
0
  0
LINE
  8
1
 62
2
 10
-765.497357945517
 20
157.191723663912
 30
0
 11
-663.8973579455171
 21
157.191723663912
 31
0
  0
LINE
  8
1
 62
2
 10
-663.8973579455171
 20
221.1543364916526
 30
0
 11
-663.8973579455171
 21
156.191723663912
 31
0
  0
LINE
  8
1
 62
2
 10
-765.497357945517
 20
221.1543364916526
 30
0
 11
-765.497357945517
 21
156.191723663912
 31
0
  0
SOLID
  8
1
 62
2
 10
-765.497357945517
 20
157.191723663912
 30
0
 11
-762.297357945517
 21
157.607723663912
 31
0
 12
-762.297357945517
 22
156.775723663912
 32
0
 13
-762.297357945517
 23
156.775723663912
 33
0
  0
SOLID
  8
1
 62
2
 10
-663.8973579455171
 20
157.191723663912
 30
0
 11
-667.0973579455172
 21
156.775723663912
 31
0
 12
-667.0973579455172
 22
157.607723663912
 32
0
 13
-667.0973579455172
 23
157.607723663912
 33
0
  0
TEXT
  8
1
 62
2
 10
-719.5773579455171
 20
158.711723663912
 30
0
 40
3.2
  1
101,6
 41
0.9
  0
ENDBLK
  8
0
  0
BLOCK
  8
1
  2
*D1
 70
1
 10
0
 20
0
 30
0
  0
LINE
  8
1
 62
2
 10
-625.4300707451939
 20
194.8734772455831
 30
0
 11
-625.4300707451939
 21
188.4734772455831
 31
0
  0
LINE
  8
1
 62
2
 10
-625.4300707451939
 20
185.4734772455831
 30
0
 11
-625.4300707451939
 21
188.4734772455831
 31
0
  0
LINE
  8
1
 62
2
 10
-625.4300707451939
 20
185.4734772455831
 30
0
 11
-625.4300707451939
 21
178.0614730213319
 31
0
  0
LINE
  8
1
 62
2
 10
-638.5473579455171
 20
185.4734772455831
 30
0
 11
-624.4300707451939
 21
185.4734772455831
 31
0
  0
LINE
  8
1
 62
2
 10
-643.0293579455171
 20
188.4734772455831
 30
0
 11
-624.4300707451939
 21
188.4734772455831
 31
0
  0
LINE
  8
1
 62
2
 10
-625.4300707451939
 20
188.4734772455831
 30
0
 11
-625.846070745194
 21
191.6734772455831
 31
0
  0
LINE
  8
1
 62
2
 10
-625.846070745194
 20
191.6734772455831
 30
0
 11
-625.0140707451939
 21
191.6734772455831
 31
0
  0
LINE
  8
1
 62
2
 10
-625.0140707451939
 20
191.6734772455831
 30
0
 11
-625.4300707451939
 21
188.4734772455831
 31
0
  0
LINE
  8
1
 62
2
 10
-625.4300707451939
 20
185.4734772455831
 30
0
 11
-625.0140707451939
 21
182.2734772455831
 31
0
  0
LINE
  8
1
 62
2
 10
-625.0140707451939
 20
182.2734772455831
 30
0
 11
-625.846070745194
 21
182.2734772455831
 31
0
  0
LINE
  8
1
 62
2
 10
-625.846070745194
 20
182.2734772455831
 30
0
 11
-625.4300707451939
 21
185.4734772455831
 31
0
  0
TEXT
  8
1
 62
2
 10
-626.6300707451939
 20
178.0614730213319
 30
0
 40
3.2
  1
3
 50
90
 41
0.9
  0
ENDBLK
  8
0
  0
BLOCK
  8
1
  2
*D2
 70
1
 10
0
 20
0
 30
0
  0
LINE
  8
1
 62
2
 10
-578.826651072854
 20
185.473477245583
 30
0
 11
-578.826651072854
 21
331.4734772455831
 31
0
  0
LINE
  8
1
 62
2
 10
-640.158857945517
 20
331.4734772455831
 30
0
 11
-577.826651072854
 21
331.4734772455831
 31
0
  0
LINE
  8
1
 62
2
 10
-638.547357945517
 20
185.473477245583
 30
0
 11
-577.826651072854
 21
185.473477245583
 31
0
  0
LINE
  8
1
 62
2
 10
-578.826651072854
 20
331.4734772455831
 30
0
 11
-578.410651072854
 21
328.2734772455831
 31
0
  0
LINE
  8
1
 62
2
 10
-578.410651072854
 20
328.2734772455831
 30
0
 11
-579.2426510728541
 21
328.2734772455831
 31
0
  0
LINE
  8
1
 62
2
 10
-579.2426510728541
 20
328.2734772455831
 30
0
 11
-578.826651072854
 21
331.4734772455831
 31
0
  0
LINE
  8
1
 62
2
 10
-578.826651072854
 20
185.473477245583
 30
0
 11
-579.2426510728541
 21
188.673477245583
 31
0
  0
LINE
  8
1
 62
2
 10
-579.2426510728541
 20
188.673477245583
 30
0
 11
-578.410651072854
 21
188.673477245583
 31
0
  0
LINE
  8
1
 62
2
 10
-578.410651072854
 20
188.673477245583
 30
0
 11
-578.826651072854
 21
185.473477245583
 31
0
  0
TEXT
  8
1
 62
2
 10
-580.026651072854
 20
262.8783628156588
 30
0
 40
3.2
  1
146
 50
90
 41
0.9
  0
ENDBLK
  8
0
  0
BLOCK
  8
1
  2
*D3
 70
1
 10
0
 20
0
 30
0
  0
LINE
  8
1
 62
2
 10
-594.6027078040352
 20
185.4734772455832
 30
0
 11
-594.6027078040352
 21
242.4753701621497
 31
0
  0
LINE
  8
1
 62
2
 10
-638.297357945517
 20
242.4753701621497
 30
0
 11
-593.6027078040352
 21
242.4753701621497
 31
0
  0
LINE
  8
1
 62
2
 10
-638.547357945517
 20
185.4734772455832
 30
0
 11
-593.6027078040352
 21
185.4734772455832
 31
0
  0
LINE
  8
1
 62
2
 10
-594.6027078040352
 20
185.4734772455832
 30
0
 11
-595.0187078040352
 21
188.6734772455831
 31
0
  0
LINE
  8
1
 62
2
 10
-595.0187078040352
 20
188.6734772455831
 30
0
 11
-594.1867078040351
 21
188.6734772455831
 31
0
  0
LINE
  8
1
 62
2
 10
-594.1867078040351
 20
188.6734772455831
 30
0
 11
-594.6027078040352
 21
185.4734772455832
 31
0
  0
LINE
  8
1
 62
2
 10
-594.6027078040352
 20
242.4753701621497
 30
0
 11
-594.1867078040351
 21
239.2753701621497
 31
0
  0
LINE
  8
1
 62
2
 10
-594.1867078040351
 20
239.2753701621497
 30
0
 11
-595.0187078040352
 21
239.2753701621497
 31
0
  0
LINE
  8
1
 62
2
 10
-595.0187078040352
 20
239.2753701621497
 30
0
 11
-594.6027078040352
 21
242.4753701621497
 31
0
  0
TEXT
  8
1
 62
2
 10
-595.8027078040351
 20
211.3378771097268
 30
0
 40
3.2
  1
57
 50
90
 41
0.9
  0
ENDBLK
  8
0
  0
BLOCK
  8
1
  2
*D4
 70
1
 10
0
 20
0
 30
0
  0
LINE
  8
1
 62
2
 10
-790.0973579455172
 20
146.38490385056
 30
0
 11
-639.297357945517
 21
146.38490385056
 31
0
  0
LINE
  8
1
 62
2
 10
-639.297357945517
 20
184.7234772455831
 30
0
 11
-639.297357945517
 21
145.38490385056
 31
0
  0
LINE
  8
1
 62
2
 10
-790.0973579455172
 20
184.7234772455831
 30
0
 11
-790.0973579455172
 21
145.38490385056
 31
0
  0
LINE
  8
1
 62
2
 10
-790.0973579455172
 20
146.38490385056
 30
0
 11
-786.8973579455171
 21
146.80090385056
 31
0
  0
LINE
  8
1
 62
2
 10
-786.8973579455171
 20
146.80090385056
 30
0
 11
-786.8973579455171
 21
145.96890385056
 31
0
  0
LINE
  8
1
 62
2
 10
-786.8973579455171
 20
145.96890385056
 30
0
 11
-790.0973579455172
 21
146.38490385056
 31
0
  0
LINE
  8
1
 62
2
 10
-639.297357945517
 20
146.38490385056
 30
0
 11
-642.497357945517
 21
145.96890385056
 31
0
  0
LINE
  8
1
 62
2
 10
-642.497357945517
 20
145.96890385056
 30
0
 11
-642.497357945517
 21
146.80090385056
 31
0
  0
LINE
  8
1
 62
2
 10
-642.497357945517
 20
146.80090385056
 30
0
 11
-639.297357945517
 21
146.38490385056
 31
0
  0
TEXT
  8
1
 62
2
 10
-720.0573579455171
 20
147.90490385056
 30
0
 40
3.2
  1
150,8
 41
0.9
  0
ENDBLK
  8
0
  0
BLOCK
  8
1
  2
*D5
 70
1
 10
0
 20
0
 30
0
  0
LINE
  8
1
 62
2
 10
-756.497357945517
 20
171.377596187625
 30
0
 11
-747.7698871255981
 21
171.377596187625
 31
0
  0
LINE
  8
1
 62
2
 10
-774.497357945517
 20
171.377596187625
 30
0
 11
-756.497357945517
 21
171.377596187625
 31
0
  0
LINE
  8
1
 62
2
 10
-756.497357945517
 20
203.5734772455831
 30
0
 11
-756.497357945517
 21
170.377596187625
 31
0
  0
LINE
  8
1
 62
2
 10
-774.497357945517
 20
202.6134772455831
 30
0
 11
-774.497357945517
 21
170.377596187625
 31
0
  0
LINE
  8
1
 62
2
 10
-774.497357945517
 20
171.377596187625
 30
0
 11
-771.297357945517
 21
171.793596187625
 31
0
  0
LINE
  8
1
 62
2
 10
-771.297357945517
 20
171.793596187625
 30
0
 11
-771.297357945517
 21
170.961596187625
 31
0
  0
LINE
  8
1
 62
2
 10
-771.297357945517
 20
170.961596187625
 30
0
 11
-774.497357945517
 21
171.377596187625
 31
0
  0
LINE
  8
1
 62
2
 10
-756.497357945517
 20
171.377596187625
 30
0
 11
-759.6973579455171
 21
170.961596187625
 31
0
  0
LINE
  8
1
 62
2
 10
-759.6973579455171
 20
170.961596187625
 30
0
 11
-759.6973579455171
 21
171.793596187625
 31
0
  0
LINE
  8
1
 62
2
 10
-759.6973579455171
 20
171.793596187625
 30
0
 11
-756.497357945517
 21
171.377596187625
 31
0
  0
TEXT
  8
1
 62
2
 10
-751.609887125598
 20
172.577596187625
 30
0
 40
3.2
  1
18
 41
0.9
  0
ENDBLK
  8
0
  0
BLOCK
  8
1
  2
*D6
 70
1
 10
0
 20
0
 30
0
  0
LINE
  8
1
 62
2
 10
-518.658183776023
 20
162.5134772455831
 30
0
 11
-509.158183776023
 21
162.5134772455831
 31
0
  0
LINE
  8
1
 62
2
 10
-509.158183776023
 20
184.4734772455831
 30
0
 11
-509.158183776023
 21
161.5134772455831
 31
0
  0
LINE
  8
1
 62
2
 10
-518.658183776023
 20
188.4734772455831
 30
0
 11
-518.658183776023
 21
161.5134772455831
 31
0
  0
LINE
  8
1
 62
2
 10
-509.158183776023
 20
162.5134772455831
 30
0
 11
-512.358183776023
 21
162.0974772455831
 31
0
  0
LINE
  8
1
 62
2
 10
-512.358183776023
 20
162.0974772455831
 30
0
 11
-512.358183776023
 21
162.9294772455831
 31
0
  0
LINE
  8
1
 62
2
 10
-512.358183776023
 20
162.9294772455831
 30
0
 11
-509.158183776023
 21
162.5134772455831
 31
0
  0
LINE
  8
1
 62
2
 10
-518.658183776023
 20
162.5134772455831
 30
0
 11
-515.4581837760229
 21
162.9294772455831
 31
0
  0
LINE
  8
1
 62
2
 10
-515.4581837760229
 20
162.9294772455831
 30
0
 11
-515.4581837760229
 21
162.0974772455831
 31
0
  0
LINE
  8
1
 62
2
 10
-515.4581837760229
 20
162.0974772455831
 30
0
 11
-518.658183776023
 21
162.5134772455831
 31
0
  0
TEXT
  8
1
 62
2
 10
-516.868183776023
 20
164.0334772455831
 30
0
 40
3.2
  1
9,5
 41
0.9
  0
ENDBLK
  8
0
  0
BLOCK
  8
1
  2
*D7
 70
1
 10
0
 20
0
 30
0
  0
LINE
  8
1
 62
2
 10
-610.3081874937216
 20
185.473477245583
 30
0
 11
-610.3081874937216
 21
210.8734772455831
 31
0
  0
LINE
  8
1
 62
2
 10
-646.6373579455171
 20
210.8734772455831
 30
0
 11
-609.3081874937216
 21
210.8734772455831
 31
0
  0
LINE
  8
1
 62
2
 10
-638.547357945517
 20
185.473477245583
 30
0
 11
-609.3081874937216
 21
185.473477245583
 31
0
  0
LINE
  8
1
 62
2
 10
-610.3081874937216
 20
185.473477245583
 30
0
 11
-610.7241874937216
 21
188.673477245583
 31
0
  0
LINE
  8
1
 62
2
 10
-610.7241874937216
 20
188.673477245583
 30
0
 11
-609.8921874937215
 21
188.673477245583
 31
0
  0
LINE
  8
1
 62
2
 10
-609.8921874937215
 20
188.673477245583
 30
0
 11
-610.3081874937216
 21
185.473477245583
 31
0
  0
LINE
  8
1
 62
2
 10
-610.3081874937216
 20
210.8734772455831
 30
0
 11
-609.8921874937215
 21
207.6734772455831
 31
0
  0
LINE
  8
1
 62
2
 10
-609.8921874937215
 20
207.6734772455831
 30
0
 11
-610.7241874937216
 21
207.6734772455831
 31
0
  0
LINE
  8
1
 62
2
 10
-610.7241874937216
 20
207.6734772455831
 30
0
 11
-610.3081874937216
 21
210.8734772455831
 31
0
  0
TEXT
  8
1
 62
2
 10
-611.8281874937215
 20
193.3074221997115
 30
0
 40
3.2
  1
25,4
 50
90
 41
0.9
  0
ENDBLK
  8
0
  0
BLOCK
  8
1
  2
*D8
 70
1
 10
0
 20
0
 30
0
  0
LINE
  8
1
 62
2
 10
-672.8973579455171
 20
171.837460860534
 30
0
 11
-682.86011852576
 21
171.837460860534
 31
0
  0
LINE
  8
1
 62
2
 10
-672.8973579455171
 20
171.837460860534
 30
0
 11
-654.8973579455171
 21
171.837460860534
 31
0
  0
LINE
  8
1
 62
2
 10
-654.8973579455171
 20
202.6134772455831
 30
0
 11
-654.8973579455171
 21
170.837460860534
 31
0
  0
LINE
  8
1
 62
2
 10
-672.8973579455171
 20
202.6134772455831
 30
0
 11
-672.8973579455171
 21
170.837460860534
 31
0
  0
LINE
  8
1
 62
2
 10
-672.8973579455171
 20
171.837460860534
 30
0
 11
-669.6973579455171
 21
172.253460860534
 31
0
  0
LINE
  8
1
 62
2
 10
-669.6973579455171
 20
172.253460860534
 30
0
 11
-669.6973579455171
 21
171.421460860534
 31
0
  0
LINE
  8
1
 62
2
 10
-669.6973579455171
 20
171.421460860534
 30
0
 11
-672.8973579455171
 21
171.837460860534
 31
0
  0
LINE
  8
1
 62
2
 10
-654.8973579455171
 20
171.837460860534
 30
0
 11
-658.0973579455172
 21
171.421460860534
 31
0
  0
LINE
  8
1
 62
2
 10
-658.0973579455172
 20
171.421460860534
 30
0
 11
-658.0973579455172
 21
172.253460860534
 31
0
  0
LINE
  8
1
 62
2
 10
-658.0973579455172
 20
172.253460860534
 30
0
 11
-654.8973579455171
 21
171.837460860534
 31
0
  0
TEXT
  8
1
 62
2
 10
-682.86011852576
 20
173.037460860534
 30
0
 40
3.2
  1
18
 41
0.9
  0
ENDBLK
  8
0
  0
ENDSEC
  0
SECTION
  2
ENTITIES
  0
LINE
  8
1
 62
7
 10
-511.3028107525395
 20
310.3734772455831
 30
0
 11
-509.158183776023
 21
242.4734772455831
 31
0
  0
LINE
  8
1
 62
7
 10
-651.2308579455171
 20
190.2389772455831
 30
0
 11
-651.2308579455171
 21
205.3856017231246
 31
0
  0
LINE
  8
1
 62
7
 10
-641.463857945517
 20
331.4734772455831
 30
0
 11
-641.158857945517
 21
331.4734772455831
 31
0
  0
LINE
  8
1
 62
2
 10
-512.0551422523652
 20
309.3488044275093
 30
0
 11
-511.3028107525395
 21
309.3488044275093
 31
0
  0
LINE
  8
1
 62
2
 10
-517.9137741622919
 20
309.2574024199555
 30
0
 11
-517.9137741622919
 21
188.4734772455831
 31
0
  0
LINE
  8
1
 62
2
 10
-513.6779554820057
 20
329.9138285179637
 30
0
 11
-512.0551422523652
 21
309.3488044275093
 31
0
  0
LINE
  8
1
 62
2
 10
-515.3729644274492
 20
329.9506371080851
 30
0
 11
-517.9137741622919
 21
309.2574024199555
 31
0
  0
LINE
  8
1
 62
7
 10
-514.4581837760231
 20
217.1734772455831
 30
0
 11
-514.4581837760231
 21
204.5734772455831
 31
0
  0
LINE
  8
1
 62
7
 10
-518.5311671222305
 20
188.4734772455831
 30
0
 11
-515.658183776023
 21
188.4734772455831
 31
0
  0
LINE
  8
1
 62
7
 10
-498.2780084349941
 20
143.283634549084
 30
0
 11
-466.2780084349941
 21
143.283634549084
 31
0
  0
LINE
  8
1
 62
2
 10
-498.2780084349941
 20
144.897166273514
 30
0
 11
-466.2780084349941
 21
144.897166273514
 31
0
  0
LINE
  8
1
 62
7
 10
-639.297357945517
 20
242.4734772455831
 30
0
 11
-639.358857945517
 21
242.4734772455831
 31
0
  0
LINE
  8
1
 62
7
 10
-515.658183776023
 20
204.2734772455834
 30
0
 11
-518.658183776023
 21
204.2734772455834
 31
0
  0
LINE
  8
1
 62
7
 10
-515.658183776023
 20
217.4734772455831
 30
0
 11
-514.4581837760231
 21
217.4734772455831
 31
0
  0
LINE
  8
1
 62
7
 10
-510.658183776023
 20
204.5734772455831
 30
0
 11
-514.4581837760231
 21
204.5734772455831
 31
0
  0
LINE
  8
1
 62
7
 10
-514.4581837760231
 20
204.5734772455831
 30
0
 11
-514.4581837760231
 21
204.2734772455834
 31
0
  0
LINE
  8
1
 62
7
 10
-514.4581837760231
 20
217.1734772455831
 30
0
 11
-510.658183776023
 21
217.1734772455831
 31
0
  0
LINE
  8
1
 62
7
 10
-514.4581837760231
 20
217.4734772455831
 30
0
 11
-514.4581837760231
 21
217.1734772455831
 31
0
  0
LINE
  8
1
 62
7
 10
-790.0973579455172
 20
242.4753701621497
 30
0
 11
-790.0973579455172
 21
185.7234772455831
 31
0
  0
LINE
  8
1
 62
7
 10
-789.8473579455172
 20
185.4734772455831
 30
0
 11
-714.6973579455171
 21
185.4734772455831
 31
0
  0
LINE
  8
1
 62
2
  6
DASHDOT
 10
-714.6973579455171
 20
347.472074659009
 30
0
 11
-714.6973579455171
 21
164.5695375619471
 31
0
  0
LINE
  8
1
 62
7
 10
-787.1308579455172
 20
330.6734772455831
 30
0
 11
-787.1308579455172
 21
190.2389772455831
 31
0
  0
LINE
  8
1
 62
7
 10
-761.0558579455171
 20
331.4734772455831
 30
0
 11
-760.7508579455171
 21
331.4734772455831
 31
0
  0
LINE
  8
1
 62
7
 10
-761.8558579455171
 20
330.6734772455831
 30
0
 11
-761.8558579455171
 21
217.4734772455831
 31
0
  0
LINE
  8
1
 62
7
 10
-759.9508579455171
 20
330.6734772455831
 30
0
 11
-759.9508579455171
 21
217.1734772455831
 31
0
  0
LINE
  8
1
 62
7
 10
-755.619857945517
 20
331.4734772455831
 30
0
 11
-755.3148579455171
 21
331.4734772455831
 31
0
  0
LINE
  8
1
 62
7
 10
-756.4198579455172
 20
330.6734772455831
 30
0
 11
-756.4198579455172
 21
217.4734772455831
 31
0
  0
LINE
  8
1
 62
7
 10
-754.5148579455172
 20
330.6734772455831
 30
0
 11
-754.5148579455172
 21
217.1686892158031
 31
0
  0
LINE
  8
1
 62
7
 10
-750.1838579455171
 20
331.4734772455831
 30
0
 11
-749.8788579455172
 21
331.4734772455831
 31
0
  0
LINE
  8
1
 62
7
 10
-750.983857945517
 20
330.6734772455831
 30
0
 11
-750.983857945517
 21
214.5013302952531
 31
0
  0
LINE
  8
1
 62
7
 10
-749.078857945517
 20
330.6734772455831
 30
0
 11
-749.078857945517
 21
190.2389772455831
 31
0
  0
LINE
  8
1
 62
7
 10
-744.7478579455171
 20
331.4734772455831
 30
0
 11
-744.4428579455171
 21
331.4734772455831
 31
0
  0
LINE
  8
1
 62
7
 10
-745.5478579455171
 20
330.6734772455831
 30
0
 11
-745.5478579455171
 21
190.2389772455831
 31
0
  0
LINE
  8
1
 62
7
 10
-743.6428579455171
 20
330.6734772455831
 30
0
 11
-743.6428579455171
 21
190.2389772455831
 31
0
  0
LINE
  8
1
 62
7
 10
-739.3118579455172
 20
331.4734772455831
 30
0
 11
-739.0068579455171
 21
331.4734772455831
 31
0
  0
LINE
  8
1
 62
7
 10
-740.1118579455172
 20
330.6734772455831
 30
0
 11
-740.1118579455172
 21
190.2389772455831
 31
0
  0
LINE
  8
1
 62
7
 10
-738.206857945517
 20
330.6734772455831
 30
0
 11
-738.206857945517
 21
190.2389772455831
 31
0
  0
LINE
  8
1
 62
7
 10
-733.8758579455171
 20
331.4734772455831
 30
0
 11
-733.5708579455172
 21
331.4734772455831
 31
0
  0
LINE
  8
1
 62
7
 10
-734.675857945517
 20
330.6734772455831
 30
0
 11
-734.675857945517
 21
190.2389772455831
 31
0
  0
LINE
  8
1
 62
7
 10
-732.770857945517
 20
330.6734772455831
 30
0
 11
-732.770857945517
 21
190.2389772455831
 31
0
  0
LINE
  8
1
 62
7
 10
-728.4398579455171
 20
331.4734772455831
 30
0
 11
-728.1348579455171
 21
331.4734772455831
 31
0
  0
LINE
  8
1
 62
7
 10
-729.2398579455171
 20
330.6734772455831
 30
0
 11
-729.2398579455171
 21
190.2389772455831
 31
0
  0
LINE
  8
1
 62
7
 10
-727.3348579455171
 20
330.6734772455831
 30
0
 11
-727.3348579455171
 21
190.2389772455831
 31
0
  0
LINE
  8
1
 62
7
 10
-723.0038579455172
 20
331.4734772455831
 30
0
 11
-722.6988579455172
 21
331.4734772455831
 31
0
  0
LINE
  8
1
 62
7
 10
-723.8038579455172
 20
330.6734772455831
 30
0
 11
-723.8038579455172
 21
190.2389772455831
 31
0
  0
LINE
  8
1
 62
7
 10
-721.898857945517
 20
330.6734772455831
 30
0
 11
-721.898857945517
 21
190.2389772455831
 31
0
  0
LINE
  8
1
 62
7
 10
-717.5678579455171
 20
331.4734772455831
 30
0
 11
-717.2628579455172
 21
331.4734772455831
 31
0
  0
LINE
  8
1
 62
7
 10
-718.367857945517
 20
330.6734772455831
 30
0
 11
-718.367857945517
 21
190.2389772455831
 31
0
  0
LINE
  8
1
 62
7
 10
-716.462857945517
 20
330.6734772455831
 30
0
 11
-716.462857945517
 21
190.2389772455831
 31
0
  0
LINE
  8
1
 62
7
 10
-787.1308579455172
 20
331.6981500636568
 30
0
 11
-787.1308579455172
 21
244.2389772455831
 31
0
  0
LINE
  8
1
 62
7
 10
-789.0358579455171
 20
330.6734772455831
 30
0
 11
-789.0358579455171
 21
243.4734772455831
 31
0
  0
LINE
  8
1
 62
7
 10
-790.0973579455172
 20
242.4734772455831
 30
0
 11
-790.0358579455171
 21
242.4734772455831
 31
0
  0
LINE
  8
1
 62
7
 10
-788.2358579455172
 20
331.4734772455831
 30
0
 11
-787.9308579455171
 21
331.4734772455831
 31
0
  0
LINE
  8
1
 62
7
 10
-782.799857945517
 20
331.4734772455831
 30
0
 11
-782.4948579455172
 21
331.4734772455831
 31
0
  0
LINE
  8
1
 62
7
 10
-783.599857945517
 20
330.6734772455831
 30
0
 11
-783.599857945517
 21
190.2389772455831
 31
0
  0
LINE
  8
1
 62
7
 10
-777.3638579455171
 20
331.4734772455831
 30
0
 11
-777.0588579455171
 21
331.4734772455831
 31
0
  0
LINE
  8
1
 62
7
 10
-778.1638579455171
 20
330.6734772455831
 30
0
 11
-778.1638579455171
 21
216.3613527680416
 31
0
  0
LINE
  8
1
 62
7
 10
-776.2588579455171
 20
330.6734772455831
 30
0
 11
-776.2588579455171
 21
217.2340682362065
 31
0
  0
LINE
  8
1
 62
7
 10
-771.9278579455172
 20
331.4734772455831
 30
0
 11
-771.6228579455171
 21
331.4734772455831
 31
0
  0
LINE
  8
1
 62
7
 10
-772.7278579455171
 20
330.6734772455831
 30
0
 11
-772.7278579455171
 21
217.4734772455831
 31
0
  0
LINE
  8
1
 62
7
 10
-781.694857945517
 20
330.6734772455831
 30
0
 11
-781.694857945517
 21
190.2389772455831
 31
0
  0
LINE
  8
1
 62
7
 10
-766.491857945517
 20
331.4734772455831
 30
0
 11
-766.1868579455172
 21
331.4734772455831
 31
0
  0
LINE
  8
1
 62
7
 10
-767.291857945517
 20
330.6734772455831
 30
0
 11
-767.291857945517
 21
217.4734772455831
 31
0
  0
LINE
  8
1
 62
7
 10
-765.386857945517
 20
330.6734772455831
 30
0
 11
-765.386857945517
 21
217.4734772455831
 31
0
  0
LINE
  8
1
 62
7
 10
-770.8228579455172
 20
330.6734772455831
 30
0
 11
-770.8228579455172
 21
217.4734772455831
 31
0
  0
LINE
  8
1
 62
2
 10
-789.0358579455171
 20
309.3734772455831
 30
0
 11
-787.1308579455172
 21
309.3734772455831
 31
0
  0
LINE
  8
1
 62
2
 10
-783.5998579455172
 20
309.3734772455831
 30
0
 11
-781.694857945517
 21
309.3734772455831
 31
0
  0
LINE
  8
1
 62
2
 10
-778.1638579455171
 20
309.3734772455831
 30
0
 11
-776.2588579455171
 21
309.3734772455831
 31
0
  0
LINE
  8
1
 62
2
 10
-772.7278579455171
 20
309.3734772455831
 30
0
 11
-770.8228579455172
 21
309.3734772455831
 31
0
  0
LINE
  8
1
 62
2
 10
-767.291857945517
 20
309.3734772455831
 30
0
 11
-765.386857945517
 21
309.3734772455831
 31
0
  0
LINE
  8
1
 62
2
 10
-761.8558579455171
 20
309.3734772455831
 30
0
 11
-759.9508579455171
 21
309.3734772455831
 31
0
  0
LINE
  8
1
 62
2
 10
-756.4198579455172
 20
309.3734772455831
 30
0
 11
-753.4198579455172
 21
309.3734772455831
 31
0
  0
LINE
  8
1
 62
2
 10
-750.983857945517
 20
309.3734772455831
 30
0
 11
-749.078857945517
 21
309.3734772455831
 31
0
  0
LINE
  8
1
 62
2
 10
-745.5478579455171
 20
309.3734772455831
 30
0
 11
-743.6428579455171
 21
309.3734772455831
 31
0
  0
LINE
  8
1
 62
2
 10
-740.1118579455172
 20
309.3734772455831
 30
0
 11
-738.206857945517
 21
309.3734772455831
 31
0
  0
LINE
  8
1
 62
2
 10
-734.675857945517
 20
309.3734772455831
 30
0
 11
-732.770857945517
 21
309.3734772455831
 31
0
  0
LINE
  8
1
 62
2
 10
-729.2398579455171
 20
309.3734772455831
 30
0
 11
-727.3348579455171
 21
309.3734772455831
 31
0
  0
LINE
  8
1
 62
2
 10
-723.8038579455169
 20
309.3734772455831
 30
0
 11
-721.8988579455172
 21
309.3734772455831
 31
0
  0
LINE
  8
1
 62
2
 10
-718.367857945517
 20
309.3734772455831
 30
0
 11
-716.462857945517
 21
309.3734772455831
 31
0
  0
LINE
  8
1
 62
7
 10
-518.658183776023
 20
309.3488044275093
 30
0
 11
-518.658183776023
 21
189.4734772455831
 31
0
  0
LINE
  8
1
 62
7
 10
-514.658183776023
 20
185.4734772455831
 30
0
 11
-509.158183776023
 21
185.4734772455831
 31
0
  0
LINE
  8
1
 62
7
 10
-509.158183776023
 20
185.4734772455831
 30
0
 11
-509.158183776023
 21
188.473477245583
 31
0
  0
LINE
  8
1
 62
7
 10
-518.658183776023
 20
242.4734772455831
 30
0
 11
-518.658183776023
 21
310.3734772455831
 31
0
  0
LINE
  8
1
 62
7
 10
-518.658183776023
 20
309.3488044275093
 30
0
 11
-516.1173740411803
 21
330.042039115639
 31
0
  0
LINE
  8
1
 62
7
 10
-511.3028107525395
 20
309.3488044275093
 30
0
 11
-512.9302797564376
 21
329.9728285975938
 31
0
  0
LINE
  8
1
 62
7
 10
-774.797357945517
 20
217.4734772455831
 30
0
 11
-756.497357945517
 21
217.4734772455831
 31
0
  0
LINE
  8
1
 62
7
 10
-774.797357945517
 20
214.7234772455831
 30
0
 11
-756.497357945517
 21
214.7234772455831
 31
0
  0
LINE
  8
1
 62
7
 10
-774.797357945517
 20
207.0234772455831
 30
0
 11
-756.497357945517
 21
207.0234772455831
 31
0
  0
LINE
  8
1
 62
7
 10
-774.797357945517
 20
204.2734772455831
 30
0
 11
-756.497357945517
 21
204.2734772455831
 31
0
  0
LINE
  8
1
 62
7
 10
-750.983857945517
 20
207.2456241959131
 30
0
 11
-750.983857945517
 21
190.2389772455831
 31
0
  0
LINE
  8
1
 62
7
 10
-754.5148579455172
 20
204.420543573908
 30
0
 11
-754.5148579455172
 21
190.2389772455831
 31
0
  0
LINE
  8
1
 62
7
 10
-756.4198579455172
 20
204.420543573908
 30
0
 11
-756.4198579455172
 21
190.2389772455831
 31
0
  0
LINE
  8
1
 62
7
 10
-759.9508579455171
 20
204.420543573908
 30
0
 11
-759.9508579455171
 21
190.2389772455831
 31
0
  0
LINE
  8
1
 62
7
 10
-761.8558579455171
 20
204.420543573908
 30
0
 11
-761.8558579455171
 21
190.2389772455831
 31
0
  0
LINE
  8
1
 62
7
 10
-765.386857945517
 20
204.420543573908
 30
0
 11
-765.386857945517
 21
190.2389772455831
 31
0
  0
LINE
  8
1
 62
7
 10
-767.291857945517
 20
204.420543573908
 30
0
 11
-767.291857945517
 21
190.2389772455831
 31
0
  0
LINE
  8
1
 62
7
 10
-770.8228579455172
 20
204.420543573908
 30
0
 11
-770.8228579455172
 21
190.2389772455831
 31
0
  0
LINE
  8
1
 62
7
 10
-772.7278579455171
 20
204.420543573908
 30
0
 11
-772.7278579455171
 21
190.2389772455831
 31
0
  0
LINE
  8
1
 62
7
 10
-778.1638579455171
 20
205.3436890090984
 30
0
 11
-778.1638579455171
 21
190.2389772455831
 31
0
  0
LINE
  8
1
 62
7
 10
-776.2588579455171
 20
204.5843942787161
 30
0
 11
-776.2588579455171
 21
190.2389772455831
 31
0
  0
LINE
  8
1
 62
7
 10
-639.297357945517
 20
185.7234772455831
 30
0
 11
-639.297357945517
 21
242.4753701621497
 31
0
  0
LINE
  8
1
 62
7
 10
-714.6973579455171
 20
185.4734772455831
 30
0
 11
-639.547357945517
 21
185.4734772455831
 31
0
  0
LINE
  8
1
 62
7
 10
-642.263857945517
 20
190.2389772455831
 30
0
 11
-642.263857945517
 21
330.6734772455831
 31
0
  0
LINE
  8
1
 62
7
 10
-668.6438579455171
 20
331.4734772455831
 30
0
 11
-668.338857945517
 21
331.4734772455831
 31
0
  0
LINE
  8
1
 62
7
 10
-667.5388579455171
 20
217.4734772455831
 30
0
 11
-667.5388579455171
 21
330.6734772455831
 31
0
  0
LINE
  8
1
 62
7
 10
-669.443857945517
 20
217.4734772455831
 30
0
 11
-669.443857945517
 21
330.6734772455831
 31
0
  0
LINE
  8
1
 62
7
 10
-674.079857945517
 20
331.4734772455831
 30
0
 11
-673.7748579455172
 21
331.4734772455831
 31
0
  0
LINE
  8
1
 62
7
 10
-672.974857945517
 20
217.4734772455831
 30
0
 11
-672.974857945517
 21
330.6734772455831
 31
0
  0
LINE
  8
1
 62
7
 10
-679.5158579455169
 20
331.4734772455831
 30
0
 11
-679.2108579455171
 21
331.4734772455831
 31
0
  0
LINE
  8
1
 62
7
 10
-684.9518579455171
 20
331.4734772455831
 30
0
 11
-684.646857945517
 21
331.4734772455831
 31
0
  0
LINE
  8
1
 62
7
 10
-683.8468579455171
 20
190.2389772455831
 30
0
 11
-683.8468579455171
 21
330.6734772455831
 31
0
  0
LINE
  8
1
 62
7
 10
-685.751857945517
 20
190.2389772455831
 30
0
 11
-685.751857945517
 21
330.6734772455831
 31
0
  0
LINE
  8
1
 62
7
 10
-690.387857945517
 20
331.4734772455831
 30
0
 11
-690.0828579455169
 21
331.4734772455831
 31
0
  0
LINE
  8
1
 62
7
 10
-691.1878579455172
 20
190.2389772455831
 30
0
 11
-691.1878579455172
 21
330.6734772455831
 31
0
  0
LINE
  8
1
 62
7
 10
-695.8238579455169
 20
331.4734772455831
 30
0
 11
-695.5188579455171
 21
331.4734772455831
 31
0
  0
LINE
  8
1
 62
7
 10
-694.7188579455171
 20
190.2389772455831
 30
0
 11
-694.7188579455171
 21
330.6734772455831
 31
0
  0
LINE
  8
1
 62
7
 10
-696.6238579455171
 20
190.2389772455831
 30
0
 11
-696.6238579455171
 21
330.6734772455831
 31
0
  0
LINE
  8
1
 62
7
 10
-701.2598579455171
 20
331.4734772455831
 30
0
 11
-700.954857945517
 21
331.4734772455831
 31
0
  0
LINE
  8
1
 62
7
 10
-700.1548579455171
 20
190.2389772455831
 30
0
 11
-700.1548579455171
 21
330.6734772455831
 31
0
  0
LINE
  8
1
 62
7
 10
-706.695857945517
 20
331.4734772455831
 30
0
 11
-706.3908579455169
 21
331.4734772455831
 31
0
  0
LINE
  8
1
 62
7
 10
-712.1318579455169
 20
331.4734772455831
 30
0
 11
-711.8268579455171
 21
331.4734772455831
 31
0
  0
LINE
  8
1
 62
7
 10
-711.0268579455171
 20
190.2389772455831
 30
0
 11
-711.0268579455171
 21
330.6734772455831
 31
0
  0
LINE
  8
1
 62
7
 10
-642.263857945517
 20
255.4981500636569
 30
0
 11
-642.263857945517
 21
331.6981500636568
 31
0
  0
LINE
  8
1
 62
7
 10
-640.358857945517
 20
243.4734772455831
 30
0
 11
-640.358857945517
 21
330.6734772455831
 31
0
  0
LINE
  8
1
 62
7
 10
-646.8998579455169
 20
331.4734772455831
 30
0
 11
-646.5948579455171
 21
331.4734772455831
 31
0
  0
LINE
  8
1
 62
7
 10
-652.3358579455171
 20
331.4734772455831
 30
0
 11
-652.030857945517
 21
331.4734772455831
 31
0
  0
LINE
  8
1
 62
7
 10
-653.1358579455171
 20
217.2340682362065
 30
0
 11
-653.1358579455171
 21
330.6734772455831
 31
0
  0
LINE
  8
1
 62
7
 10
-657.771857945517
 20
331.4734772455831
 30
0
 11
-657.466857945517
 21
331.4734772455831
 31
0
  0
LINE
  8
1
 62
7
 10
-656.666857945517
 20
217.4734772455831
 30
0
 11
-656.666857945517
 21
330.6734772455831
 31
0
  0
LINE
  8
1
 62
7
 10
-647.6998579455171
 20
190.2389772455831
 30
0
 11
-647.6998579455171
 21
330.6734772455831
 31
0
  0
LINE
  8
1
 62
7
 10
-663.2078579455169
 20
331.4734772455831
 30
0
 11
-662.9028579455171
 21
331.4734772455831
 31
0
  0
LINE
  8
1
 62
7
 10
-662.1028579455171
 20
217.4734772455831
 30
0
 11
-662.1028579455171
 21
330.6734772455831
 31
0
  0
LINE
  8
1
 62
7
 10
-658.571857945517
 20
217.4734772455831
 30
0
 11
-658.571857945517
 21
330.6734772455831
 31
0
  0
LINE
  8
1
 62
2
 10
-642.263857945517
 20
309.3734772455831
 30
0
 11
-640.358857945517
 21
309.3734772455831
 31
0
  0
LINE
  8
1
 62
2
 10
-647.6998579455171
 20
309.3734772455831
 30
0
 11
-645.7948579455169
 21
309.3734772455831
 31
0
  0
LINE
  8
1
 62
2
 10
-653.1358579455171
 20
309.3734772455831
 30
0
 11
-651.2308579455171
 21
309.3734772455831
 31
0
  0
LINE
  8
1
 62
2
 10
-658.571857945517
 20
309.3734772455831
 30
0
 11
-656.666857945517
 21
309.3734772455831
 31
0
  0
LINE
  8
1
 62
2
 10
-664.0078579455171
 20
309.3734772455831
 30
0
 11
-662.1028579455171
 21
309.3734772455831
 31
0
  0
LINE
  8
1
 62
2
 10
-669.443857945517
 20
309.3734772455831
 30
0
 11
-667.5388579455171
 21
309.3734772455831
 31
0
  0
LINE
  8
1
 62
2
 10
-675.974857945517
 20
309.3734772455831
 30
0
 11
-672.974857945517
 21
309.3734772455831
 31
0
  0
LINE
  8
1
 62
2
 10
-680.3158579455171
 20
309.3734772455831
 30
0
 11
-678.4108579455171
 21
309.3734772455831
 31
0
  0
LINE
  8
1
 62
2
 10
-685.751857945517
 20
309.3734772455831
 30
0
 11
-683.8468579455171
 21
309.3734772455831
 31
0
  0
LINE
  8
1
 62
2
 10
-691.1878579455172
 20
309.3734772455831
 30
0
 11
-689.282857945517
 21
309.3734772455831
 31
0
  0
LINE
  8
1
 62
2
 10
-696.6238579455171
 20
309.3734772455831
 30
0
 11
-694.7188579455171
 21
309.3734772455831
 31
0
  0
LINE
  8
1
 62
2
 10
-702.059857945517
 20
309.3734772455831
 30
0
 11
-700.1548579455171
 21
309.3734772455831
 31
0
  0
LINE
  8
1
 62
2
 10
-707.495857945517
 20
309.3734772455831
 30
0
 11
-705.5908579455172
 21
309.3734772455831
 31
0
  0
LINE
  8
1
 62
2
 10
-712.9318579455171
 20
309.3734772455831
 30
0
 11
-711.0268579455171
 21
309.3734772455831
 31
0
  0
LINE
  8
1
 62
7
 10
-672.8973579455171
 20
217.4734772455831
 30
0
 11
-654.5973579455172
 21
217.4734772455831
 31
0
  0
LINE
  8
1
 62
7
 10
-672.8973579455171
 20
214.7234772455831
 30
0
 11
-654.5973579455172
 21
214.7234772455831
 31
0
  0
LINE
  8
1
 62
7
 10
-672.8973579455171
 20
207.0234772455831
 30
0
 11
-654.5973579455172
 21
207.0234772455831
 31
0
  0
LINE
  8
1
 62
7
 10
-672.8973579455171
 20
204.2734772455831
 30
0
 11
-654.5973579455172
 21
204.2734772455831
 31
0
  0
LINE
  8
1
 62
7
 10
-680.3158579455171
 20
190.2389772455831
 30
0
 11
-680.3158579455171
 21
204.420543573908
 31
0
  0
LINE
  8
1
 62
7
 10
-678.4108579455171
 20
190.2389772455831
 30
0
 11
-678.4108579455171
 21
207.2456241959131
 31
0
  0
LINE
  8
1
 62
7
 10
-674.879857945517
 20
190.2389772455831
 30
0
 11
-674.879857945517
 21
204.420543573908
 31
0
  0
LINE
  8
1
 62
7
 10
-672.974857945517
 20
190.2389772455831
 30
0
 11
-672.974857945517
 21
204.420543573908
 31
0
  0
LINE
  8
1
 62
7
 10
-669.443857945517
 20
190.2389772455831
 30
0
 11
-669.443857945517
 21
204.420543573908
 31
0
  0
LINE
  8
1
 62
7
 10
-667.5388579455171
 20
190.2389772455831
 30
0
 11
-667.5388579455171
 21
204.420543573908
 31
0
  0
LINE
  8
1
 62
7
 10
-664.0078579455171
 20
190.2389772455831
 30
0
 11
-664.0078579455171
 21
204.420543573908
 31
0
  0
LINE
  8
1
 62
7
 10
-662.1028579455171
 20
190.2389772455831
 30
0
 11
-662.1028579455171
 21
204.420543573908
 31
0
  0
LINE
  8
1
 62
7
 10
-658.571857945517
 20
190.2389772455831
 30
0
 11
-658.571857945517
 21
204.420543573908
 31
0
  0
LINE
  8
1
 62
7
 10
-656.666857945517
 20
190.2389772455831
 30
0
 11
-656.666857945517
 21
204.420543573908
 31
0
  0
LINE
  8
1
 62
7
 10
-651.2308579455171
 20
190.2389772455831
 30
0
 11
-651.2308579455171
 21
205.3856017231246
 31
0
  0
LINE
  8
1
 62
7
 10
-653.1358579455171
 20
190.2389772455831
 30
0
 11
-653.1358579455171
 21
204.5843942787161
 31
0
  0
LINE
  8
1
 62
7
 10
-774.797357945517
 20
217.1734772455831
 30
0
 11
-756.497357945517
 21
217.1734772455831
 31
0
  0
LINE
  8
1
 62
7
 10
-756.497357945517
 20
204.5734772455831
 30
0
 11
-774.797357945517
 21
204.5734772455831
 31
0
  0
LINE
  8
1
 62
2
  6
DASHDOT
 10
-765.497357945517
 20
222.1543364916526
 30
0
 11
-765.497357945517
 21
202.1543364916526
 31
0
  0
LINE
  8
1
 62
2
  6
DASHDOT
 10
-663.8973579455171
 20
202.1543364916526
 30
0
 11
-663.8973579455171
 21
222.1543364916526
 31
0
  0
LINE
  8
1
 62
7
 10
-672.8973579455171
 20
217.1734772455831
 30
0
 11
-654.5973579455172
 21
217.1734772455831
 31
0
  0
LINE
  8
1
 62
7
 10
-654.5973579455172
 20
204.5734772455831
 30
0
 11
-672.8973579455171
 21
204.5734772455831
 31
0
  0
LINE
  8
1
 62
2
  6
DASHDOT
 10
-767.2373579455173
 20
210.8734772455831
 30
0
 11
-781.757357945517
 21
210.8734772455831
 31
0
  0
LINE
  8
1
 62
2
  6
DASHDOT
 10
-774.497357945517
 20
218.1334772455831
 30
0
 11
-774.497357945517
 21
203.6134772455831
 31
0
  0
LINE
  8
1
 62
2
  6
DASHDOT
 10
-749.237357945517
 20
210.8734772455831
 30
0
 11
-763.757357945517
 21
210.8734772455831
 31
0
  0
LINE
  8
1
 62
2
  6
DASHDOT
 10
-756.497357945517
 20
218.1334772455831
 30
0
 11
-756.497357945517
 21
203.6134772455831
 31
0
  0
LINE
  8
1
 62
2
  6
DASHDOT
 10
-665.6373579455171
 20
210.8734772455831
 30
0
 11
-680.1573579455171
 21
210.8734772455831
 31
0
  0
LINE
  8
1
 62
2
  6
DASHDOT
 10
-672.8973579455171
 20
218.1334772455831
 30
0
 11
-672.8973579455171
 21
203.6134772455831
 31
0
  0
LINE
  8
1
 62
2
  6
DASHDOT
 10
-647.6373579455171
 20
210.8734772455831
 30
0
 11
-662.1573579455169
 21
210.8734772455831
 31
0
  0
LINE
  8
1
 62
2
  6
DASHDOT
 10
-654.8973579455171
 20
218.1334772455831
 30
0
 11
-654.8973579455171
 21
203.6134772455831
 31
0
  0
LINE
  8
1
 62
7
 10
-702.059857945517
 20
190.2389772455831
 30
0
 11
-702.059857945517
 21
330.6734772455831
 31
0
  0
LINE
  8
1
 62
7
 10
-674.879857945517
 20
217.1686892158031
 30
0
 11
-674.879857945517
 21
330.6734772455831
 31
0
  0
LINE
  8
1
 62
7
 10
-712.9318579455171
 20
190.2389772455831
 30
0
 11
-712.9318579455171
 21
330.6734772455831
 31
0
  0
LINE
  8
1
 62
7
 10
-678.4108579455171
 20
214.5013302952531
 30
0
 11
-678.4108579455171
 21
330.6734772455831
 31
0
  0
LINE
  8
1
 62
7
 10
-680.3158579455171
 20
204.420543573908
 30
0
 11
-680.3158579455171
 21
330.6734772455831
 31
0
  0
LINE
  8
1
 62
7
 10
-705.590857945517
 20
190.2389772455831
 30
0
 11
-705.590857945517
 21
330.6734772455831
 31
0
  0
LINE
  8
1
 62
7
 10
-689.282857945517
 20
190.2389772455831
 30
0
 11
-689.282857945517
 21
330.6734772455831
 31
0
  0
LINE
  8
1
 62
7
 10
-664.0078579455171
 20
217.4734772455831
 30
0
 11
-664.0078579455171
 21
330.6734772455831
 31
0
  0
LINE
  8
1
 62
7
 10
-651.2308579455171
 20
216.3613527680417
 30
0
 11
-651.2308579455171
 21
330.6734772455831
 31
0
  0
LINE
  8
1
 62
7
 10
-645.7948579455172
 20
190.2389772455831
 30
0
 11
-645.7948579455172
 21
330.6734772455831
 31
0
  0
LINE
  8
1
 62
7
 10
-707.4958579455172
 20
190.2389772455831
 30
0
 11
-707.4958579455172
 21
330.6734772455831
 31
0
  0
LINE
  8
1
 62
7
 10
-518.658183776023
 20
217.4734772455831
 30
0
 11
-515.658183776023
 21
217.4734772455831
 31
0
  0
LINE
  8
1
 62
7
 10
-510.658183776023
 20
217.1734772455831
 30
0
 11
-510.658183776023
 21
214.7234772455831
 31
0
  0
LINE
  8
1
 62
7
 10
-510.658183776023
 20
214.7234772455831
 30
0
 11
-509.158183776023
 21
214.7234772455831
 31
0
  0
LINE
  8
1
 62
7
 10
-510.658183776023
 20
207.0234772455831
 30
0
 11
-509.158183776023
 21
207.0234772455831
 31
0
  0
LINE
  8
1
 62
2
  6
DASHDOT
 10
-525.0237951780721
 20
210.8734772455831
 30
0
 11
-502.0237951780721
 21
210.8734772455831
 31
0
  0
LINE
  8
1
 62
7
 10
-509.158183776023
 20
242.4488044275092
 30
0
 11
-518.658183776023
 21
242.4488044275092
 31
0
  0
LINE
  8
1
 62
7
 10
-509.158183776023
 20
214.7234772455831
 30
0
 11
-509.158183776023
 21
242.4488044275092
 31
0
  0
LINE
  8
1
 62
7
 10
-509.158183776023
 20
218.473477245583
 30
0
 11
-509.158183776023
 21
220.4734772455831
 31
0
  0
LINE
  8
1
 62
7
 10
-509.158183776023
 20
220.4734772455831
 30
0
 11
-509.158183776023
 21
242.4734772455831
 31
0
  0
LINE
  8
1
 62
7
 10
-509.158183776023
 20
214.7234772455831
 30
0
 11
-509.158183776023
 21
219.4734772455831
 31
0
  0
LINE
  8
1
 62
7
 10
-510.658183776023
 20
214.7234772455831
 30
0
 11
-510.658183776023
 21
207.0234772455831
 31
0
  0
LINE
  8
1
 62
7
 10
-509.158183776023
 20
188.473477245583
 30
0
 11
-509.158183776023
 21
211.473477245583
 31
0
  0
LINE
  8
1
 62
7
 10
-509.158183776023
 20
211.473477245583
 30
0
 11
-509.158183776023
 21
213.4734772455831
 31
0
  0
LINE
  8
1
 62
7
 10
-509.158183776023
 20
202.2843747119879
 30
0
 11
-509.158183776023
 21
207.0234772455831
 31
0
  0
LINE
  8
1
 62
7
 10
-509.158183776023
 20
207.0234772455831
 30
0
 11
-509.158183776023
 21
214.7234772455831
 31
0
  0
LINE
  8
1
 62
7
 10
-510.658183776023
 20
207.0234772455831
 30
0
 11
-510.658183776023
 21
204.5734772455831
 31
0
  0
LINE
  8
1
 62
7
 10
-514.4581837760231
 20
204.2734772455834
 30
0
 11
-515.658183776023
 21
204.2734772455834
 31
0
  0
ARC
  8
1
 62
7
 10
-514.5273151062509
 20
329.8468044275039
 30
0
 40
1.602000000000008
 50
4.511935914104652
 51
84.23660038668606
  0
ARC
  8
1
 62
2
 10
-514.5273151062509
 20
329.8468044275039
 30
0
 40
0.8519999999998984
 50
4.511935914104554
 51
172.9999999999984
  0
ARC
  8
1
 62
7
 10
-514.5273151062509
 20
329.8468044275039
 30
0
 40
1.601999999999909
 50
84.23660038668606
 51
172.9999999999986
  0
ARC
  8
1
 62
7
 10
-774.497357945517
 20
210.8734772455831
 30
0
 40
6.599999999999994
 50
90
 51
270
  0
ARC
  8
1
 62
7
 10
-774.497357945517
 20
210.8734772455831
 30
0
 40
3.849999999999994
 50
90
 51
270
  0
ARC
  8
1
 62
7
 10
-756.497357945517
 20
210.8734772455831
 30
0
 40
6.599999999999994
 50
270
 51
90
  0
ARC
  8
1
 62
7
 10
-756.497357945517
 20
210.8734772455831
 30
0
 40
3.849999999999994
 50
270
 51
90
  0
ARC
  8
1
 62
7
 10
-654.8973579455171
 20
210.8734772455831
 30
0
 40
6.599999999999994
 50
270
 51
90
  0
ARC
  8
1
 62
7
 10
-654.8973579455171
 20
210.8734772455831
 30
0
 40
3.849999999999994
 50
270
 51
90
  0
ARC
  8
1
 62
7
 10
-672.8973579455171
 20
210.8734772455831
 30
0
 40
6.599999999999994
 50
90
 51
270
  0
ARC
  8
1
 62
7
 10
-672.8973579455171
 20
210.8734772455831
 30
0
 40
3.849999999999994
 50
90
 51
270
  0
ARC
  8
1
 62
7
 10
-756.497357945517
 20
210.8734772455831
 30
0
 40
6.300000000000011
 50
270
 51
90
  0
ARC
  8
1
 62
7
 10
-774.497357945517
 20
210.8734772455831
 30
0
 40
6.299999999999983
 50
90
 51
270
  0
ARC
  8
1
 62
7
 10
-672.8973579455171
 20
210.8734772455831
 30
0
 40
6.299999999999983
 50
90
 51
270
  0
ARC
  8
1
 62
7
 10
-654.8973579455171
 20
210.8734772455831
 30
0
 40
6.300000000000011
 50
270
 51
90
  0
ARC
  8
1
 62
7
 10
-514.658183776023
 20
189.4734772455831
 30
0
 40
4
 50
180
 51
194.4775121859294
  0
ARC
  8
1
 62
7
 10
-639.358857945517
 20
243.4734772455831
 30
0
 40
1
 50
180
 51
273.5259154755396
  0
ARC
  8
1
 62
7
 10
-790.0358579455171
 20
243.4734772455831
 30
0
 40
0.999999999999976
 50
266.4740845244604
 51
0
  0
ARC
  8
1
 62
7
 10
-789.8473579455172
 20
185.7234772455831
 30
0
 40
0.25
 50
180
 51
270
  0
ARC
  8
1
 62
7
 10
-639.547357945517
 20
185.7234772455831
 30
0
 40
0.25
 50
270
 51
0
  0
ARC
  8
1
 62
7
 10
-785.3653579455172
 20
190.2389772455831
 30
0
 40
1.765499999999975
 50
180
 51
0
  0
ARC
  8
1
 62
7
 10
-785.3653579455172
 20
190.2389772455831
 30
0
 40
1.765500000000003
 50
270
 51
0
  0
ARC
  8
1
 62
7
 10
-779.929357945517
 20
190.2389772455831
 30
0
 40
1.765499999999975
 50
180
 51
270
  0
ARC
  8
1
 62
7
 10
-779.929357945517
 20
190.2389772455831
 30
0
 40
1.765500000000003
 50
270
 51
0
  0
ARC
  8
1
 62
7
 10
-774.4933579455171
 20
190.2389772455831
 30
0
 40
1.765499999999975
 50
180
 51
270
  0
ARC
  8
1
 62
7
 10
-774.4933579455171
 20
190.2389772455831
 30
0
 40
1.765500000000003
 50
270
 51
0
  0
ARC
  8
1
 62
7
 10
-769.057357945517
 20
190.2389772455831
 30
0
 40
1.765500000000202
 50
180
 51
270
  0
ARC
  8
1
 62
7
 10
-769.057357945517
 20
190.2389772455831
 30
0
 40
1.765500000000003
 50
270
 51
0
  0
ARC
  8
1
 62
7
 10
-763.6213579455171
 20
190.2389772455831
 30
0
 40
1.765499999999975
 50
180
 51
270
  0
ARC
  8
1
 62
7
 10
-763.6213579455171
 20
190.2389772455831
 30
0
 40
1.765500000000003
 50
270
 51
0
  0
ARC
  8
1
 62
7
 10
-758.1853579455171
 20
190.2389772455831
 30
0
 40
1.765499999999975
 50
180
 51
270
  0
ARC
  8
1
 62
7
 10
-758.1853579455171
 20
190.2389772455831
 30
0
 40
1.765500000000003
 50
270
 51
0
  0
ARC
  8
1
 62
7
 10
-752.749357945517
 20
190.2389772455831
 30
0
 40
1.765500000000202
 50
180
 51
270
  0
ARC
  8
1
 62
7
 10
-752.749357945517
 20
190.2389772455831
 30
0
 40
1.765500000000003
 50
270
 51
0
  0
ARC
  8
1
 62
7
 10
-747.3133579455171
 20
190.2389772455831
 30
0
 40
1.765499999999975
 50
180
 51
270
  0
ARC
  8
1
 62
7
 10
-747.3133579455171
 20
190.2389772455831
 30
0
 40
1.765500000000003
 50
270
 51
0
  0
ARC
  8
1
 62
7
 10
-741.8773579455171
 20
190.2389772455831
 30
0
 40
1.765499999999975
 50
180
 51
270
  0
ARC
  8
1
 62
7
 10
-741.8773579455171
 20
190.2389772455831
 30
0
 40
1.765500000000003
 50
270
 51
0
  0
ARC
  8
1
 62
7
 10
-736.441357945517
 20
190.2389772455831
 30
0
 40
1.765499999999975
 50
180
 51
270
  0
ARC
  8
1
 62
7
 10
-736.441357945517
 20
190.2389772455831
 30
0
 40
1.765500000000003
 50
270
 51
0
  0
ARC
  8
1
 62
7
 10
-731.0053579455171
 20
190.2389772455831
 30
0
 40
1.765499999999975
 50
180
 51
270
  0
ARC
  8
1
 62
7
 10
-731.0053579455171
 20
190.2389772455831
 30
0
 40
1.765500000000003
 50
270
 51
0
  0
ARC
  8
1
 62
7
 10
-725.5693579455171
 20
190.2389772455831
 30
0
 40
1.765499999999975
 50
180
 51
270
  0
ARC
  8
1
 62
7
 10
-725.5693579455171
 20
190.2389772455831
 30
0
 40
1.765500000000003
 50
270
 51
0
  0
ARC
  8
1
 62
7
 10
-720.133357945517
 20
190.2389772455831
 30
0
 40
1.765499999999975
 50
180
 51
270
  0
ARC
  8
1
 62
7
 10
-720.133357945517
 20
190.2389772455831
 30
0
 40
1.765500000000003
 50
270
 51
0
  0
ARC
  8
1
 62
7
 10
-714.6973579455171
 20
190.2389772455831
 30
0
 40
1.765499999999975
 50
180
 51
270
  0
ARC
  8
1
 62
7
 10
-761.0558579455171
 20
330.6734772455831
 30
0
 40
0.8000000000000114
 50
90
 51
180
  0
ARC
  8
1
 62
7
 10
-760.7508579455171
 20
330.6734772455831
 30
0
 40
0.7999999999999545
 50
0
 51
90
  0
ARC
  8
1
 62
7
 10
-755.619857945517
 20
330.6734772455831
 30
0
 40
0.8000000000000114
 50
90
 51
180
  0
ARC
  8
1
 62
7
 10
-755.3148579455171
 20
330.6734772455831
 30
0
 40
0.7999999999999545
 50
0
 51
90
  0
ARC
  8
1
 62
7
 10
-750.1838579455171
 20
330.6734772455831
 30
0
 40
0.8000000000000114
 50
90
 51
180
  0
ARC
  8
1
 62
7
 10
-749.8788579455172
 20
330.6734772455831
 30
0
 40
0.8000000000001819
 50
0
 51
90
  0
ARC
  8
1
 62
7
 10
-744.7478579455171
 20
330.6734772455831
 30
0
 40
0.8000000000000114
 50
90
 51
180
  0
ARC
  8
1
 62
7
 10
-744.4428579455171
 20
330.6734772455831
 30
0
 40
0.7999999999999545
 50
0
 51
90
  0
ARC
  8
1
 62
7
 10
-739.3118579455172
 20
330.6734772455831
 30
0
 40
0.8000000000000114
 50
90
 51
180
  0
ARC
  8
1
 62
7
 10
-739.0068579455171
 20
330.6734772455831
 30
0
 40
0.8000000000001819
 50
0
 51
90
  0
ARC
  8
1
 62
7
 10
-733.8758579455171
 20
330.6734772455831
 30
0
 40
0.8000000000000114
 50
90
 51
180
  0
ARC
  8
1
 62
7
 10
-733.5708579455172
 20
330.6734772455831
 30
0
 40
0.8000000000001819
 50
0
 51
90
  0
ARC
  8
1
 62
7
 10
-728.4398579455171
 20
330.6734772455831
 30
0
 40
0.8000000000000114
 50
90
 51
180
  0
ARC
  8
1
 62
7
 10
-728.1348579455171
 20
330.6734772455831
 30
0
 40
0.7999999999999545
 50
0
 51
90
  0
ARC
  8
1
 62
7
 10
-723.0038579455172
 20
330.6734772455831
 30
0
 40
0.8000000000000114
 50
90
 51
180
  0
ARC
  8
1
 62
7
 10
-722.6988579455172
 20
330.6734772455831
 30
0
 40
0.8000000000001819
 50
0
 51
90
  0
ARC
  8
1
 62
7
 10
-717.5678579455171
 20
330.6734772455831
 30
0
 40
0.8000000000000114
 50
90
 51
180
  0
ARC
  8
1
 62
7
 10
-717.2628579455172
 20
330.6734772455831
 30
0
 40
0.8000000000001819
 50
0
 51
90
  0
ARC
  8
1
 62
7
 10
-788.2358579455172
 20
330.6734772455831
 30
0
 40
0.8000000000000114
 50
90
 51
180
  0
ARC
  8
1
 62
7
 10
-787.9308579455171
 20
330.6734772455831
 30
0
 40
0.7999999999999545
 50
0
 51
90
  0
ARC
  8
1
 62
7
 10
-782.799857945517
 20
330.6734772455831
 30
0
 40
0.8000000000000114
 50
90
 51
180
  0
ARC
  8
1
 62
7
 10
-782.4948579455172
 20
330.6734772455831
 30
0
 40
0.8000000000001819
 50
0
 51
90
  0
ARC
  8
1
 62
7
 10
-777.3638579455171
 20
330.6734772455831
 30
0
 40
0.8000000000000114
 50
90
 51
180
  0
ARC
  8
1
 62
7
 10
-777.0588579455171
 20
330.6734772455831
 30
0
 40
0.7999999999999545
 50
0
 51
90
  0
ARC
  8
1
 62
7
 10
-771.9278579455172
 20
330.6734772455831
 30
0
 40
0.8000000000000114
 50
90
 51
180
  0
ARC
  8
1
 62
7
 10
-771.6228579455171
 20
330.6734772455831
 30
0
 40
0.7999999999999545
 50
0
 51
90
  0
ARC
  8
1
 62
7
 10
-766.491857945517
 20
330.6734772455831
 30
0
 40
0.8000000000000114
 50
90
 51
180
  0
ARC
  8
1
 62
7
 10
-766.1868579455172
 20
330.6734772455831
 30
0
 40
0.8000000000001819
 50
0
 51
90
  0
ARC
  8
1
 62
7
 10
-785.3653579455172
 20
244.2389772455831
 30
0
 40
1.765499999999975
 50
180
 51
270
  0
ARC
  8
1
 62
7
 10
-785.3653579455172
 20
244.2389772455831
 30
0
 40
1.765500000000003
 50
270
 51
0
  0
ARC
  8
1
 62
7
 10
-779.929357945517
 20
244.2389772455831
 30
0
 40
1.765499999999975
 50
180
 51
270
  0
ARC
  8
1
 62
7
 10
-779.929357945517
 20
244.2389772455831
 30
0
 40
1.765500000000003
 50
270
 51
0
  0
ARC
  8
1
 62
7
 10
-774.4933579455171
 20
244.2389772455831
 30
0
 40
1.765499999999975
 50
180
 51
270
  0
ARC
  8
1
 62
7
 10
-774.4933579455171
 20
244.2389772455831
 30
0
 40
1.765500000000003
 50
270
 51
0
  0
ARC
  8
1
 62
7
 10
-769.057357945517
 20
244.2389772455831
 30
0
 40
1.765500000000202
 50
180
 51
270
  0
ARC
  8
1
 62
7
 10
-769.057357945517
 20
244.2389772455831
 30
0
 40
1.765500000000003
 50
270
 51
0
  0
ARC
  8
1
 62
7
 10
-763.6213579455171
 20
244.2389772455831
 30
0
 40
1.765499999999975
 50
180
 51
270
  0
ARC
  8
1
 62
7
 10
-763.6213579455171
 20
244.2389772455831
 30
0
 40
1.765500000000003
 50
270
 51
0
  0
ARC
  8
1
 62
7
 10
-758.1853579455171
 20
244.2389772455831
 30
0
 40
1.765499999999975
 50
180
 51
270
  0
ARC
  8
1
 62
7
 10
-758.1853579455171
 20
244.2389772455831
 30
0
 40
1.765500000000003
 50
270
 51
0
  0
ARC
  8
1
 62
7
 10
-752.7493579455172
 20
244.2389772455831
 30
0
 40
1.765499999999975
 50
180
 51
270
  0
ARC
  8
1
 62
7
 10
-752.7493579455172
 20
244.2389772455831
 30
0
 40
1.765500000000003
 50
270
 51
0
  0
ARC
  8
1
 62
7
 10
-747.3133579455171
 20
244.2389772455831
 30
0
 40
1.765499999999975
 50
180
 51
270
  0
ARC
  8
1
 62
7
 10
-747.3133579455171
 20
244.2389772455831
 30
0
 40
1.765500000000003
 50
270
 51
0
  0
ARC
  8
1
 62
7
 10
-741.8773579455171
 20
244.2389772455831
 30
0
 40
1.765499999999975
 50
180
 51
270
  0
ARC
  8
1
 62
7
 10
-741.8773579455171
 20
244.2389772455831
 30
0
 40
1.765500000000003
 50
270
 51
0
  0
ARC
  8
1
 62
7
 10
-736.4413579455172
 20
244.2389772455831
 30
0
 40
1.765499999999747
 50
180
 51
270
  0
ARC
  8
1
 62
7
 10
-736.4413579455172
 20
244.2389772455831
 30
0
 40
1.765500000000003
 50
270
 51
0
  0
ARC
  8
1
 62
7
 10
-731.0053579455171
 20
244.2389772455831
 30
0
 40
1.765499999999975
 50
180
 51
270
  0
ARC
  8
1
 62
7
 10
-731.0053579455171
 20
244.2389772455831
 30
0
 40
1.765500000000003
 50
270
 51
0
  0
ARC
  8
1
 62
7
 10
-725.5693579455171
 20
244.2389772455831
 30
0
 40
1.765499999999975
 50
180
 51
270
  0
ARC
  8
1
 62
7
 10
-725.5693579455171
 20
244.2389772455831
 30
0
 40
1.765500000000003
 50
270
 51
0
  0
ARC
  8
1
 62
7
 10
-720.133357945517
 20
244.2389772455831
 30
0
 40
1.765500000000202
 50
180
 51
270
  0
ARC
  8
1
 62
7
 10
-720.133357945517
 20
244.2389772455831
 30
0
 40
1.765500000000003
 50
270
 51
0
  0
ARC
  8
1
 62
7
 10
-714.6973579455171
 20
244.2389772455831
 30
0
 40
1.765499999999975
 50
180
 51
270
  0
ARC
  8
1
 62
7
 10
-714.6973579455171
 20
244.2389772455831
 30
0
 40
1.765500000000003
 50
270
 51
0
  0
ARC
  8
1
 62
7
 10
-714.6973579455171
 20
244.2389772455831
 30
0
 40
1.765499999999975
 50
180
 51
270
  0
ARC
  8
1
 62
7
 10
-644.029357945517
 20
190.2389772455831
 30
0
 40
1.765500000000003
 50
270
 51
0
  0
ARC
  8
1
 62
7
 10
-644.029357945517
 20
190.2389772455831
 30
0
 40
1.765500000000202
 50
180
 51
270
  0
ARC
  8
1
 62
7
 10
-649.4653579455171
 20
190.2389772455831
 30
0
 40
1.765499999999975
 50
180
 51
0
  0
ARC
  8
1
 62
7
 10
-649.4653579455171
 20
190.2389772455831
 30
0
 40
1.765499999999975
 50
180
 51
270
  0
ARC
  8
1
 62
7
 10
-654.901357945517
 20
190.2389772455831
 30
0
 40
1.765500000000003
 50
270
 51
0
  0
ARC
  8
1
 62
7
 10
-654.901357945517
 20
190.2389772455831
 30
0
 40
1.765499999999975
 50
180
 51
270
  0
ARC
  8
1
 62
7
 10
-660.3373579455172
 20
190.2389772455831
 30
0
 40
1.765500000000003
 50
270
 51
0
  0
ARC
  8
1
 62
7
 10
-660.3373579455172
 20
190.2389772455831
 30
0
 40
1.765499999999975
 50
180
 51
270
  0
ARC
  8
1
 62
7
 10
-665.7733579455171
 20
190.2389772455831
 30
0
 40
1.765500000000003
 50
270
 51
0
  0
ARC
  8
1
 62
7
 10
-665.7733579455171
 20
190.2389772455831
 30
0
 40
1.765499999999975
 50
180
 51
270
  0
ARC
  8
1
 62
7
 10
-671.209357945517
 20
190.2389772455831
 30
0
 40
1.765500000000003
 50
270
 51
0
  0
ARC
  8
1
 62
7
 10
-671.209357945517
 20
190.2389772455831
 30
0
 40
1.765499999999975
 50
180
 51
270
  0
ARC
  8
1
 62
7
 10
-676.6453579455172
 20
190.2389772455831
 30
0
 40
1.765500000000003
 50
270
 51
0
  0
ARC
  8
1
 62
7
 10
-676.6453579455172
 20
190.2389772455831
 30
0
 40
1.765499999999975
 50
180
 51
270
  0
ARC
  8
1
 62
7
 10
-682.0813579455171
 20
190.2389772455831
 30
0
 40
1.765499999999975
 50
180
 51
0
  0
ARC
  8
1
 62
7
 10
-682.0813579455171
 20
190.2389772455831
 30
0
 40
1.765499999999975
 50
180
 51
270
  0
ARC
  8
1
 62
7
 10
-687.517357945517
 20
190.2389772455831
 30
0
 40
1.765500000000003
 50
270
 51
0
  0
ARC
  8
1
 62
7
 10
-687.517357945517
 20
190.2389772455831
 30
0
 40
1.765499999999975
 50
180
 51
270
  0
ARC
  8
1
 62
7
 10
-692.9533579455172
 20
190.2389772455831
 30
0
 40
1.765499999999975
 50
180
 51
0
  0
ARC
  8
1
 62
7
 10
-692.9533579455172
 20
190.2389772455831
 30
0
 40
1.765499999999975
 50
180
 51
270
  0
ARC
  8
1
 62
7
 10
-698.3893579455171
 20
190.2389772455831
 30
0
 40
1.765500000000003
 50
270
 51
0
  0
ARC
  8
1
 62
7
 10
-698.3893579455171
 20
190.2389772455831
 30
0
 40
1.765499999999975
 50
180
 51
270
  0
ARC
  8
1
 62
7
 10
-703.825357945517
 20
190.2389772455831
 30
0
 40
1.765500000000003
 50
270
 51
0
  0
ARC
  8
1
 62
7
 10
-703.825357945517
 20
190.2389772455831
 30
0
 40
1.765499999999975
 50
180
 51
270
  0
ARC
  8
1
 62
7
 10
-709.2613579455172
 20
190.2389772455831
 30
0
 40
1.765500000000003
 50
270
 51
0
  0
ARC
  8
1
 62
7
 10
-709.2613579455172
 20
190.2389772455831
 30
0
 40
1.765499999999975
 50
180
 51
270
  0
ARC
  8
1
 62
7
 10
-714.6973579455171
 20
190.2389772455831
 30
0
 40
1.765500000000003
 50
270
 51
0
  0
ARC
  8
1
 62
7
 10
-668.338857945517
 20
330.6734772455831
 30
0
 40
0.7999999999999545
 50
0
 51
90
  0
ARC
  8
1
 62
7
 10
-668.6438579455171
 20
330.6734772455831
 30
0
 40
0.8000000000000114
 50
90
 51
180
  0
ARC
  8
1
 62
7
 10
-673.7748579455172
 20
330.6734772455831
 30
0
 40
0.8000000000001819
 50
0
 51
90
  0
ARC
  8
1
 62
7
 10
-674.079857945517
 20
330.6734772455831
 30
0
 40
0.8000000000000114
 50
90
 51
180
  0
ARC
  8
1
 62
7
 10
-679.2108579455171
 20
330.6734772455831
 30
0
 40
0.7999999999999545
 50
0
 51
90
  0
ARC
  8
1
 62
7
 10
-679.5158579455169
 20
330.6734772455831
 30
0
 40
0.8000000000000114
 50
90
 51
180
  0
ARC
  8
1
 62
7
 10
-684.646857945517
 20
330.6734772455831
 30
0
 40
0.7999999999999545
 50
0
 51
90
  0
ARC
  8
1
 62
7
 10
-684.9518579455171
 20
330.6734772455831
 30
0
 40
0.8000000000000114
 50
90
 51
180
  0
ARC
  8
1
 62
7
 10
-690.0828579455169
 20
330.6734772455831
 30
0
 40
0.7999999999999545
 50
0
 51
90
  0
ARC
  8
1
 62
7
 10
-690.387857945517
 20
330.6734772455831
 30
0
 40
0.8000000000000114
 50
90
 51
180
  0
ARC
  8
1
 62
7
 10
-695.5188579455171
 20
330.6734772455831
 30
0
 40
0.7999999999999545
 50
0
 51
90
  0
ARC
  8
1
 62
7
 10
-695.8238579455169
 20
330.6734772455831
 30
0
 40
0.8000000000000114
 50
90
 51
180
  0
ARC
  8
1
 62
7
 10
-700.954857945517
 20
330.6734772455831
 30
0
 40
0.7999999999999545
 50
0
 51
90
  0
ARC
  8
1
 62
7
 10
-701.2598579455171
 20
330.6734772455831
 30
0
 40
0.8000000000000114
 50
90
 51
180
  0
ARC
  8
1
 62
7
 10
-706.3908579455169
 20
330.6734772455831
 30
0
 40
0.7999999999999545
 50
0
 51
90
  0
ARC
  8
1
 62
7
 10
-706.695857945517
 20
330.6734772455831
 30
0
 40
0.8000000000000114
 50
90
 51
180
  0
ARC
  8
1
 62
7
 10
-711.8268579455171
 20
330.6734772455831
 30
0
 40
0.7999999999999545
 50
0
 51
90
  0
ARC
  8
1
 62
7
 10
-712.1318579455169
 20
330.6734772455831
 30
0
 40
0.8000000000000114
 50
90
 51
180
  0
ARC
  8
1
 62
7
 10
-641.158857945517
 20
330.6734772455831
 30
0
 40
0.7999999999999545
 50
0
 51
90
  0
ARC
  8
1
 62
7
 10
-641.463857945517
 20
330.6734772455831
 30
0
 40
0.8000000000000114
 50
90
 51
180
  0
ARC
  8
1
 62
7
 10
-646.5948579455171
 20
330.6734772455831
 30
0
 40
0.7999999999999545
 50
0
 51
90
  0
ARC
  8
1
 62
7
 10
-646.8998579455169
 20
330.6734772455831
 30
0
 40
0.8000000000000114
 50
90
 51
180
  0
ARC
  8
1
 62
7
 10
-652.030857945517
 20
330.6734772455831
 30
0
 40
0.7999999999999545
 50
0
 51
90
  0
ARC
  8
1
 62
7
 10
-652.3358579455171
 20
330.6734772455831
 30
0
 40
0.8000000000000114
 50
90
 51
180
  0
ARC
  8
1
 62
7
 10
-657.466857945517
 20
330.6734772455831
 30
0
 40
0.7999999999999545
 50
0
 51
90
  0
ARC
  8
1
 62
7
 10
-657.771857945517
 20
330.6734772455831
 30
0
 40
0.8000000000000114
 50
90
 51
180
  0
ARC
  8
1
 62
7
 10
-662.9028579455171
 20
330.6734772455831
 30
0
 40
0.7999999999999545
 50
0
 51
90
  0
ARC
  8
1
 62
7
 10
-663.2078579455169
 20
330.6734772455831
 30
0
 40
0.8000000000000114
 50
90
 51
180
  0
ARC
  8
1
 62
7
 10
-644.029357945517
 20
244.2389772455831
 30
0
 40
1.765500000000003
 50
270
 51
0
  0
ARC
  8
1
 62
7
 10
-644.029357945517
 20
244.2389772455831
 30
0
 40
1.765499999999975
 50
180
 51
270
  0
ARC
  8
1
 62
7
 10
-649.4653579455171
 20
244.2389772455831
 30
0
 40
1.765500000000003
 50
270
 51
0
  0
ARC
  8
1
 62
7
 10
-649.4653579455171
 20
244.2389772455831
 30
0
 40
1.765499999999975
 50
180
 51
270
  0
ARC
  8
1
 62
7
 10
-654.901357945517
 20
244.2389772455831
 30
0
 40
1.765500000000003
 50
270
 51
0
  0
ARC
  8
1
 62
7
 10
-654.901357945517
 20
244.2389772455831
 30
0
 40
1.765499999999975
 50
180
 51
270
  0
ARC
  8
1
 62
7
 10
-660.3373579455172
 20
244.2389772455831
 30
0
 40
1.765500000000003
 50
270
 51
0
  0
ARC
  8
1
 62
7
 10
-660.3373579455172
 20
244.2389772455831
 30
0
 40
1.765499999999975
 50
180
 51
270
  0
ARC
  8
1
 62
7
 10
-665.7733579455171
 20
244.2389772455831
 30
0
 40
1.765500000000003
 50
270
 51
0
  0
ARC
  8
1
 62
7
 10
-665.7733579455171
 20
244.2389772455831
 30
0
 40
1.765499999999975
 50
180
 51
270
  0
ARC
  8
1
 62
7
 10
-671.209357945517
 20
244.2389772455831
 30
0
 40
1.765500000000003
 50
270
 51
0
  0
ARC
  8
1
 62
7
 10
-671.209357945517
 20
244.2389772455831
 30
0
 40
1.765499999999975
 50
180
 51
270
  0
ARC
  8
1
 62
7
 10
-676.6453579455169
 20
244.2389772455831
 30
0
 40
1.765500000000003
 50
270
 51
0
  0
ARC
  8
1
 62
7
 10
-676.6453579455169
 20
244.2389772455831
 30
0
 40
1.765500000000202
 50
180
 51
270
  0
ARC
  8
1
 62
7
 10
-682.0813579455171
 20
244.2389772455831
 30
0
 40
1.765500000000003
 50
270
 51
0
  0
ARC
  8
1
 62
7
 10
-682.0813579455171
 20
244.2389772455831
 30
0
 40
1.765499999999975
 50
180
 51
270
  0
ARC
  8
1
 62
7
 10
-687.517357945517
 20
244.2389772455831
 30
0
 40
1.765500000000003
 50
270
 51
0
  0
ARC
  8
1
 62
7
 10
-687.517357945517
 20
244.2389772455831
 30
0
 40
1.765499999999975
 50
180
 51
270
  0
ARC
  8
1
 62
7
 10
-692.9533579455169
 20
244.2389772455831
 30
0
 40
1.765500000000003
 50
270
 51
0
  0
ARC
  8
1
 62
7
 10
-692.9533579455169
 20
244.2389772455831
 30
0
 40
1.765500000000202
 50
180
 51
270
  0
ARC
  8
1
 62
7
 10
-698.3893579455171
 20
244.2389772455831
 30
0
 40
1.765500000000003
 50
270
 51
0
  0
ARC
  8
1
 62
7
 10
-698.3893579455171
 20
244.2389772455831
 30
0
 40
1.765499999999975
 50
180
 51
270
  0
ARC
  8
1
 62
7
 10
-703.825357945517
 20
244.2389772455831
 30
0
 40
1.765500000000003
 50
270
 51
0
  0
ARC
  8
1
 62
7
 10
-703.825357945517
 20
244.2389772455831
 30
0
 40
1.765500000000202
 50
180
 51
270
  0
ARC
  8
1
 62
7
 10
-709.2613579455172
 20
244.2389772455831
 30
0
 40
1.765500000000003
 50
270
 51
0
  0
ARC
  8
1
 62
7
 10
-709.2613579455172
 20
244.2389772455831
 30
0
 40
1.765499999999975
 50
180
 51
270
  0
ARC
  8
1
 62
7
 10
-714.6973579455171
 20
244.2389772455831
 30
0
 40
1.765500000000003
 50
270
 51
0
  0
ARC
  8
1
 62
7
 10
-714.6973579455171
 20
244.2389772455831
 30
0
 40
1.765499999999975
 50
180
 51
270
  0
ARC
  8
1
 62
7
 10
-714.6973579455171
 20
244.2389772455831
 30
0
 40
1.765500000000003
 50
270
 51
0
  0
ARC
  8
1
 62
7
 10
-514.658183776023
 20
189.4734772455831
 30
0
 40
3.999999999999989
 50
255.52248781407
 51
270
  0
ARC
  8
1
 62
7
 10
-514.658183776023
 20
189.4734772455831
 30
0
 40
4.000000000000127
 50
194.4775121859294
 51
255.52248781407
  0
TEXT
  8
1
 62
2
 10
-497.4269874466679
 20
146.214646464647
 30
0
 40
3.2
  1
Sezione A-A
 41
0.9
  0
DIMENSION
  8
1
  6
CONTINUOUS
 62
2
  2
*D0
  3
DMST_1
 10
-663.8973579455171
 20
157.191723663912
 30
0
 11
-714.6973579455171
 21
160.151723663912
 31
0
 12
0
 22
0
 32
0
 70
1
 13
-765.497357945517
 23
222.1543364916526
 33
0
 14
-663.8973579455171
 24
222.1543364916526
 34
0
 53
0
  0
DIMENSION
  8
1
  6
CONTINUOUS
 62
2
  2
*D1
  3
DMST_1
 10
-625.4300707451939
 20
185.4734772455831
 30
0
 11
-628.2300707451939
 21
179.0214730213319
 31
0
 12
0
 22
0
 32
0
 70
0
 13
-644.029357945517
 23
188.4734772455831
 33
0
 14
-639.547357945517
 24
185.4734772455831
 34
0
 50
90
 53
0
  0
DIMENSION
  8
1
  6
CONTINUOUS
 62
2
  2
*D2
  3
DMST_1
 10
-578.826651072854
 20
331.4734772455831
 30
0
 11
-581.626651072854
 21
266.2383628156588
 31
0
 12
0
 22
0
 32
0
 70
0
 13
-639.547357945517
 23
185.4734772455831
 33
0
 14
-641.158857945517
 24
331.4734772455831
 34
0
 50
90
 53
0
  0
DIMENSION
  8
1
  6
CONTINUOUS
 62
2
  2
*D3
  3
DMST_1
 10
-594.6027078040352
 20
185.4734772455832
 30
0
 11
-597.4027078040351
 21
213.7378771097268
 31
0
 12
0
 22
0
 32
0
 70
0
 13
-639.297357945517
 23
242.4753701621497
 33
0
 14
-639.547357945517
 24
185.4734772455831
 34
0
 50
90
 53
0
  0
DIMENSION
  8
1
  6
CONTINUOUS
 62
2
  2
*D4
  3
DMST_1
 10
-639.297357945517
 20
146.38490385056
 30
0
 11
-714.6973579455171
 21
149.34490385056
 31
0
 12
0
 22
0
 32
0
 70
0
 13
-790.0973579455172
 23
185.7234772455831
 33
0
 14
-639.297357945517
 24
185.7234772455831
 34
0
 53
0
  0
DIMENSION
  8
1
  6
CONTINUOUS
 62
2
  2
*D5
  3
DMST_1
 10
-756.497357945517
 20
171.377596187625
 30
0
 11
-749.689887125598
 21
174.177596187625
 31
0
 12
0
 22
0
 32
0
 70
0
 13
-774.497357945517
 23
203.6134772455831
 33
0
 14
-756.497357945517
 24
204.5734772455831
 34
0
 53
0
  0
DIMENSION
  8
1
  6
CONTINUOUS
 62
2
  2
*D6
  3
DMST_1
 10
-509.158183776023
 20
162.5134772455831
 30
0
 11
-513.908183776023
 21
165.4734772455831
 31
0
 12
0
 22
0
 32
0
 70
0
 13
-518.658183776023
 23
189.4734772455831
 33
0
 14
-509.158183776023
 24
185.4734772455831
 34
0
 53
0
  0
DIMENSION
  8
1
  6
CONTINUOUS
 62
2
  2
*D7
  3
DMST_1
 10
-610.3081874937216
 20
185.473477245583
 30
0
 11
-613.2681874937216
 21
197.7074221997115
 31
0
 12
0
 22
0
 32
0
 70
0
 13
-647.6373579455171
 23
210.8734772455831
 33
0
 14
-639.547357945517
 24
185.4734772455831
 34
0
 50
90
 53
0
  0
DIMENSION
  8
1
  6
CONTINUOUS
 62
2
  2
*D8
  3
DMST_1
 10
-672.8973579455171
 20
171.837460860534
 30
0
 11
-680.94011852576
 21
174.637460860534
 31
0
 12
0
 22
0
 32
0
 70
0
 13
-654.8973579455171
 23
203.6134772455831
 33
0
 14
-672.8973579455171
 24
203.6134772455831
 34
0
 53
0
  0
ENDSEC
  0
EOF
