  0
SECTION
  2
HEADER
  9
$ACADVER
  1
AC1009
  9
$INSBASE
 10
0
 20
0
  9
$EXTMIN
 10
28.2216494845
 20
87.22680412370001
  9
$EXTMAX
 10
184.263930524873
 20
311.711052229855
  9
$LIMMIN
 10
28.2216494845
 20
87.22680412370001
  9
$LIMMAX
 10
184.263930524873
 20
311.711052229855
  9
$VIEWCTR
 10
10
 20
10
  9
$VIEWSIZE
 40
10
  9
$SNAPMODE
 70
0
  9
$SNAPUNIT
 10
1
 20
1
  9
$SNAPBASE
 10
0
 20
0
  9
$SNAPANG
 50
0
  9
$SNAPSTYLE
 70
0
  9
$SNAPISOPAIR
 70
0
  9
$GRIDMODE
 70
0
  9
$GRIDUNIT
 10
0
 20
0
  9
$ORTHOMODE
 70
0
  9
$REGENMODE
 70
1
  9
$FILLMODE
 70
1
  9
$QTEXTMODE
 70
0
  9
$DRAGMODE
 70
2
  9
$LTSCALE
 40
1
  9
$OSMODE
 70
0
  9
$ATTMODE
 70
1
  9
$TEXTSIZE
 40
3.5
  9
$TRACEWID
 40
0.5
  9
$TEXTSTYLE
  7
STANDARD
  9
$CLAYER
  8
0
  9
$CELTYPE
  6
BYLAYER
  9
$CECOLOR
 62
256
  9
$DIMSCALE
 40
1
  9
$DIMASZ
 40
0.18
  9
$DIMEXO
 40
0.0625
  9
$DIMDLI
 40
0.38
  9
$DIMRND
 40
0
  9
$DIMDLE
 40
0
  9
$DIMEXE
 40
0.18
  9
$DIMTP
 40
0
  9
$DIMTM
 40
0
  9
$DIMTXT
 40
0.18
  9
$DIMCEN
 40
0.09
  9
$DIMTSZ
 40
0
  9
$DIMTOL
 70
0
  9
$DIMLIM
 70
0
  9
$DIMTIH
 70
1
  9
$DIMTOH
 70
1
  9
$DIMSE1
 70
0
  9
$DIMSE2
 70
0
  9
$DIMTAD
 70
0
  9
$DIMZIN
 70
0
  9
$DIMBLK
  1

  9
$DIMASO
 70
1
  9
$DIMSHO
 70
1
  9
$DIMPOST
  1

  9
$DIMAPOST
  1

  9
$DIMALT
 70
0
  9
$DIMALTD
 70
2
  9
$DIMALTF
 40
25.4
  9
$DIMLFAC
 40
1
  9
$DIMTOFL
 70
0
  9
$DIMTVP
 40
0
  9
$DIMTIX
 70
0
  9
$DIMSOXD
 70
0
  9
$DIMSAH
 70
0
  9
$DIMBLK1
  1

  9
$DIMBLK2
  1

  9
$DIMSTYLE
  2
*UNNAMED
  9
$DIMCLRD
 70
0
  9
$DIMCLRE
 70
0
  9
$DIMCLRT
 70
0
  9
$DIMTFAC
 40
1
  9
$DIMGAP
 40
0.09
  9
$LUNITS
 70
2
  9
$LUPREC
 70
4
  9
$AXISMODE
 70
0
  9
$AXISUNIT
 10
0
 20
0
  9
$SKETCHINC
 40
0.1
  9
$FILLETRAD
 40
2
  9
$AUNITS
 70
0
  9
$AUPREC
 70
0
  9
$MENU
  1
ACAD
  9
$ELEVATION
 40
0
  9
$THICKNESS
 40
0
  9
$VIEWDIR
 10
0
 20
0
 30
1
  9
$LIMCHECK
 70
0
  9
$BLIPMODE
 70
1
  9
$CHAMFERA
 40
0
  9
$CHAMFERB
 40
0
  9
$FASTZOOM
 70
1
  9
$SKPOLY
 70
0
  9
$ANGBASE
 50
0
  9
$ANGDIR
 70
0
  9
$PDMODE
 70
0
  9
$PDSIZE
 40
0
  9
$PLINEWID
 40
0
  9
$COORDS
 70
2
  0
ENDSEC
  0
SECTION
  2
TABLES
  0
TABLE
  2
DIMSTYLE
 70
1
  0
DIMSTYLE
  2
DMST_1
 70
0
  3

  4

  5

  6

  7

 40
1
 41
3.200000000000001
 42
1
 43
7
 44
1
 45
0
 46
0
 47
0
 48
0
140
3.200000000000001
141
0
142
0
143
25.4
144
1
145
0
146
1
147
0.09
 71
0
 72
0
 73
0
 74
0
 75
0
 76
0
 77
1
 78
9
170
0
171
2
172
0
173
0
174
0
175
0
176
2
177
2
178
2
  0
ENDTAB
  0
TABLE
  2
LTYPE
 70
9
  0
LTYPE
  2
CONTINUOUS
 70
64
  3
Solid line
 72
65
 73
0
 40
0
  0
LTYPE
  2
BORDER
 70
64
  3
__ __ . __ __ .
 72
65
 73
6
 40
10.33809037330977
 49
2.953740106659935
 49
-1.476870053329967
 49
2.953740106659935
 49
-1.476870053329967
 49
0
 49
-1.476870053329967
  0
LTYPE
  2
CENTER
 70
64
  3
____ _ ____ _
 72
65
 73
4
 40
11.81496042663974
 49
7.384350266649836
 49
-1.476870053329967
 49
1.476870053329967
 49
-1.476870053329967
  0
LTYPE
  2
DASHDOT
 70
64
  3
__ . __ . __ .
 72
65
 73
4
 40
5.907480213319869
 49
2.953740106659935
 49
-1.476870053329967
 49
0
 49
-1.476870053329967
  0
LTYPE
  2
DASHED
 70
64
  3
__ __ __ __ __
 72
65
 73
2
 40
4.430610159989902
 49
2.953740106659935
 49
-1.476870053329967
  0
LTYPE
  2
DIVIDE
 70
64
  3
__ . . __ . . 
 72
65
 73
6
 40
7.384350266649836
 49
2.953740106659935
 49
-1.476870053329967
 49
0
 49
-1.476870053329967
 49
0
 49
-1.476870053329967
  0
LTYPE
  2
DOT
 70
64
  3
..............
 72
65
 73
4
 40
2.953740106659935
 49
0
 49
-1.476870053329967
 49
0
 49
-1.476870053329967
  0
LTYPE
  2
HIDDEN
 70
64
  3
_ _ _ _ _ _ _
 72
65
 73
2
 40
2.215305079994951
 49
1.476870053329967
 49
-0.7384350266649836
  0
LTYPE
  2
PHANTOM
 70
64
  3
_____ _ _ _____ _ _ 
 72
65
 73
6
 40
14.76870053329967
 49
7.384350266649836
 49
-1.476870053329967
 49
1.476870053329967
 49
-1.476870053329967
 49
1.476870053329967
 49
-1.476870053329967
  0
ENDTAB
  0
TABLE
  2
LAYER
 70
4
  0
LAYER
  2
DEFAULT_1
 70
0
 62
7
  6
CONTINUOUS
  0
LAYER
  2
0
 70
0
 62
7
  6
CONTINUOUS
  0
LAYER
  2
1
 70
0
 62
7
  6
CONTINUOUS
  0
ENDTAB
  0
TABLE
  2
STYLE
 70
4
  0
STYLE
  2
STANDARD
 70
0
 40
0
 41
1
 50
0
 71
0
 42
3.5
  3
txt
  4

  0
STYLE
  2
SIMPLEX
 70
0
 40
0
 41
1
 50
0
 71
0
 42
3.5
  3
simplex
  4

  0
STYLE
  2
COMPLEX
 70
0
 40
0
 41
1
 50
0
 71
0
 42
3.5
  3
complex
  4

  0
STYLE
  2
ITALIC
 70
0
 40
0
 41
1
 50
0
 71
0
 42
3.5
  3
italic
  4

  0
ENDTAB
  0
TABLE
  2
VIEW
 70
0
  0
ENDTAB
  0
ENDSEC
  0
SECTION
  2
BLOCKS
  0
BLOCK
  8
1
  2
*D0
 70
1
 10
0
 20
0
 30
0
  0
LINE
  8
1
 62
2
 10
28.2216494845
 20
296.021911472357
 30
0
 11
75.22164948450001
 21
296.021911472357
 31
0
  0
LINE
  8
1
 62
2
 10
75.22164948450001
 20
284.5378452378
 30
0
 11
75.22164948450001
 21
297.021911472357
 31
0
  0
LINE
  8
1
 62
2
 10
28.2216494845
 20
284.5378452378
 30
0
 11
28.2216494845
 21
297.021911472357
 31
0
  0
SOLID
  8
1
 62
2
 10
28.2216494845
 20
296.021911472357
 30
0
 11
31.42164948450001
 21
296.437911472357
 31
0
 12
31.42164948450001
 22
295.605911472357
 32
0
 13
31.42164948450001
 23
295.605911472357
 33
0
  0
SOLID
  8
1
 62
2
 10
75.22164948450001
 20
296.021911472357
 30
0
 11
72.0216494845
 21
295.605911472357
 31
0
 12
72.0216494845
 22
296.437911472357
 32
0
 13
72.0216494845
 23
296.437911472357
 33
0
  0
TEXT
  8
1
 62
2
 10
49.32164948450001
 20
297.221911472357
 30
0
 40
3.200000000000001
  1
47
 41
0.9
  0
ENDBLK
  8
0
  0
BLOCK
  8
1
  2
*D1
 70
1
 10
0
 20
0
 30
0
  0
LINE
  8
1
 62
2
 10
120.875901911478
 20
163.5378452378
 30
0
 11
120.875901911478
 21
283.5378452378
 31
0
  0
LINE
  8
1
 62
2
 10
131.7417525773
 20
283.5378452378
 30
0
 11
119.875901911478
 21
283.5378452378
 31
0
  0
LINE
  8
1
 62
2
 10
134.7417525773
 20
163.5378452378
 30
0
 11
119.875901911478
 21
163.5378452378
 31
0
  0
SOLID
  8
1
 62
2
 10
120.875901911478
 20
283.5378452378
 30
0
 11
121.291901911478
 21
280.3378452378
 31
0
 12
120.459901911478
 22
280.3378452378
 32
0
 13
120.459901911478
 23
280.3378452378
 33
0
  0
SOLID
  8
1
 62
2
 10
120.875901911478
 20
163.5378452378
 30
0
 11
120.459901911478
 21
166.7378452378
 31
0
 12
121.291901911478
 22
166.7378452378
 32
0
 13
121.291901911478
 23
166.7378452378
 33
0
  0
TEXT
  8
1
 62
2
 10
119.675901911478
 20
220.1778452378
 30
0
 40
3.200000000000001
  1
120
 50
90
 41
0.9
  0
ENDBLK
  8
0
  0
BLOCK
  8
1
  2
*D2
 70
1
 10
0
 20
0
 30
0
  0
LINE
  8
1
 62
2
 10
171.645902680265
 20
263.5378452378
 30
0
 11
171.645902680265
 21
269.9378452378
 31
0
  0
LINE
  8
1
 62
2
 10
171.645902680265
 20
258.5378452378
 30
0
 11
171.645902680265
 21
252.1378452378
 31
0
  0
LINE
  8
1
 62
2
 10
171.645902680265
 20
258.5378452378
 30
0
 11
171.645902680265
 21
263.5378452378
 31
0
  0
LINE
  8
1
 62
2
 10
160.7417525773
 20
263.5378452378
 30
0
 11
172.645902680265
 21
263.5378452378
 31
0
  0
LINE
  8
1
 62
2
 10
160.7417525773
 20
258.5378452378
 30
0
 11
172.645902680265
 21
258.5378452378
 31
0
  0
SOLID
  8
1
 62
2
 10
171.645902680265
 20
258.5378452378
 30
0
 11
172.061902680265
 21
255.3378452378
 31
0
 12
171.229902680265
 22
255.3378452378
 32
0
 13
171.229902680265
 23
255.3378452378
 33
0
  0
SOLID
  8
1
 62
2
 10
171.645902680265
 20
263.5378452378
 30
0
 11
171.229902680265
 21
266.7378452378
 31
0
 12
172.061902680265
 22
266.7378452378
 32
0
 13
172.061902680265
 23
266.7378452378
 33
0
  0
TEXT
  8
1
 62
2
 10
170.445902680265
 20
260.0778452378
 30
0
 40
3.200000000000001
  1
5
 50
90
 41
0.9
  0
ENDBLK
  8
0
  0
BLOCK
  8
1
  2
*D3
 70
1
 10
0
 20
0
 30
0
  0
LINE
  8
1
 62
2
 10
183.263930524873
 20
258.5378452378
 30
0
 11
183.263930524873
 21
283.5378452378
 31
0
  0
LINE
  8
1
 62
2
 10
146.5417525773
 20
283.5378452378
 30
0
 11
184.263930524873
 21
283.5378452378
 31
0
  0
LINE
  8
1
 62
2
 10
160.7417525773
 20
258.5378452378
 30
0
 11
184.263930524873
 21
258.5378452378
 31
0
  0
SOLID
  8
1
 62
2
 10
183.263930524873
 20
283.5378452378
 30
0
 11
183.679930524873
 21
280.3378452378
 31
0
 12
182.847930524873
 22
280.3378452378
 32
0
 13
182.847930524873
 23
280.3378452378
 33
0
  0
SOLID
  8
1
 62
2
 10
183.263930524873
 20
258.5378452378
 30
0
 11
182.847930524873
 21
261.7378452378
 31
0
 12
183.679930524873
 22
261.7378452378
 32
0
 13
183.679930524873
 23
261.7378452378
 33
0
  0
TEXT
  8
1
 62
2
 10
182.063930524873
 20
268.6378452378
 30
0
 40
3.200000000000001
  1
25
 50
90
 41
0.9
  0
ENDBLK
  8
0
  0
BLOCK
  8
1
  2
*D4
 70
1
 10
0
 20
0
 30
0
  0
LINE
  8
1
 62
2
 10
132.7417525773
 20
306.991052229855
 30
0
 11
162.0417525773
 21
306.991052229855
 31
0
  0
LINE
  8
1
 62
2
 10
162.0417525773
 20
264.5378452378
 30
0
 11
162.0417525773
 21
307.991052229855
 31
0
  0
LINE
  8
1
 62
2
 10
132.7417525773
 20
284.5378452378
 30
0
 11
132.7417525773
 21
307.991052229855
 31
0
  0
SOLID
  8
1
 62
2
 10
162.0417525773
 20
306.991052229855
 30
0
 11
158.8417525773
 21
306.575052229855
 31
0
 12
158.8417525773
 22
307.407052229855
 32
0
 13
158.8417525773
 23
307.407052229855
 33
0
  0
SOLID
  8
1
 62
2
 10
132.7417525773
 20
306.991052229855
 30
0
 11
135.9417525773
 21
307.407052229855
 31
0
 12
135.9417525773
 22
306.575052229855
 32
0
 13
135.9417525773
 23
306.575052229855
 33
0
  0
TEXT
  8
1
 62
2
 10
142.9917525773
 20
308.511052229855
 30
0
 40
3.200000000000001
  1
29,3
 41
0.9
  0
ENDBLK
  8
0
  0
BLOCK
  8
1
  2
*D5
 70
1
 10
0
 20
0
 30
0
  0
LINE
  8
1
 62
2
 10
137.7417525773
 20
297.57408697351
 30
0
 11
162.0417525773
 21
297.57408697351
 31
0
  0
LINE
  8
1
 62
2
 10
162.0417525773
 20
264.5378452378
 30
0
 11
162.0417525773
 21
298.57408697351
 31
0
  0
LINE
  8
1
 62
2
 10
137.7417525773
 20
284.5378452378
 30
0
 11
137.7417525773
 21
298.57408697351
 31
0
  0
SOLID
  8
1
 62
2
 10
162.0417525773
 20
297.57408697351
 30
0
 11
158.8417525773
 21
297.15808697351
 31
0
 12
158.8417525773
 22
297.99008697351
 32
0
 13
158.8417525773
 23
297.99008697351
 33
0
  0
SOLID
  8
1
 62
2
 10
137.7417525773
 20
297.57408697351
 30
0
 11
140.9417525773
 21
297.99008697351
 31
0
 12
140.9417525773
 22
297.15808697351
 32
0
 13
140.9417525773
 23
297.15808697351
 33
0
  0
TEXT
  8
1
 62
2
 10
145.4917525773
 20
299.09408697351
 30
0
 40
3.200000000000001
  1
24,3
 41
0.9
  0
ENDBLK
  8
0
  0
BLOCK
  8
1
  2
*D6
 70
1
 10
0
 20
0
 30
0
  0
LINE
  8
1
 62
2
 10
137.7417525773
 20
288.959187530099
 30
0
 11
159.7417525773
 21
288.959187530099
 31
0
  0
LINE
  8
1
 62
2
 10
159.7417525773
 20
264.5378452378
 30
0
 11
159.7417525773
 21
289.959187530099
 31
0
  0
LINE
  8
1
 62
2
 10
137.7417525773
 20
284.5378452378
 30
0
 11
137.7417525773
 21
289.959187530099
 31
0
  0
SOLID
  8
1
 62
2
 10
159.7417525773
 20
288.959187530099
 30
0
 11
156.5417525773
 21
288.543187530099
 31
0
 12
156.5417525773
 22
289.375187530099
 32
0
 13
156.5417525773
 23
289.375187530099
 33
0
  0
SOLID
  8
1
 62
2
 10
137.7417525773
 20
288.959187530099
 30
0
 11
140.9417525773
 21
289.375187530099
 31
0
 12
140.9417525773
 22
288.543187530099
 32
0
 13
140.9417525773
 23
288.543187530099
 33
0
  0
TEXT
  8
1
 62
2
 10
146.3417525773
 20
290.159187530099
 30
0
 40
3.200000000000001
  1
22
 41
0.9
  0
ENDBLK
  8
0
  0
ENDSEC
  0
SECTION
  2
ENTITIES
  0
POINT
  8
0
 62
7
  6
DASHED
 10
137.2417525773
 20
100.2268041237
 30
0
  0
POINT
  8
0
 62
7
  6
DASHED
 10
137.2417525773
 20
87.22680412370001
 30
0
  0
POINT
  8
0
 62
7
  6
DASHED
 10
163.1635068422
 20
263.5378452378
 30
0
  0
POINT
  8
0
 62
7
  6
DASHED
 10
158.66096913
 20
258.5378452378
 30
0
  0
POINT
  8
0
 62
7
  6
DASHED
 10
162.0417525773
 20
131.6260020822
 30
0
  0
POINT
  8
0
 62
7
  6
DASHED
 10
137.7417525773
 20
133.2942485276
 30
0
  0
POINT
  8
0
 62
7
  6
DASHED
 10
159.7417525773
 20
261.8973020848
 30
0
  0
POINT
  8
0
 62
7
  6
DASHED
 10
137.7417525773
 20
283.4123956694
 30
0
  0
POINT
  8
0
 62
7
  6
DASHED
 10
145.0417525773
 20
134.2268041237
 30
0
  0
POINT
  8
0
 62
7
  6
DASHED
 10
145.0417525773
 20
87.22680412370001
 30
0
  0
LINE
  8
1
 62
2
  6
DASHDOT
 10
135.7417525773
 20
169.8378452378001
 30
0
 11
135.7417525773
 21
163.2378452378
 31
0
  0
LINE
  8
1
 62
2
  6
DASHDOT
 10
139.0417525773
 20
166.5378452378
 30
0
 11
132.4417525773
 21
166.5378452378
 31
0
  0
LINE
  8
1
 62
2
  6
DASHDOT
 10
51.7216494845
 20
275.5478452378001
 30
0
 11
51.7216494845
 21
266.5278452378
 31
0
  0
LINE
  8
1
 62
2
  6
DASHDOT
 10
56.2316494845
 20
271.0378452378
 30
0
 11
47.2116494845
 21
271.0378452378
 31
0
  0
LINE
  8
0
 62
7
 10
28.2216494845
 20
283.5378452378
 30
0
 11
75.22164948450001
 21
283.5378452378
 31
0
  0
LINE
  8
0
 62
7
 10
75.22164948450001
 20
263.5378452378
 30
0
 11
28.2216494845
 21
263.5378452378
 31
0
  0
LINE
  8
0
 62
7
 10
75.22164948450001
 20
258.3122905356
 30
0
 11
28.2216494845
 21
258.3122905356
 31
0
  0
LINE
  8
0
 62
7
 10
75.22164948450001
 20
163.5383165568
 30
0
 11
75.22164948450001
 21
283.5378452378
 31
0
  0
LINE
  8
0
 62
7
 10
75.22164948450001
 20
242.2779879709
 30
0
 11
28.2216494845
 21
242.2779879709
 31
0
  0
LINE
  8
0
 62
7
 10
68.5308418747
 20
263.5378452378
 30
0
 11
68.5308418747
 21
283.5378452378
 31
0
  0
LINE
  8
0
 62
7
 10
65.9459543934
 20
263.5378452378
 30
0
 11
65.9459543934
 21
283.5378452378
 31
0
  0
LINE
  8
0
 62
7
 10
63.0918957038
 20
283.5378452378
 30
0
 11
63.0918957038
 21
263.5378452378
 31
0
  0
LINE
  8
0
 62
7
 10
60.5070082224
 20
283.5378452378
 30
0
 11
60.5070082224
 21
263.5378452378
 31
0
  0
LINE
  8
0
 62
7
 10
42.9362907466
 20
263.5378452378
 30
0
 11
42.9362907466
 21
283.5378452378
 31
0
  0
LINE
  8
0
 62
7
 10
40.3514032653
 20
263.5378452378
 30
0
 11
40.3514032653
 21
283.5378452378
 31
0
  0
LINE
  8
0
 62
7
 10
37.4973445757
 20
263.5378452378
 30
0
 11
37.4973445757
 21
283.5378452378
 31
0
  0
LINE
  8
0
 62
7
 10
34.9124570944
 20
263.5378452378
 30
0
 11
34.9124570944
 21
283.5378452378
 31
0
  0
LINE
  8
0
 62
7
 10
28.2216494845
 20
163.5383165568
 30
0
 11
28.2216494845
 21
283.5378452378
 31
0
  0
LINE
  8
0
 62
7
 10
75.22164948450001
 20
165.7361301096
 30
0
 11
28.2216494845
 21
165.7361301096
 31
0
  0
LINE
  8
0
 62
7
 10
75.22164948450001
 20
163.5378452378
 30
0
 11
28.2216494845
 21
163.5378452378
 31
0
  0
LINE
  8
0
 62
7
 10
162.0417525773
 20
134.2268041237
 30
0
 11
132.7417525773
 21
134.2268041237
 31
0
  0
LINE
  8
0
 62
7
 10
162.0417525773
 20
134.2268041237
 30
0
 11
162.0417525773
 21
87.22680412370001
 31
0
  0
LINE
  8
0
 62
7
 10
159.7417525773
 20
134.2268041237
 30
0
 11
159.7417525773
 21
87.22680412370001
 31
0
  0
LINE
  8
DEFAULT_1
 62
7
  6
CENTER
 10
170.5087098723
 20
110.7268041237
 30
0
 11
175.5087098723
 21
110.7268041237
 31
0
  0
LINE
  8
DEFAULT_1
 62
7
  6
CENTER
 10
166.6773203817
 20
110.7268041237
 30
0
 11
170.5087098723
 21
110.7268041237
 31
0
  0
LINE
  8
DEFAULT_1
 62
7
  6
CENTER
 10
129.6235753642
 20
110.7268041237
 30
0
 11
129.7417525773
 21
110.7268041237
 31
0
  0
LINE
  8
DEFAULT_1
 62
7
  6
CENTER
 10
124.6235753642
 20
110.7268041237
 30
0
 11
129.6235753642
 21
110.7268041237
 31
0
  0
LINE
  8
DEFAULT_1
 62
2
  6
CENTER
 10
166.6773203817
 20
110.7268041237
 30
0
 11
129.7417525773
 21
110.7268041237
 31
0
  0
LINE
  8
0
 62
7
 10
145.5417525773
 20
93.9176117335
 30
0
 11
145.5417525773
 21
87.22680412370001
 31
0
  0
LINE
  8
0
 62
7
 10
145.5417525773
 20
134.2268041237
 30
0
 11
145.5417525773
 21
127.5359965139
 31
0
  0
LINE
  8
0
 62
7
 10
137.7417525773
 20
119.5121628616
 30
0
 11
137.7417525773
 21
101.9414453858
 31
0
  0
LINE
  8
0
 62
7
 10
139.2191374884
 20
99.35655790449999
 30
0
 11
144.0643676662
 21
96.5024992149
 31
0
  0
LINE
  8
0
 62
7
 10
144.0643676662
 20
124.9511090326
 30
0
 11
139.2191374884
 21
122.0970503429
 31
0
  0
LINE
  8
0
 62
7
 10
132.7417525773
 20
134.2268041237
 30
0
 11
132.7417525773
 21
87.22680412370001
 31
0
  0
LINE
  8
0
 62
7
 10
132.7417525773
 20
87.22680412370001
 30
0
 11
162.0417525773
 21
87.22680412370001
 31
0
  0
LINE
  8
0
 62
7
 10
132.7417525773
 20
283.5378452378
 30
0
 11
145.5417525773
 21
283.5378452378
 31
0
  0
LINE
  8
DEFAULT_1
 62
2
  6
CENTER
 10
140.7417525773
 20
271.0378452378
 30
0
 11
129.7417525773
 21
271.0378452378
 31
0
  0
LINE
  8
0
 62
7
 10
162.0417525773
 20
263.5378452378
 30
0
 11
159.7417525773
 21
263.5378452378
 31
0
  0
LINE
  8
0
 62
7
 10
159.7417525773
 20
258.5378452378
 30
0
 11
137.7417525773
 21
258.5378452378
 31
0
  0
LINE
  8
0
 62
7
 10
162.0417525773
 20
258.3122905356
 30
0
 11
162.0417525773
 21
263.5378452378
 31
0
  0
LINE
  8
0
 62
7
 10
159.7417525773
 20
263.5378452378
 30
0
 11
159.7417525773
 21
258.5378452378
 31
0
  0
LINE
  8
0
 62
7
 10
138.6326439369
 20
165.7361301096
 30
0
 11
159.8595797698
 21
242.2779879709
 31
0
  0
LINE
  8
0
 62
7
 10
145.5417525773
 20
258.5378452378
 30
0
 11
145.5417525773
 21
283.5378452378
 31
0
  0
LINE
  8
0
 62
7
 10
144.0643676662
 20
258.5378452378
 30
0
 11
144.0643676662
 21
283.5378452378
 31
0
  0
LINE
  8
0
 62
7
 10
139.2191374884
 20
283.5378452378
 30
0
 11
139.2191374884
 21
258.5378452378
 31
0
  0
LINE
  8
0
 62
7
 10
137.7417525773
 20
258.5378452378
 30
0
 11
137.7417525773
 21
283.5378452378
 31
0
  0
LINE
  8
0
 62
7
 10
132.7417525773
 20
166.5378452378
 30
0
 11
132.7417525773
 21
283.5378452378
 31
0
  0
LINE
  8
0
 62
7
 10
175.5087098723
 20
110.7268041237
 30
0
 11
175.5087098723
 21
98.6742327186
 31
0
  0
LINE
  8
0
 62
7
 10
124.6235753642
 20
110.7268041237
 30
0
 11
124.6235753642
 21
101.6934566417
 31
0
  0
ARC
  8
0
 62
7
 10
135.7417525773
 20
166.5378452378
 30
0
 40
3
 50
180
 51
270
  0
ARC
  8
0
 62
7
 10
142.5417525773
 20
93.9176117335
 30
0
 40
3
 50
0
 51
59.50000000000007
  0
ARC
  8
0
 62
7
 10
142.5417525773
 20
127.5359965139
 30
0
 40
3.000000000000016
 50
300.4999999999996
 51
0
  0
ARC
  8
0
 62
7
 10
140.7417525773
 20
101.9414453858
 30
0
 40
3
 50
180
 51
239.5000000000005
  0
ARC
  8
0
 62
7
 10
140.7417525773
 20
119.5121628616
 30
0
 40
3.000000000000001
 50
120.4999999999992
 51
180
  0
ARC
  8
0
 62
7
 10
102.0417525773
 20
258.3122905356
 30
0
 40
60.00000000000001
 50
344.4999999999999
 51
0
  0
ARC
  8
0
 62
7
 10
135.7417525773
 20
166.5378452378
 30
0
 40
3
 50
270
 51
344.4999999999996
  0
CIRCLE
  8
0
 62
7
 10
51.7216494845
 20
271.0378452378
 30
0
 40
4.100000000000001
  0
POLYLINE
  8
0
 62
7
 66
1
  0
VERTEX
  8
0
 10
176.5087098723
 20
103.7268041237
 30
0
  0
VERTEX
  8
0
 10
175.5087098723
 20
110.7268041237
 30
0
  0
VERTEX
  8
0
 10
174.5087098723
 20
103.7268041237
 30
0
  0
VERTEX
  8
0
 10
176.5087098723
 20
103.7268041237
 30
0
  0
SEQEND
  8
0
  0
POLYLINE
  8
0
 62
7
 66
1
  0
VERTEX
  8
0
 10
125.6235753642
 20
103.7268041237
 30
0
  0
VERTEX
  8
0
 10
124.6235753642
 20
110.7268041237
 30
0
  0
VERTEX
  8
0
 10
123.6235753642
 20
103.7268041237
 30
0
  0
VERTEX
  8
0
 10
125.6235753642
 20
103.7268041237
 30
0
  0
SEQEND
  8
0
  0
TEXT
  8
0
 62
7
 10
176.7587348723
 20
100.4242327186
 30
0
 40
3.5
  1
A
 41
0.7071570000000003
  0
TEXT
  8
0
 62
7
 10
120.8735003642
 20
103.4434566417
 30
0
 40
3.5
  1
A
 41
0.7071570000000003
  0
DIMENSION
  8
1
  6
CONTINUOUS
 62
2
  2
*D0
  3
DMST_1
 10
75.22164948450002
 20
296.021911472357
 30
0
 11
51.72164948450001
 21
298.821911472357
 31
0
 12
0
 22
0
 32
0
 70
0
 13
28.2216494845
 23
283.5378452378
 33
0
 14
75.22164948450001
 24
283.5378452378
 34
0
 53
0
  0
DIMENSION
  8
1
  6
CONTINUOUS
 62
2
  2
*D1
  3
DMST_1
 10
120.875901911478
 20
283.5378452378
 30
0
 11
118.075901911478
 21
223.5378452378
 31
0
 12
0
 22
0
 32
0
 70
0
 13
135.7417525773
 23
163.5378452378
 33
0
 14
132.7417525773
 24
283.5378452378
 34
0
 50
90
 53
0
  0
DIMENSION
  8
1
  6
CONTINUOUS
 62
2
  2
*D2
  3
DMST_1
 10
171.645902680265
 20
263.5378452378
 30
0
 11
168.845902680265
 21
261.0378452378
 31
0
 12
0
 22
0
 32
0
 70
0
 13
159.7417525773
 23
258.5378452378
 33
0
 14
159.7417525773
 24
263.5378452378
 34
0
 50
90
 53
0
  0
DIMENSION
  8
1
  6
CONTINUOUS
 62
2
  2
*D3
  3
DMST_1
 10
183.263930524873
 20
283.5378452378
 30
0
 11
180.463930524873
 21
271.0378452378
 31
0
 12
0
 22
0
 32
0
 70
0
 13
159.7417525773
 23
258.5378452378
 33
0
 14
145.5417525773
 24
283.5378452378
 34
0
 50
90
 53
0
  0
DIMENSION
  8
1
  6
CONTINUOUS
 62
2
  2
*D4
  3
DMST_1
 10
162.0417525773
 20
306.991052229855
 30
0
 11
147.3917525773
 21
309.951052229855
 31
0
 12
0
 22
0
 32
0
 70
0
 13
132.7417525773
 23
283.5378452378
 33
0
 14
162.0417525773
 24
263.5378452378
 34
0
 53
0
  0
DIMENSION
  8
1
  6
CONTINUOUS
 62
2
  2
*D5
  3
DMST_1
 10
162.0417525773
 20
297.57408697351
 30
0
 11
149.8917525773
 21
300.53408697351
 31
0
 12
0
 22
0
 32
0
 70
0
 13
137.7417525773
 23
283.5378452378
 33
0
 14
162.0417525773
 24
263.5378452378
 34
0
 53
0
  0
DIMENSION
  8
1
  6
CONTINUOUS
 62
2
  2
*D6
  3
DMST_1
 10
159.7417525773
 20
288.959187530099
 30
0
 11
148.7417525773
 21
291.759187530099
 31
0
 12
0
 22
0
 32
0
 70
0
 13
137.7417525773
 23
283.5378452378
 33
0
 14
159.7417525773
 24
263.5378452378
 34
0
 53
0
  0
ENDSEC
  0
EOF
