  0
SECTION
  2
HEADER
  9
$ACADVER
  1
AC1009
  9
$INSBASE
 10
0
 20
0
  9
$EXTMIN
 10
20.6176062405586
 20
73.207367488
  9
$EXTMAX
 10
184.821164062614
 20
278.0721649485
  9
$LIMMIN
 10
20.6176062405586
 20
73.207367488
  9
$LIMMAX
 10
184.821164062614
 20
278.0721649485
  9
$VIEWCTR
 10
10
 20
10
  9
$VIEWSIZE
 40
10
  9
$SNAPMODE
 70
0
  9
$SNAPUNIT
 10
1
 20
1
  9
$SNAPBASE
 10
0
 20
0
  9
$SNAPANG
 50
0
  9
$SNAPSTYLE
 70
0
  9
$SNAPISOPAIR
 70
0
  9
$GRIDMODE
 70
0
  9
$GRIDUNIT
 10
0
 20
0
  9
$ORTHOMODE
 70
0
  9
$REGENMODE
 70
1
  9
$FILLMODE
 70
1
  9
$QTEXTMODE
 70
0
  9
$DRAGMODE
 70
2
  9
$LTSCALE
 40
1
  9
$OSMODE
 70
0
  9
$ATTMODE
 70
1
  9
$TEXTSIZE
 40
3.5
  9
$TRACEWID
 40
0.5
  9
$TEXTSTYLE
  7
STANDARD
  9
$CLAYER
  8
0
  9
$CELTYPE
  6
BYLAYER
  9
$CECOLOR
 62
256
  9
$DIMSCALE
 40
1
  9
$DIMASZ
 40
0.18
  9
$DIMEXO
 40
0.0625
  9
$DIMDLI
 40
0.38
  9
$DIMRND
 40
0
  9
$DIMDLE
 40
0
  9
$DIMEXE
 40
0.18
  9
$DIMTP
 40
0
  9
$DIMTM
 40
0
  9
$DIMTXT
 40
0.18
  9
$DIMCEN
 40
0.09
  9
$DIMTSZ
 40
0
  9
$DIMTOL
 70
0
  9
$DIMLIM
 70
0
  9
$DIMTIH
 70
1
  9
$DIMTOH
 70
1
  9
$DIMSE1
 70
0
  9
$DIMSE2
 70
0
  9
$DIMTAD
 70
0
  9
$DIMZIN
 70
0
  9
$DIMBLK
  1

  9
$DIMASO
 70
1
  9
$DIMSHO
 70
1
  9
$DIMPOST
  1

  9
$DIMAPOST
  1

  9
$DIMALT
 70
0
  9
$DIMALTD
 70
2
  9
$DIMALTF
 40
25.4
  9
$DIMLFAC
 40
1
  9
$DIMTOFL
 70
0
  9
$DIMTVP
 40
0
  9
$DIMTIX
 70
0
  9
$DIMSOXD
 70
0
  9
$DIMSAH
 70
0
  9
$DIMBLK1
  1

  9
$DIMBLK2
  1

  9
$DIMSTYLE
  2
*UNNAMED
  9
$DIMCLRD
 70
0
  9
$DIMCLRE
 70
0
  9
$DIMCLRT
 70
0
  9
$DIMTFAC
 40
1
  9
$DIMGAP
 40
0.09
  9
$LUNITS
 70
2
  9
$LUPREC
 70
4
  9
$AXISMODE
 70
0
  9
$AXISUNIT
 10
0
 20
0
  9
$SKETCHINC
 40
0.1
  9
$FILLETRAD
 40
2
  9
$AUNITS
 70
0
  9
$AUPREC
 70
0
  9
$MENU
  1
ACAD
  9
$ELEVATION
 40
0
  9
$THICKNESS
 40
0
  9
$VIEWDIR
 10
0
 20
0
 30
1
  9
$LIMCHECK
 70
0
  9
$BLIPMODE
 70
1
  9
$CHAMFERA
 40
0
  9
$CHAMFERB
 40
0
  9
$FASTZOOM
 70
1
  9
$SKPOLY
 70
0
  9
$ANGBASE
 50
0
  9
$ANGDIR
 70
0
  9
$PDMODE
 70
0
  9
$PDSIZE
 40
0
  9
$PLINEWID
 40
0
  9
$COORDS
 70
2
  0
ENDSEC
  0
SECTION
  2
TABLES
  0
TABLE
  2
DIMSTYLE
 70
1
  0
DIMSTYLE
  2
DMST_1
 70
0
  3

  4

  5

  6

  7

 40
1
 41
3.200000000000001
 42
1
 43
7
 44
1
 45
0
 46
0
 47
0
 48
0
140
3.200000000000001
141
0
142
0
143
25.4
144
1
145
0
146
1
147
0.09
 71
0
 72
0
 73
0
 74
0
 75
0
 76
0
 77
1
 78
9
170
0
171
2
172
0
173
0
174
0
175
0
176
2
177
2
178
2
  0
ENDTAB
  0
TABLE
  2
LTYPE
 70
9
  0
LTYPE
  2
CONTINUOUS
 70
64
  3
Solid line
 72
65
 73
0
 40
0
  0
LTYPE
  2
BORDER
 70
64
  3
__ __ . __ __ .
 72
65
 73
6
 40
9.434563040944081
 49
2.695589440269737
 49
-1.347794720134869
 49
2.695589440269737
 49
-1.347794720134869
 49
0
 49
-1.347794720134869
  0
LTYPE
  2
CENTER
 70
64
  3
____ _ ____ _
 72
65
 73
4
 40
10.78235776107895
 49
6.738973600674343
 49
-1.347794720134869
 49
1.347794720134869
 49
-1.347794720134869
  0
LTYPE
  2
DASHDOT
 70
64
  3
__ . __ . __ .
 72
65
 73
4
 40
5.391178880539474
 49
2.695589440269737
 49
-1.347794720134869
 49
0
 49
-1.347794720134869
  0
LTYPE
  2
DASHED
 70
64
  3
__ __ __ __ __
 72
65
 73
2
 40
4.043384160404606
 49
2.695589440269737
 49
-1.347794720134869
  0
LTYPE
  2
DIVIDE
 70
64
  3
__ . . __ . . 
 72
65
 73
6
 40
6.738973600674343
 49
2.695589440269737
 49
-1.347794720134869
 49
0
 49
-1.347794720134869
 49
0
 49
-1.347794720134869
  0
LTYPE
  2
DOT
 70
64
  3
..............
 72
65
 73
4
 40
2.695589440269737
 49
0
 49
-1.347794720134869
 49
0
 49
-1.347794720134869
  0
LTYPE
  2
HIDDEN
 70
64
  3
_ _ _ _ _ _ _
 72
65
 73
2
 40
2.021692080202303
 49
1.347794720134869
 49
-0.6738973600674343
  0
LTYPE
  2
PHANTOM
 70
64
  3
_____ _ _ _____ _ _ 
 72
65
 73
6
 40
13.47794720134869
 49
6.738973600674343
 49
-1.347794720134869
 49
1.347794720134869
 49
-1.347794720134869
 49
1.347794720134869
 49
-1.347794720134869
  0
ENDTAB
  0
TABLE
  2
LAYER
 70
4
  0
LAYER
  2
DEFAULT_1
 70
0
 62
7
  6
CONTINUOUS
  0
LAYER
  2
0
 70
0
 62
7
  6
CONTINUOUS
  0
LAYER
  2
1
 70
0
 62
7
  6
CONTINUOUS
  0
ENDTAB
  0
TABLE
  2
STYLE
 70
4
  0
STYLE
  2
STANDARD
 70
0
 40
0
 41
1
 50
0
 71
0
 42
3.5
  3
txt
  4

  0
STYLE
  2
SIMPLEX
 70
0
 40
0
 41
1
 50
0
 71
0
 42
3.5
  3
simplex
  4

  0
STYLE
  2
COMPLEX
 70
0
 40
0
 41
1
 50
0
 71
0
 42
3.5
  3
complex
  4

  0
STYLE
  2
ITALIC
 70
0
 40
0
 41
1
 50
0
 71
0
 42
3.5
  3
italic
  4

  0
ENDTAB
  0
TABLE
  2
VIEW
 70
0
  0
ENDTAB
  0
ENDSEC
  0
SECTION
  2
BLOCKS
  0
BLOCK
  8
1
  2
*D0
 70
1
 10
0
 20
0
 30
0
  0
LINE
  8
1
 62
2
 10
124.8711340206
 20
205.169555184579
 30
0
 11
114.938134898699
 21
205.169555184579
 31
0
  0
LINE
  8
1
 62
2
 10
124.8711340206
 20
205.169555184579
 30
0
 11
132.5711340206
 21
205.169555184579
 31
0
  0
LINE
  8
1
 62
2
 10
138.9711340206
 20
205.169555184579
 30
0
 11
132.5711340206
 21
205.169555184579
 31
0
  0
LINE
  8
1
 62
2
 10
132.5711340206
 20
195.6288659794
 30
0
 11
132.5711340206
 21
206.169555184579
 31
0
  0
LINE
  8
1
 62
2
 10
124.8711340206
 20
173.6288659794
 30
0
 11
124.8711340206
 21
206.169555184579
 31
0
  0
SOLID
  8
1
 62
2
 10
132.5711340206
 20
205.169555184579
 30
0
 11
135.7711340206
 21
205.585555184579
 31
0
 12
135.7711340206
 22
204.753555184579
 32
0
 13
135.7711340206
 23
204.753555184579
 33
0
  0
SOLID
  8
1
 62
2
 10
124.8711340206
 20
205.169555184579
 30
0
 11
121.6711340206
 21
204.753555184579
 31
0
 12
121.6711340206
 22
205.585555184579
 32
0
 13
121.6711340206
 23
205.585555184579
 33
0
  0
TEXT
  8
1
 62
2
 10
114.938134898699
 20
206.689555184579
 30
0
 40
3.200000000000001
  1
7,7
 41
0.9
  0
ENDBLK
  8
0
  0
BLOCK
  8
1
  2
*D1
 70
1
 10
0
 20
0
 30
0
  0
LINE
  8
1
 62
2
 10
173.8711340206
 20
203.836992076997
 30
0
 11
184.821164062614
 21
203.836992076997
 31
0
  0
LINE
  8
1
 62
2
 10
167.1711340206
 20
203.836992076997
 30
0
 11
173.8711340206
 21
203.836992076997
 31
0
  0
LINE
  8
1
 62
2
 10
160.7711340206
 20
203.836992076997
 30
0
 11
167.1711340206
 21
203.836992076997
 31
0
  0
LINE
  8
1
 62
2
 10
173.8711340206
 20
173.6288659794
 30
0
 11
173.8711340206
 21
204.836992076997
 31
0
  0
LINE
  8
1
 62
2
 10
167.1711340206
 20
195.6288659794
 30
0
 11
167.1711340206
 21
204.836992076997
 31
0
  0
SOLID
  8
1
 62
2
 10
173.8711340206
 20
203.836992076997
 30
0
 11
177.0711340206
 21
204.252992076997
 31
0
 12
177.0711340206
 22
203.420992076997
 32
0
 13
177.0711340206
 23
203.420992076997
 33
0
  0
SOLID
  8
1
 62
2
 10
167.1711340206
 20
203.836992076997
 30
0
 11
163.9711340206
 21
203.420992076997
 31
0
 12
163.9711340206
 22
204.252992076997
 32
0
 13
163.9711340206
 23
204.252992076997
 33
0
  0
TEXT
  8
1
 62
2
 10
178.901164062614
 20
205.356992076997
 30
0
 40
3.200000000000001
  1
6,7
 41
0.9
  0
ENDBLK
  8
0
  0
BLOCK
  8
1
  2
*D2
 70
1
 10
0
 20
0
 30
0
  0
LINE
  8
1
 62
2
 10
149.3711340206
 20
212.387605350645
 30
0
 11
173.8711340206
 21
212.387605350645
 31
0
  0
LINE
  8
1
 62
2
 10
173.8711340206
 20
173.6288659794
 30
0
 11
173.8711340206
 21
213.387605350645
 31
0
  0
LINE
  8
1
 62
2
 10
149.3711340206
 20
182.6288659794
 30
0
 11
149.3711340206
 21
213.387605350645
 31
0
  0
SOLID
  8
1
 62
2
 10
173.8711340206
 20
212.387605350645
 30
0
 11
170.6711340206
 21
211.971605350645
 31
0
 12
170.6711340206
 22
212.803605350645
 32
0
 13
170.6711340206
 23
212.803605350645
 33
0
  0
SOLID
  8
1
 62
2
 10
149.3711340206
 20
212.387605350645
 30
0
 11
152.5711340206
 21
212.803605350645
 31
0
 12
152.5711340206
 22
211.971605350645
 32
0
 13
152.5711340206
 23
211.971605350645
 33
0
  0
TEXT
  8
1
 62
2
 10
157.2211340206
 20
213.907605350645
 30
0
 40
3.200000000000001
  1
24,5
 41
0.9
  0
ENDBLK
  8
0
  0
BLOCK
  8
1
  2
*D3
 70
1
 10
0
 20
0
 30
0
  0
LINE
  8
1
 62
2
 10
36.1169453117946
 20
172.6288659794
 30
0
 11
36.1169453117946
 21
194.6288659794
 31
0
  0
LINE
  8
1
 62
2
 10
48.1881030801
 20
194.6288659794
 30
0
 11
35.1169453117946
 21
194.6288659794
 31
0
  0
LINE
  8
1
 62
2
 10
60.8381030801
 20
172.6288659794
 30
0
 11
35.1169453117946
 21
172.6288659794
 31
0
  0
SOLID
  8
1
 62
2
 10
36.1169453117946
 20
172.6288659794
 30
0
 11
35.70094531179459
 21
175.8288659794
 31
0
 12
36.53294531179459
 22
175.8288659794
 32
0
 13
36.53294531179459
 23
175.8288659794
 33
0
  0
SOLID
  8
1
 62
2
 10
36.1169453117946
 20
194.6288659794
 30
0
 11
36.53294531179459
 21
191.4288659794
 31
0
 12
35.70094531179459
 22
191.4288659794
 32
0
 13
35.70094531179459
 23
191.4288659794
 33
0
  0
TEXT
  8
1
 62
2
 10
34.9169453117946
 20
181.2288659794
 30
0
 40
3.200000000000001
  1
22
 50
90
 41
0.9
  0
ENDBLK
  8
0
  0
BLOCK
  8
1
  2
*D4
 70
1
 10
0
 20
0
 30
0
  0
LINE
  8
1
 62
2
 10
49.18810308009999
 20
205.933810488644
 30
0
 11
76.68810308010001
 21
205.933810488644
 31
0
  0
LINE
  8
1
 62
2
 10
76.68810308010001
 20
195.6288659794
 30
0
 11
76.68810308010001
 21
206.933810488644
 31
0
  0
LINE
  8
1
 62
2
 10
49.18810308009999
 20
195.6288659794
 30
0
 11
49.18810308009999
 21
206.933810488644
 31
0
  0
SOLID
  8
1
 62
2
 10
49.18810308009999
 20
205.933810488644
 30
0
 11
52.3881030801
 21
206.349810488644
 31
0
 12
52.3881030801
 22
205.517810488644
 32
0
 13
52.3881030801
 23
205.517810488644
 33
0
  0
SOLID
  8
1
 62
2
 10
76.68810308010001
 20
205.933810488644
 30
0
 11
73.4881030801
 21
205.517810488644
 31
0
 12
73.4881030801
 22
206.349810488644
 32
0
 13
73.4881030801
 23
206.349810488644
 33
0
  0
TEXT
  8
1
 62
2
 10
58.53810308010001
 20
207.453810488644
 30
0
 40
3.200000000000001
  1
27,5
 41
0.9
  0
ENDBLK
  8
0
  0
BLOCK
  8
1
  2
*D5
 70
1
 10
0
 20
0
 30
0
  0
LINE
  8
1
 62
2
 10
25.0176062405586
 20
77.6288659794
 30
0
 11
25.0176062405586
 21
194.6288659794
 31
0
  0
LINE
  8
1
 62
2
 10
48.1881030801
 20
194.6288659794
 30
0
 11
24.0176062405586
 21
194.6288659794
 31
0
  0
LINE
  8
1
 62
2
 10
61.93810308009999
 20
77.6288659794
 30
0
 11
24.0176062405586
 21
77.6288659794
 31
0
  0
SOLID
  8
1
 62
2
 10
25.0176062405586
 20
194.6288659794
 30
0
 11
25.4336062405586
 21
191.4288659794
 31
0
 12
24.6016062405586
 22
191.4288659794
 32
0
 13
24.6016062405586
 23
191.4288659794
 33
0
  0
SOLID
  8
1
 62
2
 10
25.0176062405586
 20
77.6288659794
 30
0
 11
24.6016062405586
 21
80.82886597940001
 31
0
 12
25.4336062405586
 22
80.82886597940001
 32
0
 13
25.4336062405586
 23
80.82886597940001
 33
0
  0
TEXT
  8
1
 62
2
 10
23.8176062405586
 20
130.388405130223
 30
0
 40
3.200000000000001
  1
117
 50
90
 41
0.9
  0
ENDBLK
  8
0
  0
BLOCK
  8
1
  2
*D6
 70
1
 10
0
 20
0
 30
0
  0
LINE
  8
1
 62
2
 10
34.2218599430864
 20
229.0721649485
 30
0
 11
34.2218599430864
 21
278.0721649485
 31
0
  0
LINE
  8
1
 62
2
 10
48.1881030801
 20
278.0721649485
 30
0
 11
33.2218599430864
 21
278.0721649485
 31
0
  0
LINE
  8
1
 62
2
 10
48.1881030801
 20
229.0721649485
 30
0
 11
33.2218599430864
 21
229.0721649485
 31
0
  0
SOLID
  8
1
 62
2
 10
34.2218599430864
 20
278.0721649485
 30
0
 11
34.6378599430864
 21
274.8721649485
 31
0
 12
33.8058599430864
 22
274.8721649485
 32
0
 13
33.8058599430864
 23
274.8721649485
 33
0
  0
SOLID
  8
1
 62
2
 10
34.2218599430864
 20
229.0721649485
 30
0
 11
33.8058599430864
 21
232.2721649485
 31
0
 12
34.6378599430864
 22
232.2721649485
 32
0
 13
34.6378599430864
 23
232.2721649485
 33
0
  0
TEXT
  8
1
 62
2
 10
33.0218599430864
 20
251.1721649485
 30
0
 40
3.200000000000001
  1
49
 50
90
 41
0.9
  0
ENDBLK
  8
0
  0
ENDSEC
  0
SECTION
  2
ENTITIES
  0
POINT
  8
0
 62
7
  6
DASHED
 10
173.8711340206
 20
173.1288659794
 30
0
  0
POINT
  8
0
 62
7
  6
DASHED
 10
149.3711340206
 20
199.3704979209
 30
0
  0
POINT
  8
0
 62
7
  6
DASHED
 10
173.8711340206
 20
195.1288659794
 30
0
  0
POINT
  8
0
 62
7
  6
DASHED
 10
167.1711340206
 20
195.1288659794
 30
0
  0
LINE
  8
1
 62
2
  6
DASHDOT
 10
62.9381030801
 20
83.9288659794
 30
0
 11
62.9381030801
 21
77.32886597940001
 31
0
  0
LINE
  8
1
 62
2
  6
DASHDOT
 10
66.23810308009999
 20
80.6288659794
 30
0
 11
59.63810308010001
 21
80.6288659794
 31
0
  0
LINE
  8
0
 62
7
 10
49.1881030801
 20
278.0721649485
 30
0
 11
76.68810308010001
 21
278.0721649485
 31
0
  0
LINE
  8
0
 62
7
 10
76.68810308010001
 20
229.0721649485
 30
0
 11
76.68810308010001
 21
278.0721649485
 31
0
  0
LINE
  8
0
 62
7
 10
76.2508176727
 20
229.0721649485
 30
0
 11
76.2508176727
 21
278.0721649485
 31
0
  0
LINE
  8
0
 62
7
 10
65.91623880970001
 20
229.0721649485
 30
0
 11
65.91623880970001
 21
278.0721649485
 31
0
  0
LINE
  8
0
 62
7
 10
59.9599673505
 20
229.0721649485
 30
0
 11
59.9599673505
 21
278.0721649485
 31
0
  0
LINE
  8
0
 62
7
 10
49.6253884875
 20
229.0721649485
 30
0
 11
49.6253884875
 21
278.0721649485
 31
0
  0
LINE
  8
0
 62
7
 10
49.1881030801
 20
229.0721649485
 30
0
 11
49.1881030801
 21
278.0721649485
 31
0
  0
LINE
  8
0
 62
7
 10
49.1881030801
 20
229.0721649485
 30
0
 11
76.68810308010001
 21
229.0721649485
 31
0
  0
LINE
  8
0
 62
7
 10
132.5711340206
 20
194.6288659794
 30
0
 11
167.1711340206
 21
194.6288659794
 31
0
  0
LINE
  8
DEFAULT_1
 62
2
  6
CENTER
 10
149.3711340206
 20
181.6288659794
 30
0
 11
182.7286769516
 21
181.6288659794
 31
0
  0
LINE
  8
DEFAULT_1
 62
2
  6
CENTER
 10
149.3711340206
 20
181.6288659794
 30
0
 11
119.2192429894
 21
181.6288659794
 31
0
  0
LINE
  8
0
 62
7
 10
132.5711340206
 20
172.6288659794
 30
0
 11
167.1711340206
 21
172.6288659794
 31
0
  0
LINE
  8
0
 62
7
 10
124.8711340206
 20
172.6288659794
 30
0
 11
132.5711340206
 21
172.6288659794
 31
0
  0
LINE
  8
0
 62
7
 10
173.8711340206
 20
172.6288659794
 30
0
 11
167.1711340206
 21
172.6288659794
 31
0
  0
LINE
  8
0
 62
7
 10
124.8711340206
 20
165.3981654349
 30
0
 11
173.8711340206
 21
165.3981654349
 31
0
  0
LINE
  8
0
 62
7
 10
173.8711340206
 20
172.6288659794
 30
0
 11
173.8711340206
 21
77.6288659794
 31
0
  0
LINE
  8
0
 62
7
 10
167.1711340206
 20
194.6288659794
 30
0
 11
167.1711340206
 21
172.6288659794
 31
0
  0
LINE
  8
DEFAULT_1
 62
2
  6
CENTER
 10
149.3711340206
 20
181.6288659794
 30
0
 11
149.3711340206
 21
202.2012677277
 31
0
  0
LINE
  8
DEFAULT_1
 62
2
  6
CENTER
 10
149.3711340206
 20
181.6288659794
 30
0
 11
149.3711340206
 21
73.207367488
 31
0
  0
LINE
  8
0
 62
7
 10
132.5711340206
 20
194.6288659794
 30
0
 11
132.5711340206
 21
172.6288659794
 31
0
  0
LINE
  8
0
 62
7
 10
124.8711340206
 20
172.6288659794
 30
0
 11
124.8711340206
 21
77.6288659794
 31
0
  0
LINE
  8
0
 62
7
 10
124.8711340206
 20
80.2673309522
 30
0
 11
173.8711340206
 21
80.2673309522
 31
0
  0
LINE
  8
0
 62
7
 10
124.8711340206
 20
77.6288659794
 30
0
 11
173.8711340206
 21
77.6288659794
 31
0
  0
LINE
  8
DEFAULT_1
 62
2
  6
CENTER
 10
62.9381030801
 20
194.6288659794
 30
0
 11
64.0381030801
 21
194.6288659794
 31
0
  0
LINE
  8
0
 62
7
 10
61.8381030801
 20
194.6288659794
 30
0
 11
49.1881030801
 21
194.6288659794
 31
0
  0
LINE
  8
DEFAULT_1
 62
2
  6
CENTER
 10
62.9381030801
 20
194.6288659794
 30
0
 11
61.8381030801
 21
194.6288659794
 31
0
  0
LINE
  8
0
 62
7
 10
76.68810308010001
 20
194.6288659794
 30
0
 11
64.0381030801
 21
194.6288659794
 31
0
  0
LINE
  8
DEFAULT_1
 62
2
  6
CENTER
 10
78.6882680369
 20
181.6288659794
 30
0
 11
41.1713894437
 21
181.6288659794
 31
0
  0
LINE
  8
0
 62
7
 10
64.0381030801
 20
172.6288659794
 30
0
 11
76.68810308010001
 21
172.6288659794
 31
0
  0
LINE
  8
0
 62
7
 10
49.1881030801
 20
172.6288659794
 30
0
 11
61.8381030801
 21
172.6288659794
 31
0
  0
LINE
  8
0
 62
7
 10
76.68810308010001
 20
172.6288659794
 30
0
 11
76.68810308010001
 21
194.6288659794
 31
0
  0
LINE
  8
0
 62
7
 10
65.91623880970001
 20
80.2673309522
 30
0
 11
76.2508176727
 21
165.3981654349
 31
0
  0
LINE
  8
0
 62
7
 10
64.0381030801
 20
172.6288659794
 30
0
 11
64.0381030801
 21
194.6288659794
 31
0
  0
LINE
  8
DEFAULT_1
 62
2
  6
CENTER
 10
62.9381030801
 20
194.6288659794
 30
0
 11
62.9381030801
 21
197.6288909794
 31
0
  0
LINE
  8
DEFAULT_1
 62
2
  6
CENTER
 10
62.9381030801
 20
194.6288659794
 30
0
 11
62.9381030801
 21
191.6288409794
 31
0
  0
LINE
  8
0
 62
7
 10
61.8381030801
 20
172.6288659794
 30
0
 11
61.8381030801
 21
194.6288659794
 31
0
  0
LINE
  8
0
 62
7
 10
49.6253884875
 20
165.3981654349
 30
0
 11
59.9599673505
 21
80.2673309522
 31
0
  0
LINE
  8
0
 62
7
 10
49.1881030801
 20
194.6288659794
 30
0
 11
49.1881030801
 21
172.6288659794
 31
0
  0
ARC
  8
0
 62
7
 10
62.9381030801
 20
80.6288659794
 30
0
 40
3
 50
186.9216337497998
 51
270
  0
ARC
  8
0
 62
7
 10
109.1881030801
 20
172.6288659794
 30
0
 40
60.00000000000001
 50
180
 51
186.9216337498
  0
ARC
  8
0
 62
7
 10
62.9381030801
 20
80.6288659794
 30
0
 40
3
 50
270
 51
353.0783662501999
  0
ARC
  8
0
 62
7
 10
16.6881030801
 20
172.6288659794
 30
0
 40
60.00000000000001
 50
353.0783662502
 51
0
  0
ARC
  8
0
 62
7
 10
62.9381030801
 20
172.6288659794
 30
0
 40
1.100000000000001
 50
180
 51
0
  0
CIRCLE
  8
0
 62
7
 10
149.3711340206
 20
181.6288659794
 30
0
 40
6.75
  0
CIRCLE
  8
0
 62
7
 10
149.3711340206
 20
181.6288659794
 30
0
 40
4.099999999999994
  0
DIMENSION
  8
1
  6
CONTINUOUS
 62
2
  2
*D0
  3
DMST_1
 10
124.8711340206
 20
205.169555184579
 30
0
 11
117.898134898699
 21
208.129555184579
 31
0
 12
0
 22
0
 32
0
 70
0
 13
132.5711340206
 23
194.6288659794
 33
0
 14
124.8711340206
 24
172.6288659794
 34
0
 53
0
  0
DIMENSION
  8
1
  6
CONTINUOUS
 62
2
  2
*D1
  3
DMST_1
 10
173.8711340206
 20
203.836992076997
 30
0
 11
181.861164062614
 21
206.796992076997
 31
0
 12
0
 22
0
 32
0
 70
0
 13
167.1711340206
 23
194.6288659794
 33
0
 14
173.8711340206
 24
172.6288659794
 34
0
 53
0
  0
DIMENSION
  8
1
  6
CONTINUOUS
 62
2
  2
*D2
  3
DMST_1
 10
173.8711340206
 20
212.387605350645
 30
0
 11
161.6211340206
 21
215.347605350645
 31
0
 12
0
 22
0
 32
0
 70
0
 13
149.3711340206
 23
181.6288659794
 33
0
 14
173.8711340206
 24
172.6288659794
 34
0
 53
0
  0
DIMENSION
  8
1
  6
CONTINUOUS
 62
2
  2
*D3
  3
DMST_1
 10
36.1169453117946
 20
194.6288659794
 30
0
 11
33.3169453117946
 21
183.6288659794
 31
0
 12
0
 22
0
 32
0
 70
0
 13
61.8381030801
 23
172.6288659794
 33
0
 14
49.1881030801
 24
194.6288659794
 34
0
 50
90
 53
0
  0
DIMENSION
  8
1
  6
CONTINUOUS
 62
2
  2
*D4
  3
DMST_1
 10
76.68810308010001
 20
205.933810488644
 30
0
 11
62.93810308010001
 21
208.893810488644
 31
0
 12
0
 22
0
 32
0
 70
0
 13
49.1881030801
 23
194.6288659794
 33
0
 14
76.68810308010001
 24
194.6288659794
 34
0
 53
0
  0
DIMENSION
  8
1
  6
CONTINUOUS
 62
2
  2
*D5
  3
DMST_1
 10
25.0176062405586
 20
77.6288659794
 30
0
 11
22.2176062405586
 21
133.268405130223
 31
0
 12
0
 22
0
 32
0
 70
0
 13
49.1881030801
 23
194.6288659794
 33
0
 14
62.9381030801
 24
77.6288659794
 34
0
 50
90
 53
0
  0
DIMENSION
  8
1
  6
CONTINUOUS
 62
2
  2
*D6
  3
DMST_1
 10
34.2218599430864
 20
278.0721649485
 30
0
 11
31.4218599430864
 21
253.5721649485
 31
0
 12
0
 22
0
 32
0
 70
0
 13
49.1881030801
 23
229.0721649485
 33
0
 14
49.1881030801
 24
278.0721649485
 34
0
 50
90
 53
0
  0
ENDSEC
  0
EOF
