0
SECTION
2
HEADER
9
$EXTMAX
10
210.0000000000
20
297.0000000000
30
0.0000000000
9
$EXTMIN
10
0.0000000000
20
0.0000000000
30
0.0000000000
9
$LIMMIN
10
0.0000000000
20
0.0000000000
9
$LIMMAX
10
210.0000000000
20
297.0000000000
9
$VIEWCTR
10
105.0000000000
20
148.5000000000
9
$VIEWSIZE
40
297.0000000000
9
$CLAYER
8
0
9
$LTSCALE
40
19.3600000000
9
$CELTYPE
6
BYLAYER
9
$DIMSCALE
40
1
9
$DIMASZ
40
3.5000000000
9
$DIMEXO
40
2.2000000000
9
$DIMDLI
40
13.3760000000
9
$DIMEXE
40
6.3360000000
9
$DIMCEN
40
3.1680000000
9
$DIMLFAC
40
1.0000000000
9
$DIMBLK
1
_FILLED
9
$DIMTXT
40
3.5000000000
9
$PDMODE
70
3
9
$PDSIZE
40
0.3125000000
0
ENDSEC
0
SECTION
2
TABLES
0
TABLE
2
LTYPE
70
6
0
LTYPE
2
BYBLOCK
70
0
3

72
65
73
0
40
0.0
0
LTYPE
2
BYLAYER
70
0
3

72
65
73
0
40
0.0
0
LTYPE
2
CONTINUOUS
70
64
3
Solid line
72
65
73
0
40
0
0
LTYPE
2
CENTER
70
64
3
____ _ ____ _ ____ _ ____ _ ____ _ ____ _ ____
72
65
73
4
40
0.6
49
0.375
49
-0.075
49
0.075
49
-0.075
0
LTYPE
2
HIDDEN
70
64
3
- - - - - - - - - - - - - - - - - - - -
72
65
73
2
40
0.2
49
0.1
49
-0.1
0
LTYPE
2
PHANTOM
70
64
3
_____ _ _ _____ _ _ _____ _ _ _____
72
65
73
6
40
0.8
49
0.45
49
-0.05
49
0.1
49
-0.05
49
0.1
49
-0.05
0
LTYPE
2
DOT
70
64
3
. . . . . . . . . . . . . . . . . . . .
72
65
73
2
40
0.2
49
0.1
49
-0.1
0
LTYPE
2
DASHED
70
64
3
- - - - - - - - - - - - - - - - - - - -
72
65
73
2
40
0.2
49
0.1
49
-0.1
0
ENDTAB
0
TABLE
2
LAYER
70
36
0
LAYER
2
0
70
0
62
7
6
CONTINUOUS
0
LAYER
2
DEFAULT_1
70
0
62
7
6
CENTER
0
LAYER
2
DEFAULT_2
70
0
62
8
6
HIDDEN
0
LAYER
2
DEFAULT_3
70
0
62
7
6
PHANTOM
0
LAYER
2
_2D_DELETED_OBJS
70
0
62
7
6
CONTINUOUS
0
LAYER
2
_BLACK_HOLE
70
0
62
7
6
CONTINUOUS
0
LAYER
2
ASSI
70
0
62
7
6
CONTINUOUS
0
LAYER
2
PIANI
70
0
62
7
6
CONTINUOUS
0
LAYER
2
SURF_FILETTI
70
0
62
7
6
CONTINUOUS
0
ENDTAB
0
TABLE
2
STYLE
70
1
0
STYLE
2
STANDARD
70
0
40
0.0
41
0.7143000000
50
0.0
71
0
42
0.2
3
txt
4

0
ENDTAB
0
ENDSEC
0
SECTION
2
BLOCKS
0
BLOCK
8
0
62
2
6
CONTINUOUS
2
*D0
70
65
10
0.0000000000
20
0.0000000000
0
TEXT
8
0
62
2
6
CONTINUOUS
10
13.8850206905
20
242.2594279411
7
STANDARD
40
3.5000000000
1
%%c
41
1.3333333333
72
0
0
TEXT
8
0
62
2
6
CONTINUOUS
10
18.5516873572
20
242.2594279411
7
STANDARD
40
3.5000000000
1
11.5
41
0.7143000000
72
0
0
LINE
8
0
62
2
6
CONTINUOUS
10
35.7389669007
20
224.0385656971
11
35.7389669007
21
242.8844279411
0
LINE
8
0
62
2
6
CONTINUOUS
10
47.2389669007
20
224.0385656971
11
47.2389669007
21
242.8844279411
0
LINE
8
0
62
2
6
CONTINUOUS
10
35.7389669007
20
241.3844279411
11
41.4889669007
21
241.3844279411
0
LINE
8
0
62
2
6
CONTINUOUS
10
41.4889669007
20
241.3844279411
11
13.8850206905
21
241.3844279411
0
LINE
8
0
62
2
6
CONTINUOUS
10
47.2389669007
20
241.3844279411
11
41.4889669007
21
241.3844279411
0
INSERT
8
0
62
2
6
CONTINUOUS
2
_FILLED
10
35.7389669007
20
241.3844279411
41
  3.500000
42
  3.500000
43
  3.500000
50
180.000000
0
INSERT
8
0
62
2
6
CONTINUOUS
2
_FILLED
10
47.2389669007
20
241.3844279411
41
  3.500000
42
  3.500000
43
  3.500000
0
ENDBLK
8
0
6
BYBLOCK
62
0
0
BLOCK
8
0
62
2
6
CONTINUOUS
2
*D1
70
65
10
0.0000000000
20
0.0000000000
0
TEXT
8
0
62
2
6
CONTINUOUS
10
194.4462175253
20
179.8586801184
7
STANDARD
40
3.5000000000
1
77.9
50
90.0000000000
41
0.7143000000
72
0
0
LINE
8
0
62
2
6
CONTINUOUS
10
180.6382299643
20
223.5385656971
11
196.8212175253
21
223.5385656971
0
LINE
8
0
62
2
6
CONTINUOUS
10
180.6382299643
20
145.6385656971
11
196.8212175253
21
145.6385656971
0
LINE
8
0
62
2
6
CONTINUOUS
10
195.3212175253
20
223.5385656971
11
195.3212175253
21
184.5885656971
0
LINE
8
0
62
2
6
CONTINUOUS
10
195.3212175253
20
145.6385656971
11
195.3212175253
21
184.5885656971
0
INSERT
8
0
62
2
6
CONTINUOUS
2
_FILLED
10
195.3212175253
20
223.5385656971
41
  3.500000
42
  3.500000
43
  3.500000
50
 90.000000
0
INSERT
8
0
62
2
6
CONTINUOUS
2
_FILLED
10
195.3212175253
20
145.6385656971
41
  3.500000
42
  3.500000
43
  3.500000
50
270.000000
0
ENDBLK
8
0
6
BYBLOCK
62
0
0
BLOCK
8
0
62
2
6
CONTINUOUS
2
*D2
70
65
10
0.0000000000
20
0.0000000000
0
TEXT
8
0
62
2
6
CONTINUOUS
10
186.5149040436
20
155.9964273767
7
STANDARD
40
3.5000000000
1
32.1
50
90.0000000000
41
0.7143000000
72
0
0
LINE
8
0
62
2
6
CONTINUOUS
10
180.1382298244
20
177.7385656971
11
188.8899040436
21
177.7385656971
0
LINE
8
0
62
2
6
CONTINUOUS
10
180.6382299643
20
145.6385656971
11
188.8899040436
21
145.6385656971
0
LINE
8
0
62
2
6
CONTINUOUS
10
187.3899040436
20
177.7385656971
11
187.3899040436
21
161.6885656971
0
LINE
8
0
62
2
6
CONTINUOUS
10
187.3899040436
20
145.6385656971
11
187.3899040436
21
161.6885656971
0
INSERT
8
0
62
2
6
CONTINUOUS
2
_FILLED
10
187.3899040436
20
177.7385656971
41
  3.500000
42
  3.500000
43
  3.500000
50
 90.000000
0
INSERT
8
0
62
2
6
CONTINUOUS
2
_FILLED
10
187.3899040436
20
145.6385656971
41
  3.500000
42
  3.500000
43
  3.500000
50
270.000000
0
ENDBLK
8
0
6
BYBLOCK
62
0
0
BLOCK
8
0
62
2
6
CONTINUOUS
2
*D3
70
65
10
0.0000000000
20
0.0000000000
0
TEXT
8
0
62
2
6
CONTINUOUS
10
186.4728243614
20
203.2725781359
7
STANDARD
40
3.5000000000
1
32.1
50
90.0000000000
41
0.7143000000
72
0
0
LINE
8
0
62
2
6
CONTINUOUS
10
180.6382299643
20
223.5385656971
11
188.8478243614
21
223.5385656971
0
LINE
8
0
62
2
6
CONTINUOUS
10
180.1382298244
20
191.4385656971
11
188.8478243614
21
191.4385656971
0
LINE
8
0
62
2
6
CONTINUOUS
10
187.3478243614
20
223.5385656971
11
187.3478243614
21
207.4885656971
0
LINE
8
0
62
2
6
CONTINUOUS
10
187.3478243614
20
191.4385656971
11
187.3478243614
21
207.4885656971
0
INSERT
8
0
62
2
6
CONTINUOUS
2
_FILLED
10
187.3478243614
20
223.5385656971
41
  3.500000
42
  3.500000
43
  3.500000
50
 90.000000
0
INSERT
8
0
62
2
6
CONTINUOUS
2
_FILLED
10
187.3478243614
20
191.4385656971
41
  3.500000
42
  3.500000
43
  3.500000
50
270.000000
0
ENDBLK
8
0
6
BYBLOCK
62
0
0
BLOCK
8
0
62
2
6
CONTINUOUS
2
*D4
70
65
10
0.0000000000
20
0.0000000000
0
TEXT
8
0
62
2
6
CONTINUOUS
10
203.7146931107
20
182.9571430622
7
STANDARD
40
3.5000000000
1
93
50
90.0000000000
41
0.7143000000
72
0
0
LINE
8
0
62
2
6
CONTINUOUS
10
176.6882299643
20
231.1885656971
11
206.0896931107
21
231.1885656971
0
LINE
8
0
62
2
6
CONTINUOUS
10
176.6882299643
20
138.1885656971
11
206.0896931107
21
138.1885656971
0
LINE
8
0
62
2
6
CONTINUOUS
10
204.5896931107
20
231.1885656971
11
204.5896931107
21
184.6885656971
0
LINE
8
0
62
2
6
CONTINUOUS
10
204.5896931107
20
138.1885656971
11
204.5896931107
21
184.6885656971
0
INSERT
8
0
62
2
6
CONTINUOUS
2
_FILLED
10
204.5896931107
20
231.1885656971
41
  3.500000
42
  3.500000
43
  3.500000
50
 90.000000
0
INSERT
8
0
62
2
6
CONTINUOUS
2
_FILLED
10
204.5896931107
20
138.1885656971
41
  3.500000
42
  3.500000
43
  3.500000
50
270.000000
0
ENDBLK
8
0
6
BYBLOCK
62
0
0
BLOCK
8
0
62
2
6
CONTINUOUS
2
*D5
70
65
10
0.0000000000
20
0.0000000000
0
TEXT
8
0
62
2
6
CONTINUOUS
10
133.4435931219
20
243.8562209950
7
STANDARD
40
3.5000000000
1
12.1
41
0.7143000000
72
0
0
LINE
8
0
62
2
6
CONTINUOUS
10
114.0889669007
20
232.7385656971
11
114.0889669007
21
244.4812209950
0
LINE
8
0
62
2
6
CONTINUOUS
10
126.1889669007
20
232.7385656971
11
126.1889669007
21
244.4812209950
0
LINE
8
0
62
2
6
CONTINUOUS
10
114.0889669007
20
242.9812209950
11
120.1389669007
21
242.9812209950
0
LINE
8
0
62
2
6
CONTINUOUS
10
126.1889669007
20
242.9812209950
11
120.1389669007
21
242.9812209950
0
LINE
8
0
62
2
6
CONTINUOUS
10
120.1389669007
20
242.9812209950
11
143.4437931219
21
242.9812209950
0
INSERT
8
0
62
2
6
CONTINUOUS
2
_FILLED
10
114.0889669007
20
242.9812209950
41
  3.500000
42
  3.500000
43
  3.500000
50
180.000000
0
INSERT
8
0
62
2
6
CONTINUOUS
2
_FILLED
10
126.1889669007
20
242.9812209950
41
  3.500000
42
  3.500000
43
  3.500000
0
ENDBLK
8
0
6
BYBLOCK
62
0
0
BLOCK
8
0
62
2
6
CONTINUOUS
2
*D6
70
65
10
0.0000000000
20
0.0000000000
0
TEXT
8
0
62
2
6
CONTINUOUS
10
167.1373441315
20
239.2963159371
7
STANDARD
40
3.5000000000
1
15.9
41
0.7143000000
72
0
0
LINE
8
0
62
2
6
CONTINUOUS
10
164.1977780597
20
226.6885656971
11
164.1977780597
21
239.9213159371
0
LINE
8
0
62
2
6
CONTINUOUS
10
180.1382299643
20
224.0385656971
11
180.1382299643
21
239.9213159371
0
LINE
8
0
62
2
6
CONTINUOUS
10
164.1977780597
20
238.4213159371
11
172.1680040120
21
238.4213159371
0
LINE
8
0
62
2
6
CONTINUOUS
10
180.1382299643
20
238.4213159371
11
172.1680040120
21
238.4213159371
0
INSERT
8
0
62
2
6
CONTINUOUS
2
_FILLED
10
164.1977780597
20
238.4213159371
41
  3.500000
42
  3.500000
43
  3.500000
50
180.000000
0
INSERT
8
0
62
2
6
CONTINUOUS
2
_FILLED
10
180.1382299643
20
238.4213159371
41
  3.500000
42
  3.500000
43
  3.500000
0
ENDBLK
8
0
6
BYBLOCK
62
0
0
BLOCK
8
0
62
2
6
CONTINUOUS
2
*D7
70
65
10
0.0000000000
20
0.0000000000
0
TEXT
8
0
62
2
6
CONTINUOUS
10
166.5128311185
20
251.0579776823
7
STANDARD
40
3.5000000000
1
24.9
41
0.7143000000
72
0
0
LINE
8
0
62
2
6
CONTINUOUS
10
155.1977780597
20
193.7453177331
11
155.1977780597
21
251.6829776823
0
LINE
8
0
62
2
6
CONTINUOUS
10
180.1382299643
20
224.0385656971
11
180.1382299643
21
251.6829776823
0
LINE
8
0
62
2
6
CONTINUOUS
10
155.1977780597
20
250.1829776823
11
167.6680040120
21
250.1829776823
0
LINE
8
0
62
2
6
CONTINUOUS
10
180.1382299643
20
250.1829776823
11
167.6680040120
21
250.1829776823
0
INSERT
8
0
62
2
6
CONTINUOUS
2
_FILLED
10
155.1977780597
20
250.1829776823
41
  3.500000
42
  3.500000
43
  3.500000
50
180.000000
0
INSERT
8
0
62
2
6
CONTINUOUS
2
_FILLED
10
180.1382299643
20
250.1829776823
41
  3.500000
42
  3.500000
43
  3.500000
0
ENDBLK
8
0
6
BYBLOCK
62
0
0
BLOCK
8
0
62
2
6
CONTINUOUS
2
*D8
70
65
10
0.0000000000
20
0.0000000000
0
TEXT
8
0
62
2
6
CONTINUOUS
10
147.4604401031
20
180.7415204260
7
STANDARD
40
3.5000000000
1
8.8
50
90.0000000000
41
0.7143000000
72
0
0
LINE
8
0
62
2
6
CONTINUOUS
10
154.6977780597
20
189.0885656971
11
146.8354401031
21
189.0885656971
0
LINE
8
0
62
2
6
CONTINUOUS
10
154.6977780597
20
180.2885656971
11
146.8354401031
21
180.2885656971
0
LINE
8
0
62
2
6
CONTINUOUS
10
148.3354401031
20
189.0885656971
11
148.3354401031
21
197.0885656971
0
LINE
8
0
62
2
6
CONTINUOUS
10
148.3354401031
20
197.0885656971
11
148.3354401031
21
184.6885656971
0
LINE
8
0
62
2
6
CONTINUOUS
10
148.3354401031
20
180.2885656971
11
148.3354401031
21
172.2885656971
0
LINE
8
0
62
2
6
CONTINUOUS
10
148.3354401031
20
172.2885656971
11
148.3354401031
21
184.6885656971
0
INSERT
8
0
62
2
6
CONTINUOUS
2
_FILLED
10
148.3354401031
20
189.0885656971
41
  3.500000
42
  3.500000
43
  3.500000
50
270.000000
0
INSERT
8
0
62
2
6
CONTINUOUS
2
_FILLED
10
148.3354401031
20
180.2885656971
41
  3.500000
42
  3.500000
43
  3.500000
50
 90.000000
0
ENDBLK
8
0
6
BYBLOCK
62
0
0
BLOCK
8
0
62
2
6
CONTINUOUS
2
*D9
70
65
10
0.0000000000
20
0.0000000000
0
TEXT
8
0
62
2
6
CONTINUOUS
10
139.8991320101
20
179.5217137976
7
STANDARD
40
3.5000000000
1
13.7
50
90.0000000000
41
0.7143000000
72
0
0
LINE
8
0
62
2
6
CONTINUOUS
10
157.1977780597
20
191.5385656971
11
139.2741320101
21
191.5385656971
0
LINE
8
0
62
2
6
CONTINUOUS
10
157.1977780597
20
177.8385656971
11
139.2741320101
21
177.8385656971
0
LINE
8
0
62
2
6
CONTINUOUS
10
140.7741320101
20
191.5385656971
11
140.7741320101
21
184.6885656971
0
LINE
8
0
62
2
6
CONTINUOUS
10
140.7741320101
20
177.8385656971
11
140.7741320101
21
184.6885656971
0
INSERT
8
0
62
2
6
CONTINUOUS
2
_FILLED
10
140.7741320101
20
191.5385656971
41
  3.500000
42
  3.500000
43
  3.500000
50
 90.000000
0
INSERT
8
0
62
2
6
CONTINUOUS
2
_FILLED
10
140.7741320101
20
177.8385656971
41
  3.500000
42
  3.500000
43
  3.500000
50
270.000000
0
ENDBLK
8
0
6
BYBLOCK
62
0
0
BLOCK
8
0
62
2
6
CONTINUOUS
2
*D10
70
65
10
0.0000000000
20
0.0000000000
0
TEXT
8
0
62
2
6
CONTINUOUS
10
148.7162081954
20
164.9792673881
7
STANDARD
40
3.5000000000
1
6
41
0.7143000000
72
0
0
LINE
8
0
62
2
6
CONTINUOUS
10
157.6977780597
20
177.3385656971
11
157.6977780597
21
162.6042673881
0
LINE
8
0
62
2
6
CONTINUOUS
10
163.6977780597
20
177.3385656971
11
163.6977780597
21
162.6042673881
0
LINE
8
0
62
2
6
CONTINUOUS
10
157.6977780597
20
164.1042673881
11
148.7162081954
21
164.1042673881
0
LINE
8
0
62
2
6
CONTINUOUS
10
148.7162081954
20
164.1042673881
11
160.6977780597
21
164.1042673881
0
LINE
8
0
62
2
6
CONTINUOUS
10
163.6977780597
20
164.1042673881
11
171.6977780597
21
164.1042673881
0
LINE
8
0
62
2
6
CONTINUOUS
10
171.6977780597
20
164.1042673881
11
160.6977780597
21
164.1042673881
0
INSERT
8
0
62
2
6
CONTINUOUS
2
_FILLED
10
157.6977780597
20
164.1042673881
41
  3.500000
42
  3.500000
43
  3.500000
0
INSERT
8
0
62
2
6
CONTINUOUS
2
_FILLED
10
163.6977780597
20
164.1042673881
41
  3.500000
42
  3.500000
43
  3.500000
50
180.000000
0
ENDBLK
8
0
6
BYBLOCK
62
0
0
BLOCK
8
0
2
_FILLED
70
64
10
0.0000000000
20
0.0000000000
0
SOLID
8
0
6
BYBLOCK
62
0
10
0.0000000000
20
0.0000000000
11
-1.0000000000
21
0.1857142857
12
-1.0000000000
22
-0.1857142857
13
-1.0000000000
23
-0.1857142857
0
ENDBLK
8
0
6
BYBLOCK
62
0
0
ENDSEC
0
SECTION
2
ENTITIES
0
DIMENSION
8
0
62
2
6
CONTINUOUS
2
*D0
10
47.2389669007
20
241.3844279411
11
21.2184540238
21
244.0094279411
70
128
13
35.7389669007
23
224.0385656971
14
47.2389669007
24
224.0385656971
0
DIMENSION
8
0
62
2
6
CONTINUOUS
2
*D1
10
195.3212175253
20
145.6385656971
11
192.6962175253
21
184.8587801184
70
128
13
180.6382299643
23
223.5385656971
14
180.6382299643
24
145.6385656971
50
270.000000
0
DIMENSION
8
0
62
2
6
CONTINUOUS
2
*D2
10
187.3899040436
20
145.6385656971
11
184.7649040436
21
160.9965273767
70
128
13
180.1382298244
23
177.7385656971
14
180.6382299643
24
145.6385656971
50
270.000000
0
DIMENSION
8
0
62
2
6
CONTINUOUS
2
*D3
10
187.3478243614
20
191.4385656971
11
184.7228243614
21
208.2726781359
70
128
13
180.6382299643
23
223.5385656971
14
180.1382298244
24
191.4385656971
50
270.000000
0
DIMENSION
8
0
62
2
6
CONTINUOUS
2
*D4
10
204.5896931107
20
138.1885656971
11
201.9646931107
21
185.4571930622
70
128
13
176.6882299643
23
231.1885656971
14
176.6882299643
24
138.1885656971
50
270.000000
0
DIMENSION
8
0
62
2
6
CONTINUOUS
2
*D5
10
126.1889669007
20
242.9812209950
11
138.4436931219
21
245.6062209950
70
128
13
114.0889669007
23
232.7385656971
14
126.1889669007
24
232.7385656971
0
DIMENSION
8
0
62
2
6
CONTINUOUS
2
*D6
10
180.1382299643
20
238.4213159371
11
172.1374441315
21
241.0463159371
70
128
13
164.1977780597
23
226.6885656971
14
180.1382299643
24
224.0385656971
0
DIMENSION
8
0
62
2
6
CONTINUOUS
2
*D7
10
180.1382299643
20
250.1829776823
11
171.5129311185
21
252.8079776823
70
128
13
155.1977780597
23
193.7453177331
14
180.1382299643
24
224.0385656971
0
DIMENSION
8
0
62
2
6
CONTINUOUS
2
*D8
10
148.3354401031
20
180.2885656971
11
145.7104401031
21
184.4915954260
70
128
13
154.6977780597
23
189.0885656971
14
154.6977780597
24
180.2885656971
50
270.000000
0
DIMENSION
8
0
62
2
6
CONTINUOUS
2
*D9
10
140.7741320101
20
177.8385656971
11
138.1491320101
21
184.5218137976
70
128
13
157.1977780597
23
191.5385656971
14
157.1977780597
24
177.8385656971
50
270.000000
0
DIMENSION
8
0
62
2
6
CONTINUOUS
2
*D10
10
163.6977780597
20
164.1042673881
11
149.9662331954
21
166.7292673881
70
128
13
157.6977780597
23
177.3385656971
14
163.6977780597
24
177.3385656971
0
LINE
8
0
62
7
6
CONTINUOUS
10
0.0000000000
20
0.0000000000
11
210.0000000000
21
0.0000000000
0
LINE
8
0
62
7
6
CONTINUOUS
10
0.0000000000
20
0.0000000000
11
0.0000000000
21
297.0000000000
0
LINE
8
0
62
7
6
CONTINUOUS
10
210.0000000000
20
0.0000000000
11
210.0000000000
21
297.0000000000
0
LINE
8
0
62
7
6
CONTINUOUS
10
0.0000000000
20
297.0000000000
11
210.0000000000
21
297.0000000000
0
LINE
8
0
62
7
6
CONTINUOUS
10
176.1882299643
20
138.1885656971
11
169.1977780597
21
138.1885656971
0
LINE
8
0
62
7
6
CONTINUOUS
10
171.4882299643
20
139.6885656971
11
175.4882299643
21
139.6885656971
0
LINE
8
0
62
7
6
CONTINUOUS
10
171.2431239787
20
139.7555529952
11
175.6212426662
21
139.7555529952
0
LINE
8
0
62
7
6
CONTINUOUS
10
174.8222045606
20
140.5545911009
11
171.8542553681
21
140.5545911009
0
LINE
8
0
62
7
6
CONTINUOUS
10
171.8542553681
20
143.5725402933
11
174.8222045606
21
143.5725402933
0
LINE
8
0
62
7
6
CONTINUOUS
10
168.1882299643
20
144.1885656971
11
170.4882299643
21
144.1885656971
0
LINE
8
0
62
7
6
CONTINUOUS
10
175.9882299643
20
144.1885656971
11
176.6882299643
21
144.1885656971
0
LINE
8
0
62
7
6
CONTINUOUS
10
175.6212426662
20
144.3715783990
11
171.0552172624
21
144.3715783990
0
LINE
8
0
62
7
6
CONTINUOUS
10
175.6882299643
20
144.4385656971
11
170.9882299643
21
144.4385656971
0
LINE
8
0
62
7
6
CONTINUOUS
10
172.8264761132
20
144.7060510134
11
175.9499838155
21
144.7060510134
0
LINE
8
0
62
7
6
CONTINUOUS
10
176.8882299643
20
144.9385656971
11
171.8882299643
21
144.9385656971
0
LINE
8
0
62
7
6
CONTINUOUS
10
177.1882299643
20
145.2385656971
11
171.5882299643
21
145.2385656971
0
LINE
8
0
62
7
6
CONTINUOUS
10
180.1382299643
20
145.6385656971
11
168.6382299643
21
145.6385656971
0
LINE
8
0
62
7
6
CONTINUOUS
10
174.8222045606
20
228.6225402933
11
175.6882299643
21
229.4885656971
0
LINE
8
0
62
7
6
CONTINUOUS
10
171.8542553681
20
225.6045911009
11
170.9882299643
21
224.7385656971
0
LINE
8
0
62
7
6
CONTINUOUS
10
174.8222045606
20
140.5545911009
11
175.6570010083
21
139.7197947114
0
LINE
8
0
62
7
6
CONTINUOUS
10
171.8542553681
20
143.5725402933
11
170.9882299643
21
144.4385656971
0
LINE
8
0
62
7
6
CONTINUOUS
10
155.1977780597
20
176.1318136611
11
155.1977780597
21
180.2885656971
0
LINE
8
0
62
7
6
CONTINUOUS
10
155.1977780597
20
189.0885656971
11
155.1977780597
21
193.2453177331
0
LINE
8
0
62
7
6
CONTINUOUS
10
156.1829010968
20
194.9686937078
11
163.2126550226
21
199.1084376863
0
LINE
8
0
62
7
6
CONTINUOUS
10
163.2126550226
20
170.2686937078
11
156.1829010968
21
174.4084376863
0
LINE
8
0
62
7
6
CONTINUOUS
10
157.6977780597
20
191.5385656971
11
157.6977780597
21
189.0885656971
0
LINE
8
0
62
7
6
CONTINUOUS
10
157.6977780597
20
180.2885656971
11
157.6977780597
21
177.8385656971
0
LINE
8
0
62
7
6
CONTINUOUS
10
168.6382299643
20
177.2385656971
11
180.1382299643
21
177.2385656971
0
LINE
8
0
62
7
6
CONTINUOUS
10
169.1382299643
20
177.7385656971
11
179.6382299643
21
177.7385656971
0
LINE
8
0
62
7
6
CONTINUOUS
10
157.6977780597
20
177.8385656971
11
163.6977780597
21
177.8385656971
0
LINE
8
0
62
7
6
CONTINUOUS
10
171.5882299643
20
177.9385656971
11
177.1882299643
21
177.9385656971
0
LINE
8
0
62
7
6
CONTINUOUS
10
171.8882299643
20
178.2385656971
11
176.8882299643
21
178.2385656971
0
LINE
8
0
62
7
6
CONTINUOUS
10
172.8264761132
20
178.4710803808
11
175.9499838155
21
178.4710803808
0
LINE
8
0
62
7
6
CONTINUOUS
10
163.6977780597
20
177.8385656971
11
163.6977780597
21
191.5385656971
0
LINE
8
0
62
7
6
CONTINUOUS
10
164.1977780597
20
143.1885656971
11
164.1977780597
21
168.5453177331
0
LINE
8
0
62
7
6
CONTINUOUS
10
164.1977780597
20
200.8318136611
11
164.1977780597
21
226.1885656971
0
LINE
8
0
62
7
6
CONTINUOUS
10
172.8264761132
20
224.4710803808
11
172.8882299643
21
224.7385656971
0
LINE
8
0
62
7
6
CONTINUOUS
10
170.9882299643
20
178.7385656971
11
175.6882299643
21
178.7385656971
0
LINE
8
0
62
7
6
CONTINUOUS
10
171.0552172624
20
178.8055529952
11
175.6212426662
21
178.8055529952
0
LINE
8
0
62
7
6
CONTINUOUS
10
176.6882299643
20
179.1885656971
11
175.9882299643
21
179.1885656971
0
LINE
8
0
62
7
6
CONTINUOUS
10
170.4882299643
20
179.1885656971
11
168.1882299643
21
179.1885656971
0
LINE
8
0
62
7
6
CONTINUOUS
10
171.8542553681
20
179.6045911009
11
174.8222045606
21
179.6045911009
0
LINE
8
0
62
7
6
CONTINUOUS
10
155.1977780597
20
180.2885656971
11
157.6977780597
21
180.2885656971
0
LINE
8
0
62
7
6
CONTINUOUS
10
172.8264761132
20
144.7060510134
11
172.8882299643
21
144.4385656971
0
LINE
8
0
62
7
6
CONTINUOUS
10
166.6882299643
20
223.6885656971
11
166.6882299643
21
191.6885656971
0
LINE
8
0
62
7
6
CONTINUOUS
10
166.6882299643
20
177.6885656971
11
166.6882299643
21
145.6885656971
0
LINE
8
0
62
7
6
CONTINUOUS
10
174.8222045606
20
182.6225402933
11
171.8542553681
21
182.6225402933
0
LINE
8
0
62
7
6
CONTINUOUS
10
175.6212426662
20
183.4215783990
11
171.0552172624
21
183.4215783990
0
LINE
8
0
62
7
6
CONTINUOUS
10
175.6882299643
20
183.4885656971
11
171.0910556835
21
183.4885656971
0
LINE
8
0
62
7
6
CONTINUOUS
10
175.4882299643
20
183.6885656971
11
171.4882299643
21
183.6885656971
0
LINE
8
0
62
7
6
CONTINUOUS
10
168.6382299643
20
177.2385656971
11
168.6382299643
21
145.6385656971
0
LINE
8
0
62
7
6
CONTINUOUS
10
168.6382299643
20
191.9385656971
11
168.6382299643
21
223.5385656971
0
LINE
8
0
62
7
6
CONTINUOUS
10
170.9882299643
20
229.1885656971
11
170.9882299643
21
224.7385656971
0
LINE
8
0
62
7
6
CONTINUOUS
10
170.9882299643
20
190.4385656971
11
170.9882299643
21
186.1885656971
0
LINE
8
0
62
7
6
CONTINUOUS
10
170.9882299643
20
183.1885656971
11
170.9882299643
21
178.7385656971
0
LINE
8
0
62
7
6
CONTINUOUS
10
170.9882299643
20
144.4385656971
11
170.9882299643
21
140.1885656971
0
LINE
8
0
62
7
6
CONTINUOUS
10
171.0552172624
20
229.4215783990
11
171.0552172624
21
224.8055529952
0
LINE
8
0
62
7
6
CONTINUOUS
10
171.0552172624
20
190.3715783990
11
171.0552172624
21
185.9435730125
0
LINE
8
0
62
7
6
CONTINUOUS
10
171.0552172624
20
183.4215783990
11
171.0552172624
21
178.8055529952
0
LINE
8
0
62
7
6
CONTINUOUS
10
171.0552172624
20
144.3715783990
11
171.0552172624
21
139.9435730125
0
LINE
8
0
62
7
6
CONTINUOUS
10
174.8222045606
20
189.5725402933
11
175.6882299643
21
190.4385656971
0
LINE
8
0
62
7
6
CONTINUOUS
10
171.8542553681
20
186.5545911009
11
171.1347321492
21
185.8350678819
0
LINE
8
0
62
7
6
CONTINUOUS
10
171.4882299643
20
185.6885656971
11
175.4882299643
21
185.6885656971
0
LINE
8
0
62
7
6
CONTINUOUS
10
171.2431239787
20
185.7555529952
11
175.6212426662
21
185.7555529952
0
LINE
8
0
62
7
6
CONTINUOUS
10
174.8222045606
20
186.5545911009
11
171.8542553681
21
186.5545911009
0
LINE
8
0
62
7
6
CONTINUOUS
10
174.8222045606
20
179.6045911009
11
175.6882299643
21
178.7385656971
0
LINE
8
0
62
7
6
CONTINUOUS
10
171.8542553681
20
182.6225402933
11
171.0552172624
21
183.4215783990
0
LINE
8
0
62
7
6
CONTINUOUS
10
171.5882299643
20
177.9385656971
11
171.5882299643
21
177.7385656971
0
LINE
8
0
62
7
6
CONTINUOUS
10
171.5882299643
20
145.6385656971
11
171.5882299643
21
145.2385656971
0
LINE
8
0
62
7
6
CONTINUOUS
10
171.5882299643
20
191.2385656971
11
171.5882299643
21
191.4385656971
0
LINE
8
0
62
7
6
CONTINUOUS
10
171.5882299643
20
223.5385656971
11
171.5882299643
21
223.9385656971
0
LINE
8
0
62
7
6
CONTINUOUS
10
171.8542553681
20
228.6225402933
11
171.8542553681
21
225.6045911009
0
LINE
8
0
62
7
6
CONTINUOUS
10
171.8542553681
20
182.6225402933
11
171.8542553681
21
179.6045911009
0
LINE
8
0
62
7
6
CONTINUOUS
10
171.8542553681
20
140.5545911009
11
171.8542553681
21
143.5725402933
0
LINE
8
0
62
7
6
CONTINUOUS
10
171.8542553681
20
186.5545911009
11
171.8542553681
21
189.5725402933
0
LINE
8
0
62
7
6
CONTINUOUS
10
172.8882299643
20
178.7385656971
11
172.8264761132
21
178.4710803808
0
LINE
8
0
62
7
6
CONTINUOUS
10
175.6882299643
20
189.5722705222
11
175.9499838155
21
190.7060510134
0
LINE
8
0
62
7
6
CONTINUOUS
10
174.8222045606
20
182.6225402933
11
175.6882299643
21
183.4885656971
0
LINE
8
0
62
7
6
CONTINUOUS
10
171.8542553681
20
179.6045911009
11
170.9882299643
21
178.7385656971
0
LINE
8
0
62
7
6
CONTINUOUS
10
157.6977780597
20
189.0885656971
11
155.1977780597
21
189.0885656971
0
LINE
8
0
62
7
6
CONTINUOUS
10
171.8542553681
20
189.5725402933
11
174.8222045606
21
189.5725402933
0
LINE
8
0
62
7
6
CONTINUOUS
10
168.1882299643
20
190.1885656971
11
170.4882299643
21
190.1885656971
0
LINE
8
0
62
7
6
CONTINUOUS
10
175.9882299643
20
190.1885656971
11
176.6882299643
21
190.1885656971
0
LINE
8
0
62
7
6
CONTINUOUS
10
175.6212426662
20
190.3715783990
11
171.0552172624
21
190.3715783990
0
LINE
8
0
62
7
6
CONTINUOUS
10
175.6882299643
20
190.4385656971
11
170.9882299643
21
190.4385656971
0
LINE
8
0
62
7
6
CONTINUOUS
10
175.9499838155
20
190.7060510134
11
172.8264761132
21
190.7060510134
0
LINE
8
0
62
7
6
CONTINUOUS
10
176.8882299643
20
190.9385656971
11
171.8882299643
21
190.9385656971
0
LINE
8
0
62
7
6
CONTINUOUS
10
177.1882299643
20
191.2385656971
11
171.5882299643
21
191.2385656971
0
LINE
8
0
62
7
6
CONTINUOUS
10
179.6382299643
20
191.4385656971
11
169.1382299643
21
191.4385656971
0
LINE
8
0
62
7
6
CONTINUOUS
10
174.8222045606
20
186.5545911009
11
175.6570010083
21
185.7197947114
0
LINE
8
0
62
7
6
CONTINUOUS
10
171.8542553681
20
189.5725402933
11
170.9882299643
21
190.4385656971
0
LINE
8
0
62
7
6
CONTINUOUS
10
172.8882299643
20
190.4385656971
11
172.8264761132
21
190.7060510134
0
LINE
8
0
62
7
6
CONTINUOUS
10
175.6882299643
20
179.6048608720
11
175.9499838155
21
178.4710803808
0
LINE
8
0
62
7
6
CONTINUOUS
10
174.8222045606
20
189.5725402933
11
174.8222045606
21
186.5545911009
0
LINE
8
0
62
7
6
CONTINUOUS
10
174.8222045606
20
143.5725402933
11
174.8222045606
21
140.5545911009
0
LINE
8
0
62
7
6
CONTINUOUS
10
174.8222045606
20
179.6045911009
11
174.8222045606
21
182.6225402933
0
LINE
8
0
62
7
6
CONTINUOUS
10
174.8222045606
20
225.6045911009
11
174.8222045606
21
228.6225402933
0
LINE
8
0
62
7
6
CONTINUOUS
10
175.6212426662
20
139.7555529952
11
175.6212426662
21
144.3715783990
0
LINE
8
0
62
7
6
CONTINUOUS
10
175.6212426662
20
178.8055529952
11
175.6212426662
21
183.4215783990
0
LINE
8
0
62
7
6
CONTINUOUS
10
175.6212426662
20
185.7555529952
11
175.6212426662
21
190.3715783990
0
LINE
8
0
62
7
6
CONTINUOUS
10
175.6212426662
20
224.8055529952
11
175.6212426662
21
229.4215783990
0
LINE
8
0
62
7
6
CONTINUOUS
10
175.6882299643
20
139.7312905085
11
175.6882299643
21
144.4385656971
0
LINE
8
0
62
7
6
CONTINUOUS
10
175.6882299643
20
178.7385656971
11
175.6882299643
21
183.4885656971
0
LINE
8
0
62
7
6
CONTINUOUS
10
175.6882299643
20
185.7312905085
11
175.6882299643
21
190.4385656971
0
LINE
8
0
62
7
6
CONTINUOUS
10
175.6882299643
20
224.7385656971
11
175.6882299643
21
229.4885656971
0
LINE
8
0
62
7
6
CONTINUOUS
10
175.9882299643
20
140.1885656971
11
175.9882299643
21
144.1885656971
0
LINE
8
0
62
7
6
CONTINUOUS
10
175.9882299643
20
179.1885656971
11
175.9882299643
21
183.1885656971
0
LINE
8
0
62
7
6
CONTINUOUS
10
175.9882299643
20
186.1885656971
11
175.9882299643
21
190.1885656971
0
LINE
8
0
62
7
6
CONTINUOUS
10
175.9882299643
20
225.1885656971
11
175.9882299643
21
229.1885656971
0
LINE
8
0
62
7
6
CONTINUOUS
10
177.1882299643
20
230.1885656971
11
177.1882299643
21
225.6885656971
0
LINE
8
0
62
7
6
CONTINUOUS
10
177.1882299643
20
189.6885656971
11
177.1882299643
21
179.6885656971
0
LINE
8
0
62
7
6
CONTINUOUS
10
177.1882299643
20
177.9385656971
11
177.1882299643
21
177.7385656971
0
LINE
8
0
62
7
6
CONTINUOUS
10
177.1882299643
20
145.6385656971
11
177.1882299643
21
145.2385656971
0
LINE
8
0
62
7
6
CONTINUOUS
10
177.1882299643
20
143.6885656971
11
177.1882299643
21
139.1885656971
0
LINE
8
0
62
7
6
CONTINUOUS
10
177.1882299643
20
191.2385656971
11
177.1882299643
21
191.4385656971
0
LINE
8
0
62
7
6
CONTINUOUS
10
177.1882299643
20
223.5385656971
11
177.1882299643
21
223.9385656971
0
LINE
8
0
62
7
6
CONTINUOUS
10
163.6977780597
20
191.5385656971
11
157.6977780597
21
191.5385656971
0
LINE
8
0
62
7
6
CONTINUOUS
10
180.1382299643
20
191.9385656971
11
168.6382299643
21
191.9385656971
0
LINE
8
0
62
7
6
CONTINUOUS
10
180.1382299643
20
177.2385656971
11
180.1382299643
21
145.6385656971
0
LINE
8
0
62
7
6
CONTINUOUS
10
180.1382299643
20
191.9385656971
11
180.1382299643
21
223.5385656971
0
LINE
8
0
62
7
6
CONTINUOUS
10
175.9499838155
20
144.7060510134
11
175.6882299643
21
143.5722705222
0
LINE
8
0
62
7
6
CONTINUOUS
10
175.9499838155
20
224.4710803808
11
175.6882299643
21
225.6048608719
0
LINE
8
0
62
7
6
CONTINUOUS
10
174.8222045606
20
143.5725402933
11
175.6882299643
21
144.4385656971
0
LINE
8
0
62
7
6
CONTINUOUS
10
171.8542553681
20
140.5545911009
11
171.1347321492
21
139.8350678819
0
LINE
8
0
62
7
6
CONTINUOUS
10
174.8222045606
20
225.6045911009
11
175.6882299643
21
224.7385656971
0
LINE
8
0
62
7
6
CONTINUOUS
10
171.8542553681
20
228.6225402933
11
171.0552172624
21
229.4215783990
0
LINE
8
0
62
7
6
CONTINUOUS
10
180.1382299643
20
223.5385656971
11
168.6382299643
21
223.5385656971
0
LINE
8
0
62
7
6
CONTINUOUS
10
171.5882299643
20
223.9385656971
11
177.1882299643
21
223.9385656971
0
LINE
8
0
62
7
6
CONTINUOUS
10
171.8882299643
20
224.2385656971
11
176.8882299643
21
224.2385656971
0
LINE
8
0
62
7
6
CONTINUOUS
10
175.9499838155
20
224.4710803808
11
172.8264761132
21
224.4710803808
0
LINE
8
0
62
7
6
CONTINUOUS
10
170.9882299643
20
224.7385656971
11
175.6882299643
21
224.7385656971
0
LINE
8
0
62
7
6
CONTINUOUS
10
171.0552172624
20
224.8055529952
11
175.6212426662
21
224.8055529952
0
LINE
8
0
62
7
6
CONTINUOUS
10
176.6882299643
20
225.1885656971
11
175.9882299643
21
225.1885656971
0
LINE
8
0
62
7
6
CONTINUOUS
10
170.4882299643
20
225.1885656971
11
168.1882299643
21
225.1885656971
0
LINE
8
0
62
7
6
CONTINUOUS
10
171.8542553681
20
225.6045911009
11
174.8222045606
21
225.6045911009
0
LINE
8
0
62
7
6
CONTINUOUS
10
174.8222045606
20
228.6225402933
11
171.8542553681
21
228.6225402933
0
LINE
8
0
62
7
6
CONTINUOUS
10
175.6212426662
20
229.4215783990
11
171.0552172624
21
229.4215783990
0
LINE
8
0
62
7
6
CONTINUOUS
10
175.6882299643
20
229.4885656971
11
171.0910556835
21
229.4885656971
0
LINE
8
0
62
7
6
CONTINUOUS
10
175.4882299643
20
229.6885656971
11
171.4882299643
21
229.6885656971
0
LINE
8
0
62
7
6
CONTINUOUS
10
169.1977780597
20
231.1885656971
11
176.1882299643
21
231.1885656971
0
LINE
8
0
62
7
6
CONTINUOUS
10
11.4889669007
20
228.6225402933
11
11.9889669007
21
228.9112154279
0
LINE
8
0
62
7
6
CONTINUOUS
10
11.4889669007
20
140.5545911009
11
11.9889669007
21
140.2659159663
0
LINE
8
0
62
7
6
CONTINUOUS
10
11.4889669007
20
189.5725402933
11
11.4889669007
21
186.5545911009
0
LINE
8
0
62
7
6
CONTINUOUS
10
11.4889669007
20
143.5725402933
11
11.4889669007
21
140.5545911009
0
LINE
8
0
62
7
6
CONTINUOUS
10
11.4889669007
20
179.6045911009
11
11.4889669007
21
182.6225402933
0
LINE
8
0
62
7
6
CONTINUOUS
10
11.4889669007
20
225.6045911009
11
11.4889669007
21
228.6225402933
0
LINE
8
0
62
7
6
CONTINUOUS
10
11.5389669007
20
177.2385656971
11
11.5389669007
21
145.6385656971
0
LINE
8
0
62
7
6
CONTINUOUS
10
11.5389669007
20
191.9385656971
11
11.5389669007
21
223.5385656971
0
LINE
8
0
62
7
6
CONTINUOUS
10
15.7272130541
20
224.4710804005
11
15.7889669007
21
224.7385656971
0
POLYLINE
8
0
62
7
6
CONTINUOUS
66
1
70
0
0
VERTEX
8
0
62
7
6
CONTINUOUS
10
15.9899287950
20
224.7385656971
0
VERTEX
8
0
62
7
6
CONTINUOUS
10
16.0962080630
20
225.1343189184
0
VERTEX
8
0
62
7
6
CONTINUOUS
10
16.1112619682
20
225.1885656971
0
SEQEND
0
LINE
8
0
62
7
6
CONTINUOUS
10
16.0570661307
20
144.1885656971
11
15.9899287950
21
144.4385656971
0
LINE
8
0
62
7
6
CONTINUOUS
10
15.7272130541
20
144.7060509937
11
15.7889669007
21
144.4385656971
0
LINE
8
0
62
7
6
CONTINUOUS
10
11.9889669007
20
138.1885656971
11
11.9889669007
21
145.6385656971
0
LINE
8
0
62
7
6
CONTINUOUS
10
11.9889669007
20
177.7385656971
11
11.9889669007
21
191.4532510999
0
LINE
8
0
62
7
6
CONTINUOUS
10
11.9889669007
20
223.5385656971
11
11.9889669007
21
231.1885656971
0
LINE
8
0
62
7
6
CONTINUOUS
10
12.8729414969
20
144.1885656971
11
12.8729414969
21
144.3715783990
0
LINE
8
0
62
7
6
CONTINUOUS
10
12.8729414969
20
178.8055529952
11
12.8729414969
21
179.1885656971
0
LINE
8
0
62
7
6
CONTINUOUS
10
12.8729414969
20
190.1885656971
11
12.8729414969
21
190.3715783990
0
LINE
8
0
62
7
6
CONTINUOUS
10
12.8729414969
20
224.8055529952
11
12.8729414969
21
225.1885656971
0
LINE
8
0
62
7
6
CONTINUOUS
10
13.1229414969
20
144.1885656971
11
13.1229414969
21
144.4385656971
0
LINE
8
0
62
7
6
CONTINUOUS
10
13.1229414969
20
178.7385656971
11
13.1229414969
21
179.1885656971
0
LINE
8
0
62
7
6
CONTINUOUS
10
13.1229414969
20
190.1885656971
11
13.1229414969
21
190.4385656971
0
LINE
8
0
62
7
6
CONTINUOUS
10
13.1229414969
20
224.7385656971
11
13.1229414969
21
225.1885656971
0
LINE
8
0
62
7
6
CONTINUOUS
10
14.4889669007
20
177.9385656971
11
14.4889669007
21
177.7385656971
0
LINE
8
0
62
7
6
CONTINUOUS
10
14.4889669007
20
145.6385656971
11
14.4889669007
21
145.2385656971
0
LINE
8
0
62
7
6
CONTINUOUS
10
14.4889669007
20
191.2385656971
11
14.4889669007
21
191.4385656971
0
LINE
8
0
62
7
6
CONTINUOUS
10
14.4889669007
20
223.5385656971
11
14.4889669007
21
223.9385656971
0
LINE
8
0
62
7
6
CONTINUOUS
10
20.0889669007
20
177.9385656971
11
20.0889669007
21
177.7385656971
0
LINE
8
0
62
7
6
CONTINUOUS
10
20.0889669007
20
145.6385656971
11
20.0889669007
21
145.2385656971
0
LINE
8
0
62
7
6
CONTINUOUS
10
20.0889669007
20
191.2385656971
11
20.0889669007
21
191.4385656971
0
LINE
8
0
62
7
6
CONTINUOUS
10
20.0889669007
20
223.5385656971
11
20.0889669007
21
223.9385656971
0
LINE
8
0
62
7
6
CONTINUOUS
10
15.7889669007
20
178.7385656971
11
15.7272130822
21
178.4710805222
0
LINE
8
0
62
7
6
CONTINUOUS
10
18.7889669007
20
190.4385656971
11
18.8507207192
21
190.7060508720
0
LINE
8
0
62
7
6
CONTINUOUS
10
27.8272130541
20
224.4710804005
11
27.8889669007
21
224.7385656971
0
LINE
8
0
62
7
6
CONTINUOUS
10
18.5880050064
20
190.4385656971
11
18.5208676704
21
190.1885656971
0
POLYLINE
8
0
62
7
6
CONTINUOUS
66
1
70
0
0
VERTEX
8
0
62
7
6
CONTINUOUS
10
28.0899287950
20
224.7385656971
0
VERTEX
8
0
62
7
6
CONTINUOUS
10
28.1962080630
20
225.1343189184
0
VERTEX
8
0
62
7
6
CONTINUOUS
10
28.2112619682
20
225.1885656971
0
SEQEND
0
POLYLINE
8
0
62
7
6
CONTINUOUS
66
1
70
0
0
VERTEX
8
0
62
7
6
CONTINUOUS
10
15.9899287950
20
178.7385656971
0
VERTEX
8
0
62
7
6
CONTINUOUS
10
16.0962080630
20
179.1343189184
0
VERTEX
8
0
62
7
6
CONTINUOUS
10
16.1112619682
20
179.1885656971
0
SEQEND
0
POLYLINE
8
0
62
7
6
CONTINUOUS
66
1
70
0
0
VERTEX
8
0
62
7
6
CONTINUOUS
10
18.4666718335
20
179.1885656971
0
VERTEX
8
0
62
7
6
CONTINUOUS
10
18.4817257476
20
179.1343188863
0
VERTEX
8
0
62
7
6
CONTINUOUS
10
18.5880050064
20
178.7385656971
0
SEQEND
0
LINE
8
0
62
7
6
CONTINUOUS
10
28.1570661307
20
144.1885656971
11
28.0899287950
21
144.4385656971
0
LINE
8
0
62
7
6
CONTINUOUS
10
16.0570661307
20
190.1885656971
11
15.9899287950
21
190.4385656971
0
LINE
8
0
62
7
6
CONTINUOUS
10
15.7889669007
20
190.4385656971
11
15.7272130822
21
190.7060508720
0
LINE
8
0
62
7
6
CONTINUOUS
10
18.7889669007
20
178.7385656969
11
18.8507207192
21
178.4710805222
0
LINE
8
0
62
7
6
CONTINUOUS
10
27.8272130541
20
144.7060509937
11
27.8889669007
21
144.4385656971
0
LINE
8
0
62
7
6
CONTINUOUS
10
23.0389669007
20
177.2385656971
11
23.0389669007
21
145.6385656971
0
LINE
8
0
62
7
6
CONTINUOUS
10
23.0389669007
20
191.9385656971
11
23.0389669007
21
223.5385656971
0
LINE
8
0
62
7
6
CONTINUOUS
10
23.6389669007
20
177.2385656971
11
23.6389669007
21
145.6385656971
0
LINE
8
0
62
7
6
CONTINUOUS
10
23.6389669007
20
191.9385656971
11
23.6389669007
21
223.5385656971
0
LINE
8
0
62
7
6
CONTINUOUS
10
26.5889669007
20
177.9385656971
11
26.5889669007
21
177.7385656971
0
LINE
8
0
62
7
6
CONTINUOUS
10
26.5889669007
20
145.6385656971
11
26.5889669007
21
145.2385656971
0
LINE
8
0
62
7
6
CONTINUOUS
10
26.5889669007
20
191.2385656971
11
26.5889669007
21
191.4385656971
0
LINE
8
0
62
7
6
CONTINUOUS
10
26.5889669007
20
223.5385656971
11
26.5889669007
21
223.9385656971
0
LINE
8
0
62
7
6
CONTINUOUS
10
132.4889669007
20
138.1885656971
11
11.9889669007
21
138.1885656971
0
LINE
8
0
62
7
6
CONTINUOUS
10
132.4889669007
20
139.1885656971
11
11.9889669007
21
139.1885656971
0
LINE
8
0
62
7
6
CONTINUOUS
10
18.8507207473
20
144.7060509937
11
18.7889669007
21
144.4385656971
0
LINE
8
0
62
7
6
CONTINUOUS
10
27.8889669007
20
178.7385656971
11
27.8272130822
21
178.4710805222
0
LINE
8
0
62
7
6
CONTINUOUS
10
30.8889669007
20
190.4385656971
11
30.9507207192
21
190.7060508720
0
LINE
8
0
62
7
6
CONTINUOUS
10
39.9272130541
20
224.4710804005
11
39.9889669007
21
224.7385656971
0
LINE
8
0
62
7
6
CONTINUOUS
10
30.6880050064
20
190.4385656971
11
30.6208676704
21
190.1885656971
0
LINE
8
0
62
7
6
CONTINUOUS
10
18.5880050064
20
144.4385656971
11
18.5208676704
21
144.1885656971
0
POLYLINE
8
0
62
7
6
CONTINUOUS
66
1
70
0
0
VERTEX
8
0
62
7
6
CONTINUOUS
10
40.1899287950
20
224.7385656971
0
VERTEX
8
0
62
7
6
CONTINUOUS
10
40.2962080630
20
225.1343189184
0
VERTEX
8
0
62
7
6
CONTINUOUS
10
40.3112619682
20
225.1885656971
0
SEQEND
0
POLYLINE
8
0
62
7
6
CONTINUOUS
66
1
70
0
0
VERTEX
8
0
62
7
6
CONTINUOUS
10
28.0899287950
20
178.7385656971
0
VERTEX
8
0
62
7
6
CONTINUOUS
10
28.1962080630
20
179.1343189184
0
VERTEX
8
0
62
7
6
CONTINUOUS
10
28.2112619682
20
179.1885656971
0
SEQEND
0
LINE
8
0
62
7
6
CONTINUOUS
10
132.4889669007
20
143.6885656971
11
11.9889669007
21
143.6885656971
0
LINE
8
0
62
7
6
CONTINUOUS
10
132.4889669007
20
144.1885656971
11
11.9889669007
21
144.1885656971
0
LINE
8
0
62
7
6
CONTINUOUS
10
130.3549923045
20
144.4385656971
11
127.4880050064
21
144.4385656971
0
LINE
8
0
62
7
6
CONTINUOUS
10
124.8899287950
20
144.4385656971
11
115.3880050064
21
144.4385656971
0
LINE
8
0
62
7
6
CONTINUOUS
10
112.7899287950
20
144.4385656971
11
103.2880050064
21
144.4385656971
0
LINE
8
0
62
7
6
CONTINUOUS
10
100.6899287950
20
144.4385656971
11
91.1880050064
21
144.4385656971
0
LINE
8
0
62
7
6
CONTINUOUS
10
88.5899287950
20
144.4385656971
11
79.0880050064
21
144.4385656971
0
LINE
8
0
62
7
6
CONTINUOUS
10
76.4899287950
20
144.4385656971
11
66.9880050064
21
144.4385656971
0
LINE
8
0
62
7
6
CONTINUOUS
10
64.3899287950
20
144.4385656971
11
54.8880050064
21
144.4385656971
0
LINE
8
0
62
7
6
CONTINUOUS
10
52.2899287950
20
144.4385656971
11
42.7880050064
21
144.4385656971
0
LINE
8
0
62
7
6
CONTINUOUS
10
40.1899287950
20
144.4385656971
11
30.6880050064
21
144.4385656971
0
LINE
8
0
62
7
6
CONTINUOUS
10
28.0899287950
20
144.4385656971
11
18.5880050064
21
144.4385656971
0
LINE
8
0
62
7
6
CONTINUOUS
10
15.9899287950
20
144.4385656971
11
13.1229414969
21
144.4385656971
0
POLYLINE
8
0
62
7
6
CONTINUOUS
66
1
70
0
0
VERTEX
8
0
62
7
6
CONTINUOUS
10
30.5666718335
20
179.1885656971
0
VERTEX
8
0
62
7
6
CONTINUOUS
10
30.5817257476
20
179.1343188863
0
VERTEX
8
0
62
7
6
CONTINUOUS
10
30.6880050064
20
178.7385656971
0
SEQEND
0
POLYLINE
8
0
62
7
6
CONTINUOUS
66
1
70
0
0
VERTEX
8
0
62
7
6
CONTINUOUS
10
18.4666718335
20
225.1885656971
0
VERTEX
8
0
62
7
6
CONTINUOUS
10
18.4817257476
20
225.1343188863
0
VERTEX
8
0
62
7
6
CONTINUOUS
10
18.5880050064
20
224.7385656971
0
SEQEND
0
LINE
8
0
62
7
6
CONTINUOUS
10
40.2570661307
20
144.1885656971
11
40.1899287950
21
144.4385656971
0
LINE
8
0
62
7
6
CONTINUOUS
10
28.1570661307
20
190.1885656971
11
28.0899287950
21
190.4385656971
0
LINE
8
0
62
7
6
CONTINUOUS
10
18.8507207473
20
224.4710804005
11
18.7889669007
21
224.7385656969
0
LINE
8
0
62
7
6
CONTINUOUS
10
27.8889669007
20
190.4385656971
11
27.8272130822
21
190.7060508720
0
LINE
8
0
62
7
6
CONTINUOUS
10
30.8889669007
20
178.7385656969
11
30.9507207192
21
178.4710805222
0
LINE
8
0
62
7
6
CONTINUOUS
10
39.9272130541
20
144.7060509937
11
39.9889669007
21
144.4385656971
0
LINE
8
0
62
7
6
CONTINUOUS
10
32.1889669007
20
177.9385656971
11
32.1889669007
21
177.7385656971
0
LINE
8
0
62
7
6
CONTINUOUS
10
32.1889669007
20
145.6385656971
11
32.1889669007
21
145.2385656971
0
LINE
8
0
62
7
6
CONTINUOUS
10
32.1889669007
20
191.2385656971
11
32.1889669007
21
191.4385656971
0
LINE
8
0
62
7
6
CONTINUOUS
10
32.1889669007
20
223.5385656971
11
32.1889669007
21
223.9385656971
0
LINE
8
0
62
7
6
CONTINUOUS
10
35.1389669007
20
177.2385656971
11
35.1389669007
21
145.6385656971
0
LINE
8
0
62
7
6
CONTINUOUS
10
35.1389669007
20
191.9385656971
11
35.1389669007
21
223.5385656971
0
LINE
8
0
62
7
6
CONTINUOUS
10
35.7389669007
20
177.2385656971
11
35.7389669007
21
145.6385656971
0
LINE
8
0
62
7
6
CONTINUOUS
10
35.7389669007
20
191.9385656971
11
35.7389669007
21
223.5385656971
0
LINE
8
0
62
7
6
CONTINUOUS
10
39.9272130512
20
144.7060510063
11
43.0507207502
21
144.7060510063
0
LINE
8
0
62
7
6
CONTINUOUS
10
52.0272130512
20
144.7060510063
11
55.1507207502
21
144.7060510063
0
LINE
8
0
62
7
6
CONTINUOUS
10
64.1272130512
20
144.7060510063
11
67.2507207502
21
144.7060510063
0
LINE
8
0
62
7
6
CONTINUOUS
10
76.2272130512
20
144.7060510063
11
79.3507207502
21
144.7060510063
0
LINE
8
0
62
7
6
CONTINUOUS
10
88.3272130512
20
144.7060510063
11
91.4507207502
21
144.7060510063
0
LINE
8
0
62
7
6
CONTINUOUS
10
100.4272130512
20
144.7060510063
11
103.5507207502
21
144.7060510063
0
LINE
8
0
62
7
6
CONTINUOUS
10
15.7272130512
20
144.7060510063
11
18.8507207502
21
144.7060510063
0
LINE
8
0
62
7
6
CONTINUOUS
10
27.8272130512
20
144.7060510063
11
30.9507207502
21
144.7060510063
0
LINE
8
0
62
7
6
CONTINUOUS
10
112.5272130512
20
144.7060510063
11
115.6507207502
21
144.7060510063
0
LINE
8
0
62
7
6
CONTINUOUS
10
124.6272130512
20
144.7060510063
11
127.7507207502
21
144.7060510063
0
LINE
8
0
62
7
6
CONTINUOUS
10
128.6885862369
20
144.9385656971
11
123.6889669007
21
144.9385656971
0
LINE
8
0
62
7
6
CONTINUOUS
10
116.5885862369
20
144.9385656971
11
111.5889669007
21
144.9385656971
0
LINE
8
0
62
7
6
CONTINUOUS
10
104.4885862369
20
144.9385656971
11
99.4889669007
21
144.9385656971
0
LINE
8
0
62
7
6
CONTINUOUS
10
92.3885862369
20
144.9385656971
11
87.3889669007
21
144.9385656971
0
LINE
8
0
62
7
6
CONTINUOUS
10
80.2885862369
20
144.9385656971
11
75.2889669007
21
144.9385656971
0
LINE
8
0
62
7
6
CONTINUOUS
10
68.1885862369
20
144.9385656971
11
63.1889669007
21
144.9385656971
0
LINE
8
0
62
7
6
CONTINUOUS
10
56.0885862369
20
144.9385656971
11
51.0889669007
21
144.9385656971
0
LINE
8
0
62
7
6
CONTINUOUS
10
43.9885862369
20
144.9385656971
11
38.9889669007
21
144.9385656971
0
LINE
8
0
62
7
6
CONTINUOUS
10
31.8885862369
20
144.9385656971
11
26.8889669007
21
144.9385656971
0
LINE
8
0
62
7
6
CONTINUOUS
10
19.7885862369
20
144.9385656971
11
14.7889669007
21
144.9385656971
0
LINE
8
0
62
7
6
CONTINUOUS
10
128.9889669001
20
145.2385656971
11
123.3889669012
21
145.2385656971
0
LINE
8
0
62
7
6
CONTINUOUS
10
116.8889669001
20
145.2385656971
11
111.2889669012
21
145.2385656971
0
LINE
8
0
62
7
6
CONTINUOUS
10
104.7889669001
20
145.2385656971
11
99.1889669012
21
145.2385656971
0
LINE
8
0
62
7
6
CONTINUOUS
10
92.6889669001
20
145.2385656971
11
87.0889669012
21
145.2385656971
0
LINE
8
0
62
7
6
CONTINUOUS
10
80.5889669001
20
145.2385656971
11
74.9889669012
21
145.2385656971
0
LINE
8
0
62
7
6
CONTINUOUS
10
68.4889669001
20
145.2385656971
11
62.8889669012
21
145.2385656971
0
LINE
8
0
62
7
6
CONTINUOUS
10
56.3889669001
20
145.2385656971
11
50.7889669012
21
145.2385656971
0
LINE
8
0
62
7
6
CONTINUOUS
10
44.2889669001
20
145.2385656971
11
38.6889669012
21
145.2385656971
0
LINE
8
0
62
7
6
CONTINUOUS
10
32.1889669001
20
145.2385656971
11
26.5889669012
21
145.2385656971
0
LINE
8
0
62
7
6
CONTINUOUS
10
20.0889669001
20
145.2385656971
11
14.4889669012
21
145.2385656971
0
LINE
8
0
62
7
6
CONTINUOUS
10
11.5389669007
20
145.6385656971
11
23.0389669007
21
145.6385656971
0
LINE
8
0
62
7
6
CONTINUOUS
10
23.6389669007
20
145.6385656971
11
35.1389669007
21
145.6385656971
0
LINE
8
0
62
7
6
CONTINUOUS
10
35.7389669007
20
145.6385656971
11
47.2389669007
21
145.6385656971
0
LINE
8
0
62
7
6
CONTINUOUS
10
47.8389669007
20
145.6385656971
11
59.3389669007
21
145.6385656971
0
LINE
8
0
62
7
6
CONTINUOUS
10
59.9389669007
20
145.6385656971
11
71.4389669007
21
145.6385656971
0
LINE
8
0
62
7
6
CONTINUOUS
10
72.0389669007
20
145.6385656971
11
83.5389669007
21
145.6385656971
0
LINE
8
0
62
7
6
CONTINUOUS
10
84.1389669007
20
145.6385656971
11
95.6389669007
21
145.6385656971
0
LINE
8
0
62
7
6
CONTINUOUS
10
96.2389669007
20
145.6385656971
11
107.7389669007
21
145.6385656971
0
LINE
8
0
62
7
6
CONTINUOUS
10
108.3389669007
20
145.6385656971
11
119.8389669007
21
145.6385656971
0
LINE
8
0
62
7
6
CONTINUOUS
10
120.4389669007
20
145.6385656971
11
131.9389669007
21
145.6385656971
0
LINE
8
0
62
7
6
CONTINUOUS
10
23.0389669007
20
145.6885656971
11
23.6389669007
21
145.6885656971
0
LINE
8
0
62
7
6
CONTINUOUS
10
35.1389669007
20
145.6885656971
11
35.7389669007
21
145.6885656971
0
LINE
8
0
62
7
6
CONTINUOUS
10
47.2389669007
20
145.6885656971
11
47.8389669007
21
145.6885656971
0
LINE
8
0
62
7
6
CONTINUOUS
10
59.3389669007
20
145.6885656971
11
59.9389669007
21
145.6885656971
0
LINE
8
0
62
7
6
CONTINUOUS
10
71.4389669007
20
145.6885656971
11
72.0389669007
21
145.6885656971
0
LINE
8
0
62
7
6
CONTINUOUS
10
83.5389669007
20
145.6885656971
11
84.1389669007
21
145.6885656971
0
LINE
8
0
62
7
6
CONTINUOUS
10
95.6389669007
20
145.6885656971
11
96.2389669007
21
145.6885656971
0
LINE
8
0
62
7
6
CONTINUOUS
10
107.7389669007
20
145.6885656971
11
108.3389669007
21
145.6885656971
0
LINE
8
0
62
7
6
CONTINUOUS
10
119.8389669007
20
145.6885656971
11
120.4389669007
21
145.6885656971
0
LINE
8
0
62
7
6
CONTINUOUS
10
131.9389669007
20
145.6885656971
11
132.4889669007
21
145.6885656971
0
LINE
8
0
62
7
6
CONTINUOUS
10
38.6889669007
20
177.9385656971
11
38.6889669007
21
177.7385656971
0
LINE
8
0
62
7
6
CONTINUOUS
10
38.6889669007
20
145.6385656971
11
38.6889669007
21
145.2385656971
0
LINE
8
0
62
7
6
CONTINUOUS
10
38.6889669007
20
191.2385656971
11
38.6889669007
21
191.4385656971
0
LINE
8
0
62
7
6
CONTINUOUS
10
38.6889669007
20
223.5385656971
11
38.6889669007
21
223.9385656971
0
LINE
8
0
62
7
6
CONTINUOUS
10
30.9507207473
20
144.7060509937
11
30.8889669007
21
144.4385656971
0
LINE
8
0
62
7
6
CONTINUOUS
10
39.9889669007
20
178.7385656971
11
39.9272130822
21
178.4710805222
0
LINE
8
0
62
7
6
CONTINUOUS
10
11.4889669007
20
189.5725402933
11
11.9889669007
21
189.8612154279
0
LINE
8
0
62
7
6
CONTINUOUS
10
12.5559541988
20
190.1885656971
11
12.8729414969
21
190.3715783990
0
LINE
8
0
62
7
6
CONTINUOUS
10
11.4889669007
20
179.6045911009
11
11.9889669007
21
179.3159159663
0
LINE
8
0
62
7
6
CONTINUOUS
10
12.2095440373
20
179.1885656971
11
12.8729414969
21
178.8055529952
0
LINE
8
0
62
7
6
CONTINUOUS
10
30.9507207473
20
224.4710804005
11
30.8889669007
21
224.7385656969
0
LINE
8
0
62
7
6
CONTINUOUS
10
39.9889669007
20
190.4385656971
11
39.9272130822
21
190.7060508720
0
LINE
8
0
62
7
6
CONTINUOUS
10
44.2889669007
20
177.9385656971
11
44.2889669007
21
177.7385656971
0
LINE
8
0
62
7
6
CONTINUOUS
10
44.2889669007
20
145.6385656971
11
44.2889669007
21
145.2385656971
0
LINE
8
0
62
7
6
CONTINUOUS
10
44.2889669007
20
191.2385656971
11
44.2889669007
21
191.4385656971
0
LINE
8
0
62
7
6
CONTINUOUS
10
44.2889669007
20
223.5385656971
11
44.2889669007
21
223.9385656971
0
LINE
8
0
62
7
6
CONTINUOUS
10
42.9889669007
20
190.4385656971
11
43.0507207192
21
190.7060508720
0
LINE
8
0
62
7
6
CONTINUOUS
10
52.0272130541
20
224.4710804005
11
52.0889669007
21
224.7385656971
0
LINE
8
0
62
7
6
CONTINUOUS
10
42.7880050064
20
190.4385656971
11
42.7208676704
21
190.1885656971
0
LINE
8
0
62
7
6
CONTINUOUS
10
30.6880050064
20
144.4385656971
11
30.6208676704
21
144.1885656971
0
POLYLINE
8
0
62
7
6
CONTINUOUS
66
1
70
0
0
VERTEX
8
0
62
7
6
CONTINUOUS
10
52.2899287950
20
224.7385656971
0
VERTEX
8
0
62
7
6
CONTINUOUS
10
52.3962080630
20
225.1343189184
0
VERTEX
8
0
62
7
6
CONTINUOUS
10
52.4112619682
20
225.1885656971
0
SEQEND
0
POLYLINE
8
0
62
7
6
CONTINUOUS
66
1
70
0
0
VERTEX
8
0
62
7
6
CONTINUOUS
10
40.1899287950
20
178.7385656971
0
VERTEX
8
0
62
7
6
CONTINUOUS
10
40.2962080630
20
179.1343189184
0
VERTEX
8
0
62
7
6
CONTINUOUS
10
40.3112619682
20
179.1885656971
0
SEQEND
0
LINE
8
0
62
7
6
CONTINUOUS
10
11.4889669007
20
182.6225402933
11
11.9889669007
21
182.9112154279
0
LINE
8
0
62
7
6
CONTINUOUS
10
11.4889669007
20
186.5545911009
11
11.9889669007
21
186.2659159663
0
POLYLINE
8
0
62
7
6
CONTINUOUS
66
1
70
0
0
VERTEX
8
0
62
7
6
CONTINUOUS
10
42.6666718335
20
179.1885656971
0
VERTEX
8
0
62
7
6
CONTINUOUS
10
42.6817257476
20
179.1343188863
0
VERTEX
8
0
62
7
6
CONTINUOUS
10
42.7880050064
20
178.7385656971
0
SEQEND
0
POLYLINE
8
0
62
7
6
CONTINUOUS
66
1
70
0
0
VERTEX
8
0
62
7
6
CONTINUOUS
10
30.5666718335
20
225.1885656971
0
VERTEX
8
0
62
7
6
CONTINUOUS
10
30.5817257476
20
225.1343188863
0
VERTEX
8
0
62
7
6
CONTINUOUS
10
30.6880050064
20
224.7385656971
0
SEQEND
0
LINE
8
0
62
7
6
CONTINUOUS
10
52.3570661307
20
144.1885656971
11
52.2899287950
21
144.4385656971
0
LINE
8
0
62
7
6
CONTINUOUS
10
40.2570661307
20
190.1885656971
11
40.1899287950
21
190.4385656971
0
LINE
8
0
62
7
6
CONTINUOUS
10
42.9889669007
20
178.7385656971
11
43.0507207192
21
178.4710805222
0
LINE
8
0
62
7
6
CONTINUOUS
10
52.0272130541
20
144.7060509937
11
52.0889669007
21
144.4385656971
0
LINE
8
0
62
7
6
CONTINUOUS
10
47.2389669007
20
177.2385656971
11
47.2389669007
21
145.6385656971
0
LINE
8
0
62
7
6
CONTINUOUS
10
47.2389669007
20
191.9385656971
11
47.2389669007
21
223.5385656971
0
LINE
8
0
62
7
6
CONTINUOUS
10
47.8389669007
20
177.2385656971
11
47.8389669007
21
145.6385656971
0
LINE
8
0
62
7
6
CONTINUOUS
10
47.8389669007
20
191.9385656971
11
47.8389669007
21
223.5385656971
0
LINE
8
0
62
7
6
CONTINUOUS
10
50.7889669007
20
177.9385656971
11
50.7889669007
21
177.7385656971
0
LINE
8
0
62
7
6
CONTINUOUS
10
50.7889669007
20
145.6385656971
11
50.7889669007
21
145.2385656971
0
LINE
8
0
62
7
6
CONTINUOUS
10
50.7889669007
20
191.2385656971
11
50.7889669007
21
191.4385656971
0
LINE
8
0
62
7
6
CONTINUOUS
10
50.7889669007
20
223.5385656971
11
50.7889669007
21
223.9385656971
0
LINE
8
0
62
7
6
CONTINUOUS
10
56.3889669007
20
177.9385656971
11
56.3889669007
21
177.7385656971
0
LINE
8
0
62
7
6
CONTINUOUS
10
56.3889669007
20
145.6385656971
11
56.3889669007
21
145.2385656971
0
LINE
8
0
62
7
6
CONTINUOUS
10
56.3889669007
20
191.2385656971
11
56.3889669007
21
191.4385656971
0
LINE
8
0
62
7
6
CONTINUOUS
10
56.3889669007
20
223.5385656971
11
56.3889669007
21
223.9385656971
0
LINE
8
0
62
7
6
CONTINUOUS
10
43.0507207473
20
144.7060509937
11
42.9889669007
21
144.4385656971
0
LINE
8
0
62
7
6
CONTINUOUS
10
52.0889669007
20
178.7385656971
11
52.0272130822
21
178.4710805222
0
LINE
8
0
62
7
6
CONTINUOUS
10
55.0889669007
20
190.4385656971
11
55.1507207192
21
190.7060508720
0
LINE
8
0
62
7
6
CONTINUOUS
10
64.1272130541
20
224.4710804005
11
64.1889669007
21
224.7385656971
0
LINE
8
0
62
7
6
CONTINUOUS
10
54.8880050064
20
190.4385656971
11
54.8208676704
21
190.1885656971
0
LINE
8
0
62
7
6
CONTINUOUS
10
42.7880050064
20
144.4385656971
11
42.7208676704
21
144.1885656971
0
POLYLINE
8
0
62
7
6
CONTINUOUS
66
1
70
0
0
VERTEX
8
0
62
7
6
CONTINUOUS
10
64.3899287950
20
224.7385656971
0
VERTEX
8
0
62
7
6
CONTINUOUS
10
64.4962080630
20
225.1343189184
0
VERTEX
8
0
62
7
6
CONTINUOUS
10
64.5112619682
20
225.1885656971
0
SEQEND
0
POLYLINE
8
0
62
7
6
CONTINUOUS
66
1
70
0
0
VERTEX
8
0
62
7
6
CONTINUOUS
10
52.2899287950
20
178.7385656971
0
VERTEX
8
0
62
7
6
CONTINUOUS
10
52.3962080630
20
179.1343189184
0
VERTEX
8
0
62
7
6
CONTINUOUS
10
52.4112619682
20
179.1885656971
0
SEQEND
0
POLYLINE
8
0
62
7
6
CONTINUOUS
66
1
70
0
0
VERTEX
8
0
62
7
6
CONTINUOUS
10
54.7666718335
20
179.1885656971
0
VERTEX
8
0
62
7
6
CONTINUOUS
10
54.7817257476
20
179.1343188863
0
VERTEX
8
0
62
7
6
CONTINUOUS
10
54.8880050064
20
178.7385656971
0
SEQEND
0
POLYLINE
8
0
62
7
6
CONTINUOUS
66
1
70
0
0
VERTEX
8
0
62
7
6
CONTINUOUS
10
42.6666718335
20
225.1885656971
0
VERTEX
8
0
62
7
6
CONTINUOUS
10
42.6817257476
20
225.1343188863
0
VERTEX
8
0
62
7
6
CONTINUOUS
10
42.7880050064
20
224.7385656971
0
SEQEND
0
LINE
8
0
62
7
6
CONTINUOUS
10
64.4570661307
20
144.1885656971
11
64.3899287950
21
144.4385656971
0
LINE
8
0
62
7
6
CONTINUOUS
10
52.3570661307
20
190.1885656971
11
52.2899287950
21
190.4385656971
0
LINE
8
0
62
7
6
CONTINUOUS
10
43.0507207473
20
224.4710804005
11
42.9889669007
21
224.7385656971
0
LINE
8
0
62
7
6
CONTINUOUS
10
52.0889669007
20
190.4385656971
11
52.0272130822
21
190.7060508720
0
LINE
8
0
62
7
6
CONTINUOUS
10
55.0889669007
20
178.7385656971
11
55.1507207192
21
178.4710805222
0
LINE
8
0
62
7
6
CONTINUOUS
10
64.1272130541
20
144.7060509937
11
64.1889669007
21
144.4385656971
0
LINE
8
0
62
7
6
CONTINUOUS
10
59.3389669007
20
177.2385656971
11
59.3389669007
21
145.6385656971
0
LINE
8
0
62
7
6
CONTINUOUS
10
59.3389669007
20
191.9385656971
11
59.3389669007
21
223.5385656971
0
LINE
8
0
62
7
6
CONTINUOUS
10
59.9389669007
20
177.2385656971
11
59.9389669007
21
145.6385656971
0
LINE
8
0
62
7
6
CONTINUOUS
10
59.9389669007
20
191.9385656971
11
59.9389669007
21
223.5385656971
0
LINE
8
0
62
7
6
CONTINUOUS
10
62.8889669007
20
177.9385656971
11
62.8889669007
21
177.7385656971
0
LINE
8
0
62
7
6
CONTINUOUS
10
62.8889669007
20
145.6385656971
11
62.8889669007
21
145.2385656971
0
LINE
8
0
62
7
6
CONTINUOUS
10
62.8889669007
20
191.2385656971
11
62.8889669007
21
191.4385656971
0
LINE
8
0
62
7
6
CONTINUOUS
10
62.8889669007
20
223.5385656971
11
62.8889669007
21
223.9385656971
0
LINE
8
0
62
7
6
CONTINUOUS
10
55.1507207473
20
144.7060509937
11
55.0889669007
21
144.4385656971
0
LINE
8
0
62
7
6
CONTINUOUS
10
64.1889669007
20
178.7385656971
11
64.1272130822
21
178.4710805222
0
LINE
8
0
62
7
6
CONTINUOUS
10
67.1889669007
20
190.4385656971
11
67.2507207192
21
190.7060508720
0
LINE
8
0
62
7
6
CONTINUOUS
10
76.2272130541
20
224.4710804005
11
76.2889669007
21
224.7385656971
0
LINE
8
0
62
7
6
CONTINUOUS
10
66.9880050064
20
190.4385656971
11
66.9208676704
21
190.1885656971
0
LINE
8
0
62
7
6
CONTINUOUS
10
54.8880050064
20
144.4385656971
11
54.8208676704
21
144.1885656971
0
POLYLINE
8
0
62
7
6
CONTINUOUS
66
1
70
0
0
VERTEX
8
0
62
7
6
CONTINUOUS
10
76.4899287950
20
224.7385656971
0
VERTEX
8
0
62
7
6
CONTINUOUS
10
76.5962080630
20
225.1343189184
0
VERTEX
8
0
62
7
6
CONTINUOUS
10
76.6112619682
20
225.1885656971
0
SEQEND
0
POLYLINE
8
0
62
7
6
CONTINUOUS
66
1
70
0
0
VERTEX
8
0
62
7
6
CONTINUOUS
10
64.3899287950
20
178.7385656971
0
VERTEX
8
0
62
7
6
CONTINUOUS
10
64.4962080630
20
179.1343189184
0
VERTEX
8
0
62
7
6
CONTINUOUS
10
64.5112619682
20
179.1885656971
0
SEQEND
0
LINE
8
0
62
7
6
CONTINUOUS
10
131.2683897641
20
225.1885656971
11
130.6049923045
21
224.8055529952
0
LINE
8
0
62
7
6
CONTINUOUS
10
11.5389669007
20
177.2385656971
11
23.0389669007
21
177.2385656971
0
LINE
8
0
62
7
6
CONTINUOUS
10
23.6389669007
20
177.2385656971
11
35.1389669007
21
177.2385656971
0
LINE
8
0
62
7
6
CONTINUOUS
10
35.7389669007
20
177.2385656971
11
47.2389669007
21
177.2385656971
0
LINE
8
0
62
7
6
CONTINUOUS
10
47.8389669007
20
177.2385656971
11
59.3389669007
21
177.2385656971
0
LINE
8
0
62
7
6
CONTINUOUS
10
59.9389669007
20
177.2385656971
11
71.4389669007
21
177.2385656971
0
LINE
8
0
62
7
6
CONTINUOUS
10
72.0389669007
20
177.2385656971
11
83.5389669007
21
177.2385656971
0
LINE
8
0
62
7
6
CONTINUOUS
10
84.1389669007
20
177.2385656971
11
95.6389669007
21
177.2385656971
0
LINE
8
0
62
7
6
CONTINUOUS
10
96.2389669007
20
177.2385656971
11
107.7389669007
21
177.2385656971
0
LINE
8
0
62
7
6
CONTINUOUS
10
108.3389669007
20
177.2385656971
11
119.8389669007
21
177.2385656971
0
LINE
8
0
62
7
6
CONTINUOUS
10
120.4389669007
20
177.2385656971
11
131.9389669007
21
177.2385656971
0
LINE
8
0
62
7
6
CONTINUOUS
10
22.7545200100
20
177.6885656971
11
23.9234137914
21
177.6885656971
0
LINE
8
0
62
7
6
CONTINUOUS
10
34.8545200100
20
177.6885656971
11
36.0234137914
21
177.6885656971
0
LINE
8
0
62
7
6
CONTINUOUS
10
46.9545200100
20
177.6885656971
11
48.1234137914
21
177.6885656971
0
LINE
8
0
62
7
6
CONTINUOUS
10
59.0545200100
20
177.6885656971
11
60.2234137914
21
177.6885656971
0
LINE
8
0
62
7
6
CONTINUOUS
10
71.1545200100
20
177.6885656971
11
72.3234137914
21
177.6885656971
0
LINE
8
0
62
7
6
CONTINUOUS
10
83.2545200100
20
177.6885656971
11
84.4234137914
21
177.6885656971
0
LINE
8
0
62
7
6
CONTINUOUS
10
95.3545200100
20
177.6885656971
11
96.5234137914
21
177.6885656971
0
LINE
8
0
62
7
6
CONTINUOUS
10
107.4545200100
20
177.6885656971
11
108.6234137914
21
177.6885656971
0
LINE
8
0
62
7
6
CONTINUOUS
10
119.5545200100
20
177.6885656971
11
120.7234137914
21
177.6885656971
0
LINE
8
0
62
7
6
CONTINUOUS
10
131.6545200100
20
177.6885656971
11
132.4889669007
21
177.6885656971
0
LINE
8
0
62
7
6
CONTINUOUS
10
131.4389669007
20
177.7385656971
11
120.9389669007
21
177.7385656971
0
LINE
8
0
62
7
6
CONTINUOUS
10
119.3389669007
20
177.7385656971
11
108.8389669007
21
177.7385656971
0
LINE
8
0
62
7
6
CONTINUOUS
10
107.2389669007
20
177.7385656971
11
96.7389669007
21
177.7385656971
0
LINE
8
0
62
7
6
CONTINUOUS
10
95.1389669007
20
177.7385656971
11
84.6389669007
21
177.7385656971
0
LINE
8
0
62
7
6
CONTINUOUS
10
83.0389669007
20
177.7385656971
11
72.5389669007
21
177.7385656971
0
LINE
8
0
62
7
6
CONTINUOUS
10
70.9389669007
20
177.7385656971
11
60.4389669007
21
177.7385656971
0
LINE
8
0
62
7
6
CONTINUOUS
10
58.8389669007
20
177.7385656971
11
48.3389669007
21
177.7385656971
0
LINE
8
0
62
7
6
CONTINUOUS
10
46.7389669007
20
177.7385656971
11
36.2389669007
21
177.7385656971
0
LINE
8
0
62
7
6
CONTINUOUS
10
34.6389669007
20
177.7385656971
11
24.1389669007
21
177.7385656971
0
LINE
8
0
62
7
6
CONTINUOUS
10
22.5389669007
20
177.7385656971
11
12.0389669007
21
177.7385656971
0
LINE
8
0
62
7
6
CONTINUOUS
10
14.4889669013
20
177.9385656971
11
20.0889669001
21
177.9385656971
0
LINE
8
0
62
7
6
CONTINUOUS
10
26.5889669013
20
177.9385656971
11
32.1889669001
21
177.9385656971
0
LINE
8
0
62
7
6
CONTINUOUS
10
38.6889669013
20
177.9385656971
11
44.2889669001
21
177.9385656971
0
LINE
8
0
62
7
6
CONTINUOUS
10
50.7889669013
20
177.9385656971
11
56.3889669001
21
177.9385656971
0
LINE
8
0
62
7
6
CONTINUOUS
10
62.8889669013
20
177.9385656971
11
68.4889669001
21
177.9385656971
0
LINE
8
0
62
7
6
CONTINUOUS
10
74.9889669013
20
177.9385656971
11
80.5889669001
21
177.9385656971
0
LINE
8
0
62
7
6
CONTINUOUS
10
87.0889669013
20
177.9385656971
11
92.6889669001
21
177.9385656971
0
LINE
8
0
62
7
6
CONTINUOUS
10
99.1889669013
20
177.9385656971
11
104.7889669001
21
177.9385656971
0
LINE
8
0
62
7
6
CONTINUOUS
10
111.2889669013
20
177.9385656971
11
116.8889669001
21
177.9385656971
0
LINE
8
0
62
7
6
CONTINUOUS
10
123.3889669013
20
177.9385656971
11
128.9889669001
21
177.9385656971
0
LINE
8
0
62
7
6
CONTINUOUS
10
14.7889669007
20
178.2385656971
11
19.7889669007
21
178.2385656971
0
LINE
8
0
62
7
6
CONTINUOUS
10
26.8889669007
20
178.2385656971
11
31.8885862369
21
178.2385656971
0
LINE
8
0
62
7
6
CONTINUOUS
10
38.9889669007
20
178.2385656971
11
43.9889669007
21
178.2385656971
0
LINE
8
0
62
7
6
CONTINUOUS
10
51.0889669007
20
178.2385656971
11
56.0889669007
21
178.2385656971
0
LINE
8
0
62
7
6
CONTINUOUS
10
63.1889669007
20
178.2385656971
11
68.1889669007
21
178.2385656971
0
LINE
8
0
62
7
6
CONTINUOUS
10
75.2889669007
20
178.2385656971
11
80.2889669007
21
178.2385656971
0
LINE
8
0
62
7
6
CONTINUOUS
10
87.3889669007
20
178.2385656971
11
92.3885862369
21
178.2385656971
0
LINE
8
0
62
7
6
CONTINUOUS
10
99.4889669007
20
178.2385656971
11
104.4889669007
21
178.2385656971
0
LINE
8
0
62
7
6
CONTINUOUS
10
111.5889669007
20
178.2385656971
11
116.5889669007
21
178.2385656971
0
LINE
8
0
62
7
6
CONTINUOUS
10
123.6889669007
20
178.2385656971
11
128.6885862369
21
178.2385656971
0
LINE
8
0
62
7
6
CONTINUOUS
10
64.1272130790
20
178.4710805080
11
67.2507207225
21
178.4710805080
0
LINE
8
0
62
7
6
CONTINUOUS
10
76.2272130790
20
178.4710805080
11
79.3507207225
21
178.4710805080
0
LINE
8
0
62
7
6
CONTINUOUS
10
52.0272130790
20
178.4710805080
11
55.1507207225
21
178.4710805080
0
LINE
8
0
62
7
6
CONTINUOUS
10
88.3272130790
20
178.4710805080
11
91.4507207225
21
178.4710805080
0
LINE
8
0
62
7
6
CONTINUOUS
10
39.9272130790
20
178.4710805080
11
43.0507207225
21
178.4710805080
0
LINE
8
0
62
7
6
CONTINUOUS
10
100.4272130790
20
178.4710805080
11
103.5507207225
21
178.4710805080
0
LINE
8
0
62
7
6
CONTINUOUS
10
27.8272130790
20
178.4710805080
11
30.9507207225
21
178.4710805080
0
LINE
8
0
62
7
6
CONTINUOUS
10
112.5272130790
20
178.4710805080
11
115.6507207225
21
178.4710805080
0
LINE
8
0
62
7
6
CONTINUOUS
10
15.7272130790
20
178.4710805080
11
18.8507207225
21
178.4710805080
0
LINE
8
0
62
7
6
CONTINUOUS
10
124.6272130790
20
178.4710805080
11
127.7507207225
21
178.4710805080
0
LINE
8
0
62
7
6
CONTINUOUS
10
13.1229414969
20
178.7385656971
11
15.9899287950
21
178.7385656971
0
LINE
8
0
62
7
6
CONTINUOUS
10
18.5880050064
20
178.7385656971
11
28.0899287950
21
178.7385656971
0
LINE
8
0
62
7
6
CONTINUOUS
10
30.6880050064
20
178.7385656971
11
40.1899287950
21
178.7385656971
0
LINE
8
0
62
7
6
CONTINUOUS
10
42.7880050064
20
178.7385656971
11
52.2899287950
21
178.7385656971
0
LINE
8
0
62
7
6
CONTINUOUS
10
54.8880050064
20
178.7385656971
11
64.3899287950
21
178.7385656971
0
LINE
8
0
62
7
6
CONTINUOUS
10
66.9880050064
20
178.7385656971
11
76.4899287950
21
178.7385656971
0
LINE
8
0
62
7
6
CONTINUOUS
10
79.0880050064
20
178.7385656971
11
88.5899287950
21
178.7385656971
0
LINE
8
0
62
7
6
CONTINUOUS
10
91.1880050064
20
178.7385656971
11
100.6899287950
21
178.7385656971
0
LINE
8
0
62
7
6
CONTINUOUS
10
103.2880050064
20
178.7385656971
11
112.7899287950
21
178.7385656971
0
LINE
8
0
62
7
6
CONTINUOUS
10
115.3880050064
20
178.7385656971
11
124.8899287950
21
178.7385656971
0
LINE
8
0
62
7
6
CONTINUOUS
10
127.4880050064
20
178.7385656971
11
130.3549923045
21
178.7385656971
0
LINE
8
0
62
7
6
CONTINUOUS
10
132.4889669007
20
179.1885656971
11
11.9889669007
21
179.1885656971
0
LINE
8
0
62
7
6
CONTINUOUS
10
132.4889669007
20
179.6885656971
11
11.9889669007
21
179.6885656971
0
LINE
8
0
62
7
6
CONTINUOUS
10
130.9219796026
20
144.1885656971
11
130.6049923045
21
144.3715783990
0
POLYLINE
8
0
62
7
6
CONTINUOUS
66
1
70
0
0
VERTEX
8
0
62
7
6
CONTINUOUS
10
66.8666718335
20
179.1885656971
0
VERTEX
8
0
62
7
6
CONTINUOUS
10
66.8817257476
20
179.1343188863
0
VERTEX
8
0
62
7
6
CONTINUOUS
10
66.9880050064
20
178.7385656971
0
SEQEND
0
POLYLINE
8
0
62
7
6
CONTINUOUS
66
1
70
0
0
VERTEX
8
0
62
7
6
CONTINUOUS
10
54.7666718335
20
225.1885656971
0
VERTEX
8
0
62
7
6
CONTINUOUS
10
54.7817257476
20
225.1343188863
0
VERTEX
8
0
62
7
6
CONTINUOUS
10
54.8880050064
20
224.7385656971
0
SEQEND
0
LINE
8
0
62
7
6
CONTINUOUS
10
76.5570661307
20
144.1885656971
11
76.4899287950
21
144.4385656971
0
LINE
8
0
62
7
6
CONTINUOUS
10
64.4570661307
20
190.1885656971
11
64.3899287950
21
190.4385656971
0
LINE
8
0
62
7
6
CONTINUOUS
10
55.1507207473
20
224.4710804005
11
55.0889669007
21
224.7385656971
0
LINE
8
0
62
7
6
CONTINUOUS
10
64.1889669007
20
190.4385656971
11
64.1272130822
21
190.7060508720
0
LINE
8
0
62
7
6
CONTINUOUS
10
67.1889669007
20
178.7385656971
11
67.2507207192
21
178.4710805222
0
LINE
8
0
62
7
6
CONTINUOUS
10
76.2272130541
20
144.7060509937
11
76.2889669007
21
144.4385656971
0
LINE
8
0
62
7
6
CONTINUOUS
10
68.4889669007
20
177.9385656971
11
68.4889669007
21
177.7385656971
0
LINE
8
0
62
7
6
CONTINUOUS
10
68.4889669007
20
145.6385656971
11
68.4889669007
21
145.2385656971
0
LINE
8
0
62
7
6
CONTINUOUS
10
68.4889669007
20
191.2385656971
11
68.4889669007
21
191.4385656971
0
LINE
8
0
62
7
6
CONTINUOUS
10
68.4889669007
20
223.5385656971
11
68.4889669007
21
223.9385656971
0
LINE
8
0
62
7
6
CONTINUOUS
10
71.4389669007
20
177.2385656971
11
71.4389669007
21
145.6385656971
0
LINE
8
0
62
7
6
CONTINUOUS
10
71.4389669007
20
191.9385656971
11
71.4389669007
21
223.5385656971
0
LINE
8
0
62
7
6
CONTINUOUS
10
72.0389669007
20
177.2385656971
11
72.0389669007
21
145.6385656971
0
LINE
8
0
62
7
6
CONTINUOUS
10
72.0389669007
20
191.9385656971
11
72.0389669007
21
223.5385656971
0
LINE
8
0
62
7
6
CONTINUOUS
10
74.9889669007
20
177.9385656971
11
74.9889669007
21
177.7385656971
0
LINE
8
0
62
7
6
CONTINUOUS
10
74.9889669007
20
145.6385656971
11
74.9889669007
21
145.2385656971
0
LINE
8
0
62
7
6
CONTINUOUS
10
74.9889669007
20
191.2385656971
11
74.9889669007
21
191.4385656971
0
LINE
8
0
62
7
6
CONTINUOUS
10
74.9889669007
20
223.5385656971
11
74.9889669007
21
223.9385656971
0
LINE
8
0
62
7
6
CONTINUOUS
10
67.2507207473
20
144.7060509937
11
67.1889669007
21
144.4385656971
0
LINE
8
0
62
7
6
CONTINUOUS
10
76.2889669007
20
178.7385656971
11
76.2272130822
21
178.4710805222
0
LINE
8
0
62
7
6
CONTINUOUS
10
79.0880050064
20
190.4385656971
11
79.0208676704
21
190.1885656971
0
LINE
8
0
62
7
6
CONTINUOUS
10
66.9880050064
20
144.4385656971
11
66.9208676704
21
144.1885656971
0
POLYLINE
8
0
62
7
6
CONTINUOUS
66
1
70
0
0
VERTEX
8
0
62
7
6
CONTINUOUS
10
88.5899287950
20
224.7385656971
0
VERTEX
8
0
62
7
6
CONTINUOUS
10
88.6962080630
20
225.1343189184
0
VERTEX
8
0
62
7
6
CONTINUOUS
10
88.7112619682
20
225.1885656971
0
SEQEND
0
LINE
8
0
62
7
6
CONTINUOUS
10
11.4889669007
20
143.5725402933
11
11.9889669007
21
143.8612154279
0
LINE
8
0
62
7
6
CONTINUOUS
10
12.5559541988
20
144.1885656971
11
12.8729414969
21
144.3715783990
0
LINE
8
0
62
7
6
CONTINUOUS
10
132.4889669007
20
189.6885656971
11
11.9889669007
21
189.6885656971
0
LINE
8
0
62
7
6
CONTINUOUS
10
132.4889669007
20
190.1885656971
11
11.9889669007
21
190.1885656971
0
LINE
8
0
62
7
6
CONTINUOUS
10
130.3549923045
20
190.4385656971
11
127.4880050064
21
190.4385656971
0
LINE
8
0
62
7
6
CONTINUOUS
10
124.8899287950
20
190.4385656971
11
115.3880050064
21
190.4385656971
0
LINE
8
0
62
7
6
CONTINUOUS
10
112.7899287950
20
190.4385656971
11
103.2880050064
21
190.4385656971
0
LINE
8
0
62
7
6
CONTINUOUS
10
100.6899287950
20
190.4385656971
11
91.1880050064
21
190.4385656971
0
LINE
8
0
62
7
6
CONTINUOUS
10
88.5899287950
20
190.4385656971
11
79.0880050064
21
190.4385656971
0
LINE
8
0
62
7
6
CONTINUOUS
10
76.4899287950
20
190.4385656971
11
66.9880050064
21
190.4385656971
0
LINE
8
0
62
7
6
CONTINUOUS
10
64.3899287950
20
190.4385656971
11
54.8880050064
21
190.4385656971
0
LINE
8
0
62
7
6
CONTINUOUS
10
52.2899287950
20
190.4385656971
11
42.7880050064
21
190.4385656971
0
LINE
8
0
62
7
6
CONTINUOUS
10
40.1899287950
20
190.4385656971
11
30.6880050064
21
190.4385656971
0
LINE
8
0
62
7
6
CONTINUOUS
10
28.0899287950
20
190.4385656971
11
18.5880050064
21
190.4385656971
0
LINE
8
0
62
7
6
CONTINUOUS
10
15.9899287950
20
190.4385656971
11
13.1229414969
21
190.4385656971
0
LINE
8
0
62
7
6
CONTINUOUS
10
11.4889669007
20
225.6045911009
11
11.9889669007
21
225.3159159663
0
LINE
8
0
62
7
6
CONTINUOUS
10
12.2095440373
20
225.1885656971
11
12.8729414969
21
224.8055529952
0
POLYLINE
8
0
62
7
6
CONTINUOUS
66
1
70
0
0
VERTEX
8
0
62
7
6
CONTINUOUS
10
78.9666718335
20
179.1885656971
0
VERTEX
8
0
62
7
6
CONTINUOUS
10
78.9817257476
20
179.1343188863
0
VERTEX
8
0
62
7
6
CONTINUOUS
10
79.0880050064
20
178.7385656971
0
SEQEND
0
LINE
8
0
62
7
6
CONTINUOUS
10
88.6570661307
20
144.1885656971
11
88.5899287950
21
144.4385656971
0
LINE
8
0
62
7
6
CONTINUOUS
10
67.2507207473
20
224.4710804005
11
67.1889669007
21
224.7385656971
0
LINE
8
0
62
7
6
CONTINUOUS
10
76.2889669007
20
190.4385656971
11
76.2272130822
21
190.7060508720
0
LINE
8
0
62
7
6
CONTINUOUS
10
80.5889669007
20
177.9385656971
11
80.5889669007
21
177.7385656971
0
LINE
8
0
62
7
6
CONTINUOUS
10
80.5889669007
20
145.6385656971
11
80.5889669007
21
145.2385656971
0
LINE
8
0
62
7
6
CONTINUOUS
10
80.5889669007
20
191.2385656971
11
80.5889669007
21
191.4385656971
0
LINE
8
0
62
7
6
CONTINUOUS
10
80.5889669007
20
223.5385656971
11
80.5889669007
21
223.9385656971
0
LINE
8
0
62
7
6
CONTINUOUS
10
79.2889669007
20
190.4385656971
11
79.3507207192
21
190.7060508720
0
LINE
8
0
62
7
6
CONTINUOUS
10
88.3272130541
20
224.4710804005
11
88.3889669007
21
224.7385656971
0
POLYLINE
8
0
62
7
6
CONTINUOUS
66
1
70
0
0
VERTEX
8
0
62
7
6
CONTINUOUS
10
76.4899287950
20
178.7385656971
0
VERTEX
8
0
62
7
6
CONTINUOUS
10
76.5962080630
20
179.1343189184
0
VERTEX
8
0
62
7
6
CONTINUOUS
10
76.6112619682
20
179.1885656971
0
SEQEND
0
LINE
8
0
62
7
6
CONTINUOUS
10
79.3507207225
20
190.7060508862
11
76.2272130790
21
190.7060508862
0
LINE
8
0
62
7
6
CONTINUOUS
10
67.2507207225
20
190.7060508862
11
64.1272130790
21
190.7060508862
0
LINE
8
0
62
7
6
CONTINUOUS
10
91.4507207225
20
190.7060508862
11
88.3272130790
21
190.7060508862
0
LINE
8
0
62
7
6
CONTINUOUS
10
55.1507207225
20
190.7060508862
11
52.0272130790
21
190.7060508862
0
LINE
8
0
62
7
6
CONTINUOUS
10
103.5507207225
20
190.7060508862
11
100.4272130790
21
190.7060508862
0
LINE
8
0
62
7
6
CONTINUOUS
10
43.0507207225
20
190.7060508862
11
39.9272130790
21
190.7060508862
0
LINE
8
0
62
7
6
CONTINUOUS
10
115.6507207225
20
190.7060508862
11
112.5272130790
21
190.7060508862
0
LINE
8
0
62
7
6
CONTINUOUS
10
30.9507207225
20
190.7060508862
11
27.8272130790
21
190.7060508862
0
LINE
8
0
62
7
6
CONTINUOUS
10
127.7507207225
20
190.7060508862
11
124.6272130790
21
190.7060508862
0
LINE
8
0
62
7
6
CONTINUOUS
10
18.8507207225
20
190.7060508862
11
15.7272130790
21
190.7060508862
0
LINE
8
0
62
7
6
CONTINUOUS
10
128.6885862369
20
190.9385656971
11
123.6893475645
21
190.9385656971
0
LINE
8
0
62
7
6
CONTINUOUS
10
116.5885862369
20
190.9385656971
11
111.5893475645
21
190.9385656971
0
LINE
8
0
62
7
6
CONTINUOUS
10
104.4885862369
20
190.9385656971
11
99.4893475645
21
190.9385656971
0
LINE
8
0
62
7
6
CONTINUOUS
10
92.3885862369
20
190.9385656971
11
87.3893475645
21
190.9385656971
0
LINE
8
0
62
7
6
CONTINUOUS
10
80.2885862369
20
190.9385656971
11
75.2893475645
21
190.9385656971
0
LINE
8
0
62
7
6
CONTINUOUS
10
68.1885862369
20
190.9385656971
11
63.1893475645
21
190.9385656971
0
LINE
8
0
62
7
6
CONTINUOUS
10
56.0885862369
20
190.9385656971
11
51.0893475645
21
190.9385656971
0
LINE
8
0
62
7
6
CONTINUOUS
10
43.9885862369
20
190.9385656971
11
38.9893475645
21
190.9385656971
0
LINE
8
0
62
7
6
CONTINUOUS
10
31.8885862369
20
190.9385656971
11
26.8893475645
21
190.9385656971
0
LINE
8
0
62
7
6
CONTINUOUS
10
19.7885862369
20
190.9385656971
11
14.7893475645
21
190.9385656971
0
LINE
8
0
62
7
6
CONTINUOUS
10
128.9889669001
20
191.2385656971
11
123.3889669013
21
191.2385656971
0
LINE
8
0
62
7
6
CONTINUOUS
10
116.8889669001
20
191.2385656971
11
111.2889669013
21
191.2385656971
0
LINE
8
0
62
7
6
CONTINUOUS
10
104.7889669001
20
191.2385656971
11
99.1889669013
21
191.2385656971
0
LINE
8
0
62
7
6
CONTINUOUS
10
92.6889669001
20
191.2385656971
11
87.0889669013
21
191.2385656971
0
LINE
8
0
62
7
6
CONTINUOUS
10
80.5889669001
20
191.2385656971
11
74.9889669013
21
191.2385656971
0
LINE
8
0
62
7
6
CONTINUOUS
10
68.4889669001
20
191.2385656971
11
62.8889669013
21
191.2385656971
0
LINE
8
0
62
7
6
CONTINUOUS
10
56.3889669001
20
191.2385656971
11
50.7889669013
21
191.2385656971
0
LINE
8
0
62
7
6
CONTINUOUS
10
44.2889669001
20
191.2385656971
11
38.6889669013
21
191.2385656971
0
LINE
8
0
62
7
6
CONTINUOUS
10
32.1889669001
20
191.2385656971
11
26.5889669013
21
191.2385656971
0
LINE
8
0
62
7
6
CONTINUOUS
10
20.0889669001
20
191.2385656971
11
14.4889669013
21
191.2385656971
0
LINE
8
0
62
7
6
CONTINUOUS
10
131.4388756347
20
191.4385656971
11
120.9390581667
21
191.4385656971
0
LINE
8
0
62
7
6
CONTINUOUS
10
119.3388756347
20
191.4385656971
11
108.8390581667
21
191.4385656971
0
LINE
8
0
62
7
6
CONTINUOUS
10
107.2388756347
20
191.4385656971
11
96.7390581667
21
191.4385656971
0
LINE
8
0
62
7
6
CONTINUOUS
10
95.1388756347
20
191.4385656971
11
84.6390581667
21
191.4385656971
0
LINE
8
0
62
7
6
CONTINUOUS
10
83.0388756347
20
191.4385656971
11
72.5390581667
21
191.4385656971
0
LINE
8
0
62
7
6
CONTINUOUS
10
70.9388756347
20
191.4385656971
11
60.4390581667
21
191.4385656971
0
LINE
8
0
62
7
6
CONTINUOUS
10
58.8388756347
20
191.4385656971
11
48.3390581667
21
191.4385656971
0
LINE
8
0
62
7
6
CONTINUOUS
10
46.7388756347
20
191.4385656971
11
36.2390581667
21
191.4385656971
0
LINE
8
0
62
7
6
CONTINUOUS
10
34.6388756347
20
191.4385656971
11
24.1390581667
21
191.4385656971
0
LINE
8
0
62
7
6
CONTINUOUS
10
22.5388756347
20
191.4385656971
11
12.0390581667
21
191.4385656971
0
LINE
8
0
62
7
6
CONTINUOUS
10
22.9719795452
20
191.6885656971
11
23.7059542562
21
191.6885656971
0
LINE
8
0
62
7
6
CONTINUOUS
10
35.0719795452
20
191.6885656971
11
35.8059542562
21
191.6885656971
0
LINE
8
0
62
7
6
CONTINUOUS
10
47.1719795452
20
191.6885656971
11
47.9059542562
21
191.6885656971
0
LINE
8
0
62
7
6
CONTINUOUS
10
59.2719795452
20
191.6885656971
11
60.0059542562
21
191.6885656971
0
LINE
8
0
62
7
6
CONTINUOUS
10
71.3719795452
20
191.6885656971
11
72.1059542562
21
191.6885656971
0
LINE
8
0
62
7
6
CONTINUOUS
10
83.4719795452
20
191.6885656971
11
84.2059542562
21
191.6885656971
0
LINE
8
0
62
7
6
CONTINUOUS
10
95.5719795452
20
191.6885656971
11
96.3059542562
21
191.6885656971
0
LINE
8
0
62
7
6
CONTINUOUS
10
107.6719795452
20
191.6885656971
11
108.4059542562
21
191.6885656971
0
LINE
8
0
62
7
6
CONTINUOUS
10
119.7719795452
20
191.6885656971
11
120.5059542562
21
191.6885656971
0
LINE
8
0
62
7
6
CONTINUOUS
10
131.8719795452
20
191.6885656971
11
132.4889669007
21
191.6885656971
0
LINE
8
0
62
7
6
CONTINUOUS
10
131.9389669007
20
191.9385656971
11
120.4389669007
21
191.9385656971
0
LINE
8
0
62
7
6
CONTINUOUS
10
119.8389669007
20
191.9385656971
11
108.3389669007
21
191.9385656971
0
LINE
8
0
62
7
6
CONTINUOUS
10
107.7389669007
20
191.9385656971
11
96.2389669007
21
191.9385656971
0
LINE
8
0
62
7
6
CONTINUOUS
10
95.6389669007
20
191.9385656971
11
84.1389669007
21
191.9385656971
0
LINE
8
0
62
7
6
CONTINUOUS
10
83.5389669007
20
191.9385656971
11
72.0389669007
21
191.9385656971
0
LINE
8
0
62
7
6
CONTINUOUS
10
71.4389669007
20
191.9385656971
11
59.9389669007
21
191.9385656971
0
LINE
8
0
62
7
6
CONTINUOUS
10
59.3389669007
20
191.9385656971
11
47.8389669007
21
191.9385656971
0
LINE
8
0
62
7
6
CONTINUOUS
10
47.2389669007
20
191.9385656971
11
35.7389669007
21
191.9385656971
0
LINE
8
0
62
7
6
CONTINUOUS
10
35.1389669007
20
191.9385656971
11
23.6389669007
21
191.9385656971
0
LINE
8
0
62
7
6
CONTINUOUS
10
23.0389669007
20
191.9385656971
11
11.5389669007
21
191.9385656971
0
POLYLINE
8
0
62
7
6
CONTINUOUS
66
1
70
0
0
VERTEX
8
0
62
7
6
CONTINUOUS
10
66.8666718335
20
225.1885656971
0
VERTEX
8
0
62
7
6
CONTINUOUS
10
66.8817257476
20
225.1343188863
0
VERTEX
8
0
62
7
6
CONTINUOUS
10
66.9880050064
20
224.7385656971
0
SEQEND
0
LINE
8
0
62
7
6
CONTINUOUS
10
76.5570661307
20
190.1885656971
11
76.4899287950
21
190.4385656971
0
LINE
8
0
62
7
6
CONTINUOUS
10
79.2889669007
20
178.7385656971
11
79.3507207192
21
178.4710805222
0
LINE
8
0
62
7
6
CONTINUOUS
10
88.3272130541
20
144.7060509937
11
88.3889669007
21
144.4385656971
0
LINE
8
0
62
7
6
CONTINUOUS
10
83.5389669007
20
177.2385656971
11
83.5389669007
21
145.6385656971
0
LINE
8
0
62
7
6
CONTINUOUS
10
83.5389669007
20
191.9385656971
11
83.5389669007
21
223.5385656971
0
LINE
8
0
62
7
6
CONTINUOUS
10
84.1389669007
20
177.2385656971
11
84.1389669007
21
145.6385656971
0
LINE
8
0
62
7
6
CONTINUOUS
10
84.1389669007
20
191.9385656971
11
84.1389669007
21
223.5385656971
0
LINE
8
0
62
7
6
CONTINUOUS
10
87.0889669007
20
177.9385656971
11
87.0889669007
21
177.7385656971
0
LINE
8
0
62
7
6
CONTINUOUS
10
87.0889669007
20
145.6385656971
11
87.0889669007
21
145.2385656971
0
LINE
8
0
62
7
6
CONTINUOUS
10
87.0889669007
20
191.2385656971
11
87.0889669007
21
191.4385656971
0
LINE
8
0
62
7
6
CONTINUOUS
10
87.0889669007
20
223.5385656971
11
87.0889669007
21
223.9385656971
0
LINE
8
0
62
7
6
CONTINUOUS
10
92.6889669007
20
177.9385656971
11
92.6889669007
21
177.7385656971
0
LINE
8
0
62
7
6
CONTINUOUS
10
92.6889669007
20
145.6385656971
11
92.6889669007
21
145.2385656971
0
LINE
8
0
62
7
6
CONTINUOUS
10
92.6889669007
20
191.2385656971
11
92.6889669007
21
191.4385656971
0
LINE
8
0
62
7
6
CONTINUOUS
10
92.6889669007
20
223.5385656971
11
92.6889669007
21
223.9385656971
0
LINE
8
0
62
7
6
CONTINUOUS
10
79.3507207473
20
144.7060509937
11
79.2889669007
21
144.4385656971
0
LINE
8
0
62
7
6
CONTINUOUS
10
88.3889669007
20
178.7385656971
11
88.3272130822
21
178.4710805222
0
LINE
8
0
62
7
6
CONTINUOUS
10
91.3889669007
20
190.4385656971
11
91.4507207192
21
190.7060508720
0
LINE
8
0
62
7
6
CONTINUOUS
10
100.4272130541
20
224.4710804005
11
100.4889669007
21
224.7385656971
0
LINE
8
0
62
7
6
CONTINUOUS
10
91.1880050064
20
190.4385656971
11
91.1208676704
21
190.1885656971
0
LINE
8
0
62
7
6
CONTINUOUS
10
79.0880050064
20
144.4385656971
11
79.0208676704
21
144.1885656971
0
POLYLINE
8
0
62
7
6
CONTINUOUS
66
1
70
0
0
VERTEX
8
0
62
7
6
CONTINUOUS
10
100.6899287950
20
224.7385656971
0
VERTEX
8
0
62
7
6
CONTINUOUS
10
100.7962080630
20
225.1343189184
0
VERTEX
8
0
62
7
6
CONTINUOUS
10
100.8112619682
20
225.1885656971
0
SEQEND
0
POLYLINE
8
0
62
7
6
CONTINUOUS
66
1
70
0
0
VERTEX
8
0
62
7
6
CONTINUOUS
10
88.5899287950
20
178.7385656971
0
VERTEX
8
0
62
7
6
CONTINUOUS
10
88.6962080630
20
179.1343189184
0
VERTEX
8
0
62
7
6
CONTINUOUS
10
88.7112619682
20
179.1885656971
0
SEQEND
0
POLYLINE
8
0
62
7
6
CONTINUOUS
66
1
70
0
0
VERTEX
8
0
62
7
6
CONTINUOUS
10
91.0666718335
20
179.1885656971
0
VERTEX
8
0
62
7
6
CONTINUOUS
10
91.0817257476
20
179.1343188863
0
VERTEX
8
0
62
7
6
CONTINUOUS
10
91.1880050064
20
178.7385656971
0
SEQEND
0
POLYLINE
8
0
62
7
6
CONTINUOUS
66
1
70
0
0
VERTEX
8
0
62
7
6
CONTINUOUS
10
78.9666718335
20
225.1885656971
0
VERTEX
8
0
62
7
6
CONTINUOUS
10
78.9817257476
20
225.1343188863
0
VERTEX
8
0
62
7
6
CONTINUOUS
10
79.0880050064
20
224.7385656971
0
SEQEND
0
LINE
8
0
62
7
6
CONTINUOUS
10
100.7570661307
20
144.1885656971
11
100.6899287950
21
144.4385656971
0
LINE
8
0
62
7
6
CONTINUOUS
10
88.6570661307
20
190.1885656971
11
88.5899287950
21
190.4385656971
0
LINE
8
0
62
7
6
CONTINUOUS
10
79.3507207473
20
224.4710804005
11
79.2889669007
21
224.7385656971
0
LINE
8
0
62
7
6
CONTINUOUS
10
88.3889669007
20
190.4385656971
11
88.3272130822
21
190.7060508720
0
LINE
8
0
62
7
6
CONTINUOUS
10
91.3889669007
20
178.7385656971
11
91.4507207192
21
178.4710805222
0
LINE
8
0
62
7
6
CONTINUOUS
10
100.4272130541
20
144.7060509937
11
100.4889669007
21
144.4385656971
0
LINE
8
0
62
7
6
CONTINUOUS
10
95.6389669007
20
177.2385656971
11
95.6389669007
21
145.6385656971
0
LINE
8
0
62
7
6
CONTINUOUS
10
95.6389669007
20
191.9385656971
11
95.6389669007
21
223.5385656971
0
LINE
8
0
62
7
6
CONTINUOUS
10
96.2389669007
20
177.2385656971
11
96.2389669007
21
145.6385656971
0
LINE
8
0
62
7
6
CONTINUOUS
10
96.2389669007
20
191.9385656971
11
96.2389669007
21
223.5385656971
0
LINE
8
0
62
7
6
CONTINUOUS
10
99.1889669007
20
177.9385656971
11
99.1889669007
21
177.7385656971
0
LINE
8
0
62
7
6
CONTINUOUS
10
99.1889669007
20
145.6385656971
11
99.1889669007
21
145.2385656971
0
LINE
8
0
62
7
6
CONTINUOUS
10
99.1889669007
20
191.2385656971
11
99.1889669007
21
191.4385656971
0
LINE
8
0
62
7
6
CONTINUOUS
10
99.1889669007
20
223.5385656971
11
99.1889669007
21
223.9385656971
0
LINE
8
0
62
7
6
CONTINUOUS
10
91.4507207473
20
144.7060509937
11
91.3889669007
21
144.4385656971
0
LINE
8
0
62
7
6
CONTINUOUS
10
100.4889669007
20
178.7385656971
11
100.4272130822
21
178.4710805222
0
LINE
8
0
62
7
6
CONTINUOUS
10
103.4889669007
20
190.4385656971
11
103.5507207192
21
190.7060508720
0
LINE
8
0
62
7
6
CONTINUOUS
10
112.5272130541
20
224.4710804005
11
112.5889669007
21
224.7385656971
0
LINE
8
0
62
7
6
CONTINUOUS
10
103.2880050064
20
190.4385656971
11
103.2208676704
21
190.1885656971
0
LINE
8
0
62
7
6
CONTINUOUS
10
91.1880050064
20
144.4385656971
11
91.1208676704
21
144.1885656971
0
POLYLINE
8
0
62
7
6
CONTINUOUS
66
1
70
0
0
VERTEX
8
0
62
7
6
CONTINUOUS
10
112.7899287950
20
224.7385656971
0
VERTEX
8
0
62
7
6
CONTINUOUS
10
112.8962080630
20
225.1343189184
0
VERTEX
8
0
62
7
6
CONTINUOUS
10
112.9112619682
20
225.1885656971
0
SEQEND
0
POLYLINE
8
0
62
7
6
CONTINUOUS
66
1
70
0
0
VERTEX
8
0
62
7
6
CONTINUOUS
10
100.6899287950
20
178.7385656971
0
VERTEX
8
0
62
7
6
CONTINUOUS
10
100.7962080630
20
179.1343189184
0
VERTEX
8
0
62
7
6
CONTINUOUS
10
100.8112619682
20
179.1885656971
0
SEQEND
0
POLYLINE
8
0
62
7
6
CONTINUOUS
66
1
70
0
0
VERTEX
8
0
62
7
6
CONTINUOUS
10
103.1666718335
20
179.1885656971
0
VERTEX
8
0
62
7
6
CONTINUOUS
10
103.1817257476
20
179.1343188863
0
VERTEX
8
0
62
7
6
CONTINUOUS
10
103.2880050064
20
178.7385656971
0
SEQEND
0
POLYLINE
8
0
62
7
6
CONTINUOUS
66
1
70
0
0
VERTEX
8
0
62
7
6
CONTINUOUS
10
91.0666718335
20
225.1885656971
0
VERTEX
8
0
62
7
6
CONTINUOUS
10
91.0817257476
20
225.1343188863
0
VERTEX
8
0
62
7
6
CONTINUOUS
10
91.1880050064
20
224.7385656971
0
SEQEND
0
LINE
8
0
62
7
6
CONTINUOUS
10
112.8570661307
20
144.1885656971
11
112.7899287950
21
144.4385656971
0
LINE
8
0
62
7
6
CONTINUOUS
10
100.7570661307
20
190.1885656971
11
100.6899287950
21
190.4385656971
0
LINE
8
0
62
7
6
CONTINUOUS
10
91.4507207473
20
224.4710804005
11
91.3889669007
21
224.7385656971
0
LINE
8
0
62
7
6
CONTINUOUS
10
100.4889669007
20
190.4385656971
11
100.4272130822
21
190.7060508720
0
LINE
8
0
62
7
6
CONTINUOUS
10
103.4889669007
20
178.7385656971
11
103.5507207192
21
178.4710805222
0
LINE
8
0
62
7
6
CONTINUOUS
10
112.5272130541
20
144.7060509937
11
112.5889669007
21
144.4385656972
0
LINE
8
0
62
7
6
CONTINUOUS
10
104.7889669007
20
177.9385656971
11
104.7889669007
21
177.7385656971
0
LINE
8
0
62
7
6
CONTINUOUS
10
104.7889669007
20
145.6385656971
11
104.7889669007
21
145.2385656971
0
LINE
8
0
62
7
6
CONTINUOUS
10
104.7889669007
20
191.2385656971
11
104.7889669007
21
191.4385656971
0
LINE
8
0
62
7
6
CONTINUOUS
10
104.7889669007
20
223.5385656971
11
104.7889669007
21
223.9385656971
0
LINE
8
0
62
7
6
CONTINUOUS
10
107.7389669007
20
177.2385656971
11
107.7389669007
21
145.6385656971
0
LINE
8
0
62
7
6
CONTINUOUS
10
107.7389669007
20
191.9385656971
11
107.7389669007
21
223.5385656971
0
LINE
8
0
62
7
6
CONTINUOUS
10
131.2683897641
20
179.1885656971
11
130.6049923045
21
178.8055529952
0
LINE
8
0
62
7
6
CONTINUOUS
10
130.9219796026
20
190.1885656971
11
130.6049923045
21
190.3715783990
0
LINE
8
0
62
7
6
CONTINUOUS
10
108.3389669007
20
177.2385656971
11
108.3389669007
21
145.6385656971
0
LINE
8
0
62
7
6
CONTINUOUS
10
108.3389669007
20
191.9385656971
11
108.3389669007
21
223.5385656971
0
LINE
8
0
62
7
6
CONTINUOUS
10
111.2889669007
20
177.9385656971
11
111.2889669007
21
177.7385656971
0
LINE
8
0
62
7
6
CONTINUOUS
10
111.2889669007
20
145.6385656971
11
111.2889669007
21
145.2385656971
0
LINE
8
0
62
7
6
CONTINUOUS
10
111.2889669007
20
191.2385656971
11
111.2889669007
21
191.4385656971
0
LINE
8
0
62
7
6
CONTINUOUS
10
111.2889669007
20
223.5385656971
11
111.2889669007
21
223.9385656971
0
LINE
8
0
62
7
6
CONTINUOUS
10
103.5507207473
20
144.7060509937
11
103.4889669007
21
144.4385656971
0
LINE
8
0
62
7
6
CONTINUOUS
10
112.5889669007
20
178.7385656971
11
112.5272130822
21
178.4710805222
0
LINE
8
0
62
7
6
CONTINUOUS
10
115.5889669007
20
190.4385656971
11
115.6507207192
21
190.7060508720
0
LINE
8
0
62
7
6
CONTINUOUS
10
115.3880050064
20
190.4385656971
11
115.3208676704
21
190.1885656971
0
LINE
8
0
62
7
6
CONTINUOUS
10
103.2880050064
20
144.4385656971
11
103.2208676704
21
144.1885656971
0
POLYLINE
8
0
62
7
6
CONTINUOUS
66
1
70
0
0
VERTEX
8
0
62
7
6
CONTINUOUS
10
124.8899287950
20
224.7385656971
0
VERTEX
8
0
62
7
6
CONTINUOUS
10
124.9962080630
20
225.1343189184
0
VERTEX
8
0
62
7
6
CONTINUOUS
10
125.0112619682
20
225.1885656971
0
SEQEND
0
POLYLINE
8
0
62
7
6
CONTINUOUS
66
1
70
0
0
VERTEX
8
0
62
7
6
CONTINUOUS
10
112.7899287950
20
178.7385656971
0
VERTEX
8
0
62
7
6
CONTINUOUS
10
112.8962080630
20
179.1343189184
0
VERTEX
8
0
62
7
6
CONTINUOUS
10
112.9112619682
20
179.1885656971
0
SEQEND
0
LINE
8
0
62
7
6
CONTINUOUS
10
11.5389669007
20
223.5385656971
11
23.0389669007
21
223.5385656971
0
LINE
8
0
62
7
6
CONTINUOUS
10
23.6389669007
20
223.5385656971
11
35.1389669007
21
223.5385656971
0
LINE
8
0
62
7
6
CONTINUOUS
10
35.7389669007
20
223.5385656971
11
47.2389669007
21
223.5385656971
0
LINE
8
0
62
7
6
CONTINUOUS
10
47.8389669007
20
223.5385656971
11
59.3389669007
21
223.5385656971
0
LINE
8
0
62
7
6
CONTINUOUS
10
59.9389669007
20
223.5385656971
11
71.4389669007
21
223.5385656971
0
LINE
8
0
62
7
6
CONTINUOUS
10
72.0389669007
20
223.5385656971
11
83.5389669007
21
223.5385656971
0
LINE
8
0
62
7
6
CONTINUOUS
10
84.1389669007
20
223.5385656971
11
95.6389669007
21
223.5385656971
0
LINE
8
0
62
7
6
CONTINUOUS
10
96.2389669007
20
223.5385656971
11
107.7389669007
21
223.5385656971
0
LINE
8
0
62
7
6
CONTINUOUS
10
108.3389669007
20
223.5385656971
11
119.8389669007
21
223.5385656971
0
LINE
8
0
62
7
6
CONTINUOUS
10
120.4389669007
20
223.5385656971
11
131.9389669007
21
223.5385656971
0
LINE
8
0
62
7
6
CONTINUOUS
10
11.9889669007
20
223.6885656971
11
14.4889669007
21
223.6885656971
0
LINE
8
0
62
7
6
CONTINUOUS
10
20.0889669007
20
223.6885656971
11
26.5889669007
21
223.6885656971
0
LINE
8
0
62
7
6
CONTINUOUS
10
32.1889669007
20
223.6885656971
11
38.6889669007
21
223.6885656971
0
LINE
8
0
62
7
6
CONTINUOUS
10
44.2889669007
20
223.6885656971
11
50.7889669007
21
223.6885656971
0
LINE
8
0
62
7
6
CONTINUOUS
10
56.3889669007
20
223.6885656971
11
62.8889669007
21
223.6885656971
0
LINE
8
0
62
7
6
CONTINUOUS
10
68.4889669007
20
223.6885656971
11
74.9889669007
21
223.6885656971
0
LINE
8
0
62
7
6
CONTINUOUS
10
80.5889669007
20
223.6885656971
11
87.0889669007
21
223.6885656971
0
LINE
8
0
62
7
6
CONTINUOUS
10
92.6889669007
20
223.6885656971
11
99.1889669007
21
223.6885656971
0
LINE
8
0
62
7
6
CONTINUOUS
10
104.7889669007
20
223.6885656971
11
111.2889669007
21
223.6885656971
0
LINE
8
0
62
7
6
CONTINUOUS
10
116.8889669007
20
223.6885656971
11
123.3889669007
21
223.6885656971
0
LINE
8
0
62
7
6
CONTINUOUS
10
128.9889669007
20
223.6885656971
11
132.4889669007
21
223.6885656971
0
LINE
8
0
62
7
6
CONTINUOUS
10
14.4889669013
20
223.9385656971
11
20.0889669001
21
223.9385656971
0
LINE
8
0
62
7
6
CONTINUOUS
10
26.5889669013
20
223.9385656971
11
32.1889669001
21
223.9385656971
0
LINE
8
0
62
7
6
CONTINUOUS
10
38.6889669013
20
223.9385656971
11
44.2889669001
21
223.9385656971
0
LINE
8
0
62
7
6
CONTINUOUS
10
50.7889669013
20
223.9385656971
11
56.3889669001
21
223.9385656971
0
LINE
8
0
62
7
6
CONTINUOUS
10
62.8889669013
20
223.9385656971
11
68.4889669001
21
223.9385656971
0
LINE
8
0
62
7
6
CONTINUOUS
10
74.9889669013
20
223.9385656971
11
80.5889669001
21
223.9385656971
0
LINE
8
0
62
7
6
CONTINUOUS
10
87.0889669013
20
223.9385656971
11
92.6889669001
21
223.9385656971
0
LINE
8
0
62
7
6
CONTINUOUS
10
99.1889669013
20
223.9385656971
11
104.7889669001
21
223.9385656971
0
LINE
8
0
62
7
6
CONTINUOUS
10
111.2889669013
20
223.9385656971
11
116.8889669001
21
223.9385656971
0
LINE
8
0
62
7
6
CONTINUOUS
10
123.3889669013
20
223.9385656971
11
128.9889669001
21
223.9385656971
0
LINE
8
0
62
7
6
CONTINUOUS
10
14.7889669007
20
224.2385656971
11
19.7889669007
21
224.2385656971
0
LINE
8
0
62
7
6
CONTINUOUS
10
26.8889669007
20
224.2385656971
11
31.8885862369
21
224.2385656971
0
LINE
8
0
62
7
6
CONTINUOUS
10
38.9889669007
20
224.2385656971
11
43.9889669007
21
224.2385656971
0
LINE
8
0
62
7
6
CONTINUOUS
10
51.0889669007
20
224.2385656971
11
56.0889669007
21
224.2385656971
0
LINE
8
0
62
7
6
CONTINUOUS
10
63.1889669007
20
224.2385656971
11
68.1889669007
21
224.2385656971
0
LINE
8
0
62
7
6
CONTINUOUS
10
75.2889669007
20
224.2385656971
11
80.2889669007
21
224.2385656971
0
LINE
8
0
62
7
6
CONTINUOUS
10
87.3889669007
20
224.2385656971
11
92.3885862369
21
224.2385656971
0
LINE
8
0
62
7
6
CONTINUOUS
10
99.4889669007
20
224.2385656971
11
104.4889669007
21
224.2385656971
0
LINE
8
0
62
7
6
CONTINUOUS
10
111.5889669007
20
224.2385656971
11
116.5889669007
21
224.2385656971
0
LINE
8
0
62
7
6
CONTINUOUS
10
123.6889669007
20
224.2385656971
11
128.6885862369
21
224.2385656971
0
LINE
8
0
62
7
6
CONTINUOUS
10
127.7507207502
20
224.4710803879
11
124.6272130512
21
224.4710803879
0
LINE
8
0
62
7
6
CONTINUOUS
10
115.6507207502
20
224.4710803879
11
112.5272130512
21
224.4710803879
0
LINE
8
0
62
7
6
CONTINUOUS
10
103.5507207502
20
224.4710803879
11
100.4272130512
21
224.4710803879
0
LINE
8
0
62
7
6
CONTINUOUS
10
91.4507207502
20
224.4710803879
11
88.3272130512
21
224.4710803879
0
LINE
8
0
62
7
6
CONTINUOUS
10
79.3507207502
20
224.4710803879
11
76.2272130512
21
224.4710803879
0
LINE
8
0
62
7
6
CONTINUOUS
10
67.2507207502
20
224.4710803879
11
64.1272130512
21
224.4710803879
0
LINE
8
0
62
7
6
CONTINUOUS
10
55.1507207502
20
224.4710803879
11
52.0272130512
21
224.4710803879
0
LINE
8
0
62
7
6
CONTINUOUS
10
43.0507207502
20
224.4710803879
11
39.9272130512
21
224.4710803879
0
LINE
8
0
62
7
6
CONTINUOUS
10
30.9507207502
20
224.4710803879
11
27.8272130512
21
224.4710803879
0
LINE
8
0
62
7
6
CONTINUOUS
10
18.8507207502
20
224.4710803879
11
15.7272130512
21
224.4710803879
0
LINE
8
0
62
7
6
CONTINUOUS
10
13.1229414969
20
224.7385656971
11
15.9899287950
21
224.7385656971
0
LINE
8
0
62
7
6
CONTINUOUS
10
18.5880050064
20
224.7385656971
11
28.0899287950
21
224.7385656971
0
LINE
8
0
62
7
6
CONTINUOUS
10
30.6880050064
20
224.7385656971
11
40.1899287950
21
224.7385656971
0
LINE
8
0
62
7
6
CONTINUOUS
10
42.7880050064
20
224.7385656971
11
52.2899287950
21
224.7385656971
0
LINE
8
0
62
7
6
CONTINUOUS
10
54.8880050064
20
224.7385656971
11
64.3899287950
21
224.7385656971
0
LINE
8
0
62
7
6
CONTINUOUS
10
66.9880050064
20
224.7385656971
11
76.4899287950
21
224.7385656971
0
LINE
8
0
62
7
6
CONTINUOUS
10
79.0880050064
20
224.7385656971
11
88.5899287950
21
224.7385656971
0
LINE
8
0
62
7
6
CONTINUOUS
10
91.1880050064
20
224.7385656971
11
100.6899287950
21
224.7385656971
0
LINE
8
0
62
7
6
CONTINUOUS
10
103.2880050064
20
224.7385656971
11
112.7899287950
21
224.7385656971
0
LINE
8
0
62
7
6
CONTINUOUS
10
115.3880050064
20
224.7385656971
11
124.8899287950
21
224.7385656971
0
LINE
8
0
62
7
6
CONTINUOUS
10
127.4880050064
20
224.7385656971
11
130.3549923045
21
224.7385656971
0
LINE
8
0
62
7
6
CONTINUOUS
10
132.4889669007
20
225.1885656971
11
11.9889669007
21
225.1885656971
0
LINE
8
0
62
7
6
CONTINUOUS
10
132.4889669007
20
225.6885656971
11
11.9889669007
21
225.6885656971
0
POLYLINE
8
0
62
7
6
CONTINUOUS
66
1
70
0
0
VERTEX
8
0
62
7
6
CONTINUOUS
10
115.2666718335
20
179.1885656971
0
VERTEX
8
0
62
7
6
CONTINUOUS
10
115.2817257476
20
179.1343188863
0
VERTEX
8
0
62
7
6
CONTINUOUS
10
115.3880050064
20
178.7385656971
0
SEQEND
0
POLYLINE
8
0
62
7
6
CONTINUOUS
66
1
70
0
0
VERTEX
8
0
62
7
6
CONTINUOUS
10
103.1666718335
20
225.1885656971
0
VERTEX
8
0
62
7
6
CONTINUOUS
10
103.1817257476
20
225.1343188863
0
VERTEX
8
0
62
7
6
CONTINUOUS
10
103.2880050064
20
224.7385656971
0
SEQEND
0
LINE
8
0
62
7
6
CONTINUOUS
10
124.9570661307
20
144.1885656971
11
124.8899287950
21
144.4385656971
0
LINE
8
0
62
7
6
CONTINUOUS
10
112.8570661307
20
190.1885656971
11
112.7899287950
21
190.4385656971
0
LINE
8
0
62
7
6
CONTINUOUS
10
103.5507207473
20
224.4710804005
11
103.4889669007
21
224.7385656971
0
LINE
8
0
62
7
6
CONTINUOUS
10
112.5889669007
20
190.4385656972
11
112.5272130822
21
190.7060508720
0
LINE
8
0
62
7
6
CONTINUOUS
10
115.5889669007
20
178.7385656971
11
115.6507207192
21
178.4710805222
0
LINE
8
DEFAULT_1
62
2
6
CENTER
10
114.0889669007
20
136.7485356437
11
114.0889669007
21
232.2385656971
0
LINE
8
0
62
7
6
CONTINUOUS
10
116.8889669007
20
177.9385656971
11
116.8889669007
21
177.7385656971
0
LINE
8
0
62
7
6
CONTINUOUS
10
116.8889669007
20
145.6385656971
11
116.8889669007
21
145.2385656971
0
LINE
8
0
62
7
6
CONTINUOUS
10
116.8889669007
20
191.2385656971
11
116.8889669007
21
191.4385656971
0
LINE
8
0
62
7
6
CONTINUOUS
10
116.8889669007
20
223.5385656971
11
116.8889669007
21
223.9385656971
0
LINE
8
0
62
7
6
CONTINUOUS
10
124.6272130541
20
224.4710804005
11
124.6889669007
21
224.7385656971
0
LINE
8
0
62
7
6
CONTINUOUS
10
132.4889669007
20
230.1885656971
11
11.9889669007
21
230.1885656971
0
LINE
8
0
62
7
6
CONTINUOUS
10
124.6272130541
20
144.7060509937
11
124.6889669007
21
144.4385656972
0
LINE
8
0
62
7
6
CONTINUOUS
10
119.8389669007
20
177.2385656971
11
119.8389669007
21
145.6385656971
0
LINE
8
0
62
7
6
CONTINUOUS
10
119.8389669007
20
191.9385656971
11
119.8389669007
21
223.5385656971
0
LINE
8
0
62
7
6
CONTINUOUS
10
120.4389669007
20
177.2385656971
11
120.4389669007
21
145.6385656971
0
LINE
8
0
62
7
6
CONTINUOUS
10
120.4389669007
20
191.9385656971
11
120.4389669007
21
223.5385656971
0
LINE
8
0
62
7
6
CONTINUOUS
10
123.3889669007
20
177.9385656971
11
123.3889669007
21
177.7385656971
0
LINE
8
0
62
7
6
CONTINUOUS
10
123.3889669007
20
145.6385656971
11
123.3889669007
21
145.2385656971
0
LINE
8
0
62
7
6
CONTINUOUS
10
123.3889669007
20
191.2385656971
11
123.3889669007
21
191.4385656971
0
LINE
8
0
62
7
6
CONTINUOUS
10
123.3889669007
20
223.5385656971
11
123.3889669007
21
223.9385656971
0
LINE
8
0
62
7
6
CONTINUOUS
10
115.6507207473
20
144.7060509937
11
115.5889669007
21
144.4385656971
0
LINE
8
0
62
7
6
CONTINUOUS
10
132.4889669007
20
231.1885656971
11
11.9889669007
21
231.1885656971
0
LINE
8
0
62
7
6
CONTINUOUS
10
115.6507207473
20
224.4710804005
11
115.5889669007
21
224.7385656971
0
LINE
8
DEFAULT_1
62
2
6
CENTER
10
126.1889669007
20
136.0014703459
11
126.1889669007
21
232.2385656971
0
LINE
8
0
62
7
6
CONTINUOUS
10
124.6889669007
20
178.7385656971
11
124.6272130822
21
178.4710805221
0
LINE
8
0
62
7
6
CONTINUOUS
10
127.6889669007
20
190.4385656971
11
127.7507207192
21
190.7060508720
0
LINE
8
0
62
7
6
CONTINUOUS
10
127.4880050064
20
190.4385656971
11
127.4208676704
21
190.1885656971
0
LINE
8
0
62
7
6
CONTINUOUS
10
115.3880050064
20
144.4385656971
11
115.3208676704
21
144.1885656971
0
POLYLINE
8
0
62
7
6
CONTINUOUS
66
1
70
0
0
VERTEX
8
0
62
7
6
CONTINUOUS
10
124.8899287950
20
178.7385656971
0
VERTEX
8
0
62
7
6
CONTINUOUS
10
124.9962080630
20
179.1343189184
0
VERTEX
8
0
62
7
6
CONTINUOUS
10
125.0112619682
20
179.1885656971
0
SEQEND
0
POLYLINE
8
0
62
7
6
CONTINUOUS
66
1
70
0
0
VERTEX
8
0
62
7
6
CONTINUOUS
10
127.3666718335
20
179.1885656971
0
VERTEX
8
0
62
7
6
CONTINUOUS
10
127.3817257476
20
179.1343188863
0
VERTEX
8
0
62
7
6
CONTINUOUS
10
127.4880050064
20
178.7385656971
0
SEQEND
0
POLYLINE
8
0
62
7
6
CONTINUOUS
66
1
70
0
0
VERTEX
8
0
62
7
6
CONTINUOUS
10
115.2666718335
20
225.1885656971
0
VERTEX
8
0
62
7
6
CONTINUOUS
10
115.2817257476
20
225.1343188863
0
VERTEX
8
0
62
7
6
CONTINUOUS
10
115.3880050064
20
224.7385656971
0
SEQEND
0
LINE
8
0
62
7
6
CONTINUOUS
10
124.9570661307
20
190.1885656971
11
124.8899287950
21
190.4385656971
0
LINE
8
0
62
7
6
CONTINUOUS
10
124.6889669007
20
190.4385656972
11
124.6272130822
21
190.7060508720
0
LINE
8
0
62
7
6
CONTINUOUS
10
127.6889669007
20
178.7385656971
11
127.7507207192
21
178.4710805221
0
LINE
8
0
62
7
6
CONTINUOUS
10
128.9889669007
20
177.9385656971
11
128.9889669007
21
177.7385656971
0
LINE
8
0
62
7
6
CONTINUOUS
10
128.9889669007
20
145.6385656971
11
128.9889669007
21
145.2385656971
0
LINE
8
0
62
7
6
CONTINUOUS
10
128.9889669007
20
191.2385656971
11
128.9889669007
21
191.4385656971
0
LINE
8
0
62
7
6
CONTINUOUS
10
128.9889669007
20
223.5385656971
11
128.9889669007
21
223.9385656971
0
LINE
8
0
62
7
6
CONTINUOUS
10
130.3549923045
20
225.1885656971
11
130.3549923045
21
224.7385656971
0
LINE
8
0
62
7
6
CONTINUOUS
10
130.3549923045
20
190.4385656971
11
130.3549923045
21
190.1885656971
0
LINE
8
0
62
7
6
CONTINUOUS
10
130.3549923045
20
179.1885656971
11
130.3549923045
21
178.7385656971
0
LINE
8
0
62
7
6
CONTINUOUS
10
130.3549923045
20
144.4385656971
11
130.3549923045
21
144.1885656971
0
LINE
8
0
62
7
6
CONTINUOUS
10
130.6049923045
20
225.1885656971
11
130.6049923045
21
224.8055529952
0
LINE
8
0
62
7
6
CONTINUOUS
10
130.6049923045
20
190.3715783990
11
130.6049923045
21
190.1885656971
0
LINE
8
0
62
7
6
CONTINUOUS
10
130.6049923045
20
179.1885656971
11
130.6049923045
21
178.8055529952
0
LINE
8
0
62
7
6
CONTINUOUS
10
130.6049923045
20
144.3715783990
11
130.6049923045
21
144.1885656971
0
LINE
8
0
62
7
6
CONTINUOUS
10
131.9389669007
20
177.2385656971
11
131.9389669007
21
145.6385656971
0
LINE
8
0
62
7
6
CONTINUOUS
10
131.9389669007
20
191.9385656971
11
131.9389669007
21
223.5385656971
0
LINE
8
0
62
7
6
CONTINUOUS
10
132.4889669007
20
231.1885656971
11
132.4889669007
21
138.1885656971
0
LINE
8
0
62
7
6
CONTINUOUS
10
127.7507207473
20
144.7060509937
11
127.6889669007
21
144.4385656971
0
LINE
8
0
62
7
6
CONTINUOUS
10
127.4880050064
20
144.4385656971
11
127.4208676704
21
144.1885656971
0
POLYLINE
8
0
62
7
6
CONTINUOUS
66
1
70
0
0
VERTEX
8
0
62
7
6
CONTINUOUS
10
127.3666718335
20
225.1885656971
0
VERTEX
8
0
62
7
6
CONTINUOUS
10
127.3817257476
20
225.1343188863
0
VERTEX
8
0
62
7
6
CONTINUOUS
10
127.4880050064
20
224.7385656971
0
SEQEND
0
LINE
8
0
62
7
6
CONTINUOUS
10
127.7507207473
20
224.4710804005
11
127.6889669007
21
224.7385656971
0
ARC
8
0
62
7
6
CONTINUOUS
10
171.8882299643
20
223.9385656971
40
0.3000000000
50
90.0000000000
51
180.0000000000
0
ARC
8
0
62
7
6
CONTINUOUS
10
176.8882299643
20
223.9385656971
40
0.3000000000
50
0.0000000000
51
90.0000000000
0
ARC
8
0
62
7
6
CONTINUOUS
10
171.8882299643
20
191.2385656971
40
0.3000000000
50
180.0000000000
51
270.0000000000
0
ARC
8
0
62
7
6
CONTINUOUS
10
176.8882299643
20
191.2385656971
40
0.3000000000
50
270.0000000000
51
360.0000000000
0
ARC
8
0
62
7
6
CONTINUOUS
10
172.5341650938
20
224.5385656971
40
0.3000000000
50
270.0000000538
51
346.9999999628
0
ARC
8
0
62
7
6
CONTINUOUS
10
176.2422948349
20
224.5385656971
40
0.3000000000
50
193.0000000443
51
269.9999999350
0
ARC
8
0
62
7
6
CONTINUOUS
10
172.5341650938
20
190.6385656971
40
0.3000000000
50
13.0000000761
51
89.9999998840
0
ARC
8
0
62
7
6
CONTINUOUS
10
176.2422948349
20
190.6385656971
40
0.3000000000
50
90.0000000615
51
166.9999999577
0
ARC
8
0
62
7
6
CONTINUOUS
10
176.8882299643
20
145.2385656971
40
0.3000000000
50
270.0000000000
51
360.0000000000
0
ARC
8
0
62
7
6
CONTINUOUS
10
171.8882299643
20
145.2385656971
40
0.3000000000
50
180.0000000000
51
270.0000000000
0
ARC
8
0
62
7
6
CONTINUOUS
10
176.8882299643
20
177.9385656971
40
0.3000000000
50
0.0000000000
51
90.0000000000
0
ARC
8
0
62
7
6
CONTINUOUS
10
171.8882299643
20
177.9385656971
40
0.3000000000
50
90.0000000000
51
180.0000000000
0
ARC
8
0
62
7
6
CONTINUOUS
10
176.2422948349
20
144.6385656971
40
0.3000000000
50
90.0000000650
51
166.9999999557
0
ARC
8
0
62
7
6
CONTINUOUS
10
172.5341650938
20
144.6385656971
40
0.3000000000
50
13.0000000372
51
89.9999999462
0
ARC
8
0
62
7
6
CONTINUOUS
10
176.2422948349
20
178.5385656971
40
0.3000000000
50
193.0000000423
51
269.9999999385
0
ARC
8
0
62
7
6
CONTINUOUS
10
172.5341650938
20
178.5385656971
40
0.3000000000
50
270.0000001160
51
346.9999999239
0
ARC
8
0
62
7
6
CONTINUOUS
10
169.1382299643
20
191.9385656971
40
0.5000000000
50
180.0000000000
51
270.0000000000
0
ARC
8
0
62
7
6
CONTINUOUS
10
179.6382299643
20
191.9385656971
40
0.5000000000
50
270.0000000000
51
360.0000000000
0
ARC
8
0
62
7
6
CONTINUOUS
10
179.6382299643
20
177.2385656971
40
0.5000000000
50
0.0000000000
51
90.0000000000
0
ARC
8
0
62
7
6
CONTINUOUS
10
169.1382299643
20
177.2385656971
40
0.5000000000
50
90.0000000000
51
180.0000000000
0
CIRCLE
8
0
62
7
6
CONTINUOUS
10
167.0128970993
20
184.6885656971
40
1.5000000000
0
ARC
8
0
62
7
6
CONTINUOUS
10
176.6882299643
20
225.6885656971
40
0.5000000000
50
270.0000000000
51
360.0000000000
0
ARC
8
0
62
7
6
CONTINUOUS
10
170.4882299643
20
225.6885656971
40
0.5000000000
50
270.0000000000
51
360.0000000000
0
ARC
8
0
62
7
6
CONTINUOUS
10
170.4882299643
20
189.6885656971
40
0.5000000000
50
0.0000000000
51
90.0000000000
0
ARC
8
0
62
7
6
CONTINUOUS
10
176.6882299643
20
189.6885656971
40
0.5000000000
50
0.0000000000
51
90.0000000000
0
ARC
8
0
62
7
6
CONTINUOUS
10
176.6882299643
20
179.6885656971
40
0.5000000000
50
270.0000000000
51
360.0000000000
0
ARC
8
0
62
7
6
CONTINUOUS
10
170.4882299643
20
179.6885656971
40
0.5000000000
50
270.0000000000
51
360.0000000000
0
ARC
8
0
62
7
6
CONTINUOUS
10
170.4882299643
20
143.6885656971
40
0.5000000000
50
0.0000000000
51
90.0000000000
0
ARC
8
0
62
7
6
CONTINUOUS
10
176.6882299643
20
143.6885656971
40
0.5000000000
50
0.0000000000
51
90.0000000000
0
ARC
8
0
62
7
6
CONTINUOUS
10
176.1882299643
20
139.1885656971
40
1.0000000000
50
270.0000000000
51
360.0000000000
0
ARC
8
0
62
7
6
CONTINUOUS
10
169.1977780597
20
143.1885656971
40
5.0000000000
50
180.0000000000
51
270.0000000000
0
ARC
8
0
62
7
6
CONTINUOUS
10
157.1977780597
20
176.1318136611
40
2.0000000000
50
180.0000000000
51
239.5066415975
0
ARC
8
0
62
7
6
CONTINUOUS
10
157.1977780597
20
193.2453177331
40
2.0000000000
50
120.4933584025
51
180.0000000000
0
ARC
8
0
62
7
6
CONTINUOUS
10
169.1977780597
20
226.1885656971
40
5.0000000000
50
90.0000000000
51
180.0000000000
0
ARC
8
0
62
7
6
CONTINUOUS
10
176.1882299643
20
230.1885656971
40
1.0000000000
50
0.0000000000
51
90.0000000000
0
ARC
8
0
62
7
6
CONTINUOUS
10
175.4882299643
20
140.1885656971
40
0.5000000000
50
270.0000000000
51
360.0000000000
0
ARC
8
0
62
7
6
CONTINUOUS
10
171.4882299643
20
140.1885656971
40
0.5000000000
50
180.0000000000
51
270.0000000000
0
ARC
8
0
62
7
6
CONTINUOUS
10
171.4882299643
20
183.1885656971
40
0.5000000000
50
90.0000000000
51
180.0000000000
0
ARC
8
0
62
7
6
CONTINUOUS
10
175.4882299643
20
183.1885656971
40
0.5000000000
50
0.0000000000
51
90.0000000000
0
ARC
8
0
62
7
6
CONTINUOUS
10
175.4882299643
20
186.1885656971
40
0.5000000000
50
270.0000000000
51
360.0000000000
0
ARC
8
0
62
7
6
CONTINUOUS
10
171.4882299643
20
186.1885656971
40
0.5000000000
50
180.0000000000
51
270.0000000000
0
ARC
8
0
62
7
6
CONTINUOUS
10
171.4882299643
20
229.1885656971
40
0.5000000000
50
90.0000000000
51
180.0000000000
0
ARC
8
0
62
7
6
CONTINUOUS
10
175.4882299643
20
229.1885656971
40
0.5000000000
50
0.0000000000
51
90.0000000000
0
ARC
8
0
62
7
6
CONTINUOUS
10
168.1882299643
20
177.6885656971
40
1.5000000000
50
90.0000000000
51
180.0000000000
0
ARC
8
0
62
7
6
CONTINUOUS
10
168.1882299643
20
191.6885656971
40
1.5000000000
50
180.0000000000
51
270.0000000000
0
ARC
8
0
62
7
6
CONTINUOUS
10
168.1882299643
20
145.6885656971
40
1.5000000000
50
180.0000000000
51
270.0000000000
0
ARC
8
0
62
7
6
CONTINUOUS
10
168.1882299643
20
223.6885656971
40
1.5000000000
50
90.0000000000
51
180.0000000000
0
ARC
8
0
62
7
6
CONTINUOUS
10
162.1977780597
20
168.5453177331
40
2.0000000000
50
0.0000000000
51
59.5066415975
0
ARC
8
0
62
7
6
CONTINUOUS
10
162.1977780597
20
200.8318136611
40
2.0000000000
50
300.4933584025
51
360.0000000000
0
ARC
8
0
62
7
6
CONTINUOUS
10
111.5889669007
20
223.9385656971
40
0.3000000000
50
90.0000000000
51
180.0000000000
0
ARC
8
0
62
7
6
CONTINUOUS
10
116.5889669007
20
223.9385656971
40
0.3000000000
50
0.0000000000
51
90.0000000000
0
ARC
8
0
62
7
6
CONTINUOUS
10
111.5889669007
20
191.2385656971
40
0.3000000000
50
180.0000000000
51
270.0000000000
0
ARC
8
0
62
7
6
CONTINUOUS
10
116.5889669007
20
191.2385656971
40
0.3000000000
50
270.0000000000
51
360.0000000000
0
ARC
8
0
62
7
6
CONTINUOUS
10
112.2349020301
20
224.5385656971
40
0.3000000000
50
270.0000178849
51
347.0000038564
0
ARC
8
0
62
7
6
CONTINUOUS
10
115.9430317713
20
224.5385656971
40
0.3000000000
50
192.9999961436
51
269.9999821151
0
ARC
8
0
62
7
6
CONTINUOUS
10
112.2349020301
20
190.6385656971
40
0.3000000000
50
12.9999722888
51
89.9998701848
0
ARC
8
0
62
7
6
CONTINUOUS
10
115.9430317713
20
190.6385656971
40
0.3000000000
50
90.0001298153
51
167.0000277112
0
ARC
8
0
62
7
6
CONTINUOUS
10
123.6889669007
20
223.9385656971
40
0.3000000000
50
90.0000000000
51
180.0000000000
0
ARC
8
0
62
7
6
CONTINUOUS
10
128.6889669007
20
223.9385656971
40
0.3000000000
50
0.0000000000
51
90.0000000000
0
ARC
8
0
62
7
6
CONTINUOUS
10
123.6889669007
20
191.2385656971
40
0.3000000000
50
180.0000000000
51
270.0000000000
0
ARC
8
0
62
7
6
CONTINUOUS
10
128.6889669007
20
191.2385656971
40
0.3000000000
50
270.0000000000
51
360.0000000000
0
ARC
8
0
62
7
6
CONTINUOUS
10
124.3349020301
20
224.5385656971
40
0.3000000000
50
270.0000178849
51
347.0000038564
0
ARC
8
0
62
7
6
CONTINUOUS
10
128.0430317713
20
224.5385656971
40
0.3000000000
50
192.9999961436
51
269.9999821151
0
ARC
8
0
62
7
6
CONTINUOUS
10
124.3349020301
20
190.6385656971
40
0.3000000000
50
12.9999722888
51
89.9998701848
0
ARC
8
0
62
7
6
CONTINUOUS
10
128.0430317713
20
190.6385656971
40
0.3000000000
50
90.0001298153
51
167.0000277112
0
ARC
8
0
62
7
6
CONTINUOUS
10
14.7889669007
20
223.9385656971
40
0.3000000000
50
90.0000000000
51
180.0000000000
0
ARC
8
0
62
7
6
CONTINUOUS
10
19.7889669007
20
223.9385656971
40
0.3000000000
50
0.0000000000
51
90.0000000000
0
ARC
8
0
62
7
6
CONTINUOUS
10
14.7889669007
20
191.2385656971
40
0.3000000000
50
180.0000000000
51
270.0000000000
0
ARC
8
0
62
7
6
CONTINUOUS
10
19.7889669007
20
191.2385656971
40
0.3000000000
50
270.0000000000
51
360.0000000000
0
ARC
8
0
62
7
6
CONTINUOUS
10
15.4349020301
20
224.5385656971
40
0.3000000000
50
270.0000178849
51
347.0000038564
0
ARC
8
0
62
7
6
CONTINUOUS
10
19.1430317713
20
224.5385656971
40
0.3000000000
50
192.9999961436
51
269.9999821151
0
ARC
8
0
62
7
6
CONTINUOUS
10
15.4349020301
20
190.6385656971
40
0.3000000000
50
12.9999722888
51
89.9998701847
0
ARC
8
0
62
7
6
CONTINUOUS
10
19.1430317713
20
190.6385656971
40
0.3000000000
50
90.0001298153
51
167.0000277112
0
ARC
8
0
62
7
6
CONTINUOUS
10
63.1889669007
20
223.9385656971
40
0.3000000000
50
90.0000000000
51
180.0000000000
0
ARC
8
0
62
7
6
CONTINUOUS
10
68.1889669007
20
223.9385656971
40
0.3000000000
50
0.0000000000
51
90.0000000000
0
ARC
8
0
62
7
6
CONTINUOUS
10
63.1889669007
20
191.2385656971
40
0.3000000000
50
180.0000000000
51
270.0000000000
0
ARC
8
0
62
7
6
CONTINUOUS
10
68.1889669007
20
191.2385656971
40
0.3000000000
50
270.0000000000
51
360.0000000000
0
ARC
8
0
62
7
6
CONTINUOUS
10
63.8349020301
20
224.5385656971
40
0.3000000000
50
270.0000178849
51
347.0000038564
0
ARC
8
0
62
7
6
CONTINUOUS
10
67.5430317713
20
224.5385656971
40
0.3000000000
50
192.9999961436
51
269.9999821151
0
ARC
8
0
62
7
6
CONTINUOUS
10
63.8349020301
20
190.6385656971
40
0.3000000000
50
12.9999722888
51
89.9998701847
0
ARC
8
0
62
7
6
CONTINUOUS
10
67.5430317713
20
190.6385656971
40
0.3000000000
50
90.0001298153
51
167.0000277112
0
ARC
8
0
62
7
6
CONTINUOUS
10
51.0889669007
20
223.9385656971
40
0.3000000000
50
90.0000000000
51
180.0000000000
0
ARC
8
0
62
7
6
CONTINUOUS
10
56.0889669007
20
223.9385656971
40
0.3000000000
50
0.0000000000
51
90.0000000000
0
ARC
8
0
62
7
6
CONTINUOUS
10
51.0889669007
20
191.2385656971
40
0.3000000000
50
180.0000000000
51
270.0000000000
0
ARC
8
0
62
7
6
CONTINUOUS
10
56.0889669007
20
191.2385656971
40
0.3000000000
50
270.0000000000
51
360.0000000000
0
ARC
8
0
62
7
6
CONTINUOUS
10
51.7349020301
20
224.5385656971
40
0.3000000000
50
270.0000178849
51
347.0000038564
0
ARC
8
0
62
7
6
CONTINUOUS
10
55.4430317713
20
224.5385656971
40
0.3000000000
50
192.9999961436
51
269.9999821151
0
ARC
8
0
62
7
6
CONTINUOUS
10
51.7349020301
20
190.6385656971
40
0.3000000000
50
12.9999722888
51
89.9998701847
0
ARC
8
0
62
7
6
CONTINUOUS
10
55.4430317713
20
190.6385656971
40
0.3000000000
50
90.0001298153
51
167.0000277112
0
ARC
8
0
62
7
6
CONTINUOUS
10
38.9889669007
20
223.9385656971
40
0.3000000000
50
90.0000000000
51
180.0000000000
0
ARC
8
0
62
7
6
CONTINUOUS
10
43.9889669007
20
223.9385656971
40
0.3000000000
50
0.0000000000
51
90.0000000000
0
ARC
8
0
62
7
6
CONTINUOUS
10
38.9889669007
20
191.2385656971
40
0.3000000000
50
180.0000000000
51
270.0000000000
0
ARC
8
0
62
7
6
CONTINUOUS
10
43.9889669007
20
191.2385656971
40
0.3000000000
50
270.0000000000
51
360.0000000000
0
ARC
8
0
62
7
6
CONTINUOUS
10
39.6349020301
20
224.5385656971
40
0.3000000000
50
270.0000178849
51
347.0000038564
0
ARC
8
0
62
7
6
CONTINUOUS
10
43.3430317713
20
224.5385656971
40
0.3000000000
50
192.9999961436
51
269.9999821151
0
ARC
8
0
62
7
6
CONTINUOUS
10
39.6349020301
20
190.6385656971
40
0.3000000000
50
12.9999722888
51
89.9998701847
0
ARC
8
0
62
7
6
CONTINUOUS
10
43.3430317713
20
190.6385656971
40
0.3000000000
50
90.0001298153
51
167.0000277112
0
ARC
8
0
62
7
6
CONTINUOUS
10
87.3889669007
20
223.9385656971
40
0.3000000000
50
90.0000000000
51
180.0000000000
0
ARC
8
0
62
7
6
CONTINUOUS
10
92.3889669007
20
223.9385656971
40
0.3000000000
50
0.0000000000
51
90.0000000000
0
ARC
8
0
62
7
6
CONTINUOUS
10
87.3889669007
20
191.2385656971
40
0.3000000000
50
180.0000000000
51
270.0000000000
0
ARC
8
0
62
7
6
CONTINUOUS
10
92.3889669007
20
191.2385656971
40
0.3000000000
50
270.0000000000
51
360.0000000000
0
ARC
8
0
62
7
6
CONTINUOUS
10
88.0349020301
20
224.5385656971
40
0.3000000000
50
270.0000178849
51
347.0000038564
0
ARC
8
0
62
7
6
CONTINUOUS
10
91.7430317713
20
224.5385656971
40
0.3000000000
50
192.9999961436
51
269.9999821151
0
ARC
8
0
62
7
6
CONTINUOUS
10
88.0349020301
20
190.6385656971
40
0.3000000000
50
12.9999722888
51
89.9998701847
0
ARC
8
0
62
7
6
CONTINUOUS
10
91.7430317713
20
190.6385656971
40
0.3000000000
50
90.0001298153
51
167.0000277112
0
ARC
8
0
62
7
6
CONTINUOUS
10
99.4889669007
20
223.9385656971
40
0.3000000000
50
90.0000000000
51
180.0000000000
0
ARC
8
0
62
7
6
CONTINUOUS
10
104.4889669007
20
223.9385656971
40
0.3000000000
50
0.0000000000
51
90.0000000000
0
ARC
8
0
62
7
6
CONTINUOUS
10
99.4889669007
20
191.2385656971
40
0.3000000000
50
180.0000000000
51
270.0000000000
0
ARC
8
0
62
7
6
CONTINUOUS
10
104.4889669007
20
191.2385656971
40
0.3000000000
50
270.0000000000
51
360.0000000000
0
ARC
8
0
62
7
6
CONTINUOUS
10
100.1349020301
20
224.5385656971
40
0.3000000000
50
270.0000178849
51
347.0000038564
0
ARC
8
0
62
7
6
CONTINUOUS
10
103.8430317713
20
224.5385656971
40
0.3000000000
50
192.9999961436
51
269.9999821151
0
ARC
8
0
62
7
6
CONTINUOUS
10
100.1349020301
20
190.6385656971
40
0.3000000000
50
12.9999722888
51
89.9998701847
0
ARC
8
0
62
7
6
CONTINUOUS
10
103.8430317713
20
190.6385656971
40
0.3000000000
50
90.0001298153
51
167.0000277112
0
ARC
8
0
62
7
6
CONTINUOUS
10
75.2889669007
20
223.9385656971
40
0.3000000000
50
90.0000000000
51
180.0000000000
0
ARC
8
0
62
7
6
CONTINUOUS
10
80.2889669007
20
223.9385656971
40
0.3000000000
50
0.0000000000
51
90.0000000000
0
ARC
8
0
62
7
6
CONTINUOUS
10
75.2889669007
20
191.2385656971
40
0.3000000000
50
180.0000000000
51
270.0000000000
0
ARC
8
0
62
7
6
CONTINUOUS
10
80.2889669007
20
191.2385656971
40
0.3000000000
50
270.0000000000
51
360.0000000000
0
ARC
8
0
62
7
6
CONTINUOUS
10
75.9349020301
20
224.5385656971
40
0.3000000000
50
270.0000178849
51
347.0000038564
0
ARC
8
0
62
7
6
CONTINUOUS
10
79.6430317713
20
224.5385656971
40
0.3000000000
50
192.9999961436
51
269.9999821151
0
ARC
8
0
62
7
6
CONTINUOUS
10
75.9349020301
20
190.6385656971
40
0.3000000000
50
12.9999722888
51
89.9998701847
0
ARC
8
0
62
7
6
CONTINUOUS
10
79.6430317713
20
190.6385656971
40
0.3000000000
50
90.0001298153
51
167.0000277112
0
ARC
8
0
62
7
6
CONTINUOUS
10
26.8889669007
20
223.9385656971
40
0.3000000000
50
90.0000000000
51
180.0000000000
0
ARC
8
0
62
7
6
CONTINUOUS
10
31.8889669007
20
223.9385656971
40
0.3000000000
50
0.0000000000
51
90.0000000000
0
ARC
8
0
62
7
6
CONTINUOUS
10
26.8889669007
20
191.2385656971
40
0.3000000000
50
180.0000000000
51
270.0000000000
0
ARC
8
0
62
7
6
CONTINUOUS
10
31.8889669007
20
191.2385656971
40
0.3000000000
50
270.0000000000
51
360.0000000000
0
ARC
8
0
62
7
6
CONTINUOUS
10
27.5349020301
20
224.5385656971
40
0.3000000000
50
270.0000178849
51
347.0000038564
0
ARC
8
0
62
7
6
CONTINUOUS
10
31.2430317713
20
224.5385656971
40
0.3000000000
50
192.9999961436
51
269.9999821151
0
ARC
8
0
62
7
6
CONTINUOUS
10
27.5349020301
20
190.6385656971
40
0.3000000000
50
12.9999722888
51
89.9998701847
0
ARC
8
0
62
7
6
CONTINUOUS
10
31.2430317713
20
190.6385656971
40
0.3000000000
50
90.0001298153
51
167.0000277112
0
ARC
8
0
62
7
6
CONTINUOUS
10
31.8889669007
20
145.2385656971
40
0.3000000000
50
270.0000000000
51
360.0000000000
0
ARC
8
0
62
7
6
CONTINUOUS
10
26.8889669007
20
145.2385656971
40
0.3000000000
50
180.0000000000
51
270.0000000000
0
ARC
8
0
62
7
6
CONTINUOUS
10
31.8889669007
20
177.9385656971
40
0.3000000000
50
0.0000000000
51
90.0000000000
0
ARC
8
0
62
7
6
CONTINUOUS
10
26.8889669007
20
177.9385656971
40
0.3000000000
50
90.0000000000
51
180.0000000000
0
ARC
8
0
62
7
6
CONTINUOUS
10
31.2430317713
20
144.6385656971
40
0.3000000000
50
90.0000178849
51
167.0000038564
0
ARC
8
0
62
7
6
CONTINUOUS
10
27.5349020301
20
144.6385656971
40
0.3000000000
50
12.9999961436
51
89.9999821151
0
ARC
8
0
62
7
6
CONTINUOUS
10
31.2430317713
20
178.5385656971
40
0.3000000000
50
192.9999722888
51
269.9998701847
0
ARC
8
0
62
7
6
CONTINUOUS
10
27.5349020301
20
178.5385656971
40
0.3000000000
50
270.0001298152
51
347.0000277111
0
ARC
8
0
62
7
6
CONTINUOUS
10
128.6889669007
20
145.2385656971
40
0.3000000000
50
270.0000000000
51
360.0000000000
0
ARC
8
0
62
7
6
CONTINUOUS
10
123.6889669007
20
145.2385656971
40
0.3000000000
50
180.0000000000
51
270.0000000000
0
ARC
8
0
62
7
6
CONTINUOUS
10
128.6889669007
20
177.9385656971
40
0.3000000000
50
0.0000000000
51
90.0000000000
0
ARC
8
0
62
7
6
CONTINUOUS
10
123.6889669007
20
177.9385656971
40
0.3000000000
50
90.0000000000
51
180.0000000000
0
ARC
8
0
62
7
6
CONTINUOUS
10
128.0430317713
20
144.6385656971
40
0.3000000000
50
90.0000178849
51
167.0000038564
0
ARC
8
0
62
7
6
CONTINUOUS
10
124.3349020301
20
144.6385656971
40
0.3000000000
50
12.9999961436
51
89.9999821151
0
ARC
8
0
62
7
6
CONTINUOUS
10
128.0430317713
20
178.5385656971
40
0.3000000000
50
192.9999722888
51
269.9998701847
0
ARC
8
0
62
7
6
CONTINUOUS
10
124.3349020301
20
178.5385656971
40
0.3000000000
50
270.0001298152
51
347.0000277111
0
ARC
8
0
62
7
6
CONTINUOUS
10
116.5889669007
20
145.2385656971
40
0.3000000000
50
270.0000000000
51
360.0000000000
0
ARC
8
0
62
7
6
CONTINUOUS
10
111.5889669007
20
145.2385656971
40
0.3000000000
50
180.0000000000
51
270.0000000000
0
ARC
8
0
62
7
6
CONTINUOUS
10
116.5889669007
20
177.9385656971
40
0.3000000000
50
0.0000000000
51
90.0000000000
0
ARC
8
0
62
7
6
CONTINUOUS
10
111.5889669007
20
177.9385656971
40
0.3000000000
50
90.0000000000
51
180.0000000000
0
ARC
8
0
62
7
6
CONTINUOUS
10
115.9430317713
20
144.6385656971
40
0.3000000000
50
90.0000178849
51
167.0000038564
0
ARC
8
0
62
7
6
CONTINUOUS
10
112.2349020301
20
144.6385656971
40
0.3000000000
50
12.9999961436
51
89.9999821151
0
ARC
8
0
62
7
6
CONTINUOUS
10
115.9430317713
20
178.5385656971
40
0.3000000000
50
192.9999722888
51
269.9998701847
0
ARC
8
0
62
7
6
CONTINUOUS
10
112.2349020301
20
178.5385656971
40
0.3000000000
50
270.0001298152
51
347.0000277111
0
ARC
8
0
62
7
6
CONTINUOUS
10
104.4889669007
20
145.2385656971
40
0.3000000000
50
270.0000000000
51
360.0000000000
0
ARC
8
0
62
7
6
CONTINUOUS
10
99.4889669007
20
145.2385656971
40
0.3000000000
50
180.0000000000
51
270.0000000000
0
ARC
8
0
62
7
6
CONTINUOUS
10
104.4889669007
20
177.9385656971
40
0.3000000000
50
0.0000000000
51
90.0000000000
0
ARC
8
0
62
7
6
CONTINUOUS
10
99.4889669007
20
177.9385656971
40
0.3000000000
50
90.0000000000
51
180.0000000000
0
ARC
8
0
62
7
6
CONTINUOUS
10
103.8430317713
20
144.6385656971
40
0.3000000000
50
90.0000178849
51
167.0000038564
0
ARC
8
0
62
7
6
CONTINUOUS
10
100.1349020301
20
144.6385656971
40
0.3000000000
50
12.9999961436
51
89.9999821151
0
ARC
8
0
62
7
6
CONTINUOUS
10
103.8430317713
20
178.5385656971
40
0.3000000000
50
192.9999722888
51
269.9998701847
0
ARC
8
0
62
7
6
CONTINUOUS
10
100.1349020301
20
178.5385656971
40
0.3000000000
50
270.0001298152
51
347.0000277111
0
ARC
8
0
62
7
6
CONTINUOUS
10
92.3889669007
20
145.2385656971
40
0.3000000000
50
270.0000000000
51
360.0000000000
0
ARC
8
0
62
7
6
CONTINUOUS
10
87.3889669007
20
145.2385656971
40
0.3000000000
50
180.0000000000
51
270.0000000000
0
ARC
8
0
62
7
6
CONTINUOUS
10
92.3889669007
20
177.9385656971
40
0.3000000000
50
0.0000000000
51
90.0000000000
0
ARC
8
0
62
7
6
CONTINUOUS
10
87.3889669007
20
177.9385656971
40
0.3000000000
50
90.0000000000
51
180.0000000000
0
ARC
8
0
62
7
6
CONTINUOUS
10
91.7430317713
20
144.6385656971
40
0.3000000000
50
90.0000178849
51
167.0000038564
0
ARC
8
0
62
7
6
CONTINUOUS
10
88.0349020301
20
144.6385656971
40
0.3000000000
50
12.9999961436
51
89.9999821151
0
ARC
8
0
62
7
6
CONTINUOUS
10
91.7430317713
20
178.5385656971
40
0.3000000000
50
192.9999722888
51
269.9998701847
0
ARC
8
0
62
7
6
CONTINUOUS
10
88.0349020301
20
178.5385656971
40
0.3000000000
50
270.0001298152
51
347.0000277111
0
ARC
8
0
62
7
6
CONTINUOUS
10
80.2889669007
20
145.2385656971
40
0.3000000000
50
270.0000000000
51
360.0000000000
0
ARC
8
0
62
7
6
CONTINUOUS
10
75.2889669007
20
145.2385656971
40
0.3000000000
50
180.0000000000
51
270.0000000000
0
ARC
8
0
62
7
6
CONTINUOUS
10
80.2889669007
20
177.9385656971
40
0.3000000000
50
0.0000000000
51
90.0000000000
0
ARC
8
0
62
7
6
CONTINUOUS
10
75.2889669007
20
177.9385656971
40
0.3000000000
50
90.0000000000
51
180.0000000000
0
ARC
8
0
62
7
6
CONTINUOUS
10
79.6430317713
20
144.6385656971
40
0.3000000000
50
90.0000178849
51
167.0000038564
0
ARC
8
0
62
7
6
CONTINUOUS
10
75.9349020301
20
144.6385656971
40
0.3000000000
50
12.9999961436
51
89.9999821151
0
ARC
8
0
62
7
6
CONTINUOUS
10
79.6430317713
20
178.5385656971
40
0.3000000000
50
192.9999722888
51
269.9998701847
0
ARC
8
0
62
7
6
CONTINUOUS
10
75.9349020301
20
178.5385656971
40
0.3000000000
50
270.0001298152
51
347.0000277111
0
ARC
8
0
62
7
6
CONTINUOUS
10
68.1889669007
20
145.2385656971
40
0.3000000000
50
270.0000000000
51
360.0000000000
0
ARC
8
0
62
7
6
CONTINUOUS
10
63.1889669007
20
145.2385656971
40
0.3000000000
50
180.0000000000
51
270.0000000000
0
ARC
8
0
62
7
6
CONTINUOUS
10
68.1889669007
20
177.9385656971
40
0.3000000000
50
0.0000000000
51
90.0000000000
0
ARC
8
0
62
7
6
CONTINUOUS
10
63.1889669007
20
177.9385656971
40
0.3000000000
50
90.0000000000
51
180.0000000000
0
ARC
8
0
62
7
6
CONTINUOUS
10
67.5430317713
20
144.6385656971
40
0.3000000000
50
90.0000178849
51
167.0000038564
0
ARC
8
0
62
7
6
CONTINUOUS
10
63.8349020301
20
144.6385656971
40
0.3000000000
50
12.9999961436
51
89.9999821151
0
ARC
8
0
62
7
6
CONTINUOUS
10
67.5430317713
20
178.5385656971
40
0.3000000000
50
192.9999722888
51
269.9998701847
0
ARC
8
0
62
7
6
CONTINUOUS
10
63.8349020301
20
178.5385656971
40
0.3000000000
50
270.0001298152
51
347.0000277111
0
ARC
8
0
62
7
6
CONTINUOUS
10
56.0889669007
20
145.2385656971
40
0.3000000000
50
270.0000000000
51
360.0000000000
0
ARC
8
0
62
7
6
CONTINUOUS
10
51.0889669007
20
145.2385656971
40
0.3000000000
50
180.0000000000
51
270.0000000000
0
ARC
8
0
62
7
6
CONTINUOUS
10
56.0889669007
20
177.9385656971
40
0.3000000000
50
0.0000000000
51
90.0000000000
0
ARC
8
0
62
7
6
CONTINUOUS
10
51.0889669007
20
177.9385656971
40
0.3000000000
50
90.0000000000
51
180.0000000000
0
ARC
8
0
62
7
6
CONTINUOUS
10
55.4430317713
20
144.6385656971
40
0.3000000000
50
90.0000178849
51
167.0000038564
0
ARC
8
0
62
7
6
CONTINUOUS
10
51.7349020301
20
144.6385656971
40
0.3000000000
50
12.9999961436
51
89.9999821151
0
ARC
8
0
62
7
6
CONTINUOUS
10
55.4430317713
20
178.5385656971
40
0.3000000000
50
192.9999722888
51
269.9998701847
0
ARC
8
0
62
7
6
CONTINUOUS
10
51.7349020301
20
178.5385656971
40
0.3000000000
50
270.0001298152
51
347.0000277111
0
ARC
8
0
62
7
6
CONTINUOUS
10
43.9889669007
20
145.2385656971
40
0.3000000000
50
270.0000000000
51
360.0000000000
0
ARC
8
0
62
7
6
CONTINUOUS
10
38.9889669007
20
145.2385656971
40
0.3000000000
50
180.0000000000
51
270.0000000000
0
ARC
8
0
62
7
6
CONTINUOUS
10
43.9889669007
20
177.9385656971
40
0.3000000000
50
0.0000000000
51
90.0000000000
0
ARC
8
0
62
7
6
CONTINUOUS
10
38.9889669007
20
177.9385656971
40
0.3000000000
50
90.0000000000
51
180.0000000000
0
ARC
8
0
62
7
6
CONTINUOUS
10
43.3430317713
20
144.6385656971
40
0.3000000000
50
90.0000178849
51
167.0000038564
0
ARC
8
0
62
7
6
CONTINUOUS
10
39.6349020301
20
144.6385656971
40
0.3000000000
50
12.9999961436
51
89.9999821151
0
ARC
8
0
62
7
6
CONTINUOUS
10
43.3430317713
20
178.5385656971
40
0.3000000000
50
192.9999722888
51
269.9998701847
0
ARC
8
0
62
7
6
CONTINUOUS
10
39.6349020301
20
178.5385656971
40
0.3000000000
50
270.0001298152
51
347.0000277111
0
ARC
8
0
62
7
6
CONTINUOUS
10
19.7889669007
20
145.2385656971
40
0.3000000000
50
270.0000000000
51
360.0000000000
0
ARC
8
0
62
7
6
CONTINUOUS
10
14.7889669007
20
145.2385656971
40
0.3000000000
50
180.0000000000
51
270.0000000000
0
ARC
8
0
62
7
6
CONTINUOUS
10
19.7889669007
20
177.9385656971
40
0.3000000000
50
0.0000000000
51
90.0000000000
0
ARC
8
0
62
7
6
CONTINUOUS
10
14.7889669007
20
177.9385656971
40
0.3000000000
50
90.0000000000
51
180.0000000000
0
ARC
8
0
62
7
6
CONTINUOUS
10
19.1430317713
20
144.6385656971
40
0.3000000000
50
90.0000178849
51
167.0000038564
0
ARC
8
0
62
7
6
CONTINUOUS
10
15.4349020301
20
144.6385656971
40
0.3000000000
50
12.9999961436
51
89.9999821151
0
ARC
8
0
62
7
6
CONTINUOUS
10
19.1430317713
20
178.5385656971
40
0.3000000000
50
192.9999722888
51
269.9998701847
0
ARC
8
0
62
7
6
CONTINUOUS
10
15.4349020301
20
178.5385656971
40
0.3000000000
50
270.0001298152
51
347.0000277111
0
ARC
8
0
62
7
6
CONTINUOUS
10
12.0389669007
20
191.9385656971
40
0.5000000000
50
180.0000000000
51
270.0000000000
0
ARC
8
0
62
7
6
CONTINUOUS
10
22.5389669007
20
191.9385656971
40
0.5000000000
50
270.0000000000
51
360.0000000000
0
ARC
8
0
62
7
6
CONTINUOUS
10
120.9389669007
20
191.9385656971
40
0.5000000000
50
180.0000000000
51
270.0000000000
0
ARC
8
0
62
7
6
CONTINUOUS
10
131.4389669007
20
191.9385656971
40
0.5000000000
50
270.0000000000
51
360.0000000000
0
ARC
8
0
62
7
6
CONTINUOUS
10
24.1389669007
20
191.9385656971
40
0.5000000000
50
180.0000000000
51
270.0000000000
0
ARC
8
0
62
7
6
CONTINUOUS
10
34.6389669007
20
191.9385656971
40
0.5000000000
50
270.0000000000
51
360.0000000000
0
ARC
8
0
62
7
6
CONTINUOUS
10
36.2389669007
20
191.9385656971
40
0.5000000000
50
180.0000000000
51
270.0000000000
0
ARC
8
0
62
7
6
CONTINUOUS
10
46.7389669007
20
191.9385656971
40
0.5000000000
50
270.0000000000
51
360.0000000000
0
ARC
8
0
62
7
6
CONTINUOUS
10
48.3389669007
20
191.9385656971
40
0.5000000000
50
180.0000000000
51
270.0000000000
0
ARC
8
0
62
7
6
CONTINUOUS
10
58.8389669007
20
191.9385656971
40
0.5000000000
50
270.0000000000
51
360.0000000000
0
ARC
8
0
62
7
6
CONTINUOUS
10
60.4389669007
20
191.9385656971
40
0.5000000000
50
180.0000000000
51
270.0000000000
0
ARC
8
0
62
7
6
CONTINUOUS
10
70.9389669007
20
191.9385656971
40
0.5000000000
50
270.0000000000
51
360.0000000000
0
ARC
8
0
62
7
6
CONTINUOUS
10
72.5389669007
20
191.9385656971
40
0.5000000000
50
180.0000000000
51
270.0000000000
0
ARC
8
0
62
7
6
CONTINUOUS
10
83.0389669007
20
191.9385656971
40
0.5000000000
50
270.0000000000
51
360.0000000000
0
ARC
8
0
62
7
6
CONTINUOUS
10
84.6389669007
20
191.9385656971
40
0.5000000000
50
180.0000000000
51
270.0000000000
0
ARC
8
0
62
7
6
CONTINUOUS
10
95.1389669007
20
191.9385656971
40
0.5000000000
50
270.0000000000
51
360.0000000000
0
ARC
8
0
62
7
6
CONTINUOUS
10
96.7389669007
20
191.9385656971
40
0.5000000000
50
180.0000000000
51
270.0000000000
0
ARC
8
0
62
7
6
CONTINUOUS
10
107.2389669007
20
191.9385656971
40
0.5000000000
50
270.0000000000
51
360.0000000000
0
ARC
8
0
62
7
6
CONTINUOUS
10
108.8389669007
20
191.9385656971
40
0.5000000000
50
180.0000000000
51
270.0000000000
0
ARC
8
0
62
7
6
CONTINUOUS
10
119.3389669007
20
191.9385656971
40
0.5000000000
50
270.0000000000
51
360.0000000000
0
ARC
8
0
62
7
6
CONTINUOUS
10
22.5389669007
20
177.2385656971
40
0.5000000000
50
0.0000000000
51
90.0000000000
0
ARC
8
0
62
7
6
CONTINUOUS
10
12.0389669007
20
177.2385656971
40
0.5000000000
50
90.0000000000
51
180.0000000000
0
ARC
8
0
62
7
6
CONTINUOUS
10
83.0389669007
20
177.2385656971
40
0.5000000000
50
0.0000000000
51
90.0000000000
0
ARC
8
0
62
7
6
CONTINUOUS
10
72.5389669007
20
177.2385656971
40
0.5000000000
50
90.0000000000
51
180.0000000000
0
ARC
8
0
62
7
6
CONTINUOUS
10
70.9389669007
20
177.2385656971
40
0.5000000000
50
0.0000000000
51
90.0000000000
0
ARC
8
0
62
7
6
CONTINUOUS
10
60.4389669007
20
177.2385656971
40
0.5000000000
50
90.0000000000
51
180.0000000000
0
ARC
8
0
62
7
6
CONTINUOUS
10
58.8389669007
20
177.2385656971
40
0.5000000000
50
0.0000000000
51
90.0000000000
0
ARC
8
0
62
7
6
CONTINUOUS
10
48.3389669007
20
177.2385656971
40
0.5000000000
50
90.0000000000
51
180.0000000000
0
ARC
8
0
62
7
6
CONTINUOUS
10
107.2389669007
20
177.2385656971
40
0.5000000000
50
0.0000000000
51
90.0000000000
0
ARC
8
0
62
7
6
CONTINUOUS
10
96.7389669007
20
177.2385656971
40
0.5000000000
50
90.0000000000
51
180.0000000000
0
ARC
8
0
62
7
6
CONTINUOUS
10
46.7389669007
20
177.2385656971
40
0.5000000000
50
0.0000000000
51
90.0000000000
0
ARC
8
0
62
7
6
CONTINUOUS
10
36.2389669007
20
177.2385656971
40
0.5000000000
50
90.0000000000
51
180.0000000000
0
ARC
8
0
62
7
6
CONTINUOUS
10
34.6389669007
20
177.2385656971
40
0.5000000000
50
0.0000000000
51
90.0000000000
0
ARC
8
0
62
7
6
CONTINUOUS
10
24.1389669007
20
177.2385656971
40
0.5000000000
50
90.0000000000
51
180.0000000000
0
ARC
8
0
62
7
6
CONTINUOUS
10
95.1389669007
20
177.2385656971
40
0.5000000000
50
0.0000000000
51
90.0000000000
0
ARC
8
0
62
7
6
CONTINUOUS
10
84.6389669007
20
177.2385656971
40
0.5000000000
50
90.0000000000
51
180.0000000000
0
ARC
8
0
62
7
6
CONTINUOUS
10
119.3389669007
20
177.2385656971
40
0.5000000000
50
0.0000000000
51
90.0000000000
0
ARC
8
0
62
7
6
CONTINUOUS
10
108.8389669007
20
177.2385656971
40
0.5000000000
50
90.0000000000
51
180.0000000000
0
ARC
8
0
62
7
6
CONTINUOUS
10
131.4389669007
20
177.2385656971
40
0.5000000000
50
0.0000000000
51
90.0000000000
0
ARC
8
0
62
7
6
CONTINUOUS
10
120.9389669007
20
177.2385656971
40
0.5000000000
50
90.0000000000
51
180.0000000000
0
ARC
8
0
62
7
6
CONTINUOUS
10
13.1229414969
20
143.9385656971
40
0.5000000000
50
90.0000000000
51
120.0000000000
0
ARC
8
0
62
7
6
CONTINUOUS
10
130.3549923045
20
143.9385656971
40
0.5000000000
50
60.0000000000
51
90.0000000000
0
ARC
8
0
62
7
6
CONTINUOUS
10
13.1229414969
20
189.9385656971
40
0.5000000000
50
90.0000000000
51
120.0000000000
0
ARC
8
0
62
7
6
CONTINUOUS
10
130.3549923045
20
189.9385656971
40
0.5000000000
50
60.0000000000
51
90.0000000000
0
ARC
8
0
62
7
6
CONTINUOUS
10
130.3549923045
20
179.2385656971
40
0.5000000000
50
270.0000000000
51
300.0000000000
0
ARC
8
0
62
7
6
CONTINUOUS
10
13.1229414969
20
179.2385656971
40
0.5000000000
50
240.0000000000
51
270.0000000000
0
ARC
8
0
62
7
6
CONTINUOUS
10
130.3549923045
20
225.2385656971
40
0.5000000000
50
270.0000000000
51
300.0000000000
0
ARC
8
0
62
7
6
CONTINUOUS
10
13.1229414969
20
225.2385656971
40
0.5000000000
50
240.0000000000
51
270.0000000000
0
ENDSEC
0
EOF
