  0
SECTION
  2
HEADER
  9
$ACADVER
  1
AC1009
  9
$INSBASE
 10
0
 20
0
  9
$EXTMIN
 10
51.5978436909154
 20
104.087078725587
  9
$EXTMAX
 10
267.3540767965295
 20
213.684540017512
  9
$LIMMIN
 10
51.5978436909154
 20
104.087078725587
  9
$LIMMAX
 10
267.3540767965295
 20
213.684540017512
  9
$VIEWCTR
 10
10
 20
10
  9
$VIEWSIZE
 40
10
  9
$SNAPMODE
 70
0
  9
$SNAPUNIT
 10
1
 20
1
  9
$SNAPBASE
 10
0
 20
0
  9
$SNAPANG
 50
0
  9
$SNAPSTYLE
 70
0
  9
$SNAPISOPAIR
 70
0
  9
$GRIDMODE
 70
0
  9
$GRIDUNIT
 10
0
 20
0
  9
$ORTHOMODE
 70
0
  9
$REGENMODE
 70
1
  9
$FILLMODE
 70
1
  9
$QTEXTMODE
 70
0
  9
$DRAGMODE
 70
2
  9
$LTSCALE
 40
1
  9
$OSMODE
 70
0
  9
$ATTMODE
 70
1
  9
$TEXTSIZE
 40
3.5
  9
$TRACEWID
 40
0.5
  9
$TEXTSTYLE
  7
STANDARD
  9
$CLAYER
  8
0
  9
$CELTYPE
  6
BYLAYER
  9
$CECOLOR
 62
256
  9
$DIMSCALE
 40
1
  9
$DIMASZ
 40
0.18
  9
$DIMEXO
 40
0.0625
  9
$DIMDLI
 40
0.38
  9
$DIMRND
 40
0
  9
$DIMDLE
 40
0
  9
$DIMEXE
 40
0.18
  9
$DIMTP
 40
0
  9
$DIMTM
 40
0
  9
$DIMTXT
 40
0.18
  9
$DIMCEN
 40
0.09
  9
$DIMTSZ
 40
0
  9
$DIMTOL
 70
0
  9
$DIMLIM
 70
0
  9
$DIMTIH
 70
1
  9
$DIMTOH
 70
1
  9
$DIMSE1
 70
0
  9
$DIMSE2
 70
0
  9
$DIMTAD
 70
0
  9
$DIMZIN
 70
0
  9
$DIMBLK
  1

  9
$DIMASO
 70
1
  9
$DIMSHO
 70
1
  9
$DIMPOST
  1

  9
$DIMAPOST
  1

  9
$DIMALT
 70
0
  9
$DIMALTD
 70
2
  9
$DIMALTF
 40
25.4
  9
$DIMLFAC
 40
1
  9
$DIMTOFL
 70
0
  9
$DIMTVP
 40
0
  9
$DIMTIX
 70
0
  9
$DIMSOXD
 70
0
  9
$DIMSAH
 70
0
  9
$DIMBLK1
  1

  9
$DIMBLK2
  1

  9
$DIMSTYLE
  2
*UNNAMED
  9
$DIMCLRD
 70
0
  9
$DIMCLRE
 70
0
  9
$DIMCLRT
 70
0
  9
$DIMTFAC
 40
1
  9
$DIMGAP
 40
0.09
  9
$LUNITS
 70
2
  9
$LUPREC
 70
4
  9
$AXISMODE
 70
0
  9
$AXISUNIT
 10
0
 20
0
  9
$SKETCHINC
 40
0.1
  9
$FILLETRAD
 40
2
  9
$AUNITS
 70
0
  9
$AUPREC
 70
0
  9
$MENU
  1
ACAD
  9
$ELEVATION
 40
0
  9
$THICKNESS
 40
0
  9
$VIEWDIR
 10
0
 20
0
 30
1
  9
$LIMCHECK
 70
0
  9
$BLIPMODE
 70
1
  9
$CHAMFERA
 40
0
  9
$CHAMFERB
 40
0
  9
$FASTZOOM
 70
1
  9
$SKPOLY
 70
0
  9
$ANGBASE
 50
0
  9
$ANGDIR
 70
0
  9
$PDMODE
 70
0
  9
$PDSIZE
 40
0
  9
$PLINEWID
 40
0
  9
$COORDS
 70
2
  0
ENDSEC
  0
SECTION
  2
TABLES
  0
TABLE
  2
DIMSTYLE
 70
1
  0
DIMSTYLE
  2
DMST_1
 70
0
  3

  4

  5

  6

  7

 40
1
 41
3.200000000000001
 42
1
 43
7
 44
1
 45
0
 46
0
 47
0
 48
0
140
3.200000000000001
141
0
142
0
143
25.4
144
1
145
0
146
1
147
0.09
 71
0
 72
0
 73
0
 74
0
 75
0
 76
0
 77
1
 78
9
170
0
171
2
172
0
173
0
174
0
175
0
176
2
177
2
178
2
  0
ENDTAB
  0
TABLE
  2
LTYPE
 70
9
  0
LTYPE
  2
CONTINUOUS
 70
64
  3
Solid line
 72
65
 73
0
 40
0
  0
LTYPE
  2
BORDER
 70
64
  3
__ __ . __ __ .
 72
65
 73
6
 40
9.936142314074335
 49
2.838897804021238
 49
-1.419448902010619
 49
2.838897804021238
 49
-1.419448902010619
 49
0
 49
-1.419448902010619
  0
LTYPE
  2
CENTER
 70
64
  3
____ _ ____ _
 72
65
 73
4
 40
11.35559121608495
 49
7.097244510053096
 49
-1.419448902010619
 49
1.419448902010619
 49
-1.419448902010619
  0
LTYPE
  2
DASHDOT
 70
64
  3
__ . __ . __ .
 72
65
 73
4
 40
5.677795608042477
 49
2.838897804021238
 49
-1.419448902010619
 49
0
 49
-1.419448902010619
  0
LTYPE
  2
DASHED
 70
64
  3
__ __ __ __ __
 72
65
 73
2
 40
4.258346706031857
 49
2.838897804021238
 49
-1.419448902010619
  0
LTYPE
  2
DIVIDE
 70
64
  3
__ . . __ . . 
 72
65
 73
6
 40
7.097244510053096
 49
2.838897804021238
 49
-1.419448902010619
 49
0
 49
-1.419448902010619
 49
0
 49
-1.419448902010619
  0
LTYPE
  2
DOT
 70
64
  3
..............
 72
65
 73
4
 40
2.838897804021238
 49
0
 49
-1.419448902010619
 49
0
 49
-1.419448902010619
  0
LTYPE
  2
HIDDEN
 70
64
  3
_ _ _ _ _ _ _
 72
65
 73
2
 40
2.129173353015929
 49
1.419448902010619
 49
-0.7097244510053096
  0
LTYPE
  2
PHANTOM
 70
64
  3
_____ _ _ _____ _ _ 
 72
65
 73
6
 40
14.19448902010619
 49
7.097244510053096
 49
-1.419448902010619
 49
1.419448902010619
 49
-1.419448902010619
 49
1.419448902010619
 49
-1.419448902010619
  0
ENDTAB
  0
TABLE
  2
LAYER
 70
4
  0
LAYER
  2
DEFAULT_1
 70
0
 62
7
  6
CONTINUOUS
  0
LAYER
  2
0
 70
0
 62
7
  6
CONTINUOUS
  0
LAYER
  2
1
 70
0
 62
7
  6
CONTINUOUS
  0
ENDTAB
  0
TABLE
  2
STYLE
 70
4
  0
STYLE
  2
STANDARD
 70
0
 40
0
 41
1
 50
0
 71
0
 42
3.5
  3
txt
  4

  0
STYLE
  2
SIMPLEX
 70
0
 40
0
 41
1
 50
0
 71
0
 42
3.5
  3
simplex
  4

  0
STYLE
  2
COMPLEX
 70
0
 40
0
 41
1
 50
0
 71
0
 42
3.5
  3
complex
  4

  0
STYLE
  2
ITALIC
 70
0
 40
0
 41
1
 50
0
 71
0
 42
3.5
  3
italic
  4

  0
ENDTAB
  0
TABLE
  2
VIEW
 70
0
  0
ENDTAB
  0
ENDSEC
  0
SECTION
  2
BLOCKS
  0
BLOCK
  8
1
  2
*D0
 70
1
 10
0
 20
0
 30
0
  0
LINE
  8
1
 62
2
 10
80.50155435453681
 20
139.489785616134
 30
0
 11
105.6015543545368
 21
139.489785616134
 31
0
  0
LINE
  8
1
 62
2
 10
105.6015543545368
 20
194.186678149383
 30
0
 11
105.6015543545368
 21
138.489785616134
 31
0
  0
LINE
  8
1
 62
2
 10
80.50155435453681
 20
183.086678149383
 30
0
 11
80.50155435453681
 21
138.489785616134
 31
0
  0
SOLID
  8
1
 62
2
 10
105.6015543545368
 20
139.489785616134
 30
0
 11
102.4015543545368
 21
139.073785616134
 31
0
 12
102.4015543545368
 22
139.905785616134
 32
0
 13
102.4015543545368
 23
139.905785616134
 33
0
  0
SOLID
  8
1
 62
2
 10
80.50155435453681
 20
139.489785616134
 30
0
 11
83.70155435453681
 21
139.905785616134
 31
0
 12
83.70155435453681
 22
139.073785616134
 32
0
 13
83.70155435453681
 23
139.073785616134
 33
0
  0
TEXT
  8
1
 62
2
 10
89.1315543545368
 20
141.009785616134
 30
0
 40
3.200000000000001
  1
25,1
 41
0.9
  0
ENDBLK
  8
0
  0
BLOCK
  8
1
  2
*D1
 70
1
 10
0
 20
0
 30
0
  0
LINE
  8
1
 62
2
 10
105.6015543545368
 20
209.284540017512
 30
0
 11
114.218547526029
 21
209.284540017512
 31
0
  0
LINE
  8
1
 62
2
 10
102.5015543545368
 20
209.284540017512
 30
0
 11
105.6015543545368
 21
209.284540017512
 31
0
  0
LINE
  8
1
 62
2
 10
96.1015543545368
 20
209.284540017512
 30
0
 11
102.5015543545368
 21
209.284540017512
 31
0
  0
LINE
  8
1
 62
2
 10
105.6015543545368
 20
196.186678149383
 30
0
 11
105.6015543545368
 21
210.284540017512
 31
0
  0
LINE
  8
1
 62
2
 10
102.5015543545368
 20
198.686678149383
 30
0
 11
102.5015543545368
 21
210.284540017512
 31
0
  0
SOLID
  8
1
 62
2
 10
105.6015543545368
 20
209.284540017512
 30
0
 11
108.8015543545368
 21
209.700540017512
 31
0
 12
108.8015543545368
 22
208.868540017512
 32
0
 13
108.8015543545368
 23
208.868540017512
 33
0
  0
SOLID
  8
1
 62
2
 10
102.5015543545368
 20
209.284540017512
 30
0
 11
99.30155435453681
 21
208.868540017512
 31
0
 12
99.30155435453681
 22
209.700540017512
 32
0
 13
99.30155435453681
 23
209.700540017512
 33
0
  0
TEXT
  8
1
 62
2
 10
112.298547526029
 20
210.484540017512
 30
0
 40
3.200000000000001
  1
3
 41
0.9
  0
ENDBLK
  8
0
  0
BLOCK
  8
1
  2
*D2
 70
1
 10
0
 20
0
 30
0
  0
LINE
  8
1
 62
2
 10
121.460769685354
 20
156.186678149383
 30
0
 11
121.460769685354
 21
149.265698541301
 31
0
  0
LINE
  8
1
 62
2
 10
121.460769685354
 20
156.186678149383
 30
0
 11
121.460769685354
 21
163.186678149383
 31
0
  0
LINE
  8
1
 62
2
 10
121.460769685354
 20
169.586678149383
 30
0
 11
121.460769685354
 21
163.186678149383
 31
0
  0
LINE
  8
1
 62
2
 10
106.6015543545368
 20
163.186678149383
 30
0
 11
122.460769685354
 21
163.186678149383
 31
0
  0
LINE
  8
1
 62
2
 10
102.5015543545368
 20
156.186678149383
 30
0
 11
122.460769685354
 21
156.186678149383
 31
0
  0
SOLID
  8
1
 62
2
 10
121.460769685354
 20
163.186678149383
 30
0
 11
121.044769685354
 21
166.386678149383
 31
0
 12
121.876769685354
 22
166.386678149383
 32
0
 13
121.876769685354
 23
166.386678149383
 33
0
  0
SOLID
  8
1
 62
2
 10
121.460769685354
 20
156.186678149383
 30
0
 11
121.876769685354
 21
152.986678149383
 31
0
 12
121.044769685354
 22
152.986678149383
 32
0
 13
121.044769685354
 23
152.986678149383
 33
0
  0
TEXT
  8
1
 62
2
 10
120.260769685354
 20
149.265698541301
 30
0
 40
3.200000000000001
  1
7
 50
90
 41
0.9
  0
ENDBLK
  8
0
  0
BLOCK
  8
1
  2
*D3
 70
1
 10
0
 20
0
 30
0
  0
LINE
  8
1
 62
2
 10
64.8630200199631
 20
172.836678149383
 30
0
 11
64.8630200199631
 21
186.536678149383
 31
0
  0
LINE
  8
1
 62
2
 10
88.00155435453681
 20
186.536678149383
 30
0
 11
63.8630200199631
 21
186.536678149383
 31
0
  0
LINE
  8
1
 62
2
 10
82.00155435453681
 20
172.836678149383
 30
0
 11
63.8630200199631
 21
172.836678149383
 31
0
  0
SOLID
  8
1
 62
2
 10
64.8630200199631
 20
186.536678149383
 30
0
 11
65.2790200199631
 21
183.336678149383
 31
0
 12
64.44702001996311
 22
183.336678149383
 32
0
 13
64.44702001996311
 23
183.336678149383
 33
0
  0
SOLID
  8
1
 62
2
 10
64.8630200199631
 20
172.836678149383
 30
0
 11
64.44702001996311
 21
176.036678149383
 31
0
 12
65.2790200199631
 22
176.036678149383
 32
0
 13
65.2790200199631
 23
176.036678149383
 33
0
  0
TEXT
  8
1
 62
2
 10
63.3430200199631
 20
175.766678149383
 30
0
 40
3.200000000000001
  1
13,7
 50
90
 41
0.9
  0
ENDBLK
  8
0
  0
BLOCK
  8
1
  2
*D4
 70
1
 10
0
 20
0
 30
0
  0
LINE
  8
1
 62
2
 10
75.2903575195012
 20
184.086678149383
 30
0
 11
75.2903575195012
 21
190.486678149383
 31
0
  0
LINE
  8
1
 62
2
 10
75.2903575195012
 20
175.286678149383
 30
0
 11
75.2903575195012
 21
168.886678149383
 31
0
  0
LINE
  8
1
 62
2
 10
75.2903575195012
 20
175.286678149383
 30
0
 11
75.2903575195012
 21
184.086678149383
 31
0
  0
LINE
  8
1
 62
2
 10
79.50155435453681
 20
184.086678149383
 30
0
 11
74.2903575195012
 21
184.086678149383
 31
0
  0
LINE
  8
1
 62
2
 10
82.00155435453681
 20
175.286678149383
 30
0
 11
74.2903575195012
 21
175.286678149383
 31
0
  0
SOLID
  8
1
 62
2
 10
75.2903575195012
 20
184.086678149383
 30
0
 11
74.8743575195012
 21
187.286678149383
 31
0
 12
75.7063575195012
 22
187.286678149383
 32
0
 13
75.7063575195012
 23
187.286678149383
 33
0
  0
SOLID
  8
1
 62
2
 10
75.2903575195012
 20
175.286678149383
 30
0
 11
75.7063575195012
 21
172.086678149383
 31
0
 12
74.8743575195012
 22
172.086678149383
 32
0
 13
74.8743575195012
 23
172.086678149383
 33
0
  0
TEXT
  8
1
 62
2
 10
73.7703575195012
 20
176.726678149383
 30
0
 40
3.200000000000001
  1
8,8
 50
90
 41
0.9
  0
ENDBLK
  8
0
  0
BLOCK
  8
1
  2
*D5
 70
1
 10
0
 20
0
 30
0
  0
LINE
  8
1
 62
2
 10
115.082532751135
 20
163.186678149383
 30
0
 11
115.082532751135
 21
195.186678149383
 31
0
  0
LINE
  8
1
 62
2
 10
106.6015543545368
 20
195.186678149383
 30
0
 11
116.082532751135
 21
195.186678149383
 31
0
  0
LINE
  8
1
 62
2
 10
106.6015543545368
 20
163.186678149383
 30
0
 11
116.082532751135
 21
163.186678149383
 31
0
  0
SOLID
  8
1
 62
2
 10
115.082532751135
 20
195.186678149383
 30
0
 11
115.498532751135
 21
191.986678149383
 31
0
 12
114.666532751135
 22
191.986678149383
 32
0
 13
114.666532751135
 23
191.986678149383
 33
0
  0
SOLID
  8
1
 62
2
 10
115.082532751135
 20
163.186678149383
 30
0
 11
114.666532751135
 21
166.386678149383
 31
0
 12
115.498532751135
 22
166.386678149383
 32
0
 13
115.498532751135
 23
166.386678149383
 33
0
  0
TEXT
  8
1
 62
2
 10
113.882532751135
 20
176.786678149383
 30
0
 40
3.200000000000001
  1
32
 50
90
 41
0.9
  0
ENDBLK
  8
0
  0
BLOCK
  8
1
  2
*D6
 70
1
 10
0
 20
0
 30
0
  0
LINE
  8
1
 62
2
 10
55.9978436909154
 20
156.186678149383
 30
0
 11
55.9978436909154
 21
203.186678149383
 31
0
  0
LINE
  8
1
 62
2
 10
93.50155435453681
 20
203.186678149383
 30
0
 11
54.9978436909154
 21
203.186678149383
 31
0
  0
LINE
  8
1
 62
2
 10
100.5015543545368
 20
156.186678149383
 30
0
 11
54.9978436909154
 21
156.186678149383
 31
0
  0
SOLID
  8
1
 62
2
 10
55.9978436909154
 20
203.186678149383
 30
0
 11
56.41384369091539
 21
199.986678149383
 31
0
 12
55.58184369091539
 22
199.986678149383
 32
0
 13
55.58184369091539
 23
199.986678149383
 33
0
  0
SOLID
  8
1
 62
2
 10
55.9978436909154
 20
156.186678149383
 30
0
 11
55.58184369091539
 21
159.386678149383
 31
0
 12
56.41384369091539
 22
159.386678149383
 32
0
 13
56.41384369091539
 23
159.386678149383
 33
0
  0
TEXT
  8
1
 62
2
 10
54.7978436909154
 20
177.286678149383
 30
0
 40
3.200000000000001
  1
47
 50
90
 41
0.9
  0
ENDBLK
  8
0
  0
ENDSEC
  0
SECTION
  2
ENTITIES
  0
POINT
  8
0
 62
7
  6
DASHED
 10
101.8015543545368
 20
162.436678149383
 30
0
  0
POINT
  8
0
 62
7
  6
DASHED
 10
101.8015543545368
 20
162.436678149383
 30
0
  0
POINT
  8
0
 62
7
  6
DASHED
 10
101.8015543545368
 20
162.436678149383
 30
0
  0
POINT
  8
0
 62
7
  6
DASHED
 10
101.8015543545368
 20
162.436678149383
 30
0
  0
POINT
  8
0
 62
7
  6
DASHED
 10
96.30155435453681
 20
161.936678149383
 30
0
  0
POINT
  8
0
 62
7
  6
DASHED
 10
102.5015543545368
 20
162.436678149383
 30
0
  0
POINT
  8
0
 62
7
  6
DASHED
 10
101.3015543545368
 20
162.436678149383
 30
0
  0
POINT
  8
0
 62
7
  6
DASHED
 10
101.3015543545368
 20
196.936678149383
 30
0
  0
POINT
  8
0
 62
7
  6
DASHED
 10
96.30155435453681
 20
196.936678149383
 30
0
  0
POINT
  8
0
 62
7
  6
DASHED
 10
92.00155435453681
 20
163.436678149383
 30
0
  0
POINT
  8
0
 62
7
  6
DASHED
 10
80.50155435453681
 20
170.879926113333
 30
0
  0
LINE
  8
1
 62
7
 10
146.3540767965295
 20
120.087078725587
 30
0
 11
267.3540767965295
 21
120.087078725587
 31
0
  0
LINE
  8
1
 62
7
 10
146.3540767965295
 20
129.187078725587
 30
0
 11
267.3540767965295
 21
129.187078725587
 31
0
  0
LINE
  8
1
 62
7
 10
267.3540767965295
 20
129.187078725587
 30
0
 11
267.3540767965295
 21
107.087078725587
 31
0
  0
LINE
  8
1
 62
7
 10
146.3540767965295
 20
107.087078725587
 30
0
 11
267.3540767965295
 21
107.087078725587
 31
0
  0
LINE
  8
1
 62
7
 10
146.3540767965295
 20
107.087078725587
 30
0
 11
146.3540767965295
 21
129.187078725587
 31
0
  0
LINE
  8
1
 62
7
 10
101.3015543545368
 20
162.186678149383
 30
0
 11
101.3015543545368
 21
163.186678149383
 31
0
  0
LINE
  8
1
 62
7
 10
96.30155435453681
 20
160.774704986138
 30
0
 11
96.30155435453681
 21
163.186678149383
 31
0
  0
LINE
  8
1
 62
7
 10
101.3015543545368
 20
198.744522748401
 30
0
 11
101.3015543545368
 21
195.186678149383
 31
0
  0
LINE
  8
1
 62
7
 10
96.30155435453681
 20
198.929440692048
 30
0
 11
96.28241486486971
 21
195.186678149383
 31
0
  0
LINE
  8
0
 62
7
 10
102.5015543545368
 20
162.186678149383
 30
0
 11
101.8015543545368
 21
162.186678149383
 31
0
  0
LINE
  8
1
 62
7
 10
105.6015543545368
 20
163.186678149383
 30
0
 11
94.4015543545368
 21
163.186678149383
 31
0
  0
LINE
  8
1
 62
7
 10
105.6015543545368
 20
163.186678149383
 30
0
 11
94.4015543545368
 21
163.186678149383
 31
0
  0
LINE
  8
1
 62
7
 10
105.6015543545368
 20
163.186678149383
 30
0
 11
94.4015543545368
 21
163.186678149383
 31
0
  0
LINE
  8
1
 62
7
 10
94.4015543545368
 20
195.186678149383
 30
0
 11
94.4015543545368
 21
163.186678149383
 31
0
  0
LINE
  8
1
 62
7
 10
94.4015543545368
 20
195.186678149383
 30
0
 11
105.6015543545368
 21
195.186678149383
 31
0
  0
LINE
  8
1
 62
7
 10
105.6015543545368
 20
195.186678149383
 30
0
 11
105.6015543545368
 21
163.186678149383
 31
0
  0
LINE
  8
0
 62
7
 10
101.5015543545368
 20
203.186678149383
 30
0
 11
94.50155435453681
 21
203.186678149383
 31
0
  0
LINE
  8
0
 62
7
 10
96.80155435453681
 20
201.686678149383
 30
0
 11
100.8015543545368
 21
201.686678149383
 31
0
  0
LINE
  8
0
 62
7
 10
101.3015543545368
 20
197.186678149383
 30
0
 11
102.0015543545368
 21
197.186678149383
 31
0
  0
LINE
  8
0
 62
7
 10
93.50155435453681
 20
197.186678149383
 30
0
 11
95.80155435453681
 21
197.186678149383
 31
0
  0
LINE
  8
DEFAULT_1
 62
2
  6
CENTER
 10
87.50155435453681
 20
195.829926113333
 30
0
 11
89.00165435453681
 21
195.829926113333
 31
0
  0
LINE
  8
DEFAULT_1
 62
2
  6
CENTER
 10
87.50155435453681
 20
195.829926113333
 30
0
 11
86.0014543545368
 21
195.829926113333
 31
0
  0
LINE
  8
0
 62
7
 10
102.5015543545368
 20
197.686678149383
 30
0
 11
102.5015543545368
 21
202.186678149383
 31
0
  0
LINE
  8
0
 62
7
 10
102.5015543545368
 20
157.186678149383
 30
0
 11
102.5015543545368
 21
161.686678149383
 31
0
  0
LINE
  8
0
 62
7
 10
101.3015543545368
 20
162.186678149383
 30
0
 11
101.3015543545368
 21
158.186678149383
 31
0
  0
LINE
  8
0
 62
7
 10
101.3015543545368
 20
201.186678149383
 30
0
 11
101.3015543545368
 21
197.186678149383
 31
0
  0
LINE
  8
0
 62
7
 10
83.00155435453681
 20
186.536678149383
 30
0
 11
89.00155435453681
 21
186.536678149383
 31
0
  0
LINE
  8
0
 62
7
 10
80.50155435453681
 20
184.086678149383
 30
0
 11
83.00155435453681
 21
184.086678149383
 31
0
  0
LINE
  8
0
 62
7
 10
96.30155435453681
 20
197.686678149383
 30
0
 11
96.30155435453681
 21
201.186678149383
 31
0
  0
LINE
  8
0
 62
7
 10
96.30155435453681
 20
158.186678149383
 30
0
 11
96.30155435453681
 21
161.686678149383
 31
0
  0
LINE
  8
0
 62
7
 10
92.00155435453681
 20
163.686678149383
 30
0
 11
92.00155435453681
 21
195.686678149383
 31
0
  0
LINE
  8
DEFAULT_1
 62
2
  6
CENTER
 10
105.5015543545368
 20
179.686678149383
 30
0
 11
107.0015793545368
 21
179.686678149383
 31
0
  0
LINE
  8
DEFAULT_1
 62
2
  6
CENTER
 10
105.5015543545368
 20
179.686678149383
 30
0
 11
85.63254808488679
 21
179.686678149383
 31
0
  0
LINE
  8
0
 62
7
 10
89.50155435453681
 20
163.543430185433
 30
0
 11
89.50155435453681
 21
161.186678149383
 31
0
  0
LINE
  8
0
 62
7
 10
89.50155435453681
 20
198.186678149383
 30
0
 11
89.50155435453681
 21
195.829926113333
 31
0
  0
LINE
  8
0
 62
7
 10
89.00155435453681
 20
186.536678149383
 30
0
 11
89.00155435453681
 21
172.836678149383
 31
0
  0
LINE
  8
0
 62
7
 10
83.00155435453681
 20
175.286678149383
 30
0
 11
80.50155435453681
 21
175.286678149383
 31
0
  0
LINE
  8
DEFAULT_1
 62
2
  6
CENTER
 10
87.50155435453681
 20
195.829926113333
 30
0
 11
87.50155435453681
 21
197.330026113333
 31
0
  0
LINE
  8
DEFAULT_1
 62
2
  6
CENTER
 10
87.50155435453681
 20
163.543430185433
 30
0
 11
87.50155435453681
 21
165.043530185433
 31
0
  0
LINE
  8
DEFAULT_1
 62
2
  6
CENTER
 10
87.50155435453681
 20
163.543430185433
 30
0
 11
87.50155435453681
 21
162.043330185433
 31
0
  0
LINE
  8
DEFAULT_1
 62
2
  6
CENTER
 10
87.50155435453681
 20
195.829926113333
 30
0
 11
87.50155435453681
 21
194.329826113333
 31
0
  0
LINE
  8
0
 62
7
 10
89.00155435453681
 20
172.836678149383
 30
0
 11
83.00155435453681
 21
172.836678149383
 31
0
  0
LINE
  8
0
 62
7
 10
83.00155435453681
 20
184.086678149383
 30
0
 11
83.00155435453681
 21
186.536678149383
 31
0
  0
LINE
  8
0
 62
7
 10
83.00155435453681
 20
172.836678149383
 30
0
 11
83.00155435453681
 21
175.286678149383
 31
0
  0
LINE
  8
0
 62
7
 10
80.50155435453681
 20
175.286678149383
 30
0
 11
80.50155435453681
 21
171.129926113333
 31
0
  0
LINE
  8
0
 62
7
 10
80.50155435453681
 20
188.243430185433
 30
0
 11
80.50155435453681
 21
184.086678149383
 31
0
  0
LINE
  8
0
 62
7
 10
81.4866773916368
 20
169.406550138633
 30
0
 11
88.5164313174368
 21
165.266806160133
 31
0
  0
LINE
  8
0
 62
7
 10
88.5164313174368
 20
194.106550138633
 30
0
 11
81.4866773916368
 21
189.9668061601331
 31
0
  0
LINE
  8
DEFAULT_1
 62
2
  6
CENTER
 10
87.50155435453681
 20
163.543430185433
 30
0
 11
89.00165435453681
 21
163.543430185433
 31
0
  0
LINE
  8
DEFAULT_1
 62
2
  6
CENTER
 10
87.50155435453681
 20
163.543430185433
 30
0
 11
86.0014543545368
 21
163.543430185433
 31
0
  0
LINE
  8
0
 62
7
 10
95.80155435453681
 20
162.186678149383
 30
0
 11
93.50155435453681
 21
162.186678149383
 31
0
  0
LINE
  8
0
 62
7
 10
102.0015543545368
 20
162.186678149383
 30
0
 11
101.3015543545368
 21
162.186678149383
 31
0
  0
LINE
  8
0
 62
7
 10
100.8015543545368
 20
157.686678149383
 30
0
 11
96.80155435453681
 21
157.686678149383
 31
0
  0
LINE
  8
0
 62
7
 10
94.50155435453681
 20
156.186678149383
 30
0
 11
101.5015543545368
 21
156.186678149383
 31
0
  0
LINE
  8
1
 62
7
 10
267.3540767965295
 20
203.186678149383
 30
0
 11
267.3540767965295
 21
156.186678149383
 31
0
  0
LINE
  8
1
 62
7
 10
263.2540767965294
 20
163.686678149383
 30
0
 11
263.2540767965294
 21
162.186678149383
 31
0
  0
LINE
  8
1
 62
7
 10
259.2540767965294
 20
163.686678149383
 30
0
 11
259.2540767965294
 21
162.186678149383
 31
0
  0
LINE
  8
1
 62
7
 10
263.2540767965294
 20
197.186678149383
 30
0
 11
263.2540767965294
 21
195.686678149383
 31
0
  0
LINE
  8
1
 62
7
 10
259.2540767965294
 20
197.186678149383
 30
0
 11
259.2540767965294
 21
195.686678149383
 31
0
  0
LINE
  8
1
 62
7
 10
255.6540767965294
 20
163.686678149383
 30
0
 11
255.6540767965294
 21
195.686678149383
 31
0
  0
LINE
  8
1
 62
7
 10
266.8540767965295
 20
163.686678149383
 30
0
 11
255.6540767965294
 21
163.686678149383
 31
0
  0
LINE
  8
1
 62
7
 10
266.8540767965295
 20
195.686678149383
 30
0
 11
266.8540767965295
 21
163.686678149383
 31
0
  0
LINE
  8
1
 62
7
 10
255.6540767965294
 20
195.686678149383
 30
0
 11
266.8540767965295
 21
195.686678149383
 31
0
  0
LINE
  8
1
 62
7
 10
251.1540767965294
 20
163.686678149383
 30
0
 11
251.1540767965294
 21
162.186678149383
 31
0
  0
LINE
  8
1
 62
7
 10
247.1540767965294
 20
163.686678149383
 30
0
 11
247.1540767965294
 21
162.186678149383
 31
0
  0
LINE
  8
1
 62
7
 10
251.1540767965294
 20
197.186678149383
 30
0
 11
251.1540767965294
 21
195.686678149383
 31
0
  0
LINE
  8
1
 62
7
 10
247.1540767965294
 20
197.186678149383
 30
0
 11
247.1540767965294
 21
195.686678149383
 31
0
  0
LINE
  8
1
 62
7
 10
243.5540767965294
 20
163.686678149383
 30
0
 11
243.5540767965294
 21
195.686678149383
 31
0
  0
LINE
  8
1
 62
7
 10
254.7540767965294
 20
163.686678149383
 30
0
 11
243.5540767965294
 21
163.686678149383
 31
0
  0
LINE
  8
1
 62
7
 10
254.7540767965294
 20
195.686678149383
 30
0
 11
254.7540767965294
 21
163.686678149383
 31
0
  0
LINE
  8
1
 62
7
 10
243.5540767965294
 20
195.686678149383
 30
0
 11
254.7540767965294
 21
195.686678149383
 31
0
  0
LINE
  8
1
 62
7
 10
239.0540767965294
 20
163.686678149383
 30
0
 11
239.0540767965294
 21
162.186678149383
 31
0
  0
LINE
  8
1
 62
7
 10
235.0540767965294
 20
163.686678149383
 30
0
 11
235.0540767965294
 21
162.186678149383
 31
0
  0
LINE
  8
1
 62
7
 10
239.0540767965294
 20
197.186678149383
 30
0
 11
239.0540767965294
 21
195.686678149383
 31
0
  0
LINE
  8
1
 62
7
 10
235.0540767965294
 20
197.186678149383
 30
0
 11
235.0540767965294
 21
195.686678149383
 31
0
  0
LINE
  8
1
 62
7
 10
231.4540767965295
 20
163.686678149383
 30
0
 11
231.4540767965295
 21
195.686678149383
 31
0
  0
LINE
  8
1
 62
7
 10
242.6540767965294
 20
163.686678149383
 30
0
 11
231.4540767965295
 21
163.686678149383
 31
0
  0
LINE
  8
1
 62
7
 10
242.6540767965294
 20
195.686678149383
 30
0
 11
242.6540767965294
 21
163.686678149383
 31
0
  0
LINE
  8
1
 62
7
 10
231.4540767965295
 20
195.686678149383
 30
0
 11
242.6540767965294
 21
195.686678149383
 31
0
  0
LINE
  8
1
 62
7
 10
226.9540767965295
 20
163.686678149383
 30
0
 11
226.9540767965295
 21
162.186678149383
 31
0
  0
LINE
  8
1
 62
7
 10
222.9540767965295
 20
163.686678149383
 30
0
 11
222.9540767965295
 21
162.186678149383
 31
0
  0
LINE
  8
1
 62
7
 10
226.9540767965295
 20
197.186678149383
 30
0
 11
226.9540767965295
 21
195.686678149383
 31
0
  0
LINE
  8
1
 62
7
 10
222.9540767965295
 20
197.186678149383
 30
0
 11
222.9540767965295
 21
195.686678149383
 31
0
  0
LINE
  8
1
 62
7
 10
219.3540767965295
 20
163.686678149383
 30
0
 11
219.3540767965295
 21
195.686678149383
 31
0
  0
LINE
  8
1
 62
7
 10
230.5540767965294
 20
163.686678149383
 30
0
 11
219.3540767965295
 21
163.686678149383
 31
0
  0
LINE
  8
1
 62
7
 10
230.5540767965294
 20
195.686678149383
 30
0
 11
230.5540767965294
 21
163.686678149383
 31
0
  0
LINE
  8
1
 62
7
 10
219.3540767965295
 20
195.686678149383
 30
0
 11
230.5540767965294
 21
195.686678149383
 31
0
  0
LINE
  8
1
 62
7
 10
214.8540767965295
 20
163.686678149383
 30
0
 11
214.8540767965295
 21
162.186678149383
 31
0
  0
LINE
  8
1
 62
7
 10
210.8540767965295
 20
163.686678149383
 30
0
 11
210.8540767965295
 21
162.186678149383
 31
0
  0
LINE
  8
1
 62
7
 10
214.8540767965295
 20
197.186678149383
 30
0
 11
214.8540767965295
 21
195.686678149383
 31
0
  0
LINE
  8
1
 62
7
 10
210.8540767965295
 20
197.186678149383
 30
0
 11
210.8540767965295
 21
195.686678149383
 31
0
  0
LINE
  8
1
 62
7
 10
207.2540767965295
 20
163.686678149383
 30
0
 11
207.2540767965295
 21
195.686678149383
 31
0
  0
LINE
  8
1
 62
7
 10
218.4540767965295
 20
163.686678149383
 30
0
 11
207.2540767965295
 21
163.686678149383
 31
0
  0
LINE
  8
1
 62
7
 10
218.4540767965295
 20
195.686678149383
 30
0
 11
218.4540767965295
 21
163.686678149383
 31
0
  0
LINE
  8
1
 62
7
 10
207.2540767965295
 20
195.686678149383
 30
0
 11
218.4540767965295
 21
195.686678149383
 31
0
  0
LINE
  8
1
 62
7
 10
202.7540767965295
 20
163.686678149383
 30
0
 11
202.7540767965295
 21
162.186678149383
 31
0
  0
LINE
  8
1
 62
7
 10
198.7540767965295
 20
163.686678149383
 30
0
 11
198.7540767965295
 21
162.186678149383
 31
0
  0
LINE
  8
1
 62
7
 10
202.7540767965295
 20
197.186678149383
 30
0
 11
202.7540767965295
 21
195.686678149383
 31
0
  0
LINE
  8
1
 62
7
 10
198.7540767965295
 20
197.186678149383
 30
0
 11
198.7540767965295
 21
195.686678149383
 31
0
  0
LINE
  8
1
 62
7
 10
195.1540767965295
 20
163.686678149383
 30
0
 11
195.1540767965295
 21
195.686678149383
 31
0
  0
LINE
  8
1
 62
7
 10
206.3540767965295
 20
163.686678149383
 30
0
 11
195.1540767965295
 21
163.686678149383
 31
0
  0
LINE
  8
1
 62
7
 10
206.3540767965295
 20
195.686678149383
 30
0
 11
206.3540767965295
 21
163.686678149383
 31
0
  0
LINE
  8
1
 62
7
 10
195.1540767965295
 20
195.686678149383
 30
0
 11
206.3540767965295
 21
195.686678149383
 31
0
  0
LINE
  8
1
 62
7
 10
190.6540767965295
 20
163.686678149383
 30
0
 11
190.6540767965295
 21
162.186678149383
 31
0
  0
LINE
  8
1
 62
7
 10
186.6540767965295
 20
163.686678149383
 30
0
 11
186.6540767965295
 21
162.186678149383
 31
0
  0
LINE
  8
1
 62
7
 10
190.6540767965295
 20
197.186678149383
 30
0
 11
190.6540767965295
 21
195.686678149383
 31
0
  0
LINE
  8
1
 62
7
 10
186.6540767965295
 20
197.186678149383
 30
0
 11
186.6540767965295
 21
195.686678149383
 31
0
  0
LINE
  8
1
 62
7
 10
183.0540767965295
 20
163.686678149383
 30
0
 11
183.0540767965295
 21
195.686678149383
 31
0
  0
LINE
  8
1
 62
7
 10
194.2540767965295
 20
163.686678149383
 30
0
 11
183.0540767965295
 21
163.686678149383
 31
0
  0
LINE
  8
1
 62
7
 10
194.2540767965295
 20
195.686678149383
 30
0
 11
194.2540767965295
 21
163.686678149383
 31
0
  0
LINE
  8
1
 62
7
 10
183.0540767965295
 20
195.686678149383
 30
0
 11
194.2540767965295
 21
195.686678149383
 31
0
  0
LINE
  8
1
 62
7
 10
178.5540767965295
 20
163.686678149383
 30
0
 11
178.5540767965295
 21
162.186678149383
 31
0
  0
LINE
  8
1
 62
7
 10
174.5540767965295
 20
163.686678149383
 30
0
 11
174.5540767965295
 21
162.186678149383
 31
0
  0
LINE
  8
1
 62
7
 10
178.5540767965295
 20
197.186678149383
 30
0
 11
178.5540767965295
 21
195.686678149383
 31
0
  0
LINE
  8
1
 62
7
 10
174.5540767965295
 20
197.186678149383
 30
0
 11
174.5540767965295
 21
195.686678149383
 31
0
  0
LINE
  8
1
 62
7
 10
170.9540767965295
 20
163.686678149383
 30
0
 11
170.9540767965295
 21
195.686678149383
 31
0
  0
LINE
  8
1
 62
7
 10
182.1540767965295
 20
163.686678149383
 30
0
 11
170.9540767965295
 21
163.686678149383
 31
0
  0
LINE
  8
1
 62
7
 10
182.1540767965295
 20
195.686678149383
 30
0
 11
182.1540767965295
 21
163.686678149383
 31
0
  0
LINE
  8
1
 62
7
 10
170.9540767965295
 20
195.686678149383
 30
0
 11
182.1540767965295
 21
195.686678149383
 31
0
  0
LINE
  8
1
 62
7
 10
166.4540767965295
 20
163.686678149383
 30
0
 11
166.4540767965295
 21
162.186678149383
 31
0
  0
LINE
  8
1
 62
7
 10
162.4540767965295
 20
163.686678149383
 30
0
 11
162.4540767965295
 21
162.186678149383
 31
0
  0
LINE
  8
1
 62
7
 10
166.4540767965295
 20
197.186678149383
 30
0
 11
166.4540767965295
 21
195.686678149383
 31
0
  0
LINE
  8
1
 62
7
 10
162.4540767965295
 20
197.186678149383
 30
0
 11
162.4540767965295
 21
195.686678149383
 31
0
  0
LINE
  8
1
 62
7
 10
158.8540767965295
 20
163.686678149383
 30
0
 11
158.8540767965295
 21
195.686678149383
 31
0
  0
LINE
  8
1
 62
7
 10
170.0540767965295
 20
163.686678149383
 30
0
 11
158.8540767965295
 21
163.686678149383
 31
0
  0
LINE
  8
1
 62
7
 10
170.0540767965295
 20
195.686678149383
 30
0
 11
170.0540767965295
 21
163.686678149383
 31
0
  0
LINE
  8
1
 62
7
 10
158.8540767965295
 20
195.686678149383
 30
0
 11
170.0540767965295
 21
195.686678149383
 31
0
  0
LINE
  8
1
 62
7
 10
154.3540767965295
 20
163.686678149383
 30
0
 11
154.3540767965295
 21
162.186678149383
 31
0
  0
LINE
  8
1
 62
7
 10
150.3540767965295
 20
163.686678149383
 30
0
 11
150.3540767965295
 21
162.186678149383
 31
0
  0
LINE
  8
1
 62
7
 10
154.3540767965295
 20
197.186678149383
 30
0
 11
154.3540767965295
 21
195.686678149383
 31
0
  0
LINE
  8
1
 62
7
 10
150.3540767965295
 20
197.186678149383
 30
0
 11
150.3540767965295
 21
195.686678149383
 31
0
  0
LINE
  8
1
 62
7
 10
146.7540767965295
 20
163.686678149383
 30
0
 11
146.7540767965295
 21
195.686678149383
 31
0
  0
LINE
  8
1
 62
7
 10
157.9540767965295
 20
163.686678149383
 30
0
 11
146.7540767965295
 21
163.686678149383
 31
0
  0
LINE
  8
1
 62
7
 10
157.9540767965295
 20
195.686678149383
 30
0
 11
157.9540767965295
 21
163.686678149383
 31
0
  0
LINE
  8
1
 62
7
 10
146.7540767965295
 20
195.686678149383
 30
0
 11
157.9540767965295
 21
195.686678149383
 31
0
  0
LINE
  8
1
 62
7
 10
146.0540767965295
 20
197.186678149383
 30
0
 11
267.3540767965295
 21
197.186678149383
 31
0
  0
LINE
  8
1
 62
7
 10
146.0540767965295
 20
162.186678149383
 30
0
 11
267.3540767965295
 21
162.186678149383
 31
0
  0
LINE
  8
1
 62
7
 10
267.3540767965295
 20
156.186678149383
 30
0
 11
146.3540767965295
 21
156.186678149383
 31
0
  0
LINE
  8
1
 62
7
 10
146.3540767965295
 20
203.186678149383
 30
0
 11
146.3540767965295
 21
156.186678149383
 31
0
  0
LINE
  8
1
 62
7
 10
146.3540767965295
 20
203.186678149383
 30
0
 11
267.3540767965295
 21
203.186678149383
 31
0
  0
ARC
  8
1
 62
7
 10
261.2540767965294
 20
109.687078725587
 30
0
 40
5.599999999999874
 50
207.66400449619
 51
332.3359955038109
  0
ARC
  8
1
 62
7
 10
249.1540767965294
 20
109.687078725587
 30
0
 40
5.599999999999999
 50
207.6640044961893
 51
332.3359955038108
  0
ARC
  8
1
 62
7
 10
237.0540767965294
 20
109.687078725587
 30
0
 40
5.599999999999999
 50
207.6640044961893
 51
332.3359955038108
  0
ARC
  8
1
 62
7
 10
224.9540767965295
 20
109.687078725587
 30
0
 40
5.599999999999999
 50
207.6640044961893
 51
332.3359955038108
  0
ARC
  8
1
 62
7
 10
212.8540767965295
 20
109.687078725587
 30
0
 40
5.599999999999999
 50
207.6640044961893
 51
332.3359955038108
  0
ARC
  8
1
 62
7
 10
200.7540767965295
 20
109.687078725587
 30
0
 40
5.599999999999999
 50
207.6640044961893
 51
332.3359955038108
  0
ARC
  8
1
 62
7
 10
188.6540767965295
 20
109.687078725587
 30
0
 40
5.599999999999999
 50
207.6640044961893
 51
332.3359955038108
  0
ARC
  8
1
 62
7
 10
176.5540767965295
 20
109.687078725587
 30
0
 40
5.599999999999999
 50
207.6640044961893
 51
332.3359955038108
  0
ARC
  8
1
 62
7
 10
164.4540767965295
 20
109.687078725587
 30
0
 40
5.599999999999999
 50
207.6640044961893
 51
332.3359955038108
  0
ARC
  8
1
 62
7
 10
152.3540767965295
 20
109.687078725587
 30
0
 40
5.599999999999999
 50
207.6640044961893
 51
332.3359955038108
  0
ARC
  8
0
 62
7
 10
82.50155435453681
 20
171.129926113333
 30
0
 40
2
 50
180
 51
239.5066415974986
  0
ARC
  8
0
 62
7
 10
94.50155435453681
 20
161.186678149383
 30
0
 40
5
 50
180
 51
270
  0
ARC
  8
0
 62
7
 10
101.5015543545368
 20
157.186678149383
 30
0
 40
1
 50
270
 51
0
  0
ARC
  8
0
 62
7
 10
102.0015543545368
 20
161.686678149383
 30
0
 40
0.5
 50
0
 51
90
  0
ARC
  8
0
 62
7
 10
82.50155435453681
 20
188.243430185433
 30
0
 40
1.999999999999961
 50
120.493358402501
 51
180
  0
ARC
  8
0
 62
7
 10
94.50155435453681
 20
198.186678149383
 30
0
 40
5
 50
90
 51
180
  0
ARC
  8
0
 62
7
 10
101.5015543545368
 20
202.186678149383
 30
0
 40
1
 50
0
 51
90
  0
ARC
  8
0
 62
7
 10
102.0015543545368
 20
197.686678149383
 30
0
 40
0.5
 50
270
 51
0
  0
ARC
  8
0
 62
7
 10
95.80155435453681
 20
197.686678149383
 30
0
 40
0.5
 50
270
 51
0
  0
ARC
  8
0
 62
7
 10
95.80155435453681
 20
161.686678149383
 30
0
 40
0.5
 50
0
 51
90
  0
ARC
  8
0
 62
7
 10
87.50155435453681
 20
163.543430185433
 30
0
 40
2
 50
0
 51
59.50664159750061
  0
ARC
  8
0
 62
7
 10
87.50155435453681
 20
195.829926113333
 30
0
 40
1.999999999999929
 50
300.493358402501
 51
0
  0
ARC
  8
0
 62
7
 10
93.50155435453681
 20
163.686678149383
 30
0
 40
1.5
 50
180
 51
270
  0
ARC
  8
0
 62
7
 10
93.50155435453681
 20
195.686678149383
 30
0
 40
1.5
 50
90
 51
180
  0
ARC
  8
0
 62
7
 10
96.80155435453681
 20
158.186678149383
 30
0
 40
0.5
 50
180
 51
270
  0
ARC
  8
0
 62
7
 10
100.8015543545368
 20
158.186678149383
 30
0
 40
0.5
 50
270
 51
0
  0
ARC
  8
0
 62
7
 10
96.80155435453681
 20
201.186678149383
 30
0
 40
0.5
 50
90
 51
180
  0
ARC
  8
0
 62
7
 10
100.8015543545368
 20
201.186678149383
 30
0
 40
0.5
 50
0
 51
90
  0
DIMENSION
  8
1
  6
CONTINUOUS
 62
2
  2
*D0
  3
DMST_1
 10
105.6015543545368
 20
139.489785616134
 30
0
 11
93.05155435453681
 21
142.449785616134
 31
0
 12
0
 22
0
 32
0
 70
0
 13
80.50155435453681
 23
184.086678149383
 33
0
 14
105.6015543545368
 24
195.186678149383
 34
0
 53
0
  0
DIMENSION
  8
1
  6
CONTINUOUS
 62
2
  2
*D1
  3
DMST_1
 10
105.6015543545368
 20
209.284540017512
 30
0
 11
113.258547526029
 21
212.084540017512
 31
0
 12
0
 22
0
 32
0
 70
0
  1
3
 13
102.5015543545368
 23
197.686678149383
 33
0
 14
105.6015543545368
 24
195.186678149383
 34
0
 53
0
  0
DIMENSION
  8
1
  6
CONTINUOUS
 62
2
  2
*D2
  3
DMST_1
 10
121.460769685354
 20
156.186678149383
 30
0
 11
118.660769685354
 21
150.225698541301
 31
0
 12
0
 22
0
 32
0
 70
0
 13
105.6015543545368
 23
163.186678149383
 33
0
 14
101.5015543545368
 24
156.186678149383
 34
0
 50
90
 53
0
  0
DIMENSION
  8
1
  6
CONTINUOUS
 62
2
  2
*D3
  3
DMST_1
 10
64.8630200199631
 20
186.536678149383
 30
0
 11
61.9030200199631
 21
179.686678149383
 31
0
 12
0
 22
0
 32
0
 70
0
 13
83.00155435453681
 23
172.836678149383
 33
0
 14
89.00155435453681
 24
186.536678149383
 34
0
 50
90
 53
0
  0
DIMENSION
  8
1
  6
CONTINUOUS
 62
2
  2
*D4
  3
DMST_1
 10
75.2903575195012
 20
184.086678149383
 30
0
 11
72.33035751950121
 21
179.686678149383
 31
0
 12
0
 22
0
 32
0
 70
0
 13
83.00155435453681
 23
175.286678149383
 33
0
 14
80.50155435453681
 24
184.086678149383
 34
0
 50
90
 53
0
  0
DIMENSION
  8
1
  6
CONTINUOUS
 62
2
  2
*D5
  3
DMST_1
 10
115.082532751135
 20
195.186678149383
 30
0
 11
112.282532751135
 21
179.186678149383
 31
0
 12
0
 22
0
 32
0
 70
0
 13
105.6015543545368
 23
163.186678149383
 33
0
 14
105.6015543545368
 24
195.186678149383
 34
0
 50
90
 53
0
  0
DIMENSION
  8
1
  6
CONTINUOUS
 62
2
  2
*D6
  3
DMST_1
 10
55.9978436909154
 20
203.186678149383
 30
0
 11
53.1978436909154
 21
179.686678149383
 31
0
 12
0
 22
0
 32
0
 70
0
 13
101.5015543545368
 23
156.186678149383
 33
0
 14
94.50155435453681
 24
203.186678149383
 34
0
 50
90
 53
0
  0
ENDSEC
  0
EOF
