0
SECTION
2
HEADER
9
$EXTMAX
10
297.0000000000
20
210.0000000000
30
0.0000000000
9
$EXTMIN
10
0.0000000000
20
0.0000000000
30
0.0000000000
9
$LIMMIN
10
0.0000000000
20
0.0000000000
9
$LIMMAX
10
297.0000000000
20
210.0000000000
9
$VIEWCTR
10
148.5000000000
20
105.0000000000
9
$VIEWSIZE
40
210.0000000000
9
$CLAYER
8
0
9
$LTSCALE
40
16.3350000000
9
$CELTYPE
6
BYLAYER
9
$DIMSCALE
40
1
9
$DIMASZ
40
3.5000000000
9
$DIMEXO
40
1.8562500000
9
$DIMDLI
40
11.2860000000
9
$DIMEXE
40
5.3460000000
9
$DIMCEN
40
2.6730000000
9
$DIMLFAC
40
1.0000000000
9
$DIMBLK
1
_FILLED
9
$DIMTXT
40
3.5000000000
9
$PDMODE
70
3
9
$PDSIZE
40
0.3125000000
0
ENDSEC
0
SECTION
2
TABLES
0
TABLE
2
LTYPE
70
6
0
LTYPE
2
BYBLOCK
70
0
3

72
65
73
0
40
0.0
0
LTYPE
2
BYLAYER
70
0
3

72
65
73
0
40
0.0
0
LTYPE
2
CONTINUOUS
70
64
3
Solid line
72
65
73
0
40
0
0
LTYPE
2
CENTER
70
64
3
____ _ ____ _ ____ _ ____ _ ____ _ ____ _ ____
72
65
73
4
40
0.6
49
0.375
49
-0.075
49
0.075
49
-0.075
0
LTYPE
2
HIDDEN
70
64
3
- - - - - - - - - - - - - - - - - - - -
72
65
73
2
40
0.2
49
0.1
49
-0.1
0
LTYPE
2
PHANTOM
70
64
3
_____ _ _ _____ _ _ _____ _ _ _____
72
65
73
6
40
0.8
49
0.45
49
-0.05
49
0.1
49
-0.05
49
0.1
49
-0.05
0
LTYPE
2
DOT
70
64
3
. . . . . . . . . . . . . . . . . . . .
72
65
73
2
40
0.2
49
0.1
49
-0.1
0
LTYPE
2
DASHED
70
64
3
- - - - - - - - - - - - - - - - - - - -
72
65
73
2
40
0.2
49
0.1
49
-0.1
0
ENDTAB
0
TABLE
2
LAYER
70
36
0
LAYER
2
0
70
0
62
7
6
CONTINUOUS
0
LAYER
2
DEFAULT_1
70
0
62
7
6
CENTER
0
LAYER
2
DEFAULT_2
70
0
62
8
6
HIDDEN
0
LAYER
2
DEFAULT_3
70
0
62
7
6
PHANTOM
0
LAYER
2
_BLACK_HOLE
70
0
62
7
6
CONTINUOUS
0
LAYER
2
ASSI
70
0
62
7
6
CONTINUOUS
0
LAYER
2
PIANI
70
0
62
7
6
CONTINUOUS
0
LAYER
2
SURF_FILETTI
70
0
62
7
6
CONTINUOUS
0
ENDTAB
0
TABLE
2
STYLE
70
1
0
STYLE
2
STANDARD
70
0
40
0.0
41
0.7143000000
50
0.0
71
0
42
0.2
3
txt
4

0
ENDTAB
0
ENDSEC
0
SECTION
2
BLOCKS
0
BLOCK
8
0
62
2
6
CONTINUOUS
2
*D0
70
65
10
0.0000000000
20
0.0000000000
0
TEXT
8
0
62
2
6
CONTINUOUS
10
125.0493176603
20
134.6541589412
7
STANDARD
40
3.5000000000
1
12.1
41
0.7143000000
72
0
0
LINE
8
0
62
2
6
CONTINUOUS
10
139.2957372116
20
126.9739719157
11
139.2957372116
21
135.2791589412
0
LINE
8
0
62
2
6
CONTINUOUS
10
151.3957372116
20
126.9739719157
11
151.3957372116
21
135.2791589412
0
LINE
8
0
62
2
6
CONTINUOUS
10
139.2957372116
20
133.7791589412
11
145.3457372116
21
133.7791589412
0
LINE
8
0
62
2
6
CONTINUOUS
10
145.3457372116
20
133.7791589412
11
125.0493176603
21
133.7791589412
0
LINE
8
0
62
2
6
CONTINUOUS
10
151.3957372116
20
133.7791589412
11
145.3457372116
21
133.7791589412
0
INSERT
8
0
62
2
6
CONTINUOUS
2
_FILLED
10
139.2957372116
20
133.7791589412
41
  3.500000
42
  3.500000
43
  3.500000
50
180.000000
0
INSERT
8
0
62
2
6
CONTINUOUS
2
_FILLED
10
151.3957372116
20
133.7791589412
41
  3.500000
42
  3.500000
43
  3.500000
0
ENDBLK
8
0
6
BYBLOCK
62
0
0
BLOCK
8
0
62
2
6
CONTINUOUS
2
*D1
70
65
10
0.0000000000
20
0.0000000000
0
TEXT
8
0
62
2
6
CONTINUOUS
10
173.4853986368
20
69.4954750716
7
STANDARD
40
3.5000000000
1
%%c
41
1.3333333333
72
0
0
TEXT
8
0
62
2
6
CONTINUOUS
10
178.1520653035
20
69.4954750716
7
STANDARD
40
3.5000000000
1
12.7
41
0.7143000000
72
0
0
LINE
8
0
62
2
6
CONTINUOUS
10
157.1457372116
20
95.4239719157
11
157.1457372116
21
67.1204750716
0
LINE
8
0
62
2
6
CONTINUOUS
10
169.8457372116
20
95.4239719157
11
169.8457372116
21
67.1204750716
0
LINE
8
0
62
2
6
CONTINUOUS
10
157.1457372116
20
68.6204750716
11
163.4957372116
21
68.6204750716
0
LINE
8
0
62
2
6
CONTINUOUS
10
169.8457372116
20
68.6204750716
11
163.4957372116
21
68.6204750716
0
LINE
8
0
62
2
6
CONTINUOUS
10
163.4957372116
20
68.6204750716
11
188.1522653035
21
68.6204750716
0
INSERT
8
0
62
2
6
CONTINUOUS
2
_FILLED
10
157.1457372116
20
68.6204750716
41
  3.500000
42
  3.500000
43
  3.500000
50
180.000000
0
INSERT
8
0
62
2
6
CONTINUOUS
2
_FILLED
10
169.8457372116
20
68.6204750716
41
  3.500000
42
  3.500000
43
  3.500000
0
ENDBLK
8
0
6
BYBLOCK
62
0
0
BLOCK
8
0
62
2
6
CONTINUOUS
2
*D2
70
65
10
0.0000000000
20
0.0000000000
0
TEXT
8
0
62
2
6
CONTINUOUS
10
129.9163103144
20
144.9918022624
7
STANDARD
40
3.5000000000
1
121
41
0.7143000000
72
0
0
LINE
8
0
62
2
6
CONTINUOUS
10
72.9957372116
20
123.3079465120
11
72.9957372116
21
145.6168022624
0
LINE
8
0
62
2
6
CONTINUOUS
10
193.4957372116
20
123.3079465120
11
193.4957372116
21
145.6168022624
0
LINE
8
0
62
2
6
CONTINUOUS
10
72.9957372116
20
144.1168022624
11
133.2457372116
21
144.1168022624
0
LINE
8
0
62
2
6
CONTINUOUS
10
193.4957372116
20
144.1168022624
11
133.2457372116
21
144.1168022624
0
INSERT
8
0
62
2
6
CONTINUOUS
2
_FILLED
10
72.9957372116
20
144.1168022624
41
  3.500000
42
  3.500000
43
  3.500000
50
180.000000
0
INSERT
8
0
62
2
6
CONTINUOUS
2
_FILLED
10
193.4957372116
20
144.1168022624
41
  3.500000
42
  3.500000
43
  3.500000
0
ENDBLK
8
0
6
BYBLOCK
62
0
0
BLOCK
8
0
2
_FILLED
70
64
10
0.0000000000
20
0.0000000000
0
SOLID
8
0
6
BYBLOCK
62
0
10
0.0000000000
20
0.0000000000
11
-1.0000000000
21
0.1857142857
12
-1.0000000000
22
-0.1857142857
13
-1.0000000000
23
-0.1857142857
0
ENDBLK
8
0
6
BYBLOCK
62
0
0
ENDSEC
0
SECTION
2
ENTITIES
0
DIMENSION
8
0
62
2
6
CONTINUOUS
2
*D0
10
151.3957372116
20
133.7791589412
11
130.0494176603
21
136.4041589412
70
128
13
139.2957372116
23
126.9739719157
14
151.3957372116
24
126.9739719157
0
DIMENSION
8
0
62
2
6
CONTINUOUS
2
*D1
10
169.8457372116
20
68.6204750716
11
180.8188319702
21
71.2454750716
70
128
13
157.1457372116
23
95.4239719157
14
169.8457372116
24
95.4239719157
0
DIMENSION
8
0
62
2
6
CONTINUOUS
2
*D2
10
193.4957372116
20
144.1168022624
11
133.6663853144
21
146.7418022624
70
128
13
72.9957372116
23
123.3079465120
14
193.4957372116
24
123.3079465120
0
LINE
8
0
62
7
6
CONTINUOUS
10
0.0000000000
20
0.0000000000
11
0.0000000000
21
210.0000000000
0
LINE
8
0
62
7
6
CONTINUOUS
10
0.0000000000
20
0.0000000000
11
297.0000000000
21
0.0000000000
0
LINE
8
0
62
7
6
CONTINUOUS
10
0.0000000000
20
210.0000000000
11
297.0000000000
21
210.0000000000
0
LINE
8
0
62
7
6
CONTINUOUS
10
297.0000000000
20
0.0000000000
11
297.0000000000
21
210.0000000000
0
LINE
8
0
62
7
6
CONTINUOUS
10
72.9957372116
20
122.8079465120
11
72.9957372116
21
119.7899973195
0
LINE
8
0
62
7
6
CONTINUOUS
10
72.9957372116
20
80.8399973195
11
72.9957372116
21
83.8579465120
0
LINE
8
0
62
7
6
CONTINUOUS
10
74.3797118079
20
80.0409592139
11
74.3797118079
21
84.6569846176
0
LINE
8
0
62
7
6
CONTINUOUS
10
74.3797118079
20
118.9909592139
11
74.3797118079
21
123.6069846176
0
LINE
8
0
62
7
6
CONTINUOUS
10
74.6297118079
20
79.9739719157
11
74.6297118079
21
84.7239719157
0
LINE
8
0
62
7
6
CONTINUOUS
10
74.6297118079
20
118.9239719157
11
74.6297118079
21
123.6739719157
0
LINE
8
0
62
7
6
CONTINUOUS
10
75.9957372116
20
117.1239719157
11
75.9957372116
21
118.1739719157
0
LINE
8
0
62
7
6
CONTINUOUS
10
77.2339833650
20
118.7064866191
11
77.2841938021
21
118.9239719157
0
LINE
8
0
62
7
6
CONTINUOUS
10
77.2841938021
20
84.7239719157
11
77.2339833931
21
84.9414570907
0
LINE
8
DEFAULT_1
62
2
6
CENTER
10
78.7957372116
20
77.1739719157
11
78.7957372116
21
126.4739719157
0
LINE
8
0
62
7
6
CONTINUOUS
10
81.5957372116
20
117.1239719157
11
81.5957372116
21
118.1739719157
0
LINE
8
0
62
7
6
CONTINUOUS
10
80.3072806212
20
84.7239719157
11
80.3574910301
21
84.9414570907
0
LINE
8
0
62
7
6
CONTINUOUS
10
72.9957372116
20
122.8079465120
11
74.3797118079
21
123.6069846176
0
LINE
8
0
62
7
6
CONTINUOUS
10
72.9957372116
20
80.8399973195
11
74.3797118079
21
80.0409592139
0
LINE
8
0
62
7
6
CONTINUOUS
10
80.3574910582
20
118.7064866191
11
80.3072806212
21
118.9239719157
0
LINE
8
0
62
7
6
CONTINUOUS
10
86.8957372116
20
116.9239719157
11
86.8957372116
21
111.9112253904
0
LINE
8
0
62
7
6
CONTINUOUS
10
86.8957372116
20
85.5239719157
11
86.8957372116
21
90.5367184411
0
LINE
8
0
62
7
6
CONTINUOUS
10
88.0957372116
20
117.9739719157
11
88.0957372116
21
117.1239719157
0
LINE
8
0
62
7
6
CONTINUOUS
10
88.0957372116
20
85.3239719157
11
88.0957372116
21
85.2739719157
0
LINE
8
0
62
7
6
CONTINUOUS
10
89.4286150476
20
118.9163814691
11
89.3339833931
21
118.5064867408
0
LINE
8
DEFAULT_1
62
2
6
CENTER
10
90.8957372116
20
126.2739719157
11
90.8957372116
21
76.9739719157
0
LINE
8
0
62
7
6
CONTINUOUS
10
93.6957372116
20
117.9739719157
11
93.6957372116
21
117.1239719157
0
LINE
8
0
62
7
6
CONTINUOUS
10
93.6957372116
20
85.3239719157
11
93.6957372116
21
85.2739719157
0
LINE
8
0
62
7
6
CONTINUOUS
10
94.8957372116
20
116.9239719157
11
94.8957372116
21
111.9112253904
0
LINE
8
0
62
7
6
CONTINUOUS
10
94.8957372116
20
85.5239719157
11
94.8957372116
21
90.5367184411
0
LINE
8
0
62
7
6
CONTINUOUS
10
101.4841938021
20
118.9239719157
11
101.4339833931
21
118.7064867408
0
LINE
8
0
62
7
6
CONTINUOUS
10
92.3628593757
20
118.9163814691
11
92.4574910301
21
118.5064867408
0
LINE
8
0
62
7
6
CONTINUOUS
10
101.4339833650
20
84.9414572124
11
101.4841938021
21
84.7239719157
0
LINE
8
0
62
7
6
CONTINUOUS
10
100.1957372116
20
118.1739719157
11
100.1957372116
21
117.1239719157
0
LINE
8
DEFAULT_1
62
2
6
CENTER
10
102.9957372116
20
126.4739719157
11
102.9957372116
21
77.1739719157
0
LINE
8
0
62
7
6
CONTINUOUS
10
105.7957372116
20
118.1739719157
11
105.7957372116
21
117.1239719157
0
LINE
8
0
62
7
6
CONTINUOUS
10
111.0957372116
20
116.9239719157
11
111.0957372116
21
111.9112253904
0
LINE
8
0
62
7
6
CONTINUOUS
10
111.0957372116
20
85.5239719157
11
111.0957372116
21
90.5367184411
0
LINE
8
0
62
7
6
CONTINUOUS
10
104.5574910582
20
84.9414572124
11
104.5072806212
21
84.7239719157
0
LINE
8
0
62
7
6
CONTINUOUS
10
113.5841938021
20
118.9239719157
11
113.5339833931
21
118.7064867408
0
LINE
8
0
62
7
6
CONTINUOUS
10
74.6297118079
20
79.9739719157
11
191.8617626154
21
79.9739719157
0
LINE
8
0
62
7
6
CONTINUOUS
10
104.5072806212
20
118.9239719157
11
104.5574910301
21
118.7064867408
0
LINE
8
0
62
7
6
CONTINUOUS
10
113.5339833650
20
84.9414572124
11
113.5841938021
21
84.7239719157
0
LINE
8
0
62
7
6
CONTINUOUS
10
112.2957372116
20
118.1739719157
11
112.2957372116
21
117.1239719157
0
LINE
8
DEFAULT_1
62
2
6
CENTER
10
115.0957372116
20
126.4739719157
11
115.0957372116
21
77.1739719157
0
LINE
8
0
62
7
6
CONTINUOUS
10
74.6297118079
20
84.7239719157
11
191.8617626154
21
84.7239719157
0
LINE
8
0
62
7
6
CONTINUOUS
10
89.3339833621
20
84.7414572250
11
92.4574910611
21
84.7414572250
0
LINE
8
0
62
7
6
CONTINUOUS
10
101.4339833621
20
84.9414572250
11
104.5574910611
21
84.9414572250
0
LINE
8
0
62
7
6
CONTINUOUS
10
113.5339833621
20
84.9414572250
11
116.6574910611
21
84.9414572250
0
LINE
8
0
62
7
6
CONTINUOUS
10
125.6339833621
20
84.9414572250
11
128.7574910611
21
84.9414572250
0
LINE
8
0
62
7
6
CONTINUOUS
10
137.7339833621
20
84.9414572250
11
140.8574910611
21
84.9414572250
0
LINE
8
0
62
7
6
CONTINUOUS
10
149.8339833621
20
84.9414572250
11
152.9574910611
21
84.9414572250
0
LINE
8
0
62
7
6
CONTINUOUS
10
161.9339833621
20
84.9414572250
11
165.0574910611
21
84.9414572250
0
LINE
8
0
62
7
6
CONTINUOUS
10
174.0339833621
20
84.9414572250
11
177.1574910611
21
84.9414572250
0
LINE
8
0
62
7
6
CONTINUOUS
10
186.1339833621
20
84.9414572250
11
189.2574910611
21
84.9414572250
0
LINE
8
0
62
7
6
CONTINUOUS
10
80.3574910334
20
84.9414571048
11
77.2339833899
21
84.9414571048
0
LINE
8
0
62
7
6
CONTINUOUS
10
93.3953565478
20
84.9739719157
11
88.3957372116
21
84.9739719157
0
LINE
8
0
62
7
6
CONTINUOUS
10
117.8957372116
20
118.1739719157
11
117.8957372116
21
117.1239719157
0
LINE
8
0
62
7
6
CONTINUOUS
10
119.0957372116
20
116.9239719157
11
119.0957372116
21
111.9112253904
0
LINE
8
0
62
7
6
CONTINUOUS
10
119.0957372116
20
85.5239719157
11
119.0957372116
21
90.5367184411
0
LINE
8
0
62
7
6
CONTINUOUS
10
116.6574910582
20
84.9414572124
11
116.6072806212
21
84.7239719157
0
LINE
8
0
62
7
6
CONTINUOUS
10
72.9957372116
20
83.8579465120
11
74.3797118079
21
84.6569846176
0
LINE
8
0
62
7
6
CONTINUOUS
10
190.1953565478
20
85.1739719157
11
185.1957372116
21
85.1739719157
0
LINE
8
0
62
7
6
CONTINUOUS
10
178.0953565478
20
85.1739719157
11
173.0957372116
21
85.1739719157
0
LINE
8
0
62
7
6
CONTINUOUS
10
165.9953565478
20
85.1739719157
11
160.9957372116
21
85.1739719157
0
LINE
8
0
62
7
6
CONTINUOUS
10
153.8953565478
20
85.1739719157
11
148.8957372116
21
85.1739719157
0
LINE
8
0
62
7
6
CONTINUOUS
10
141.7953565478
20
85.1739719157
11
136.7957372116
21
85.1739719157
0
LINE
8
0
62
7
6
CONTINUOUS
10
129.6953565478
20
85.1739719157
11
124.6957372116
21
85.1739719157
0
LINE
8
0
62
7
6
CONTINUOUS
10
117.5953565478
20
85.1739719157
11
112.5957372116
21
85.1739719157
0
LINE
8
0
62
7
6
CONTINUOUS
10
105.4953565478
20
85.1739719157
11
100.4957372116
21
85.1739719157
0
LINE
8
0
62
7
6
CONTINUOUS
10
81.2953565478
20
85.1739719157
11
76.2961178755
21
85.1739719157
0
LINE
8
0
62
7
6
CONTINUOUS
10
93.6957372111
20
85.2739719157
11
88.0957372122
21
85.2739719157
0
LINE
8
0
62
7
6
CONTINUOUS
10
106.3397617331
20
85.3239719157
11
99.6517126902
21
85.3239719157
0
LINE
8
0
62
7
6
CONTINUOUS
10
82.1397617331
20
85.3239719157
11
75.4517126902
21
85.3239719157
0
LINE
8
0
62
7
6
CONTINUOUS
10
87.0957372116
20
85.3239719157
11
94.6957372116
21
85.3239719157
0
LINE
8
0
62
7
6
CONTINUOUS
10
111.2957372116
20
85.3239719157
11
118.8957372116
21
85.3239719157
0
LINE
8
0
62
7
6
CONTINUOUS
10
123.8517126902
20
85.3239719157
11
130.5397617331
21
85.3239719157
0
LINE
8
0
62
7
6
CONTINUOUS
10
135.4957372116
20
85.3239719157
11
143.0957372116
21
85.3239719157
0
LINE
8
0
62
7
6
CONTINUOUS
10
148.0517126902
20
85.3239719157
11
154.7397617331
21
85.3239719157
0
LINE
8
0
62
7
6
CONTINUOUS
10
159.6957372116
20
85.3239719157
11
167.2957372116
21
85.3239719157
0
LINE
8
0
62
7
6
CONTINUOUS
10
172.2517126902
20
85.3239719157
11
178.9397617331
21
85.3239719157
0
LINE
8
0
62
7
6
CONTINUOUS
10
183.8957372116
20
85.3239719157
11
191.4957372116
21
85.3239719157
0
LINE
8
0
62
7
6
CONTINUOUS
10
106.6255757880
20
85.4137155008
11
99.3658986352
21
85.4137155008
0
LINE
8
0
62
7
6
CONTINUOUS
10
82.4255757880
20
85.4137155008
11
75.1658986352
21
85.4137155008
0
LINE
8
0
62
7
6
CONTINUOUS
10
123.5658986288
20
85.4137155053
11
130.8255757944
21
85.4137155053
0
LINE
8
0
62
7
6
CONTINUOUS
10
147.7658986288
20
85.4137155053
11
155.0255757944
21
85.4137155053
0
LINE
8
0
62
7
6
CONTINUOUS
10
171.9658986288
20
85.4137155053
11
179.2255757944
21
85.4137155053
0
LINE
8
0
62
7
6
CONTINUOUS
10
86.8957372116
20
85.5239719157
11
94.8957372116
21
85.5239719157
0
LINE
8
0
62
7
6
CONTINUOUS
10
111.0957372116
20
85.5239719157
11
119.0957372116
21
85.5239719157
0
LINE
8
0
62
7
6
CONTINUOUS
10
135.2957372116
20
85.5239719157
11
143.2957372116
21
85.5239719157
0
LINE
8
0
62
7
6
CONTINUOUS
10
159.4957372116
20
85.5239719157
11
167.4957372116
21
85.5239719157
0
LINE
8
0
62
7
6
CONTINUOUS
10
183.6957372116
20
85.5239719157
11
191.6957372116
21
85.5239719157
0
LINE
8
0
62
7
6
CONTINUOUS
10
72.9957372116
20
119.7899973195
11
74.3797118079
21
118.9909592139
0
LINE
8
0
62
7
6
CONTINUOUS
10
116.6072806212
20
118.9239719157
11
116.6574910301
21
118.7064867408
0
LINE
8
0
62
7
6
CONTINUOUS
10
124.3957372116
20
118.1739719157
11
124.3957372116
21
117.1239719157
0
LINE
8
0
62
7
6
CONTINUOUS
10
125.6841938021
20
118.9239719157
11
125.6339833931
21
118.7064867408
0
LINE
8
0
62
7
6
CONTINUOUS
10
191.6957372116
20
90.5367184411
11
183.6957372116
21
90.5367184411
0
LINE
8
0
62
7
6
CONTINUOUS
10
167.4957372116
20
90.5367184411
11
159.4957372116
21
90.5367184411
0
LINE
8
0
62
7
6
CONTINUOUS
10
143.2957372116
20
90.5367184411
11
135.2957372116
21
90.5367184411
0
LINE
8
0
62
7
6
CONTINUOUS
10
119.0957372116
20
90.5367184411
11
111.0957372116
21
90.5367184411
0
LINE
8
0
62
7
6
CONTINUOUS
10
94.8957372116
20
90.5367184411
11
86.8957372116
21
90.5367184411
0
LINE
8
0
62
7
6
CONTINUOUS
10
192.0154651026
20
91.2696780974
11
183.3760093207
21
91.2696780974
0
LINE
8
0
62
7
6
CONTINUOUS
10
167.8154651026
20
91.2696780974
11
159.1760093207
21
91.2696780974
0
LINE
8
0
62
7
6
CONTINUOUS
10
143.6154651026
20
91.2696780974
11
134.9760093207
21
91.2696780974
0
LINE
8
0
62
7
6
CONTINUOUS
10
119.4154651026
20
91.2696780974
11
110.7760093207
21
91.2696780974
0
LINE
8
0
62
7
6
CONTINUOUS
10
95.2154651026
20
91.2696780974
11
86.5760093207
21
91.2696780974
0
LINE
8
0
62
7
6
CONTINUOUS
10
125.6339833650
20
84.9414572124
11
125.6841938021
21
84.7239719157
0
LINE
8
DEFAULT_1
62
2
6
CENTER
10
127.1957372116
20
126.4739719157
11
127.1957372116
21
77.1739719157
0
LINE
8
0
62
7
6
CONTINUOUS
10
106.6255757944
20
95.8342283262
11
99.3658986288
21
95.8342283262
0
LINE
8
0
62
7
6
CONTINUOUS
10
82.4255757944
20
95.8342283262
11
75.1658986288
21
95.8342283262
0
LINE
8
0
62
7
6
CONTINUOUS
10
123.5658986352
20
95.8342283307
11
130.8255757880
21
95.8342283307
0
LINE
8
0
62
7
6
CONTINUOUS
10
147.7658986352
20
95.8342283307
11
155.0255757880
21
95.8342283307
0
LINE
8
0
62
7
6
CONTINUOUS
10
171.9658986352
20
95.8342283307
11
179.2255757880
21
95.8342283307
0
LINE
8
0
62
7
6
CONTINUOUS
10
106.3397617331
20
95.9239719157
11
99.6517126902
21
95.9239719157
0
LINE
8
0
62
7
6
CONTINUOUS
10
82.1390557209
20
95.9239719157
11
75.4517126902
21
95.9239719157
0
LINE
8
0
62
7
6
CONTINUOUS
10
123.8517126902
20
95.9239719157
11
130.5397617331
21
95.9239719157
0
LINE
8
0
62
7
6
CONTINUOUS
10
148.0517126902
20
95.9239719157
11
154.7397617331
21
95.9239719157
0
LINE
8
0
62
7
6
CONTINUOUS
10
172.2517126902
20
95.9239719157
11
178.9397617331
21
95.9239719157
0
LINE
8
0
62
7
6
CONTINUOUS
10
106.6255757880
20
96.0137155008
11
99.3658986352
21
96.0137155008
0
LINE
8
0
62
7
6
CONTINUOUS
10
82.4255757880
20
96.0137155008
11
75.1658986352
21
96.0137155008
0
LINE
8
0
62
7
6
CONTINUOUS
10
123.5658986288
20
96.0137155053
11
130.8255757944
21
96.0137155053
0
LINE
8
0
62
7
6
CONTINUOUS
10
147.7658986288
20
96.0137155053
11
155.0255757944
21
96.0137155053
0
LINE
8
0
62
7
6
CONTINUOUS
10
171.9658986288
20
96.0137155053
11
179.2255757944
21
96.0137155053
0
LINE
8
0
62
7
6
CONTINUOUS
10
129.9957372116
20
118.1739719157
11
129.9957372116
21
117.1239719157
0
LINE
8
0
62
7
6
CONTINUOUS
10
128.7574910582
20
84.9414572124
11
128.7072806212
21
84.7239719157
0
LINE
8
0
62
7
6
CONTINUOUS
10
137.7841938021
20
118.9239719157
11
137.7339833931
21
118.7064867408
0
LINE
8
0
62
7
6
CONTINUOUS
10
111.4658986395
20
101.1342283336
11
118.7255757838
21
101.1342283336
0
LINE
8
0
62
7
6
CONTINUOUS
10
135.6658986395
20
101.1342283336
11
142.9255757838
21
101.1342283336
0
LINE
8
0
62
7
6
CONTINUOUS
10
159.8658986395
20
101.1342283336
11
167.1255757838
21
101.1342283336
0
LINE
8
0
62
7
6
CONTINUOUS
10
87.2658986395
20
101.1342283336
11
94.5255757838
21
101.1342283336
0
LINE
8
0
62
7
6
CONTINUOUS
10
184.0658986395
20
101.1342283336
11
191.3255757838
21
101.1342283336
0
LINE
8
0
62
7
6
CONTINUOUS
10
191.0397617090
20
101.2239719157
11
184.3517127143
21
101.2239719157
0
LINE
8
0
62
7
6
CONTINUOUS
10
166.8397617090
20
101.2239719157
11
160.1517127143
21
101.2239719157
0
LINE
8
0
62
7
6
CONTINUOUS
10
142.6397617090
20
101.2239719157
11
135.9517127143
21
101.2239719157
0
LINE
8
0
62
7
6
CONTINUOUS
10
118.4397617090
20
101.2239719157
11
111.7517127143
21
101.2239719157
0
LINE
8
0
62
7
6
CONTINUOUS
10
94.2397617090
20
101.2239719157
11
87.5517127143
21
101.2239719157
0
LINE
8
0
62
7
6
CONTINUOUS
10
142.9255757838
20
101.3137154978
11
135.6658986395
21
101.3137154978
0
LINE
8
0
62
7
6
CONTINUOUS
10
167.1255757838
20
101.3137154978
11
159.8658986395
21
101.3137154978
0
LINE
8
0
62
7
6
CONTINUOUS
10
118.7255757838
20
101.3137154978
11
111.4658986395
21
101.3137154978
0
LINE
8
0
62
7
6
CONTINUOUS
10
94.5255757838
20
101.3137154978
11
87.2658986395
21
101.3137154978
0
LINE
8
0
62
7
6
CONTINUOUS
10
191.3255757838
20
101.3137154978
11
184.0658986395
21
101.3137154978
0
LINE
8
0
62
7
6
CONTINUOUS
10
128.7072806212
20
118.9239719157
11
128.7574910301
21
118.7064867408
0
LINE
8
0
62
7
6
CONTINUOUS
10
137.7339833650
20
84.9414572124
11
137.7841938021
21
84.7239719157
0
LINE
8
0
62
7
6
CONTINUOUS
10
135.2957372116
20
116.9239719157
11
135.2957372116
21
111.9112253904
0
LINE
8
0
62
7
6
CONTINUOUS
10
135.2957372116
20
85.5239719157
11
135.2957372116
21
90.5367184411
0
LINE
8
0
62
7
6
CONTINUOUS
10
136.4957372116
20
118.1739719157
11
136.4957372116
21
117.1239719157
0
LINE
8
0
62
7
6
CONTINUOUS
10
106.6255757944
20
106.4342283262
11
99.3658986288
21
106.4342283262
0
LINE
8
0
62
7
6
CONTINUOUS
10
82.4255757944
20
106.4342283262
11
75.1658986288
21
106.4342283262
0
LINE
8
0
62
7
6
CONTINUOUS
10
123.5658986352
20
106.4342283307
11
130.8255757880
21
106.4342283307
0
LINE
8
0
62
7
6
CONTINUOUS
10
147.7658986352
20
106.4342283307
11
155.0255757880
21
106.4342283307
0
LINE
8
0
62
7
6
CONTINUOUS
10
171.9658986352
20
106.4342283307
11
179.2255757880
21
106.4342283307
0
LINE
8
0
62
7
6
CONTINUOUS
10
106.3397617331
20
106.5239719157
11
99.6517126902
21
106.5239719157
0
LINE
8
0
62
7
6
CONTINUOUS
10
82.1397617331
20
106.5239719157
11
75.4517126902
21
106.5239719157
0
LINE
8
0
62
7
6
CONTINUOUS
10
123.8517126902
20
106.5239719157
11
130.5397617331
21
106.5239719157
0
LINE
8
0
62
7
6
CONTINUOUS
10
148.0517126902
20
106.5239719157
11
154.7397617331
21
106.5239719157
0
LINE
8
0
62
7
6
CONTINUOUS
10
172.2517126902
20
106.5239719157
11
178.9397617331
21
106.5239719157
0
LINE
8
0
62
7
6
CONTINUOUS
10
106.6255757880
20
106.6137155008
11
99.3658986352
21
106.6137155008
0
LINE
8
0
62
7
6
CONTINUOUS
10
82.4255757880
20
106.6137155008
11
75.1658986352
21
106.6137155008
0
LINE
8
0
62
7
6
CONTINUOUS
10
123.5658986288
20
106.6137155053
11
130.8255757944
21
106.6137155053
0
LINE
8
0
62
7
6
CONTINUOUS
10
147.7658986288
20
106.6137155053
11
155.0255757944
21
106.6137155053
0
LINE
8
0
62
7
6
CONTINUOUS
10
171.9658986288
20
106.6137155053
11
179.2255757944
21
106.6137155053
0
LINE
8
DEFAULT_1
62
2
6
CENTER
10
139.2957372116
20
126.4739719157
11
139.2957372116
21
77.1739719157
0
LINE
8
0
62
7
6
CONTINUOUS
10
142.0957372116
20
118.1739719157
11
142.0957372116
21
117.1239719157
0
LINE
8
0
62
7
6
CONTINUOUS
10
143.2957372116
20
116.9239719157
11
143.2957372116
21
111.9112253904
0
LINE
8
0
62
7
6
CONTINUOUS
10
143.2957372116
20
85.5239719157
11
143.2957372116
21
90.5367184411
0
LINE
8
0
62
7
6
CONTINUOUS
10
140.8574910582
20
84.9414572124
11
140.8072806212
21
84.7239719157
0
LINE
8
0
62
7
6
CONTINUOUS
10
149.8841938021
20
118.9239719157
11
149.8339833931
21
118.7064867408
0
LINE
8
0
62
7
6
CONTINUOUS
10
86.5760093207
20
111.1782657341
11
95.2154651026
21
111.1782657341
0
LINE
8
0
62
7
6
CONTINUOUS
10
110.7760093207
20
111.1782657341
11
119.4154651026
21
111.1782657341
0
LINE
8
0
62
7
6
CONTINUOUS
10
134.9760093207
20
111.1782657341
11
143.6154651026
21
111.1782657341
0
LINE
8
0
62
7
6
CONTINUOUS
10
159.1760093207
20
111.1782657341
11
167.8154651026
21
111.1782657341
0
LINE
8
0
62
7
6
CONTINUOUS
10
183.3760093207
20
111.1782657341
11
192.0154651026
21
111.1782657341
0
LINE
8
0
62
7
6
CONTINUOUS
10
86.8957372116
20
111.9112253904
11
94.8957372116
21
111.9112253904
0
LINE
8
0
62
7
6
CONTINUOUS
10
111.0957372116
20
111.9112253904
11
119.0957372116
21
111.9112253904
0
LINE
8
0
62
7
6
CONTINUOUS
10
135.2957372116
20
111.9112253904
11
143.2957372116
21
111.9112253904
0
LINE
8
0
62
7
6
CONTINUOUS
10
159.4957372116
20
111.9112253904
11
167.4957372116
21
111.9112253904
0
LINE
8
0
62
7
6
CONTINUOUS
10
183.6957372116
20
111.9112253904
11
191.6957372116
21
111.9112253904
0
LINE
8
0
62
7
6
CONTINUOUS
10
140.8072806212
20
118.9239719157
11
140.8574910301
21
118.7064867408
0
LINE
8
0
62
7
6
CONTINUOUS
10
149.8339833650
20
84.9414572124
11
149.8841938021
21
84.7239719157
0
LINE
8
0
62
7
6
CONTINUOUS
10
148.5957372116
20
118.1739719157
11
148.5957372116
21
117.1239719157
0
LINE
8
0
62
7
6
CONTINUOUS
10
193.4957372116
20
119.7899973195
11
192.1117626154
21
118.9909592139
0
LINE
8
0
62
7
6
CONTINUOUS
10
191.6957372116
20
116.9239719157
11
183.6957372116
21
116.9239719157
0
LINE
8
0
62
7
6
CONTINUOUS
10
167.4957372116
20
116.9239719157
11
159.4957372116
21
116.9239719157
0
LINE
8
0
62
7
6
CONTINUOUS
10
143.2957372116
20
116.9239719157
11
135.2957372116
21
116.9239719157
0
LINE
8
0
62
7
6
CONTINUOUS
10
119.0957372116
20
116.9239719157
11
111.0957372116
21
116.9239719157
0
LINE
8
0
62
7
6
CONTINUOUS
10
94.8957372116
20
116.9239719157
11
86.8957372116
21
116.9239719157
0
LINE
8
0
62
7
6
CONTINUOUS
10
106.6255757944
20
117.0342283262
11
99.3658986288
21
117.0342283262
0
LINE
8
0
62
7
6
CONTINUOUS
10
82.4255757944
20
117.0342283262
11
75.1658986288
21
117.0342283262
0
LINE
8
0
62
7
6
CONTINUOUS
10
123.5658986352
20
117.0342283307
11
130.8255757880
21
117.0342283307
0
LINE
8
0
62
7
6
CONTINUOUS
10
147.7658986352
20
117.0342283307
11
155.0255757880
21
117.0342283307
0
LINE
8
0
62
7
6
CONTINUOUS
10
171.9658986352
20
117.0342283307
11
179.2255757880
21
117.0342283307
0
LINE
8
0
62
7
6
CONTINUOUS
10
191.4956635573
20
117.1239719157
11
183.8958108660
21
117.1239719157
0
LINE
8
0
62
7
6
CONTINUOUS
10
167.2956635573
20
117.1239719157
11
159.6958108660
21
117.1239719157
0
LINE
8
0
62
7
6
CONTINUOUS
10
143.0956635573
20
117.1239719157
11
135.4958108660
21
117.1239719157
0
LINE
8
0
62
7
6
CONTINUOUS
10
118.8956635573
20
117.1239719157
11
111.2958108660
21
117.1239719157
0
LINE
8
0
62
7
6
CONTINUOUS
10
106.3397156058
20
117.1239719157
11
99.6517126902
21
117.1239719157
0
LINE
8
0
62
7
6
CONTINUOUS
10
94.6956635573
20
117.1239719157
11
87.0958108660
21
117.1239719157
0
LINE
8
0
62
7
6
CONTINUOUS
10
82.1397156058
20
117.1239719157
11
75.4517126902
21
117.1239719157
0
LINE
8
0
62
7
6
CONTINUOUS
10
123.8517126902
20
117.1239719157
11
130.5397156504
21
117.1239719157
0
LINE
8
0
62
7
6
CONTINUOUS
10
148.0517126902
20
117.1239719157
11
154.7397156504
21
117.1239719157
0
LINE
8
0
62
7
6
CONTINUOUS
10
172.2517126902
20
117.1239719157
11
178.9397156504
21
117.1239719157
0
LINE
8
0
62
7
6
CONTINUOUS
10
88.0957372122
20
117.9739719157
11
93.6957372111
21
117.9739719157
0
LINE
8
0
62
7
6
CONTINUOUS
10
75.9957372122
20
118.1739719157
11
81.5957372111
21
118.1739719157
0
LINE
8
0
62
7
6
CONTINUOUS
10
100.1957372122
20
118.1739719157
11
105.7957372111
21
118.1739719157
0
LINE
8
0
62
7
6
CONTINUOUS
10
112.2957372122
20
118.1739719157
11
117.8957372111
21
118.1739719157
0
LINE
8
0
62
7
6
CONTINUOUS
10
124.3957372122
20
118.1739719157
11
129.9957372111
21
118.1739719157
0
LINE
8
0
62
7
6
CONTINUOUS
10
136.4957372122
20
118.1739719157
11
142.0957372111
21
118.1739719157
0
LINE
8
0
62
7
6
CONTINUOUS
10
148.5957372122
20
118.1739719157
11
154.1957372111
21
118.1739719157
0
LINE
8
0
62
7
6
CONTINUOUS
10
160.6957372122
20
118.1739719157
11
166.2957372111
21
118.1739719157
0
LINE
8
0
62
7
6
CONTINUOUS
10
172.7957372122
20
118.1739719157
11
178.3957372111
21
118.1739719157
0
LINE
8
0
62
7
6
CONTINUOUS
10
184.8957372122
20
118.1739719157
11
190.4957372111
21
118.1739719157
0
LINE
8
0
62
7
6
CONTINUOUS
10
88.3957372116
20
118.2739719157
11
93.3953565478
21
118.2739719157
0
LINE
8
0
62
7
6
CONTINUOUS
10
76.2957372116
20
118.4739719157
11
81.2957372116
21
118.4739719157
0
LINE
8
0
62
7
6
CONTINUOUS
10
100.4957372116
20
118.4739719157
11
105.4953565478
21
118.4739719157
0
LINE
8
0
62
7
6
CONTINUOUS
10
112.5957372116
20
118.4739719157
11
117.5953565478
21
118.4739719157
0
LINE
8
0
62
7
6
CONTINUOUS
10
124.6957372116
20
118.4739719157
11
129.6953565478
21
118.4739719157
0
LINE
8
0
62
7
6
CONTINUOUS
10
136.7957372116
20
118.4739719157
11
141.7953565478
21
118.4739719157
0
LINE
8
0
62
7
6
CONTINUOUS
10
148.8957372116
20
118.4739719157
11
153.8953565478
21
118.4739719157
0
LINE
8
0
62
7
6
CONTINUOUS
10
160.9957372116
20
118.4739719157
11
165.9953565478
21
118.4739719157
0
LINE
8
0
62
7
6
CONTINUOUS
10
173.0957372116
20
118.4739719157
11
178.0953565478
21
118.4739719157
0
LINE
8
0
62
7
6
CONTINUOUS
10
185.1957372116
20
118.4739719157
11
190.1953565478
21
118.4739719157
0
LINE
8
0
62
7
6
CONTINUOUS
10
89.3339833899
20
118.5064867267
11
92.4574910334
21
118.5064867267
0
LINE
8
0
62
7
6
CONTINUOUS
10
80.3574910611
20
118.7064866065
11
77.2339833621
21
118.7064866065
0
LINE
8
0
62
7
6
CONTINUOUS
10
125.6339833899
20
118.7064867267
11
128.7574910334
21
118.7064867267
0
LINE
8
0
62
7
6
CONTINUOUS
10
137.7339833899
20
118.7064867267
11
140.8574910334
21
118.7064867267
0
LINE
8
0
62
7
6
CONTINUOUS
10
101.4339833899
20
118.7064867267
11
104.5574910334
21
118.7064867267
0
LINE
8
0
62
7
6
CONTINUOUS
10
113.5339833899
20
118.7064867267
11
116.6574910334
21
118.7064867267
0
LINE
8
0
62
7
6
CONTINUOUS
10
149.8339833899
20
118.7064867267
11
152.9574910334
21
118.7064867267
0
LINE
8
0
62
7
6
CONTINUOUS
10
161.9339833899
20
118.7064867267
11
165.0574910334
21
118.7064867267
0
LINE
8
0
62
7
6
CONTINUOUS
10
174.0339833899
20
118.7064867267
11
177.1574910334
21
118.7064867267
0
LINE
8
0
62
7
6
CONTINUOUS
10
186.1339833899
20
118.7064867267
11
189.2574910334
21
118.7064867267
0
LINE
8
0
62
7
6
CONTINUOUS
10
191.8617626154
20
118.9239719157
11
74.6297118079
21
118.9239719157
0
LINE
8
0
62
7
6
CONTINUOUS
10
193.4957372116
20
83.8579465120
11
192.1117626154
21
84.6569846176
0
LINE
8
DEFAULT_1
62
2
6
CENTER
10
151.3957372116
20
126.4739719157
11
151.3957372116
21
77.1739719157
0
LINE
8
0
62
7
6
CONTINUOUS
10
154.1957372116
20
118.1739719157
11
154.1957372116
21
117.1239719157
0
LINE
8
0
62
7
6
CONTINUOUS
10
191.8617626154
20
123.6739719157
11
74.6297118079
21
123.6739719157
0
LINE
8
0
62
7
6
CONTINUOUS
10
159.4957372116
20
116.9239719157
11
159.4957372116
21
111.9112253904
0
LINE
8
0
62
7
6
CONTINUOUS
10
159.4957372116
20
85.5239719157
11
159.4957372116
21
90.5367184411
0
LINE
8
0
62
7
6
CONTINUOUS
10
152.9574910582
20
84.9414572124
11
152.9072806212
21
84.7239719157
0
LINE
8
0
62
7
6
CONTINUOUS
10
161.9841938021
20
118.9239719157
11
161.9339833931
21
118.7064867408
0
LINE
8
0
62
7
6
CONTINUOUS
10
152.9072806212
20
118.9239719157
11
152.9574910301
21
118.7064867408
0
LINE
8
0
62
7
6
CONTINUOUS
10
161.9339833650
20
84.9414572124
11
161.9841938021
21
84.7239719157
0
LINE
8
0
62
7
6
CONTINUOUS
10
160.6957372116
20
118.1739719157
11
160.6957372116
21
117.1239719157
0
LINE
8
DEFAULT_1
62
2
6
CENTER
10
163.4957372116
20
126.4739719157
11
163.4957372116
21
77.1739719157
0
LINE
8
0
62
7
6
CONTINUOUS
10
166.2957372116
20
118.1739719157
11
166.2957372116
21
117.1239719157
0
LINE
8
0
62
7
6
CONTINUOUS
10
167.4957372116
20
116.9239719157
11
167.4957372116
21
111.9112253904
0
LINE
8
0
62
7
6
CONTINUOUS
10
167.4957372116
20
85.5239719157
11
167.4957372116
21
90.5367184411
0
LINE
8
0
62
7
6
CONTINUOUS
10
165.0574910582
20
84.9414572124
11
165.0072806212
21
84.7239719157
0
LINE
8
0
62
7
6
CONTINUOUS
10
165.0072806212
20
118.9239719157
11
165.0574910301
21
118.7064867408
0
LINE
8
0
62
7
6
CONTINUOUS
10
174.0841938021
20
118.9239719157
11
174.0339833931
21
118.7064867408
0
LINE
8
0
62
7
6
CONTINUOUS
10
174.0339833650
20
84.9414572124
11
174.0841938021
21
84.7239719157
0
LINE
8
0
62
7
6
CONTINUOUS
10
172.7957372116
20
118.1739719157
11
172.7957372116
21
117.1239719157
0
LINE
8
DEFAULT_1
62
2
6
CENTER
10
175.5957372116
20
126.4739719157
11
175.5957372116
21
77.1739719157
0
LINE
8
0
62
7
6
CONTINUOUS
10
178.3957372116
20
118.1739719157
11
178.3957372116
21
117.1239719157
0
LINE
8
0
62
7
6
CONTINUOUS
10
177.1574910582
20
84.9414572124
11
177.1072806212
21
84.7239719157
0
LINE
8
0
62
7
6
CONTINUOUS
10
186.1841938021
20
118.9239719157
11
186.1339833931
21
118.7064867408
0
LINE
8
0
62
7
6
CONTINUOUS
10
177.1072806212
20
118.9239719157
11
177.1574910301
21
118.7064867408
0
LINE
8
0
62
7
6
CONTINUOUS
10
186.1339833650
20
84.9414572124
11
186.1841938021
21
84.7239719157
0
LINE
8
0
62
7
6
CONTINUOUS
10
183.6957372116
20
116.9239719157
11
183.6957372116
21
111.9112253904
0
LINE
8
0
62
7
6
CONTINUOUS
10
183.6957372116
20
85.5239719157
11
183.6957372116
21
90.5367184411
0
LINE
8
0
62
7
6
CONTINUOUS
10
184.8957372116
20
118.1739719157
11
184.8957372116
21
117.1239719157
0
LINE
8
0
62
7
6
CONTINUOUS
10
193.4957372116
20
80.8399973195
11
192.1117626154
21
80.0409592139
0
LINE
8
0
62
7
6
CONTINUOUS
10
193.4957372116
20
122.8079465120
11
192.1117626154
21
123.6069846176
0
LINE
8
DEFAULT_1
62
2
6
CENTER
10
187.6957372116
20
126.4739719157
11
187.6957372116
21
77.1739719157
0
LINE
8
0
62
7
6
CONTINUOUS
10
190.4957372116
20
118.1739719157
11
190.4957372116
21
117.1239719157
0
LINE
8
0
62
7
6
CONTINUOUS
10
191.6957372116
20
116.9239719157
11
191.6957372116
21
111.9112253904
0
LINE
8
0
62
7
6
CONTINUOUS
10
191.6957372116
20
85.5239719157
11
191.6957372116
21
90.5367184411
0
LINE
8
0
62
7
6
CONTINUOUS
10
191.8617626154
20
123.6739719157
11
191.8617626154
21
118.9239719157
0
LINE
8
0
62
7
6
CONTINUOUS
10
191.8617626154
20
84.7239719157
11
191.8617626154
21
79.9739719157
0
LINE
8
0
62
7
6
CONTINUOUS
10
192.1117626154
20
123.6069846176
11
192.1117626154
21
118.9909592139
0
LINE
8
0
62
7
6
CONTINUOUS
10
192.1117626154
20
84.6569846176
11
192.1117626154
21
80.0409592139
0
LINE
8
0
62
7
6
CONTINUOUS
10
193.4957372116
20
122.8079465120
11
193.4957372116
21
119.7899973195
0
LINE
8
0
62
7
6
CONTINUOUS
10
193.4957372116
20
80.8399973195
11
193.4957372116
21
83.8579465120
0
LINE
8
0
62
7
6
CONTINUOUS
10
189.2574910582
20
84.9414572124
11
189.2072806212
21
84.7239719157
0
LINE
8
0
62
7
6
CONTINUOUS
10
189.2072806212
20
118.9239719157
11
189.2574910301
21
118.7064867408
0
ARC
8
0
62
7
6
CONTINUOUS
10
75.4517126902
20
106.0239719157
40
0.5000000000
50
90.0000000000
51
124.8638378648
0
ARC
8
0
62
7
6
CONTINUOUS
10
82.1397617331
20
106.0239719157
40
0.5000000000
50
55.1361621352
51
90.0000000000
0
ARC
8
0
62
7
6
CONTINUOUS
10
78.7957372116
20
101.2239719157
40
6.3500000000
50
304.8638378753
51
55.1361620527
0
ARC
8
0
62
7
6
CONTINUOUS
10
75.4517126902
20
96.4239719157
40
0.5000000000
50
235.1361630496
51
270.0000000000
0
ARC
8
0
62
7
6
CONTINUOUS
10
78.7957372116
20
101.2239719157
40
6.3500000000
50
124.8638379473
51
235.1361621247
0
ARC
8
0
62
7
6
CONTINUOUS
10
82.1397617331
20
96.4239719157
40
0.5000000000
50
270.0000000000
51
304.8638369504
0
ARC
8
0
62
7
6
CONTINUOUS
10
75.4517126902
20
116.6239719157
40
0.5000000000
50
90.0000000000
51
124.8638378648
0
ARC
8
0
62
7
6
CONTINUOUS
10
82.1397617331
20
116.6239719157
40
0.5000000000
50
55.1361621352
51
90.0000000000
0
ARC
8
0
62
7
6
CONTINUOUS
10
78.7957372116
20
111.8239719157
40
6.3500000000
50
304.8638378753
51
55.1361620527
0
ARC
8
0
62
7
6
CONTINUOUS
10
75.4517126902
20
107.0239719157
40
0.5000000000
50
235.1361630496
51
270.0000000000
0
ARC
8
0
62
7
6
CONTINUOUS
10
78.7957372116
20
111.8239719157
40
6.3500000000
50
124.8638379473
51
235.1361621247
0
ARC
8
0
62
7
6
CONTINUOUS
10
82.1397617331
20
107.0239719157
40
0.5000000000
50
270.0000000000
51
304.8638369504
0
ARC
8
0
62
7
6
CONTINUOUS
10
99.6517126902
20
95.4239719157
40
0.5000000000
50
90.0000000000
51
124.8638378648
0
ARC
8
0
62
7
6
CONTINUOUS
10
106.3397617331
20
95.4239719157
40
0.5000000000
50
55.1361621352
51
90.0000000000
0
ARC
8
0
62
7
6
CONTINUOUS
10
102.9957372116
20
90.6239719157
40
6.3500000000
50
304.8638378753
51
55.1361620527
0
ARC
8
0
62
7
6
CONTINUOUS
10
99.6517126902
20
85.8239719157
40
0.5000000000
50
235.1361630496
51
270.0000000000
0
ARC
8
0
62
7
6
CONTINUOUS
10
102.9957372116
20
90.6239719157
40
6.3500000000
50
124.8638379473
51
235.1361621247
0
ARC
8
0
62
7
6
CONTINUOUS
10
106.3397617331
20
85.8239719157
40
0.5000000000
50
270.0000000000
51
304.8638369504
0
ARC
8
0
62
7
6
CONTINUOUS
10
99.6517126902
20
106.0239719157
40
0.5000000000
50
90.0000000000
51
124.8638378648
0
ARC
8
0
62
7
6
CONTINUOUS
10
106.3397617331
20
106.0239719157
40
0.5000000000
50
55.1361621352
51
90.0000000000
0
ARC
8
0
62
7
6
CONTINUOUS
10
102.9957372116
20
101.2239719157
40
6.3500000000
50
304.8638378753
51
55.1361620527
0
ARC
8
0
62
7
6
CONTINUOUS
10
99.6517126902
20
96.4239719157
40
0.5000000000
50
235.1361630496
51
270.0000000000
0
ARC
8
0
62
7
6
CONTINUOUS
10
102.9957372116
20
101.2239719157
40
6.3500000000
50
124.8638379473
51
235.1361621247
0
ARC
8
0
62
7
6
CONTINUOUS
10
106.3397617331
20
96.4239719157
40
0.5000000000
50
270.0000000000
51
304.8638369504
0
ARC
8
0
62
7
6
CONTINUOUS
10
99.6517126902
20
116.6239719157
40
0.5000000000
50
90.0000000000
51
124.8638378648
0
ARC
8
0
62
7
6
CONTINUOUS
10
106.3397617331
20
116.6239719157
40
0.5000000000
50
55.1361621352
51
90.0000000000
0
ARC
8
0
62
7
6
CONTINUOUS
10
102.9957372116
20
111.8239719157
40
6.3500000000
50
304.8638378753
51
55.1361620527
0
ARC
8
0
62
7
6
CONTINUOUS
10
99.6517126902
20
107.0239719157
40
0.5000000000
50
235.1361630496
51
270.0000000000
0
ARC
8
0
62
7
6
CONTINUOUS
10
102.9957372116
20
111.8239719157
40
6.3500000000
50
124.8638379473
51
235.1361621247
0
ARC
8
0
62
7
6
CONTINUOUS
10
106.3397617331
20
107.0239719157
40
0.5000000000
50
270.0000000000
51
304.8638369504
0
ARC
8
0
62
7
6
CONTINUOUS
10
123.8517126902
20
85.8239719157
40
0.5000000000
50
235.1361621352
51
270.0000000000
0
ARC
8
0
62
7
6
CONTINUOUS
10
130.5397617331
20
85.8239719157
40
0.5000000000
50
270.0000000000
51
304.8638378648
0
ARC
8
0
62
7
6
CONTINUOUS
10
127.1957372116
20
90.6239719157
40
6.3500000000
50
304.8638379473
51
55.1361621247
0
ARC
8
0
62
7
6
CONTINUOUS
10
123.8517126902
20
95.4239719157
40
0.5000000000
50
90.0000000000
51
124.8638369504
0
ARC
8
0
62
7
6
CONTINUOUS
10
127.1957372116
20
90.6239719157
40
6.3500000000
50
124.8638378753
51
235.1361620527
0
ARC
8
0
62
7
6
CONTINUOUS
10
130.5397617331
20
95.4239719157
40
0.5000000000
50
55.1361630496
51
90.0000000000
0
ARC
8
0
62
7
6
CONTINUOUS
10
123.8517126902
20
96.4239719157
40
0.5000000000
50
235.1361621352
51
270.0000000000
0
ARC
8
0
62
7
6
CONTINUOUS
10
130.5397617331
20
96.4239719157
40
0.5000000000
50
270.0000000000
51
304.8638378648
0
ARC
8
0
62
7
6
CONTINUOUS
10
127.1957372116
20
101.2239719157
40
6.3500000000
50
304.8638379473
51
55.1361621247
0
ARC
8
0
62
7
6
CONTINUOUS
10
123.8517126902
20
106.0239719157
40
0.5000000000
50
90.0000000000
51
124.8638369504
0
ARC
8
0
62
7
6
CONTINUOUS
10
127.1957372116
20
101.2239719157
40
6.3500000000
50
124.8638378753
51
235.1361620527
0
ARC
8
0
62
7
6
CONTINUOUS
10
130.5397617331
20
106.0239719157
40
0.5000000000
50
55.1361630496
51
90.0000000000
0
ARC
8
0
62
7
6
CONTINUOUS
10
123.8517126902
20
107.0239719157
40
0.5000000000
50
235.1361621352
51
270.0000000000
0
ARC
8
0
62
7
6
CONTINUOUS
10
130.5397617331
20
107.0239719157
40
0.5000000000
50
270.0000000000
51
304.8638378648
0
ARC
8
0
62
7
6
CONTINUOUS
10
127.1957372116
20
111.8239719157
40
6.3500000000
50
304.8638379473
51
55.1361621247
0
ARC
8
0
62
7
6
CONTINUOUS
10
123.8517126902
20
116.6239719157
40
0.5000000000
50
90.0000000000
51
124.8638369504
0
ARC
8
0
62
7
6
CONTINUOUS
10
127.1957372116
20
111.8239719157
40
6.3500000000
50
124.8638378753
51
235.1361620527
0
ARC
8
0
62
7
6
CONTINUOUS
10
130.5397617331
20
116.6239719157
40
0.5000000000
50
55.1361630496
51
90.0000000000
0
ARC
8
0
62
7
6
CONTINUOUS
10
172.2517126902
20
85.8239719157
40
0.5000000000
50
235.1361621352
51
270.0000000000
0
ARC
8
0
62
7
6
CONTINUOUS
10
178.9397617331
20
85.8239719157
40
0.5000000000
50
270.0000000000
51
304.8638378648
0
ARC
8
0
62
7
6
CONTINUOUS
10
175.5957372116
20
90.6239719157
40
6.3500000000
50
304.8638379473
51
55.1361621247
0
ARC
8
0
62
7
6
CONTINUOUS
10
172.2517126902
20
95.4239719157
40
0.5000000000
50
90.0000000000
51
124.8638369504
0
ARC
8
0
62
7
6
CONTINUOUS
10
175.5957372116
20
90.6239719157
40
6.3500000000
50
124.8638378753
51
235.1361620527
0
ARC
8
0
62
7
6
CONTINUOUS
10
178.9397617331
20
95.4239719157
40
0.5000000000
50
55.1361630496
51
90.0000000000
0
ARC
8
0
62
7
6
CONTINUOUS
10
172.2517126902
20
96.4239719157
40
0.5000000000
50
235.1361621352
51
270.0000000000
0
ARC
8
0
62
7
6
CONTINUOUS
10
178.9397617331
20
96.4239719157
40
0.5000000000
50
270.0000000000
51
304.8638378648
0
ARC
8
0
62
7
6
CONTINUOUS
10
175.5957372116
20
101.2239719157
40
6.3500000000
50
304.8638379473
51
55.1361621247
0
ARC
8
0
62
7
6
CONTINUOUS
10
172.2517126902
20
106.0239719157
40
0.5000000000
50
90.0000000000
51
124.8638369504
0
ARC
8
0
62
7
6
CONTINUOUS
10
175.5957372116
20
101.2239719157
40
6.3500000000
50
124.8638378753
51
235.1361620527
0
ARC
8
0
62
7
6
CONTINUOUS
10
178.9397617331
20
106.0239719157
40
0.5000000000
50
55.1361630496
51
90.0000000000
0
ARC
8
0
62
7
6
CONTINUOUS
10
172.2517126902
20
107.0239719157
40
0.5000000000
50
235.1361621352
51
270.0000000000
0
ARC
8
0
62
7
6
CONTINUOUS
10
178.9397617331
20
107.0239719157
40
0.5000000000
50
270.0000000000
51
304.8638378648
0
ARC
8
0
62
7
6
CONTINUOUS
10
175.5957372116
20
111.8239719157
40
6.3500000000
50
304.8638379473
51
55.1361621247
0
ARC
8
0
62
7
6
CONTINUOUS
10
172.2517126902
20
116.6239719157
40
0.5000000000
50
90.0000000000
51
124.8638369504
0
ARC
8
0
62
7
6
CONTINUOUS
10
175.5957372116
20
111.8239719157
40
6.3500000000
50
124.8638378753
51
235.1361620527
0
ARC
8
0
62
7
6
CONTINUOUS
10
178.9397617331
20
116.6239719157
40
0.5000000000
50
55.1361630496
51
90.0000000000
0
ARC
8
0
62
7
6
CONTINUOUS
10
75.4517126902
20
95.4239719157
40
0.5000000000
50
90.0000000000
51
124.8638378648
0
ARC
8
0
62
7
6
CONTINUOUS
10
82.1397617331
20
95.4239719157
40
0.5000000000
50
55.1361621352
51
90.0000000000
0
ARC
8
0
62
7
6
CONTINUOUS
10
78.7957372116
20
90.6239719157
40
6.3500000000
50
304.8638378753
51
55.1361620527
0
ARC
8
0
62
7
6
CONTINUOUS
10
75.4517126902
20
85.8239719157
40
0.5000000000
50
235.1361630496
51
270.0000000000
0
ARC
8
0
62
7
6
CONTINUOUS
10
78.7957372116
20
90.6239719157
40
6.3500000000
50
124.8638379473
51
235.1361621247
0
ARC
8
0
62
7
6
CONTINUOUS
10
82.1397617331
20
85.8239719157
40
0.5000000000
50
270.0000000000
51
304.8638369504
0
ARC
8
0
62
7
6
CONTINUOUS
10
148.0517126902
20
107.0239719157
40
0.5000000000
50
235.1361621352
51
270.0000000000
0
ARC
8
0
62
7
6
CONTINUOUS
10
154.7397617331
20
107.0239719157
40
0.5000000000
50
270.0000000000
51
304.8638378648
0
ARC
8
0
62
7
6
CONTINUOUS
10
151.3957372116
20
111.8239719157
40
6.3500000000
50
304.8638379473
51
55.1361621247
0
ARC
8
0
62
7
6
CONTINUOUS
10
148.0517126902
20
116.6239719157
40
0.5000000000
50
90.0000000000
51
124.8638369504
0
ARC
8
0
62
7
6
CONTINUOUS
10
151.3957372116
20
111.8239719157
40
6.3500000000
50
124.8638378753
51
235.1361620527
0
ARC
8
0
62
7
6
CONTINUOUS
10
154.7397617331
20
116.6239719157
40
0.5000000000
50
55.1361630496
51
90.0000000000
0
ARC
8
0
62
7
6
CONTINUOUS
10
148.0517126902
20
96.4239719157
40
0.5000000000
50
235.1361621352
51
270.0000000000
0
ARC
8
0
62
7
6
CONTINUOUS
10
154.7397617331
20
96.4239719157
40
0.5000000000
50
270.0000000000
51
304.8638378648
0
ARC
8
0
62
7
6
CONTINUOUS
10
151.3957372116
20
101.2239719157
40
6.3500000000
50
304.8638379473
51
55.1361621247
0
ARC
8
0
62
7
6
CONTINUOUS
10
148.0517126902
20
106.0239719157
40
0.5000000000
50
90.0000000000
51
124.8638369504
0
ARC
8
0
62
7
6
CONTINUOUS
10
151.3957372116
20
101.2239719157
40
6.3500000000
50
124.8638378753
51
235.1361620527
0
ARC
8
0
62
7
6
CONTINUOUS
10
154.7397617331
20
106.0239719157
40
0.5000000000
50
55.1361630496
51
90.0000000000
0
ARC
8
0
62
7
6
CONTINUOUS
10
148.0517126902
20
85.8239719157
40
0.5000000000
50
235.1361621352
51
270.0000000000
0
ARC
8
0
62
7
6
CONTINUOUS
10
154.7397617331
20
85.8239719157
40
0.5000000000
50
270.0000000000
51
304.8638378648
0
ARC
8
0
62
7
6
CONTINUOUS
10
151.3957372116
20
90.6239719157
40
6.3500000000
50
304.8638379473
51
55.1361621247
0
ARC
8
0
62
7
6
CONTINUOUS
10
148.0517126902
20
95.4239719157
40
0.5000000000
50
90.0000000000
51
124.8638369504
0
ARC
8
0
62
7
6
CONTINUOUS
10
151.3957372116
20
90.6239719157
40
6.3500000000
50
124.8638378753
51
235.1361620527
0
ARC
8
0
62
7
6
CONTINUOUS
10
154.7397617331
20
95.4239719157
40
0.5000000000
50
55.1361630496
51
90.0000000000
0
ARC
8
0
62
7
6
CONTINUOUS
10
148.8957372116
20
85.4739719157
40
0.3000000000
50
210.0949295407
51
270.0000000000
0
ARC
8
0
62
7
6
CONTINUOUS
10
153.8957372116
20
85.4739719157
40
0.3000000000
50
270.0000000000
51
329.9050704593
0
ARC
8
0
62
7
6
CONTINUOUS
10
148.8957372116
20
118.1739719157
40
0.3000000000
50
90.0000000000
51
180.0000000000
0
ARC
8
0
62
7
6
CONTINUOUS
10
153.8957372116
20
118.1739719157
40
0.3000000000
50
0.0000000000
51
90.0000000000
0
ARC
8
0
62
7
6
CONTINUOUS
10
149.5416723411
20
84.8739719157
40
0.3000000000
50
12.9999961436
51
89.9999821151
0
ARC
8
0
62
7
6
CONTINUOUS
10
153.2498020822
20
84.8739719157
40
0.3000000000
50
90.0000178849
51
167.0000038564
0
ARC
8
0
62
7
6
CONTINUOUS
10
149.5416723411
20
118.7739719157
40
0.3000000000
50
270.0001298153
51
347.0000277112
0
ARC
8
0
62
7
6
CONTINUOUS
10
153.2498020822
20
118.7739719157
40
0.3000000000
50
192.9999722888
51
269.9998701847
0
ARC
8
0
62
7
6
CONTINUOUS
10
136.7957372116
20
85.4739719157
40
0.3000000000
50
210.0949295407
51
270.0000000000
0
ARC
8
0
62
7
6
CONTINUOUS
10
141.7957372116
20
85.4739719157
40
0.3000000000
50
270.0000000000
51
329.9050704593
0
ARC
8
0
62
7
6
CONTINUOUS
10
136.7957372116
20
118.1739719157
40
0.3000000000
50
90.0000000000
51
180.0000000000
0
ARC
8
0
62
7
6
CONTINUOUS
10
141.7957372116
20
118.1739719157
40
0.3000000000
50
0.0000000000
51
90.0000000000
0
ARC
8
0
62
7
6
CONTINUOUS
10
137.4416723411
20
84.8739719157
40
0.3000000000
50
12.9999961436
51
89.9999821151
0
ARC
8
0
62
7
6
CONTINUOUS
10
141.1498020822
20
84.8739719157
40
0.3000000000
50
90.0000178849
51
167.0000038564
0
ARC
8
0
62
7
6
CONTINUOUS
10
137.4416723411
20
118.7739719157
40
0.3000000000
50
270.0001298153
51
347.0000277112
0
ARC
8
0
62
7
6
CONTINUOUS
10
141.1498020822
20
118.7739719157
40
0.3000000000
50
192.9999722888
51
269.9998701847
0
ARC
8
0
62
7
6
CONTINUOUS
10
112.5957372116
20
85.4739719157
40
0.3000000000
50
210.0949295407
51
270.0000000000
0
ARC
8
0
62
7
6
CONTINUOUS
10
117.5957372116
20
85.4739719157
40
0.3000000000
50
270.0000000000
51
329.9050704593
0
ARC
8
0
62
7
6
CONTINUOUS
10
112.5957372116
20
118.1739719157
40
0.3000000000
50
90.0000000000
51
180.0000000000
0
ARC
8
0
62
7
6
CONTINUOUS
10
117.5957372116
20
118.1739719157
40
0.3000000000
50
0.0000000000
51
90.0000000000
0
ARC
8
0
62
7
6
CONTINUOUS
10
113.2416723411
20
84.8739719157
40
0.3000000000
50
12.9999961436
51
89.9999821151
0
ARC
8
0
62
7
6
CONTINUOUS
10
116.9498020822
20
84.8739719157
40
0.3000000000
50
90.0000178849
51
167.0000038564
0
ARC
8
0
62
7
6
CONTINUOUS
10
113.2416723411
20
118.7739719157
40
0.3000000000
50
270.0001298153
51
347.0000277112
0
ARC
8
0
62
7
6
CONTINUOUS
10
116.9498020822
20
118.7739719157
40
0.3000000000
50
192.9999722888
51
269.9998701847
0
ARC
8
0
62
7
6
CONTINUOUS
10
124.6957372116
20
85.4739719157
40
0.3000000000
50
210.0949295407
51
270.0000000000
0
ARC
8
0
62
7
6
CONTINUOUS
10
129.6957372116
20
85.4739719157
40
0.3000000000
50
270.0000000000
51
329.9050704593
0
ARC
8
0
62
7
6
CONTINUOUS
10
124.6957372116
20
118.1739719157
40
0.3000000000
50
90.0000000000
51
180.0000000000
0
ARC
8
0
62
7
6
CONTINUOUS
10
129.6957372116
20
118.1739719157
40
0.3000000000
50
0.0000000000
51
90.0000000000
0
ARC
8
0
62
7
6
CONTINUOUS
10
125.3416723411
20
84.8739719157
40
0.3000000000
50
12.9999961436
51
89.9999821151
0
ARC
8
0
62
7
6
CONTINUOUS
10
129.0498020822
20
84.8739719157
40
0.3000000000
50
90.0000178849
51
167.0000038564
0
ARC
8
0
62
7
6
CONTINUOUS
10
125.3416723411
20
118.7739719157
40
0.3000000000
50
270.0001298153
51
347.0000277112
0
ARC
8
0
62
7
6
CONTINUOUS
10
129.0498020822
20
118.7739719157
40
0.3000000000
50
192.9999722888
51
269.9998701847
0
ARC
8
0
62
7
6
CONTINUOUS
10
100.4957372116
20
85.4739719157
40
0.3000000000
50
210.0949295407
51
270.0000000000
0
ARC
8
0
62
7
6
CONTINUOUS
10
105.4957372116
20
85.4739719157
40
0.3000000000
50
270.0000000000
51
329.9050704593
0
ARC
8
0
62
7
6
CONTINUOUS
10
100.4957372116
20
118.1739719157
40
0.3000000000
50
90.0000000000
51
180.0000000000
0
ARC
8
0
62
7
6
CONTINUOUS
10
105.4957372116
20
118.1739719157
40
0.3000000000
50
0.0000000000
51
90.0000000000
0
ARC
8
0
62
7
6
CONTINUOUS
10
101.1416723411
20
84.8739719157
40
0.3000000000
50
12.9999961436
51
89.9999821151
0
ARC
8
0
62
7
6
CONTINUOUS
10
104.8498020822
20
84.8739719157
40
0.3000000000
50
90.0000178849
51
167.0000038564
0
ARC
8
0
62
7
6
CONTINUOUS
10
101.1416723411
20
118.7739719157
40
0.3000000000
50
270.0001298153
51
347.0000277112
0
ARC
8
0
62
7
6
CONTINUOUS
10
104.8498020822
20
118.7739719157
40
0.3000000000
50
192.9999722888
51
269.9998701847
0
ARC
8
0
62
7
6
CONTINUOUS
10
88.3957372116
20
85.2739719157
40
0.3000000000
50
180.0000000000
51
270.0000000000
0
ARC
8
0
62
7
6
CONTINUOUS
10
93.3957372116
20
85.2739719157
40
0.3000000000
50
270.0000000000
51
360.0000000000
0
ARC
8
0
62
7
6
CONTINUOUS
10
88.3957372116
20
117.9739719157
40
0.3000000000
50
90.0000000000
51
180.0000000000
0
ARC
8
0
62
7
6
CONTINUOUS
10
93.3957372116
20
117.9739719157
40
0.3000000000
50
0.0000000000
51
90.0000000000
0
ARC
8
0
62
7
6
CONTINUOUS
10
89.0416723411
20
84.6739719157
40
0.3000000000
50
12.9999961436
51
89.9999821151
0
ARC
8
0
62
7
6
CONTINUOUS
10
92.7498020822
20
84.6739719157
40
0.3000000000
50
90.0000178849
51
167.0000038564
0
ARC
8
0
62
7
6
CONTINUOUS
10
89.0416723411
20
118.5739719157
40
0.3000000000
50
270.0001298153
51
347.0000277112
0
ARC
8
0
62
7
6
CONTINUOUS
10
92.7498020822
20
118.5739719157
40
0.3000000000
50
192.9999722888
51
269.9998701847
0
ARC
8
0
62
7
6
CONTINUOUS
10
76.2957372116
20
118.1739719157
40
0.3000000000
50
90.0000000000
51
180.0000000000
0
ARC
8
0
62
7
6
CONTINUOUS
10
81.2957372116
20
118.1739719157
40
0.3000000000
50
0.0000000000
51
90.0000000000
0
ARC
8
0
62
7
6
CONTINUOUS
10
76.2957372116
20
85.4739719157
40
0.3000000000
50
210.0949295407
51
270.0000000000
0
ARC
8
0
62
7
6
CONTINUOUS
10
81.2957372116
20
85.4739719157
40
0.3000000000
50
270.0000000000
51
329.9050704593
0
ARC
8
0
62
7
6
CONTINUOUS
10
76.9416723411
20
118.7739719157
40
0.3000000000
50
270.0000178849
51
347.0000038564
0
ARC
8
0
62
7
6
CONTINUOUS
10
80.6498020822
20
118.7739719157
40
0.3000000000
50
192.9999961436
51
269.9999821151
0
ARC
8
0
62
7
6
CONTINUOUS
10
76.9416723411
20
84.8739719157
40
0.3000000000
50
12.9999722888
51
89.9998701847
0
ARC
8
0
62
7
6
CONTINUOUS
10
80.6498020822
20
84.8739719157
40
0.3000000000
50
90.0001298153
51
167.0000277112
0
ARC
8
0
62
7
6
CONTINUOUS
10
160.9957372116
20
85.4739719157
40
0.3000000000
50
210.0949295407
51
270.0000000000
0
ARC
8
0
62
7
6
CONTINUOUS
10
165.9957372116
20
85.4739719157
40
0.3000000000
50
270.0000000000
51
329.9050704593
0
ARC
8
0
62
7
6
CONTINUOUS
10
160.9957372116
20
118.1739719157
40
0.3000000000
50
90.0000000000
51
180.0000000000
0
ARC
8
0
62
7
6
CONTINUOUS
10
165.9957372116
20
118.1739719157
40
0.3000000000
50
0.0000000000
51
90.0000000000
0
ARC
8
0
62
7
6
CONTINUOUS
10
161.6416723411
20
84.8739719157
40
0.3000000000
50
12.9999961436
51
89.9999821151
0
ARC
8
0
62
7
6
CONTINUOUS
10
165.3498020822
20
84.8739719157
40
0.3000000000
50
90.0000178849
51
167.0000038564
0
ARC
8
0
62
7
6
CONTINUOUS
10
161.6416723411
20
118.7739719157
40
0.3000000000
50
270.0001298153
51
347.0000277112
0
ARC
8
0
62
7
6
CONTINUOUS
10
165.3498020822
20
118.7739719157
40
0.3000000000
50
192.9999722888
51
269.9998701847
0
ARC
8
0
62
7
6
CONTINUOUS
10
185.1957372116
20
85.4739719157
40
0.3000000000
50
210.0949295407
51
270.0000000000
0
ARC
8
0
62
7
6
CONTINUOUS
10
190.1957372116
20
85.4739719157
40
0.3000000000
50
270.0000000000
51
329.9050704593
0
ARC
8
0
62
7
6
CONTINUOUS
10
185.1957372116
20
118.1739719157
40
0.3000000000
50
90.0000000000
51
180.0000000000
0
ARC
8
0
62
7
6
CONTINUOUS
10
190.1957372116
20
118.1739719157
40
0.3000000000
50
0.0000000000
51
90.0000000000
0
ARC
8
0
62
7
6
CONTINUOUS
10
185.8416723411
20
84.8739719157
40
0.3000000000
50
12.9999961436
51
89.9999821151
0
ARC
8
0
62
7
6
CONTINUOUS
10
189.5498020822
20
84.8739719157
40
0.3000000000
50
90.0000178849
51
167.0000038564
0
ARC
8
0
62
7
6
CONTINUOUS
10
185.8416723411
20
118.7739719157
40
0.3000000000
50
270.0001298153
51
347.0000277112
0
ARC
8
0
62
7
6
CONTINUOUS
10
189.5498020822
20
118.7739719157
40
0.3000000000
50
192.9999722888
51
269.9998701847
0
ARC
8
0
62
7
6
CONTINUOUS
10
173.0957372116
20
85.4739719157
40
0.3000000000
50
210.0949295407
51
270.0000000000
0
ARC
8
0
62
7
6
CONTINUOUS
10
178.0957372116
20
85.4739719157
40
0.3000000000
50
270.0000000000
51
329.9050704593
0
ARC
8
0
62
7
6
CONTINUOUS
10
173.0957372116
20
118.1739719157
40
0.3000000000
50
90.0000000000
51
180.0000000000
0
ARC
8
0
62
7
6
CONTINUOUS
10
178.0957372116
20
118.1739719157
40
0.3000000000
50
0.0000000000
51
90.0000000000
0
ARC
8
0
62
7
6
CONTINUOUS
10
173.7416723411
20
84.8739719157
40
0.3000000000
50
12.9999961436
51
89.9999821151
0
ARC
8
0
62
7
6
CONTINUOUS
10
177.4498020822
20
84.8739719157
40
0.3000000000
50
90.0000178849
51
167.0000038564
0
ARC
8
0
62
7
6
CONTINUOUS
10
173.7416723411
20
118.7739719157
40
0.3000000000
50
270.0001298153
51
347.0000277112
0
ARC
8
0
62
7
6
CONTINUOUS
10
177.4498020822
20
118.7739719157
40
0.3000000000
50
192.9999722888
51
269.9998701847
0
ARC
8
0
62
7
6
CONTINUOUS
10
87.5517126902
20
101.7239719157
40
0.5000000000
50
235.1361635794
51
270.0000000000
0
ARC
8
0
62
7
6
CONTINUOUS
10
94.2397617331
20
101.7239719157
40
0.5000000000
50
270.0000000000
51
304.8638364206
0
ARC
8
0
62
7
6
CONTINUOUS
10
94.6957372116
20
116.9239719157
40
0.2000000000
50
0.0000000000
51
90.0000000000
0
ARC
8
0
62
7
6
CONTINUOUS
10
90.8957372116
20
106.5239719157
40
6.3500000000
50
304.8638378335
51
47.1350897531
0
ARC
8
0
62
7
6
CONTINUOUS
10
87.0957372116
20
116.9239719157
40
0.2000000000
50
90.0000000000
51
180.0000000000
0
ARC
8
0
62
7
6
CONTINUOUS
10
95.8957372116
20
111.9112253904
40
1.0000000000
50
180.0000000000
51
227.1350897374
0
ARC
8
0
62
7
6
CONTINUOUS
10
90.8957372116
20
106.5239719157
40
6.3500000000
50
132.8649102469
51
235.1361621665
0
ARC
8
0
62
7
6
CONTINUOUS
10
85.8957372116
20
111.9112253904
40
1.0000000000
50
312.8649102626
51
360.0000000000
0
ARC
8
0
62
7
6
CONTINUOUS
10
87.5517126902
20
100.7239719157
40
0.5000000000
50
90.0000000000
51
124.8638364206
0
ARC
8
0
62
7
6
CONTINUOUS
10
94.2397617331
20
100.7239719157
40
0.5000000000
50
55.1361635794
51
90.0000000000
0
ARC
8
0
62
7
6
CONTINUOUS
10
94.6957372116
20
85.5239719157
40
0.2000000000
50
270.0000000000
51
360.0000000000
0
ARC
8
0
62
7
6
CONTINUOUS
10
87.0957372116
20
85.5239719157
40
0.2000000000
50
180.0000000000
51
270.0000000000
0
ARC
8
0
62
7
6
CONTINUOUS
10
90.8957372116
20
95.9239719157
40
6.3500000000
50
312.8649102469
51
55.1361621665
0
ARC
8
0
62
7
6
CONTINUOUS
10
95.8957372116
20
90.5367184411
40
1.0000000000
50
132.8649102626
51
180.0000000000
0
ARC
8
0
62
7
6
CONTINUOUS
10
90.8957372116
20
95.9239719157
40
6.3500000000
50
124.8638378335
51
227.1350897531
0
ARC
8
0
62
7
6
CONTINUOUS
10
85.8957372116
20
90.5367184411
40
1.0000000000
50
0.0000000000
51
47.1350897374
0
ARC
8
0
62
7
6
CONTINUOUS
10
111.7517126902
20
101.7239719157
40
0.5000000000
50
235.1361635794
51
270.0000000000
0
ARC
8
0
62
7
6
CONTINUOUS
10
118.4397617331
20
101.7239719157
40
0.5000000000
50
270.0000000000
51
304.8638364206
0
ARC
8
0
62
7
6
CONTINUOUS
10
118.8957372116
20
116.9239719157
40
0.2000000000
50
0.0000000000
51
90.0000000000
0
ARC
8
0
62
7
6
CONTINUOUS
10
115.0957372116
20
106.5239719157
40
6.3500000000
50
304.8638378335
51
47.1350897531
0
ARC
8
0
62
7
6
CONTINUOUS
10
111.2957372116
20
116.9239719157
40
0.2000000000
50
90.0000000000
51
180.0000000000
0
ARC
8
0
62
7
6
CONTINUOUS
10
120.0957372116
20
111.9112253904
40
1.0000000000
50
180.0000000000
51
227.1350897374
0
ARC
8
0
62
7
6
CONTINUOUS
10
115.0957372116
20
106.5239719157
40
6.3500000000
50
132.8649102469
51
235.1361621665
0
ARC
8
0
62
7
6
CONTINUOUS
10
110.0957372116
20
111.9112253904
40
1.0000000000
50
312.8649102626
51
360.0000000000
0
ARC
8
0
62
7
6
CONTINUOUS
10
111.7517126902
20
100.7239719157
40
0.5000000000
50
90.0000000000
51
124.8638364206
0
ARC
8
0
62
7
6
CONTINUOUS
10
118.4397617331
20
100.7239719157
40
0.5000000000
50
55.1361635794
51
90.0000000000
0
ARC
8
0
62
7
6
CONTINUOUS
10
118.8957372116
20
85.5239719157
40
0.2000000000
50
270.0000000000
51
360.0000000000
0
ARC
8
0
62
7
6
CONTINUOUS
10
111.2957372116
20
85.5239719157
40
0.2000000000
50
180.0000000000
51
270.0000000000
0
ARC
8
0
62
7
6
CONTINUOUS
10
115.0957372116
20
95.9239719157
40
6.3500000000
50
312.8649102469
51
55.1361621665
0
ARC
8
0
62
7
6
CONTINUOUS
10
120.0957372116
20
90.5367184411
40
1.0000000000
50
132.8649102626
51
180.0000000000
0
ARC
8
0
62
7
6
CONTINUOUS
10
115.0957372116
20
95.9239719157
40
6.3500000000
50
124.8638378335
51
227.1350897531
0
ARC
8
0
62
7
6
CONTINUOUS
10
110.0957372116
20
90.5367184411
40
1.0000000000
50
0.0000000000
51
47.1350897374
0
ARC
8
0
62
7
6
CONTINUOUS
10
135.9517126902
20
101.7239719157
40
0.5000000000
50
235.1361635794
51
270.0000000000
0
ARC
8
0
62
7
6
CONTINUOUS
10
142.6397617331
20
101.7239719157
40
0.5000000000
50
270.0000000000
51
304.8638364206
0
ARC
8
0
62
7
6
CONTINUOUS
10
143.0957372116
20
116.9239719157
40
0.2000000000
50
0.0000000000
51
90.0000000000
0
ARC
8
0
62
7
6
CONTINUOUS
10
139.2957372116
20
106.5239719157
40
6.3500000000
50
304.8638378335
51
47.1350897531
0
ARC
8
0
62
7
6
CONTINUOUS
10
135.4957372116
20
116.9239719157
40
0.2000000000
50
90.0000000000
51
180.0000000000
0
ARC
8
0
62
7
6
CONTINUOUS
10
144.2957372116
20
111.9112253904
40
1.0000000000
50
180.0000000000
51
227.1350897374
0
ARC
8
0
62
7
6
CONTINUOUS
10
139.2957372116
20
106.5239719157
40
6.3500000000
50
132.8649102469
51
235.1361621665
0
ARC
8
0
62
7
6
CONTINUOUS
10
134.2957372116
20
111.9112253904
40
1.0000000000
50
312.8649102626
51
360.0000000000
0
ARC
8
0
62
7
6
CONTINUOUS
10
135.9517126902
20
100.7239719157
40
0.5000000000
50
90.0000000000
51
124.8638364206
0
ARC
8
0
62
7
6
CONTINUOUS
10
142.6397617331
20
100.7239719157
40
0.5000000000
50
55.1361635794
51
90.0000000000
0
ARC
8
0
62
7
6
CONTINUOUS
10
143.0957372116
20
85.5239719157
40
0.2000000000
50
270.0000000000
51
360.0000000000
0
ARC
8
0
62
7
6
CONTINUOUS
10
135.4957372116
20
85.5239719157
40
0.2000000000
50
180.0000000000
51
270.0000000000
0
ARC
8
0
62
7
6
CONTINUOUS
10
139.2957372116
20
95.9239719157
40
6.3500000000
50
312.8649102469
51
55.1361621665
0
ARC
8
0
62
7
6
CONTINUOUS
10
144.2957372116
20
90.5367184411
40
1.0000000000
50
132.8649102626
51
180.0000000000
0
ARC
8
0
62
7
6
CONTINUOUS
10
139.2957372116
20
95.9239719157
40
6.3500000000
50
124.8638378335
51
227.1350897531
0
ARC
8
0
62
7
6
CONTINUOUS
10
134.2957372116
20
90.5367184411
40
1.0000000000
50
0.0000000000
51
47.1350897374
0
ARC
8
0
62
7
6
CONTINUOUS
10
160.1517126902
20
101.7239719157
40
0.5000000000
50
235.1361635794
51
270.0000000000
0
ARC
8
0
62
7
6
CONTINUOUS
10
166.8397617331
20
101.7239719157
40
0.5000000000
50
270.0000000000
51
304.8638364206
0
ARC
8
0
62
7
6
CONTINUOUS
10
167.2957372116
20
116.9239719157
40
0.2000000000
50
0.0000000000
51
90.0000000000
0
ARC
8
0
62
7
6
CONTINUOUS
10
163.4957372116
20
106.5239719157
40
6.3500000000
50
304.8638378335
51
47.1350897531
0
ARC
8
0
62
7
6
CONTINUOUS
10
159.6957372116
20
116.9239719157
40
0.2000000000
50
90.0000000000
51
180.0000000000
0
ARC
8
0
62
7
6
CONTINUOUS
10
168.4957372116
20
111.9112253904
40
1.0000000000
50
180.0000000000
51
227.1350897374
0
ARC
8
0
62
7
6
CONTINUOUS
10
163.4957372116
20
106.5239719157
40
6.3500000000
50
132.8649102469
51
235.1361621665
0
ARC
8
0
62
7
6
CONTINUOUS
10
158.4957372116
20
111.9112253904
40
1.0000000000
50
312.8649102626
51
360.0000000000
0
ARC
8
0
62
7
6
CONTINUOUS
10
160.1517126902
20
100.7239719157
40
0.5000000000
50
90.0000000000
51
124.8638364206
0
ARC
8
0
62
7
6
CONTINUOUS
10
166.8397617331
20
100.7239719157
40
0.5000000000
50
55.1361635794
51
90.0000000000
0
ARC
8
0
62
7
6
CONTINUOUS
10
167.2957372116
20
85.5239719157
40
0.2000000000
50
270.0000000000
51
360.0000000000
0
ARC
8
0
62
7
6
CONTINUOUS
10
159.6957372116
20
85.5239719157
40
0.2000000000
50
180.0000000000
51
270.0000000000
0
ARC
8
0
62
7
6
CONTINUOUS
10
163.4957372116
20
95.9239719157
40
6.3500000000
50
312.8649102469
51
55.1361621665
0
ARC
8
0
62
7
6
CONTINUOUS
10
168.4957372116
20
90.5367184411
40
1.0000000000
50
132.8649102626
51
180.0000000000
0
ARC
8
0
62
7
6
CONTINUOUS
10
163.4957372116
20
95.9239719157
40
6.3500000000
50
124.8638378335
51
227.1350897531
0
ARC
8
0
62
7
6
CONTINUOUS
10
158.4957372116
20
90.5367184411
40
1.0000000000
50
0.0000000000
51
47.1350897374
0
ARC
8
0
62
7
6
CONTINUOUS
10
184.3517126902
20
101.7239719157
40
0.5000000000
50
235.1361635794
51
270.0000000000
0
ARC
8
0
62
7
6
CONTINUOUS
10
191.0397617331
20
101.7239719157
40
0.5000000000
50
270.0000000000
51
304.8638364206
0
ARC
8
0
62
7
6
CONTINUOUS
10
191.4957372116
20
116.9239719157
40
0.2000000000
50
0.0000000000
51
90.0000000000
0
ARC
8
0
62
7
6
CONTINUOUS
10
187.6957372116
20
106.5239719157
40
6.3500000000
50
304.8638378335
51
47.1350897531
0
ARC
8
0
62
7
6
CONTINUOUS
10
183.8957372116
20
116.9239719157
40
0.2000000000
50
90.0000000000
51
180.0000000000
0
ARC
8
0
62
7
6
CONTINUOUS
10
192.6957372116
20
111.9112253904
40
1.0000000000
50
180.0000000000
51
227.1350897374
0
ARC
8
0
62
7
6
CONTINUOUS
10
187.6957372116
20
106.5239719157
40
6.3500000000
50
132.8649102469
51
235.1361621665
0
ARC
8
0
62
7
6
CONTINUOUS
10
182.6957372116
20
111.9112253904
40
1.0000000000
50
312.8649102626
51
360.0000000000
0
ARC
8
0
62
7
6
CONTINUOUS
10
184.3517126902
20
100.7239719157
40
0.5000000000
50
90.0000000000
51
124.8638364206
0
ARC
8
0
62
7
6
CONTINUOUS
10
191.0397617331
20
100.7239719157
40
0.5000000000
50
55.1361635794
51
90.0000000000
0
ARC
8
0
62
7
6
CONTINUOUS
10
191.4957372116
20
85.5239719157
40
0.2000000000
50
270.0000000000
51
360.0000000000
0
ARC
8
0
62
7
6
CONTINUOUS
10
183.8957372116
20
85.5239719157
40
0.2000000000
50
180.0000000000
51
270.0000000000
0
ARC
8
0
62
7
6
CONTINUOUS
10
187.6957372116
20
95.9239719157
40
6.3500000000
50
312.8649102469
51
55.1361621665
0
ARC
8
0
62
7
6
CONTINUOUS
10
192.6957372116
20
90.5367184411
40
1.0000000000
50
132.8649102626
51
180.0000000000
0
ARC
8
0
62
7
6
CONTINUOUS
10
187.6957372116
20
95.9239719157
40
6.3500000000
50
124.8638378335
51
227.1350897531
0
ARC
8
0
62
7
6
CONTINUOUS
10
182.6957372116
20
90.5367184411
40
1.0000000000
50
0.0000000000
51
47.1350897374
0
ARC
8
0
62
7
6
CONTINUOUS
10
74.6297118079
20
123.1739719157
40
0.5000000000
50
90.0000000000
51
120.0000000000
0
ARC
8
0
62
7
6
CONTINUOUS
10
74.6297118079
20
119.4239719157
40
0.5000000000
50
240.0000000000
51
270.0000000000
0
ARC
8
0
62
7
6
CONTINUOUS
10
191.8617626154
20
123.1739719157
40
0.5000000000
50
60.0000000000
51
90.0000000000
0
ARC
8
0
62
7
6
CONTINUOUS
10
191.8617626154
20
119.4239719157
40
0.5000000000
50
270.0000000000
51
300.0000000000
0
ARC
8
0
62
7
6
CONTINUOUS
10
191.8617626154
20
80.4739719157
40
0.5000000000
50
270.0000000000
51
300.0000000000
0
ARC
8
0
62
7
6
CONTINUOUS
10
191.8617626154
20
84.2239719157
40
0.5000000000
50
60.0000000000
51
90.0000000000
0
ARC
8
0
62
7
6
CONTINUOUS
10
74.6297118079
20
80.4739719157
40
0.5000000000
50
240.0000000000
51
270.0000000000
0
ARC
8
0
62
7
6
CONTINUOUS
10
74.6297118079
20
84.2239719157
40
0.5000000000
50
90.0000000000
51
120.0000000000
0
ENDSEC
0
EOF
