0
SECTION
2
HEADER
9
$EXTMAX
10
420.0000000000
20
297.0000000000
30
0.0000000000
9
$EXTMIN
10
0.0000000000
20
0.0000000000
30
0.0000000000
9
$LIMMIN
10
0.0000000000
20
0.0000000000
9
$LIMMAX
10
420.0000000000
20
297.0000000000
9
$VIEWCTR
10
210.0000000000
20
148.5000000000
9
$VIEWSIZE
40
297.0000000000
9
$CLAYER
8
0
9
$LTSCALE
40
23.1000000000
9
$CELTYPE
6
BYLAYER
9
$DIMSCALE
40
1
9
$DIMASZ
40
3.5000000000
9
$DIMEXO
40
2.6250000000
9
$DIMDLI
40
15.9600000000
9
$DIMEXE
40
7.5600000000
9
$DIMCEN
40
3.7800000000
9
$DIMLFAC
40
1.0000000000
9
$DIMBLK
1
_FILLED
9
$DIMTXT
40
3.5000000000
9
$PDMODE
70
3
9
$PDSIZE
40
0.3125000000
0
ENDSEC
0
SECTION
2
TABLES
0
TABLE
2
LTYPE
70
6
0
LTYPE
2
BYBLOCK
70
0
3

72
65
73
0
40
0.0
0
LTYPE
2
BYLAYER
70
0
3

72
65
73
0
40
0.0
0
LTYPE
2
CONTINUOUS
70
64
3
Solid line
72
65
73
0
40
0
0
LTYPE
2
CENTER
70
64
3
____ _ ____ _ ____ _ ____ _ ____ _ ____ _ ____
72
65
73
4
40
0.6
49
0.375
49
-0.075
49
0.075
49
-0.075
0
LTYPE
2
HIDDEN
70
64
3
- - - - - - - - - - - - - - - - - - - -
72
65
73
2
40
0.2
49
0.1
49
-0.1
0
LTYPE
2
PHANTOM
70
64
3
_____ _ _ _____ _ _ _____ _ _ _____
72
65
73
6
40
0.8
49
0.45
49
-0.05
49
0.1
49
-0.05
49
0.1
49
-0.05
0
LTYPE
2
DOT
70
64
3
. . . . . . . . . . . . . . . . . . . .
72
65
73
2
40
0.2
49
0.1
49
-0.1
0
LTYPE
2
DASHED
70
64
3
- - - - - - - - - - - - - - - - - - - -
72
65
73
2
40
0.2
49
0.1
49
-0.1
0
ENDTAB
0
TABLE
2
LAYER
70
36
0
LAYER
2
0
70
0
62
7
6
CONTINUOUS
0
LAYER
2
DEFAULT_1
70
0
62
7
6
CENTER
0
LAYER
2
DEFAULT_2
70
0
62
8
6
HIDDEN
0
LAYER
2
DEFAULT_3
70
0
62
7
6
PHANTOM
0
LAYER
2
_2D_DELETED_OBJS
70
0
62
7
6
CONTINUOUS
0
LAYER
2
_BLACK_HOLE
70
0
62
7
6
CONTINUOUS
0
LAYER
2
ASSI
70
0
62
7
6
CONTINUOUS
0
LAYER
2
PIANI
70
0
62
7
6
CONTINUOUS
0
LAYER
2
SURF_FILETTI
70
0
62
7
6
CONTINUOUS
0
ENDTAB
0
TABLE
2
STYLE
70
1
0
STYLE
2
STANDARD
70
0
40
0.0
41
0.7143000000
50
0.0
71
0
42
0.2
3
txt
4

0
ENDTAB
0
ENDSEC
0
SECTION
2
BLOCKS
0
BLOCK
8
0
62
2
6
CONTINUOUS
2
*D0
70
65
10
0.0000000000
20
0.0000000000
0
TEXT
8
0
62
2
6
CONTINUOUS
10
91.1991531438
20
203.2170956201
7
STANDARD
40
3.5000000000
1
12.1
41
0.7143000000
72
0
0
LINE
8
0
62
2
6
CONTINUOUS
10
90.1553352889
20
192.1026864677
11
90.1553352889
21
203.8420956201
0
LINE
8
0
62
2
6
CONTINUOUS
10
102.2553352889
20
192.1026864677
11
102.2553352889
21
203.8420956201
0
LINE
8
0
62
2
6
CONTINUOUS
10
90.1553352889
20
202.3420956201
11
82.1553352889
21
202.3420956201
0
LINE
8
0
62
2
6
CONTINUOUS
10
82.1553352889
20
202.3420956201
11
96.2053352889
21
202.3420956201
0
LINE
8
0
62
2
6
CONTINUOUS
10
102.2553352889
20
202.3420956201
11
110.2553352889
21
202.3420956201
0
LINE
8
0
62
2
6
CONTINUOUS
10
110.2553352889
20
202.3420956201
11
96.2053352889
21
202.3420956201
0
INSERT
8
0
62
2
6
CONTINUOUS
2
_FILLED
10
90.1553352889
20
202.3420956201
41
  3.500000
42
  3.500000
43
  3.500000
0
INSERT
8
0
62
2
6
CONTINUOUS
2
_FILLED
10
102.2553352889
20
202.3420956201
41
  3.500000
42
  3.500000
43
  3.500000
50
180.000000
0
ENDBLK
8
0
6
BYBLOCK
62
0
0
BLOCK
8
0
62
2
6
CONTINUOUS
2
*D1
70
65
10
0.0000000000
20
0.0000000000
0
TEXT
8
0
62
2
6
CONTINUOUS
10
109.3304552618
20
218.9589469936
7
STANDARD
40
3.5000000000
1
12.7
41
0.7143000000
72
0
0
LINE
8
0
62
2
6
CONTINUOUS
10
108.0053352889
20
177.4526864677
11
108.0053352889
21
219.5839469936
0
LINE
8
0
62
2
6
CONTINUOUS
10
120.7053352889
20
177.4526864677
11
120.7053352889
21
219.5839469936
0
LINE
8
0
62
2
6
CONTINUOUS
10
108.0053352889
20
218.0839469936
11
100.0053352889
21
218.0839469936
0
LINE
8
0
62
2
6
CONTINUOUS
10
100.0053352889
20
218.0839469936
11
114.3553352889
21
218.0839469936
0
LINE
8
0
62
2
6
CONTINUOUS
10
120.7053352889
20
218.0839469936
11
128.7053352889
21
218.0839469936
0
LINE
8
0
62
2
6
CONTINUOUS
10
128.7053352889
20
218.0839469936
11
114.3553352889
21
218.0839469936
0
INSERT
8
0
62
2
6
CONTINUOUS
2
_FILLED
10
108.0053352889
20
218.0839469936
41
  3.500000
42
  3.500000
43
  3.500000
0
INSERT
8
0
62
2
6
CONTINUOUS
2
_FILLED
10
120.7053352889
20
218.0839469936
41
  3.500000
42
  3.500000
43
  3.500000
50
180.000000
0
ENDBLK
8
0
6
BYBLOCK
62
0
0
BLOCK
8
0
62
2
6
CONTINUOUS
2
*D2
70
65
10
0.0000000000
20
0.0000000000
0
TEXT
8
0
62
2
6
CONTINUOUS
10
280.9073176324
20
197.9496264605
7
STANDARD
40
3.5000000000
1
6
41
0.7143000000
72
0
0
LINE
8
0
62
2
6
CONTINUOUS
10
289.0478539660
20
174.1526864677
11
289.0478539660
21
198.5746264605
0
LINE
8
0
62
2
6
CONTINUOUS
10
295.0478539660
20
174.1526864677
11
295.0478539660
21
198.5746264605
0
LINE
8
0
62
2
6
CONTINUOUS
10
289.0478539660
20
197.0746264605
11
280.9073176324
21
197.0746264605
0
LINE
8
0
62
2
6
CONTINUOUS
10
280.9073176324
20
197.0746264605
11
292.0478539660
21
197.0746264605
0
LINE
8
0
62
2
6
CONTINUOUS
10
295.0478539660
20
197.0746264605
11
303.0478539660
21
197.0746264605
0
LINE
8
0
62
2
6
CONTINUOUS
10
303.0478539660
20
197.0746264605
11
292.0478539660
21
197.0746264605
0
INSERT
8
0
62
2
6
CONTINUOUS
2
_FILLED
10
289.0478539660
20
197.0746264605
41
  3.500000
42
  3.500000
43
  3.500000
0
INSERT
8
0
62
2
6
CONTINUOUS
2
_FILLED
10
295.0478539660
20
197.0746264605
41
  3.500000
42
  3.500000
43
  3.500000
50
180.000000
0
ENDBLK
8
0
6
BYBLOCK
62
0
0
BLOCK
8
0
62
2
6
CONTINUOUS
2
*D3
70
65
10
0.0000000000
20
0.0000000000
0
TEXT
8
0
62
2
6
CONTINUOUS
10
278.1762167985
20
163.5062732145
7
STANDARD
40
3.5000000000
1
8.8
50
90.0000000000
41
0.7143000000
72
0
0
LINE
8
0
62
2
6
CONTINUOUS
10
286.0478539660
20
171.2026864677
11
277.5512167985
21
171.2026864677
0
LINE
8
0
62
2
6
CONTINUOUS
10
286.0478539660
20
162.4026864677
11
277.5512167985
21
162.4026864677
0
LINE
8
0
62
2
6
CONTINUOUS
10
279.0512167985
20
171.2026864677
11
279.0512167985
21
179.2026864677
0
LINE
8
0
62
2
6
CONTINUOUS
10
279.0512167985
20
179.2026864677
11
279.0512167985
21
166.8026864677
0
LINE
8
0
62
2
6
CONTINUOUS
10
279.0512167985
20
162.4026864677
11
279.0512167985
21
154.4026864677
0
LINE
8
0
62
2
6
CONTINUOUS
10
279.0512167985
20
154.4026864677
11
279.0512167985
21
166.8026864677
0
INSERT
8
0
62
2
6
CONTINUOUS
2
_FILLED
10
279.0512167985
20
171.2026864677
41
  3.500000
42
  3.500000
43
  3.500000
50
270.000000
0
INSERT
8
0
62
2
6
CONTINUOUS
2
_FILLED
10
279.0512167985
20
162.4026864677
41
  3.500000
42
  3.500000
43
  3.500000
50
 90.000000
0
ENDBLK
8
0
6
BYBLOCK
62
0
0
BLOCK
8
0
62
2
6
CONTINUOUS
2
*D4
70
65
10
0.0000000000
20
0.0000000000
0
TEXT
8
0
62
2
6
CONTINUOUS
10
266.7555368807
20
162.4603535700
7
STANDARD
40
3.5000000000
1
13.7
50
90.0000000000
41
0.7143000000
72
0
0
LINE
8
0
62
2
6
CONTINUOUS
10
288.5478539660
20
173.6526864677
11
266.1305368807
21
173.6526864677
0
LINE
8
0
62
2
6
CONTINUOUS
10
288.5478539660
20
159.9526864677
11
266.1305368807
21
159.9526864677
0
LINE
8
0
62
2
6
CONTINUOUS
10
267.6305368807
20
173.6526864677
11
267.6305368807
21
181.6526864677
0
LINE
8
0
62
2
6
CONTINUOUS
10
267.6305368807
20
181.6526864677
11
267.6305368807
21
166.8026864677
0
LINE
8
0
62
2
6
CONTINUOUS
10
267.6305368807
20
159.9526864677
11
267.6305368807
21
151.9526864677
0
LINE
8
0
62
2
6
CONTINUOUS
10
267.6305368807
20
151.9526864677
11
267.6305368807
21
166.8026864677
0
INSERT
8
0
62
2
6
CONTINUOUS
2
_FILLED
10
267.6305368807
20
173.6526864677
41
  3.500000
42
  3.500000
43
  3.500000
50
270.000000
0
INSERT
8
0
62
2
6
CONTINUOUS
2
_FILLED
10
267.6305368807
20
159.9526864677
41
  3.500000
42
  3.500000
43
  3.500000
50
 90.000000
0
ENDBLK
8
0
6
BYBLOCK
62
0
0
BLOCK
8
0
62
2
6
CONTINUOUS
2
*D5
70
65
10
0.0000000000
20
0.0000000000
0
TEXT
8
0
62
2
6
CONTINUOUS
10
255.7340224207
20
165.0330432510
7
STANDARD
40
3.5000000000
1
47
50
90.0000000000
41
0.7143000000
72
0
0
LINE
8
0
62
2
6
CONTINUOUS
10
300.0478539660
20
190.3026864677
11
255.1090224207
21
190.3026864677
0
LINE
8
0
62
2
6
CONTINUOUS
10
300.0478539660
20
143.3026864677
11
255.1090224207
21
143.3026864677
0
LINE
8
0
62
2
6
CONTINUOUS
10
256.6090224207
20
190.3026864677
11
256.6090224207
21
166.8026864677
0
LINE
8
0
62
2
6
CONTINUOUS
10
256.6090224207
20
143.3026864677
11
256.6090224207
21
166.8026864677
0
INSERT
8
0
62
2
6
CONTINUOUS
2
_FILLED
10
256.6090224207
20
190.3026864677
41
  3.500000
42
  3.500000
43
  3.500000
50
 90.000000
0
INSERT
8
0
62
2
6
CONTINUOUS
2
_FILLED
10
256.6090224207
20
143.3026864677
41
  3.500000
42
  3.500000
43
  3.500000
50
270.000000
0
ENDBLK
8
0
6
BYBLOCK
62
0
0
BLOCK
8
0
62
2
6
CONTINUOUS
2
*D6
70
65
10
0.0000000000
20
0.0000000000
0
TEXT
8
0
62
2
6
CONTINUOUS
10
318.1603171675
20
205.3442065666
7
STANDARD
40
3.5000000000
1
3.85
41
0.7143000000
72
0
0
LINE
8
0
62
2
6
CONTINUOUS
10
308.5478539660
20
190.8026864677
11
308.5478539660
21
205.9692065666
0
LINE
8
0
62
2
6
CONTINUOUS
10
312.3978539660
20
177.4526864677
11
312.3978539660
21
205.9692065666
0
LINE
8
0
62
2
6
CONTINUOUS
10
308.5478539660
20
204.4692065666
11
300.5478539660
21
204.4692065666
0
LINE
8
0
62
2
6
CONTINUOUS
10
300.5478539660
20
204.4692065666
11
310.4728539660
21
204.4692065666
0
LINE
8
0
62
2
6
CONTINUOUS
10
312.3978539660
20
204.4692065666
11
328.1605171675
21
204.4692065666
0
LINE
8
0
62
2
6
CONTINUOUS
10
328.1605171675
20
204.4692065666
11
310.4728539660
21
204.4692065666
0
INSERT
8
0
62
2
6
CONTINUOUS
2
_FILLED
10
308.5478539660
20
204.4692065666
41
  3.500000
42
  3.500000
43
  3.500000
0
INSERT
8
0
62
2
6
CONTINUOUS
2
_FILLED
10
312.3978539660
20
204.4692065666
41
  3.500000
42
  3.500000
43
  3.500000
50
180.000000
0
ENDBLK
8
0
6
BYBLOCK
62
0
0
BLOCK
8
0
62
2
6
CONTINUOUS
2
*D7
70
65
10
0.0000000000
20
0.0000000000
0
TEXT
8
0
62
2
6
CONTINUOUS
10
297.4601441950
20
133.9587099001
7
STANDARD
40
3.5000000000
1
16.85
41
0.7143000000
72
0
0
LINE
8
0
62
2
6
CONTINUOUS
10
295.5478539660
20
147.8026864677
11
295.5478539660
21
131.5837099001
0
LINE
8
0
62
2
6
CONTINUOUS
10
312.3978539660
20
155.2526864677
11
312.3978539660
21
131.5837099001
0
LINE
8
0
62
2
6
CONTINUOUS
10
295.5478539660
20
133.0837099001
11
303.9728539660
21
133.0837099001
0
LINE
8
0
62
2
6
CONTINUOUS
10
312.3978539660
20
133.0837099001
11
303.9728539660
21
133.0837099001
0
INSERT
8
0
62
2
6
CONTINUOUS
2
_FILLED
10
295.5478539660
20
133.0837099001
41
  3.500000
42
  3.500000
43
  3.500000
50
180.000000
0
INSERT
8
0
62
2
6
CONTINUOUS
2
_FILLED
10
312.3978539660
20
133.0837099001
41
  3.500000
42
  3.500000
43
  3.500000
0
ENDBLK
8
0
6
BYBLOCK
62
0
0
BLOCK
8
0
62
2
6
CONTINUOUS
2
*D8
70
65
10
0.0000000000
20
0.0000000000
0
TEXT
8
0
62
2
6
CONTINUOUS
10
293.4795047642
20
123.0195585361
7
STANDARD
40
3.5000000000
1
25.85
41
0.7143000000
72
0
0
LINE
8
0
62
2
6
CONTINUOUS
10
286.5478539660
20
157.7459344316
11
286.5478539660
21
120.6445585361
0
LINE
8
0
62
2
6
CONTINUOUS
10
312.3978539660
20
155.2526864677
11
312.3978539660
21
120.6445585361
0
LINE
8
0
62
2
6
CONTINUOUS
10
286.5478539660
20
122.1445585361
11
299.4728539660
21
122.1445585361
0
LINE
8
0
62
2
6
CONTINUOUS
10
312.3978539660
20
122.1445585361
11
299.4728539660
21
122.1445585361
0
INSERT
8
0
62
2
6
CONTINUOUS
2
_FILLED
10
286.5478539660
20
122.1445585361
41
  3.500000
42
  3.500000
43
  3.500000
50
180.000000
0
INSERT
8
0
62
2
6
CONTINUOUS
2
_FILLED
10
312.3978539660
20
122.1445585361
41
  3.500000
42
  3.500000
43
  3.500000
0
ENDBLK
8
0
6
BYBLOCK
62
0
0
BLOCK
8
0
62
2
6
CONTINUOUS
2
*D9
70
65
10
0.0000000000
20
0.0000000000
0
TEXT
8
0
62
2
6
CONTINUOUS
10
322.7090963654
20
130.9602750095
7
STANDARD
40
3.5000000000
1
7.15
50
90.0000000000
41
0.7143000000
72
0
0
LINE
8
0
62
2
6
CONTINUOUS
10
309.0478539660
20
143.3026864677
11
325.0840963654
21
143.3026864677
0
LINE
8
0
62
2
6
CONTINUOUS
10
310.3478537659
20
150.4526864677
11
325.0840963654
21
150.4526864677
0
LINE
8
0
62
2
6
CONTINUOUS
10
323.5840963654
20
143.3026864677
11
323.5840963654
21
130.9602750095
0
LINE
8
0
62
2
6
CONTINUOUS
10
323.5840963654
20
130.9602750095
11
323.5840963654
21
146.8776864677
0
LINE
8
0
62
2
6
CONTINUOUS
10
323.5840963654
20
150.4526864677
11
323.5840963654
21
158.4526864677
0
LINE
8
0
62
2
6
CONTINUOUS
10
323.5840963654
20
158.4526864677
11
323.5840963654
21
146.8776864677
0
INSERT
8
0
62
2
6
CONTINUOUS
2
_FILLED
10
323.5840963654
20
143.3026864677
41
  3.500000
42
  3.500000
43
  3.500000
50
 90.000000
0
INSERT
8
0
62
2
6
CONTINUOUS
2
_FILLED
10
323.5840963654
20
150.4526864677
41
  3.500000
42
  3.500000
43
  3.500000
50
270.000000
0
ENDBLK
8
0
6
BYBLOCK
62
0
0
BLOCK
8
0
62
2
6
CONTINUOUS
2
*D10
70
65
10
0.0000000000
20
0.0000000000
0
TEXT
8
0
62
2
6
CONTINUOUS
10
331.9412232982
20
161.0561491484
7
STANDARD
40
3.5000000000
1
31.8
50
90.0000000000
41
0.7143000000
72
0
0
LINE
8
0
62
2
6
CONTINUOUS
10
310.3478537659
20
182.2526864677
11
334.3162232982
21
182.2526864677
0
LINE
8
0
62
2
6
CONTINUOUS
10
310.3478537659
20
150.4526864677
11
334.3162232982
21
150.4526864677
0
LINE
8
0
62
2
6
CONTINUOUS
10
332.8162232982
20
182.2526864677
11
332.8162232982
21
166.3526864677
0
LINE
8
0
62
2
6
CONTINUOUS
10
332.8162232982
20
150.4526864677
11
332.8162232982
21
166.3526864677
0
INSERT
8
0
62
2
6
CONTINUOUS
2
_FILLED
10
332.8162232982
20
182.2526864677
41
  3.500000
42
  3.500000
43
  3.500000
50
 90.000000
0
INSERT
8
0
62
2
6
CONTINUOUS
2
_FILLED
10
332.8162232982
20
150.4526864677
41
  3.500000
42
  3.500000
43
  3.500000
50
270.000000
0
ENDBLK
8
0
6
BYBLOCK
62
0
0
BLOCK
8
0
2
_FILLED
70
64
10
0.0000000000
20
0.0000000000
0
SOLID
8
0
6
BYBLOCK
62
0
10
0.0000000000
20
0.0000000000
11
-1.0000000000
21
0.1857142857
12
-1.0000000000
22
-0.1857142857
13
-1.0000000000
23
-0.1857142857
0
ENDBLK
8
0
6
BYBLOCK
62
0
0
ENDSEC
0
SECTION
2
ENTITIES
0
DIMENSION
8
0
62
2
6
CONTINUOUS
2
*D0
10
102.2553352889
20
202.3420956201
11
96.1992531438
21
204.9670956201
70
128
13
90.1553352889
23
192.1026864677
14
102.2553352889
24
192.1026864677
0
DIMENSION
8
0
62
2
6
CONTINUOUS
2
*D1
10
120.7053352889
20
218.0839469936
11
114.3305552618
21
220.7089469936
70
128
13
108.0053352889
23
177.4526864677
14
120.7053352889
24
177.4526864677
0
DIMENSION
8
0
62
2
6
CONTINUOUS
2
*D2
10
295.0478539660
20
197.0746264605
11
282.1573426324
21
199.6996264605
70
128
13
289.0478539660
23
174.1526864677
14
295.0478539660
24
174.1526864677
0
DIMENSION
8
0
62
2
6
CONTINUOUS
2
*D3
10
279.0512167985
20
162.4026864677
11
276.4262167985
21
167.2563482145
70
128
13
286.0478539660
23
171.2026864677
14
286.0478539660
24
162.4026864677
50
270.000000
0
DIMENSION
8
0
62
2
6
CONTINUOUS
2
*D4
10
267.6305368807
20
159.9526864677
11
265.0055368807
21
167.4604535700
70
128
13
288.5478539660
23
173.6526864677
14
288.5478539660
24
159.9526864677
50
270.000000
0
DIMENSION
8
0
62
2
6
CONTINUOUS
2
*D5
10
256.6090224207
20
143.3026864677
11
253.9840224207
21
167.5330932510
70
128
13
300.0478539660
23
190.3026864677
14
300.0478539660
24
143.3026864677
50
270.000000
0
DIMENSION
8
0
62
2
6
CONTINUOUS
2
*D6
10
312.3978539660
20
204.4692065666
11
323.1604171675
21
207.0942065666
70
128
13
308.5478539660
23
190.8026864677
14
312.3978539660
24
177.4526864677
0
DIMENSION
8
0
62
2
6
CONTINUOUS
2
*D7
10
312.3978539660
20
133.0837099001
11
303.7102691950
21
135.7087099001
70
128
13
295.5478539660
23
147.8026864677
14
312.3978539660
24
155.2526864677
0
DIMENSION
8
0
62
2
6
CONTINUOUS
2
*D8
10
312.3978539660
20
122.1445585361
11
299.7296297642
21
124.7695585361
70
128
13
286.5478539660
23
157.7459344316
14
312.3978539660
24
155.2526864677
0
DIMENSION
8
0
62
2
6
CONTINUOUS
2
*D9
10
323.5840963654
20
150.4526864677
11
320.9590963654
21
135.9603750095
70
128
13
309.0478539660
23
143.3026864677
14
310.3478537659
24
150.4526864677
50
90.000000
0
DIMENSION
8
0
62
2
6
CONTINUOUS
2
*D10
10
332.8162232982
20
150.4526864677
11
330.1912232982
21
166.0562491484
70
128
13
310.3478537659
23
182.2526864677
14
310.3478537659
24
150.4526864677
50
270.000000
0
LINE
8
0
62
7
6
CONTINUOUS
10
0.0000000000
20
0.0000000000
11
0.0000000000
21
297.0000000000
0
LINE
8
0
62
7
6
CONTINUOUS
10
0.0000000000
20
0.0000000000
11
420.0000000000
21
0.0000000000
0
LINE
8
0
62
7
6
CONTINUOUS
10
0.0000000000
20
297.0000000000
11
420.0000000000
21
297.0000000000
0
LINE
8
0
62
7
6
CONTINUOUS
10
420.0000000000
20
0.0000000000
11
420.0000000000
21
297.0000000000
0
LINE
8
0
62
7
6
CONTINUOUS
10
48.0553352889
20
143.3026864677
11
48.0553352889
21
158.4714128766
0
LINE
8
0
62
7
6
CONTINUOUS
10
48.0553352889
20
163.6349045872
11
48.0553352889
21
169.0704683481
0
LINE
8
0
62
7
6
CONTINUOUS
10
48.0553352889
20
174.2339600587
11
48.0553352889
21
190.3026864677
0
LINE
8
0
62
7
6
CONTINUOUS
10
49.4393098851
20
149.3026864677
11
49.4393098851
21
149.7856991696
0
LINE
8
0
62
7
6
CONTINUOUS
10
49.4393098851
20
184.1196737658
11
49.4393098851
21
184.3026864677
0
LINE
8
0
62
7
6
CONTINUOUS
10
49.6893098851
20
149.3026864677
11
49.6893098851
21
149.8526864677
0
LINE
8
0
62
7
6
CONTINUOUS
10
49.6893098851
20
184.0526864677
11
49.6893098851
21
184.3026864677
0
LINE
8
0
62
7
6
CONTINUOUS
10
49.8553352889
20
182.0526864677
11
49.8553352889
21
177.0399399423
0
LINE
8
0
62
7
6
CONTINUOUS
10
49.8553352889
20
150.6526864677
11
49.8553352889
21
155.6654329930
0
LINE
8
0
62
7
6
CONTINUOUS
10
52.3437918794
20
184.0526864677
11
52.2935814704
21
183.8352012927
0
LINE
8
0
62
7
6
CONTINUOUS
10
52.5562971832
20
184.0526864677
11
52.6234345192
21
184.3026864677
0
POLYLINE
8
0
62
7
6
CONTINUOUS
66
1
70
0
0
VERTEX
8
0
62
7
6
CONTINUOUS
10
52.7053811379
20
149.3026864677
0
VERTEX
8
0
62
7
6
CONTINUOUS
10
52.6625764420
20
149.4569332784
0
VERTEX
8
0
62
7
6
CONTINUOUS
10
52.5562971832
20
149.8526864677
0
SEQEND
0
LINE
8
0
62
7
6
CONTINUOUS
10
52.2935814423
20
150.0701717643
11
52.3437918794
21
149.8526864677
0
LINE
8
0
62
7
6
CONTINUOUS
10
51.0553352889
20
183.3026864677
11
51.0553352889
21
182.2526864677
0
LINE
8
DEFAULT_1
62
2
6
CENTER
10
53.8553352889
20
191.6026864677
11
53.8553352889
21
142.3026864677
0
LINE
8
0
62
7
6
CONTINUOUS
10
56.6553352889
20
183.3026864677
11
56.6553352889
21
182.2526864677
0
LINE
8
0
62
7
6
CONTINUOUS
10
57.8553352889
20
182.0526864677
11
57.8553352889
21
177.0399399423
0
LINE
8
0
62
7
6
CONTINUOUS
10
57.8553352889
20
150.6526864677
11
57.8553352889
21
155.6654329930
0
LINE
8
0
62
7
6
CONTINUOUS
10
55.4170891355
20
150.0701717643
11
55.3668786985
21
149.8526864677
0
LINE
8
0
62
7
6
CONTINUOUS
10
64.4437918794
20
184.0526864677
11
64.3935814704
21
183.8352012927
0
POLYLINE
8
0
62
7
6
CONTINUOUS
66
1
70
0
0
VERTEX
8
0
62
7
6
CONTINUOUS
10
55.1543733946
20
149.8526864677
0
VERTEX
8
0
62
7
6
CONTINUOUS
10
55.0480941266
20
149.4569332464
0
VERTEX
8
0
62
7
6
CONTINUOUS
10
55.0052894396
20
149.3026864677
0
SEQEND
0
LINE
8
0
62
7
6
CONTINUOUS
10
64.6562971832
20
184.0526864677
11
64.7234345192
21
184.3026864677
0
POLYLINE
8
0
62
7
6
CONTINUOUS
66
1
70
0
0
VERTEX
8
0
62
7
6
CONTINUOUS
10
64.8053811379
20
149.3026864677
0
VERTEX
8
0
62
7
6
CONTINUOUS
10
64.7625764420
20
149.4569332784
0
VERTEX
8
0
62
7
6
CONTINUOUS
10
64.6562971832
20
149.8526864677
0
SEQEND
0
LINE
8
0
62
7
6
CONTINUOUS
10
55.0872360589
20
184.3026864677
11
55.1543733946
21
184.0526864677
0
LINE
8
0
62
7
6
CONTINUOUS
10
55.3662945676
20
184.0552166164
11
55.4170891074
21
183.8352012927
0
LINE
8
0
62
7
6
CONTINUOUS
10
64.3935814423
20
150.0701717643
11
64.4437918794
21
149.8526864677
0
LINE
8
0
62
7
6
CONTINUOUS
10
63.1553352889
20
183.3026864677
11
63.1553352889
21
182.2526864677
0
LINE
8
DEFAULT_1
62
2
6
CENTER
10
65.9553352889
20
191.6026864677
11
65.9553352889
21
142.3026864677
0
LINE
8
0
62
7
6
CONTINUOUS
10
68.7553352889
20
183.3026864677
11
68.7553352889
21
182.2526864677
0
LINE
8
0
62
7
6
CONTINUOUS
10
67.5170891355
20
150.0701717643
11
67.4668786985
21
149.8526864677
0
POLYLINE
8
0
62
7
6
CONTINUOUS
66
1
70
0
0
VERTEX
8
0
62
7
6
CONTINUOUS
10
67.2543733946
20
149.8526864677
0
VERTEX
8
0
62
7
6
CONTINUOUS
10
67.1480941266
20
149.4569332464
0
VERTEX
8
0
62
7
6
CONTINUOUS
10
67.1052894396
20
149.3026864677
0
SEQEND
0
LINE
8
0
62
7
6
CONTINUOUS
10
67.4662945676
20
184.0552166164
11
67.5170891074
21
183.8352012927
0
LINE
8
0
62
7
6
CONTINUOUS
10
74.0553352889
20
182.0526864677
11
74.0553352889
21
177.0399399423
0
LINE
8
0
62
7
6
CONTINUOUS
10
74.0553352889
20
150.6526864677
11
74.0553352889
21
155.6654329930
0
LINE
8
0
62
7
6
CONTINUOUS
10
75.2553352889
20
183.3026864677
11
75.2553352889
21
182.2526864677
0
LINE
8
0
62
7
6
CONTINUOUS
10
76.5437918794
20
184.0526864677
11
76.4935814704
21
183.8352012927
0
LINE
8
0
62
7
6
CONTINUOUS
10
76.7562971832
20
184.0526864677
11
76.8234345192
21
184.3026864677
0
LINE
8
0
62
7
6
CONTINUOUS
10
142.0425093986
20
143.3026864677
11
48.0553352889
21
143.3026864677
0
POLYLINE
8
0
62
7
6
CONTINUOUS
66
1
70
0
0
VERTEX
8
0
62
7
6
CONTINUOUS
10
76.9053811379
20
149.3026864677
0
VERTEX
8
0
62
7
6
CONTINUOUS
10
76.8625764420
20
149.4569332784
0
VERTEX
8
0
62
7
6
CONTINUOUS
10
76.7562971832
20
149.8526864677
0
SEQEND
0
LINE
8
0
62
7
6
CONTINUOUS
10
67.1872360589
20
184.3026864677
11
67.2543733946
21
184.0526864677
0
LINE
8
0
62
7
6
CONTINUOUS
10
76.4935814423
20
150.0701717643
11
76.5437918794
21
149.8526864677
0
LINE
8
DEFAULT_1
62
2
6
CENTER
10
78.0553352889
20
191.6026864677
11
78.0553352889
21
142.3026864677
0
LINE
8
0
62
7
6
CONTINUOUS
10
80.8553352889
20
183.3026864677
11
80.8553352889
21
182.2526864677
0
LINE
8
0
62
7
6
CONTINUOUS
10
82.0553352889
20
182.0526864677
11
82.0553352889
21
177.0399399423
0
LINE
8
0
62
7
6
CONTINUOUS
10
82.0553352889
20
150.6526864677
11
82.0553352889
21
155.6654329930
0
LINE
8
0
62
7
6
CONTINUOUS
10
79.6170891355
20
150.0701717643
11
79.5668786985
21
149.8526864677
0
LINE
8
0
62
7
6
CONTINUOUS
10
142.9731584131
20
149.3026864677
11
48.0553352889
21
149.3026864677
0
LINE
8
0
62
7
6
CONTINUOUS
10
143.1701575847
20
149.8526864677
11
139.8543733946
21
149.8526864677
0
LINE
8
0
62
7
6
CONTINUOUS
10
137.2562971832
20
149.8526864677
11
127.7543733946
21
149.8526864677
0
LINE
8
0
62
7
6
CONTINUOUS
10
125.1562971832
20
149.8526864677
11
115.6543733946
21
149.8526864677
0
LINE
8
0
62
7
6
CONTINUOUS
10
113.0562971832
20
149.8526864677
11
103.5543733946
21
149.8526864677
0
LINE
8
0
62
7
6
CONTINUOUS
10
100.9562971832
20
149.8526864677
11
91.4543733946
21
149.8526864677
0
LINE
8
0
62
7
6
CONTINUOUS
10
88.8562971832
20
149.8526864677
11
79.3543733946
21
149.8526864677
0
LINE
8
0
62
7
6
CONTINUOUS
10
76.7562971832
20
149.8526864677
11
67.2543733946
21
149.8526864677
0
LINE
8
0
62
7
6
CONTINUOUS
10
64.6562971832
20
149.8526864677
11
55.1543733946
21
149.8526864677
0
LINE
8
0
62
7
6
CONTINUOUS
10
52.5562971832
20
149.8526864677
11
49.6893098851
21
149.8526864677
0
LINE
8
0
62
7
6
CONTINUOUS
10
52.2935814394
20
150.0701717769
11
55.4170891384
21
150.0701717769
0
LINE
8
0
62
7
6
CONTINUOUS
10
64.3935814394
20
150.0701717769
11
67.5170891384
21
150.0701717769
0
LINE
8
0
62
7
6
CONTINUOUS
10
76.4935814394
20
150.0701717769
11
79.6170891384
21
150.0701717769
0
LINE
8
0
62
7
6
CONTINUOUS
10
88.5935814394
20
150.0701717769
11
91.7170891384
21
150.0701717769
0
LINE
8
0
62
7
6
CONTINUOUS
10
100.6935814394
20
150.0701717769
11
103.8170891384
21
150.0701717769
0
LINE
8
0
62
7
6
CONTINUOUS
10
112.7935814394
20
150.0701717769
11
115.9170891384
21
150.0701717769
0
LINE
8
0
62
7
6
CONTINUOUS
10
124.8935814394
20
150.0701717769
11
128.0170891384
21
150.0701717769
0
LINE
8
0
62
7
6
CONTINUOUS
10
136.9935814394
20
150.0701717769
11
140.1170891384
21
150.0701717769
0
LINE
8
0
62
7
6
CONTINUOUS
10
141.0549546251
20
150.3026864677
11
136.0553352889
21
150.3026864677
0
LINE
8
0
62
7
6
CONTINUOUS
10
128.9549546251
20
150.3026864677
11
123.9553352889
21
150.3026864677
0
LINE
8
0
62
7
6
CONTINUOUS
10
116.8549546251
20
150.3026864677
11
111.8553352889
21
150.3026864677
0
LINE
8
0
62
7
6
CONTINUOUS
10
104.7549546251
20
150.3026864677
11
99.7553352889
21
150.3026864677
0
LINE
8
0
62
7
6
CONTINUOUS
10
92.6549546251
20
150.3026864677
11
87.6553352889
21
150.3026864677
0
LINE
8
0
62
7
6
CONTINUOUS
10
80.5549546251
20
150.3026864677
11
75.5553352889
21
150.3026864677
0
LINE
8
0
62
7
6
CONTINUOUS
10
68.4549546251
20
150.3026864677
11
63.4553352889
21
150.3026864677
0
LINE
8
0
62
7
6
CONTINUOUS
10
56.3549546251
20
150.3026864677
11
51.3553352889
21
150.3026864677
0
LINE
8
0
62
7
6
CONTINUOUS
10
141.8993137277
20
150.4526864677
11
135.2113568501
21
150.4526864677
0
LINE
8
0
62
7
6
CONTINUOUS
10
50.0553352889
20
150.4526864677
11
57.6553352889
21
150.4526864677
0
LINE
8
0
62
7
6
CONTINUOUS
10
62.6113107675
20
150.4526864677
11
69.2993598104
21
150.4526864677
0
LINE
8
0
62
7
6
CONTINUOUS
10
74.2553352889
20
150.4526864677
11
81.8553352889
21
150.4526864677
0
LINE
8
0
62
7
6
CONTINUOUS
10
86.8113107675
20
150.4526864677
11
93.4993598104
21
150.4526864677
0
LINE
8
0
62
7
6
CONTINUOUS
10
98.4553352889
20
150.4526864677
11
106.0553352889
21
150.4526864677
0
LINE
8
0
62
7
6
CONTINUOUS
10
111.0113107675
20
150.4526864677
11
117.6993598104
21
150.4526864677
0
LINE
8
0
62
7
6
CONTINUOUS
10
122.6553352889
20
150.4526864677
11
130.2553352889
21
150.4526864677
0
LINE
8
0
62
7
6
CONTINUOUS
10
142.1851738653
20
150.5424300527
11
134.9254967125
21
150.5424300527
0
LINE
8
0
62
7
6
CONTINUOUS
10
62.3254967061
20
150.5424300572
11
69.5851738717
21
150.5424300572
0
LINE
8
0
62
7
6
CONTINUOUS
10
86.5254967061
20
150.5424300572
11
93.7851738717
21
150.5424300572
0
LINE
8
0
62
7
6
CONTINUOUS
10
110.7254967061
20
150.5424300572
11
117.9851738717
21
150.5424300572
0
LINE
8
0
62
7
6
CONTINUOUS
10
49.8553352889
20
150.6526864677
11
57.8553352889
21
150.6526864677
0
LINE
8
0
62
7
6
CONTINUOUS
10
74.0553352889
20
150.6526864677
11
82.0553352889
21
150.6526864677
0
LINE
8
0
62
7
6
CONTINUOUS
10
98.2553352889
20
150.6526864677
11
106.2553352889
21
150.6526864677
0
LINE
8
0
62
7
6
CONTINUOUS
10
122.4553352889
20
150.6526864677
11
130.4553352889
21
150.6526864677
0
LINE
8
0
62
7
6
CONTINUOUS
10
79.5668786985
20
184.0526864677
11
79.6170891074
21
183.8352012927
0
LINE
8
0
62
7
6
CONTINUOUS
10
87.3553352889
20
183.3026864677
11
87.3553352889
21
182.2526864677
0
LINE
8
0
62
7
6
CONTINUOUS
10
88.6437918794
20
184.0526864677
11
88.5935814704
21
183.8352012927
0
POLYLINE
8
0
62
7
6
CONTINUOUS
66
1
70
0
0
VERTEX
8
0
62
7
6
CONTINUOUS
10
79.3543733946
20
149.8526864677
0
VERTEX
8
0
62
7
6
CONTINUOUS
10
79.2480941266
20
149.4569332464
0
VERTEX
8
0
62
7
6
CONTINUOUS
10
79.2052894396
20
149.3026864677
0
SEQEND
0
LINE
8
0
62
7
6
CONTINUOUS
10
88.8562971832
20
184.0526864677
11
88.9234345192
21
184.3026864677
0
LINE
8
0
62
7
6
CONTINUOUS
10
130.4553352889
20
155.6654329930
11
122.4553352889
21
155.6654329930
0
LINE
8
0
62
7
6
CONTINUOUS
10
106.2553352889
20
155.6654329930
11
98.2553352889
21
155.6654329930
0
LINE
8
0
62
7
6
CONTINUOUS
10
82.0553352889
20
155.6654329930
11
74.0553352889
21
155.6654329930
0
LINE
8
0
62
7
6
CONTINUOUS
10
57.8553352889
20
155.6654329930
11
49.8553352889
21
155.6654329930
0
POLYLINE
8
0
62
7
6
CONTINUOUS
66
1
70
0
0
VERTEX
8
0
62
7
6
CONTINUOUS
10
89.0053811379
20
149.3026864677
0
VERTEX
8
0
62
7
6
CONTINUOUS
10
88.9625764420
20
149.4569332784
0
VERTEX
8
0
62
7
6
CONTINUOUS
10
88.8562971832
20
149.8526864677
0
SEQEND
0
LINE
8
0
62
7
6
CONTINUOUS
10
79.2872360589
20
184.3026864677
11
79.3543733946
21
184.0526864677
0
LINE
8
0
62
7
6
CONTINUOUS
10
88.5935814423
20
150.0701717643
11
88.6437918794
21
149.8526864677
0
LINE
8
DEFAULT_1
62
2
6
CENTER
10
90.1553352889
20
191.6026864677
11
90.1553352889
21
142.3026864677
0
LINE
8
0
62
7
6
CONTINUOUS
10
48.6027073447
20
149.3026864677
11
49.4393098851
21
149.7856991696
0
LINE
8
0
62
7
6
CONTINUOUS
10
130.7750631799
20
156.3983926493
11
122.1356073979
21
156.3983926493
0
LINE
8
0
62
7
6
CONTINUOUS
10
106.5750631799
20
156.3983926493
11
97.9356073979
21
156.3983926493
0
LINE
8
0
62
7
6
CONTINUOUS
10
82.3750631799
20
156.3983926493
11
73.7356073979
21
156.3983926493
0
LINE
8
0
62
7
6
CONTINUOUS
10
58.1750631799
20
156.3983926493
11
49.5356073979
21
156.3983926493
0
LINE
8
0
62
7
6
CONTINUOUS
10
49.1223225870
20
184.3026864677
11
49.4393098851
21
184.1196737658
0
LINE
8
0
62
7
6
CONTINUOUS
10
92.9553352889
20
183.3026864677
11
92.9553352889
21
182.2526864677
0
LINE
8
0
62
7
6
CONTINUOUS
10
142.1851738717
20
160.9629428781
11
134.9254967061
21
160.9629428781
0
LINE
8
0
62
7
6
CONTINUOUS
10
62.3254967125
20
160.9629428826
11
69.5851738653
21
160.9629428826
0
LINE
8
0
62
7
6
CONTINUOUS
10
86.5254967125
20
160.9629428826
11
93.7851738653
21
160.9629428826
0
LINE
8
0
62
7
6
CONTINUOUS
10
110.7254967125
20
160.9629428826
11
117.9851738653
21
160.9629428826
0
LINE
8
0
62
7
6
CONTINUOUS
10
141.8993598104
20
161.0526864677
11
135.2113107675
21
161.0526864677
0
LINE
8
0
62
7
6
CONTINUOUS
10
62.6113107675
20
161.0526864677
11
69.2993598104
21
161.0526864677
0
LINE
8
0
62
7
6
CONTINUOUS
10
86.8113107675
20
161.0526864677
11
93.4993598104
21
161.0526864677
0
LINE
8
0
62
7
6
CONTINUOUS
10
111.0113107675
20
161.0526864677
11
117.6993598104
21
161.0526864677
0
LINE
8
0
62
7
6
CONTINUOUS
10
142.1851738653
20
161.1424300527
11
134.9254967125
21
161.1424300527
0
LINE
8
0
62
7
6
CONTINUOUS
10
62.3254967061
20
161.1424300572
11
69.5851738717
21
161.1424300572
0
LINE
8
0
62
7
6
CONTINUOUS
10
86.5254967061
20
161.1424300572
11
93.7851738717
21
161.1424300572
0
LINE
8
0
62
7
6
CONTINUOUS
10
110.7254967061
20
161.1424300572
11
117.9851738717
21
161.1424300572
0
LINE
8
0
62
7
6
CONTINUOUS
10
98.2553352889
20
182.0526864677
11
98.2553352889
21
177.0399399423
0
LINE
8
0
62
7
6
CONTINUOUS
10
98.2553352889
20
150.6526864677
11
98.2553352889
21
155.6654329930
0
LINE
8
0
62
7
6
CONTINUOUS
10
91.7170891355
20
150.0701717643
11
91.6668786985
21
149.8526864677
0
LINE
8
0
62
7
6
CONTINUOUS
10
100.7437918794
20
184.0526864677
11
100.6935814704
21
183.8352012927
0
POLYLINE
8
0
62
7
6
CONTINUOUS
66
1
70
0
0
VERTEX
8
0
62
7
6
CONTINUOUS
10
91.4543733946
20
149.8526864677
0
VERTEX
8
0
62
7
6
CONTINUOUS
10
91.3480941266
20
149.4569332464
0
VERTEX
8
0
62
7
6
CONTINUOUS
10
91.3052894396
20
149.3026864677
0
SEQEND
0
LINE
8
0
62
7
6
CONTINUOUS
10
100.9562971832
20
184.0526864677
11
101.0234345192
21
184.3026864677
0
LINE
8
0
62
7
6
CONTINUOUS
10
147.0254967168
20
166.2629428856
11
148.9152033654
21
166.2629430365
0
LINE
8
0
62
7
6
CONTINUOUS
10
98.6254967168
20
166.2629428856
11
105.8851738610
21
166.2629428856
0
LINE
8
0
62
7
6
CONTINUOUS
10
74.4254967168
20
166.2629428856
11
81.6851738610
21
166.2629428856
0
LINE
8
0
62
7
6
CONTINUOUS
10
122.8254967168
20
166.2629428856
11
130.0851738610
21
166.2629428856
0
LINE
8
0
62
7
6
CONTINUOUS
10
50.2254967168
20
166.2629428856
11
57.4851738610
21
166.2629428856
0
LINE
8
0
62
7
6
CONTINUOUS
10
148.9394762827
20
166.3526864677
11
147.3113107916
21
166.3526864677
0
LINE
8
0
62
7
6
CONTINUOUS
10
129.7993598104
20
166.3526864677
11
123.1113107916
21
166.3526864677
0
LINE
8
0
62
7
6
CONTINUOUS
10
105.5993597862
20
166.3526864677
11
98.9113107916
21
166.3526864677
0
LINE
8
0
62
7
6
CONTINUOUS
10
81.3993597862
20
166.3526864677
11
74.7113107916
21
166.3526864677
0
LINE
8
0
62
7
6
CONTINUOUS
10
57.1993597862
20
166.3526864677
11
50.5113107916
21
166.3526864677
0
LINE
8
0
62
7
6
CONTINUOUS
10
105.8851738610
20
166.4424300498
11
98.6254967168
21
166.4424300498
0
LINE
8
0
62
7
6
CONTINUOUS
10
81.6851738610
20
166.4424300498
11
74.4254967168
21
166.4424300498
0
LINE
8
0
62
7
6
CONTINUOUS
10
130.0851738610
20
166.4424300498
11
122.8254967168
21
166.4424300498
0
LINE
8
0
62
7
6
CONTINUOUS
10
57.4851738610
20
166.4424300498
11
50.2254967168
21
166.4424300498
0
LINE
8
0
62
7
6
CONTINUOUS
10
148.9637492276
20
166.4424300008
11
147.0254967168
21
166.4424300498
0
POLYLINE
8
0
62
7
6
CONTINUOUS
66
1
70
0
0
VERTEX
8
0
62
7
6
CONTINUOUS
10
101.1053811379
20
149.3026864677
0
VERTEX
8
0
62
7
6
CONTINUOUS
10
101.0625764420
20
149.4569332784
0
VERTEX
8
0
62
7
6
CONTINUOUS
10
100.9562971832
20
149.8526864677
0
SEQEND
0
LINE
8
0
62
7
6
CONTINUOUS
10
91.3872360589
20
184.3026864677
11
91.4543733946
21
184.0526864677
0
LINE
8
0
62
7
6
CONTINUOUS
10
91.6668786985
20
184.0526864677
11
91.7170891074
21
183.8352012927
0
LINE
8
0
62
7
6
CONTINUOUS
10
100.6935814423
20
150.0701717643
11
100.7437918794
21
149.8526864677
0
LINE
8
0
62
7
6
CONTINUOUS
10
99.4553352889
20
183.3026864677
11
99.4553352889
21
182.2526864677
0
LINE
8
DEFAULT_1
62
2
6
CENTER
10
102.2553352889
20
191.6026864677
11
102.2553352889
21
142.3026864677
0
LINE
8
0
62
7
6
CONTINUOUS
10
105.0553352889
20
183.3026864677
11
105.0553352889
21
182.2526864677
0
LINE
8
0
62
7
6
CONTINUOUS
10
106.2553352889
20
182.0526864677
11
106.2553352889
21
177.0399399423
0
LINE
8
0
62
7
6
CONTINUOUS
10
106.2553352889
20
150.6526864677
11
106.2553352889
21
155.6654329930
0
LINE
8
0
62
7
6
CONTINUOUS
10
142.1851738717
20
171.5629428781
11
134.9254967061
21
171.5629428781
0
LINE
8
0
62
7
6
CONTINUOUS
10
62.3254967125
20
171.5629428826
11
69.5851738653
21
171.5629428826
0
LINE
8
0
62
7
6
CONTINUOUS
10
86.5254967125
20
171.5629428826
11
93.7851738653
21
171.5629428826
0
LINE
8
0
62
7
6
CONTINUOUS
10
110.7254967125
20
171.5629428826
11
117.9851738653
21
171.5629428826
0
LINE
8
0
62
7
6
CONTINUOUS
10
141.8993598104
20
171.6526864677
11
135.2113107675
21
171.6526864677
0
LINE
8
0
62
7
6
CONTINUOUS
10
62.6113107675
20
171.6526864677
11
69.2993598104
21
171.6526864677
0
LINE
8
0
62
7
6
CONTINUOUS
10
86.8113107675
20
171.6526864677
11
93.4993598104
21
171.6526864677
0
LINE
8
0
62
7
6
CONTINUOUS
10
111.0113107675
20
171.6526864677
11
117.6993598104
21
171.6526864677
0
LINE
8
0
62
7
6
CONTINUOUS
10
142.1851738653
20
171.7424300527
11
134.9254967125
21
171.7424300527
0
LINE
8
0
62
7
6
CONTINUOUS
10
62.3254967061
20
171.7424300572
11
69.5851738717
21
171.7424300572
0
LINE
8
0
62
7
6
CONTINUOUS
10
86.5254967061
20
171.7424300572
11
93.7851738717
21
171.7424300572
0
LINE
8
0
62
7
6
CONTINUOUS
10
110.7254967061
20
171.7424300572
11
117.9851738717
21
171.7424300572
0
LINE
8
0
62
7
6
CONTINUOUS
10
103.8170891355
20
150.0701717643
11
103.7668786985
21
149.8526864677
0
LINE
8
0
62
7
6
CONTINUOUS
10
112.8437918794
20
184.0526864677
11
112.7935814704
21
183.8352012927
0
POLYLINE
8
0
62
7
6
CONTINUOUS
66
1
70
0
0
VERTEX
8
0
62
7
6
CONTINUOUS
10
103.5543733946
20
149.8526864677
0
VERTEX
8
0
62
7
6
CONTINUOUS
10
103.4480941266
20
149.4569332464
0
VERTEX
8
0
62
7
6
CONTINUOUS
10
103.4052894396
20
149.3026864677
0
SEQEND
0
LINE
8
0
62
7
6
CONTINUOUS
10
113.0562971832
20
184.0526864677
11
113.1234345192
21
184.3026864677
0
LINE
8
0
62
7
6
CONTINUOUS
10
146.3356073979
20
176.3069802861
11
148.2855688907
21
176.3069803125
0
LINE
8
0
62
7
6
CONTINUOUS
10
49.5356073979
20
176.3069802861
11
58.1750631799
21
176.3069802861
0
LINE
8
0
62
7
6
CONTINUOUS
10
73.7356073979
20
176.3069802861
11
82.3750631799
21
176.3069802861
0
LINE
8
0
62
7
6
CONTINUOUS
10
97.9356073979
20
176.3069802861
11
106.5750631799
21
176.3069802861
0
LINE
8
0
62
7
6
CONTINUOUS
10
122.1356073979
20
176.3069802861
11
130.7750631799
21
176.3069802861
0
LINE
8
0
62
7
6
CONTINUOUS
10
49.8553352889
20
177.0399399423
11
57.8553352889
21
177.0399399423
0
LINE
8
0
62
7
6
CONTINUOUS
10
74.0553352889
20
177.0399399423
11
82.0553352889
21
177.0399399423
0
LINE
8
0
62
7
6
CONTINUOUS
10
98.2553352889
20
177.0399399423
11
106.2553352889
21
177.0399399423
0
LINE
8
0
62
7
6
CONTINUOUS
10
122.4553352889
20
177.0399399423
11
130.4553352889
21
177.0399399423
0
LINE
8
0
62
7
6
CONTINUOUS
10
146.6553352889
20
177.0399399423
11
147.9816607000
21
177.0399399423
0
POLYLINE
8
0
62
7
6
CONTINUOUS
66
1
70
0
0
VERTEX
8
0
62
7
6
CONTINUOUS
10
113.2053811379
20
149.3026864677
0
VERTEX
8
0
62
7
6
CONTINUOUS
10
113.1625764420
20
149.4569332784
0
VERTEX
8
0
62
7
6
CONTINUOUS
10
113.0562971832
20
149.8526864677
0
SEQEND
0
LINE
8
0
62
7
6
CONTINUOUS
10
103.4872360589
20
184.3026864677
11
103.5543733946
21
184.0526864677
0
LINE
8
0
62
7
6
CONTINUOUS
10
103.7668786985
20
184.0526864677
11
103.8170891074
21
183.8352012927
0
LINE
8
0
62
7
6
CONTINUOUS
10
112.7935814423
20
150.0701717643
11
112.8437918794
21
149.8526864677
0
LINE
8
0
62
7
6
CONTINUOUS
10
111.5553352889
20
183.3026864677
11
111.5553352889
21
182.2526864677
0
LINE
8
0
62
7
6
CONTINUOUS
10
130.4553352889
20
182.0526864677
11
122.4553352889
21
182.0526864677
0
LINE
8
0
62
7
6
CONTINUOUS
10
106.2553352889
20
182.0526864677
11
98.2553352889
21
182.0526864677
0
LINE
8
0
62
7
6
CONTINUOUS
10
82.0553352889
20
182.0526864677
11
74.0553352889
21
182.0526864677
0
LINE
8
0
62
7
6
CONTINUOUS
10
57.8553352889
20
182.0526864677
11
49.8553352889
21
182.0526864677
0
LINE
8
0
62
7
6
CONTINUOUS
10
142.1851738717
20
182.1629428781
11
134.9254967061
21
182.1629428781
0
LINE
8
0
62
7
6
CONTINUOUS
10
62.3254967125
20
182.1629428826
11
69.5851738653
21
182.1629428826
0
LINE
8
0
62
7
6
CONTINUOUS
10
86.5254967125
20
182.1629428826
11
93.7851738653
21
182.1629428826
0
LINE
8
0
62
7
6
CONTINUOUS
10
110.7254967125
20
182.1629428826
11
117.9851738653
21
182.1629428826
0
LINE
8
0
62
7
6
CONTINUOUS
10
141.8993136830
20
182.2526864677
11
135.2113107675
21
182.2526864677
0
LINE
8
0
62
7
6
CONTINUOUS
10
130.2552616346
20
182.2526864677
11
122.6554089432
21
182.2526864677
0
LINE
8
0
62
7
6
CONTINUOUS
10
106.0552616346
20
182.2526864677
11
98.4554089432
21
182.2526864677
0
LINE
8
0
62
7
6
CONTINUOUS
10
81.8552616346
20
182.2526864677
11
74.2554089432
21
182.2526864677
0
LINE
8
0
62
7
6
CONTINUOUS
10
57.6552616346
20
182.2526864677
11
50.0554089432
21
182.2526864677
0
LINE
8
0
62
7
6
CONTINUOUS
10
62.6113568501
20
182.2526864677
11
69.2993598104
21
182.2526864677
0
LINE
8
0
62
7
6
CONTINUOUS
10
86.8113568501
20
182.2526864677
11
93.4993598104
21
182.2526864677
0
LINE
8
0
62
7
6
CONTINUOUS
10
111.0113568501
20
182.2526864677
11
117.6993598104
21
182.2526864677
0
LINE
8
DEFAULT_1
62
2
6
CENTER
10
114.3553352889
20
191.6026864677
11
114.3553352889
21
142.3026864677
0
LINE
8
0
62
7
6
CONTINUOUS
10
117.1553352889
20
183.3026864677
11
117.1553352889
21
182.2526864677
0
LINE
8
0
62
7
6
CONTINUOUS
10
51.0553352895
20
183.3026864677
11
56.6553352884
21
183.3026864677
0
LINE
8
0
62
7
6
CONTINUOUS
10
63.1553352895
20
183.3026864677
11
68.7553352884
21
183.3026864677
0
LINE
8
0
62
7
6
CONTINUOUS
10
75.2553352895
20
183.3026864677
11
80.8553352884
21
183.3026864677
0
LINE
8
0
62
7
6
CONTINUOUS
10
87.3553352895
20
183.3026864677
11
92.9553352884
21
183.3026864677
0
LINE
8
0
62
7
6
CONTINUOUS
10
99.4553352895
20
183.3026864677
11
105.0553352884
21
183.3026864677
0
LINE
8
0
62
7
6
CONTINUOUS
10
111.5553352895
20
183.3026864677
11
117.1553352884
21
183.3026864677
0
LINE
8
0
62
7
6
CONTINUOUS
10
123.6553352895
20
183.3026864677
11
129.2553352884
21
183.3026864677
0
LINE
8
0
62
7
6
CONTINUOUS
10
135.7553352895
20
183.3026864677
11
141.3553352884
21
183.3026864677
0
LINE
8
0
62
7
6
CONTINUOUS
10
51.3553352889
20
183.6026864677
11
56.3549546251
21
183.6026864677
0
LINE
8
0
62
7
6
CONTINUOUS
10
63.4553352889
20
183.6026864677
11
68.4553352889
21
183.6026864677
0
LINE
8
0
62
7
6
CONTINUOUS
10
75.5553352889
20
183.6026864677
11
80.5553352889
21
183.6026864677
0
LINE
8
0
62
7
6
CONTINUOUS
10
87.6553352889
20
183.6026864677
11
92.6553352889
21
183.6026864677
0
LINE
8
0
62
7
6
CONTINUOUS
10
99.7553352889
20
183.6026864677
11
104.7553352889
21
183.6026864677
0
LINE
8
0
62
7
6
CONTINUOUS
10
111.8553352889
20
183.6026864677
11
116.8549546251
21
183.6026864677
0
LINE
8
0
62
7
6
CONTINUOUS
10
123.9553352889
20
183.6026864677
11
128.9553352889
21
183.6026864677
0
LINE
8
0
62
7
6
CONTINUOUS
10
136.0553352889
20
183.6026864677
11
141.0553352889
21
183.6026864677
0
LINE
8
0
62
7
6
CONTINUOUS
10
88.5935814672
20
183.8352012786
11
91.7170891107
21
183.8352012786
0
LINE
8
0
62
7
6
CONTINUOUS
10
100.6935814672
20
183.8352012786
11
103.8170891107
21
183.8352012786
0
LINE
8
0
62
7
6
CONTINUOUS
10
112.7935814672
20
183.8352012786
11
115.9170891107
21
183.8352012786
0
LINE
8
0
62
7
6
CONTINUOUS
10
64.3935814672
20
183.8352012786
11
67.5170891107
21
183.8352012786
0
LINE
8
0
62
7
6
CONTINUOUS
10
76.4935814672
20
183.8352012786
11
79.6170891107
21
183.8352012786
0
LINE
8
0
62
7
6
CONTINUOUS
10
124.8935814672
20
183.8352012786
11
128.0170891107
21
183.8352012786
0
LINE
8
0
62
7
6
CONTINUOUS
10
52.2935814672
20
183.8352012786
11
55.4170891107
21
183.8352012786
0
LINE
8
0
62
7
6
CONTINUOUS
10
136.9935814672
20
183.8352012786
11
140.1170891107
21
183.8352012786
0
LINE
8
0
62
7
6
CONTINUOUS
10
49.6893098851
20
184.0526864677
11
52.5562971832
21
184.0526864677
0
LINE
8
0
62
7
6
CONTINUOUS
10
55.1543733946
20
184.0526864677
11
64.6562971832
21
184.0526864677
0
LINE
8
0
62
7
6
CONTINUOUS
10
67.2543733946
20
184.0526864677
11
76.7562971832
21
184.0526864677
0
LINE
8
0
62
7
6
CONTINUOUS
10
79.3543733946
20
184.0526864677
11
88.8562971832
21
184.0526864677
0
LINE
8
0
62
7
6
CONTINUOUS
10
91.4543733946
20
184.0526864677
11
100.9562971832
21
184.0526864677
0
LINE
8
0
62
7
6
CONTINUOUS
10
103.5543733946
20
184.0526864677
11
113.0562971832
21
184.0526864677
0
LINE
8
0
62
7
6
CONTINUOUS
10
115.6543733946
20
184.0526864677
11
125.1562971832
21
184.0526864677
0
LINE
8
0
62
7
6
CONTINUOUS
10
127.7543733946
20
184.0526864677
11
137.2562971832
21
184.0526864677
0
LINE
8
0
62
7
6
CONTINUOUS
10
139.8543733946
20
184.0526864677
11
144.6916075275
21
184.0526864677
0
LINE
8
0
62
7
6
CONTINUOUS
10
144.5519726863
20
184.3026864677
11
48.0553352889
21
184.3026864677
0
LINE
8
0
62
7
6
CONTINUOUS
10
115.9170891355
20
150.0701717643
11
115.8668786985
21
149.8526864677
0
LINE
8
0
62
7
6
CONTINUOUS
10
124.9437918794
20
184.0526864677
11
124.8935814704
21
183.8352012927
0
POLYLINE
8
0
62
7
6
CONTINUOUS
66
1
70
0
0
VERTEX
8
0
62
7
6
CONTINUOUS
10
115.6543733946
20
149.8526864677
0
VERTEX
8
0
62
7
6
CONTINUOUS
10
115.5480941266
20
149.4569332464
0
VERTEX
8
0
62
7
6
CONTINUOUS
10
115.5052894396
20
149.3026864677
0
SEQEND
0
LINE
8
0
62
7
6
CONTINUOUS
10
125.1562971832
20
184.0526864677
11
125.2234345192
21
184.3026864677
0
POLYLINE
8
0
62
7
6
CONTINUOUS
66
1
70
0
0
VERTEX
8
0
62
7
6
CONTINUOUS
10
125.3053811379
20
149.3026864677
0
VERTEX
8
0
62
7
6
CONTINUOUS
10
125.2625764420
20
149.4569332784
0
VERTEX
8
0
62
7
6
CONTINUOUS
10
125.1562971832
20
149.8526864677
0
SEQEND
0
LINE
8
0
62
7
6
CONTINUOUS
10
115.5872360589
20
184.3026864677
11
115.6543733946
21
184.0526864677
0
LINE
8
0
62
7
6
CONTINUOUS
10
115.8668786985
20
184.0526864677
11
115.9170891074
21
183.8352012927
0
LINE
8
0
62
7
6
CONTINUOUS
10
124.8935814423
20
150.0701717643
11
124.9443760102
21
149.8501563190
0
LINE
8
0
62
7
6
CONTINUOUS
10
122.4553352889
20
182.0526864677
11
122.4553352889
21
177.0399399423
0
LINE
8
0
62
7
6
CONTINUOUS
10
122.4553352889
20
150.6526864677
11
122.4553352889
21
155.6654329930
0
LINE
8
0
62
7
6
CONTINUOUS
10
123.6553352889
20
183.3026864677
11
123.6553352889
21
182.2526864677
0
LINE
8
0
62
7
6
CONTINUOUS
10
141.6956612015
20
190.3026864677
11
48.0553352889
21
190.3026864677
0
LINE
8
DEFAULT_1
62
2
6
CENTER
10
126.4553352889
20
191.6026864677
11
126.4553352889
21
142.3026864677
0
LINE
8
0
62
7
6
CONTINUOUS
10
129.2553352889
20
183.3026864677
11
129.2553352889
21
182.2526864677
0
LINE
8
0
62
7
6
CONTINUOUS
10
130.4553352889
20
182.0526864677
11
130.4553352889
21
177.0399399423
0
LINE
8
0
62
7
6
CONTINUOUS
10
130.4553352889
20
150.6526864677
11
130.4553352889
21
155.6654329930
0
LINE
8
0
62
7
6
CONTINUOUS
10
128.0170891355
20
150.0701717643
11
127.9668786985
21
149.8526864677
0
LINE
8
0
62
7
6
CONTINUOUS
10
137.0437918794
20
184.0526864677
11
136.9935814704
21
183.8352012927
0
POLYLINE
8
0
62
7
6
CONTINUOUS
66
1
70
0
0
VERTEX
8
0
62
7
6
CONTINUOUS
10
127.7543733946
20
149.8526864677
0
VERTEX
8
0
62
7
6
CONTINUOUS
10
127.6480941266
20
149.4569332464
0
VERTEX
8
0
62
7
6
CONTINUOUS
10
127.6052894396
20
149.3026864677
0
SEQEND
0
LINE
8
0
62
7
6
CONTINUOUS
10
137.2562971832
20
184.0526864677
11
137.3234345192
21
184.3026864677
0
POLYLINE
8
0
62
7
6
CONTINUOUS
66
1
70
0
0
VERTEX
8
0
62
7
6
CONTINUOUS
10
137.4053811379
20
149.3026864677
0
VERTEX
8
0
62
7
6
CONTINUOUS
10
137.3625764420
20
149.4569332784
0
VERTEX
8
0
62
7
6
CONTINUOUS
10
137.2562971832
20
149.8526864677
0
SEQEND
0
LINE
8
0
62
7
6
CONTINUOUS
10
127.6872360589
20
184.3026864677
11
127.7543733946
21
184.0526864677
0
LINE
8
0
62
7
6
CONTINUOUS
10
127.9668786985
20
184.0526864677
11
128.0170891074
21
183.8352012927
0
LINE
8
0
62
7
6
CONTINUOUS
10
136.9935814423
20
150.0701717643
11
137.0443760102
21
149.8501563190
0
LINE
8
0
62
7
6
CONTINUOUS
10
135.7553352889
20
183.3026864677
11
135.7553352889
21
182.2526864677
0
LINE
8
DEFAULT_1
62
2
6
CENTER
10
138.5553352889
20
191.6026864677
11
138.5553352889
21
142.3026864677
0
LINE
8
0
62
7
6
CONTINUOUS
10
141.3553352889
20
183.3026864677
11
141.3553352889
21
182.2526864677
0
LINE
8
0
62
7
6
CONTINUOUS
10
140.1170891355
20
150.0701717643
11
140.0668786985
21
149.8526864677
0
POLYLINE
8
0
62
7
6
CONTINUOUS
66
1
70
0
0
VERTEX
8
0
62
7
6
CONTINUOUS
10
139.8543733946
20
149.8526864677
0
VERTEX
8
0
62
7
6
CONTINUOUS
10
139.7480941266
20
149.4569332464
0
VERTEX
8
0
62
7
6
CONTINUOUS
10
139.7052894396
20
149.3026864677
0
SEQEND
0
LINE
8
0
62
7
6
CONTINUOUS
10
139.7872360589
20
184.3026864677
11
139.8543733946
21
184.0526864677
0
LINE
8
0
62
7
6
CONTINUOUS
10
140.0668786985
20
184.0526864677
11
140.1170891074
21
183.8352012927
0
LINE
8
0
62
7
6
CONTINUOUS
10
146.6553352889
20
180.2387447519
11
146.6553352889
21
177.0399399423
0
LINE
8
0
62
7
6
CONTINUOUS
10
142.0425093986
20
143.3026864677
11
142.4057608204
21
147.7185748519
0
LINE
8
0
62
7
6
CONTINUOUS
10
147.7046971820
20
161.7873797249
11
149.3526717371
21
167.8803799578
0
LINE
8
0
62
7
6
CONTINUOUS
10
142.4057608204
20
147.7185748519
11
145.2504521992
21
155.6606400181
0
LINE
8
0
62
7
6
CONTINUOUS
10
145.2504521992
20
155.6606400181
11
147.7046971820
21
161.7873797249
0
LINE
8
0
62
7
6
CONTINUOUS
10
146.1755850154
20
181.3957967614
11
142.1505017807
21
188.6022418051
0
LINE
8
0
62
7
6
CONTINUOUS
10
142.1505017807
20
188.6022418051
11
141.6956612015
21
190.3026864677
0
LINE
8
0
62
7
6
CONTINUOUS
10
149.3526717371
20
167.8803799578
11
149.2643789033
21
173.9463061145
0
LINE
8
0
62
7
6
CONTINUOUS
10
149.2643789033
20
173.9463061145
11
146.1755850154
21
181.3957967614
0
LINE
8
0
62
7
6
CONTINUOUS
10
300.5478539660
20
143.3026864677
11
308.5478539660
21
143.3026864677
0
LINE
8
0
62
7
6
CONTINUOUS
10
307.3478539660
20
144.8026864677
11
302.3478539660
21
144.8026864677
0
LINE
8
0
62
7
6
CONTINUOUS
10
302.6478539660
20
145.1026864677
11
307.3478539660
21
145.1026864677
0
LINE
8
0
62
7
6
CONTINUOUS
10
302.7148412641
20
145.1696737658
11
307.2808666679
21
145.1696737658
0
LINE
8
0
62
7
6
CONTINUOUS
10
306.4818285622
20
145.9687118715
11
303.5138793698
21
145.9687118715
0
LINE
8
0
62
7
6
CONTINUOUS
10
303.5138793698
20
148.9866610639
11
306.4818285622
21
148.9866610639
0
LINE
8
0
62
7
6
CONTINUOUS
10
308.5478539660
20
149.3026864677
11
307.3478539660
21
149.3026864677
0
LINE
8
0
62
7
6
CONTINUOUS
10
302.3478539660
20
149.3026864677
11
298.0478539660
21
149.3026864677
0
LINE
8
0
62
7
6
CONTINUOUS
10
307.2808666679
20
149.7856991696
11
302.7148412641
21
149.7856991696
0
LINE
8
0
62
7
6
CONTINUOUS
10
307.3478539660
20
149.8526864677
11
302.6478539660
21
149.8526864677
0
LINE
8
0
62
7
6
CONTINUOUS
10
304.4861001149
20
149.8701717840
11
304.5322737329
21
149.8701718714
0
LINE
8
0
62
7
6
CONTINUOUS
10
307.5634341750
20
149.8701717672
11
307.6096078171
21
149.8701717840
0
LINE
8
0
62
7
6
CONTINUOUS
10
304.4861001149
20
150.0701717840
11
307.6096078171
21
150.0701717840
0
LINE
8
0
62
7
6
CONTINUOUS
10
308.5478539660
20
150.1026864677
11
307.6181260260
21
150.1026864677
0
LINE
8
0
62
7
6
CONTINUOUS
10
304.4756530679
20
150.1026864677
11
303.5478539660
21
150.1026864677
0
LINE
8
0
62
7
6
CONTINUOUS
10
308.5478539660
20
150.3026864677
11
303.5478539660
21
150.3026864677
0
LINE
8
0
62
7
6
CONTINUOUS
10
308.8478539660
20
150.4026864677
11
308.7703476747
21
150.4026864677
0
LINE
8
0
62
7
6
CONTINUOUS
10
303.3253602573
20
150.4026864677
11
303.2478539660
21
150.4026864677
0
LINE
8
0
62
7
6
CONTINUOUS
10
302.2478539660
20
150.4526864677
11
309.8478539660
21
150.4526864677
0
LINE
8
0
62
7
6
CONTINUOUS
10
302.0478539660
20
150.6526864677
11
310.0478539660
21
150.6526864677
0
LINE
8
0
62
7
6
CONTINUOUS
10
294.5627309289
20
181.2225584569
11
287.5329770031
21
177.0828144784
0
LINE
8
0
62
7
6
CONTINUOUS
10
287.5329770031
20
156.5225584569
11
294.5627309289
21
152.3828144784
0
LINE
8
0
62
7
6
CONTINUOUS
10
286.5478539660
20
175.3594385037
11
286.5478539660
21
171.2026864677
0
LINE
8
0
62
7
6
CONTINUOUS
10
286.5478539660
20
162.4026864677
11
286.5478539660
21
158.2459344316
0
LINE
8
0
62
7
6
CONTINUOUS
10
310.0478539660
20
155.6654329930
11
302.0478539660
21
155.6654329930
0
LINE
8
0
62
7
6
CONTINUOUS
10
289.0478539660
20
159.9526864677
11
289.0478539660
21
162.4026864677
0
LINE
8
0
62
7
6
CONTINUOUS
10
289.0478539660
20
171.2026864677
11
289.0478539660
21
173.6526864677
0
LINE
8
0
62
7
6
CONTINUOUS
10
306.4818285622
20
187.9366610639
11
307.2808666679
21
188.7356991696
0
LINE
8
0
62
7
6
CONTINUOUS
10
303.5138793698
20
184.9187118715
11
302.6478539660
21
184.0526864677
0
LINE
8
0
62
7
6
CONTINUOUS
10
310.3675818572
20
156.3983926494
11
301.7281260749
21
156.3983926494
0
LINE
8
0
62
7
6
CONTINUOUS
10
306.4818285622
20
145.9687118715
11
307.2808666679
21
145.1696737658
0
LINE
8
0
62
7
6
CONTINUOUS
10
303.5138793698
20
148.9866610639
11
302.6478539660
21
149.8526864677
0
LINE
8
0
62
7
6
CONTINUOUS
10
295.0478539660
20
159.9526864677
11
289.0478539660
21
159.9526864677
0
LINE
8
0
62
7
6
CONTINUOUS
10
295.0478539660
20
173.6526864677
11
295.0478539660
21
159.9526864677
0
LINE
8
0
62
7
6
CONTINUOUS
10
295.5478539660
20
185.3026864677
11
295.5478539660
21
182.9459344316
0
LINE
8
0
62
7
6
CONTINUOUS
10
295.5478539660
20
150.6594385037
11
295.5478539660
21
148.3026864677
0
LINE
8
0
62
7
6
CONTINUOUS
10
289.0478539660
20
162.4026864677
11
286.5478539660
21
162.4026864677
0
LINE
8
0
62
7
6
CONTINUOUS
10
298.0478539660
20
149.3026864677
11
298.0478539660
21
184.3026864677
0
LINE
8
0
62
7
6
CONTINUOUS
10
302.4180153829
20
166.2629428779
11
309.6776925491
21
166.2629428779
0
LINE
8
0
62
7
6
CONTINUOUS
10
309.3918784875
20
166.3526864677
11
302.7038294446
21
166.3526864677
0
LINE
8
0
62
7
6
CONTINUOUS
10
309.6776925491
20
166.4424300574
11
302.4180153829
21
166.4424300574
0
LINE
8
0
62
7
6
CONTINUOUS
10
304.5363105565
20
184.0526864677
11
304.4861001149
21
183.8352011514
0
LINE
8
0
62
7
6
CONTINUOUS
10
304.4861001149
20
150.0701717840
11
304.5363105565
21
149.8526864677
0
LINE
8
0
62
7
6
CONTINUOUS
10
302.0478539660
20
182.0526864677
11
302.0478539660
21
177.0399399423
0
LINE
8
0
62
7
6
CONTINUOUS
10
302.0478539660
20
150.6526864677
11
302.0478539660
21
155.6654329930
0
LINE
8
0
62
7
6
CONTINUOUS
10
302.3478539660
20
144.8026864677
11
302.3478539660
21
149.3026864677
0
LINE
8
0
62
7
6
CONTINUOUS
10
302.3478539660
20
184.3026864677
11
302.3478539660
21
188.8026864677
0
LINE
8
0
62
7
6
CONTINUOUS
10
302.6478539660
20
188.8026864677
11
302.6478539660
21
184.0526864677
0
LINE
8
0
62
7
6
CONTINUOUS
10
302.6478539660
20
149.8526864677
11
302.6478539660
21
145.1026864677
0
LINE
8
0
62
7
6
CONTINUOUS
10
302.7148412641
20
188.7356991696
11
302.7148412641
21
184.1196737658
0
LINE
8
0
62
7
6
CONTINUOUS
10
302.7148412641
20
149.7856991696
11
302.7148412641
21
145.1696737658
0
LINE
8
0
62
7
6
CONTINUOUS
10
303.2478539660
20
183.3026864677
11
303.2478539660
21
182.2526864677
0
LINE
8
0
62
7
6
CONTINUOUS
10
303.2478539660
20
150.4526864677
11
303.2478539660
21
150.4026864677
0
LINE
8
0
62
7
6
CONTINUOUS
10
303.5138793698
20
187.9366610639
11
303.5138793698
21
184.9187118715
0
LINE
8
0
62
7
6
CONTINUOUS
10
303.5138793698
20
145.9687118715
11
303.5138793698
21
148.9866610639
0
LINE
8
0
62
7
6
CONTINUOUS
10
286.5478539660
20
171.2026864677
11
289.0478539660
21
171.2026864677
0
LINE
8
DEFAULT_1
62
2
6
CENTER
10
306.0478539660
20
142.3026864677
11
306.0478539660
21
191.6026864677
0
LINE
8
0
62
7
6
CONTINUOUS
10
306.4818285622
20
148.9866610639
11
306.4818285622
21
145.9687118715
0
LINE
8
0
62
7
6
CONTINUOUS
10
306.4818285622
20
184.9187118715
11
306.4818285622
21
187.9366610639
0
LINE
8
0
62
7
6
CONTINUOUS
10
289.0478539660
20
173.6526864677
11
295.0478539660
21
173.6526864677
0
LINE
8
0
62
7
6
CONTINUOUS
10
307.2808666679
20
145.1696737658
11
307.2808666679
21
149.7856991696
0
LINE
8
0
62
7
6
CONTINUOUS
10
307.2808666679
20
184.1196737658
11
307.2808666679
21
188.7356991696
0
LINE
8
0
62
7
6
CONTINUOUS
10
307.3478539660
20
144.8026864677
11
307.3478539660
21
149.8526864677
0
LINE
8
0
62
7
6
CONTINUOUS
10
307.3478539660
20
184.0526864677
11
307.3478539660
21
188.8026864677
0
LINE
8
0
62
7
6
CONTINUOUS
10
308.5478539660
20
143.3026864677
11
308.5478539660
21
149.3026864677
0
LINE
8
0
62
7
6
CONTINUOUS
10
308.5478539660
20
184.3026864677
11
308.5478539660
21
190.3026864677
0
LINE
8
0
62
7
6
CONTINUOUS
10
308.8478539660
20
183.3026864677
11
308.8478539660
21
182.2526864677
0
LINE
8
0
62
7
6
CONTINUOUS
10
308.8478539660
20
150.4526864677
11
308.8478539660
21
150.4026864677
0
LINE
8
0
62
7
6
CONTINUOUS
10
310.0478539660
20
182.0526864677
11
310.0478539660
21
177.0399399423
0
LINE
8
0
62
7
6
CONTINUOUS
10
310.0478539660
20
150.6526864677
11
310.0478539660
21
155.6654329930
0
LINE
8
0
62
7
6
CONTINUOUS
10
301.7281260749
20
176.3069802859
11
310.3675818572
21
176.3069802859
0
LINE
8
0
62
7
6
CONTINUOUS
10
302.0478539660
20
177.0399399423
11
310.0478539660
21
177.0399399423
0
LINE
8
0
62
7
6
CONTINUOUS
10
307.6096078171
20
150.0701717840
11
307.4324198705
21
149.3026864677
0
LINE
8
0
62
7
6
CONTINUOUS
10
307.6096078171
20
149.8701717840
11
307.4785935087
21
149.3026864677
0
LINE
8
0
62
7
6
CONTINUOUS
10
307.5016803278
20
184.3026864677
11
307.6096078171
21
183.8352011514
0
LINE
8
0
62
7
6
CONTINUOUS
10
310.0478539660
20
182.0526864677
11
302.0478539660
21
182.0526864677
0
LINE
8
0
62
7
6
CONTINUOUS
10
309.8478539660
20
182.2526864677
11
302.2478539660
21
182.2526864677
0
LINE
8
0
62
7
6
CONTINUOUS
10
306.4818285622
20
148.9866610639
11
307.3478539660
21
149.8526864677
0
LINE
8
0
62
7
6
CONTINUOUS
10
303.5138793698
20
145.9687118715
11
302.6478539660
21
145.1026864677
0
LINE
8
0
62
7
6
CONTINUOUS
10
303.2478539660
20
183.3026864677
11
308.8478539660
21
183.3026864677
0
LINE
8
0
62
7
6
CONTINUOUS
10
303.5478539660
20
183.6026864677
11
308.5478539660
21
183.6026864677
0
LINE
8
0
62
7
6
CONTINUOUS
10
304.4861001149
20
183.8352011514
11
307.6096078171
21
183.8352011514
0
LINE
8
0
62
7
6
CONTINUOUS
10
302.6478539660
20
184.0526864677
11
307.3478539660
21
184.0526864677
0
LINE
8
0
62
7
6
CONTINUOUS
10
302.7148412641
20
184.1196737658
11
307.2808666679
21
184.1196737658
0
LINE
8
0
62
7
6
CONTINUOUS
10
298.0478539660
20
184.3026864677
11
302.3478539660
21
184.3026864677
0
LINE
8
0
62
7
6
CONTINUOUS
10
307.3478539660
20
184.3026864677
11
308.5478539660
21
184.3026864677
0
LINE
8
0
62
7
6
CONTINUOUS
10
303.5138793698
20
184.9187118715
11
306.4818285622
21
184.9187118715
0
LINE
8
0
62
7
6
CONTINUOUS
10
306.4818285622
20
184.9187118715
11
307.3478539660
21
184.0526864677
0
LINE
8
0
62
7
6
CONTINUOUS
10
303.5138793698
20
187.9366610639
11
302.7148412641
21
188.7356991696
0
LINE
8
0
62
7
6
CONTINUOUS
10
306.4818285622
20
187.9366610639
11
303.5138793698
21
187.9366610639
0
LINE
8
0
62
7
6
CONTINUOUS
10
307.2808666679
20
188.7356991696
11
302.7148412641
21
188.7356991696
0
LINE
8
0
62
7
6
CONTINUOUS
10
302.3478539660
20
188.8026864677
11
307.3478539660
21
188.8026864677
0
LINE
8
0
62
7
6
CONTINUOUS
10
308.5478539660
20
190.3026864677
11
300.5478539660
21
190.3026864677
0
LINE
8
0
62
7
6
CONTINUOUS
10
147.0328453484
20
182.0526864677
11
147.0328453484
21
181.6513555924
0
LINE
8
0
62
7
6
CONTINUOUS
10
147.0328453484
20
150.6526864677
11
147.0328453484
21
155.6654329930
0
LINE
8
0
62
7
6
CONTINUOUS
10
143.4057608204
20
147.7185748519
11
143.0425093986
21
143.3026864677
0
LINE
8
0
62
7
6
CONTINUOUS
10
149.5213019389
20
184.0526864677
11
149.4710915299
21
183.8352012927
0
LINE
8
0
62
7
6
CONTINUOUS
10
149.7338072427
20
184.0526864677
11
149.8009445787
21
184.3026864677
0
POLYLINE
8
0
62
7
6
CONTINUOUS
66
1
70
0
0
VERTEX
8
0
62
7
6
CONTINUOUS
10
149.8828911974
20
149.3026864677
0
VERTEX
8
0
62
7
6
CONTINUOUS
10
149.8400865015
20
149.4569332784
0
VERTEX
8
0
62
7
6
CONTINUOUS
10
149.7338072427
20
149.8526864677
0
SEQEND
0
LINE
8
0
62
7
6
CONTINUOUS
10
149.4710915018
20
150.0701717643
11
149.5213019389
21
149.8526864677
0
LINE
8
0
62
7
6
CONTINUOUS
10
148.2328453484
20
183.3026864677
11
148.2328453484
21
182.2526864677
0
LINE
8
0
62
7
6
CONTINUOUS
10
142.6956612015
20
190.3026864677
11
143.1505017807
21
188.6022418051
0
LINE
8
0
62
7
6
CONTINUOUS
10
150.2643789033
20
173.9463061145
11
150.3526717371
21
167.8803799578
0
LINE
8
0
62
7
6
CONTINUOUS
10
150.3526717371
20
167.8803799578
11
148.7046971820
21
161.7873797249
0
LINE
8
0
62
7
6
CONTINUOUS
10
146.2504521992
20
155.6606400181
11
143.4057608204
21
147.7185748519
0
LINE
8
0
62
7
6
CONTINUOUS
10
148.7046971820
20
161.7873797249
11
146.2504521992
21
155.6606400181
0
LINE
8
0
62
7
6
CONTINUOUS
10
153.8328453484
20
183.3026864677
11
153.8328453484
21
182.2526864677
0
LINE
8
0
62
7
6
CONTINUOUS
10
155.0328453484
20
182.0526864677
11
155.0328453484
21
177.0399399423
0
LINE
8
0
62
7
6
CONTINUOUS
10
155.0328453484
20
150.6526864677
11
155.0328453484
21
155.6654329930
0
LINE
8
0
62
7
6
CONTINUOUS
10
147.1755850154
20
181.3957967614
11
150.2643789033
21
173.9463061145
0
LINE
8
0
62
7
6
CONTINUOUS
10
152.5945991950
20
150.0701717643
11
152.5443887580
21
149.8526864677
0
LINE
8
0
62
7
6
CONTINUOUS
10
161.6213019389
20
184.0526864677
11
161.5710915299
21
183.8352012927
0
POLYLINE
8
0
62
7
6
CONTINUOUS
66
1
70
0
0
VERTEX
8
0
62
7
6
CONTINUOUS
10
152.3318834541
20
149.8526864677
0
VERTEX
8
0
62
7
6
CONTINUOUS
10
152.2256041861
20
149.4569332464
0
VERTEX
8
0
62
7
6
CONTINUOUS
10
152.1827994991
20
149.3026864677
0
SEQEND
0
LINE
8
0
62
7
6
CONTINUOUS
10
161.8338072427
20
184.0526864677
11
161.9009445787
21
184.3026864677
0
LINE
8
0
62
7
6
CONTINUOUS
10
216.8328453484
20
143.3026864677
11
143.0425093986
21
143.3026864677
0
LINE
8
0
62
7
6
CONTINUOUS
10
143.1505017807
20
188.6022418051
11
147.1755850154
21
181.3957967614
0
POLYLINE
8
0
62
7
6
CONTINUOUS
66
1
70
0
0
VERTEX
8
0
62
7
6
CONTINUOUS
10
161.9828911974
20
149.3026864677
0
VERTEX
8
0
62
7
6
CONTINUOUS
10
161.9400865015
20
149.4569332784
0
VERTEX
8
0
62
7
6
CONTINUOUS
10
161.8338072427
20
149.8526864677
0
SEQEND
0
LINE
8
0
62
7
6
CONTINUOUS
10
152.2647461185
20
184.3026864677
11
152.3318834541
21
184.0526864677
0
LINE
8
0
62
7
6
CONTINUOUS
10
152.5438046271
20
184.0552166164
11
152.5945991669
21
183.8352012927
0
LINE
8
0
62
7
6
CONTINUOUS
10
161.5710915018
20
150.0701717643
11
161.6213019389
21
149.8526864677
0
LINE
8
0
62
7
6
CONTINUOUS
10
160.3328453484
20
183.3026864677
11
160.3328453484
21
182.2526864677
0
LINE
8
DEFAULT_1
62
2
6
CENTER
10
163.1328453484
20
137.0055205567
11
163.1328453484
21
190.8026864677
0
LINE
8
0
62
7
6
CONTINUOUS
10
216.8328453484
20
149.3026864677
11
143.9731584131
21
149.3026864677
0
LINE
8
0
62
7
6
CONTINUOUS
10
215.6988707522
20
149.8526864677
11
212.8318834541
21
149.8526864677
0
LINE
8
0
62
7
6
CONTINUOUS
10
210.2338072427
20
149.8526864677
11
200.7318834541
21
149.8526864677
0
LINE
8
0
62
7
6
CONTINUOUS
10
198.1338072427
20
149.8526864677
11
188.6318834541
21
149.8526864677
0
LINE
8
0
62
7
6
CONTINUOUS
10
186.0338072427
20
149.8526864677
11
176.5318834541
21
149.8526864677
0
LINE
8
0
62
7
6
CONTINUOUS
10
173.9338072427
20
149.8526864677
11
164.4318834541
21
149.8526864677
0
LINE
8
0
62
7
6
CONTINUOUS
10
161.8338072427
20
149.8526864677
11
152.3318834541
21
149.8526864677
0
LINE
8
0
62
7
6
CONTINUOUS
10
149.7338072427
20
149.8526864677
11
144.1701575847
21
149.8526864677
0
LINE
8
0
62
7
6
CONTINUOUS
10
197.8710914989
20
149.8701717769
11
200.9945991979
21
149.8701717769
0
LINE
8
0
62
7
6
CONTINUOUS
10
149.4710914989
20
150.0701717769
11
152.5945991979
21
150.0701717769
0
LINE
8
0
62
7
6
CONTINUOUS
10
161.5710914989
20
150.0701717769
11
164.6945991979
21
150.0701717769
0
LINE
8
0
62
7
6
CONTINUOUS
10
173.6710914989
20
150.0701717769
11
176.7945991979
21
150.0701717769
0
LINE
8
0
62
7
6
CONTINUOUS
10
185.7710914989
20
150.0701717769
11
188.8945991979
21
150.0701717769
0
LINE
8
0
62
7
6
CONTINUOUS
10
213.0945991702
20
150.0701716567
11
209.9710915267
21
150.0701716567
0
LINE
8
0
62
7
6
CONTINUOUS
10
201.9324646846
20
150.1026864677
11
196.9328453484
21
150.1026864677
0
LINE
8
0
62
7
6
CONTINUOUS
10
214.0324646846
20
150.3026864677
11
209.0332260122
21
150.3026864677
0
LINE
8
0
62
7
6
CONTINUOUS
10
189.8324646846
20
150.3026864677
11
184.8328453484
21
150.3026864677
0
LINE
8
0
62
7
6
CONTINUOUS
10
177.7324646846
20
150.3026864677
11
172.7328453484
21
150.3026864677
0
LINE
8
0
62
7
6
CONTINUOUS
10
165.6324646846
20
150.3026864677
11
160.6328453484
21
150.3026864677
0
LINE
8
0
62
7
6
CONTINUOUS
10
153.5324646846
20
150.3026864677
11
148.5328453484
21
150.3026864677
0
LINE
8
0
62
7
6
CONTINUOUS
10
202.2328453479
20
150.4026864677
11
196.6328453490
21
150.4026864677
0
LINE
8
0
62
7
6
CONTINUOUS
10
214.8768237872
20
150.4526864677
11
208.1888669096
21
150.4526864677
0
LINE
8
0
62
7
6
CONTINUOUS
10
190.6768237872
20
150.4526864677
11
183.9888669096
21
150.4526864677
0
LINE
8
0
62
7
6
CONTINUOUS
10
147.2328453484
20
150.4526864677
11
154.8328453484
21
150.4526864677
0
LINE
8
0
62
7
6
CONTINUOUS
10
159.7888208270
20
150.4526864677
11
166.4768698699
21
150.4526864677
0
LINE
8
0
62
7
6
CONTINUOUS
10
171.4328453484
20
150.4526864677
11
179.0328453484
21
150.4526864677
0
LINE
8
0
62
7
6
CONTINUOUS
10
195.6328453484
20
150.4526864677
11
203.2328453484
21
150.4526864677
0
LINE
8
0
62
7
6
CONTINUOUS
10
215.1626839248
20
150.5424300527
11
207.9030067720
21
150.5424300527
0
LINE
8
0
62
7
6
CONTINUOUS
10
190.9626839248
20
150.5424300527
11
183.7030067720
21
150.5424300527
0
LINE
8
0
62
7
6
CONTINUOUS
10
159.5030067656
20
150.5424300572
11
166.7626839312
21
150.5424300572
0
LINE
8
0
62
7
6
CONTINUOUS
10
147.0328453484
20
150.6526864677
11
155.0328453484
21
150.6526864677
0
LINE
8
0
62
7
6
CONTINUOUS
10
171.2328453484
20
150.6526864677
11
179.2328453484
21
150.6526864677
0
LINE
8
0
62
7
6
CONTINUOUS
10
195.4328453484
20
150.6526864677
11
203.4328453484
21
150.6526864677
0
LINE
8
0
62
7
6
CONTINUOUS
10
165.9328453484
20
183.3026864677
11
165.9328453484
21
182.2526864677
0
LINE
8
0
62
7
6
CONTINUOUS
10
164.6945991950
20
150.0701717643
11
164.6443887580
21
149.8526864677
0
LINE
8
0
62
7
6
CONTINUOUS
10
173.7213019389
20
184.0526864677
11
173.6710915299
21
183.8352012927
0
POLYLINE
8
0
62
7
6
CONTINUOUS
66
1
70
0
0
VERTEX
8
0
62
7
6
CONTINUOUS
10
164.4318834541
20
149.8526864677
0
VERTEX
8
0
62
7
6
CONTINUOUS
10
164.3256041861
20
149.4569332464
0
VERTEX
8
0
62
7
6
CONTINUOUS
10
164.2827994991
20
149.3026864677
0
SEQEND
0
LINE
8
0
62
7
6
CONTINUOUS
10
173.9338072427
20
184.0526864677
11
174.0009445787
21
184.3026864677
0
LINE
8
0
62
7
6
CONTINUOUS
10
203.4328453484
20
155.6654329930
11
195.4328453484
21
155.6654329930
0
LINE
8
0
62
7
6
CONTINUOUS
10
179.2328453484
20
155.6654329930
11
171.2328453484
21
155.6654329930
0
LINE
8
0
62
7
6
CONTINUOUS
10
155.0328453484
20
155.6654329930
11
147.0328453484
21
155.6654329930
0
LINE
8
0
62
7
6
CONTINUOUS
10
203.7525732394
20
156.3983926493
11
195.1131174574
21
156.3983926493
0
LINE
8
0
62
7
6
CONTINUOUS
10
179.5525732394
20
156.3983926493
11
170.9131174574
21
156.3983926493
0
LINE
8
0
62
7
6
CONTINUOUS
10
155.3525732394
20
156.3983926493
11
146.7131174574
21
156.3983926493
0
POLYLINE
8
0
62
7
6
CONTINUOUS
66
1
70
0
0
VERTEX
8
0
62
7
6
CONTINUOUS
10
174.0828911974
20
149.3026864677
0
VERTEX
8
0
62
7
6
CONTINUOUS
10
174.0400865015
20
149.4569332784
0
VERTEX
8
0
62
7
6
CONTINUOUS
10
173.9338072427
20
149.8526864677
0
SEQEND
0
LINE
8
0
62
7
6
CONTINUOUS
10
164.3647461185
20
184.3026864677
11
164.4318834541
21
184.0526864677
0
LINE
8
0
62
7
6
CONTINUOUS
10
164.6438046271
20
184.0552166164
11
164.6945991669
21
183.8352012927
0
LINE
8
0
62
7
6
CONTINUOUS
10
173.6710915018
20
150.0701717643
11
173.7213019389
21
149.8526864677
0
LINE
8
0
62
7
6
CONTINUOUS
10
171.2328453484
20
182.0526864677
11
171.2328453484
21
177.0399399423
0
LINE
8
0
62
7
6
CONTINUOUS
10
171.2328453484
20
150.6526864677
11
171.2328453484
21
155.6654329930
0
LINE
8
0
62
7
6
CONTINUOUS
10
172.4328453484
20
183.3026864677
11
172.4328453484
21
182.2526864677
0
LINE
8
0
62
7
6
CONTINUOUS
10
215.1626839312
20
160.9629428781
11
207.9030067656
21
160.9629428781
0
LINE
8
0
62
7
6
CONTINUOUS
10
190.9626839312
20
160.9629428781
11
183.7030067656
21
160.9629428781
0
LINE
8
0
62
7
6
CONTINUOUS
10
159.5030067720
20
160.9629428826
11
166.7626839248
21
160.9629428826
0
LINE
8
0
62
7
6
CONTINUOUS
10
214.8768698699
20
161.0526864677
11
208.1888208270
21
161.0526864677
0
LINE
8
0
62
7
6
CONTINUOUS
10
190.6768698699
20
161.0526864677
11
183.9888208270
21
161.0526864677
0
LINE
8
0
62
7
6
CONTINUOUS
10
159.7888208270
20
161.0526864677
11
166.4768698699
21
161.0526864677
0
LINE
8
0
62
7
6
CONTINUOUS
10
215.1626839248
20
161.1424300527
11
207.9030067720
21
161.1424300527
0
LINE
8
0
62
7
6
CONTINUOUS
10
190.9626839248
20
161.1424300527
11
183.7030067720
21
161.1424300527
0
LINE
8
0
62
7
6
CONTINUOUS
10
159.5030067656
20
161.1424300572
11
166.7626839312
21
161.1424300572
0
LINE
8
DEFAULT_1
62
2
6
CENTER
10
175.2328453484
20
139.7592513486
11
175.2328453484
21
190.8026864677
0
LINE
8
0
62
7
6
CONTINUOUS
10
178.0328453484
20
183.3026864677
11
178.0328453484
21
182.2526864677
0
LINE
8
0
62
7
6
CONTINUOUS
10
179.2328453484
20
182.0526864677
11
179.2328453484
21
177.0399399423
0
LINE
8
0
62
7
6
CONTINUOUS
10
179.2328453484
20
150.6526864677
11
179.2328453484
21
155.6654329930
0
LINE
8
0
62
7
6
CONTINUOUS
10
171.6030067763
20
166.2629428856
11
178.8626839206
21
166.2629428856
0
LINE
8
0
62
7
6
CONTINUOUS
10
149.9152033984
20
166.2629431587
11
154.6626839206
21
166.2629428856
0
LINE
8
0
62
7
6
CONTINUOUS
10
195.8030067763
20
166.2629428856
11
203.0626839206
21
166.2629428856
0
LINE
8
0
62
7
6
CONTINUOUS
10
202.7768698458
20
166.3526864677
11
196.0888208511
21
166.3526864677
0
LINE
8
0
62
7
6
CONTINUOUS
10
178.5768698458
20
166.3526864677
11
171.8888208511
21
166.3526864677
0
LINE
8
0
62
7
6
CONTINUOUS
10
154.3768698458
20
166.3526864677
11
149.9394762827
21
166.3526864677
0
LINE
8
0
62
7
6
CONTINUOUS
10
178.8626839206
20
166.4424300498
11
171.6030067763
21
166.4424300498
0
LINE
8
0
62
7
6
CONTINUOUS
10
203.0626839206
20
166.4424300498
11
195.8030067763
21
166.4424300498
0
LINE
8
0
62
7
6
CONTINUOUS
10
154.6626839206
20
166.4424300498
11
149.9637491993
21
166.4424298960
0
LINE
8
0
62
7
6
CONTINUOUS
10
176.7945991950
20
150.0701717643
11
176.7443887580
21
149.8526864677
0
LINE
8
0
62
7
6
CONTINUOUS
10
185.8213019389
20
184.0526864677
11
185.7710915299
21
183.8352012927
0
POLYLINE
8
0
62
7
6
CONTINUOUS
66
1
70
0
0
VERTEX
8
0
62
7
6
CONTINUOUS
10
176.5318834541
20
149.8526864677
0
VERTEX
8
0
62
7
6
CONTINUOUS
10
176.4256041861
20
149.4569332464
0
VERTEX
8
0
62
7
6
CONTINUOUS
10
176.3827994991
20
149.3026864677
0
SEQEND
0
LINE
8
0
62
7
6
CONTINUOUS
10
186.0338072427
20
184.0526864677
11
186.1009445787
21
184.3026864677
0
LINE
8
0
62
7
6
CONTINUOUS
10
217.3328453484
20
184.9187118715
11
216.8328453484
21
184.6300367369
0
LINE
8
0
62
7
6
CONTINUOUS
10
216.2658580503
20
184.3026864677
11
215.9488707522
21
184.1196737658
0
POLYLINE
8
0
62
7
6
CONTINUOUS
66
1
70
0
0
VERTEX
8
0
62
7
6
CONTINUOUS
10
186.1828911974
20
149.3026864677
0
VERTEX
8
0
62
7
6
CONTINUOUS
10
186.1400865015
20
149.4569332784
0
VERTEX
8
0
62
7
6
CONTINUOUS
10
186.0338072427
20
149.8526864677
0
SEQEND
0
LINE
8
0
62
7
6
CONTINUOUS
10
176.4647461185
20
184.3026864677
11
176.5318834541
21
184.0526864677
0
LINE
8
0
62
7
6
CONTINUOUS
10
176.7443887580
20
184.0526864677
11
176.7945991669
21
183.8352012927
0
LINE
8
0
62
7
6
CONTINUOUS
10
185.7710915018
20
150.0701717643
11
185.8213019389
21
149.8526864677
0
LINE
8
0
62
7
6
CONTINUOUS
10
184.5328453484
20
183.3026864677
11
184.5328453484
21
182.2526864677
0
LINE
8
0
62
7
6
CONTINUOUS
10
215.1626839312
20
171.5629428781
11
207.9030067656
21
171.5629428781
0
LINE
8
0
62
7
6
CONTINUOUS
10
190.9626839312
20
171.5629428781
11
183.7030067656
21
171.5629428781
0
LINE
8
0
62
7
6
CONTINUOUS
10
159.5030067720
20
171.5629428826
11
166.7626839248
21
171.5629428826
0
LINE
8
0
62
7
6
CONTINUOUS
10
214.8768698699
20
171.6526864677
11
208.1888208270
21
171.6526864677
0
LINE
8
0
62
7
6
CONTINUOUS
10
190.6768698699
20
171.6526864677
11
183.9888208270
21
171.6526864677
0
LINE
8
0
62
7
6
CONTINUOUS
10
159.7888208270
20
171.6526864677
11
166.4768698699
21
171.6526864677
0
LINE
8
0
62
7
6
CONTINUOUS
10
215.1626839248
20
171.7424300527
11
207.9030067720
21
171.7424300527
0
LINE
8
0
62
7
6
CONTINUOUS
10
190.9626839248
20
171.7424300527
11
183.7030067720
21
171.7424300527
0
LINE
8
0
62
7
6
CONTINUOUS
10
159.5030067656
20
171.7424300572
11
166.7626839312
21
171.7424300572
0
LINE
8
0
62
7
6
CONTINUOUS
10
217.3328453484
20
148.9866610639
11
216.8328453484
21
149.2753361985
0
LINE
8
0
62
7
6
CONTINUOUS
10
216.7854732926
20
149.3026864677
11
215.9488707522
21
149.7856991696
0
LINE
8
DEFAULT_1
62
2
6
CENTER
10
187.3328453484
20
138.2764732299
11
187.3328453484
21
190.8026864677
0
LINE
8
0
62
7
6
CONTINUOUS
10
190.1328453484
20
183.3026864677
11
190.1328453484
21
182.2526864677
0
LINE
8
0
62
7
6
CONTINUOUS
10
149.2855688563
20
176.3069803956
11
155.3525732394
21
176.3069802861
0
LINE
8
0
62
7
6
CONTINUOUS
10
170.9131174574
20
176.3069802861
11
179.5525732394
21
176.3069802861
0
LINE
8
0
62
7
6
CONTINUOUS
10
195.1131174574
20
176.3069802861
11
203.7525732394
21
176.3069802861
0
LINE
8
0
62
7
6
CONTINUOUS
10
148.9816607000
20
177.0399399423
11
155.0328453484
21
177.0399399423
0
LINE
8
0
62
7
6
CONTINUOUS
10
171.2328453484
20
177.0399399423
11
179.2328453484
21
177.0399399423
0
LINE
8
0
62
7
6
CONTINUOUS
10
195.4328453484
20
177.0399399423
11
203.4328453484
21
177.0399399423
0
LINE
8
0
62
7
6
CONTINUOUS
10
188.8945991950
20
150.0701717643
11
188.8443887580
21
149.8526864677
0
LINE
8
0
62
7
6
CONTINUOUS
10
197.9657231844
20
184.0450960210
11
197.8710915299
21
183.6352012927
0
POLYLINE
8
0
62
7
6
CONTINUOUS
66
1
70
0
0
VERTEX
8
0
62
7
6
CONTINUOUS
10
188.6318834541
20
149.8526864677
0
VERTEX
8
0
62
7
6
CONTINUOUS
10
188.5256041861
20
149.4569332464
0
VERTEX
8
0
62
7
6
CONTINUOUS
10
188.4827994991
20
149.3026864677
0
SEQEND
0
LINE
8
0
62
7
6
CONTINUOUS
10
198.1338072427
20
184.0526864677
11
198.2009445787
21
184.3026864677
0
LINE
8
0
62
7
6
CONTINUOUS
10
203.4328453484
20
182.0526864677
11
195.4328453484
21
182.0526864677
0
LINE
8
0
62
7
6
CONTINUOUS
10
179.2328453484
20
182.0526864677
11
171.2328453484
21
182.0526864677
0
LINE
8
0
62
7
6
CONTINUOUS
10
155.0328453484
20
182.0526864677
11
147.0328453484
21
182.0526864677
0
LINE
8
0
62
7
6
CONTINUOUS
10
215.1626839312
20
182.1629428781
11
207.9030067656
21
182.1629428781
0
LINE
8
0
62
7
6
CONTINUOUS
10
190.9626839312
20
182.1629428781
11
183.7030067656
21
182.1629428781
0
LINE
8
0
62
7
6
CONTINUOUS
10
159.5030067720
20
182.1629428826
11
166.7626839248
21
182.1629428826
0
POLYLINE
8
0
62
7
6
CONTINUOUS
66
1
70
0
0
VERTEX
8
0
62
7
6
CONTINUOUS
10
198.2828911974
20
149.3026864677
0
VERTEX
8
0
62
7
6
CONTINUOUS
10
198.2400865015
20
149.4569332784
0
VERTEX
8
0
62
7
6
CONTINUOUS
10
198.1338072427
20
149.8526864677
0
SEQEND
0
LINE
8
0
62
7
6
CONTINUOUS
10
188.5647461185
20
184.3026864677
11
188.6318834541
21
184.0526864677
0
LINE
8
0
62
7
6
CONTINUOUS
10
188.8443887580
20
184.0526864677
11
188.8945991669
21
183.8352012927
0
LINE
8
0
62
7
6
CONTINUOUS
10
195.4328453484
20
182.0526864677
11
195.4328453484
21
177.0399399423
0
LINE
8
0
62
7
6
CONTINUOUS
10
195.4328453484
20
150.6526864677
11
195.4328453484
21
155.6654329930
0
LINE
8
0
62
7
6
CONTINUOUS
10
196.6328453484
20
183.1026864677
11
196.6328453484
21
182.2526864677
0
LINE
8
0
62
7
6
CONTINUOUS
10
196.6328453484
20
150.4526864677
11
196.6328453484
21
150.4026864677
0
LINE
8
0
62
7
6
CONTINUOUS
10
214.8768237425
20
182.2526864677
11
208.1888208270
21
182.2526864677
0
LINE
8
0
62
7
6
CONTINUOUS
10
203.2327716941
20
182.2526864677
11
195.6329190027
21
182.2526864677
0
LINE
8
0
62
7
6
CONTINUOUS
10
190.6768237425
20
182.2526864677
11
183.9888208270
21
182.2526864677
0
LINE
8
0
62
7
6
CONTINUOUS
10
179.0327716941
20
182.2526864677
11
171.4329190027
21
182.2526864677
0
LINE
8
0
62
7
6
CONTINUOUS
10
154.8327716941
20
182.2526864677
11
147.2329190027
21
182.2526864677
0
LINE
8
0
62
7
6
CONTINUOUS
10
159.7888669096
20
182.2526864677
11
166.4768698699
21
182.2526864677
0
LINE
8
0
62
7
6
CONTINUOUS
10
196.6328453490
20
183.1026864677
11
202.2328453479
21
183.1026864677
0
LINE
8
0
62
7
6
CONTINUOUS
10
148.2328453490
20
183.3026864677
11
153.8328453479
21
183.3026864677
0
LINE
8
0
62
7
6
CONTINUOUS
10
160.3328453490
20
183.3026864677
11
165.9328453479
21
183.3026864677
0
LINE
8
0
62
7
6
CONTINUOUS
10
172.4328453490
20
183.3026864677
11
178.0328453479
21
183.3026864677
0
LINE
8
0
62
7
6
CONTINUOUS
10
184.5328453490
20
183.3026864677
11
190.1328453479
21
183.3026864677
0
LINE
8
0
62
7
6
CONTINUOUS
10
208.7328453490
20
183.3026864677
11
214.3328453479
21
183.3026864677
0
LINE
8
0
62
7
6
CONTINUOUS
10
196.9328453484
20
183.4026864677
11
201.9328453484
21
183.4026864677
0
LINE
8
0
62
7
6
CONTINUOUS
10
148.5328453484
20
183.6026864677
11
153.5328453484
21
183.6026864677
0
LINE
8
0
62
7
6
CONTINUOUS
10
160.6328453484
20
183.6026864677
11
165.6328453484
21
183.6026864677
0
LINE
8
0
62
7
6
CONTINUOUS
10
172.7328453484
20
183.6026864677
11
177.7324646846
21
183.6026864677
0
LINE
8
0
62
7
6
CONTINUOUS
10
184.8328453484
20
183.6026864677
11
189.8328453484
21
183.6026864677
0
LINE
8
0
62
7
6
CONTINUOUS
10
209.0328453484
20
183.6026864677
11
214.0328453484
21
183.6026864677
0
LINE
8
0
62
7
6
CONTINUOUS
10
197.8710915267
20
183.6352012786
11
200.9945991702
21
183.6352012786
0
LINE
8
0
62
7
6
CONTINUOUS
10
213.0945991979
20
183.8352011585
11
209.9710914989
21
183.8352011585
0
LINE
8
0
62
7
6
CONTINUOUS
10
161.5710915267
20
183.8352012786
11
164.6945991702
21
183.8352012786
0
LINE
8
0
62
7
6
CONTINUOUS
10
173.6710915267
20
183.8352012786
11
176.7945991702
21
183.8352012786
0
LINE
8
0
62
7
6
CONTINUOUS
10
185.7710915267
20
183.8352012786
11
188.8945991702
21
183.8352012786
0
LINE
8
0
62
7
6
CONTINUOUS
10
149.4710915267
20
183.8352012786
11
152.5945991702
21
183.8352012786
0
LINE
8
0
62
7
6
CONTINUOUS
10
145.6916075275
20
184.0526864677
11
149.7338072427
21
184.0526864677
0
LINE
8
0
62
7
6
CONTINUOUS
10
152.3318834541
20
184.0526864677
11
161.8338072427
21
184.0526864677
0
LINE
8
0
62
7
6
CONTINUOUS
10
164.4318834541
20
184.0526864677
11
173.9338072427
21
184.0526864677
0
LINE
8
0
62
7
6
CONTINUOUS
10
176.5318834541
20
184.0526864677
11
186.0338072427
21
184.0526864677
0
LINE
8
0
62
7
6
CONTINUOUS
10
188.6318834541
20
184.0526864677
11
198.1338072427
21
184.0526864677
0
LINE
8
0
62
7
6
CONTINUOUS
10
200.7318834541
20
184.0526864677
11
210.2338072427
21
184.0526864677
0
LINE
8
0
62
7
6
CONTINUOUS
10
212.8318834541
20
184.0526864677
11
215.6988707522
21
184.0526864677
0
LINE
8
0
62
7
6
CONTINUOUS
10
216.8328453484
20
184.3026864677
11
145.5519726863
21
184.3026864677
0
LINE
8
DEFAULT_1
62
2
6
CENTER
10
199.4328453484
20
140.3947276852
11
199.4328453484
21
190.8026864677
0
LINE
8
0
62
7
6
CONTINUOUS
10
202.2328453484
20
183.1026864677
11
202.2328453484
21
182.2526864677
0
LINE
8
0
62
7
6
CONTINUOUS
10
202.2328453484
20
150.4526864677
11
202.2328453484
21
150.4026864677
0
LINE
8
0
62
7
6
CONTINUOUS
10
203.4328453484
20
182.0526864677
11
203.4328453484
21
177.0399399423
0
LINE
8
0
62
7
6
CONTINUOUS
10
203.4328453484
20
150.6526864677
11
203.4328453484
21
155.6654329930
0
LINE
8
0
62
7
6
CONTINUOUS
10
216.8328453484
20
190.3026864677
11
142.6956612015
21
190.3026864677
0
LINE
8
0
62
7
6
CONTINUOUS
10
209.9710915018
20
183.8352011710
11
210.0213019389
21
184.0526864677
0
POLYLINE
8
0
62
7
6
CONTINUOUS
66
1
70
0
0
VERTEX
8
0
62
7
6
CONTINUOUS
10
200.7318834541
20
149.8526864677
0
VERTEX
8
0
62
7
6
CONTINUOUS
10
200.6256041861
20
149.4569332464
0
VERTEX
8
0
62
7
6
CONTINUOUS
10
200.5827994991
20
149.3026864677
0
SEQEND
0
LINE
8
0
62
7
6
CONTINUOUS
10
210.2338072427
20
184.0526864677
11
210.3009445787
21
184.3026864677
0
POLYLINE
8
0
62
7
6
CONTINUOUS
66
1
70
0
0
VERTEX
8
0
62
7
6
CONTINUOUS
10
210.3828911974
20
149.3026864677
0
VERTEX
8
0
62
7
6
CONTINUOUS
10
210.3400865015
20
149.4569332784
0
VERTEX
8
0
62
7
6
CONTINUOUS
10
210.2338072427
20
149.8526864677
0
SEQEND
0
LINE
8
0
62
7
6
CONTINUOUS
10
200.6647461185
20
184.3026864677
11
200.7318834541
21
184.0526864677
0
LINE
8
0
62
7
6
CONTINUOUS
10
200.8999675125
20
184.0450960210
11
200.9945991669
21
183.6352012927
0
LINE
8
0
62
7
6
CONTINUOUS
10
210.0218860697
20
149.8501563190
11
209.9710915299
21
150.0701716426
0
LINE
8
0
62
7
6
CONTINUOUS
10
208.7328453484
20
182.2526864677
11
208.7328453484
21
183.3026864677
0
LINE
8
DEFAULT_1
62
2
6
CENTER
10
211.5328453484
20
139.5474259030
11
211.5328453484
21
190.8026864677
0
LINE
8
0
62
7
6
CONTINUOUS
10
214.3328453484
20
182.2526864677
11
214.3328453484
21
183.3026864677
0
LINE
8
0
62
7
6
CONTINUOUS
10
215.6988707522
20
184.3026864677
11
215.6988707522
21
184.0526864677
0
LINE
8
0
62
7
6
CONTINUOUS
10
215.6988707522
20
149.8526864677
11
215.6988707522
21
149.3026864677
0
LINE
8
0
62
7
6
CONTINUOUS
10
215.9488707522
20
184.3026864677
11
215.9488707522
21
184.1196737658
0
LINE
8
0
62
7
6
CONTINUOUS
10
215.9488707522
20
149.7856991696
11
215.9488707522
21
149.3026864677
0
LINE
8
0
62
7
6
CONTINUOUS
10
216.8328453484
20
143.3026864677
11
216.8328453484
21
152.2619805067
0
LINE
8
0
62
7
6
CONTINUOUS
10
216.8328453484
20
159.2433924282
11
216.8328453484
21
162.8619805067
0
LINE
8
0
62
7
6
CONTINUOUS
10
216.8328453484
20
169.8433924282
11
216.8328453484
21
173.4619805067
0
LINE
8
0
62
7
6
CONTINUOUS
10
216.8328453484
20
180.4433924282
11
216.8328453484
21
190.3026864677
0
LINE
8
0
62
7
6
CONTINUOUS
10
217.3328453484
20
148.9866610639
11
217.3328453484
21
145.9687118715
0
LINE
8
0
62
7
6
CONTINUOUS
10
217.3328453484
20
184.9187118715
11
217.3328453484
21
187.9366610639
0
LINE
8
0
62
7
6
CONTINUOUS
10
213.0443887580
20
149.8526864677
11
213.0945991669
21
150.0701716426
0
POLYLINE
8
0
62
7
6
CONTINUOUS
66
1
70
0
0
VERTEX
8
0
62
7
6
CONTINUOUS
10
212.8318834541
20
149.8526864677
0
VERTEX
8
0
62
7
6
CONTINUOUS
10
212.7256041861
20
149.4569332464
0
VERTEX
8
0
62
7
6
CONTINUOUS
10
212.6827994991
20
149.3026864677
0
SEQEND
0
LINE
8
0
62
7
6
CONTINUOUS
10
217.3328453484
20
145.9687118715
11
216.8328453484
21
145.6800367369
0
LINE
8
0
62
7
6
CONTINUOUS
10
217.3328453484
20
187.9366610639
11
216.8328453484
21
188.2253361985
0
LINE
8
0
62
7
6
CONTINUOUS
10
212.7647461185
20
184.3026864677
11
212.8318834541
21
184.0526864677
0
LINE
8
0
62
7
6
CONTINUOUS
10
213.0945991950
20
183.8352011710
11
213.0443887580
21
184.0526864677
0
ARC
8
0
62
7
6
CONTINUOUS
10
117.6993598104
20
172.1526864677
40
0.5000000000
50
270.0000000000
51
304.8638378648
0
ARC
8
0
62
7
6
CONTINUOUS
10
111.0113107675
20
172.1526864677
40
0.5000000000
50
235.1361621352
51
270.0000000000
0
ARC
8
0
62
7
6
CONTINUOUS
10
114.3553352889
20
176.9526864677
40
6.3500000000
50
124.8638378753
51
235.1361620527
0
ARC
8
0
62
7
6
CONTINUOUS
10
117.6993598104
20
181.7526864677
40
0.5000000000
50
55.1361630496
51
90.0000000000
0
ARC
8
0
62
7
6
CONTINUOUS
10
114.3553352889
20
176.9526864677
40
6.3500000000
50
304.8638379473
51
55.1361621247
0
ARC
8
0
62
7
6
CONTINUOUS
10
111.0113107675
20
181.7526864677
40
0.5000000000
50
90.0000000000
51
124.8638369504
0
ARC
8
0
62
7
6
CONTINUOUS
10
117.6993598104
20
161.5526864677
40
0.5000000000
50
270.0000000000
51
304.8638378648
0
ARC
8
0
62
7
6
CONTINUOUS
10
111.0113107675
20
161.5526864677
40
0.5000000000
50
235.1361621352
51
270.0000000000
0
ARC
8
0
62
7
6
CONTINUOUS
10
114.3553352889
20
166.3526864677
40
6.3500000000
50
124.8638378753
51
235.1361620527
0
ARC
8
0
62
7
6
CONTINUOUS
10
117.6993598104
20
171.1526864677
40
0.5000000000
50
55.1361630496
51
90.0000000000
0
ARC
8
0
62
7
6
CONTINUOUS
10
114.3553352889
20
166.3526864677
40
6.3500000000
50
304.8638379473
51
55.1361621247
0
ARC
8
0
62
7
6
CONTINUOUS
10
111.0113107675
20
171.1526864677
40
0.5000000000
50
90.0000000000
51
124.8638369504
0
ARC
8
0
62
7
6
CONTINUOUS
10
117.6993598104
20
150.9526864677
40
0.5000000000
50
270.0000000000
51
304.8638378648
0
ARC
8
0
62
7
6
CONTINUOUS
10
111.0113107675
20
150.9526864677
40
0.5000000000
50
235.1361621352
51
270.0000000000
0
ARC
8
0
62
7
6
CONTINUOUS
10
114.3553352889
20
155.7526864677
40
6.3500000000
50
124.8638378753
51
235.1361620527
0
ARC
8
0
62
7
6
CONTINUOUS
10
117.6993598104
20
160.5526864677
40
0.5000000000
50
55.1361630496
51
90.0000000000
0
ARC
8
0
62
7
6
CONTINUOUS
10
114.3553352889
20
155.7526864677
40
6.3500000000
50
304.8638379473
51
55.1361621247
0
ARC
8
0
62
7
6
CONTINUOUS
10
111.0113107675
20
160.5526864677
40
0.5000000000
50
90.0000000000
51
124.8638369504
0
ARC
8
0
62
7
6
CONTINUOUS
10
141.8993598104
20
181.7526864677
40
0.5000000000
50
55.1361621352
51
90.0000000000
0
ARC
8
0
62
7
6
CONTINUOUS
10
135.2113107675
20
181.7526864677
40
0.5000000000
50
90.0000000000
51
124.8638378648
0
ARC
8
0
62
7
6
CONTINUOUS
10
138.5553352889
20
176.9526864677
40
6.3500000000
50
124.8638379473
51
235.1361621247
0
ARC
8
0
62
7
6
CONTINUOUS
10
141.8993598104
20
172.1526864677
40
0.5000000000
50
270.0000000000
51
304.8638369504
0
ARC
8
0
62
7
6
CONTINUOUS
10
138.5553352889
20
176.9526864677
40
6.3500000000
50
304.8638378753
51
55.1361620527
0
ARC
8
0
62
7
6
CONTINUOUS
10
135.2113107675
20
172.1526864677
40
0.5000000000
50
235.1361630496
51
270.0000000000
0
ARC
8
0
62
7
6
CONTINUOUS
10
141.8993598104
20
171.1526864677
40
0.5000000000
50
55.1361621352
51
90.0000000000
0
ARC
8
0
62
7
6
CONTINUOUS
10
135.2113107675
20
171.1526864677
40
0.5000000000
50
90.0000000000
51
124.8638378648
0
ARC
8
0
62
7
6
CONTINUOUS
10
138.5553352889
20
166.3526864677
40
6.3500000000
50
124.8638379473
51
235.1361621247
0
ARC
8
0
62
7
6
CONTINUOUS
10
141.8993598104
20
161.5526864677
40
0.5000000000
50
270.0000000000
51
304.8638369504
0
ARC
8
0
62
7
6
CONTINUOUS
10
138.5553352889
20
166.3526864677
40
6.3500000000
50
304.8638378753
51
55.1361620527
0
ARC
8
0
62
7
6
CONTINUOUS
10
135.2113107675
20
161.5526864677
40
0.5000000000
50
235.1361630496
51
270.0000000000
0
ARC
8
0
62
7
6
CONTINUOUS
10
141.8993598104
20
160.5526864677
40
0.5000000000
50
55.1361621352
51
90.0000000000
0
ARC
8
0
62
7
6
CONTINUOUS
10
135.2113107675
20
160.5526864677
40
0.5000000000
50
90.0000000000
51
124.8638378648
0
ARC
8
0
62
7
6
CONTINUOUS
10
138.5553352889
20
155.7526864677
40
6.3500000000
50
124.8638379473
51
235.1361621247
0
ARC
8
0
62
7
6
CONTINUOUS
10
141.8993598104
20
150.9526864677
40
0.5000000000
50
270.0000000000
51
304.8638369504
0
ARC
8
0
62
7
6
CONTINUOUS
10
138.5553352889
20
155.7526864677
40
6.3500000000
50
344.3359442492
51
55.1361620527
0
ARC
8
0
62
7
6
CONTINUOUS
10
138.5553352889
20
155.7526864677
40
6.3500000000
50
304.8638378753
51
336.2475640237
0
ARC
8
0
62
7
6
CONTINUOUS
10
135.2113107675
20
150.9526864677
40
0.5000000000
50
235.1361630496
51
270.0000000000
0
ARC
8
0
62
7
6
CONTINUOUS
10
69.2993598104
20
172.1526864677
40
0.5000000000
50
270.0000000000
51
304.8638378648
0
ARC
8
0
62
7
6
CONTINUOUS
10
62.6113107675
20
172.1526864677
40
0.5000000000
50
235.1361621352
51
270.0000000000
0
ARC
8
0
62
7
6
CONTINUOUS
10
65.9553352889
20
176.9526864677
40
6.3500000000
50
124.8638378753
51
235.1361620527
0
ARC
8
0
62
7
6
CONTINUOUS
10
69.2993598104
20
181.7526864677
40
0.5000000000
50
55.1361630496
51
90.0000000000
0
ARC
8
0
62
7
6
CONTINUOUS
10
65.9553352889
20
176.9526864677
40
6.3500000000
50
304.8638379473
51
55.1361621247
0
ARC
8
0
62
7
6
CONTINUOUS
10
62.6113107675
20
181.7526864677
40
0.5000000000
50
90.0000000000
51
124.8638369504
0
ARC
8
0
62
7
6
CONTINUOUS
10
69.2993598104
20
161.5526864677
40
0.5000000000
50
270.0000000000
51
304.8638378648
0
ARC
8
0
62
7
6
CONTINUOUS
10
62.6113107675
20
161.5526864677
40
0.5000000000
50
235.1361621352
51
270.0000000000
0
ARC
8
0
62
7
6
CONTINUOUS
10
65.9553352889
20
166.3526864677
40
6.3500000000
50
124.8638378753
51
235.1361620527
0
ARC
8
0
62
7
6
CONTINUOUS
10
69.2993598104
20
171.1526864677
40
0.5000000000
50
55.1361630496
51
90.0000000000
0
ARC
8
0
62
7
6
CONTINUOUS
10
65.9553352889
20
166.3526864677
40
6.3500000000
50
304.8638379473
51
55.1361621247
0
ARC
8
0
62
7
6
CONTINUOUS
10
62.6113107675
20
171.1526864677
40
0.5000000000
50
90.0000000000
51
124.8638369504
0
ARC
8
0
62
7
6
CONTINUOUS
10
93.4993598104
20
172.1526864677
40
0.5000000000
50
270.0000000000
51
304.8638378648
0
ARC
8
0
62
7
6
CONTINUOUS
10
86.8113107675
20
172.1526864677
40
0.5000000000
50
235.1361621352
51
270.0000000000
0
ARC
8
0
62
7
6
CONTINUOUS
10
90.1553352889
20
176.9526864677
40
6.3500000000
50
124.8638378753
51
235.1361620527
0
ARC
8
0
62
7
6
CONTINUOUS
10
93.4993598104
20
181.7526864677
40
0.5000000000
50
55.1361630496
51
90.0000000000
0
ARC
8
0
62
7
6
CONTINUOUS
10
90.1553352889
20
176.9526864677
40
6.3500000000
50
304.8638379473
51
55.1361621247
0
ARC
8
0
62
7
6
CONTINUOUS
10
86.8113107675
20
181.7526864677
40
0.5000000000
50
90.0000000000
51
124.8638369504
0
ARC
8
0
62
7
6
CONTINUOUS
10
93.4993598104
20
161.5526864677
40
0.5000000000
50
270.0000000000
51
304.8638378648
0
ARC
8
0
62
7
6
CONTINUOUS
10
86.8113107675
20
161.5526864677
40
0.5000000000
50
235.1361621352
51
270.0000000000
0
ARC
8
0
62
7
6
CONTINUOUS
10
90.1553352889
20
166.3526864677
40
6.3500000000
50
124.8638378753
51
235.1361620527
0
ARC
8
0
62
7
6
CONTINUOUS
10
93.4993598104
20
171.1526864677
40
0.5000000000
50
55.1361630496
51
90.0000000000
0
ARC
8
0
62
7
6
CONTINUOUS
10
90.1553352889
20
166.3526864677
40
6.3500000000
50
304.8638379473
51
55.1361621247
0
ARC
8
0
62
7
6
CONTINUOUS
10
86.8113107675
20
171.1526864677
40
0.5000000000
50
90.0000000000
51
124.8638369504
0
ARC
8
0
62
7
6
CONTINUOUS
10
69.2993598104
20
150.9526864677
40
0.5000000000
50
270.0000000000
51
304.8638378648
0
ARC
8
0
62
7
6
CONTINUOUS
10
62.6113107675
20
150.9526864677
40
0.5000000000
50
235.1361621352
51
270.0000000000
0
ARC
8
0
62
7
6
CONTINUOUS
10
65.9553352889
20
155.7526864677
40
6.3500000000
50
124.8638378753
51
235.1361620527
0
ARC
8
0
62
7
6
CONTINUOUS
10
69.2993598104
20
160.5526864677
40
0.5000000000
50
55.1361630496
51
90.0000000000
0
ARC
8
0
62
7
6
CONTINUOUS
10
65.9553352889
20
155.7526864677
40
6.3500000000
50
304.8638379473
51
55.1361621247
0
ARC
8
0
62
7
6
CONTINUOUS
10
62.6113107675
20
160.5526864677
40
0.5000000000
50
90.0000000000
51
124.8638369504
0
ARC
8
0
62
7
6
CONTINUOUS
10
93.4993598104
20
150.9526864677
40
0.5000000000
50
270.0000000000
51
304.8638378648
0
ARC
8
0
62
7
6
CONTINUOUS
10
86.8113107675
20
150.9526864677
40
0.5000000000
50
235.1361621352
51
270.0000000000
0
ARC
8
0
62
7
6
CONTINUOUS
10
90.1553352889
20
155.7526864677
40
6.3500000000
50
124.8638378753
51
235.1361620527
0
ARC
8
0
62
7
6
CONTINUOUS
10
93.4993598104
20
160.5526864677
40
0.5000000000
50
55.1361630496
51
90.0000000000
0
ARC
8
0
62
7
6
CONTINUOUS
10
90.1553352889
20
155.7526864677
40
6.3500000000
50
304.8638379473
51
55.1361621247
0
ARC
8
0
62
7
6
CONTINUOUS
10
86.8113107675
20
160.5526864677
40
0.5000000000
50
90.0000000000
51
124.8638369504
0
ARC
8
0
62
7
6
CONTINUOUS
10
147.3113107675
20
166.8526864677
40
0.5000000000
50
235.1361635794
51
270.0000000000
0
ARC
8
0
62
7
6
CONTINUOUS
10
150.6553352889
20
171.6526864677
40
6.3500000000
50
132.8649102469
51
235.1361621665
0
ARC
8
0
62
7
6
CONTINUOUS
10
145.6553352889
20
177.0399399423
40
1.0000000000
50
312.8649102626
51
360.0000000000
0
ARC
8
0
62
7
6
CONTINUOUS
10
147.3113107675
20
165.8526864677
40
0.5000000000
50
90.0000000000
51
124.8638364206
0
ARC
8
0
62
7
6
CONTINUOUS
10
150.6553352889
20
161.0526864677
40
6.3500000000
50
124.8638378335
51
219.8515902912
0
ARC
8
0
62
7
6
CONTINUOUS
10
57.1993598104
20
165.8526864677
40
0.5000000000
50
55.1361635794
51
90.0000000000
0
ARC
8
0
62
7
6
CONTINUOUS
10
50.5113107675
20
165.8526864677
40
0.5000000000
50
90.0000000000
51
124.8638364206
0
ARC
8
0
62
7
6
CONTINUOUS
10
50.0553352889
20
150.6526864677
40
0.2000000000
50
180.0000000000
51
270.0000000000
0
ARC
8
0
62
7
6
CONTINUOUS
10
53.8553352889
20
161.0526864677
40
6.3500000000
50
124.8638378335
51
227.1350897531
0
ARC
8
0
62
7
6
CONTINUOUS
10
57.6553352889
20
150.6526864677
40
0.2000000000
50
270.0000000000
51
360.0000000000
0
ARC
8
0
62
7
6
CONTINUOUS
10
48.8553352889
20
155.6654329930
40
1.0000000000
50
0.0000000000
51
47.1350897374
0
ARC
8
0
62
7
6
CONTINUOUS
10
53.8553352889
20
161.0526864677
40
6.3500000000
50
312.8649102469
51
55.1361621665
0
ARC
8
0
62
7
6
CONTINUOUS
10
58.8553352889
20
155.6654329930
40
1.0000000000
50
132.8649102626
51
180.0000000000
0
ARC
8
0
62
7
6
CONTINUOUS
10
129.7993598104
20
165.8526864677
40
0.5000000000
50
55.1361635794
51
90.0000000000
0
ARC
8
0
62
7
6
CONTINUOUS
10
123.1113107675
20
165.8526864677
40
0.5000000000
50
90.0000000000
51
124.8638364206
0
ARC
8
0
62
7
6
CONTINUOUS
10
122.6553352889
20
150.6526864677
40
0.2000000000
50
180.0000000000
51
270.0000000000
0
ARC
8
0
62
7
6
CONTINUOUS
10
126.4553352889
20
161.0526864677
40
6.3500000000
50
124.8638378335
51
227.1350897531
0
ARC
8
0
62
7
6
CONTINUOUS
10
130.2553352889
20
150.6526864677
40
0.2000000000
50
270.0000000000
51
360.0000000000
0
ARC
8
0
62
7
6
CONTINUOUS
10
121.4553352889
20
155.6654329930
40
1.0000000000
50
0.0000000000
51
47.1350897374
0
ARC
8
0
62
7
6
CONTINUOUS
10
126.4553352889
20
161.0526864677
40
6.3500000000
50
312.8649102469
51
55.1361621665
0
ARC
8
0
62
7
6
CONTINUOUS
10
131.4553352889
20
155.6654329930
40
1.0000000000
50
132.8649102626
51
180.0000000000
0
ARC
8
0
62
7
6
CONTINUOUS
10
105.5993598104
20
165.8526864677
40
0.5000000000
50
55.1361635794
51
90.0000000000
0
ARC
8
0
62
7
6
CONTINUOUS
10
98.9113107675
20
165.8526864677
40
0.5000000000
50
90.0000000000
51
124.8638364206
0
ARC
8
0
62
7
6
CONTINUOUS
10
98.4553352889
20
150.6526864677
40
0.2000000000
50
180.0000000000
51
270.0000000000
0
ARC
8
0
62
7
6
CONTINUOUS
10
102.2553352889
20
161.0526864677
40
6.3500000000
50
124.8638378335
51
227.1350897531
0
ARC
8
0
62
7
6
CONTINUOUS
10
106.0553352889
20
150.6526864677
40
0.2000000000
50
270.0000000000
51
360.0000000000
0
ARC
8
0
62
7
6
CONTINUOUS
10
97.2553352889
20
155.6654329930
40
1.0000000000
50
0.0000000000
51
47.1350897374
0
ARC
8
0
62
7
6
CONTINUOUS
10
102.2553352889
20
161.0526864677
40
6.3500000000
50
312.8649102469
51
55.1361621665
0
ARC
8
0
62
7
6
CONTINUOUS
10
107.2553352889
20
155.6654329930
40
1.0000000000
50
132.8649102626
51
180.0000000000
0
ARC
8
0
62
7
6
CONTINUOUS
10
81.3993598104
20
165.8526864677
40
0.5000000000
50
55.1361635794
51
90.0000000000
0
ARC
8
0
62
7
6
CONTINUOUS
10
74.7113107675
20
165.8526864677
40
0.5000000000
50
90.0000000000
51
124.8638364206
0
ARC
8
0
62
7
6
CONTINUOUS
10
74.2553352889
20
150.6526864677
40
0.2000000000
50
180.0000000000
51
270.0000000000
0
ARC
8
0
62
7
6
CONTINUOUS
10
78.0553352889
20
161.0526864677
40
6.3500000000
50
124.8638378335
51
227.1350897531
0
ARC
8
0
62
7
6
CONTINUOUS
10
81.8553352889
20
150.6526864677
40
0.2000000000
50
270.0000000000
51
360.0000000000
0
ARC
8
0
62
7
6
CONTINUOUS
10
73.0553352889
20
155.6654329930
40
1.0000000000
50
0.0000000000
51
47.1350897374
0
ARC
8
0
62
7
6
CONTINUOUS
10
78.0553352889
20
161.0526864677
40
6.3500000000
50
312.8649102469
51
55.1361621665
0
ARC
8
0
62
7
6
CONTINUOUS
10
83.0553352889
20
155.6654329930
40
1.0000000000
50
132.8649102626
51
180.0000000000
0
ARC
8
0
62
7
6
CONTINUOUS
10
57.1993598104
20
166.8526864677
40
0.5000000000
50
270.0000000000
51
304.8638364206
0
ARC
8
0
62
7
6
CONTINUOUS
10
50.5113107675
20
166.8526864677
40
0.5000000000
50
235.1361635794
51
270.0000000000
0
ARC
8
0
62
7
6
CONTINUOUS
10
50.0553352889
20
182.0526864677
40
0.2000000000
50
90.0000000000
51
180.0000000000
0
ARC
8
0
62
7
6
CONTINUOUS
10
57.6553352889
20
182.0526864677
40
0.2000000000
50
0.0000000000
51
90.0000000000
0
ARC
8
0
62
7
6
CONTINUOUS
10
53.8553352889
20
171.6526864677
40
6.3500000000
50
132.8649102469
51
235.1361621665
0
ARC
8
0
62
7
6
CONTINUOUS
10
48.8553352889
20
177.0399399423
40
1.0000000000
50
312.8649102626
51
360.0000000000
0
ARC
8
0
62
7
6
CONTINUOUS
10
53.8553352889
20
171.6526864677
40
6.3500000000
50
304.8638378335
51
47.1350897531
0
ARC
8
0
62
7
6
CONTINUOUS
10
58.8553352889
20
177.0399399423
40
1.0000000000
50
180.0000000000
51
227.1350897374
0
ARC
8
0
62
7
6
CONTINUOUS
10
81.3993598104
20
166.8526864677
40
0.5000000000
50
270.0000000000
51
304.8638364206
0
ARC
8
0
62
7
6
CONTINUOUS
10
74.7113107675
20
166.8526864677
40
0.5000000000
50
235.1361635794
51
270.0000000000
0
ARC
8
0
62
7
6
CONTINUOUS
10
74.2553352889
20
182.0526864677
40
0.2000000000
50
90.0000000000
51
180.0000000000
0
ARC
8
0
62
7
6
CONTINUOUS
10
81.8553352889
20
182.0526864677
40
0.2000000000
50
0.0000000000
51
90.0000000000
0
ARC
8
0
62
7
6
CONTINUOUS
10
78.0553352889
20
171.6526864677
40
6.3500000000
50
132.8649102469
51
235.1361621665
0
ARC
8
0
62
7
6
CONTINUOUS
10
73.0553352889
20
177.0399399423
40
1.0000000000
50
312.8649102626
51
360.0000000000
0
ARC
8
0
62
7
6
CONTINUOUS
10
78.0553352889
20
171.6526864677
40
6.3500000000
50
304.8638378335
51
47.1350897531
0
ARC
8
0
62
7
6
CONTINUOUS
10
83.0553352889
20
177.0399399423
40
1.0000000000
50
180.0000000000
51
227.1350897374
0
ARC
8
0
62
7
6
CONTINUOUS
10
105.5993598104
20
166.8526864677
40
0.5000000000
50
270.0000000000
51
304.8638364206
0
ARC
8
0
62
7
6
CONTINUOUS
10
98.9113107675
20
166.8526864677
40
0.5000000000
50
235.1361635794
51
270.0000000000
0
ARC
8
0
62
7
6
CONTINUOUS
10
98.4553352889
20
182.0526864677
40
0.2000000000
50
90.0000000000
51
180.0000000000
0
ARC
8
0
62
7
6
CONTINUOUS
10
106.0553352889
20
182.0526864677
40
0.2000000000
50
0.0000000000
51
90.0000000000
0
ARC
8
0
62
7
6
CONTINUOUS
10
102.2553352889
20
171.6526864677
40
6.3500000000
50
132.8649102469
51
235.1361621665
0
ARC
8
0
62
7
6
CONTINUOUS
10
97.2553352889
20
177.0399399423
40
1.0000000000
50
312.8649102626
51
360.0000000000
0
ARC
8
0
62
7
6
CONTINUOUS
10
102.2553352889
20
171.6526864677
40
6.3500000000
50
304.8638378335
51
47.1350897531
0
ARC
8
0
62
7
6
CONTINUOUS
10
107.2553352889
20
177.0399399423
40
1.0000000000
50
180.0000000000
51
227.1350897374
0
ARC
8
0
62
7
6
CONTINUOUS
10
129.7993598104
20
166.8526864677
40
0.5000000000
50
270.0000000000
51
304.8638364206
0
ARC
8
0
62
7
6
CONTINUOUS
10
123.1113107675
20
166.8526864677
40
0.5000000000
50
235.1361635794
51
270.0000000000
0
ARC
8
0
62
7
6
CONTINUOUS
10
122.6553352889
20
182.0526864677
40
0.2000000000
50
90.0000000000
51
180.0000000000
0
ARC
8
0
62
7
6
CONTINUOUS
10
130.2553352889
20
182.0526864677
40
0.2000000000
50
0.0000000000
51
90.0000000000
0
ARC
8
0
62
7
6
CONTINUOUS
10
126.4553352889
20
171.6526864677
40
6.3500000000
50
132.8649102469
51
235.1361621665
0
ARC
8
0
62
7
6
CONTINUOUS
10
121.4553352889
20
177.0399399423
40
1.0000000000
50
312.8649102626
51
360.0000000000
0
ARC
8
0
62
7
6
CONTINUOUS
10
126.4553352889
20
171.6526864677
40
6.3500000000
50
304.8638378335
51
47.1350897531
0
ARC
8
0
62
7
6
CONTINUOUS
10
131.4553352889
20
177.0399399423
40
1.0000000000
50
180.0000000000
51
227.1350897374
0
ARC
8
0
62
7
6
CONTINUOUS
10
104.7553352889
20
150.6026864677
40
0.3000000000
50
270.0000000000
51
329.9050704593
0
ARC
8
0
62
7
6
CONTINUOUS
10
99.7553352889
20
150.6026864677
40
0.3000000000
50
210.0949295407
51
270.0000000000
0
ARC
8
0
62
7
6
CONTINUOUS
10
104.7553352889
20
183.3026864677
40
0.3000000000
50
0.0000000000
51
90.0000000000
0
ARC
8
0
62
7
6
CONTINUOUS
10
99.7553352889
20
183.3026864677
40
0.3000000000
50
90.0000000000
51
180.0000000000
0
ARC
8
0
62
7
6
CONTINUOUS
10
104.1094001595
20
150.0026864677
40
0.3000000000
50
90.0000178849
51
167.0000038564
0
ARC
8
0
62
7
6
CONTINUOUS
10
100.4012704183
20
150.0026864677
40
0.3000000000
50
12.9999961436
51
89.9999821151
0
ARC
8
0
62
7
6
CONTINUOUS
10
104.1094001595
20
183.9026864677
40
0.3000000000
50
192.9999722888
51
269.9998701847
0
ARC
8
0
62
7
6
CONTINUOUS
10
100.4012704183
20
183.9026864677
40
0.3000000000
50
270.0001298153
51
347.0000277112
0
ARC
8
0
62
7
6
CONTINUOUS
10
141.0553352889
20
150.6026864677
40
0.3000000000
50
270.0000000000
51
329.9050704593
0
ARC
8
0
62
7
6
CONTINUOUS
10
136.0553352889
20
150.6026864677
40
0.3000000000
50
210.0949295407
51
270.0000000000
0
ARC
8
0
62
7
6
CONTINUOUS
10
141.0553352889
20
183.3026864677
40
0.3000000000
50
0.0000000000
51
90.0000000000
0
ARC
8
0
62
7
6
CONTINUOUS
10
136.0553352889
20
183.3026864677
40
0.3000000000
50
90.0000000000
51
180.0000000000
0
ARC
8
0
62
7
6
CONTINUOUS
10
140.4094001595
20
150.0026864677
40
0.3000000000
50
90.0000178849
51
167.0000038564
0
ARC
8
0
62
7
6
CONTINUOUS
10
136.7012704183
20
150.0026864677
40
0.3000000000
50
12.9999961436
51
89.9999821151
0
ARC
8
0
62
7
6
CONTINUOUS
10
140.4094001595
20
183.9026864677
40
0.3000000000
50
192.9999722888
51
269.9998701848
0
ARC
8
0
62
7
6
CONTINUOUS
10
136.7012704183
20
183.9026864677
40
0.3000000000
50
270.0001298153
51
347.0000277112
0
ARC
8
0
62
7
6
CONTINUOUS
10
128.9553352889
20
150.6026864677
40
0.3000000000
50
270.0000000000
51
329.9050704593
0
ARC
8
0
62
7
6
CONTINUOUS
10
123.9553352889
20
150.6026864677
40
0.3000000000
50
210.0949295407
51
270.0000000000
0
ARC
8
0
62
7
6
CONTINUOUS
10
128.9553352889
20
183.3026864677
40
0.3000000000
50
0.0000000000
51
90.0000000000
0
ARC
8
0
62
7
6
CONTINUOUS
10
123.9553352889
20
183.3026864677
40
0.3000000000
50
90.0000000000
51
180.0000000000
0
ARC
8
0
62
7
6
CONTINUOUS
10
128.3094001595
20
150.0026864677
40
0.3000000000
50
90.0000178849
51
167.0000038564
0
ARC
8
0
62
7
6
CONTINUOUS
10
124.6012704183
20
150.0026864677
40
0.3000000000
50
12.9999961436
51
89.9999821151
0
ARC
8
0
62
7
6
CONTINUOUS
10
128.3094001595
20
183.9026864677
40
0.3000000000
50
192.9999722888
51
269.9998701848
0
ARC
8
0
62
7
6
CONTINUOUS
10
124.6012704183
20
183.9026864677
40
0.3000000000
50
270.0001298153
51
347.0000277112
0
ARC
8
0
62
7
6
CONTINUOUS
10
116.8553352889
20
150.6026864677
40
0.3000000000
50
270.0000000000
51
329.9050704593
0
ARC
8
0
62
7
6
CONTINUOUS
10
111.8553352889
20
150.6026864677
40
0.3000000000
50
210.0949295407
51
270.0000000000
0
ARC
8
0
62
7
6
CONTINUOUS
10
116.8553352889
20
183.3026864677
40
0.3000000000
50
0.0000000000
51
90.0000000000
0
ARC
8
0
62
7
6
CONTINUOUS
10
111.8553352889
20
183.3026864677
40
0.3000000000
50
90.0000000000
51
180.0000000000
0
ARC
8
0
62
7
6
CONTINUOUS
10
116.2094001595
20
150.0026864677
40
0.3000000000
50
90.0000178849
51
167.0000038564
0
ARC
8
0
62
7
6
CONTINUOUS
10
112.5012704183
20
150.0026864677
40
0.3000000000
50
12.9999961436
51
89.9999821151
0
ARC
8
0
62
7
6
CONTINUOUS
10
116.2094001595
20
183.9026864677
40
0.3000000000
50
192.9999722888
51
269.9998701848
0
ARC
8
0
62
7
6
CONTINUOUS
10
112.5012704183
20
183.9026864677
40
0.3000000000
50
270.0001298153
51
347.0000277112
0
ARC
8
0
62
7
6
CONTINUOUS
10
56.3553352889
20
150.6026864677
40
0.3000000000
50
270.0000000000
51
329.9050704593
0
ARC
8
0
62
7
6
CONTINUOUS
10
51.3553352889
20
150.6026864677
40
0.3000000000
50
210.0949295407
51
270.0000000000
0
ARC
8
0
62
7
6
CONTINUOUS
10
56.3553352889
20
183.3026864677
40
0.3000000000
50
0.0000000000
51
90.0000000000
0
ARC
8
0
62
7
6
CONTINUOUS
10
51.3553352889
20
183.3026864677
40
0.3000000000
50
90.0000000000
51
180.0000000000
0
ARC
8
0
62
7
6
CONTINUOUS
10
55.7094001595
20
150.0026864677
40
0.3000000000
50
90.0000178849
51
167.0000038564
0
ARC
8
0
62
7
6
CONTINUOUS
10
52.0012704183
20
150.0026864677
40
0.3000000000
50
12.9999961436
51
89.9999821151
0
ARC
8
0
62
7
6
CONTINUOUS
10
55.7094001595
20
183.9026864677
40
0.3000000000
50
192.9999722888
51
269.9998701847
0
ARC
8
0
62
7
6
CONTINUOUS
10
52.0012704183
20
183.9026864677
40
0.3000000000
50
270.0001298153
51
347.0000277112
0
ARC
8
0
62
7
6
CONTINUOUS
10
68.4553352889
20
150.6026864677
40
0.3000000000
50
270.0000000000
51
329.9050704593
0
ARC
8
0
62
7
6
CONTINUOUS
10
63.4553352889
20
150.6026864677
40
0.3000000000
50
210.0949295407
51
270.0000000000
0
ARC
8
0
62
7
6
CONTINUOUS
10
68.4553352889
20
183.3026864677
40
0.3000000000
50
0.0000000000
51
90.0000000000
0
ARC
8
0
62
7
6
CONTINUOUS
10
63.4553352889
20
183.3026864677
40
0.3000000000
50
90.0000000000
51
180.0000000000
0
ARC
8
0
62
7
6
CONTINUOUS
10
67.8094001595
20
150.0026864677
40
0.3000000000
50
90.0000178849
51
167.0000038564
0
ARC
8
0
62
7
6
CONTINUOUS
10
64.1012704183
20
150.0026864677
40
0.3000000000
50
12.9999961436
51
89.9999821151
0
ARC
8
0
62
7
6
CONTINUOUS
10
67.8094001595
20
183.9026864677
40
0.3000000000
50
192.9999722888
51
269.9998701847
0
ARC
8
0
62
7
6
CONTINUOUS
10
64.1012704183
20
183.9026864677
40
0.3000000000
50
270.0001298153
51
347.0000277112
0
ARC
8
0
62
7
6
CONTINUOUS
10
80.5553352889
20
150.6026864677
40
0.3000000000
50
270.0000000000
51
329.9050704593
0
ARC
8
0
62
7
6
CONTINUOUS
10
75.5553352889
20
150.6026864677
40
0.3000000000
50
210.0949295407
51
270.0000000000
0
ARC
8
0
62
7
6
CONTINUOUS
10
80.5553352889
20
183.3026864677
40
0.3000000000
50
0.0000000000
51
90.0000000000
0
ARC
8
0
62
7
6
CONTINUOUS
10
75.5553352889
20
183.3026864677
40
0.3000000000
50
90.0000000000
51
180.0000000000
0
ARC
8
0
62
7
6
CONTINUOUS
10
79.9094001595
20
150.0026864677
40
0.3000000000
50
90.0000178849
51
167.0000038564
0
ARC
8
0
62
7
6
CONTINUOUS
10
76.2012704183
20
150.0026864677
40
0.3000000000
50
12.9999961436
51
89.9999821151
0
ARC
8
0
62
7
6
CONTINUOUS
10
79.9094001595
20
183.9026864677
40
0.3000000000
50
192.9999722888
51
269.9998701847
0
ARC
8
0
62
7
6
CONTINUOUS
10
76.2012704183
20
183.9026864677
40
0.3000000000
50
270.0001298153
51
347.0000277112
0
ARC
8
0
62
7
6
CONTINUOUS
10
92.6553352889
20
150.6026864677
40
0.3000000000
50
270.0000000000
51
329.9050704593
0
ARC
8
0
62
7
6
CONTINUOUS
10
87.6553352889
20
150.6026864677
40
0.3000000000
50
210.0949295407
51
270.0000000000
0
ARC
8
0
62
7
6
CONTINUOUS
10
92.6553352889
20
183.3026864677
40
0.3000000000
50
0.0000000000
51
90.0000000000
0
ARC
8
0
62
7
6
CONTINUOUS
10
87.6553352889
20
183.3026864677
40
0.3000000000
50
90.0000000000
51
180.0000000000
0
ARC
8
0
62
7
6
CONTINUOUS
10
92.0094001595
20
150.0026864677
40
0.3000000000
50
90.0000178849
51
167.0000038564
0
ARC
8
0
62
7
6
CONTINUOUS
10
88.3012704183
20
150.0026864677
40
0.3000000000
50
12.9999961436
51
89.9999821151
0
ARC
8
0
62
7
6
CONTINUOUS
10
92.0094001595
20
183.9026864677
40
0.3000000000
50
192.9999722888
51
269.9998701847
0
ARC
8
0
62
7
6
CONTINUOUS
10
88.3012704183
20
183.9026864677
40
0.3000000000
50
270.0001298153
51
347.0000277112
0
ARC
8
0
62
7
6
CONTINUOUS
10
49.6893098851
20
184.5526864677
40
0.5000000000
50
240.0000000000
51
270.0000000000
0
ARC
8
0
62
7
6
CONTINUOUS
10
49.6893098851
20
149.3526864677
40
0.5000000000
50
90.0000000000
51
120.0000000000
0
ARC
8
0
62
7
6
CONTINUOUS
10
308.5478539660
20
150.4026864677
40
0.3000000000
50
270.0000000000
51
360.0000000000
0
ARC
8
0
62
7
6
CONTINUOUS
10
303.5478539660
20
150.4026864677
40
0.3000000000
50
180.0000000000
51
270.0000000000
0
ARC
8
0
62
7
6
CONTINUOUS
10
307.9019188366
20
149.8026864677
40
0.3000000000
50
90.0000000650
51
166.9999999557
0
ARC
8
0
62
7
6
CONTINUOUS
10
304.1937890955
20
149.8026864677
40
0.3000000000
50
13.0000000372
51
89.9999999462
0
ARC
8
0
62
7
6
CONTINUOUS
10
306.0478539660
20
155.7526864677
40
6.3500000000
50
155.3200762172
51
230.9490290109
0
ARC
8
0
62
7
6
CONTINUOUS
10
306.0478539660
20
155.7526864677
40
6.3500000000
50
309.0509709891
51
24.6799237828
0
ARC
8
0
62
7
6
CONTINUOUS
10
306.0478539660
20
166.3526864677
40
6.3500000000
50
155.3227493896
51
204.6772505917
0
ARC
8
0
62
7
6
CONTINUOUS
10
306.0478539660
20
166.3526864677
40
6.3500000000
50
335.3227494083
51
24.6772506104
0
ARC
8
0
62
7
6
CONTINUOUS
10
306.0478539660
20
176.9526864677
40
6.3500000000
50
129.0509710249
51
204.6799237641
0
ARC
8
0
62
7
6
CONTINUOUS
10
306.0478539660
20
176.9526864677
40
6.3500000000
50
335.3200762359
51
50.9490289751
0
ARC
8
0
62
7
6
CONTINUOUS
10
302.7038294446
20
165.8526864677
40
0.5000000000
50
90.0000000000
51
124.8638379543
0
ARC
8
0
62
7
6
CONTINUOUS
10
309.3918784875
20
165.8526864677
40
0.5000000000
50
55.1361620457
51
90.0000000000
0
ARC
8
0
62
7
6
CONTINUOUS
10
302.2478539660
20
150.6526864677
40
0.2000000000
50
180.0000000000
51
270.0000000000
0
ARC
8
0
62
7
6
CONTINUOUS
10
309.8478539660
20
150.6526864677
40
0.2000000000
50
270.0000000000
51
360.0000000000
0
ARC
8
0
62
7
6
CONTINUOUS
10
301.0478539660
20
155.6654329930
40
1.0000000000
50
0.0000000000
51
47.1350897509
0
ARC
8
0
62
7
6
CONTINUOUS
10
311.0478539660
20
155.6654329930
40
1.0000000000
50
132.8649102491
51
180.0000000000
0
ARC
8
0
62
7
6
CONTINUOUS
10
306.0478539660
20
161.0526864677
40
6.3500000000
50
124.8638379543
51
227.1350897509
0
ARC
8
0
62
7
6
CONTINUOUS
10
306.0478539660
20
161.0526864677
40
6.3500000000
50
312.8649102491
51
55.1361620457
0
ARC
8
0
62
7
6
CONTINUOUS
10
309.3918784875
20
166.8526864677
40
0.5000000000
50
270.0000000000
51
304.8638379543
0
ARC
8
0
62
7
6
CONTINUOUS
10
302.7038294446
20
166.8526864677
40
0.5000000000
50
235.1361620457
51
270.0000000000
0
ARC
8
0
62
7
6
CONTINUOUS
10
309.8478539660
20
182.0526864677
40
0.2000000000
50
0.0000000000
51
90.0000000000
0
ARC
8
0
62
7
6
CONTINUOUS
10
302.2478539660
20
182.0526864677
40
0.2000000000
50
90.0000000000
51
180.0000000000
0
ARC
8
0
62
7
6
CONTINUOUS
10
311.0478539660
20
177.0399399423
40
1.0000000000
50
180.0000000000
51
227.1350897509
0
ARC
8
0
62
7
6
CONTINUOUS
10
301.0478539660
20
177.0399399423
40
1.0000000000
50
312.8649102491
51
360.0000000000
0
ARC
8
0
62
7
6
CONTINUOUS
10
306.0478539660
20
171.6526864677
40
6.3500000000
50
304.8638379543
51
47.1350897509
0
ARC
8
0
62
7
6
CONTINUOUS
10
306.0478539660
20
171.6526864677
40
6.3500000000
50
132.8649102491
51
235.1361620457
0
ARC
8
0
62
7
6
CONTINUOUS
10
308.5478539660
20
150.6026864677
40
0.3000000000
50
270.0000000000
51
329.9050704593
0
ARC
8
0
62
7
6
CONTINUOUS
10
303.5478539660
20
150.6026864677
40
0.3000000000
50
210.0949295407
51
270.0000000000
0
ARC
8
0
62
7
6
CONTINUOUS
10
308.5478539660
20
183.3026864677
40
0.3000000000
50
0.0000000000
51
90.0000000000
0
ARC
8
0
62
7
6
CONTINUOUS
10
303.5478539660
20
183.3026864677
40
0.3000000000
50
90.0000000000
51
180.0000000000
0
ARC
8
0
62
7
6
CONTINUOUS
10
307.9019188366
20
150.0026864677
40
0.3000000000
50
90.0000000650
51
166.9999999557
0
ARC
8
0
62
7
6
CONTINUOUS
10
304.1937890955
20
150.0026864677
40
0.3000000000
50
13.0000000372
51
89.9999999462
0
ARC
8
0
62
7
6
CONTINUOUS
10
307.9019188366
20
183.9026864677
40
0.3000000000
50
193.0000000423
51
269.9999999385
0
ARC
8
0
62
7
6
CONTINUOUS
10
304.1937890955
20
183.9026864677
40
0.3000000000
50
270.0000001160
51
346.9999999239
0
ARC
8
0
62
7
6
CONTINUOUS
10
293.5478539660
20
182.9459344316
40
2.0000000000
50
300.4933584025
51
360.0000000000
0
ARC
8
0
62
7
6
CONTINUOUS
10
293.5478539660
20
150.6594385037
40
2.0000000000
50
0.0000000000
51
59.5066415975
0
ARC
8
0
62
7
6
CONTINUOUS
10
300.5478539660
20
185.3026864677
40
5.0000000000
50
90.0000000000
51
180.0000000000
0
ARC
8
0
62
7
6
CONTINUOUS
10
288.5478539660
20
175.3594385037
40
2.0000000000
50
120.4933584025
51
180.0000000000
0
ARC
8
0
62
7
6
CONTINUOUS
10
288.5478539660
20
158.2459344316
40
2.0000000000
50
180.0000000000
51
239.5066415975
0
ARC
8
0
62
7
6
CONTINUOUS
10
300.5478539660
20
148.3026864677
40
5.0000000000
50
180.0000000000
51
270.0000000000
0
ARC
8
0
62
7
6
CONTINUOUS
10
166.4768698699
20
172.1526864677
40
0.5000000000
50
270.0000000000
51
304.8638378648
0
ARC
8
0
62
7
6
CONTINUOUS
10
159.7888208270
20
172.1526864677
40
0.5000000000
50
235.1361621352
51
270.0000000000
0
ARC
8
0
62
7
6
CONTINUOUS
10
163.1328453484
20
176.9526864677
40
6.3500000000
50
124.8638378753
51
235.1361620527
0
ARC
8
0
62
7
6
CONTINUOUS
10
166.4768698699
20
181.7526864677
40
0.5000000000
50
55.1361630496
51
90.0000000000
0
ARC
8
0
62
7
6
CONTINUOUS
10
163.1328453484
20
176.9526864677
40
6.3500000000
50
304.8638379473
51
55.1361621247
0
ARC
8
0
62
7
6
CONTINUOUS
10
159.7888208270
20
181.7526864677
40
0.5000000000
50
90.0000000000
51
124.8638369504
0
ARC
8
0
62
7
6
CONTINUOUS
10
166.4768698699
20
161.5526864677
40
0.5000000000
50
270.0000000000
51
304.8638378648
0
ARC
8
0
62
7
6
CONTINUOUS
10
159.7888208270
20
161.5526864677
40
0.5000000000
50
235.1361621352
51
270.0000000000
0
ARC
8
0
62
7
6
CONTINUOUS
10
163.1328453484
20
166.3526864677
40
6.3500000000
50
124.8638378753
51
235.1361620527
0
ARC
8
0
62
7
6
CONTINUOUS
10
166.4768698699
20
171.1526864677
40
0.5000000000
50
55.1361630496
51
90.0000000000
0
ARC
8
0
62
7
6
CONTINUOUS
10
163.1328453484
20
166.3526864677
40
6.3500000000
50
304.8638379473
51
55.1361621247
0
ARC
8
0
62
7
6
CONTINUOUS
10
159.7888208270
20
171.1526864677
40
0.5000000000
50
90.0000000000
51
124.8638369504
0
ARC
8
0
62
7
6
CONTINUOUS
10
166.4768698699
20
150.9526864677
40
0.5000000000
50
270.0000000000
51
304.8638378648
0
ARC
8
0
62
7
6
CONTINUOUS
10
159.7888208270
20
150.9526864677
40
0.5000000000
50
235.1361621352
51
270.0000000000
0
ARC
8
0
62
7
6
CONTINUOUS
10
163.1328453484
20
155.7526864677
40
6.3500000000
50
124.8638378753
51
235.1361620527
0
ARC
8
0
62
7
6
CONTINUOUS
10
166.4768698699
20
160.5526864677
40
0.5000000000
50
55.1361630496
51
90.0000000000
0
ARC
8
0
62
7
6
CONTINUOUS
10
163.1328453484
20
155.7526864677
40
6.3500000000
50
304.8638379473
51
55.1361621247
0
ARC
8
0
62
7
6
CONTINUOUS
10
159.7888208270
20
160.5526864677
40
0.5000000000
50
90.0000000000
51
124.8638369504
0
ARC
8
0
62
7
6
CONTINUOUS
10
190.6768698699
20
181.7526864677
40
0.5000000000
50
55.1361621352
51
90.0000000000
0
ARC
8
0
62
7
6
CONTINUOUS
10
183.9888208270
20
181.7526864677
40
0.5000000000
50
90.0000000000
51
124.8638378648
0
ARC
8
0
62
7
6
CONTINUOUS
10
187.3328453484
20
176.9526864677
40
6.3500000000
50
124.8638379473
51
235.1361621247
0
ARC
8
0
62
7
6
CONTINUOUS
10
190.6768698699
20
172.1526864677
40
0.5000000000
50
270.0000000000
51
304.8638369504
0
ARC
8
0
62
7
6
CONTINUOUS
10
187.3328453484
20
176.9526864677
40
6.3500000000
50
304.8638378753
51
55.1361620527
0
ARC
8
0
62
7
6
CONTINUOUS
10
183.9888208270
20
172.1526864677
40
0.5000000000
50
235.1361630496
51
270.0000000000
0
ARC
8
0
62
7
6
CONTINUOUS
10
190.6768698699
20
171.1526864677
40
0.5000000000
50
55.1361621352
51
90.0000000000
0
ARC
8
0
62
7
6
CONTINUOUS
10
183.9888208270
20
171.1526864677
40
0.5000000000
50
90.0000000000
51
124.8638378648
0
ARC
8
0
62
7
6
CONTINUOUS
10
187.3328453484
20
166.3526864677
40
6.3500000000
50
124.8638379473
51
235.1361621247
0
ARC
8
0
62
7
6
CONTINUOUS
10
190.6768698699
20
161.5526864677
40
0.5000000000
50
270.0000000000
51
304.8638369504
0
ARC
8
0
62
7
6
CONTINUOUS
10
187.3328453484
20
166.3526864677
40
6.3500000000
50
304.8638378753
51
55.1361620527
0
ARC
8
0
62
7
6
CONTINUOUS
10
183.9888208270
20
161.5526864677
40
0.5000000000
50
235.1361630496
51
270.0000000000
0
ARC
8
0
62
7
6
CONTINUOUS
10
190.6768698699
20
160.5526864677
40
0.5000000000
50
55.1361621352
51
90.0000000000
0
ARC
8
0
62
7
6
CONTINUOUS
10
183.9888208270
20
160.5526864677
40
0.5000000000
50
90.0000000000
51
124.8638378648
0
ARC
8
0
62
7
6
CONTINUOUS
10
187.3328453484
20
155.7526864677
40
6.3500000000
50
124.8638379473
51
235.1361621247
0
ARC
8
0
62
7
6
CONTINUOUS
10
190.6768698699
20
150.9526864677
40
0.5000000000
50
270.0000000000
51
304.8638369504
0
ARC
8
0
62
7
6
CONTINUOUS
10
187.3328453484
20
155.7526864677
40
6.3500000000
50
304.8638378753
51
55.1361620527
0
ARC
8
0
62
7
6
CONTINUOUS
10
183.9888208270
20
150.9526864677
40
0.5000000000
50
235.1361630496
51
270.0000000000
0
ARC
8
0
62
7
6
CONTINUOUS
10
214.8768698699
20
160.5526864677
40
0.5000000000
50
55.1361621352
51
90.0000000000
0
ARC
8
0
62
7
6
CONTINUOUS
10
208.1888208270
20
160.5526864677
40
0.5000000000
50
90.0000000000
51
124.8638378648
0
ARC
8
0
62
7
6
CONTINUOUS
10
211.5328453484
20
155.7526864677
40
6.3500000000
50
124.8638379473
51
235.1361621247
0
ARC
8
0
62
7
6
CONTINUOUS
10
214.8768698699
20
150.9526864677
40
0.5000000000
50
270.0000000000
51
304.8638369504
0
ARC
8
0
62
7
6
CONTINUOUS
10
211.5328453484
20
155.7526864677
40
6.3500000000
50
304.8638378753
51
55.1361620527
0
ARC
8
0
62
7
6
CONTINUOUS
10
208.1888208270
20
150.9526864677
40
0.5000000000
50
235.1361630496
51
270.0000000000
0
ARC
8
0
62
7
6
CONTINUOUS
10
214.8768698699
20
171.1526864677
40
0.5000000000
50
55.1361621352
51
90.0000000000
0
ARC
8
0
62
7
6
CONTINUOUS
10
208.1888208270
20
171.1526864677
40
0.5000000000
50
90.0000000000
51
124.8638378648
0
ARC
8
0
62
7
6
CONTINUOUS
10
211.5328453484
20
166.3526864677
40
6.3500000000
50
124.8638379473
51
235.1361621247
0
ARC
8
0
62
7
6
CONTINUOUS
10
214.8768698699
20
161.5526864677
40
0.5000000000
50
270.0000000000
51
304.8638369504
0
ARC
8
0
62
7
6
CONTINUOUS
10
211.5328453484
20
166.3526864677
40
6.3500000000
50
304.8638378753
51
55.1361620527
0
ARC
8
0
62
7
6
CONTINUOUS
10
208.1888208270
20
161.5526864677
40
0.5000000000
50
235.1361630496
51
270.0000000000
0
ARC
8
0
62
7
6
CONTINUOUS
10
214.8768698699
20
181.7526864677
40
0.5000000000
50
55.1361621352
51
90.0000000000
0
ARC
8
0
62
7
6
CONTINUOUS
10
208.1888208270
20
181.7526864677
40
0.5000000000
50
90.0000000000
51
124.8638378648
0
ARC
8
0
62
7
6
CONTINUOUS
10
211.5328453484
20
176.9526864677
40
6.3500000000
50
124.8638379473
51
235.1361621247
0
ARC
8
0
62
7
6
CONTINUOUS
10
214.8768698699
20
172.1526864677
40
0.5000000000
50
270.0000000000
51
304.8638369504
0
ARC
8
0
62
7
6
CONTINUOUS
10
211.5328453484
20
176.9526864677
40
6.3500000000
50
304.8638378753
51
55.1361620527
0
ARC
8
0
62
7
6
CONTINUOUS
10
208.1888208270
20
172.1526864677
40
0.5000000000
50
235.1361630496
51
270.0000000000
0
ARC
8
0
62
7
6
CONTINUOUS
10
202.7768698699
20
166.8526864677
40
0.5000000000
50
270.0000000000
51
304.8638364206
0
ARC
8
0
62
7
6
CONTINUOUS
10
196.0888208270
20
166.8526864677
40
0.5000000000
50
235.1361635794
51
270.0000000000
0
ARC
8
0
62
7
6
CONTINUOUS
10
195.6328453484
20
182.0526864677
40
0.2000000000
50
90.0000000000
51
180.0000000000
0
ARC
8
0
62
7
6
CONTINUOUS
10
203.2328453484
20
182.0526864677
40
0.2000000000
50
0.0000000000
51
90.0000000000
0
ARC
8
0
62
7
6
CONTINUOUS
10
199.4328453484
20
171.6526864677
40
6.3500000000
50
132.8649102469
51
235.1361621665
0
ARC
8
0
62
7
6
CONTINUOUS
10
194.4328453484
20
177.0399399423
40
1.0000000000
50
312.8649102626
51
360.0000000000
0
ARC
8
0
62
7
6
CONTINUOUS
10
199.4328453484
20
171.6526864677
40
6.3500000000
50
304.8638378335
51
47.1350897531
0
ARC
8
0
62
7
6
CONTINUOUS
10
204.4328453484
20
177.0399399423
40
1.0000000000
50
180.0000000000
51
227.1350897374
0
ARC
8
0
62
7
6
CONTINUOUS
10
178.5768698699
20
165.8526864677
40
0.5000000000
50
55.1361635794
51
90.0000000000
0
ARC
8
0
62
7
6
CONTINUOUS
10
171.8888208270
20
165.8526864677
40
0.5000000000
50
90.0000000000
51
124.8638364206
0
ARC
8
0
62
7
6
CONTINUOUS
10
171.4328453484
20
150.6526864677
40
0.2000000000
50
180.0000000000
51
270.0000000000
0
ARC
8
0
62
7
6
CONTINUOUS
10
175.2328453484
20
161.0526864677
40
6.3500000000
50
124.8638378335
51
227.1350897531
0
ARC
8
0
62
7
6
CONTINUOUS
10
179.0328453484
20
150.6526864677
40
0.2000000000
50
270.0000000000
51
360.0000000000
0
ARC
8
0
62
7
6
CONTINUOUS
10
170.2328453484
20
155.6654329930
40
1.0000000000
50
0.0000000000
51
47.1350897374
0
ARC
8
0
62
7
6
CONTINUOUS
10
175.2328453484
20
161.0526864677
40
6.3500000000
50
312.8649102469
51
55.1361621665
0
ARC
8
0
62
7
6
CONTINUOUS
10
180.2328453484
20
155.6654329930
40
1.0000000000
50
132.8649102626
51
180.0000000000
0
ARC
8
0
62
7
6
CONTINUOUS
10
202.7768698699
20
165.8526864677
40
0.5000000000
50
55.1361635794
51
90.0000000000
0
ARC
8
0
62
7
6
CONTINUOUS
10
196.0888208270
20
165.8526864677
40
0.5000000000
50
90.0000000000
51
124.8638364206
0
ARC
8
0
62
7
6
CONTINUOUS
10
195.6328453484
20
150.6526864677
40
0.2000000000
50
180.0000000000
51
270.0000000000
0
ARC
8
0
62
7
6
CONTINUOUS
10
199.4328453484
20
161.0526864677
40
6.3500000000
50
124.8638378335
51
227.1350897531
0
ARC
8
0
62
7
6
CONTINUOUS
10
203.2328453484
20
150.6526864677
40
0.2000000000
50
270.0000000000
51
360.0000000000
0
ARC
8
0
62
7
6
CONTINUOUS
10
194.4328453484
20
155.6654329930
40
1.0000000000
50
0.0000000000
51
47.1350897374
0
ARC
8
0
62
7
6
CONTINUOUS
10
199.4328453484
20
161.0526864677
40
6.3500000000
50
312.8649102469
51
55.1361621665
0
ARC
8
0
62
7
6
CONTINUOUS
10
204.4328453484
20
155.6654329930
40
1.0000000000
50
132.8649102626
51
180.0000000000
0
ARC
8
0
62
7
6
CONTINUOUS
10
154.3768698699
20
165.8526864677
40
0.5000000000
50
55.1361635794
51
90.0000000000
0
ARC
8
0
62
7
6
CONTINUOUS
10
147.2328453484
20
150.6526864677
40
0.2000000000
50
180.0000000000
51
270.0000000000
0
ARC
8
0
62
7
6
CONTINUOUS
10
151.0328453484
20
161.0526864677
40
6.3500000000
50
225.6274007235
51
227.1350897531
0
ARC
8
0
62
7
6
CONTINUOUS
10
154.8328453484
20
150.6526864677
40
0.2000000000
50
270.0000000000
51
360.0000000000
0
ARC
8
0
62
7
6
CONTINUOUS
10
146.0328453484
20
155.6654329930
40
1.0000000000
50
0.0000000000
51
47.1350897374
0
ARC
8
0
62
7
6
CONTINUOUS
10
151.0328453484
20
161.0526864677
40
6.3500000000
50
312.8649102469
51
55.1361621665
0
ARC
8
0
62
7
6
CONTINUOUS
10
156.0328453484
20
155.6654329930
40
1.0000000000
50
132.8649102626
51
180.0000000000
0
ARC
8
0
62
7
6
CONTINUOUS
10
154.3768698699
20
166.8526864677
40
0.5000000000
50
270.0000000000
51
304.8638364206
0
ARC
8
0
62
7
6
CONTINUOUS
10
147.2328453484
20
182.0526864677
40
0.2000000000
50
90.0000000000
51
180.0000000000
0
ARC
8
0
62
7
6
CONTINUOUS
10
154.8328453484
20
182.0526864677
40
0.2000000000
50
0.0000000000
51
90.0000000000
0
ARC
8
0
62
7
6
CONTINUOUS
10
151.0328453484
20
171.6526864677
40
6.3500000000
50
304.8638378335
51
47.1350897531
0
ARC
8
0
62
7
6
CONTINUOUS
10
156.0328453484
20
177.0399399423
40
1.0000000000
50
180.0000000000
51
227.1350897374
0
ARC
8
0
62
7
6
CONTINUOUS
10
178.5768698699
20
166.8526864677
40
0.5000000000
50
270.0000000000
51
304.8638364206
0
ARC
8
0
62
7
6
CONTINUOUS
10
171.8888208270
20
166.8526864677
40
0.5000000000
50
235.1361635794
51
270.0000000000
0
ARC
8
0
62
7
6
CONTINUOUS
10
171.4328453484
20
182.0526864677
40
0.2000000000
50
90.0000000000
51
180.0000000000
0
ARC
8
0
62
7
6
CONTINUOUS
10
179.0328453484
20
182.0526864677
40
0.2000000000
50
0.0000000000
51
90.0000000000
0
ARC
8
0
62
7
6
CONTINUOUS
10
175.2328453484
20
171.6526864677
40
6.3500000000
50
132.8649102469
51
235.1361621665
0
ARC
8
0
62
7
6
CONTINUOUS
10
170.2328453484
20
177.0399399423
40
1.0000000000
50
312.8649102626
51
360.0000000000
0
ARC
8
0
62
7
6
CONTINUOUS
10
175.2328453484
20
171.6526864677
40
6.3500000000
50
304.8638378335
51
47.1350897531
0
ARC
8
0
62
7
6
CONTINUOUS
10
180.2328453484
20
177.0399399423
40
1.0000000000
50
180.0000000000
51
227.1350897374
0
ARC
8
0
62
7
6
CONTINUOUS
10
214.0328453484
20
183.3026864677
40
0.3000000000
50
0.0000000000
51
90.0000000000
0
ARC
8
0
62
7
6
CONTINUOUS
10
209.0328453484
20
183.3026864677
40
0.3000000000
50
90.0000000000
51
180.0000000000
0
ARC
8
0
62
7
6
CONTINUOUS
10
214.0328453484
20
150.6026864677
40
0.3000000000
50
270.0000000000
51
329.9050704593
0
ARC
8
0
62
7
6
CONTINUOUS
10
209.0328453484
20
150.6026864677
40
0.3000000000
50
210.0949295407
51
270.0000000000
0
ARC
8
0
62
7
6
CONTINUOUS
10
213.3869102190
20
183.9026864677
40
0.3000000000
50
192.9999961436
51
269.9999821151
0
ARC
8
0
62
7
6
CONTINUOUS
10
209.6787804779
20
183.9026864677
40
0.3000000000
50
270.0000178849
51
347.0000038564
0
ARC
8
0
62
7
6
CONTINUOUS
10
213.3869102190
20
150.0026864677
40
0.3000000000
50
90.0001298153
51
167.0000277112
0
ARC
8
0
62
7
6
CONTINUOUS
10
209.6787804779
20
150.0026864677
40
0.3000000000
50
12.9999722888
51
89.9998701848
0
ARC
8
0
62
7
6
CONTINUOUS
10
201.9328453484
20
150.4026864677
40
0.3000000000
50
270.0000000000
51
360.0000000000
0
ARC
8
0
62
7
6
CONTINUOUS
10
196.9328453484
20
150.4026864677
40
0.3000000000
50
180.0000000000
51
270.0000000000
0
ARC
8
0
62
7
6
CONTINUOUS
10
201.9328453484
20
183.1026864677
40
0.3000000000
50
0.0000000000
51
90.0000000000
0
ARC
8
0
62
7
6
CONTINUOUS
10
196.9328453484
20
183.1026864677
40
0.3000000000
50
90.0000000000
51
180.0000000000
0
ARC
8
0
62
7
6
CONTINUOUS
10
201.2869102190
20
149.8026864677
40
0.3000000000
50
90.0000178849
51
167.0000038564
0
ARC
8
0
62
7
6
CONTINUOUS
10
197.5787804779
20
149.8026864677
40
0.3000000000
50
12.9999961436
51
89.9999821151
0
ARC
8
0
62
7
6
CONTINUOUS
10
201.2869102190
20
183.7026864677
40
0.3000000000
50
192.9999722888
51
269.9998701848
0
ARC
8
0
62
7
6
CONTINUOUS
10
197.5787804779
20
183.7026864677
40
0.3000000000
50
270.0001298153
51
347.0000277112
0
ARC
8
0
62
7
6
CONTINUOUS
10
189.8328453484
20
150.6026864677
40
0.3000000000
50
270.0000000000
51
329.9050704593
0
ARC
8
0
62
7
6
CONTINUOUS
10
184.8328453484
20
150.6026864677
40
0.3000000000
50
210.0949295407
51
270.0000000000
0
ARC
8
0
62
7
6
CONTINUOUS
10
189.8328453484
20
183.3026864677
40
0.3000000000
50
0.0000000000
51
90.0000000000
0
ARC
8
0
62
7
6
CONTINUOUS
10
184.8328453484
20
183.3026864677
40
0.3000000000
50
90.0000000000
51
180.0000000000
0
ARC
8
0
62
7
6
CONTINUOUS
10
189.1869102190
20
150.0026864677
40
0.3000000000
50
90.0000178849
51
167.0000038564
0
ARC
8
0
62
7
6
CONTINUOUS
10
185.4787804779
20
150.0026864677
40
0.3000000000
50
12.9999961436
51
89.9999821151
0
ARC
8
0
62
7
6
CONTINUOUS
10
189.1869102190
20
183.9026864677
40
0.3000000000
50
192.9999722888
51
269.9998701848
0
ARC
8
0
62
7
6
CONTINUOUS
10
185.4787804779
20
183.9026864677
40
0.3000000000
50
270.0001298153
51
347.0000277112
0
ARC
8
0
62
7
6
CONTINUOUS
10
177.7328453484
20
150.6026864677
40
0.3000000000
50
270.0000000000
51
329.9050704593
0
ARC
8
0
62
7
6
CONTINUOUS
10
172.7328453484
20
150.6026864677
40
0.3000000000
50
210.0949295407
51
270.0000000000
0
ARC
8
0
62
7
6
CONTINUOUS
10
177.7328453484
20
183.3026864677
40
0.3000000000
50
0.0000000000
51
90.0000000000
0
ARC
8
0
62
7
6
CONTINUOUS
10
172.7328453484
20
183.3026864677
40
0.3000000000
50
90.0000000000
51
180.0000000000
0
ARC
8
0
62
7
6
CONTINUOUS
10
177.0869102190
20
150.0026864677
40
0.3000000000
50
90.0000178849
51
167.0000038564
0
ARC
8
0
62
7
6
CONTINUOUS
10
173.3787804779
20
150.0026864677
40
0.3000000000
50
12.9999961436
51
89.9999821151
0
ARC
8
0
62
7
6
CONTINUOUS
10
177.0869102190
20
183.9026864677
40
0.3000000000
50
192.9999722888
51
269.9998701848
0
ARC
8
0
62
7
6
CONTINUOUS
10
173.3787804779
20
183.9026864677
40
0.3000000000
50
270.0001298153
51
347.0000277112
0
ARC
8
0
62
7
6
CONTINUOUS
10
165.6328453484
20
150.6026864677
40
0.3000000000
50
270.0000000000
51
329.9050704593
0
ARC
8
0
62
7
6
CONTINUOUS
10
160.6328453484
20
150.6026864677
40
0.3000000000
50
210.0949295407
51
270.0000000000
0
ARC
8
0
62
7
6
CONTINUOUS
10
165.6328453484
20
183.3026864677
40
0.3000000000
50
0.0000000000
51
90.0000000000
0
ARC
8
0
62
7
6
CONTINUOUS
10
160.6328453484
20
183.3026864677
40
0.3000000000
50
90.0000000000
51
180.0000000000
0
ARC
8
0
62
7
6
CONTINUOUS
10
164.9869102190
20
150.0026864677
40
0.3000000000
50
90.0000178849
51
167.0000038564
0
ARC
8
0
62
7
6
CONTINUOUS
10
161.2787804779
20
150.0026864677
40
0.3000000000
50
12.9999961436
51
89.9999821151
0
ARC
8
0
62
7
6
CONTINUOUS
10
164.9869102190
20
183.9026864677
40
0.3000000000
50
192.9999722888
51
269.9998701848
0
ARC
8
0
62
7
6
CONTINUOUS
10
161.2787804779
20
183.9026864677
40
0.3000000000
50
270.0001298153
51
347.0000277112
0
ARC
8
0
62
7
6
CONTINUOUS
10
153.5328453484
20
150.6026864677
40
0.3000000000
50
270.0000000000
51
329.9050704593
0
ARC
8
0
62
7
6
CONTINUOUS
10
148.5328453484
20
150.6026864677
40
0.3000000000
50
210.0949295407
51
270.0000000000
0
ARC
8
0
62
7
6
CONTINUOUS
10
153.5328453484
20
183.3026864677
40
0.3000000000
50
0.0000000000
51
90.0000000000
0
ARC
8
0
62
7
6
CONTINUOUS
10
148.5328453484
20
183.3026864677
40
0.3000000000
50
90.0000000000
51
180.0000000000
0
ARC
8
0
62
7
6
CONTINUOUS
10
152.8869102190
20
150.0026864677
40
0.3000000000
50
90.0000178849
51
167.0000038564
0
ARC
8
0
62
7
6
CONTINUOUS
10
149.1787804779
20
150.0026864677
40
0.3000000000
50
12.9999961436
51
89.9999821151
0
ARC
8
0
62
7
6
CONTINUOUS
10
152.8869102190
20
183.9026864677
40
0.3000000000
50
192.9999722888
51
269.9998701848
0
ARC
8
0
62
7
6
CONTINUOUS
10
149.1787804779
20
183.9026864677
40
0.3000000000
50
270.0001298153
51
347.0000277112
0
ARC
8
0
62
7
6
CONTINUOUS
10
215.6988707522
20
184.5526864677
40
0.5000000000
50
270.0000000000
51
300.0000000000
0
ARC
8
0
62
7
6
CONTINUOUS
10
215.6988707522
20
149.3526864677
40
0.5000000000
50
60.0000000000
51
90.0000000000
0
ENDSEC
0
EOF
