999
DXF file: 739p.dxf
999
Pro/ENGINEER 2005310 by Parametric Technology Corporation
0
SECTION
2
HEADER
9
$ACADVER
1
AC1015
9
$DWGCODEPAGE
3
ANSI_1252
9
$EXTMAX
10
210.0000000000
20
297.0000000000
30
0.0000000000
9
$EXTMIN
10
0.0000000000
20
0.0000000000
30
0.0000000000
9
$LIMMIN
10
0.0000000000
20
0.0000000000
9
$LIMMAX
10
210.0000000000
20
297.0000000000
9
$VIEWCTR
10
105.0000000000
20
148.5000000000
9
$VIEWSIZE
40
297.0000000000
9
$CLAYER
8
0
9
$LTSCALE
40
19.3600000000
9
$CELTYPE
6
BYLAYER
9
$DIMSCALE
40
1
9
$DIMASZ
40
3.5000000000
9
$DIMEXO
40
2.2000000000
9
$DIMDLI
40
13.3760000000
9
$DIMEXE
40
6.3360000000
9
$DIMCEN
40
3.1680000000
9
$DIMLFAC
40
1.0000000000
9
$DIMBLK
1
_FILLED
9
$DIMTXT
40
3.5000000000
9
$DIMTOL
70
1
9
$DIMLIM
70
0
9
$DIMTFAC
40
1.0000000000
9
$DIMTP
40
0.0010000000
9
$DIMTM
40
0.0010000000
9
$PDMODE
70
3
9
$PDSIZE
40
0.3125000000
9
$HANDSEED
5
315
9
$MEASUREMENT
70
1
9
$INSUNITS
70
4
0
ENDSEC
0
SECTION
2
CLASSES
0
CLASS
1
ACDBDICTIONARYWDFLT
2
AcDbDictionaryWithDefault
3
AutoCAD 2000
90
0
280
0
281
0
0
CLASS
1
ACDBPLACEHOLDER
2
AcDbPlaceHolder
3
AutoCAD 2000
90
0
280
0
281
0
0
CLASS
1
LAYOUT
2
AcDbLayout
3
AutoCAD 2000
90
0
280
0
281
0
0
ENDSEC
0
SECTION
2
TABLES
0
TABLE
2
VPORT
5
8
100
AcDbSymbolTable
70
2
0
VPORT
5
1F4
100
AcDbSymbolTableRecord
100
AcDbViewportTableRecord
2
*ACTIVE
70
0
10
0.0
20
0.0
11
1.0
21
1.0
12
105.0000000000
22
148.5000000000
13
0.0
23
0.0
14
1.0
24
1.0
15
0.0
25
0.0
16
0.0
26
0.0
36
1.0
17
0.0
27
0.0
37
0.0
40
297.0000000000
41
0.7070707071
42
50.0
43
0.0
44
0.0
50
0.0
51
0.0
71
0
72
100
73
1
74
1
75
0
76
0
77
0
78
0
0
ENDTAB
0
TABLE
2
LTYPE
5
5
100
AcDbSymbolTable
70
6
0
LTYPE
5
14
100
AcDbSymbolTableRecord
100
AcDbLinetypeTableRecord
2
BYBLOCK
70
0
3

72
65
73
0
40
0.0
0
LTYPE
5
15
100
AcDbSymbolTableRecord
100
AcDbLinetypeTableRecord
2
BYLAYER
70
0
3

72
65
73
0
40
0.0
0
LTYPE
5
16
100
AcDbSymbolTableRecord
100
AcDbLinetypeTableRecord
2
CONTINUOUS
70
64
3
Solid line
72
65
73
0
40
0
0
LTYPE
5
1F5
100
AcDbSymbolTableRecord
100
AcDbLinetypeTableRecord
2
CENTER
70
64
3
____ _ ____ _ ____ _ ____ _ ____ _ ____ _ ____
72
65
73
4
40
0.6
49
0.375
74
0
49
-0.075
74
0
49
0.075
74
0
49
-0.075
74
0
0
LTYPE
5
1F6
100
AcDbSymbolTableRecord
100
AcDbLinetypeTableRecord
2
HIDDEN
70
64
3
- - - - - - - - - - - - - - - - - - - -
72
65
73
2
40
0.2
49
0.1
74
0
49
-0.1
74
0
0
LTYPE
5
1F7
100
AcDbSymbolTableRecord
100
AcDbLinetypeTableRecord
2
PHANTOM
70
64
3
_____ _ _ _____ _ _ _____ _ _ _____
72
65
73
6
40
0.8
49
0.45
74
0
49
-0.05
74
0
49
0.1
74
0
49
-0.05
74
0
49
0.1
74
0
49
-0.05
74
0
0
LTYPE
5
1F8
100
AcDbSymbolTableRecord
100
AcDbLinetypeTableRecord
2
DOT
70
64
3
. . . . . . . . . . . . . . . . . . . .
72
65
73
2
40
0.2
49
0.1
74
0
49
-0.1
74
0
0
LTYPE
5
1F9
100
AcDbSymbolTableRecord
100
AcDbLinetypeTableRecord
2
DASHED
70
64
3
- - - - - - - - - - - - - - - - - - - -
72
65
73
2
40
0.2
49
0.1
74
0
49
-0.1
74
0
0
ENDTAB
0
TABLE
2
LAYER
5
2
100
AcDbSymbolTable
70
36
0
LAYER
5
10
100
AcDbSymbolTableRecord
100
AcDbLayerTableRecord
2
0
70
0
62
7
6
CONTINUOUS
370
-3
390
F
0
LAYER
5
1FA
100
AcDbSymbolTableRecord
100
AcDbLayerTableRecord
2
DEFAULT_1
70
0
62
7
6
CENTER
370
-3
390
F
0
LAYER
5
1FB
100
AcDbSymbolTableRecord
100
AcDbLayerTableRecord
2
DEFAULT_2
70
0
62
8
6
HIDDEN
370
-3
390
F
0
LAYER
5
1FC
100
AcDbSymbolTableRecord
100
AcDbLayerTableRecord
2
DEFAULT_3
70
0
62
7
6
PHANTOM
370
-3
390
F
0
LAYER
5
1FD
100
AcDbSymbolTableRecord
100
AcDbLayerTableRecord
2
_2D_DELETED_OBJS
70
0
62
7
6
CONTINUOUS
370
-3
390
F
0
LAYER
5
1FE
100
AcDbSymbolTableRecord
100
AcDbLayerTableRecord
2
ASSI
70
0
62
7
6
CONTINUOUS
370
-3
390
F
0
LAYER
5
1FF
100
AcDbSymbolTableRecord
100
AcDbLayerTableRecord
2
CURVE
70
0
62
7
6
CONTINUOUS
370
-3
390
F
0
LAYER
5
200
100
AcDbSymbolTableRecord
100
AcDbLayerTableRecord
2
PIANI
70
0
62
7
6
CONTINUOUS
370
-3
390
F
0
LAYER
5
201
100
AcDbSymbolTableRecord
100
AcDbLayerTableRecord
2
SURF_FILETTI
70
0
62
7
6
CONTINUOUS
370
-3
390
F
0
ENDTAB
0
TABLE
2
STYLE
5
3
100
AcDbSymbolTable
70
1
0
STYLE
5
11
100
AcDbSymbolTableRecord
100
AcDbTextStyleTableRecord
2
STANDARD
70
0
40
0.0
41
0.7143000000
50
0.0
71
0
42
0.2
3
txt
4

0
ENDTAB
0
TABLE
2
VIEW
5
6
100
AcDbSymbolTable
70
0
0
ENDTAB
0
TABLE
2
UCS
5
7
100
AcDbSymbolTable
70
0
0
ENDTAB
0
TABLE
2
APPID
5
9
100
AcDbSymbolTable
70
1
0
APPID
5
202
100
AcDbSymbolTableRecord
100
AcDbRegAppTableRecord
2
ACAD
70
0
0
ENDTAB
0
TABLE
2
BLOCK_RECORD
5
1
100
AcDbSymbolTable
70
0
0
BLOCK_RECORD
5
1F
100
AcDbSymbolTableRecord
100
AcDbBlockTableRecord
2
*MODEL_SPACE
0
BLOCK_RECORD
5
1B
100
AcDbSymbolTableRecord
100
AcDbBlockTableRecord
2
*PAPER_SPACE
0
BLOCK_RECORD
5
203
100
AcDbSymbolTableRecord
100
AcDbBlockTableRecord
2
_FILLED
0
BLOCK_RECORD
5
204
100
AcDbSymbolTableRecord
100
AcDbBlockTableRecord
2
*D0
0
BLOCK_RECORD
5
205
100
AcDbSymbolTableRecord
100
AcDbBlockTableRecord
2
*D1
0
BLOCK_RECORD
5
206
100
AcDbSymbolTableRecord
100
AcDbBlockTableRecord
2
*D2
0
BLOCK_RECORD
5
207
100
AcDbSymbolTableRecord
100
AcDbBlockTableRecord
2
*D3
0
BLOCK_RECORD
5
208
100
AcDbSymbolTableRecord
100
AcDbBlockTableRecord
2
*D4
0
BLOCK_RECORD
5
209
100
AcDbSymbolTableRecord
100
AcDbBlockTableRecord
2
*D5
0
BLOCK_RECORD
5
20A
100
AcDbSymbolTableRecord
100
AcDbBlockTableRecord
2
*D6
0
ENDTAB
0
TABLE
2
DIMSTYLE
5
A
100
AcDbSymbolTable
70
1
100
AcDbDimStyleTable
71
0
0
DIMSTYLE
105
20B
100
AcDbSymbolTableRecord
100
AcDbDimStyleTableRecord
2
STANDARD
70
0
3

4

40
1.0
41
3.5000000000
42
0.0625
43
0.38
44
0.18
45
0.0
46
0.0
47
0.0010000000
48
0.0010000000
140
3.5000000000
141
0.09
142
0.0
143
25.4
144
1.0000000000
145
0.0
146
1.0000000000
147
0.09
71
1
72
0
73
0
74
0
75
0
76
0
77
1
78
8
170
0
171
2
172
0
173
0
174
0
175
0
176
0
177
0
178
0
270
2
271
3
272
3
273
2
274
2
275
0
280
0
281
0
282
0
283
1
284
8
285
0
286
0
287
3
288
0
340
11
341
203
342
203
343
203
344
203
0
DIMSTYLE
105
20C
100
AcDbSymbolTableRecord
100
AcDbDimStyleTableRecord
2
DIMSTYLE_1
70
0
3

4

40
1.0
41
3.5000000000
42
0.0625
43
0.38
44
0.18
45
0.0
46
0.0
47
0.1000000000
48
0.1000000000
140
3.5000000000
141
0.09
142
0.0
143
25.4
144
1.0000000000
145
0.0
146
1.0000000000
147
0.09
71
0
72
0
73
0
74
0
75
0
76
0
77
1
78
8
170
0
171
2
172
0
173
0
174
0
175
0
176
0
177
0
178
0
270
2
271
3
272
3
273
2
274
2
275
0
280
0
281
0
282
0
283
1
284
8
285
0
286
0
287
3
288
0
340
11
341
203
342
203
343
203
344
203
0
DIMSTYLE
105
20D
100
AcDbSymbolTableRecord
100
AcDbDimStyleTableRecord
2
DIMSTYLE_2
70
0
3

4

40
1.0
41
3.5000000000
42
0.0625
43
0.38
44
0.18
45
0.0
46
0.0
47
0.1000000000
48
0.1000000000
140
3.5000000000
141
0.09
142
0.0
143
25.4
144
1.0000000000
145
0.0
146
1.0000000000
147
0.09
71
0
72
0
73
0
74
0
75
0
76
0
77
1
78
8
170
0
171
2
172
0
173
0
174
0
175
0
176
0
177
0
178
0
270
2
271
0
272
0
273
2
274
2
275
0
280
0
281
0
282
0
283
1
284
8
285
0
286
0
287
3
288
0
340
11
341
203
342
203
343
203
344
203
0
DIMSTYLE
105
20E
100
AcDbSymbolTableRecord
100
AcDbDimStyleTableRecord
2
DIMSTYLE_3
70
0
3

4

40
1.0
41
3.5000000000
42
0.0625
43
0.38
44
0.18
45
0.0
46
0.0
47
0.1500000000
48
0.1500000000
140
3.5000000000
141
0.09
142
0.0
143
25.4
144
1.0000000000
145
0.0
146
1.0000000000
147
0.09
71
0
72
0
73
0
74
0
75
0
76
0
77
1
78
8
170
0
171
2
172
0
173
0
174
0
175
0
176
0
177
0
178
0
270
2
271
0
272
0
273
2
274
2
275
0
280
0
281
0
282
0
283
1
284
8
285
0
286
0
287
3
288
0
340
11
341
203
342
203
343
203
344
203
0
DIMSTYLE
105
20F
100
AcDbSymbolTableRecord
100
AcDbDimStyleTableRecord
2
DIMSTYLE_4
70
0
3

4

40
1.0
41
3.5000000000
42
0.0625
43
0.38
44
0.18
45
0.0
46
0.0
47
0.1500000000
48
0.1500000000
140
3.5000000000
141
0.09
142
0.0
143
25.4
144
1.0000000000
145
0.0
146
1.0000000000
147
0.09
71
0
72
0
73
0
74
0
75
0
76
0
77
1
78
8
170
0
171
2
172
0
173
0
174
0
175
0
176
0
177
0
178
0
270
2
271
3
272
3
273
2
274
2
275
0
280
0
281
0
282
0
283
1
284
8
285
0
286
0
287
3
288
0
340
11
341
203
342
203
343
203
344
203
0
ENDTAB
0
ENDSEC
0
SECTION
2
BLOCKS
0
BLOCK
5
20
100
AcDbEntity
8
0
100
AcDbBlockBegin
2
*MODEL_SPACE
70
0
10
0.0
20
0.0
30
0.0
3
*MODEL_SPACE
1

0
ENDBLK
5
21
100
AcDbEntity
8
0
100
AcDbBlockEnd
0
BLOCK
5
1C
100
AcDbEntity
8
0
100
AcDbBlockBegin
2
*PAPER_SPACE
70
0
10
0.0
20
0.0
30
0.0
3
*PAPER_SPACE
1

0
ENDBLK
5
1D
100
AcDbEntity
8
0
100
AcDbBlockEnd
0
BLOCK
5
210
100
AcDbEntity
8
0
100
AcDbBlockBegin
62
2
6
CONTINUOUS
2
*D0
70
65
10
0.0000000000
20
0.0000000000
3
*D0
1

0
TEXT
5
211
100
AcDbEntity
8
0
100
AcDbText
62
2
6
CONTINUOUS
10
193.0383347770
20
120.2406570594
7
STANDARD
40
3.5000000000
1
24.5
50
90.0000000000
41
0.7143000000
72
0
100
AcDbText
0
LINE
5
212
100
AcDbEntity
8
0
100
AcDbLine
62
2
6
CONTINUOUS
10
159.8384236841
20
137.0741051830
11
195.4133347770
21
137.0741051830
0
LINE
5
213
100
AcDbEntity
8
0
100
AcDbLine
62
2
6
CONTINUOUS
10
159.8384236841
20
112.5741051830
11
195.4133347770
21
112.5741051830
0
LINE
5
214
100
AcDbEntity
8
0
100
AcDbLine
62
2
6
CONTINUOUS
10
193.9133347770
20
137.0741051830
11
193.9133347770
21
124.8241051830
0
LINE
5
215
100
AcDbEntity
8
0
100
AcDbLine
62
2
6
CONTINUOUS
10
193.9133347770
20
112.5741051830
11
193.9133347770
21
124.8241051830
0
INSERT
5
216
100
AcDbEntity
8
0
100
AcDbBlockReference
62
2
6
CONTINUOUS
2
_FILLED
10
193.9133347770
20
137.0741051830
41
  3.500000
42
  3.500000
43
  3.500000
50
 90.000000
0
INSERT
5
217
100
AcDbEntity
8
0
100
AcDbBlockReference
62
2
6
CONTINUOUS
2
_FILLED
10
193.9133347770
20
112.5741051830
41
  3.500000
42
  3.500000
43
  3.500000
50
270.000000
0
ENDBLK
5
218
100
AcDbEntity
8
0
6
BYBLOCK
62
0
100
AcDbBlockEnd
0
BLOCK
5
219
100
AcDbEntity
8
0
100
AcDbBlockBegin
62
2
6
CONTINUOUS
2
*D1
70
65
10
0.0000000000
20
0.0000000000
3
*D1
1

0
TEXT
5
21A
100
AcDbEntity
8
0
100
AcDbText
62
2
6
CONTINUOUS
10
192.5761486714
20
192.5840688185
7
STANDARD
40
3.5000000000
1
%%c
50
90.0000000000
41
1.3333333333
72
0
100
AcDbText
0
TEXT
5
21B
100
AcDbEntity
8
0
100
AcDbText
62
2
6
CONTINUOUS
10
192.5761486714
20
197.2507354852
7
STANDARD
40
3.5000000000
1
12
50
90.0000000000
41
0.7143000000
72
0
100
AcDbText
0
LINE
5
21C
100
AcDbEntity
8
0
100
AcDbLine
62
2
6
CONTINUOUS
10
178.3509398741
20
203.2710309198
11
194.9511486714
21
203.2710309198
0
LINE
5
21D
100
AcDbEntity
8
0
100
AcDbLine
62
2
6
CONTINUOUS
10
178.3509398741
20
191.7710309198
11
194.9511486714
21
191.7710309198
0
LINE
5
21E
100
AcDbEntity
8
0
100
AcDbLine
62
2
6
CONTINUOUS
10
193.4511486714
20
203.2710309198
11
193.4511486714
21
211.2710309198
0
LINE
5
21F
100
AcDbEntity
8
0
100
AcDbLine
62
2
6
CONTINUOUS
10
193.4511486714
20
211.2710309198
11
193.4511486714
21
197.5210309198
0
LINE
5
220
100
AcDbEntity
8
0
100
AcDbLine
62
2
6
CONTINUOUS
10
193.4511486714
20
191.7710309198
11
193.4511486714
21
183.7710309198
0
LINE
5
221
100
AcDbEntity
8
0
100
AcDbLine
62
2
6
CONTINUOUS
10
193.4511486714
20
183.7710309198
11
193.4511486714
21
197.5210309198
0
INSERT
5
222
100
AcDbEntity
8
0
100
AcDbBlockReference
62
2
6
CONTINUOUS
2
_FILLED
10
193.4511486714
20
203.2710309198
41
  3.500000
42
  3.500000
43
  3.500000
50
270.000000
0
INSERT
5
223
100
AcDbEntity
8
0
100
AcDbBlockReference
62
2
6
CONTINUOUS
2
_FILLED
10
193.4511486714
20
191.7710309198
41
  3.500000
42
  3.500000
43
  3.500000
50
 90.000000
0
ENDBLK
5
224
100
AcDbEntity
8
0
6
BYBLOCK
62
0
100
AcDbBlockEnd
0
BLOCK
5
225
100
AcDbEntity
8
0
100
AcDbBlockBegin
62
2
6
CONTINUOUS
2
*D2
70
65
10
0.0000000000
20
0.0000000000
3
*D2
1

0
TEXT
5
226
100
AcDbEntity
8
0
100
AcDbText
62
2
6
CONTINUOUS
10
173.0006534737
20
170.7617911071
7
STANDARD
40
3.5000000000
1
9
41
0.7143000000
72
0
100
AcDbText
0
LINE
5
227
100
AcDbEntity
8
0
100
AcDbLine
62
2
6
CONTINUOUS
10
169.8509398741
20
202.7710309198
11
169.8509398741
21
168.3867911071
0
LINE
5
228
100
AcDbEntity
8
0
100
AcDbLine
62
2
6
CONTINUOUS
10
178.8509398741
20
201.7710309198
11
178.8509398741
21
168.3867911071
0
LINE
5
229
100
AcDbEntity
8
0
100
AcDbLine
62
2
6
CONTINUOUS
10
169.8509398741
20
169.8867911071
11
161.8509398741
21
169.8867911071
0
LINE
5
22A
100
AcDbEntity
8
0
100
AcDbLine
62
2
6
CONTINUOUS
10
161.8509398741
20
169.8867911071
11
174.3509398741
21
169.8867911071
0
LINE
5
22B
100
AcDbEntity
8
0
100
AcDbLine
62
2
6
CONTINUOUS
10
178.8509398741
20
169.8867911071
11
186.8509398741
21
169.8867911071
0
LINE
5
22C
100
AcDbEntity
8
0
100
AcDbLine
62
2
6
CONTINUOUS
10
186.8509398741
20
169.8867911071
11
174.3509398741
21
169.8867911071
0
INSERT
5
22D
100
AcDbEntity
8
0
100
AcDbBlockReference
62
2
6
CONTINUOUS
2
_FILLED
10
169.8509398741
20
169.8867911071
41
  3.500000
42
  3.500000
43
  3.500000
0
INSERT
5
22E
100
AcDbEntity
8
0
100
AcDbBlockReference
62
2
6
CONTINUOUS
2
_FILLED
10
178.8509398741
20
169.8867911071
41
  3.500000
42
  3.500000
43
  3.500000
50
180.000000
0
ENDBLK
5
22F
100
AcDbEntity
8
0
6
BYBLOCK
62
0
100
AcDbBlockEnd
0
BLOCK
5
230
100
AcDbEntity
8
0
100
AcDbBlockBegin
62
2
6
CONTINUOUS
2
*D3
70
65
10
0.0000000000
20
0.0000000000
3
*D3
1

0
TEXT
5
231
100
AcDbEntity
8
0
100
AcDbText
62
2
6
CONTINUOUS
10
205.3311939160
20
192.7142827361
7
STANDARD
40
3.5000000000
1
%%c
50
90.0000000000
41
1.3333333333
72
0
100
AcDbText
0
TEXT
5
232
100
AcDbEntity
8
0
100
AcDbText
62
2
6
CONTINUOUS
10
205.3311939160
20
197.3809494027
7
STANDARD
40
3.5000000000
1
30
50
90.0000000000
41
0.7143000000
72
0
100
AcDbText
0
LINE
5
233
100
AcDbEntity
8
0
100
AcDbLine
62
2
6
CONTINUOUS
10
152.9509398741
20
182.5210309198
11
207.7061939160
21
182.5210309198
0
LINE
5
234
100
AcDbEntity
8
0
100
AcDbLine
62
2
6
CONTINUOUS
10
152.9509398741
20
212.5210309198
11
207.7061939160
21
212.5210309198
0
LINE
5
235
100
AcDbEntity
8
0
100
AcDbLine
62
2
6
CONTINUOUS
10
206.2061939160
20
182.5210309198
11
206.2061939160
21
197.5210309198
0
LINE
5
236
100
AcDbEntity
8
0
100
AcDbLine
62
2
6
CONTINUOUS
10
206.2061939160
20
212.5210309198
11
206.2061939160
21
197.5210309198
0
INSERT
5
237
100
AcDbEntity
8
0
100
AcDbBlockReference
62
2
6
CONTINUOUS
2
_FILLED
10
206.2061939160
20
182.5210309198
41
  3.500000
42
  3.500000
43
  3.500000
50
270.000000
0
INSERT
5
238
100
AcDbEntity
8
0
100
AcDbBlockReference
62
2
6
CONTINUOUS
2
_FILLED
10
206.2061939160
20
212.5210309198
41
  3.500000
42
  3.500000
43
  3.500000
50
 90.000000
0
ENDBLK
5
239
100
AcDbEntity
8
0
6
BYBLOCK
62
0
100
AcDbBlockEnd
0
BLOCK
5
23A
100
AcDbEntity
8
0
100
AcDbBlockBegin
62
2
6
CONTINUOUS
2
*D4
70
65
10
0.0000000000
20
0.0000000000
3
*D4
1

0
TEXT
5
23B
100
AcDbEntity
8
0
100
AcDbText
62
2
6
CONTINUOUS
10
112.5082601931
20
137.6366995150
7
STANDARD
40
3.5000000000
1
%%c
50
90.0000000000
41
1.3333333333
72
0
100
AcDbText
0
TEXT
5
23C
100
AcDbEntity
8
0
100
AcDbText
62
2
6
CONTINUOUS
10
112.5082601931
20
142.3033661816
7
STANDARD
40
3.5000000000
1
18
50
90.0000000000
41
0.7143000000
72
0
100
AcDbText
0
LINE
5
23D
100
AcDbEntity
8
0
100
AcDbLine
62
2
6
CONTINUOUS
10
124.9509398741
20
115.8241051830
11
111.8832601931
21
115.8241051830
0
LINE
5
23E
100
AcDbEntity
8
0
100
AcDbLine
62
2
6
CONTINUOUS
10
124.9509398741
20
133.8241051830
11
111.8832601931
21
133.8241051830
0
LINE
5
23F
100
AcDbEntity
8
0
100
AcDbLine
62
2
6
CONTINUOUS
10
113.3832601931
20
115.8241051830
11
113.3832601931
21
124.8241051830
0
LINE
5
240
100
AcDbEntity
8
0
100
AcDbLine
62
2
6
CONTINUOUS
10
113.3832601931
20
133.8241051830
11
113.3832601931
21
124.8241051830
0
LINE
5
241
100
AcDbEntity
8
0
100
AcDbLine
62
2
6
CONTINUOUS
10
113.3832601931
20
124.8241051830
11
113.3832601931
21
147.3034661816
0
INSERT
5
242
100
AcDbEntity
8
0
100
AcDbBlockReference
62
2
6
CONTINUOUS
2
_FILLED
10
113.3832601931
20
115.8241051830
41
  3.500000
42
  3.500000
43
  3.500000
50
270.000000
0
INSERT
5
243
100
AcDbEntity
8
0
100
AcDbBlockReference
62
2
6
CONTINUOUS
2
_FILLED
10
113.3832601931
20
133.8241051830
41
  3.500000
42
  3.500000
43
  3.500000
50
 90.000000
0
ENDBLK
5
244
100
AcDbEntity
8
0
6
BYBLOCK
62
0
100
AcDbBlockEnd
0
BLOCK
5
245
100
AcDbEntity
8
0
100
AcDbBlockBegin
62
2
6
CONTINUOUS
2
*D5
70
65
10
0.0000000000
20
0.0000000000
3
*D5
1

0
TEXT
5
246
100
AcDbEntity
8
0
100
AcDbText
62
2
6
CONTINUOUS
10
149.9992686286
20
98.2489075610
7
STANDARD
40
3.5000000000
1
53
41
0.7143000000
72
0
100
AcDbText
0
LINE
5
247
100
AcDbEntity
8
0
100
AcDbLine
62
2
6
CONTINUOUS
10
178.8509398741
20
119.5741051830
11
178.8509398741
21
95.8739075610
0
LINE
5
248
100
AcDbEntity
8
0
100
AcDbLine
62
2
6
CONTINUOUS
10
125.4509398741
20
116.0940367092
11
125.4509398741
21
95.8739075610
0
LINE
5
249
100
AcDbEntity
8
0
100
AcDbLine
62
2
6
CONTINUOUS
10
178.8509398741
20
97.3739075610
11
152.1509398741
21
97.3739075610
0
LINE
5
24A
100
AcDbEntity
8
0
100
AcDbLine
62
2
6
CONTINUOUS
10
125.4509398741
20
97.3739075610
11
152.1509398741
21
97.3739075610
0
INSERT
5
24B
100
AcDbEntity
8
0
100
AcDbBlockReference
62
2
6
CONTINUOUS
2
_FILLED
10
178.8509398741
20
97.3739075610
41
  3.500000
42
  3.500000
43
  3.500000
0
INSERT
5
24C
100
AcDbEntity
8
0
100
AcDbBlockReference
62
2
6
CONTINUOUS
2
_FILLED
10
125.4509398741
20
97.3739075610
41
  3.500000
42
  3.500000
43
  3.500000
50
180.000000
0
ENDBLK
5
24D
100
AcDbEntity
8
0
6
BYBLOCK
62
0
100
AcDbBlockEnd
0
BLOCK
5
24E
100
AcDbEntity
8
0
100
AcDbBlockBegin
62
2
6
CONTINUOUS
2
*D6
70
65
10
0.0000000000
20
0.0000000000
3
*D6
1

0
TEXT
5
24F
100
AcDbEntity
8
0
100
AcDbText
62
2
6
CONTINUOUS
10
72.4582340402
20
98.1345378308
7
STANDARD
40
3.5000000000
1
100
41
0.7143000000
72
0
100
AcDbText
0
LINE
5
250
100
AcDbEntity
8
0
100
AcDbLine
62
2
6
CONTINUOUS
10
25.4509656428
20
118.6741380003
11
25.4509656428
21
95.7595378308
0
LINE
5
251
100
AcDbEntity
8
0
100
AcDbLine
62
2
6
CONTINUOUS
10
125.4509398741
20
116.0940367092
11
125.4509398741
21
95.7595378308
0
LINE
5
252
100
AcDbEntity
8
0
100
AcDbLine
62
2
6
CONTINUOUS
10
25.4509656428
20
97.2595378308
11
75.4509527585
21
97.2595378308
0
LINE
5
253
100
AcDbEntity
8
0
100
AcDbLine
62
2
6
CONTINUOUS
10
125.4509398741
20
97.2595378308
11
75.4509527585
21
97.2595378308
0
INSERT
5
254
100
AcDbEntity
8
0
100
AcDbBlockReference
62
2
6
CONTINUOUS
2
_FILLED
10
25.4509656428
20
97.2595378308
41
  3.500000
42
  3.500000
43
  3.500000
50
180.000000
0
INSERT
5
255
100
AcDbEntity
8
0
100
AcDbBlockReference
62
2
6
CONTINUOUS
2
_FILLED
10
125.4509398741
20
97.2595378308
41
  3.500000
42
  3.500000
43
  3.500000
0
ENDBLK
5
256
100
AcDbEntity
8
0
6
BYBLOCK
62
0
100
AcDbBlockEnd
0
BLOCK
5
257
100
AcDbEntity
8
0
100
AcDbBlockBegin
2
_FILLED
70
64
10
0.0000000000
20
0.0000000000
3
_FILLED
1

0
SOLID
5
258
100
AcDbEntity
8
0
6
BYBLOCK
62
0
100
AcDbTrace
10
0.0000000000
20
0.0000000000
11
-1.0000000000
21
0.1857142857
12
-1.0000000000
22
-0.1857142857
13
-1.0000000000
23
-0.1857142857
0
ENDBLK
5
259
100
AcDbEntity
8
0
6
BYBLOCK
62
0
100
AcDbBlockEnd
0
ENDSEC
0
SECTION
2
ENTITIES
0
DIMENSION
5
25A
100
AcDbEntity
8
0
100
AcDbDimension
62
2
6
CONTINUOUS
2
*D0
10
193.9133347770
20
112.5741051830
11
191.2883347770
21
125.2407570594
70
160
42
24.500000
3
DIMSTYLE_1
100
AcDbAlignedDimension
13
159.8384236841
23
137.0741051830
14
159.8384236841
24
112.5741051830
50
270.000000
100
AcDbRotatedDimension
0
DIMENSION
5
25B
100
AcDbEntity
8
0
100
AcDbDimension
62
2
6
CONTINUOUS
2
*D1
10
193.4511486714
20
191.7710309198
11
190.8261486714
21
197.4174521518
70
160
42
11.500000
1
%%c<>
3
DIMSTYLE_2
100
AcDbAlignedDimension
13
178.3509398741
23
203.2710309198
14
178.3509398741
24
191.7710309198
50
270.000000
100
AcDbRotatedDimension
0
DIMENSION
5
25C
100
AcDbEntity
8
0
100
AcDbDimension
62
2
6
CONTINUOUS
2
*D2
10
178.8509398741
20
169.8867911071
11
174.2506784737
21
172.5117911071
70
160
42
9.000000
3
DIMSTYLE_1
100
AcDbAlignedDimension
13
169.8509398741
23
202.7710309198
14
178.8509398741
24
201.7710309198
100
AcDbRotatedDimension
0
DIMENSION
5
25D
100
AcDbEntity
8
0
100
AcDbDimension
62
2
6
CONTINUOUS
2
*D3
10
206.2061939160
20
212.5210309198
11
203.5811939160
21
197.5476660694
70
160
42
30.000000
1
%%c<>
3
DIMSTYLE_1
100
AcDbAlignedDimension
13
152.9509398741
23
182.5210309198
14
152.9509398741
24
212.5210309198
50
90.000000
100
AcDbRotatedDimension
0
DIMENSION
5
25E
100
AcDbEntity
8
0
100
AcDbDimension
62
2
6
CONTINUOUS
2
*D4
10
113.3832601931
20
133.8241051830
11
110.7582601931
21
142.4700828483
70
160
42
18.000000
1
%%c<>
3
DIMSTYLE_1
100
AcDbAlignedDimension
13
124.9509398741
23
115.8241051830
14
124.9509398741
24
133.8241051830
50
90.000000
100
AcDbRotatedDimension
0
DIMENSION
5
25F
100
AcDbEntity
8
0
100
AcDbDimension
62
2
6
CONTINUOUS
2
*D5
10
125.4509398741
20
97.3739075610
11
152.4993186286
21
99.9989075610
70
160
42
53.400000
3
DIMSTYLE_3
100
AcDbAlignedDimension
13
178.8509398741
23
119.5741051830
14
125.4509398741
24
116.0940367092
50
180.000000
100
AcDbRotatedDimension
0
DIMENSION
5
260
100
AcDbEntity
8
0
100
AcDbDimension
62
2
6
CONTINUOUS
2
*D6
10
125.4509398741
20
97.2595378308
11
76.2083090402
21
99.8845378308
70
160
42
99.999974
3
DIMSTYLE_4
100
AcDbAlignedDimension
13
25.4509656428
23
118.6741380003
14
125.4509398741
24
116.0940367092
100
AcDbRotatedDimension
0
LINE
5
261
100
AcDbEntity
8
0
100
AcDbLine
62
7
6
CONTINUOUS
10
0.0000000000
20
0.0000000000
11
210.0000000000
21
0.0000000000
0
LINE
5
262
100
AcDbEntity
8
0
100
AcDbLine
62
7
6
CONTINUOUS
10
0.0000000000
20
0.0000000000
11
0.0000000000
21
297.0000000000
0
LINE
5
263
100
AcDbEntity
8
0
100
AcDbLine
62
7
6
CONTINUOUS
10
210.0000000000
20
0.0000000000
11
210.0000000000
21
297.0000000000
0
LINE
5
264
100
AcDbEntity
8
0
100
AcDbLine
62
7
6
CONTINUOUS
10
0.0000000000
20
297.0000000000
11
210.0000000000
21
297.0000000000
0
LINE
5
265
100
AcDbEntity
8
0
100
AcDbLine
62
7
6
CONTINUOUS
10
25.4509398741
20
203.1710309198
11
25.4509398741
21
191.8710309198
0
LINE
5
266
100
AcDbEntity
8
0
100
AcDbLine
62
7
6
CONTINUOUS
10
26.8009398741
20
204.5210309198
11
26.8009398741
21
190.5210309198
0
LINE
5
267
100
AcDbEntity
8
0
100
AcDbLine
62
7
6
CONTINUOUS
10
25.4509691650
20
203.1710016247
11
26.8009761638
21
204.5209946249
0
LINE
5
268
100
AcDbEntity
8
0
100
AcDbLine
62
7
6
CONTINUOUS
10
25.4509691648
20
191.8710602152
11
26.8009761635
21
190.5210672149
0
LINE
5
269
100
AcDbEntity
8
0
100
AcDbLine
62
7
6
CONTINUOUS
10
141.8002356720
20
185.2710309198
11
140.3406842198
21
185.2710309198
0
LINE
5
26A
100
AcDbEntity
8
0
100
AcDbLine
62
7
6
CONTINUOUS
10
125.4509398741
20
190.5210309198
11
26.8009398741
21
190.5210309198
0
LINE
5
26B
100
AcDbEntity
8
0
100
AcDbLine
62
7
6
CONTINUOUS
10
169.8509398741
20
191.7710309198
11
177.8509398741
21
191.7710309198
0
LINE
5
26C
100
AcDbEntity
8
0
100
AcDbLine
62
7
6
CONTINUOUS
10
165.1461854480
20
192.5210309198
11
166.8509398741
21
192.5210309198
0
LINE
5
26D
100
AcDbEntity
8
0
100
AcDbLine
62
7
6
CONTINUOUS
10
166.8509398741
20
192.7710309198
11
169.8509398741
21
192.7710309198
0
LINE
5
26E
100
AcDbEntity
8
DEFAULT_1
100
AcDbLine
62
2
6
CENTER
10
152.4509398741
20
197.5210309198
11
149.4508398741
21
197.5210309198
0
LINE
5
26F
100
AcDbEntity
8
DEFAULT_1
100
AcDbLine
62
2
6
CENTER
10
22.4509398741
20
197.5210309198
11
149.4508398741
21
197.5210309198
0
LINE
5
270
100
AcDbEntity
8
DEFAULT_1
100
AcDbLine
62
2
6
CENTER
10
155.4510398741
20
197.5210309198
11
181.8509398741
21
197.5210309198
0
LINE
5
271
100
AcDbEntity
8
DEFAULT_1
100
AcDbLine
62
2
6
CENTER
10
152.4509398741
20
197.5210309198
11
155.4510398741
21
197.5210309198
0
LINE
5
272
100
AcDbEntity
8
0
100
AcDbLine
62
7
6
CONTINUOUS
10
135.2275898310
20
185.9356678311
11
126.1952851547
21
188.3241942915
0
LINE
5
273
100
AcDbEntity
8
0
100
AcDbLine
62
7
6
CONTINUOUS
10
135.2275898310
20
209.1063940085
11
126.1952851547
21
206.7178675481
0
LINE
5
274
100
AcDbEntity
8
0
100
AcDbLine
62
7
6
CONTINUOUS
10
166.8509398741
20
202.2710309198
11
169.8509398741
21
202.2710309198
0
LINE
5
275
100
AcDbEntity
8
0
100
AcDbLine
62
7
6
CONTINUOUS
10
165.1461854480
20
202.5210309198
11
166.8509398741
21
202.5210309198
0
LINE
5
276
100
AcDbEntity
8
0
100
AcDbLine
62
7
6
CONTINUOUS
10
169.8509398741
20
203.2710309198
11
177.8509398741
21
203.2710309198
0
LINE
5
277
100
AcDbEntity
8
0
100
AcDbLine
62
7
6
CONTINUOUS
10
125.4509398741
20
204.5210309198
11
26.8009398741
21
204.5210309198
0
LINE
5
278
100
AcDbEntity
8
0
100
AcDbLine
62
7
6
CONTINUOUS
10
141.8002356720
20
209.7710309198
11
140.3406842198
21
209.7710309198
0
LINE
5
279
100
AcDbEntity
8
0
100
AcDbLine
62
7
6
CONTINUOUS
10
152.4509398741
20
202.3707731810
11
148.2509398741
21
199.9459020504
0
LINE
5
27A
100
AcDbEntity
8
0
100
AcDbLine
62
7
6
CONTINUOUS
10
152.4509398741
20
202.1398330733
11
148.4509398741
21
199.8304319966
0
LINE
5
27B
100
AcDbEntity
8
0
100
AcDbLine
62
7
6
CONTINUOUS
10
148.2509398741
20
195.0961597892
11
152.4509398741
21
192.6712886586
0
LINE
5
27C
100
AcDbEntity
8
0
100
AcDbLine
62
7
6
CONTINUOUS
10
148.4509398741
20
195.2116298430
11
152.4509398741
21
192.9022287663
0
LINE
5
27D
100
AcDbEntity
8
0
100
AcDbLine
62
7
6
CONTINUOUS
10
125.4509398741
20
205.7513378363
11
125.4509398741
21
189.2909624459
0
LINE
5
27E
100
AcDbEntity
8
0
100
AcDbLine
62
9
6
CONTINUOUS
10
126.1952851547
20
206.7178675481
11
126.1952851547
21
188.3241942915
0
LINE
5
27F
100
AcDbEntity
8
0
100
AcDbLine
62
7
6
CONTINUOUS
10
152.4509398741
20
192.9022287663
11
156.4509398741
21
195.2116298430
0
LINE
5
280
100
AcDbEntity
8
0
100
AcDbLine
62
7
6
CONTINUOUS
10
152.4509398741
20
192.6712886586
11
156.6509398741
21
195.0961597892
0
LINE
5
281
100
AcDbEntity
8
0
100
AcDbLine
62
7
6
CONTINUOUS
10
156.4509398741
20
199.8304319966
11
152.4509398741
21
202.1398330733
0
LINE
5
282
100
AcDbEntity
8
0
100
AcDbLine
62
7
6
CONTINUOUS
10
156.6509398741
20
199.9459020504
11
152.4509398741
21
202.3707731810
0
LINE
5
283
100
AcDbEntity
8
0
100
AcDbLine
62
9
6
CONTINUOUS
10
135.2275898310
20
209.1063940085
11
135.2275898310
21
185.9356678311
0
LINE
5
284
100
AcDbEntity
8
0
100
AcDbLine
62
9
6
CONTINUOUS
10
145.1890959743
20
190.1725524684
11
147.6097106319
21
192.6220516131
0
LINE
5
285
100
AcDbEntity
8
0
100
AcDbLine
62
9
6
CONTINUOUS
10
145.1890933207
20
204.8695192357
11
147.6097094654
21
202.4200066015
0
LINE
5
286
100
AcDbEntity
8
0
100
AcDbLine
62
9
6
CONTINUOUS
10
140.3406842198
20
209.7710309198
11
140.3406842198
21
185.2710309198
0
LINE
5
287
100
AcDbEntity
8
0
100
AcDbLine
62
9
6
CONTINUOUS
10
141.8002356720
20
185.2710309198
11
141.8002356720
21
209.7710309198
0
LINE
5
288
100
AcDbEntity
8
0
100
AcDbLine
62
9
6
CONTINUOUS
10
160.4319483324
20
208.5935972560
11
160.3755267630
21
208.5153199840
0
LWPOLYLINE
5
289
100
AcDbEntity
8
0
100
AcDbPolyline
62
7
6
CONTINUOUS
90
3
70
0
10
158.1158819252
20
184.8346595107
10
158.5657944929
20
185.1401079698
10
159.0386834723
20
185.4650940764
0
LINE
5
28A
100
AcDbEntity
8
0
100
AcDbLine
62
7
6
CONTINUOUS
10
158.1201302158
20
184.8375271783
11
158.5705507458
21
185.1433561729
0
LINE
5
28B
100
AcDbEntity
8
0
100
AcDbLine
62
7
6
CONTINUOUS
10
157.6874085574
20
184.5470069686
11
158.1201302158
21
184.8375271783
0
LINE
5
28C
100
AcDbEntity
8
0
100
AcDbLine
62
7
6
CONTINUOUS
10
157.2840830263
20
184.2789800546
11
157.6911384894
21
184.5494978852
0
LINE
5
28D
100
AcDbEntity
8
0
100
AcDbLine
62
7
6
CONTINUOUS
10
156.9081647871
20
184.0314704372
11
157.2872970610
21
184.2811056114
0
LINE
5
28E
100
AcDbEntity
8
0
100
AcDbLine
62
7
6
CONTINUOUS
10
156.5621083252
20
183.8055012637
11
156.9108779994
21
184.0332491953
0
LINE
5
28F
100
AcDbEntity
8
0
100
AcDbLine
62
7
6
CONTINUOUS
10
156.2477046775
20
183.6017164888
11
156.5643485314
21
183.8069583169
0
LINE
5
290
100
AcDbEntity
8
0
100
AcDbLine
62
7
6
CONTINUOUS
10
155.9666368538
20
183.4207167200
11
156.2495049154
21
183.6028793929
0
LINE
5
291
100
AcDbEntity
8
0
100
AcDbLine
62
7
6
CONTINUOUS
10
155.7204820309
20
183.2630914873
11
155.9680365345
21
183.4216152955
0
LINE
5
292
100
AcDbEntity
8
0
100
AcDbLine
62
7
6
CONTINUOUS
10
155.3378299421
20
183.0196654373
11
155.7215247343
21
183.2637575184
0
LINE
5
293
100
AcDbEntity
8
0
100
AcDbLine
62
7
6
CONTINUOUS
10
155.0303743373
20
182.8254450309
11
155.3383038854
21
183.0199657763
0
LINE
5
294
100
AcDbEntity
8
0
100
AcDbLine
62
7
6
CONTINUOUS
10
155.3383038854
20
212.0220960633
11
155.0303821159
21
212.2166119210
0
LINE
5
295
100
AcDbEntity
8
0
100
AcDbLine
62
7
6
CONTINUOUS
10
155.7215247343
20
211.7783043212
11
155.3378313026
21
212.0223955401
0
LINE
5
296
100
AcDbEntity
8
0
100
AcDbLine
62
7
6
CONTINUOUS
10
155.9680365345
20
211.6204465441
11
155.7204839947
21
211.7789690980
0
LINE
5
297
100
AcDbEntity
8
0
100
AcDbLine
62
7
6
CONTINUOUS
10
156.2495049154
20
211.4391824467
11
155.9666389403
21
211.6213437801
0
LINE
5
298
100
AcDbEntity
8
0
100
AcDbLine
62
7
6
CONTINUOUS
10
156.5643485314
20
211.2351035227
11
156.2477067753
21
211.4403439957
0
LINE
5
299
100
AcDbEntity
8
0
100
AcDbLine
62
7
6
CONTINUOUS
10
156.9108779994
20
211.0088126443
11
156.5621103733
21
211.2365592438
0
LINE
5
29A
100
AcDbEntity
8
0
100
AcDbLine
62
9
6
CONTINUOUS
10
160.4319483486
20
186.4484645952
11
160.3755267631
21
186.5267418556
0
LINE
5
29B
100
AcDbEntity
8
0
100
AcDbLine
62
7
6
CONTINUOUS
10
148.2509398741
20
199.9459020504
11
148.2509398741
21
195.0961597892
0
LINE
5
29C
100
AcDbEntity
8
0
100
AcDbLine
62
7
6
CONTINUOUS
10
148.4509398741
20
199.8304319966
11
148.4509398741
21
195.2116298430
0
LINE
5
29D
100
AcDbEntity
8
0
100
AcDbLine
62
7
6
CONTINUOUS
10
160.0062923017
20
186.1436910709
11
160.4319478122
21
186.4484653053
0
LWPOLYLINE
5
29E
100
AcDbEntity
8
0
100
AcDbPolyline
62
7
6
CONTINUOUS
90
3
70
0
10
159.0334463676
20
185.4614719428
10
159.5149837456
20
185.7967534918
10
160.0062923017
20
186.1436910709
0
LWPOLYLINE
5
29F
100
AcDbEntity
8
0
100
AcDbPolyline
62
7
6
CONTINUOUS
90
4
70
0
10
159.0386834723
20
185.4650940764
10
159.5206712469
20
185.8007409786
10
160.0123947341
20
186.1480325224
10
160.4319478404
20
186.4484653004
0
LWPOLYLINE
5
2A0
100
AcDbEntity
8
0
100
AcDbPolyline
62
7
6
CONTINUOUS
90
8
70
0
10
160.0095234747
20
208.8960572133
10
159.5206712469
20
209.2413208610
10
159.0386834723
20
209.5769677632
10
158.5705507458
20
209.8987056667
10
158.1201302158
20
210.2045346613
10
157.6911384894
20
210.4925639544
10
157.2872970610
20
210.7609562282
10
156.9081667332
20
211.0105901266
0
LWPOLYLINE
5
2A1
100
AcDbEntity
8
0
100
AcDbPolyline
62
7
6
CONTINUOUS
90
8
70
0
10
160.4319478122
20
208.5935965343
10
160.0062926240
20
208.8983705395
10
159.5149843876
20
209.2453078977
10
159.0334473223
20
209.5805892365
10
158.5657957367
20
209.9019530204
10
158.1158834196
20
210.2074013203
10
157.6874102569
20
210.4950537361
10
157.2840848663
20
210.7630805682
0
LINE
5
2A2
100
AcDbEntity
8
DEFAULT_1
100
AcDbLine
62
2
6
CENTER
10
152.4509398741
20
197.5210309198
11
152.4509398741
21
180.4393058393
0
LINE
5
2A3
100
AcDbEntity
8
DEFAULT_1
100
AcDbLine
62
2
6
CENTER
10
152.4509398741
20
197.5210309198
11
152.4509398741
21
214.5171941641
0
LINE
5
2A4
100
AcDbEntity
8
0
100
AcDbLine
62
7
6
CONTINUOUS
10
156.4509398741
20
195.2116298430
11
156.4509398741
21
199.8304319966
0
LINE
5
2A5
100
AcDbEntity
8
0
100
AcDbLine
62
7
6
CONTINUOUS
10
156.6509398741
20
195.0961597892
11
156.6509398741
21
199.9459020504
0
LINE
5
2A6
100
AcDbEntity
8
0
100
AcDbLine
62
7
6
CONTINUOUS
10
177.8509398741
20
191.7710309198
11
178.8509398741
21
192.7710309198
0
LINE
5
2A7
100
AcDbEntity
8
0
100
AcDbLine
62
7
6
CONTINUOUS
10
177.8509398741
20
203.2710309198
11
178.8509398741
21
202.2710309198
0
LINE
5
2A8
100
AcDbEntity
8
0
100
AcDbLine
62
7
6
CONTINUOUS
10
166.8509398741
20
192.5210309198
11
166.8509398741
21
202.5210309198
0
LINE
5
2A9
100
AcDbEntity
8
0
100
AcDbLine
62
7
6
CONTINUOUS
10
169.8509398741
20
191.7710309198
11
169.8509398741
21
203.2710309198
0
LINE
5
2AA
100
AcDbEntity
8
0
100
AcDbLine
62
7
6
CONTINUOUS
10
177.8509398741
20
191.7710309198
11
177.8509398741
21
203.2710309198
0
LINE
5
2AB
100
AcDbEntity
8
0
100
AcDbLine
62
7
6
CONTINUOUS
10
178.8509398741
20
192.7710309198
11
178.8509398741
21
202.2710309198
0
LINE
5
2AC
100
AcDbEntity
8
0
100
AcDbLine
62
7
6
CONTINUOUS
10
25.4509398741
20
130.4741051698
11
25.4509398741
21
119.1741051963
0
LINE
5
2AD
100
AcDbEntity
8
0
100
AcDbLine
62
7
6
CONTINUOUS
10
26.8009398908
20
131.8241051830
11
26.8009398908
21
117.8241051830
0
LINE
5
2AE
100
AcDbEntity
8
0
100
AcDbLine
62
7
6
CONTINUOUS
10
25.4509691604
20
130.4740758832
11
26.8009761745
21
131.8240688989
0
LINE
5
2AF
100
AcDbEntity
8
0
100
AcDbLine
62
7
6
CONTINUOUS
10
25.4509691604
20
119.1741344828
11
26.8009761745
21
117.8241414671
0
LINE
5
2B0
100
AcDbEntity
8
0
100
AcDbLine
62
7
6
CONTINUOUS
10
140.3406842198
20
112.5741051830
11
159.3384285311
21
112.5741051830
0
LINE
5
2B1
100
AcDbEntity
8
0
100
AcDbLine
62
9
6
CONTINUOUS
10
145.1890933207
20
113.9491199368
11
162.7821728583
21
113.9491051818
0
LINE
5
2B2
100
AcDbEntity
8
0
100
AcDbLine
62
7
6
CONTINUOUS
10
125.4509398741
20
117.8241051830
11
26.8009398908
21
117.8241051830
0
LINE
5
2B3
100
AcDbEntity
8
0
100
AcDbLine
62
9
6
CONTINUOUS
10
160.3755267630
20
118.3955337545
11
166.0035571858
21
118.3955311575
0
LINE
5
2B4
100
AcDbEntity
8
0
100
AcDbLine
62
7
6
CONTINUOUS
10
169.8509398741
20
119.0741051830
11
177.8509398741
21
119.0741051830
0
LINE
5
2B5
100
AcDbEntity
8
0
100
AcDbLine
62
7
6
CONTINUOUS
10
159.8472209704
20
119.8241051830
11
166.8509398741
21
119.8241051830
0
LINE
5
2B6
100
AcDbEntity
8
0
100
AcDbLine
62
7
6
CONTINUOUS
10
166.8509398741
20
120.0741051830
11
169.8509398741
21
120.0741051830
0
LINE
5
2B7
100
AcDbEntity
8
0
100
AcDbLine
62
9
6
CONTINUOUS
10
158.4567064208
20
120.0968258000
11
160.3903913673
21
120.0968321374
0
LINE
5
2B8
100
AcDbEntity
8
DEFAULT_1
100
AcDbLine
62
2
6
CENTER
10
22.4509398741
20
124.8241051830
11
125.4509398741
21
124.8241051830
0
LINE
5
2B9
100
AcDbEntity
8
DEFAULT_1
100
AcDbLine
62
2
6
CENTER
10
155.4971199383
20
124.8241051830
11
185.8220465319
21
124.8241051830
0
LINE
5
2BA
100
AcDbEntity
8
0
100
AcDbLine
62
7
6
CONTINUOUS
10
125.4509398741
20
124.8241051830
11
155.4971199383
21
124.8241051830
0
LWPOLYLINE
5
2BB
100
AcDbEntity
8
0
100
AcDbPolyline
62
7
6
CONTINUOUS
90
19
70
0
10
159.8472641266
20
119.8241075210
10
159.4888697015
20
119.8415464635
10
159.0827423107
20
119.9037234444
10
158.6879991585
20
120.0086280156
10
158.3069109344
20
120.1539466165
10
157.9419101954
20
120.3372862142
10
157.5955778094
20
120.5560743086
10
157.2702799903
20
120.8075335841
10
156.9681456272
20
121.0887678068
10
156.6912214730
20
121.3965567764
10
156.4407869292
20
121.7281171585
10
156.2181212079
20
122.0804967142
10
156.0241114306
20
122.4509816623
10
155.8595857855
20
122.8368887803
10
155.7251682020
20
123.2355142077
10
155.6214290200
20
123.6442036593
10
155.5487235245
20
124.0604956465
10
155.5073701052
20
124.4824913371
10
155.4970630456
20
124.8241051830
0
LINE
5
2BC
100
AcDbEntity
8
0
100
AcDbLine
62
7
6
CONTINUOUS
10
135.2275898310
20
113.2387420943
11
126.1952851547
21
115.6272685547
0
LINE
5
2BD
100
AcDbEntity
8
0
100
AcDbLine
62
7
6
CONTINUOUS
10
135.2275898310
20
136.4094682717
11
126.1952851547
21
134.0209418113
0
LINE
5
2BE
100
AcDbEntity
8
0
100
AcDbLine
62
9
6
CONTINUOUS
10
160.3903914391
20
129.5513782656
11
158.4565263473
21
129.5513845679
0
LINE
5
2BF
100
AcDbEntity
8
0
100
AcDbLine
62
7
6
CONTINUOUS
10
166.8509398741
20
129.5741051830
11
169.8509398741
21
129.5741051830
0
LINE
5
2C0
100
AcDbEntity
8
0
100
AcDbLine
62
7
6
CONTINUOUS
10
159.8472209704
20
129.8241051830
11
159.8472660871
21
129.8241051860
0
LINE
5
2C1
100
AcDbEntity
8
0
100
AcDbLine
62
7
6
CONTINUOUS
10
159.8472209704
20
129.8241051830
11
166.8509398741
21
129.8241051830
0
LINE
5
2C2
100
AcDbEntity
8
0
100
AcDbLine
62
7
6
CONTINUOUS
10
169.8509398741
20
130.5741051830
11
177.8509398741
21
130.5741051830
0
LINE
5
2C3
100
AcDbEntity
8
0
100
AcDbLine
62
9
6
CONTINUOUS
10
166.0035571858
20
131.2526792085
11
160.3755267631
21
131.2526766116
0
LINE
5
2C4
100
AcDbEntity
8
0
100
AcDbLine
62
7
6
CONTINUOUS
10
125.4509398741
20
131.8241051830
11
26.8009398908
21
131.8241051830
0
LINE
5
2C5
100
AcDbEntity
8
0
100
AcDbLine
62
9
6
CONTINUOUS
10
162.7821728583
20
135.6991051843
11
145.1890959743
21
135.6990988669
0
LINE
5
2C6
100
AcDbEntity
8
0
100
AcDbLine
62
7
6
CONTINUOUS
10
159.3384285303
20
137.0741051830
11
140.3406842198
21
137.0741051830
0
LINE
5
2C7
100
AcDbEntity
8
0
100
AcDbLine
62
7
6
CONTINUOUS
10
125.4509398741
20
133.0541736569
11
125.4509398741
21
116.5940367092
0
LINE
5
2C8
100
AcDbEntity
8
0
100
AcDbLine
62
9
6
CONTINUOUS
10
126.1952851547
20
134.0209418113
11
126.1952851547
21
115.6272685547
0
LINE
5
2C9
100
AcDbEntity
8
0
100
AcDbLine
62
9
6
CONTINUOUS
10
135.2275898310
20
136.4094682717
11
135.2275898310
21
113.2387420943
0
LINE
5
2CA
100
AcDbEntity
8
0
100
AcDbLine
62
9
6
CONTINUOUS
10
140.3406842198
20
137.0741051830
11
140.3406842198
21
112.5741051830
0
LINE
5
2CB
100
AcDbEntity
8
0
100
AcDbLine
62
9
6
CONTINUOUS
10
141.8002356720
20
112.5741051830
11
141.8002356720
21
137.0741051830
0
LINE
5
2CC
100
AcDbEntity
8
DEFAULT_1
100
AcDbLine
62
2
6
CENTER
10
152.4509398741
20
108.6991043163
11
152.4509398741
21
140.9491060498
0
LWPOLYLINE
5
2CD
100
AcDbEntity
8
0
100
AcDbPolyline
62
7
6
CONTINUOUS
90
19
70
0
10
155.4970631382
20
124.8241051830
10
155.5077779684
20
125.1724153319
10
155.5496233758
20
125.5942965944
10
155.6228058082
20
126.0104280113
10
155.7270051353
20
126.4189114219
10
155.8618602956
20
126.8172836517
10
156.0268002370
20
127.2028947666
10
156.2211984068
20
127.5730480788
10
156.4442267247
20
127.9250622570
10
156.6949981479
20
128.2562300418
10
156.9722316112
20
128.5635965843
10
157.2746480471
20
128.8443837737
10
157.6001928947
20
129.0953655572
10
157.9467317453
20
129.3136487161
10
158.3118902285
20
129.4964560162
10
158.6930781727
20
129.6412200063
10
159.0878625069
20
129.7455556826
10
159.4939709798
20
129.8071566923
10
159.8472660872
20
129.8241029259
0
LINE
5
2CE
100
AcDbEntity
8
0
100
AcDbLine
62
7
6
CONTINUOUS
10
177.8509398741
20
119.0741051830
11
178.8509398741
21
120.0741051830
0
LINE
5
2CF
100
AcDbEntity
8
0
100
AcDbLine
62
7
6
CONTINUOUS
10
177.8509398741
20
130.5741051830
11
178.8509398741
21
129.5741051830
0
LINE
5
2D0
100
AcDbEntity
8
0
100
AcDbLine
62
7
6
CONTINUOUS
10
166.8509398741
20
119.8241051830
11
166.8509398741
21
129.8241051830
0
LINE
5
2D1
100
AcDbEntity
8
0
100
AcDbLine
62
7
6
CONTINUOUS
10
169.8509398741
20
119.0742056850
11
169.8509398741
21
130.5740046810
0
LINE
5
2D2
100
AcDbEntity
8
0
100
AcDbLine
62
7
6
CONTINUOUS
10
177.8509398741
20
119.0741051830
11
177.8509398741
21
130.5741051830
0
LINE
5
2D3
100
AcDbEntity
8
0
100
AcDbLine
62
7
6
CONTINUOUS
10
178.8509398741
20
120.0741051830
11
178.8509398741
21
129.5741051830
0
CIRCLE
5
2D4
100
AcDbEntity
8
0
100
AcDbCircle
62
7
6
CONTINUOUS
10
152.4509398741
20
197.5210309198
40
2.1000000000
0
CIRCLE
5
2D5
100
AcDbEntity
8
0
100
AcDbCircle
62
7
6
CONTINUOUS
10
152.4509398741
20
197.5210309198
40
4.0000000000
0
CIRCLE
5
2D6
100
AcDbEntity
8
0
100
AcDbCircle
62
7
6
CONTINUOUS
10
152.4509398741
20
197.5210309198
40
2.5000000000
0
ARC
5
2D7
100
AcDbEntity
8
0
100
AcDbCircle
62
7
6
CONTINUOUS
10
152.4509398741
20
197.5210309198
40
15.0000000000
100
AcDbArc
50
241.0449666750
51
278.4039804461
0
ARC
5
2D8
100
AcDbEntity
8
0
100
AcDbCircle
62
7
6
CONTINUOUS
10
152.4509398741
20
197.5210309198
40
15.0000000000
100
AcDbArc
50
81.5960200590
51
118.9550405096
0
ARC
5
2D9
100
AcDbEntity
8
0
100
AcDbCircle
62
7
6
CONTINUOUS
10
152.4509398741
20
197.5210309198
40
13.6491106407
100
AcDbArc
50
305.7837318025
51
54.2162682788
0
ARC
5
2DA
100
AcDbEntity
8
0
100
AcDbCircle
62
7
6
CONTINUOUS
10
154.4970642075
20
183.6713627550
40
0.9999989690
100
AcDbArc
50
278.4039737777
51
302.2294564775
0
ARC
5
2DB
100
AcDbEntity
8
0
100
AcDbCircle
62
7
6
CONTINUOUS
10
154.4970640943
20
211.3706991555
40
0.9999989900
100
AcDbArc
50
57.7700095083
51
81.5960267894
0
ARC
5
2DC
100
AcDbEntity
8
0
100
AcDbCircle
62
7
6
CONTINUOUS
10
141.8002356720
20
178.2710371395
40
6.9999977383
100
AcDbArc
50
61.0449701671
51
90.0000000000
0
ARC
5
2DD
100
AcDbEntity
8
0
100
AcDbCircle
62
7
6
CONTINUOUS
10
141.8002356720
20
216.7710203253
40
6.9999961474
100
AcDbArc
50
270.0000000000
51
298.9550317728
0
ARC
5
2DE
100
AcDbEntity
8
0
100
AcDbCircle
62
7
6
CONTINUOUS
10
140.3406842198
20
189.7710309198
40
20.0000000000
100
AcDbArc
50
90.0000000000
51
104.8123838070
0
ARC
5
2DF
100
AcDbEntity
8
0
100
AcDbCircle
62
7
6
CONTINUOUS
10
140.3406842198
20
205.2710309198
40
20.0000000000
100
AcDbArc
50
255.1876161930
51
270.0000000000
0
ARC
5
2E0
100
AcDbEntity
8
0
100
AcDbCircle
62
7
6
CONTINUOUS
10
126.4509398741
20
205.7510993937
40
1.0000000000
100
AcDbArc
50
104.8123838070
51
180.0000000000
0
ARC
5
2E1
100
AcDbEntity
8
0
100
AcDbCircle
62
7
6
CONTINUOUS
10
126.4509398741
20
189.2909624459
40
1.0000000000
100
AcDbArc
50
180.0000000000
51
255.1876161930
0
ARC
5
2E2
100
AcDbEntity
8
0
100
AcDbCircle
62
9
6
CONTINUOUS
10
152.4509398741
20
197.5210309198
40
13.5526172262
100
AcDbArc
50
305.7837317213
51
54.2162682788
0
ARC
5
2E3
100
AcDbEntity
8
0
100
AcDbCircle
62
9
6
CONTINUOUS
10
152.4509398741
20
197.5210309198
40
10.3312253514
100
AcDbArc
50
225.3397417161
51
134.6602302978
0
ARC
5
2E4
100
AcDbEntity
8
0
100
AcDbCircle
62
9
6
CONTINUOUS
10
152.4509398741
20
197.5210309198
40
6.8874838100
100
AcDbArc
50
225.3397048608
51
134.6603232378
0
ARC
5
2E5
100
AcDbEntity
8
0
100
AcDbCircle
62
7
6
CONTINUOUS
10
165.1000505148
20
130.8241051830
40
1.0000000000
100
AcDbArc
50
270.0000000000
51
25.3770984148
0
ARC
5
2E6
100
AcDbEntity
8
0
100
AcDbCircle
62
7
6
CONTINUOUS
10
126.4509398741
20
133.0541736569
40
1.0000000000
100
AcDbArc
50
104.8123838070
51
180.0000000000
0
ARC
5
2E7
100
AcDbEntity
8
0
100
AcDbCircle
62
7
6
CONTINUOUS
10
140.3406842198
20
117.0741051830
40
20.0000000000
100
AcDbArc
50
90.0000000000
51
104.8123838070
0
ARC
5
2E8
100
AcDbEntity
8
0
100
AcDbCircle
62
7
6
CONTINUOUS
10
159.3384285311
20
132.0741051830
40
5.0000000000
100
AcDbArc
50
46.4688478533
51
90.0000000000
0
ARC
5
2E9
100
AcDbEntity
8
0
100
AcDbCircle
62
7
6
CONTINUOUS
10
152.4509398741
20
124.8241051830
40
15.0000000000
100
AcDbArc
50
25.3769445177
51
46.4688478395
0
ARC
5
2EA
100
AcDbEntity
8
0
100
AcDbCircle
62
7
6
CONTINUOUS
10
165.1000505148
20
118.8241051830
40
1.0000000000
100
AcDbArc
50
334.6229015852
51
90.0000000000
0
ARC
5
2EB
100
AcDbEntity
8
0
100
AcDbCircle
62
7
6
CONTINUOUS
10
126.4509398741
20
116.5940367092
40
1.0000000000
100
AcDbArc
50
180.0000000000
51
255.1876161930
0
ARC
5
2EC
100
AcDbEntity
8
0
100
AcDbCircle
62
7
6
CONTINUOUS
10
140.3406842198
20
132.5741051830
40
20.0000000000
100
AcDbArc
50
255.1876161930
51
270.0000000000
0
ARC
5
2ED
100
AcDbEntity
8
0
100
AcDbCircle
62
7
6
CONTINUOUS
10
159.3384285311
20
117.5741051830
40
5.0000000000
100
AcDbArc
50
270.0000000000
51
313.5311521467
0
ARC
5
2EE
100
AcDbEntity
8
0
100
AcDbCircle
62
7
6
CONTINUOUS
10
152.4509398741
20
124.8241051830
40
15.0000000000
100
AcDbArc
50
313.5311521605
51
334.6230554823
0
SPLINE
5
2EF
100
AcDbEntity
8
0
100
AcDbSpline
62
7
6
CONTINUOUS
70
0
71
3
72
11
73
7
74
5
42
0.0000001000
43
0.0000001000
44
0.0000000001
12
0.1997017833
22
-0.1152978783
32
0.0000000000
13
-0.2135197619
23
-0.1152978783
33
0.0000000000
40
0.0000000000
40
0.0000000000
40
0.0000000000
40
0.0000000000
40
0.1057901811
40
0.4382465929
40
0.9735264593
40
1.0000000000
40
1.0000000000
40
1.0000000000
40
1.0000000000
10
156.6509398741
20
199.9459020504
30
0.0000000000
10
156.6579820367
20
199.9418362559
30
0.0000000000
10
156.5935051485
20
199.9249932885
30
0.0000000000
10
156.5631180783
20
199.8875781100
30
0.0000000000
10
156.4928907066
20
199.8532112784
30
0.0000000000
10
156.4527309241
20
199.8316216198
30
0.0000000000
10
156.4508467161
20
199.8306041721
30
0.0000000000
11
156.6509398741
21
199.9459020504
31
0.0000000000
11
156.6298133863
21
199.9337046670
31
0.0000000000
11
156.5634212480
21
199.8953731480
31
0.0000000000
11
156.4565249041
21
199.8336565151
31
0.0000000000
11
156.4508467161
21
199.8306041721
31
0.0000000000
0
SPLINE
5
2F0
100
AcDbEntity
8
0
100
AcDbSpline
62
7
6
CONTINUOUS
70
0
71
3
72
11
73
7
74
5
42
0.0000001000
43
0.0000001000
44
0.0000000001
12
0.1997046030
22
0.1152995063
32
0.0000000000
13
-0.0069085800
23
-0.2425650241
33
0.0000000000
40
0.0000000000
40
0.0000000000
40
0.0000000000
40
0.0000000000
40
0.1057886874
40
0.4382404052
40
0.9735127138
40
1.0000000000
40
1.0000000000
40
1.0000000000
40
1.0000000000
10
152.4509398741
20
202.3707731810
30
0.0000000000
10
152.4579820367
20
202.3748389755
30
0.0000000000
10
152.4403300303
20
202.3105788686
30
0.0000000000
10
152.4575389902
20
202.2655553046
30
0.0000000000
10
152.4521877691
20
202.1875519693
30
0.0000000000
10
152.4508050857
20
202.1419766887
30
0.0000000000
10
152.4507440892
20
202.1398350590
30
0.0000000000
11
152.4509398741
21
202.3707731810
31
0.0000000000
11
152.4509398741
21
202.3463784141
31
0.0000000000
11
152.4509398741
21
202.2697153763
31
0.0000000000
11
152.4509398741
21
202.1462821105
31
0.0000000000
11
152.4507440892
21
202.1398350590
31
0.0000000000
0
SPLINE
5
2F1
100
AcDbEntity
8
0
100
AcDbSpline
62
9
6
CONTINUOUS
70
0
71
3
72
15
73
11
74
9
42
0.0000001000
43
0.0000001000
44
0.0000000001
12
-5.2725989221
22
-3.8004434770
32
0.0000000000
13
-5.4884176880
23
-3.4815390432
33
0.0000000000
40
0.0000000000
40
0.0000000000
40
0.0000000000
40
0.0000000000
40
0.1560269839
40
0.3185323138
40
0.4756303211
40
0.6192802972
40
0.7475231964
40
0.8577983641
40
0.9470441698
40
1.0000000000
40
1.0000000000
40
1.0000000000
40
1.0000000000
10
160.3755267630
20
186.5267418556
30
0.0000000000
10
160.1013041941
20
186.3290846112
30
0.0000000000
10
159.5391112558
20
185.9288307651
30
0.0000000000
10
158.6931249744
20
185.3404565061
30
0.0000000000
10
157.8633458673
20
184.7758393075
30
0.0000000000
10
157.0902983860
20
184.2598733446
30
0.0000000000
10
156.3981729348
20
183.8054439936
30
0.0000000000
10
155.8021113321
20
183.4194908156
30
0.0000000000
10
155.3415421421
20
183.1243987863
30
0.0000000000
10
155.0814541315
20
182.9592700692
30
0.0000000000
10
154.9845728931
20
182.8978141390
30
0.0000000000
11
160.3755267630
21
186.5267418556
31
0.0000000000
11
159.5494969607
21
185.9384626720
31
0.0000000000
11
158.6824713480
21
185.3352739161
31
0.0000000000
11
157.8383703267
21
184.7607670726
31
0.0000000000
11
157.0618488137
21
184.2423793767
31
0.0000000000
11
156.3651139477
21
183.7848751550
31
0.0000000000
11
155.7635245862
21
183.3952610548
31
0.0000000000
11
155.2750727161
21
183.0824068757
31
0.0000000000
11
154.9845728931
21
182.8978141390
31
0.0000000000
0
SPLINE
5
2F2
100
AcDbEntity
8
0
100
AcDbSpline
62
9
6
CONTINUOUS
70
0
71
3
72
8
73
4
74
2
42
0.0000001000
43
0.0000001000
44
0.0000000001
12
-0.0656320644
22
-0.0416332370
32
0.0000000000
13
-0.0656371577
23
-0.0416254696
33
0.0000000000
40
0.0000000000
40
0.0000000000
40
0.0000000000
40
0.0000000000
40
1.0000000000
40
1.0000000000
40
1.0000000000
40
1.0000000000
10
154.9845728931
20
182.8978141390
30
0.0000000000
10
154.9626955383
20
182.8839363933
30
0.0000000000
10
154.9408169305
20
182.8700605821
30
0.0000000000
10
154.9189378780
20
182.8561854256
30
0.0000000000
11
154.9845728931
21
182.8978141390
31
0.0000000000
11
154.9189378780
21
182.8561854256
31
0.0000000000
0
SPLINE
5
2F3
100
AcDbEntity
8
0
100
AcDbSpline
62
9
6
CONTINUOUS
70
0
71
3
72
9
73
5
74
3
42
0.0000001000
43
0.0000001000
44
0.0000000001
12
-0.2759714840
22
-0.1750143216
32
0.0000000000
13
-0.2774852334
23
-0.1726055600
33
0.0000000000
40
0.0000000000
40
0.0000000000
40
0.0000000000
40
0.0000000000
40
0.7589516914
40
1.0000000000
40
1.0000000000
40
1.0000000000
40
1.0000000000
10
154.9189378780
20
182.8561854256
30
0.0000000000
10
154.8491215364
20
182.8119096204
30
0.0000000000
10
154.7571250735
20
182.7535802968
30
0.0000000000
10
154.6647497290
20
182.6958543572
30
0.0000000000
10
154.6424539470
20
182.6819855978
30
0.0000000000
11
154.9189378780
21
182.8561854256
31
0.0000000000
11
154.7092615555
21
182.7237188966
31
0.0000000000
11
154.6424539470
21
182.6819855978
31
0.0000000000
0
SPLINE
5
2F4
100
AcDbEntity
8
0
100
AcDbSpline
62
9
6
CONTINUOUS
70
0
71
3
72
15
73
11
74
9
42
0.0000001000
43
0.0000001000
44
0.0000000001
12
-0.0077951270
22
5.7765934159
32
0.0000000000
13
0.0000198972
23
5.7765970250
33
0.0000000000
40
0.0000000000
40
0.0000000000
40
0.0000000000
40
0.0000000000
40
0.0185824196
40
0.0736178776
40
0.1642579493
40
0.2900404124
40
0.4467380062
40
0.6241413151
40
0.8111982392
40
1.0000000000
40
1.0000000000
40
1.0000000000
40
1.0000000000
10
145.1891925368
20
184.3959775634
30
0.0000000000
10
145.1891442526
20
184.4317585909
30
0.0000000000
10
145.1890184540
20
184.5735121363
30
0.0000000000
10
145.1891470369
20
184.8897961861
30
0.0000000000
10
145.1890551884
20
185.4124972989
30
0.0000000000
10
145.1890972912
20
186.1309521878
30
0.0000000000
10
145.1890806637
20
187.0164724771
30
0.0000000000
10
145.1890927720
20
188.0199787293
30
0.0000000000
10
145.1891059079
20
189.0853025913
30
0.0000000000
10
145.1890723850
20
189.8090306448
30
0.0000000000
10
145.1890736372
20
190.1725745414
30
0.0000000000
11
145.1891925368
21
184.3959775634
31
0.0000000000
11
145.1890924321
21
184.5033206663
31
0.0000000000
11
145.1890958538
21
184.8212383292
31
0.0000000000
11
145.1890842066
21
185.3448294976
31
0.0000000000
11
145.1890854577
21
186.0714241000
31
0.0000000000
11
145.1890857770
21
186.9766029544
31
0.0000000000
11
145.1890925917
21
188.0013903806
31
0.0000000000
11
145.1890953531
21
189.0819428518
31
0.0000000000
11
145.1890736372
21
190.1725745414
31
0.0000000000
0
SPLINE
5
2F5
100
AcDbEntity
8
0
100
AcDbSpline
62
7
6
CONTINUOUS
70
0
71
3
72
11
73
7
74
5
42
0.0000001000
43
0.0000001000
44
0.0000000001
12
0.0000000000
22
0.2305957567
32
0.0000000000
13
0.2066107726
23
-0.1272645989
33
0.0000000000
40
0.0000000000
40
0.0000000000
40
0.0000000000
40
0.0000000000
40
0.1057901811
40
0.4382465929
40
0.9735264593
40
1.0000000000
40
1.0000000000
40
1.0000000000
40
1.0000000000
10
148.2509398741
20
199.9459020504
30
0.0000000000
10
148.2509398741
20
199.9540336393
30
0.0000000000
10
148.2977647559
20
199.9066164999
30
0.0000000000
10
148.3453607860
20
199.8990081144
30
0.0000000000
10
148.4102370211
20
199.8553728423
30
0.0000000000
10
148.4490141052
20
199.8313882798
30
0.0000000000
10
148.4508373448
20
199.8302652316
30
0.0000000000
11
148.2509398741
21
199.9459020504
31
0.0000000000
11
148.2720663619
21
199.9337046670
31
0.0000000000
11
148.3384585002
21
199.8953731480
31
0.0000000000
11
148.4453548441
21
199.8336565151
31
0.0000000000
11
148.4508373448
21
199.8302652316
31
0.0000000000
0
SPLINE
5
2F6
100
AcDbEntity
8
0
100
AcDbSpline
62
9
6
CONTINUOUS
70
0
71
3
72
14
73
10
74
8
42
0.0000001000
43
0.0000001000
44
0.0000000001
12
-0.0000620024
22
5.7765963881
32
0.0000000000
13
0.0078771425
23
5.7765926414
33
0.0000000000
40
0.0000000000
40
0.0000000000
40
0.0000000000
40
0.0000000000
40
0.2159017128
40
0.4279469875
40
0.6237398718
40
0.7862807464
40
0.9041338931
40
0.9757751798
40
1.0000000000
40
1.0000000000
40
1.0000000000
40
1.0000000000
10
145.1890829835
20
204.8695090209
30
0.0000000000
10
145.1890785214
20
205.2852347056
30
0.0000000000
10
145.1891012121
20
206.1092603793
30
0.0000000000
10
145.1890875891
20
207.3102915450
30
0.0000000000
10
145.1891055881
20
208.4085746938
30
0.0000000000
10
145.1890674657
20
209.3254878982
30
0.0000000000
10
145.1891569005
20
210.0033431519
30
0.0000000000
10
145.1889997757
20
210.4148665171
30
0.0000000000
10
145.1891670118
20
210.5994597067
30
0.0000000000
10
145.1892306192
20
210.6461053461
30
0.0000000000
11
145.1890829835
21
204.8695090209
31
0.0000000000
11
145.1890932622
21
206.1166860750
31
0.0000000000
11
145.1890931210
21
207.3415860434
31
0.0000000000
11
145.1890946969
21
208.4726025117
31
0.0000000000
11
145.1890953688
21
209.4115355409
31
0.0000000000
11
145.1890961322
21
210.0923256023
31
0.0000000000
11
145.1890976718
21
210.5061684003
31
0.0000000000
11
145.1892306192
21
210.6461053461
31
0.0000000000
0
SPLINE
5
2F7
100
AcDbEntity
8
0
100
AcDbSpline
62
9
6
CONTINUOUS
70
0
71
3
72
10
73
6
74
4
42
0.0000001000
43
0.0000001000
44
0.0000000001
12
-5.4081231923
22
5.3444781746
32
0.0000000000
13
-6.0039179928
23
4.6652129809
33
0.0000000000
40
0.0000000000
40
0.0000000000
40
0.0000000000
40
0.0000000000
40
0.3731564435
40
0.6998026067
40
1.0000000000
40
1.0000000000
40
1.0000000000
40
1.0000000000
10
147.6097106319
20
192.6220516131
30
0.0000000000
10
146.9370186264
20
193.2868271024
30
0.0000000000
10
145.6208459353
20
194.4785561114
30
0.0000000000
10
143.6552993577
20
196.0790378537
30
0.0000000000
10
142.4010226140
20
197.0542027210
30
0.0000000000
10
141.8002357702
20
197.5210309798
30
0.0000000000
11
147.6097106319
21
192.6220516131
31
0.0000000000
11
145.5165031490
21
194.5373717696
31
0.0000000000
11
143.5972884953
21
196.1137418849
31
0.0000000000
11
141.8002357702
21
197.5210309798
31
0.0000000000
0
SPLINE
5
2F8
100
AcDbEntity
8
0
100
AcDbSpline
62
9
6
CONTINUOUS
70
0
71
3
72
10
73
6
74
4
42
0.0000001000
43
0.0000001000
44
0.0000000001
12
-3.5415077864
22
7.2766679161
32
0.0000000000
13
-3.2857510672
23
7.3956753097
33
0.0000000000
40
0.0000000000
40
0.0000000000
40
0.0000000000
40
0.0000000000
40
0.3498104255
40
0.6820417178
40
1.0000000000
40
1.0000000000
40
1.0000000000
40
1.0000000000
10
145.1890956844
20
190.1725479731
30
0.0000000000
10
144.7761435692
20
191.0210327397
30
0.0000000000
10
143.9809825534
20
192.6803033195
30
0.0000000000
10
142.8604193338
20
195.1342456569
30
0.0000000000
10
142.1484794832
20
196.7371922667
30
0.0000000000
10
141.8002355615
20
197.5210310057
30
0.0000000000
11
145.1890956844
21
190.1725479731
31
0.0000000000
11
143.9686136060
21
192.7268631718
31
0.0000000000
11
142.8487698228
21
195.1712078460
31
0.0000000000
11
141.8002355615
21
197.5210310057
31
0.0000000000
0
SPLINE
5
2F9
100
AcDbEntity
8
0
100
AcDbSpline
62
9
6
CONTINUOUS
70
0
71
3
72
10
73
6
74
4
42
0.0000001000
43
0.0000001000
44
0.0000000001
12
3.2845714891
22
7.3962046546
32
0.0000000000
13
3.5420601649
23
7.2764045344
33
0.0000000000
40
0.0000000000
40
0.0000000000
40
0.0000000000
40
0.0000000000
40
0.3178590630
40
0.6501247064
40
1.0000000000
40
1.0000000000
40
1.0000000000
40
1.0000000000
10
141.8002356347
20
197.5210308907
30
0.0000000000
10
142.1482459066
20
198.3046811179
30
0.0000000000
10
142.8602345036
20
199.9074164254
30
0.0000000000
10
143.9808407672
20
202.3613387328
30
0.0000000000
10
144.7759980126
20
204.0209100655
30
0.0000000000
10
145.1890911261
20
204.8695214565
30
0.0000000000
11
141.8002356347
21
197.5210308907
31
0.0000000000
11
142.8484120546
21
199.8701361766
31
0.0000000000
11
143.9684020090
21
202.3147214645
31
0.0000000000
11
145.1890911261
21
204.8695214565
31
0.0000000000
0
SPLINE
5
2FA
100
AcDbEntity
8
0
100
AcDbSpline
62
9
6
CONTINUOUS
70
0
71
3
72
10
73
6
74
4
42
0.0000001000
43
0.0000001000
44
0.0000000001
12
6.0032783163
22
4.6660306272
32
0.0000000000
13
5.4081077979
23
5.3444889749
33
0.0000000000
40
0.0000000000
40
0.0000000000
40
0.0000000000
40
0.0000000000
40
0.3000936690
40
0.6267803948
40
1.0000000000
40
1.0000000000
40
1.0000000000
40
1.0000000000
10
141.8002357702
20
197.5210309798
30
0.0000000000
10
142.4007510422
20
197.9877797300
30
0.0000000000
10
143.6549970405
20
198.9627219772
30
0.0000000000
10
145.6205192887
20
200.5632340896
30
0.0000000000
10
146.9369055130
20
201.7551172464
30
0.0000000000
10
147.6097094654
20
202.4200066015
30
0.0000000000
11
141.8002357702
21
197.5210309798
31
0.0000000000
11
143.5966709947
21
198.9278278283
31
0.0000000000
11
145.5161396503
21
200.5043728827
31
0.0000000000
11
147.6097094654
21
202.4200066015
31
0.0000000000
0
SPLINE
5
2FB
100
AcDbEntity
8
0
100
AcDbSpline
62
7
6
CONTINUOUS
70
0
71
3
72
11
73
7
74
5
42
0.0000001000
43
0.0000001000
44
0.0000000001
12
-0.1997017833
22
0.1152978783
32
0.0000000000
13
0.2135197619
23
0.1152978783
33
0.0000000000
40
0.0000000000
40
0.0000000000
40
0.0000000000
40
0.0000000000
40
0.1057901811
40
0.4382465929
40
0.9735264593
40
1.0000000000
40
1.0000000000
40
1.0000000000
40
1.0000000000
10
148.2509398741
20
195.0961597892
30
0.0000000000
10
148.2438977115
20
195.1002255837
30
0.0000000000
10
148.3083745998
20
195.1170685511
30
0.0000000000
10
148.3387616699
20
195.1544837295
30
0.0000000000
10
148.4089890416
20
195.1888505612
30
0.0000000000
10
148.4491488241
20
195.2104402198
30
0.0000000000
10
148.4510330321
20
195.2114576675
30
0.0000000000
11
148.2509398741
21
195.0961597892
31
0.0000000000
11
148.2720663619
21
195.1083571726
31
0.0000000000
11
148.3384585002
21
195.1466886916
31
0.0000000000
11
148.4453548441
21
195.2084053245
31
0.0000000000
11
148.4510330321
21
195.2114576675
31
0.0000000000
0
SPLINE
5
2FC
100
AcDbEntity
8
0
100
AcDbSpline
62
7
6
CONTINUOUS
70
0
71
3
72
11
73
7
74
5
42
0.0000001000
43
0.0000001000
44
0.0000000001
12
-0.1997046030
22
-0.1152995063
32
0.0000000000
13
0.0069085800
23
0.2425650241
33
0.0000000000
40
0.0000000000
40
0.0000000000
40
0.0000000000
40
0.0000000000
40
0.1057886874
40
0.4382404052
40
0.9735127138
40
1.0000000000
40
1.0000000000
40
1.0000000000
40
1.0000000000
10
152.4509398741
20
192.6712886586
30
0.0000000000
10
152.4438977115
20
192.6672228641
30
0.0000000000
10
152.4615497179
20
192.7314829710
30
0.0000000000
10
152.4443407580
20
192.7765065350
30
0.0000000000
10
152.4496919791
20
192.8545098703
30
0.0000000000
10
152.4510746625
20
192.9000851509
30
0.0000000000
10
152.4511356590
20
192.9022267806
30
0.0000000000
11
152.4509398741
21
192.6712886586
31
0.0000000000
11
152.4509398741
21
192.6956834255
31
0.0000000000
11
152.4509398741
21
192.7723464633
31
0.0000000000
11
152.4509398741
21
192.8957797291
31
0.0000000000
11
152.4511356590
21
192.9022267806
31
0.0000000000
0
SPLINE
5
2FD
100
AcDbEntity
8
0
100
AcDbSpline
62
7
6
CONTINUOUS
70
0
71
3
72
11
73
7
74
5
42
0.0000001000
43
0.0000001000
44
0.0000000001
12
0.0000000000
22
-0.2305957567
32
0.0000000000
13
-0.2066107726
23
0.1272645989
33
0.0000000000
40
0.0000000000
40
0.0000000000
40
0.0000000000
40
0.0000000000
40
0.1057901811
40
0.4382465929
40
0.9735264593
40
1.0000000000
40
1.0000000000
40
1.0000000000
40
1.0000000000
10
156.6509398741
20
195.0961597892
30
0.0000000000
10
156.6509398741
20
195.0880282002
30
0.0000000000
10
156.6041149923
20
195.1354453397
30
0.0000000000
10
156.5565189622
20
195.1430537252
30
0.0000000000
10
156.4916427271
20
195.1866889973
30
0.0000000000
10
156.4528656430
20
195.2106735598
30
0.0000000000
10
156.4510424035
20
195.2117966080
30
0.0000000000
11
156.6509398741
21
195.0961597892
31
0.0000000000
11
156.6298133863
21
195.1083571726
31
0.0000000000
11
156.5634212480
21
195.1466886916
31
0.0000000000
11
156.4565249041
21
195.2084053245
31
0.0000000000
11
156.4510424035
21
195.2117966080
31
0.0000000000
0
SPLINE
5
2FE
100
AcDbEntity
8
0
100
AcDbSpline
62
9
6
CONTINUOUS
70
0
71
3
72
9
73
5
74
3
42
0.0000001000
43
0.0000001000
44
0.0000000001
12
0.2775663592
22
-0.1726479413
32
0.0000000000
13
0.2760478802
23
-0.1750642684
33
0.0000000000
40
0.0000000000
40
0.0000000000
40
0.0000000000
40
0.0000000000
40
0.2410106850
40
1.0000000000
40
1.0000000000
40
1.0000000000
40
1.0000000000
10
154.6424509298
20
212.3600766874
30
0.0000000000
10
154.6647497492
20
212.3462066879
30
0.0000000000
10
154.7571517246
20
212.2884659632
30
0.0000000000
10
154.8491734965
20
212.2301197395
30
0.0000000000
10
154.9190126270
20
212.1858291031
30
0.0000000000
11
154.6424509298
21
212.3600766874
31
0.0000000000
11
154.7092673914
21
212.3183392536
31
0.0000000000
11
154.9190126270
21
212.1858291031
31
0.0000000000
0
SPLINE
5
2FF
100
AcDbEntity
8
0
100
AcDbSpline
62
9
6
CONTINUOUS
70
0
71
3
72
8
73
4
74
2
42
0.0000001000
43
0.0000001000
44
0.0000000001
12
0.0655705432
22
-0.0415835802
32
0.0000000000
13
0.0655655271
23
-0.0415912246
33
0.0000000000
40
0.0000000000
40
0.0000000000
40
0.0000000000
40
0.0000000000
40
1.0000000000
40
1.0000000000
40
1.0000000000
40
1.0000000000
10
154.9190126270
20
212.1858291031
30
0.0000000000
10
154.9408694747
20
212.1719679097
30
0.0000000000
10
154.9627258904
20
212.1581060820
30
0.0000000000
10
154.9845810661
20
212.1442423404
30
0.0000000000
11
154.9190126270
21
212.1858291031
31
0.0000000000
11
154.9845810661
21
212.1442423404
31
0.0000000000
0
SPLINE
5
300
100
AcDbEntity
8
0
100
AcDbSpline
62
9
6
CONTINUOUS
70
0
71
3
72
15
73
11
74
9
42
0.0000001000
43
0.0000001000
44
0.0000000001
12
5.4884021396
22
-3.4815455061
32
0.0000000000
13
5.2725907200
23
-3.8004381770
33
0.0000000000
40
0.0000000000
40
0.0000000000
40
0.0000000000
40
0.0000000000
40
0.0529998139
40
0.1422969520
40
0.2526394500
40
0.3809614550
40
0.5246768331
40
0.6818535680
40
0.8443584081
40
1.0000000000
40
1.0000000000
40
1.0000000000
40
1.0000000000
10
154.9845810661
20
212.1442423404
30
0.0000000000
10
155.0815424967
20
212.0827352525
30
0.0000000000
10
155.3418046002
20
211.9174963424
30
0.0000000000
10
155.8026685711
20
211.6222127283
30
0.0000000000
10
156.3990864392
20
211.2360233921
30
0.0000000000
10
157.0915894986
20
210.7813351926
30
0.0000000000
10
157.8650299711
20
210.2650893203
30
0.0000000000
10
158.6950530996
20
209.7002802011
30
0.0000000000
10
159.5404767511
20
209.1122651277
30
0.0000000000
10
160.1019819587
20
208.7124887332
30
0.0000000000
10
160.3755267630
20
208.5153199840
30
0.0000000000
11
154.9845810661
21
212.1442423404
31
0.0000000000
11
155.2753215841
21
211.9594963297
31
0.0000000000
11
155.7640525677
21
211.6464609523
31
0.0000000000
11
156.3660057118
21
211.2566055013
31
0.0000000000
11
157.0631642513
21
210.7988120567
31
0.0000000000
11
157.8400299081
21
210.2801767943
31
0.0000000000
11
158.6845403478
21
209.7053647997
31
0.0000000000
11
159.5515465672
21
209.1021565179
31
0.0000000000
11
160.3755267630
21
208.5153199840
31
0.0000000000
0
SPLINE
5
301
100
AcDbEntity
8
0
100
AcDbSpline
62
9
6
CONTINUOUS
70
0
71
3
72
10
73
6
74
4
42
0.0000001000
43
0.0000001000
44
0.0000000001
12
-0.4279410013
22
0.4253164109
32
0.0000000000
13
-0.6001404210
23
0.0801553949
33
0.0000000000
40
0.0000000000
40
0.0000000000
40
0.0000000000
40
0.0000000000
40
0.4032186712
40
0.8019394404
40
1.0000000000
40
1.0000000000
40
1.0000000000
40
1.0000000000
10
160.3903914391
20
129.5513782656
30
0.0000000000
10
160.3328735051
20
129.6085434383
30
0.0000000000
10
160.2034946307
20
129.7083293471
30
0.0000000000
10
160.0161232227
20
129.7870228151
30
0.0000000000
10
159.8976839515
20
129.8108429126
30
0.0000000000
10
159.8580625690
20
129.8161347867
30
0.0000000000
11
160.3903914391
21
129.5513782656
31
0.0000000000
11
160.1974898366
21
129.6996162467
31
0.0000000000
11
159.9755704011
21
129.7924829664
31
0.0000000000
11
159.8580625690
21
129.8161347867
31
0.0000000000
0
SPLINE
5
302
100
AcDbEntity
8
0
100
AcDbSpline
62
9
6
CONTINUOUS
70
0
71
3
72
8
73
4
74
2
42
0.0000001000
43
0.0000001000
44
0.0000000001
12
-0.0735010981
22
0.0098168851
32
0.0000000000
13
-0.0739258476
23
0.0037749882
33
0.0000000000
40
0.0000000000
40
0.0000000000
40
0.0000000000
40
0.0000000000
40
1.0000000000
40
1.0000000000
40
1.0000000000
40
1.0000000000
10
159.8580625690
20
129.8161347867
30
0.0000000000
10
159.8335622029
20
129.8194070818
30
0.0000000000
10
159.8089419235
20
129.8216800210
30
0.0000000000
10
159.7842999743
20
129.8229383504
30
0.0000000000
11
159.8580625690
21
129.8161347867
31
0.0000000000
11
159.7842999743
21
129.8229383504
31
0.0000000000
0
SPLINE
5
303
100
AcDbEntity
8
0
100
AcDbSpline
62
9
6
CONTINUOUS
70
0
71
3
72
16
73
12
74
10
42
0.0000001000
43
0.0000001000
44
0.0000000001
12
0.4117804881
22
0.0000000000
32
0.0000000000
13
-0.2947357275
23
-0.2875656817
33
0.0000000000
40
0.0000000000
40
0.0000000000
40
0.0000000000
40
0.0000000000
40
0.1146651792
40
0.1868734802
40
0.2386124682
40
0.3012631589
40
0.3891726329
40
0.5042777841
40
0.6463233559
40
0.8136569371
40
1.0000000000
40
1.0000000000
40
1.0000000000
40
1.0000000000
10
160.5042709791
20
129.8241051830
30
0.0000000000
10
160.5200099402
20
129.8241051830
30
0.0000000000
10
160.5452672422
20
129.8225474864
30
0.0000000000
10
160.5785072348
20
129.8126750268
30
0.0000000000
10
160.5919614697
20
129.7876890403
30
0.0000000000
10
160.5824478156
20
129.7597092176
30
0.0000000000
10
160.5628946005
20
129.7293535259
30
0.0000000000
10
160.5321941014
20
129.6929382590
30
0.0000000000
10
160.4919834189
20
129.6508589284
30
0.0000000000
10
160.4435357791
20
129.6030392534
30
0.0000000000
10
160.4086985856
20
129.5692403758
30
0.0000000000
10
160.3903912662
20
129.5513784191
30
0.0000000000
11
160.5042709791
21
129.8241051830
31
0.0000000000
11
160.5512974508
21
129.8198690241
31
0.0000000000
11
160.5785317377
21
129.8079357701
31
0.0000000000
11
160.5883868403
21
129.7890470305
31
0.0000000000
11
160.5829429105
21
129.7638296246
31
0.0000000000
11
160.5643111252
21
129.7327932978
31
0.0000000000
11
160.5342944168
21
129.6961112468
31
0.0000000000
11
160.4941830537
21
129.6535395986
31
0.0000000000
11
160.4453327452
21
129.6049442742
31
0.0000000000
11
160.3903912662
21
129.5513784191
31
0.0000000000
0
SPLINE
5
304
100
AcDbEntity
8
0
100
AcDbSpline
62
9
6
CONTINUOUS
70
0
71
3
72
32
73
28
74
26
42
0.0000001000
43
0.0000001000
44
0.0000000001
12
0.0000707035
22
-4.7513117641
32
0.0000000000
13
-0.8012563531
23
-4.6832629374
33
0.0000000000
40
0.0000000000
40
0.0000000000
40
0.0000000000
40
0.0000000000
40
0.0516660430
40
0.1032677341
40
0.1546577290
40
0.2057205222
40
0.2563710553
40
0.3065140817
40
0.3560330019
40
0.4048308773
40
0.4528380626
40
0.4999496394
40
0.5460625654
40
0.5910733564
40
0.6348839668
40
0.6774128905
40
0.7185339863
40
0.7577675143
40
0.7944350504
40
0.8285150343
40
0.8600900688
40
0.8892191118
40
0.9159558158
40
0.9403530209
40
0.9624656248
40
0.9823368138
40
1.0000000000
40
1.0000000000
40
1.0000000000
40
1.0000000000
10
160.7941332188
20
124.8241051830
30
0.0000000000
10
160.7941344365
20
124.7422780237
30
0.0000000000
10
160.7935017152
20
124.5787248869
30
0.0000000000
10
160.7906387060
20
124.3337968776
30
0.0000000000
10
160.7858767488
20
124.0898538544
30
0.0000000000
10
160.7792329766
20
123.8474618429
30
0.0000000000
10
160.7707458897
20
123.6071034943
30
0.0000000000
10
160.7604536482
20
123.3692630766
30
0.0000000000
10
160.7484108619
20
123.1344428493
30
0.0000000000
10
160.7346660366
20
122.9031046107
30
0.0000000000
10
160.7192745402
20
122.6756913292
30
0.0000000000
10
160.7023144077
20
122.4526540253
30
0.0000000000
10
160.6838701683
20
122.2344966900
30
0.0000000000
10
160.6640430872
20
122.0217107517
30
0.0000000000
10
160.6429426387
20
121.8147521728
30
0.0000000000
10
160.6206955153
20
121.6141107347
30
0.0000000000
10
160.5975218939
20
121.4208733370
30
0.0000000000
10
160.5738059822
20
121.2370582200
30
0.0000000000
10
160.5500003285
20
121.0645057014
30
0.0000000000
10
160.5264989307
20
120.9041615607
30
0.0000000000
10
160.5035509645
20
120.7558082445
30
0.0000000000
10
160.4813809011
20
120.6191070917
30
0.0000000000
10
160.4602234919
20
120.4937613284
30
0.0000000000
10
160.4403294273
20
120.3794738761
30
0.0000000000
10
160.4219576320
20
120.2759591892
30
0.0000000000
10
160.4053785098
20
120.1829583683
30
0.0000000000
10
160.3951089773
20
120.1244059193
30
0.0000000000
10
160.3903913973
20
120.0968321374
30
0.0000000000
11
160.7941332188
21
124.8241051830
31
0.0000000000
11
160.7931811820
21
124.5786255510
31
0.0000000000
11
160.7903142259
21
124.3334665922
31
0.0000000000
11
160.7855448551
21
124.0893432892
31
0.0000000000
11
160.7788947824
21
123.8468191953
31
0.0000000000
11
160.7703972435
21
123.6063127916
31
0.0000000000
11
160.7600918782
21
123.3682906255
31
0.0000000000
11
160.7480327266
21
123.1333200437
31
0.0000000000
11
160.7342716643
21
122.9018748600
31
0.0000000000
11
160.7188603803
21
122.6742989796
31
0.0000000000
11
160.7018769032
21
122.4511024114
31
0.0000000000
11
160.6834077996
21
122.2327853518
31
0.0000000000
11
160.6635541578
21
122.0198485981
31
0.0000000000
11
160.6424277725
21
121.8127655851
31
0.0000000000
11
160.6201461958
21
121.6119296349
31
0.0000000000
11
160.5968696452
21
121.4179419734
31
0.0000000000
11
160.5730062810
21
121.2330649938
31
0.0000000000
11
160.5491888725
21
121.0604818120
31
0.0000000000
11
160.5257037367
21
120.9002693476
31
0.0000000000
11
160.5027709516
21
120.7520096506
31
0.0000000000
11
160.4806215840
21
120.6153923461
31
0.0000000000
11
160.4594949144
21
120.4901270008
31
0.0000000000
11
160.4396429010
21
120.3759208320
31
0.0000000000
11
160.4213234178
21
120.2724664248
31
0.0000000000
11
160.4048105561
21
120.1795074597
31
0.0000000000
11
160.3903913973
21
120.0968321374
31
0.0000000000
0
SPLINE
5
305
100
AcDbEntity
8
0
100
AcDbSpline
62
9
6
CONTINUOUS
70
0
71
3
72
10
73
6
74
4
42
0.0000001000
43
0.0000001000
44
0.0000000001
12
-0.4279405380
22
-0.4253168565
32
0.0000000000
13
-0.6001404032
23
-0.0801553815
33
0.0000000000
40
0.0000000000
40
0.0000000000
40
0.0000000000
40
0.0000000000
40
0.4032186979
40
0.8019393969
40
1.0000000000
40
1.0000000000
40
1.0000000000
40
1.0000000000
10
160.3903913673
20
120.0968321374
30
0.0000000000
10
160.3328734918
20
120.0396669011
30
0.0000000000
10
160.2034946495
20
119.9398809382
30
0.0000000000
10
160.0161232154
20
119.8611875455
30
0.0000000000
10
159.8976839515
20
119.8373674583
30
0.0000000000
10
159.8580625614
20
119.8320755839
30
0.0000000000
11
160.3903913673
21
120.0968321374
31
0.0000000000
11
160.1974898273
21
119.9485940583
31
0.0000000000
11
159.9755704186
21
119.8557273991
31
0.0000000000
11
159.8580625614
21
119.8320755839
31
0.0000000000
0
SPLINE
5
306
100
AcDbEntity
8
0
100
AcDbSpline
62
9
6
CONTINUOUS
70
0
71
3
72
8
73
4
74
2
42
0.0000001000
43
0.0000001000
44
0.0000000001
12
-0.0731231676
22
-0.0097664069
32
0.0000000000
13
-0.0735450600
23
-0.0037867213
33
0.0000000000
40
0.0000000000
40
0.0000000000
40
0.0000000000
40
0.0000000000
40
1.0000000000
40
1.0000000000
40
1.0000000000
40
1.0000000000
10
159.8580625614
20
119.8320755839
30
0.0000000000
10
159.8336881722
20
119.8288201149
30
0.0000000000
10
159.8091950999
20
119.8265537502
30
0.0000000000
10
159.7846800799
20
119.8252915097
30
0.0000000000
11
159.8580625614
21
119.8320755839
31
0.0000000000
11
159.7846800799
21
119.8252915097
31
0.0000000000
0
SPLINE
5
307
100
AcDbEntity
8
0
100
AcDbSpline
62
9
6
CONTINUOUS
70
0
71
3
72
16
73
12
74
10
42
0.0000001000
43
0.0000001000
44
0.0000000001
12
0.2947693591
22
-0.2876013057
32
0.0000000000
13
-0.4118294381
23
-0.0000000000
33
0.0000000000
40
0.0000000000
40
0.0000000000
40
0.0000000000
40
0.0000000000
40
0.1877331896
40
0.3582174676
40
0.5032086112
40
0.6187708948
40
0.7046010851
40
0.7647331041
40
0.8155824752
40
0.8873085260
40
1.0000000000
40
1.0000000000
40
1.0000000000
40
1.0000000000
10
160.3903914094
20
120.0968317748
30
0.0000000000
10
160.4088374067
20
120.0788343380
30
0.0000000000
10
160.4441283010
20
120.0445992698
30
0.0000000000
10
160.4932981651
20
119.9960375496
30
0.0000000000
10
160.5340832778
20
119.9532484008
30
0.0000000000
10
160.5646682685
20
119.9164887014
30
0.0000000000
10
160.5835997587
20
119.8863617529
30
0.0000000000
10
160.5917753048
20
119.8586719600
30
0.0000000000
10
160.5773384503
20
119.8350192956
30
0.0000000000
10
160.5447443637
20
119.8256619948
30
0.0000000000
10
160.5197404232
20
119.8241051830
30
0.0000000000
10
160.5042705344
20
119.8241051830
30
0.0000000000
11
160.3903914094
21
120.0968317748
31
0.0000000000
11
160.4457483913
21
120.0428589344
31
0.0000000000
11
160.4955043068
21
119.9933225299
31
0.0000000000
11
160.5363577174
21
119.9497739759
31
0.0000000000
11
160.5662386002
21
119.9127317489
31
0.0000000000
11
160.5839030504
21
119.8821146652
31
0.0000000000
11
160.5882330912
21
119.8577320247
31
0.0000000000
11
160.5777324083
21
119.8396137366
31
0.0000000000
11
160.5505022565
21
119.8281653568
31
0.0000000000
11
160.5042705344
21
119.8241051830
31
0.0000000000
0
SPLINE
5
308
100
AcDbEntity
8
0
100
AcDbSpline
62
9
6
CONTINUOUS
70
0
71
3
72
45
73
41
74
39
42
0.0000001000
43
0.0000001000
44
0.0000000001
12
-0.0002488529
22
-6.0247064296
32
0.0000000000
13
-6.0247064347
23
0.0000000000
33
0.0000000000
40
0.0000000000
40
0.0000000000
40
0.0000000000
40
0.0000000000
40
0.0378293610
40
0.0756500954
40
0.1133972515
40
0.1510282130
40
0.1885236822
40
0.2258567225
40
0.2629862740
40
0.2998883699
40
0.3365593972
40
0.3729692928
40
0.4090927650
40
0.4449054575
40
0.4803892658
40
0.5155351137
40
0.5502608072
40
0.5841359560
40
0.6166064188
40
0.6477403343
40
0.6775670626
40
0.7060989438
40
0.7333399395
40
0.7592918442
40
0.7839539265
40
0.8073052062
40
0.8293136714
40
0.8499658468
40
0.8692694288
40
0.8872103355
40
0.9037738484
40
0.9189923839
40
0.9329075504
40
0.9455706008
40
0.9570287559
40
0.9673593815
40
0.9766913709
40
0.9851581800
40
0.9928835266
40
1.0000000000
40
1.0000000000
40
1.0000000000
40
1.0000000000
10
163.2008235738
20
124.8241051830
30
0.0000000000
10
163.2008204358
20
124.7481349183
30
0.0000000000
10
163.1984494531
20
124.5962012031
30
0.0000000000
10
163.1878073952
20
124.3686864552
30
0.0000000000
10
163.1700922514
20
124.1420099989
30
0.0000000000
10
163.1453312557
20
123.9166519203
30
0.0000000000
10
163.1135446753
20
123.6930160695
30
0.0000000000
10
163.0747555756
20
123.4715091870
30
0.0000000000
10
163.0290048383
20
123.2525512086
30
0.0000000000
10
162.9763660272
20
123.0365136138
30
0.0000000000
10
162.9168991972
20
122.8237539112
30
0.0000000000
10
162.8506719530
20
122.6146389530
30
0.0000000000
10
162.7777895030
20
122.4095765781
30
0.0000000000
10
162.6983725812
20
122.2089528384
30
0.0000000000
10
162.6125626248
20
122.0131195041
30
0.0000000000
10
162.5205776767
20
121.8225294138
30
0.0000000000
10
162.4230724286
20
121.6383504765
30
0.0000000000
10
162.3214242838
20
121.4626068146
30
0.0000000000
10
162.2171634227
20
121.2968671343
30
0.0000000000
10
162.1115176426
20
121.1417547620
30
0.0000000000
10
162.0051012212
20
120.9968793790
30
0.0000000000
10
161.8985719152
20
120.8619198441
30
0.0000000000
10
161.7925755115
20
120.7365764414
30
0.0000000000
10
161.6877237861
20
120.6205574317
30
0.0000000000
10
161.5846225085
20
120.5135920814
30
0.0000000000
10
161.4838833334
20
120.4154488454
30
0.0000000000
10
161.3860980223
20
120.3259071544
30
0.0000000000
10
161.2917736664
20
120.2447112444
30
0.0000000000
10
161.2013459325
20
120.1715954865
30
0.0000000000
10
161.1152075960
20
120.1063195241
30
0.0000000000
10
161.0336746979
20
120.0486371743
30
0.0000000000
10
160.9569355751
20
119.9982715673
30
0.0000000000
10
160.8850325361
20
119.9549205890
30
0.0000000000
10
160.8179622469
20
119.9183084168
30
0.0000000000
10
160.7556539972
20
119.8881592834
30
0.0000000000
10
160.6979067863
20
119.8641569095
30
0.0000000000
10
160.6443742367
20
119.8459675062
30
0.0000000000
10
160.5946473440
20
119.8332811945
30
0.0000000000
10
160.5483674273
20
119.8258256167
30
0.0000000000
10
160.5185433600
20
119.8241051830
30
0.0000000000
10
160.5042518056
20
119.8241051830
30
0.0000000000
11
163.2008235738
21
124.8241051830
31
0.0000000000
11
163.1972667641
21
124.5962221443
31
0.0000000000
11
163.1866146359
21
124.3686124457
31
0.0000000000
11
163.1688855908
21
124.1418890321
31
0.0000000000
11
163.1441087430
21
123.9165314856
31
0.0000000000
11
163.1122998419
21
123.6928830112
31
0.0000000000
11
163.0734804502
21
123.4713376780
31
0.0000000000
11
163.0277069712
21
123.2523763024
31
0.0000000000
11
162.9750494825
21
123.0363779670
31
0.0000000000
11
162.9155479324
21
122.8236090992
31
0.0000000000
11
162.8492877785
21
122.6144968488
31
0.0000000000
11
162.7763717874
21
122.4094419334
31
0.0000000000
11
162.6969268493
21
122.2088396073
31
0.0000000000
11
162.6110970500
21
122.0130465226
31
0.0000000000
11
162.5190308451
21
121.8223659302
31
0.0000000000
11
162.4211152235
21
121.6374815403
31
0.0000000000
11
162.3189070555
21
121.4608312319
31
0.0000000000
11
162.2147199550
21
121.2952589183
31
0.0000000000
11
162.1091113528
21
121.1402416888
31
0.0000000000
11
162.0027170143
21
120.9954267802
31
0.0000000000
11
161.8961993181
21
120.8605109291
31
0.0000000000
11
161.7902093257
21
120.7352066259
31
0.0000000000
11
161.6853591953
21
120.6192213339
31
0.0000000000
11
161.5822282582
21
120.5122607671
31
0.0000000000
11
161.4814387948
21
120.4141096480
31
0.0000000000
11
161.3836244061
21
120.3245906115
31
0.0000000000
11
161.2892976155
21
120.2434511473
31
0.0000000000
11
161.1988277566
21
120.1703722451
31
0.0000000000
11
161.1126397442
21
120.1051434734
31
0.0000000000
11
161.0311278598
21
120.0475768410
31
0.0000000000
11
160.9544208435
21
119.9973515694
31
0.0000000000
11
160.8825651183
21
119.9541656075
31
0.0000000000
11
160.8155368747
21
119.9177299672
31
0.0000000000
11
160.7533314524
21
119.8877982903
31
0.0000000000
11
160.6957959412
21
119.8640631593
31
0.0000000000
11
160.6425068224
21
119.8461400199
31
0.0000000000
11
160.5930376785
21
119.8336970342
31
0.0000000000
11
160.5470622496
21
119.8264509529
31
0.0000000000
11
160.5042518056
21
119.8241051830
31
0.0000000000
0
SPLINE
5
309
100
AcDbEntity
8
0
100
AcDbSpline
62
9
6
CONTINUOUS
70
0
71
3
72
32
73
28
74
26
42
0.0000001000
43
0.0000001000
44
0.0000000001
12
0.8012505740
22
-4.6832635554
32
0.0000000000
13
0.0000853312
23
-4.7513113984
33
0.0000000000
40
0.0000000000
40
0.0000000000
40
0.0000000000
40
0.0000000000
40
0.0176546344
40
0.0375151661
40
0.0596236122
40
0.0840247928
40
0.1107669416
40
0.1398989629
40
0.1714763353
40
0.2055636175
40
0.2422447596
40
0.2814826627
40
0.3225997101
40
0.3651358444
40
0.4089507648
40
0.4539634057
40
0.5000814005
40
0.5471957790
40
0.5952010738
40
0.6439998156
40
0.6935206344
40
0.7436686913
40
0.7943221346
40
0.8453781017
40
0.8967501147
40
0.9483336166
40
1.0000000000
40
1.0000000000
40
1.0000000000
40
1.0000000000
10
160.3903914727
20
129.5513782656
30
0.0000000000
10
160.3951067347
20
129.5238178303
30
0.0000000000
10
160.4053709943
20
129.4652953486
30
0.0000000000
10
160.4219435024
20
129.3723309472
30
0.0000000000
10
160.4403125163
20
129.2688332106
30
0.0000000000
10
160.4602084615
20
129.1545376351
30
0.0000000000
10
160.4813697679
20
129.0291726243
30
0.0000000000
10
160.5035426159
20
128.8924546683
30
0.0000000000
10
160.5264943338
20
128.7440817285
30
0.0000000000
10
160.5500011734
20
128.5837011917
30
0.0000000000
10
160.5738119804
20
128.4111089802
30
0.0000000000
10
160.5975301969
20
128.2272719248
30
0.0000000000
10
160.6207045738
20
128.0340226105
30
0.0000000000
10
160.6429524094
20
127.8333693586
30
0.0000000000
10
160.6640538296
20
127.6263896092
30
0.0000000000
10
160.6838817585
20
127.4135859054
30
0.0000000000
10
160.7023261299
20
127.1954131495
30
0.0000000000
10
160.7192863232
20
126.9723663644
30
0.0000000000
10
160.7346748263
20
126.7449500776
30
0.0000000000
10
160.7484203164
20
126.5136105190
30
0.0000000000
10
160.7604636913
20
126.2787779614
30
0.0000000000
10
160.7707488209
20
126.0409216432
30
0.0000000000
10
160.7792275334
20
125.8005612533
30
0.0000000000
10
160.7858635691
20
125.5582037560
30
0.0000000000
10
160.7906250383
20
125.3143288730
30
0.0000000000
10
160.7934934382
20
125.0694577078
30
0.0000000000
10
160.7941317493
20
124.9059328751
30
0.0000000000
10
160.7941332188
20
124.8241051830
30
0.0000000000
11
160.3903914727
21
129.5513782656
31
0.0000000000
11
160.4048035884
21
129.4687429673
31
0.0000000000
11
160.4213075439
21
129.3758338565
31
0.0000000000
11
160.4396237818
21
129.2723989448
31
0.0000000000
11
160.4594794768
21
129.1581742529
31
0.0000000000
11
160.4806109572
21
129.0328834935
31
0.0000000000
11
160.5027628391
21
128.8962522720
31
0.0000000000
11
160.5256978237
21
128.7479816867
31
0.0000000000
11
160.5491881731
21
128.5877349521
31
0.0000000000
11
160.5730141340
21
128.4150877049
31
0.0000000000
11
160.5968795857
21
128.2301900495
31
0.0000000000
11
160.6201532210
21
128.0362214259
31
0.0000000000
11
160.6424379053
21
127.8353513663
31
0.0000000000
11
160.6635653335
21
127.6282478919
31
0.0000000000
11
160.6834188663
21
127.4153023165
31
0.0000000000
11
160.7018889812
21
127.1969611900
31
0.0000000000
11
160.7188722898
21
126.9737512762
31
0.0000000000
11
160.7342808193
21
126.7461842298
31
0.0000000000
11
160.7480419754
21
126.5147349457
31
0.0000000000
11
160.7601003981
21
126.2797553118
31
0.0000000000
11
160.7704002139
21
126.0417090000
31
0.0000000000
11
160.7788901405
21
125.8011885102
31
0.0000000000
11
160.7855334486
21
125.5586966943
31
0.0000000000
11
160.7903015379
21
125.3146588395
31
0.0000000000
11
160.7931731421
21
125.0695863819
31
0.0000000000
11
160.7941332188
21
124.8241051830
31
0.0000000000
0
SPLINE
5
30A
100
AcDbEntity
8
0
100
AcDbSpline
62
9
6
CONTINUOUS
70
0
71
3
72
45
73
41
74
39
42
0.0000001000
43
0.0000001000
44
0.0000000001
12
6.0247096507
22
0.0000000000
32
0.0000000000
13
-0.0002382699
23
-6.0247096460
33
0.0000000000
40
0.0000000000
40
0.0000000000
40
0.0000000000
40
0.0000000000
40
0.0071380067
40
0.0148697809
40
0.0233271444
40
0.0326415726
40
0.0429549774
40
0.0544027761
40
0.0670655897
40
0.0809807879
40
0.0961982394
40
0.1127685190
40
0.1307278485
40
0.1500560523
40
0.1707269414
40
0.1927303858
40
0.2160696063
40
0.2407251602
40
0.2666806911
40
0.2939282570
40
0.3224641171
40
0.3522926048
40
0.3834309767
40
0.4159131101
40
0.4497929710
40
0.4845122717
40
0.5196608527
40
0.5551458822
40
0.5909570765
40
0.6270815407
40
0.6634910885
40
0.7001578974
40
0.7370574411
40
0.7741852178
40
0.8115193555
40
0.8490147188
40
0.8866382934
40
0.9243693827
40
0.9621735631
40
1.0000000000
40
1.0000000000
40
1.0000000000
40
1.0000000000
10
160.5042518056
20
129.8241051830
30
0.0000000000
10
160.5185866115
20
129.8241051830
30
0.0000000000
10
160.5484669778
20
129.8223762540
30
0.0000000000
10
160.5947813170
20
129.8149003384
30
0.0000000000
10
160.6444650975
20
129.8022132306
30
0.0000000000
10
160.6979121111
20
129.7840489645
30
0.0000000000
10
160.7555767263
20
129.7600843944
30
0.0000000000
10
160.8178376958
20
129.7299658155
30
0.0000000000
10
160.8848929248
20
129.6933701892
30
0.0000000000
10
160.9567971324
20
129.6500260457
30
0.0000000000
10
161.0335491656
20
129.5996590850
30
0.0000000000
10
161.1151244727
20
129.5419527105
30
0.0000000000
10
161.2013439411
20
129.4766179922
30
0.0000000000
10
161.2918670094
20
129.4034226777
30
0.0000000000
10
161.3862459402
20
129.3221720541
30
0.0000000000
10
161.4840289307
20
129.2326228895
30
0.0000000000
10
161.5847302728
20
129.1345087033
30
0.0000000000
10
161.6878079259
20
129.0275622312
30
0.0000000000
10
161.7926618818
20
128.9115351834
30
0.0000000000
10
161.8986730155
20
128.7861668160
30
0.0000000000
10
162.0052129365
20
128.6511840350
30
0.0000000000
10
162.1116359486
20
128.5062879640
30
0.0000000000
10
162.2172957191
20
128.3511415202
30
0.0000000000
10
162.3215707706
20
128.1853611518
30
0.0000000000
10
162.4232189585
20
128.0095941958
30
0.0000000000
10
162.5207150828
20
127.8254079402
30
0.0000000000
10
162.6126881266
20
127.6348174136
30
0.0000000000
10
162.6984901002
20
127.4389750704
30
0.0000000000
10
162.7778973201
20
127.2383458287
30
0.0000000000
10
162.8507689384
20
127.0332812927
30
0.0000000000
10
162.9169832499
20
126.8241696652
30
0.0000000000
10
162.9764383268
20
126.6114214352
30
0.0000000000
10
163.0290640648
20
126.3953981331
30
0.0000000000
10
163.0748006503
20
126.1764437717
30
0.0000000000
10
163.1135913918
20
125.9549388226
30
0.0000000000
10
163.1453859050
20
125.7313169512
30
0.0000000000
10
163.1701454040
20
125.5060060743
30
0.0000000000
10
163.1878458230
20
125.2794088381
30
0.0000000000
10
163.1984686620
20
125.0519644996
30
0.0000000000
10
163.2008265781
20
124.9000696161
30
0.0000000000
10
163.2008235738
20
124.8241051830
30
0.0000000000
11
160.5042518056
21
129.8241051830
31
0.0000000000
11
160.5471914396
21
129.8217455686
31
0.0000000000
11
160.5932029197
21
129.8144793465
31
0.0000000000
11
160.6426140061
21
129.8020387275
31
0.0000000000
11
160.6958014671
21
129.7841451292
31
0.0000000000
11
160.7532421241
21
129.7604520367
31
0.0000000000
11
160.8153942839
21
129.7305534835
31
0.0000000000
11
160.8824248474
21
129.6941250137
31
0.0000000000
11
160.9542841470
21
129.6509445424
31
0.0000000000
11
161.0309890319
21
129.6007278491
31
0.0000000000
11
161.1125371452
21
129.5431417535
31
0.0000000000
11
161.1988151126
21
129.4778478233
31
0.0000000000
11
161.2893992866
21
129.4046742734
31
0.0000000000
11
161.3838078105
21
129.3234568361
31
0.0000000000
11
161.4815951274
21
129.2339529185
31
0.0000000000
11
161.5823286685
21
129.1358484040
31
0.0000000000
11
161.6854295285
21
129.0289133637
31
0.0000000000
11
161.7902915952
21
128.9129092993
31
0.0000000000
11
161.8963034963
21
128.7875715678
31
0.0000000000
11
162.0028313272
21
128.6526330599
31
0.0000000000
11
162.1092264475
21
128.5078054535
31
0.0000000000
11
162.2148439039
21
128.3527616484
31
0.0000000000
11
162.3190603693
21
128.1871246147
31
0.0000000000
11
162.4212726962
21
128.0104437889
31
0.0000000000
11
162.5191601611
21
127.8255879435
31
0.0000000000
11
162.6112237722
21
127.6348876894
31
0.0000000000
11
162.6970464764
21
127.4390833359
31
0.0000000000
11
162.7764778944
21
127.2384852404
31
0.0000000000
11
162.8493855669
21
127.0334209012
31
0.0000000000
11
162.9156347905
21
126.8243072628
31
0.0000000000
11
162.9751208884
21
126.6115603416
31
0.0000000000
11
163.0277653206
21
126.3955745275
31
0.0000000000
11
163.0735269201
21
126.1766214707
31
0.0000000000
11
163.1123482135
21
125.9550696358
31
0.0000000000
11
163.1441643155
21
125.7314227088
31
0.0000000000
11
163.1689387240
21
125.5061095446
31
0.0000000000
11
163.1866524101
21
125.2794819015
31
0.0000000000
11
163.1972849627
21
125.0519710078
31
0.0000000000
11
163.2008235738
21
124.8241051830
31
0.0000000000
0
SPLINE
5
30B
100
AcDbEntity
8
0
100
AcDbSpline
62
9
6
CONTINUOUS
70
0
71
3
72
15
73
11
74
9
42
0.0000001000
43
0.0000001000
44
0.0000000001
12
-0.0002011224
22
10.8749936848
32
0.0000000000
13
0.0000554343
23
10.8749936865
33
0.0000000000
40
0.0000000000
40
0.0000000000
40
0.0000000000
40
0.0000000000
40
0.1540001974
40
0.3047121343
40
0.4505334168
40
0.5900269273
40
0.7186581052
40
0.8308600018
40
0.9243438856
40
1.0000000000
40
1.0000000000
40
1.0000000000
40
1.0000000000
10
145.1891925368
20
124.8241051830
30
0.0000000000
10
145.1891822125
20
125.3823555744
30
0.0000000000
10
145.1890488840
20
126.4869364159
30
0.0000000000
10
145.1891121624
20
128.1201191051
30
0.0000000000
10
145.1890766592
20
129.7007150830
30
0.0000000000
10
145.1890877361
20
131.2012683565
30
0.0000000000
10
145.1890844498
20
132.5799514271
30
0.0000000000
10
145.1890887103
20
133.7918496973
30
0.0000000000
10
145.1891090405
20
134.8117134740
30
0.0000000000
10
145.1890722392
20
135.4248456110
30
0.0000000000
10
145.1890736372
20
135.6990988664
30
0.0000000000
11
145.1891925368
21
124.8241051830
31
0.0000000000
11
145.1890924321
21
126.4988563545
31
0.0000000000
11
145.1890958538
21
128.1378477170
31
0.0000000000
11
145.1890842066
21
129.7236532428
31
0.0000000000
11
145.1890854577
21
131.2406442897
31
0.0000000000
11
145.1890857770
21
132.6395075371
31
0.0000000000
11
145.1890925917
21
133.8597024544
31
0.0000000000
11
145.1890953531
21
134.8763391005
31
0.0000000000
11
145.1890736372
21
135.6990988664
31
0.0000000000
0
SPLINE
5
30C
100
AcDbEntity
8
0
100
AcDbSpline
62
9
6
CONTINUOUS
70
0
71
3
72
14
73
10
74
8
42
0.0000001000
43
0.0000001000
44
0.0000000001
12
1.6947222706
22
0.0002413615
32
0.0000000000
13
-0.4529472591
23
1.6330627876
33
0.0000000000
40
0.0000000000
40
0.0000000000
40
0.0000000000
40
0.0000000000
40
0.1008239258
40
0.2151833868
40
0.3491852429
40
0.5016164753
40
0.6665853393
40
0.8357405544
40
1.0000000000
40
1.0000000000
40
1.0000000000
40
1.0000000000
10
159.8472660871
20
129.8241051862
30
0.0000000000
10
159.9042222712
20
129.8241132979
30
0.0000000000
10
160.0269126442
20
129.8569122758
30
0.0000000000
10
160.1811031002
20
129.9866322124
30
0.0000000000
10
160.3044627186
20
130.1794020294
30
0.0000000000
10
160.3909119361
20
130.4211289588
30
0.0000000000
10
160.4348604403
20
130.6938535289
30
0.0000000000
10
160.4330424926
20
130.9765737900
30
0.0000000000
10
160.4003270516
20
131.1632612822
30
0.0000000000
10
160.3755267631
20
131.2526766116
30
0.0000000000
11
159.8472660871
21
129.8241051862
31
0.0000000000
11
160.0131202111
21
129.8651982059
31
0.0000000000
11
160.1653848944
21
129.9851000543
31
0.0000000000
11
160.2915009804
21
130.1739565773
31
0.0000000000
11
160.3811034302
21
130.4162465101
31
0.0000000000
11
160.4268280731
21
130.6920570519
31
0.0000000000
11
160.4249168612
21
130.9787203794
31
0.0000000000
11
160.3755267631
21
131.2526766116
31
0.0000000000
0
SPLINE
5
30D
100
AcDbEntity
8
0
100
AcDbSpline
62
9
6
CONTINUOUS
70
0
71
3
72
11
73
7
74
5
42
0.0000001000
43
0.0000001000
44
0.0000000001
12
1.7146467382
22
2.3174080262
32
0.0000000000
13
2.8827752967
23
0.0000000015
33
0.0000000000
40
0.0000000000
40
0.0000000000
40
0.0000000000
40
0.0000000000
40
0.2725700299
40
0.5273343005
40
0.7677214699
40
1.0000000000
40
1.0000000000
40
1.0000000000
40
1.0000000000
10
145.1890959743
20
135.6990988669
30
0.0000000000
10
145.3448830785
20
135.9096508586
30
0.0000000000
10
145.6830546868
20
136.2919470170
30
0.0000000000
10
146.2801334389
20
136.7353388964
30
0.0000000000
10
146.9301174500
20
137.0111983167
30
0.0000000000
10
147.3865083023
20
137.0741051829
30
0.0000000000
10
147.6097105718
20
137.0741051830
30
0.0000000000
11
145.1890959743
21
135.6990988669
31
0.0000000000
11
145.7136963075
21
136.2840863522
31
0.0000000000
11
146.3064949203
21
136.7176466187
31
0.0000000000
11
146.9461692493
21
136.9841819311
31
0.0000000000
11
147.6097105718
21
137.0741051830
31
0.0000000000
0
SPLINE
5
30E
100
AcDbEntity
8
0
100
AcDbSpline
62
9
6
CONTINUOUS
70
0
71
3
72
17
73
13
74
11
42
0.0000001000
43
0.0000001000
44
0.0000000001
12
-9.5430616698
22
-0.0002966631
32
0.0000000000
13
-0.0005984842
23
-9.5430616557
33
0.0000000000
40
0.0000000000
40
0.0000000000
40
0.0000000000
40
0.0000000000
40
0.0868524890
40
0.1806470539
40
0.2776620668
40
0.3756850623
40
0.4758083407
40
0.5786795504
40
0.6843646673
40
0.7918212633
40
0.8981879851
40
1.0000000000
40
1.0000000000
40
1.0000000000
40
1.0000000000
10
160.3755267630
20
131.2526766116
30
0.0000000000
10
160.0992472103
20
131.2526680230
30
0.0000000000
10
159.5235526834
20
131.2049228024
30
0.0000000000
10
158.6640931562
20
130.9835249830
30
0.0000000000
10
157.8227408085
20
130.6030997935
30
0.0000000000
10
157.0405916097
20
130.0760506383
30
0.0000000000
10
156.3403311098
20
129.4170141231
30
0.0000000000
10
155.7371965869
20
128.6371438478
30
0.0000000000
10
155.2494592961
20
127.7537206641
30
0.0000000000
10
154.8958243297
20
126.7967537424
30
0.0000000000
10
154.6886222923
20
125.8109802918
30
0.0000000000
10
154.6424742579
20
125.1479712949
30
0.0000000000
10
154.6424539470
20
124.8241051830
30
0.0000000000
11
160.3755267630
21
131.2526766116
31
0.0000000000
11
159.5494969607
21
131.1844982585
31
0.0000000000
11
158.6824713480
21
130.9621294367
31
0.0000000000
11
157.8383703267
21
130.5818182418
31
0.0000000000
11
157.0618488137
21
130.0602232057
31
0.0000000000
11
156.3651139477
21
129.4063825782
31
0.0000000000
11
155.7635245862
21
128.6306007165
31
0.0000000000
11
155.2750727161
21
127.7482134921
31
0.0000000000
11
154.9189378780
21
126.7865761977
31
0.0000000000
11
154.7092615555
21
125.7934039361
31
0.0000000000
11
154.6424539470
21
124.8241051830
31
0.0000000000
0
SPLINE
5
30F
100
AcDbEntity
8
0
100
AcDbSpline
62
9
6
CONTINUOUS
70
0
71
3
72
10
73
6
74
4
42
0.0000001000
43
0.0000001000
44
0.0000000001
12
-3.0114198960
22
2.1701944158
32
0.0000000000
13
-3.7119258603
23
-0.0000097742
33
0.0000000000
40
0.0000000000
40
0.0000000000
40
0.0000000000
40
0.0000000000
40
0.3889342519
40
0.7147593311
40
1.0000000000
40
1.0000000000
40
1.0000000000
40
1.0000000000
10
145.1890956844
20
135.6990964665
30
0.0000000000
10
144.7986809029
20
135.9804507804
30
0.0000000000
10
144.0566131958
20
136.4668460337
30
0.0000000000
10
142.9121909997
20
136.9605139287
30
0.0000000000
10
142.1531662999
20
137.0741061124
30
0.0000000000
10
141.8002355615
20
137.0741051830
30
0.0000000000
11
145.1890956844
21
135.6990964665
31
0.0000000000
11
143.9686136060
21
136.4702508352
31
0.0000000000
11
142.8487698228
21
136.9270784580
31
0.0000000000
11
141.8002355615
21
137.0741051830
31
0.0000000000
0
SPLINE
5
310
100
AcDbEntity
8
0
100
AcDbSpline
62
9
6
CONTINUOUS
70
0
71
3
72
14
73
10
74
8
42
0.0000001000
43
0.0000001000
44
0.0000000001
12
1.6947238439
22
-0.0002308735
32
0.0000000000
13
-0.4529477015
23
-1.6330646733
33
0.0000000000
40
0.0000000000
40
0.0000000000
40
0.0000000000
40
0.0000000000
40
0.1008250555
40
0.2151845128
40
0.3491863578
40
0.5016175137
40
0.6665861773
40
0.8357410390
40
1.0000000000
40
1.0000000000
40
1.0000000000
40
1.0000000000
10
159.8472641265
20
119.8241051801
30
0.0000000000
10
159.9042210017
20
119.8240974208
30
0.0000000000
10
160.0269123052
20
119.7912984498
30
0.0000000000
10
160.1811033554
20
119.6615778568
30
0.0000000000
10
160.3044629681
20
119.4688077890
30
0.0000000000
10
160.3909120939
20
119.2270806904
30
0.0000000000
10
160.4348604637
20
118.9543561434
30
0.0000000000
10
160.4330424222
20
118.6716361511
30
0.0000000000
10
160.4003270027
20
118.4849489233
30
0.0000000000
10
160.3755267630
20
118.3955337545
30
0.0000000000
11
159.8472641265
21
119.8241051801
31
0.0000000000
11
160.0131203465
21
119.7830120859
31
0.0000000000
11
160.1653851347
21
119.6631100237
31
0.0000000000
11
160.2915012394
21
119.4742532239
31
0.0000000000
11
160.3811036080
21
119.2319630847
31
0.0000000000
11
160.4268281139
21
118.9561525408
31
0.0000000000
11
160.4249168040
21
118.6694894855
31
0.0000000000
11
160.3755267630
21
118.3955337545
31
0.0000000000
0
SPLINE
5
311
100
AcDbEntity
8
0
100
AcDbSpline
62
9
6
CONTINUOUS
70
0
71
3
72
11
73
7
74
5
42
0.0000001000
43
0.0000001000
44
0.0000000001
12
1.7146320723
22
-2.3174264661
32
0.0000000000
13
2.8827814485
23
-0.0000000332
33
0.0000000000
40
0.0000000000
40
0.0000000000
40
0.0000000000
40
0.0000000000
40
0.2725706348
40
0.5273347417
40
0.7677218195
40
1.0000000000
40
1.0000000000
40
1.0000000000
40
1.0000000000
10
145.1890933207
20
113.9491199368
30
0.0000000000
10
145.3448794382
20
113.7385658025
30
0.0000000000
10
145.6830499860
20
113.3562664262
30
0.0000000000
10
146.2801296914
20
112.9128724507
30
0.0000000000
10
146.9301143280
20
112.6370120822
30
0.0000000000
10
147.3865057594
20
112.5741051856
30
0.0000000000
10
147.6097081693
20
112.5741051830
30
0.0000000000
11
145.1890933207
21
113.9491199368
31
0.0000000000
11
145.7136926073
21
113.3641269375
31
0.0000000000
11
146.3064912116
21
112.9305648258
31
0.0000000000
11
146.9461664363
21
112.6640285369
31
0.0000000000
11
147.6097081693
21
112.5741051830
31
0.0000000000
0
SPLINE
5
312
100
AcDbEntity
8
0
100
AcDbSpline
62
9
6
CONTINUOUS
70
0
71
3
72
17
73
13
74
11
42
0.0000001000
43
0.0000001000
44
0.0000000001
12
0.0005928803
22
-9.5430615012
32
0.0000000000
13
9.5430615148
23
-0.0003008113
33
0.0000000000
40
0.0000000000
40
0.0000000000
40
0.0000000000
40
0.0000000000
40
0.1018165468
40
0.2082069890
40
0.3156977685
40
0.4214207627
40
0.5243301357
40
0.6244906963
40
0.7225363752
40
0.8195818968
40
0.9133644779
40
1.0000000000
40
1.0000000000
40
1.0000000000
40
1.0000000000
10
154.6424509298
20
124.8241051830
30
0.0000000000
10
154.6424710514
20
124.5002246605
30
0.0000000000
10
154.6886319457
20
123.8371260078
30
0.0000000000
10
154.8958950648
20
122.8511604623
30
0.0000000000
10
155.2496973159
20
121.8939264688
30
0.0000000000
10
155.7377093524
20
121.0102495000
30
0.0000000000
10
156.3412077482
20
120.2301988227
30
0.0000000000
10
157.0418639986
20
119.5711198652
30
0.0000000000
10
157.8244210839
20
119.0441538555
30
0.0000000000
10
158.6660404425
20
118.6639908775
30
0.0000000000
10
159.5249790443
20
118.4431060092
30
0.0000000000
10
160.0999373906
20
118.3955424414
30
0.0000000000
10
160.3755267630
20
118.3955337545
30
0.0000000000
11
154.6424509298
21
124.8241051830
31
0.0000000000
11
154.7092673914
21
123.8547637055
31
0.0000000000
11
154.9190126270
21
122.8613746540
31
0.0000000000
11
155.2753215841
21
121.8994539965
31
0.0000000000
11
155.7640525677
21
121.0168081527
31
0.0000000000
11
156.3660057118
21
120.2408475640
31
0.0000000000
11
157.0631642513
21
119.5869385468
31
0.0000000000
11
157.8400299081
21
119.0654677436
31
0.0000000000
11
158.6845403478
21
118.6853566919
31
0.0000000000
11
159.5515465672
21
118.4633729554
31
0.0000000000
11
160.3755267630
21
118.3955337545
31
0.0000000000
0
SPLINE
5
313
100
AcDbEntity
8
0
100
AcDbSpline
62
9
6
CONTINUOUS
70
0
71
3
72
14
73
10
74
8
42
0.0000001000
43
0.0000001000
44
0.0000000001
12
-0.0001727376
22
10.8749852492
32
0.0000000000
13
0.0002657161
23
10.8749852473
33
0.0000000000
40
0.0000000000
40
0.0000000000
40
0.0000000000
40
0.0000000000
40
0.0879358477
40
0.1993001632
40
0.3348168624
40
0.4890003327
40
0.6531466206
40
0.8242772728
40
1.0000000000
40
1.0000000000
40
1.0000000000
40
1.0000000000
10
145.1890829835
20
113.9491199371
30
0.0000000000
10
145.1890779203
20
114.2678869528
30
0.0000000000
10
145.1891024652
20
114.9903490643
30
0.0000000000
10
145.1890891823
20
116.2040585444
30
0.0000000000
10
145.1890970676
20
117.6579153304
30
0.0000000000
10
145.1890916453
20
119.3031065074
30
0.0000000000
10
145.1891094215
20
121.0773980881
30
0.0000000000
10
145.1890450909
20
122.9297693723
30
0.0000000000
10
145.1892150551
20
124.1871111611
30
0.0000000000
10
145.1892306192
20
124.8241051830
30
0.0000000000
11
145.1890829835
21
113.9491199371
31
0.0000000000
11
145.1890932622
21
114.9054209841
31
0.0000000000
11
145.1890931210
21
116.1165062718
31
0.0000000000
11
145.1890946969
21
117.5902483771
31
0.0000000000
11
145.1890953688
21
119.2669913425
31
0.0000000000
11
145.1890961322
21
121.0520798021
31
0.0000000000
11
145.1890976718
21
122.9131231212
31
0.0000000000
11
145.1892306192
21
124.8241051830
31
0.0000000000
0
SPLINE
5
314
100
AcDbEntity
8
0
100
AcDbSpline
62
9
6
CONTINUOUS
70
0
71
3
72
10
73
6
74
4
42
0.0000001000
43
0.0000001000
44
0.0000000001
12
3.7119271596
22
-0.0000032969
32
0.0000000000
13
3.0117854272
23
2.1696893277
33
0.0000000000
40
0.0000000000
40
0.0000000000
40
0.0000000000
40
0.0000000000
40
0.2851419621
40
0.6109997782
40
1.0000000000
40
1.0000000000
40
1.0000000000
40
1.0000000000
10
141.8002356347
20
112.5741051830
30
0.0000000000
10
142.1530443658
20
112.5741048697
30
0.0000000000
10
142.9119755231
20
112.6876777807
30
0.0000000000
10
144.0564734762
20
113.1812040320
30
0.0000000000
10
144.7985627263
20
113.6677896931
30
0.0000000000
10
145.1890911261
20
113.9491262363
30
0.0000000000
11
141.8002356347
21
112.5741051830
31
0.0000000000
11
142.8484120546
21
112.7210480267
31
0.0000000000
11
143.9684020090
21
113.1778401588
31
0.0000000000
11
145.1890911261
21
113.9491262363
31
0.0000000000
0
ENDSEC
0
SECTION
2
OBJECTS
0
DICTIONARY
5
C
100
AcDbDictionary
280
0
281
1
3
ACAD_GROUP
350
D
3
ACAD_MLINESTYLE
350
17
3
ACAD_LAYOUT
350
1A
3
ACAD_PLOTSETTINGS
350
19
3
ACAD_PLOTSTYLENAME
350
E
0
DICTIONARY
5
D
102
{ACAD_REACTORS
330
C
102
}
100
AcDbDictionary
280
0
281
1
0
ACDBDICTIONARYWDFLT
5
E
102
{ACAD_REACTORS
330
C
102
}
100
AcDbDictionary
281
1
3
Normal
350
F
100
AcDbDictionaryWithDefault
340
F
0
DICTIONARY
5
17
102
{ACAD_REACTORS
330
C
102
}
100
AcDbDictionary
280
0
281
1
3
Standard
350
18
0
DICTIONARY
5
19
102
{ACAD_REACTORS
330
C
102
}
100
AcDbDictionary
281
1
0
DICTIONARY
5
1A
102
{ACAD_REACTORS
330
C
102
}
100
AcDbDictionary
281
1
3
Layout1
350
1E
3
Model
350
22
0
ACDBPLACEHOLDER
5
F
102
{ACAD_REACTORS
330
E
102
}
0
MLINESTYLE
5
18
102
{ACAD_REACTORS
330
17
102
}
100
AcDbMlineStyle
2
STANDARD
70
0
3

62
256
51
90.0
52
90.0
71
2
49
0.5
62
256
6
BYLAYER
49
-0.5
62
256
6
BYLAYER
0
LAYOUT
5
1E
102
{ACAD_REACTORS
330
1A
102
}
100
AcDbPlotSettings
1

2

4

6

40
0.0
41
0.0
42
0.0
43
0.0
44
0.0
45
0.0
46
0.0
47
0.0
48
0.0
49
0.0
140
0.0
141
0.0
142
1.0
143
1.0
70
0
72
0
73
0
74
0
7

75
0
147
1.0
148
0.0
149
0.0
100
AcDbLayout
1
Layout1
70
0
71
0
10
0.0
20
0.0
11
0.0
21
0.0
12
0.0
22
0.0
32
0.0
14
0.0
24
0.0
34
0.0
15
0.0
25
0.0
35
0.0
146
0.0
13
0.0
23
0.0
33
0.0
16
0.0
26
0.0
36
0.0
17
0.0
27
0.0
37
0.0
76
0
330
1B
331
0
345
0
346
0
0
LAYOUT
5
22
102
{ACAD_REACTORS
330
1A
102
}
100
AcDbPlotSettings
1

2

4

6

40
0.0
41
0.0
42
0.0
43
0.0
44
0.0
45
0.0
46
0.0
47
0.0
48
0.0
49
0.0
140
0.0
141
0.0
142
1.0
143
1.0
70
0
72
0
73
0
74
0
7

75
0
147
1.0
148
0.0
149
0.0
100
AcDbLayout
1
Model
70
0
71
0
10
0.0
20
0.0
11
0.0
21
0.0
12
0.0
22
0.0
32
0.0
14
0.0
24
0.0
34
0.0
15
0.0
25
0.0
35
0.0
146
0.0
13
0.0
23
0.0
33
0.0
16
0.0
26
0.0
36
0.0
17
0.0
27
0.0
37
0.0
76
0
330
1F
331
0
345
0
346
0
0
ENDSEC
0
EOF
