999
DXF file: s0732-692362.dxf
999
Pro/ENGINEER 2005310 by Parametric Technology Corporation
0
SECTION
2
HEADER
9
$ACADVER
1
AC1015
9
$DWGCODEPAGE
3
ANSI_1252
9
$EXTMAX
10
210.0000000000
20
297.0000000000
30
0.0000000000
9
$EXTMIN
10
0.0000000000
20
0.0000000000
30
0.0000000000
9
$LIMMIN
10
0.0000000000
20
0.0000000000
9
$LIMMAX
10
210.0000000000
20
297.0000000000
9
$VIEWCTR
10
105.0000000000
20
148.5000000000
9
$VIEWSIZE
40
297.0000000000
9
$CLAYER
8
0
9
$LTSCALE
40
19.3600000000
9
$CELTYPE
6
BYLAYER
9
$DIMSCALE
40
1
9
$DIMASZ
40
3.5000000000
9
$DIMEXO
40
2.2000000000
9
$DIMDLI
40
13.3760000000
9
$DIMEXE
40
6.3360000000
9
$DIMCEN
40
3.1680000000
9
$DIMLFAC
40
1.0000000000
9
$DIMBLK
1
_FILLED
9
$DIMTXT
40
3.5000000000
9
$DIMTOL
70
1
9
$DIMLIM
70
0
9
$DIMTFAC
40
1.0000000000
9
$DIMTP
40
0.0010000000
9
$DIMTM
40
0.0010000000
9
$PDMODE
70
3
9
$PDSIZE
40
0.3125000000
9
$HANDSEED
5
407
9
$MEASUREMENT
70
1
9
$INSUNITS
70
4
0
ENDSEC
0
SECTION
2
CLASSES
0
CLASS
1
ACDBDICTIONARYWDFLT
2
AcDbDictionaryWithDefault
3
AutoCAD 2000
90
0
280
0
281
0
0
CLASS
1
ACDBPLACEHOLDER
2
AcDbPlaceHolder
3
AutoCAD 2000
90
0
280
0
281
0
0
CLASS
1
LAYOUT
2
AcDbLayout
3
AutoCAD 2000
90
0
280
0
281
0
0
ENDSEC
0
SECTION
2
TABLES
0
TABLE
2
VPORT
5
8
100
AcDbSymbolTable
70
2
0
VPORT
5
1F4
100
AcDbSymbolTableRecord
100
AcDbViewportTableRecord
2
*ACTIVE
70
0
10
0.0
20
0.0
11
1.0
21
1.0
12
105.0000000000
22
148.5000000000
13
0.0
23
0.0
14
1.0
24
1.0
15
0.0
25
0.0
16
0.0
26
0.0
36
1.0
17
0.0
27
0.0
37
0.0
40
297.0000000000
41
0.7070707071
42
50.0
43
0.0
44
0.0
50
0.0
51
0.0
71
0
72
100
73
1
74
1
75
0
76
0
77
0
78
0
0
ENDTAB
0
TABLE
2
LTYPE
5
5
100
AcDbSymbolTable
70
6
0
LTYPE
5
14
100
AcDbSymbolTableRecord
100
AcDbLinetypeTableRecord
2
BYBLOCK
70
0
3

72
65
73
0
40
0.0
0
LTYPE
5
15
100
AcDbSymbolTableRecord
100
AcDbLinetypeTableRecord
2
BYLAYER
70
0
3

72
65
73
0
40
0.0
0
LTYPE
5
16
100
AcDbSymbolTableRecord
100
AcDbLinetypeTableRecord
2
CONTINUOUS
70
64
3
Solid line
72
65
73
0
40
0
0
LTYPE
5
1F5
100
AcDbSymbolTableRecord
100
AcDbLinetypeTableRecord
2
CENTER
70
64
3
____ _ ____ _ ____ _ ____ _ ____ _ ____ _ ____
72
65
73
4
40
0.6
49
0.375
74
0
49
-0.075
74
0
49
0.075
74
0
49
-0.075
74
0
0
LTYPE
5
1F6
100
AcDbSymbolTableRecord
100
AcDbLinetypeTableRecord
2
HIDDEN
70
64
3
- - - - - - - - - - - - - - - - - - - -
72
65
73
2
40
0.2
49
0.1
74
0
49
-0.1
74
0
0
LTYPE
5
1F7
100
AcDbSymbolTableRecord
100
AcDbLinetypeTableRecord
2
PHANTOM
70
64
3
_____ _ _ _____ _ _ _____ _ _ _____
72
65
73
6
40
0.8
49
0.45
74
0
49
-0.05
74
0
49
0.1
74
0
49
-0.05
74
0
49
0.1
74
0
49
-0.05
74
0
0
LTYPE
5
1F8
100
AcDbSymbolTableRecord
100
AcDbLinetypeTableRecord
2
DOT
70
64
3
. . . . . . . . . . . . . . . . . . . .
72
65
73
2
40
0.2
49
0.1
74
0
49
-0.1
74
0
0
LTYPE
5
1F9
100
AcDbSymbolTableRecord
100
AcDbLinetypeTableRecord
2
DASHED
70
64
3
- - - - - - - - - - - - - - - - - - - -
72
65
73
2
40
0.2
49
0.1
74
0
49
-0.1
74
0
0
ENDTAB
0
TABLE
2
LAYER
5
2
100
AcDbSymbolTable
70
36
0
LAYER
5
10
100
AcDbSymbolTableRecord
100
AcDbLayerTableRecord
2
0
70
0
62
7
6
CONTINUOUS
370
-3
390
F
0
LAYER
5
1FA
100
AcDbSymbolTableRecord
100
AcDbLayerTableRecord
2
DEFAULT_1
70
0
62
7
6
CENTER
370
-3
390
F
0
LAYER
5
1FB
100
AcDbSymbolTableRecord
100
AcDbLayerTableRecord
2
DEFAULT_2
70
0
62
8
6
HIDDEN
370
-3
390
F
0
LAYER
5
1FC
100
AcDbSymbolTableRecord
100
AcDbLayerTableRecord
2
DEFAULT_3
70
0
62
7
6
PHANTOM
370
-3
390
F
0
LAYER
5
1FD
100
AcDbSymbolTableRecord
100
AcDbLayerTableRecord
2
_2D_DELETED_OBJS
70
0
62
7
6
CONTINUOUS
370
-3
390
F
0
LAYER
5
1FE
100
AcDbSymbolTableRecord
100
AcDbLayerTableRecord
2
ASSI
70
0
62
7
6
CONTINUOUS
370
-3
390
F
0
LAYER
5
1FF
100
AcDbSymbolTableRecord
100
AcDbLayerTableRecord
2
SISCO
70
0
62
7
6
CONTINUOUS
370
-3
390
F
0
LAYER
5
200
100
AcDbSymbolTableRecord
100
AcDbLayerTableRecord
2
SURF_FILETTI
70
0
62
7
6
CONTINUOUS
370
-3
390
F
0
ENDTAB
0
TABLE
2
STYLE
5
3
100
AcDbSymbolTable
70
1
0
STYLE
5
11
100
AcDbSymbolTableRecord
100
AcDbTextStyleTableRecord
2
STANDARD
70
0
40
0.0
41
0.7143000000
50
0.0
71
0
42
0.2
3
txt
4

0
ENDTAB
0
TABLE
2
VIEW
5
6
100
AcDbSymbolTable
70
0
0
ENDTAB
0
TABLE
2
UCS
5
7
100
AcDbSymbolTable
70
0
0
ENDTAB
0
TABLE
2
APPID
5
9
100
AcDbSymbolTable
70
1
0
APPID
5
201
100
AcDbSymbolTableRecord
100
AcDbRegAppTableRecord
2
ACAD
70
0
0
ENDTAB
0
TABLE
2
BLOCK_RECORD
5
1
100
AcDbSymbolTable
70
0
0
BLOCK_RECORD
5
1F
100
AcDbSymbolTableRecord
100
AcDbBlockTableRecord
2
*MODEL_SPACE
0
BLOCK_RECORD
5
1B
100
AcDbSymbolTableRecord
100
AcDbBlockTableRecord
2
*PAPER_SPACE
0
BLOCK_RECORD
5
202
100
AcDbSymbolTableRecord
100
AcDbBlockTableRecord
2
_FILLED
0
BLOCK_RECORD
5
203
100
AcDbSymbolTableRecord
100
AcDbBlockTableRecord
2
*D0
0
BLOCK_RECORD
5
204
100
AcDbSymbolTableRecord
100
AcDbBlockTableRecord
2
*D1
0
BLOCK_RECORD
5
205
100
AcDbSymbolTableRecord
100
AcDbBlockTableRecord
2
*D2
0
BLOCK_RECORD
5
206
100
AcDbSymbolTableRecord
100
AcDbBlockTableRecord
2
*D3
0
BLOCK_RECORD
5
207
100
AcDbSymbolTableRecord
100
AcDbBlockTableRecord
2
*D4
0
BLOCK_RECORD
5
208
100
AcDbSymbolTableRecord
100
AcDbBlockTableRecord
2
*D5
0
BLOCK_RECORD
5
209
100
AcDbSymbolTableRecord
100
AcDbBlockTableRecord
2
*D6
0
ENDTAB
0
TABLE
2
DIMSTYLE
5
A
100
AcDbSymbolTable
70
1
100
AcDbDimStyleTable
71
0
0
DIMSTYLE
105
20A
100
AcDbSymbolTableRecord
100
AcDbDimStyleTableRecord
2
STANDARD
70
0
3

4

40
1.0
41
3.5000000000
42
0.0625
43
0.38
44
0.18
45
0.0
46
0.0
47
0.0010000000
48
0.0010000000
140
3.5000000000
141
0.09
142
0.0
143
25.4
144
1.0000000000
145
0.0
146
1.0000000000
147
0.09
71
1
72
0
73
0
74
0
75
0
76
0
77
1
78
8
170
0
171
2
172
0
173
0
174
0
175
0
176
0
177
0
178
0
270
2
271
3
272
3
273
2
274
2
275
0
280
0
281
0
282
0
283
1
284
8
285
0
286
0
287
3
288
0
340
11
341
202
342
202
343
202
344
202
0
DIMSTYLE
105
20B
100
AcDbSymbolTableRecord
100
AcDbDimStyleTableRecord
2
DIMSTYLE_1
70
0
3

4

40
1.0
41
3.5000000000
42
0.0625
43
0.38
44
0.18
45
0.0
46
0.0
47
0.1000000000
48
0.1000000000
140
3.5000000000
141
0.09
142
0.0
143
25.4
144
1.0000000000
145
0.0
146
1.0000000000
147
0.09
71
0
72
0
73
0
74
0
75
0
76
0
77
1
78
8
170
0
171
2
172
0
173
0
174
0
175
0
176
0
177
0
178
0
270
2
271
3
272
3
273
2
274
2
275
0
280
0
281
0
282
0
283
1
284
8
285
0
286
0
287
3
288
0
340
11
341
202
342
202
343
202
344
202
0
DIMSTYLE
105
20C
100
AcDbSymbolTableRecord
100
AcDbDimStyleTableRecord
2
DIMSTYLE_2
70
0
3

4

40
1.0
41
3.5000000000
42
0.0625
43
0.38
44
0.18
45
0.0
46
0.0
47
0.1500000000
48
0.1500000000
140
3.5000000000
141
0.09
142
0.0
143
25.4
144
1.0000000000
145
0.0
146
1.0000000000
147
0.09
71
0
72
0
73
0
74
0
75
0
76
0
77
1
78
8
170
0
171
2
172
0
173
0
174
0
175
0
176
0
177
0
178
0
270
2
271
3
272
3
273
2
274
2
275
0
280
0
281
0
282
0
283
1
284
8
285
0
286
0
287
3
288
0
340
11
341
202
342
202
343
202
344
202
0
DIMSTYLE
105
20D
100
AcDbSymbolTableRecord
100
AcDbDimStyleTableRecord
2
DIMSTYLE_3
70
0
3

4

40
1.0
41
3.5000000000
42
0.0625
43
0.38
44
0.18
45
0.0
46
0.0
47
0.1000000000
48
0.1000000000
140
3.5000000000
141
0.09
142
0.0
143
25.4
144
1.0000000000
145
0.0
146
1.0000000000
147
0.09
71
0
72
0
73
0
74
0
75
0
76
0
77
1
78
8
170
0
171
2
172
0
173
0
174
0
175
0
176
0
177
0
178
0
270
2
271
3
272
3
273
2
274
2
275
0
280
0
281
0
282
0
283
1
284
8
285
0
286
0
287
3
288
0
340
11
341
202
342
202
343
202
344
202
0
ENDTAB
0
ENDSEC
0
SECTION
2
BLOCKS
0
BLOCK
5
20
100
AcDbEntity
8
0
100
AcDbBlockBegin
2
*MODEL_SPACE
70
0
10
0.0
20
0.0
30
0.0
3
*MODEL_SPACE
1

0
ENDBLK
5
21
100
AcDbEntity
8
0
100
AcDbBlockEnd
0
BLOCK
5
1C
100
AcDbEntity
8
0
100
AcDbBlockBegin
2
*PAPER_SPACE
70
0
10
0.0
20
0.0
30
0.0
3
*PAPER_SPACE
1

0
ENDBLK
5
1D
100
AcDbEntity
8
0
100
AcDbBlockEnd
0
BLOCK
5
20E
100
AcDbEntity
8
0
100
AcDbBlockBegin
62
2
6
CONTINUOUS
2
*D0
70
65
10
0.0000000000
20
0.0000000000
3
*D0
1

0
TEXT
5
20F
100
AcDbEntity
8
0
100
AcDbText
62
2
6
CONTINUOUS
10
81.7736122832
20
220.9785534665
7
STANDARD
40
3.5000000000
1
16.8
41
0.7143000000
72
0
100
AcDbText
0
LINE
5
210
100
AcDbEntity
8
0
100
AcDbLine
62
2
6
CONTINUOUS
10
78.1802030457
20
201.2015228426
11
78.1802030457
21
221.6035534665
0
LINE
5
211
100
AcDbEntity
8
0
100
AcDbLine
62
2
6
CONTINUOUS
10
94.9802030457
20
207.7015228426
11
94.9802030457
21
221.6035534665
0
LINE
5
212
100
AcDbEntity
8
0
100
AcDbLine
62
2
6
CONTINUOUS
10
78.1802030457
20
220.1035534665
11
86.5802030457
21
220.1035534665
0
LINE
5
213
100
AcDbEntity
8
0
100
AcDbLine
62
2
6
CONTINUOUS
10
94.9802030457
20
220.1035534665
11
86.5802030457
21
220.1035534665
0
INSERT
5
214
100
AcDbEntity
8
0
100
AcDbBlockReference
62
2
6
CONTINUOUS
2
_FILLED
10
78.1802030457
20
220.1035534665
41
  3.500000
42
  3.500000
43
  3.500000
50
180.000000
0
INSERT
5
215
100
AcDbEntity
8
0
100
AcDbBlockReference
62
2
6
CONTINUOUS
2
_FILLED
10
94.9802030457
20
220.1035534665
41
  3.500000
42
  3.500000
43
  3.500000
0
ENDBLK
5
216
100
AcDbEntity
8
0
6
BYBLOCK
62
0
100
AcDbBlockEnd
0
BLOCK
5
217
100
AcDbEntity
8
0
100
AcDbBlockBegin
62
2
6
CONTINUOUS
2
*D1
70
65
10
0.0000000000
20
0.0000000000
3
*D1
1

0
TEXT
5
218
100
AcDbEntity
8
0
100
AcDbText
62
2
6
CONTINUOUS
10
104.7838021934
20
238.1387898426
7
STANDARD
40
3.5000000000
1
102
41
0.7143000000
72
0
100
AcDbText
0
LINE
5
219
100
AcDbEntity
8
0
100
AcDbLine
62
2
6
CONTINUOUS
10
56.6802030457
20
186.7015228426
11
56.6802030457
21
238.7637898426
0
LINE
5
21A
100
AcDbEntity
8
0
100
AcDbLine
62
2
6
CONTINUOUS
10
158.6802030457
20
186.7015228426
11
158.6802030457
21
238.7637898426
0
LINE
5
21B
100
AcDbEntity
8
0
100
AcDbLine
62
2
6
CONTINUOUS
10
56.6802030457
20
237.2637898426
11
107.6802030457
21
237.2637898426
0
LINE
5
21C
100
AcDbEntity
8
0
100
AcDbLine
62
2
6
CONTINUOUS
10
158.6802030457
20
237.2637898426
11
107.6802030457
21
237.2637898426
0
INSERT
5
21D
100
AcDbEntity
8
0
100
AcDbBlockReference
62
2
6
CONTINUOUS
2
_FILLED
10
56.6802030457
20
237.2637898426
41
  3.500000
42
  3.500000
43
  3.500000
50
180.000000
0
INSERT
5
21E
100
AcDbEntity
8
0
100
AcDbBlockReference
62
2
6
CONTINUOUS
2
_FILLED
10
158.6802030457
20
237.2637898426
41
  3.500000
42
  3.500000
43
  3.500000
0
ENDBLK
5
21F
100
AcDbEntity
8
0
6
BYBLOCK
62
0
100
AcDbBlockEnd
0
BLOCK
5
220
100
AcDbEntity
8
0
100
AcDbBlockBegin
62
2
6
CONTINUOUS
2
*D2
70
65
10
0.0000000000
20
0.0000000000
3
*D2
1

0
TEXT
5
221
100
AcDbEntity
8
0
100
AcDbText
62
2
6
CONTINUOUS
10
45.4817945580
20
184.8704223131
7
STANDARD
40
3.5000000000
1
36
50
90.0000000000
41
0.7143000000
72
0
100
AcDbText
0
LINE
5
222
100
AcDbEntity
8
0
100
AcDbLine
62
2
6
CONTINUOUS
10
84.4302030457
20
204.2015228426
11
44.8567945580
21
204.2015228426
0
LINE
5
223
100
AcDbEntity
8
0
100
AcDbLine
62
2
6
CONTINUOUS
10
84.4302030457
20
168.2015228426
11
44.8567945580
21
168.2015228426
0
LINE
5
224
100
AcDbEntity
8
0
100
AcDbLine
62
2
6
CONTINUOUS
10
46.3567945580
20
204.2015228426
11
46.3567945580
21
186.2015228426
0
LINE
5
225
100
AcDbEntity
8
0
100
AcDbLine
62
2
6
CONTINUOUS
10
46.3567945580
20
168.2015228426
11
46.3567945580
21
186.2015228426
0
INSERT
5
226
100
AcDbEntity
8
0
100
AcDbBlockReference
62
2
6
CONTINUOUS
2
_FILLED
10
46.3567945580
20
204.2015228426
41
  3.500000
42
  3.500000
43
  3.500000
50
 90.000000
0
INSERT
5
227
100
AcDbEntity
8
0
100
AcDbBlockReference
62
2
6
CONTINUOUS
2
_FILLED
10
46.3567945580
20
168.2015228426
41
  3.500000
42
  3.500000
43
  3.500000
50
270.000000
0
ENDBLK
5
228
100
AcDbEntity
8
0
6
BYBLOCK
62
0
100
AcDbBlockEnd
0
BLOCK
5
229
100
AcDbEntity
8
0
100
AcDbBlockBegin
62
2
6
CONTINUOUS
2
*D3
70
65
10
0.0000000000
20
0.0000000000
3
*D3
1

0
TEXT
5
22A
100
AcDbEntity
8
0
100
AcDbText
62
2
6
CONTINUOUS
10
76.6110412669
20
70.8875505208
7
STANDARD
40
3.5000000000
1
%%c
50
61.7997594077
41
1.3333333333
72
0
100
AcDbText
0
TEXT
5
22B
100
AcDbEntity
8
0
100
AcDbText
62
2
6
CONTINUOUS
10
78.8162954395
20
75.0002907037
7
STANDARD
40
3.5000000000
1
12
50
61.7997594077
41
0.7143000000
72
0
100
AcDbText
0
LINE
5
22C
100
AcDbEntity
8
0
100
AcDbLine
62
2
6
CONTINUOUS
10
92.1448762519
20
98.0060998223
11
94.9802030457
21
103.2939086294
0
LINE
5
22D
100
AcDbEntity
8
0
100
AcDbLine
62
2
6
CONTINUOUS
10
94.9802030457
20
103.2939086294
11
77.3821800511
21
70.4740653634
0
LINE
5
22E
100
AcDbEntity
8
0
100
AcDbLine
62
2
6
CONTINUOUS
10
97.8155298394
20
108.5817174366
11
94.9802030457
21
103.2939086294
0
LINE
5
22F
100
AcDbEntity
8
0
100
AcDbLine
62
2
6
CONTINUOUS
10
94.9802030457
20
103.2939086294
11
101.5959655637
21
115.6321291780
0
INSERT
5
230
100
AcDbEntity
8
0
100
AcDbBlockReference
62
2
6
CONTINUOUS
2
_FILLED
10
92.1448762523
20
98.0060998229
41
  3.500000
42
  3.500000
43
  3.500000
50
 61.798254
0
INSERT
5
231
100
AcDbEntity
8
0
100
AcDbBlockReference
62
2
6
CONTINUOUS
2
_FILLED
10
97.8155298391
20
108.5817174360
41
  3.500000
42
  3.500000
43
  3.500000
50
241.797707
0
ENDBLK
5
232
100
AcDbEntity
8
0
6
BYBLOCK
62
0
100
AcDbBlockEnd
0
BLOCK
5
233
100
AcDbEntity
8
0
100
AcDbBlockBegin
62
2
6
CONTINUOUS
2
*D4
70
65
10
0.0000000000
20
0.0000000000
3
*D4
1

0
TEXT
5
234
100
AcDbEntity
8
0
100
AcDbText
62
2
6
CONTINUOUS
10
101.9207709702
20
220.9785534665
7
STANDARD
40
3.5000000000
1
25.4
41
0.7143000000
72
0
100
AcDbText
0
LINE
5
235
100
AcDbEntity
8
0
100
AcDbLine
62
2
6
CONTINUOUS
10
94.9802030457
20
207.7015228426
11
94.9802030457
21
221.6035534665
0
LINE
5
236
100
AcDbEntity
8
0
100
AcDbLine
62
2
6
CONTINUOUS
10
120.3802030457
20
186.7015228426
11
120.3802030457
21
221.6035534665
0
LINE
5
237
100
AcDbEntity
8
0
100
AcDbLine
62
2
6
CONTINUOUS
10
94.9802030457
20
220.1035534665
11
107.6802030457
21
220.1035534665
0
LINE
5
238
100
AcDbEntity
8
0
100
AcDbLine
62
2
6
CONTINUOUS
10
120.3802030457
20
220.1035534665
11
107.6802030457
21
220.1035534665
0
INSERT
5
239
100
AcDbEntity
8
0
100
AcDbBlockReference
62
2
6
CONTINUOUS
2
_FILLED
10
94.9802030457
20
220.1035534665
41
  3.500000
42
  3.500000
43
  3.500000
50
180.000000
0
INSERT
5
23A
100
AcDbEntity
8
0
100
AcDbBlockReference
62
2
6
CONTINUOUS
2
_FILLED
10
120.3802030457
20
220.1035534665
41
  3.500000
42
  3.500000
43
  3.500000
0
ENDBLK
5
23B
100
AcDbEntity
8
0
6
BYBLOCK
62
0
100
AcDbBlockEnd
0
BLOCK
5
23C
100
AcDbEntity
8
0
100
AcDbBlockBegin
62
2
6
CONTINUOUS
2
*D5
70
65
10
0.0000000000
20
0.0000000000
3
*D5
1

0
TEXT
5
23D
100
AcDbEntity
8
0
100
AcDbText
62
2
6
CONTINUOUS
10
123.1084336257
20
220.9785534665
7
STANDARD
40
3.5000000000
1
16.8
41
0.7143000000
72
0
100
AcDbText
0
LINE
5
23E
100
AcDbEntity
8
0
100
AcDbLine
62
2
6
CONTINUOUS
10
137.1802030457
20
201.2015228426
11
137.1802030457
21
221.6035534665
0
LINE
5
23F
100
AcDbEntity
8
0
100
AcDbLine
62
2
6
CONTINUOUS
10
120.3802030457
20
186.7015228426
11
120.3802030457
21
221.6035534665
0
LINE
5
240
100
AcDbEntity
8
0
100
AcDbLine
62
2
6
CONTINUOUS
10
137.1802030457
20
220.1035534665
11
128.7802030457
21
220.1035534665
0
LINE
5
241
100
AcDbEntity
8
0
100
AcDbLine
62
2
6
CONTINUOUS
10
120.3802030457
20
220.1035534665
11
128.7802030457
21
220.1035534665
0
INSERT
5
242
100
AcDbEntity
8
0
100
AcDbBlockReference
62
2
6
CONTINUOUS
2
_FILLED
10
137.1802030457
20
220.1035534665
41
  3.500000
42
  3.500000
43
  3.500000
0
INSERT
5
243
100
AcDbEntity
8
0
100
AcDbBlockReference
62
2
6
CONTINUOUS
2
_FILLED
10
120.3802030457
20
220.1035534665
41
  3.500000
42
  3.500000
43
  3.500000
50
180.000000
0
ENDBLK
5
244
100
AcDbEntity
8
0
6
BYBLOCK
62
0
100
AcDbBlockEnd
0
BLOCK
5
245
100
AcDbEntity
8
0
100
AcDbBlockBegin
62
2
6
CONTINUOUS
2
*D6
70
65
10
0.0000000000
20
0.0000000000
3
*D6
1

0
TEXT
5
246
100
AcDbEntity
8
0
100
AcDbText
62
2
6
CONTINUOUS
10
129.5500670451
20
165.3803190991
7
STANDARD
40
3.5000000000
1
%%c
50
-68.4349614447
41
1.3333333333
72
0
100
AcDbText
0
TEXT
5
247
100
AcDbEntity
8
0
100
AcDbText
62
2
6
CONTINUOUS
10
131.2653337064
20
161.0403147145
7
STANDARD
40
3.5000000000
1
16
50
-68.4349614447
41
0.7143000000
72
0
100
AcDbText
0
LINE
5
248
100
AcDbEntity
8
0
100
AcDbLine
62
2
6
CONTINUOUS
10
123.3206601794
20
178.7615153262
11
120.3802030457
21
186.2015228426
0
LINE
5
249
100
AcDbEntity
8
0
100
AcDbLine
62
2
6
CONTINUOUS
10
120.3802030457
20
186.2015228426
11
132.2894053486
21
156.0686045177
0
LINE
5
24A
100
AcDbEntity
8
0
100
AcDbLine
62
2
6
CONTINUOUS
10
117.4397459120
20
193.6415303591
11
120.3802030457
21
186.2015228426
0
INSERT
5
24B
100
AcDbEntity
8
0
100
AcDbBlockReference
62
2
6
CONTINUOUS
2
_FILLED
10
123.3206601794
20
178.7615153262
41
  3.500000
42
  3.500000
43
  3.500000
50
291.565039
0
INSERT
5
24C
100
AcDbEntity
8
0
100
AcDbBlockReference
62
2
6
CONTINUOUS
2
_FILLED
10
117.4397459120
20
193.6415303591
41
  3.500000
42
  3.500000
43
  3.500000
50
111.565039
0
ENDBLK
5
24D
100
AcDbEntity
8
0
6
BYBLOCK
62
0
100
AcDbBlockEnd
0
BLOCK
5
24E
100
AcDbEntity
8
0
100
AcDbBlockBegin
2
_FILLED
70
64
10
0.0000000000
20
0.0000000000
3
_FILLED
1

0
SOLID
5
24F
100
AcDbEntity
8
0
6
BYBLOCK
62
0
100
AcDbTrace
10
0.0000000000
20
0.0000000000
11
-1.0000000000
21
0.1857142857
12
-1.0000000000
22
-0.1857142857
13
-1.0000000000
23
-0.1857142857
0
ENDBLK
5
250
100
AcDbEntity
8
0
6
BYBLOCK
62
0
100
AcDbBlockEnd
0
ENDSEC
0
SECTION
2
ENTITIES
0
DIMENSION
5
251
100
AcDbEntity
8
0
100
AcDbDimension
62
2
6
CONTINUOUS
2
*D0
10
94.9802030457
20
220.1035534665
11
86.7737122832
21
222.7285534665
70
160
42
16.800000
3
DIMSTYLE_1
100
AcDbAlignedDimension
13
78.1802030457
23
201.2015228426
14
94.9802030457
24
207.7015228426
100
AcDbRotatedDimension
0
DIMENSION
5
252
100
AcDbEntity
8
0
100
AcDbDimension
62
2
6
CONTINUOUS
2
*D1
10
158.6802030457
20
237.2637898426
11
108.5338771934
21
239.8887898426
70
160
42
102.000000
3
DIMSTYLE_2
100
AcDbAlignedDimension
13
56.6802030457
23
186.7015228426
14
158.6802030457
24
186.7015228426
100
AcDbRotatedDimension
0
DIMENSION
5
253
100
AcDbEntity
8
0
100
AcDbDimension
62
2
6
CONTINUOUS
2
*D2
10
46.3567945580
20
168.2015228426
11
43.7317945580
21
187.3704723131
70
160
42
36.000000
3
DIMSTYLE_2
100
AcDbAlignedDimension
13
84.4302030457
23
204.2015228426
14
84.4302030457
24
168.2015228426
50
270.000000
100
AcDbRotatedDimension
0
DIMENSION
5
254
100
AcDbEntity
8
0
100
AcDbDimension
62
2
6
CONTINUOUS
2
*D3
10
92.1448762523
20
98.0060998229
11
77.3528005763
21
75.9741886615
70
163
42
12.000000
1
<>
3
DIMSTYLE_3
100
AcDbDiametricDimension
15
97.8155298391
25
108.5817174360
0
DIMENSION
5
255
100
AcDbEntity
8
0
100
AcDbDimension
62
2
6
CONTINUOUS
2
*D4
10
120.3802030457
20
220.1035534665
11
106.9208709702
21
222.7285534665
70
160
42
25.400000
3
DIMSTYLE_1
100
AcDbAlignedDimension
13
94.9802030457
23
207.7015228426
14
120.3802030457
24
186.7015228426
100
AcDbRotatedDimension
0
DIMENSION
5
256
100
AcDbEntity
8
0
100
AcDbDimension
62
2
6
CONTINUOUS
2
*D5
10
120.3802030457
20
220.1035534665
11
128.1085336257
21
222.7285534665
70
160
42
16.800000
3
DIMSTYLE_1
100
AcDbAlignedDimension
13
137.1802030457
23
201.2015228426
14
120.3802030457
24
186.7015228426
50
180.000000
100
AcDbRotatedDimension
0
DIMENSION
5
257
100
AcDbEntity
8
0
100
AcDbDimension
62
2
6
CONTINUOUS
2
*D6
10
123.3206601794
20
178.7615153262
11
132.9541132521
21
161.5284930559
70
163
42
16.000000
1
<>
3
DIMSTYLE_3
100
AcDbDiametricDimension
15
117.4397459120
25
193.6415303591
0
LINE
5
258
100
AcDbEntity
8
0
100
AcDbLine
62
7
6
CONTINUOUS
10
0.0000000000
20
0.0000000000
11
210.0000000000
21
0.0000000000
0
LINE
5
259
100
AcDbEntity
8
0
100
AcDbLine
62
7
6
CONTINUOUS
10
0.0000000000
20
0.0000000000
11
0.0000000000
21
297.0000000000
0
LINE
5
25A
100
AcDbEntity
8
0
100
AcDbLine
62
7
6
CONTINUOUS
10
210.0000000000
20
0.0000000000
11
210.0000000000
21
297.0000000000
0
LINE
5
25B
100
AcDbEntity
8
0
100
AcDbLine
62
7
6
CONTINUOUS
10
0.0000000000
20
297.0000000000
11
210.0000000000
21
297.0000000000
0
LINE
5
25C
100
AcDbEntity
8
0
100
AcDbLine
62
7
6
CONTINUOUS
10
56.6802030457
20
178.2015228426
11
57.3463305474
21
163.6443897706
0
LINE
5
25D
100
AcDbEntity
8
0
100
AcDbLine
62
7
6
CONTINUOUS
10
56.6802030457
20
194.2011623508
11
56.6802030457
21
178.2018833345
0
LINE
5
25E
100
AcDbEntity
8
0
100
AcDbLine
62
7
6
CONTINUOUS
10
57.3463305477
20
187.9447861888
11
57.3463305474
21
184.4582594954
0
LINE
5
25F
100
AcDbEntity
8
0
100
AcDbLine
62
7
6
CONTINUOUS
10
57.3463305474
20
163.6443897706
11
57.3463305473
21
163.7118522085
0
LINE
5
260
100
AcDbEntity
8
0
100
AcDbLine
62
7
6
CONTINUOUS
10
57.3463305475
20
208.6911934812
11
57.3463305474
21
208.7586559147
0
LINE
5
261
100
AcDbEntity
8
0
100
AcDbLine
62
7
6
CONTINUOUS
10
56.6802030457
20
194.2015228426
11
57.3463305474
21
208.7586559147
0
LINE
5
262
100
AcDbEntity
8
0
100
AcDbLine
62
7
6
CONTINUOUS
10
60.3431946619
20
160.7815228426
11
60.3431946619
21
162.8124606793
0
LINE
5
263
100
AcDbEntity
8
0
100
AcDbLine
62
7
6
CONTINUOUS
10
60.3431946619
20
182.5013418832
11
60.3431946619
21
189.9017038021
0
LINE
5
264
100
AcDbEntity
8
0
100
AcDbLine
62
7
6
CONTINUOUS
10
60.3431946619
20
209.5905850060
11
60.3431946619
21
211.6215228426
0
LINE
5
265
100
AcDbEntity
8
0
100
AcDbLine
62
7
6
CONTINUOUS
10
61.2571895290
20
160.7815228426
11
61.2571895290
21
162.8124606793
0
LINE
5
266
100
AcDbEntity
8
0
100
AcDbLine
62
7
6
CONTINUOUS
10
61.2571895290
20
182.5013418832
11
61.2571895290
21
189.9017038021
0
LINE
5
267
100
AcDbEntity
8
0
100
AcDbLine
62
7
6
CONTINUOUS
10
61.2571895290
20
209.5905850060
11
61.2571895290
21
211.6215228426
0
LINE
5
268
100
AcDbEntity
8
0
100
AcDbLine
62
7
6
CONTINUOUS
10
64.1533309632
20
163.0661463578
11
64.1533309689
21
162.9989854566
0
LINE
5
269
100
AcDbEntity
8
0
100
AcDbLine
62
7
6
CONTINUOUS
10
64.1533309689
20
209.4040602287
11
64.1533309746
21
209.3368992843
0
LINE
5
26A
100
AcDbEntity
8
0
100
AcDbLine
62
7
6
CONTINUOUS
10
64.1533309993
20
187.9656365355
11
64.1533309746
21
184.4374091632
0
LINE
5
26B
100
AcDbEntity
8
0
100
AcDbLine
62
7
6
CONTINUOUS
10
67.0803541469
20
198.5710663825
11
67.0803446070
21
196.4563860964
0
LINE
5
26C
100
AcDbEntity
8
0
100
AcDbLine
62
7
6
CONTINUOUS
10
67.0803446156
20
175.9466599283
11
67.0803528273
21
173.8319744189
0
LINE
5
26D
100
AcDbEntity
8
0
100
AcDbLine
62
7
6
CONTINUOUS
10
67.0803446260
20
193.1184789893
11
67.0803446262
21
179.2845674338
0
LINE
5
26E
100
AcDbEntity
8
0
100
AcDbLine
62
7
6
CONTINUOUS
10
67.5630351465
20
174.2015228426
11
67.5630350822
21
176.2530537692
0
LINE
5
26F
100
AcDbEntity
8
0
100
AcDbLine
62
7
6
CONTINUOUS
10
67.5630348722
20
179.4912346603
11
67.5630346090
21
192.9118114590
0
LINE
5
270
100
AcDbEntity
8
0
100
AcDbLine
62
7
6
CONTINUOUS
10
67.5630352108
20
196.1499920248
11
67.5630351465
21
198.2015228426
0
LINE
5
271
100
AcDbEntity
8
0
100
AcDbLine
62
7
6
CONTINUOUS
10
64.1533309689
20
162.9989854566
11
67.0803528273
21
173.8319744189
0
LINE
5
272
100
AcDbEntity
8
0
100
AcDbLine
62
7
6
CONTINUOUS
10
64.1533309689
20
209.4040602287
11
67.0803540225
21
198.5710668426
0
LINE
5
273
100
AcDbEntity
8
0
100
AcDbLine
62
7
6
CONTINUOUS
10
78.1802030457
20
171.7015228426
11
78.1802030457
21
200.7015228426
0
LINE
5
274
100
AcDbEntity
8
0
100
AcDbLine
62
7
6
CONTINUOUS
10
80.1802030457
20
202.7015228426
11
80.1802030457
21
169.7015228426
0
LINE
5
275
100
AcDbEntity
8
0
100
AcDbLine
62
7
6
CONTINUOUS
10
84.7302030457
20
168.4015228426
11
84.7302030457
21
169.2015228426
0
LINE
5
276
100
AcDbEntity
8
0
100
AcDbLine
62
7
6
CONTINUOUS
10
84.7302030457
20
203.2015228426
11
84.7302030457
21
204.0015228426
0
LINE
5
277
100
AcDbEntity
8
0
100
AcDbLine
62
7
6
CONTINUOUS
10
60.3431946619
20
160.7815228426
11
61.2571895290
21
160.7815228426
0
LINE
5
278
100
AcDbEntity
8
0
100
AcDbLine
62
7
6
CONTINUOUS
10
154.1032165623
20
160.7815228426
11
155.0172114295
21
160.7815228426
0
LINE
5
279
100
AcDbEntity
8
0
100
AcDbLine
62
7
6
CONTINUOUS
10
60.3431946619
20
160.8486127651
11
61.2571895290
21
160.8486127651
0
LINE
5
27A
100
AcDbEntity
8
0
100
AcDbLine
62
7
6
CONTINUOUS
10
154.1032165623
20
160.8486127651
11
155.0172114295
21
160.8486127651
0
LINE
5
27B
100
AcDbEntity
8
0
100
AcDbLine
62
7
6
CONTINUOUS
10
60.3431946619
20
162.8124606793
11
61.2571895290
21
162.8124606793
0
LINE
5
27C
100
AcDbEntity
8
0
100
AcDbLine
62
7
6
CONTINUOUS
10
154.1032165624
20
162.8124606793
11
155.0172114295
21
162.8124606793
0
LINE
5
27D
100
AcDbEntity
8
0
100
AcDbLine
62
7
6
CONTINUOUS
10
84.9302030457
20
168.2015228426
11
105.0302030457
21
168.2015228426
0
LINE
5
27E
100
AcDbEntity
8
0
100
AcDbLine
62
7
6
CONTINUOUS
10
84.7302030457
20
168.4015228426
11
105.2302030457
21
168.4015228426
0
LINE
5
27F
100
AcDbEntity
8
0
100
AcDbLine
62
7
6
CONTINUOUS
10
135.1802030457
20
169.7015228426
11
105.7302030457
21
169.7015228426
0
LINE
5
280
100
AcDbEntity
8
0
100
AcDbLine
62
7
6
CONTINUOUS
10
84.2302030457
20
169.7015228426
11
80.1802030457
21
169.7015228426
0
LINE
5
281
100
AcDbEntity
8
DEFAULT_1
100
AcDbLine
62
2
6
CENTER
10
94.9802030457
20
165.2015228426
11
94.9802030468
21
173.0319556520
0
LINE
5
282
100
AcDbEntity
8
DEFAULT_1
100
AcDbLine
62
2
6
CENTER
10
94.9802030454
20
199.3710900333
11
94.9802030457
21
207.2015228426
0
LINE
5
283
100
AcDbEntity
8
DEFAULT_1
100
AcDbLine
62
2
6
CENTER
10
94.9802031292
20
173.4192911645
11
94.9802031273
21
198.9837544842
0
LINE
5
284
100
AcDbEntity
8
0
100
AcDbLine
62
7
6
CONTINUOUS
10
94.9802030454
20
199.3710900333
11
94.9802031273
21
198.9837544842
0
LINE
5
285
100
AcDbEntity
8
0
100
AcDbLine
62
7
6
CONTINUOUS
10
94.9802031292
20
173.4192911645
11
94.9802030468
21
173.0319556520
0
LINE
5
286
100
AcDbEntity
8
0
100
AcDbLine
62
7
6
CONTINUOUS
10
67.5630351465
20
174.2015228426
11
78.1802030457
21
174.2015228426
0
LINE
5
287
100
AcDbEntity
8
0
100
AcDbLine
62
7
6
CONTINUOUS
10
137.1802030457
20
174.2015228426
11
147.7973746780
21
174.2015228426
0
LINE
5
288
100
AcDbEntity
8
0
100
AcDbLine
62
7
6
CONTINUOUS
10
155.0172114295
20
182.5013418832
11
154.1032165623
21
182.5013418832
0
LINE
5
289
100
AcDbEntity
8
0
100
AcDbLine
62
7
6
CONTINUOUS
10
61.2571895290
20
182.5013418832
11
60.3431946619
21
182.5013418832
0
LINE
5
28A
100
AcDbEntity
8
0
100
AcDbLine
62
7
6
CONTINUOUS
10
105.2302030457
20
168.4015228426
11
105.2302030457
21
169.2015228426
0
LINE
5
28B
100
AcDbEntity
8
0
100
AcDbLine
62
7
6
CONTINUOUS
10
105.2302030457
20
203.2015228426
11
105.2302030457
21
204.0015228426
0
LINE
5
28C
100
AcDbEntity
8
0
100
AcDbLine
62
7
6
CONTINUOUS
10
60.3431946619
20
184.3558927064
11
61.2571895290
21
184.3558927064
0
LINE
5
28D
100
AcDbEntity
8
0
100
AcDbLine
62
7
6
CONTINUOUS
10
154.1032165623
20
184.3558927064
11
155.0172114295
21
184.3558927064
0
LINE
5
28E
100
AcDbEntity
8
0
100
AcDbLine
62
7
6
CONTINUOUS
10
109.6302014541
20
186.2015227574
11
110.1302101650
21
186.2015228432
0
LINE
5
28F
100
AcDbEntity
8
0
100
AcDbLine
62
7
6
CONTINUOUS
10
130.6301913220
20
186.2015228425
11
131.1302053834
21
186.2015227560
0
LINE
5
290
100
AcDbEntity
8
0
100
AcDbLine
62
7
6
CONTINUOUS
10
155.0172114295
20
188.0471529789
11
154.1032165623
21
188.0471529789
0
LINE
5
291
100
AcDbEntity
8
0
100
AcDbLine
62
7
6
CONTINUOUS
10
61.2571895290
20
188.0471529789
11
60.3431946619
21
188.0471529789
0
LINE
5
292
100
AcDbEntity
8
0
100
AcDbLine
62
7
6
CONTINUOUS
10
60.3431946619
20
189.9017038020
11
61.2571895290
21
189.9017038020
0
LINE
5
293
100
AcDbEntity
8
0
100
AcDbLine
62
7
6
CONTINUOUS
10
154.1032165623
20
189.9017038020
11
155.0172114295
21
189.9017038020
0
LINE
5
294
100
AcDbEntity
8
0
100
AcDbLine
62
7
6
CONTINUOUS
10
67.5630351465
20
198.2015228426
11
78.1802030457
21
198.2015228426
0
LINE
5
295
100
AcDbEntity
8
0
100
AcDbLine
62
7
6
CONTINUOUS
10
137.1802030457
20
198.2015228426
11
147.7973746780
21
198.2015228426
0
LINE
5
296
100
AcDbEntity
8
0
100
AcDbLine
62
7
6
CONTINUOUS
10
135.1802030457
20
202.7015228426
11
105.7302030457
21
202.7015228426
0
LINE
5
297
100
AcDbEntity
8
0
100
AcDbLine
62
7
6
CONTINUOUS
10
84.2302030457
20
202.7015228426
11
80.1802030457
21
202.7015228426
0
LINE
5
298
100
AcDbEntity
8
0
100
AcDbLine
62
7
6
CONTINUOUS
10
105.2302030457
20
204.0015228426
11
84.7302030457
21
204.0015228426
0
LINE
5
299
100
AcDbEntity
8
0
100
AcDbLine
62
7
6
CONTINUOUS
10
84.9302031217
20
204.2015228426
11
105.0302030457
21
204.2015228426
0
LINE
5
29A
100
AcDbEntity
8
0
100
AcDbLine
62
7
6
CONTINUOUS
10
155.0172114295
20
209.5905850060
11
154.1032165623
21
209.5905850060
0
LINE
5
29B
100
AcDbEntity
8
0
100
AcDbLine
62
7
6
CONTINUOUS
10
61.2571895290
20
209.5905850060
11
60.3431946619
21
209.5905850060
0
LINE
5
29C
100
AcDbEntity
8
0
100
AcDbLine
62
7
6
CONTINUOUS
10
60.3431946619
20
211.5544329202
11
61.2571895290
21
211.5544329202
0
LINE
5
29D
100
AcDbEntity
8
0
100
AcDbLine
62
7
6
CONTINUOUS
10
154.1032165623
20
211.5544329202
11
155.0172114295
21
211.5544329202
0
LINE
5
29E
100
AcDbEntity
8
0
100
AcDbLine
62
7
6
CONTINUOUS
10
60.3431946619
20
211.6215228426
11
61.2571895290
21
211.6215228426
0
LINE
5
29F
100
AcDbEntity
8
0
100
AcDbLine
62
7
6
CONTINUOUS
10
154.1032165623
20
211.6215228426
11
155.0172114295
21
211.6215228426
0
LINE
5
2A0
100
AcDbEntity
8
0
100
AcDbLine
62
7
6
CONTINUOUS
10
135.1802030457
20
169.7015228426
11
135.1802030457
21
202.7015228426
0
LINE
5
2A1
100
AcDbEntity
8
0
100
AcDbLine
62
7
6
CONTINUOUS
10
137.1802030457
20
171.7015228426
11
137.1802030457
21
200.7015228426
0
LINE
5
2A2
100
AcDbEntity
8
0
100
AcDbLine
62
7
6
CONTINUOUS
10
148.2800527838
20
198.5710694889
11
151.2070748924
21
209.4040593772
0
LINE
5
2A3
100
AcDbEntity
8
0
100
AcDbLine
62
7
6
CONTINUOUS
10
148.2800533999
20
173.8319739163
11
151.2070748924
21
162.9989863081
0
LINE
5
2A4
100
AcDbEntity
8
0
100
AcDbLine
62
7
6
CONTINUOUS
10
147.7973707177
20
176.2530535321
11
147.7973746780
21
174.2015228426
0
LINE
5
2A5
100
AcDbEntity
8
0
100
AcDbLine
62
7
6
CONTINUOUS
10
147.7973760661
20
192.9118202761
11
147.7973708434
21
179.4912351961
0
LINE
5
2A6
100
AcDbEntity
8
0
100
AcDbLine
62
7
6
CONTINUOUS
10
147.7973746780
20
198.2015228426
11
147.7973786384
21
196.1499818103
0
LINE
5
2A7
100
AcDbEntity
8
0
100
AcDbLine
62
7
6
CONTINUOUS
10
148.2800614707
20
179.2845684962
11
148.2800617799
21
193.1184781548
0
LINE
5
2A8
100
AcDbEntity
8
0
100
AcDbLine
62
7
6
CONTINUOUS
10
148.2800533999
20
173.8319739163
11
148.2800614910
21
175.9466590584
0
LINE
5
2A9
100
AcDbEntity
8
0
100
AcDbLine
62
7
6
CONTINUOUS
10
148.2800622083
20
196.4563764059
11
148.2800527078
21
198.5710692074
0
LINE
5
2AA
100
AcDbEntity
8
0
100
AcDbLine
62
7
6
CONTINUOUS
10
151.2070748924
20
162.9989863081
11
151.2070748343
21
163.0661474605
0
LINE
5
2AB
100
AcDbEntity
8
0
100
AcDbLine
62
7
6
CONTINUOUS
10
151.2070747886
20
184.4374089912
11
151.2070749347
21
187.9656366017
0
LINE
5
2AC
100
AcDbEntity
8
0
100
AcDbLine
62
7
6
CONTINUOUS
10
151.2070749505
20
209.3368986621
11
151.2070748924
21
209.4040593772
0
LINE
5
2AD
100
AcDbEntity
8
0
100
AcDbLine
62
7
6
CONTINUOUS
10
154.1032165623
20
160.7815228426
11
154.1032165624
21
162.8124606793
0
LINE
5
2AE
100
AcDbEntity
8
0
100
AcDbLine
62
7
6
CONTINUOUS
10
154.1032165623
20
182.5013418832
11
154.1032165624
21
189.9017038021
0
LINE
5
2AF
100
AcDbEntity
8
0
100
AcDbLine
62
7
6
CONTINUOUS
10
154.1032165623
20
209.5905850060
11
154.1032165623
21
211.6215228426
0
LINE
5
2B0
100
AcDbEntity
8
0
100
AcDbLine
62
7
6
CONTINUOUS
10
155.0172114295
20
160.7815228426
11
155.0172114295
21
162.8124606793
0
LINE
5
2B1
100
AcDbEntity
8
0
100
AcDbLine
62
7
6
CONTINUOUS
10
155.0172114295
20
182.5013418832
11
155.0172114295
21
189.9017038021
0
LINE
5
2B2
100
AcDbEntity
8
0
100
AcDbLine
62
7
6
CONTINUOUS
10
155.0172114295
20
209.5905850060
11
155.0172114295
21
211.6215228426
0
LINE
5
2B3
100
AcDbEntity
8
0
100
AcDbLine
62
7
6
CONTINUOUS
10
158.0140755267
20
208.7586562925
11
158.6802030457
21
194.2015228426
0
LINE
5
2B4
100
AcDbEntity
8
0
100
AcDbLine
62
7
6
CONTINUOUS
10
158.0140755249
20
163.7118517831
11
158.0140755267
21
163.6443893928
0
LINE
5
2B5
100
AcDbEntity
8
0
100
AcDbLine
62
7
6
CONTINUOUS
10
158.0140755251
20
184.4582595650
11
158.0140755278
21
187.9447861314
0
LINE
5
2B6
100
AcDbEntity
8
0
100
AcDbLine
62
7
6
CONTINUOUS
10
158.0140755285
20
208.6911938235
11
158.0140755267
21
208.7586562925
0
LINE
5
2B7
100
AcDbEntity
8
0
100
AcDbLine
62
7
6
CONTINUOUS
10
158.6802030457
20
194.2011306003
11
158.6802030457
21
178.2019150850
0
LINE
5
2B8
100
AcDbEntity
8
0
100
AcDbLine
62
7
6
CONTINUOUS
10
158.0140755267
20
163.6443893928
11
158.6802030457
21
178.2015228426
0
LINE
5
2B9
100
AcDbEntity
8
0
100
AcDbLine
62
7
6
CONTINUOUS
10
56.6802030457
20
95.2939086294
11
57.3463306391
21
80.7367735538
0
LINE
5
2BA
100
AcDbEntity
8
0
100
AcDbLine
62
7
6
CONTINUOUS
10
56.6802030457
20
111.2939086294
11
56.6802030457
21
95.2939086294
0
LINE
5
2BB
100
AcDbEntity
8
0
100
AcDbLine
62
7
6
CONTINUOUS
10
57.3463306391
20
125.8510437051
11
57.3463305474
21
125.7835792654
0
LINE
5
2BC
100
AcDbEntity
8
0
100
AcDbLine
62
7
6
CONTINUOUS
10
57.3463305477
20
80.8042379872
11
57.3463306391
21
80.7367735538
0
LINE
5
2BD
100
AcDbEntity
8
0
100
AcDbLine
62
7
6
CONTINUOUS
10
57.3463305475
20
101.5506452826
11
57.3463305473
21
105.0371719773
0
LINE
5
2BE
100
AcDbEntity
8
0
100
AcDbLine
62
7
6
CONTINUOUS
10
56.6802030457
20
111.2939086294
11
57.3463306391
21
125.8510437051
0
LINE
5
2BF
100
AcDbEntity
8
0
100
AcDbLine
62
7
6
CONTINUOUS
10
60.3431946619
20
77.8739086294
11
60.3431946619
21
79.9048464661
0
LINE
5
2C0
100
AcDbEntity
8
0
100
AcDbLine
62
7
6
CONTINUOUS
10
60.3431946619
20
99.5937276700
11
60.3431946619
21
106.9940895889
0
LINE
5
2C1
100
AcDbEntity
8
0
100
AcDbLine
62
7
6
CONTINUOUS
10
60.3431946619
20
126.6829707928
11
60.3431946619
21
128.7139086294
0
LINE
5
2C2
100
AcDbEntity
8
0
100
AcDbLine
62
7
6
CONTINUOUS
10
61.2571895290
20
77.8739086294
11
61.2571895290
21
79.9048464661
0
LINE
5
2C3
100
AcDbEntity
8
0
100
AcDbLine
62
7
6
CONTINUOUS
10
61.2571895290
20
99.5937276700
11
61.2571895290
21
106.9940895889
0
LINE
5
2C4
100
AcDbEntity
8
0
100
AcDbLine
62
7
6
CONTINUOUS
10
61.2571895290
20
126.6829707928
11
61.2571895290
21
128.7139086294
0
LINE
5
2C5
100
AcDbEntity
8
0
100
AcDbLine
62
7
6
CONTINUOUS
10
64.1533309870
20
126.4964459485
11
64.1533309746
21
126.4292850710
0
LINE
5
2C6
100
AcDbEntity
8
0
100
AcDbLine
62
7
6
CONTINUOUS
10
64.1533309632
20
105.0580222986
11
64.1533309746
21
101.5297949500
0
LINE
5
2C7
100
AcDbEntity
8
0
100
AcDbLine
62
7
6
CONTINUOUS
10
64.1533309993
20
80.1585322806
11
64.1533309870
21
80.0913713103
0
LINE
5
2C8
100
AcDbEntity
8
0
100
AcDbLine
62
7
6
CONTINUOUS
10
67.0803446261
20
115.6634874060
11
67.0803446262
21
113.5487712308
0
LINE
5
2C9
100
AcDbEntity
8
0
100
AcDbLine
62
7
6
CONTINUOUS
10
67.0803446156
20
110.2108636446
11
67.0803446070
21
96.3769540613
0
LINE
5
2CA
100
AcDbEntity
8
0
100
AcDbLine
62
7
6
CONTINUOUS
10
67.0803446260
20
93.0390465249
11
67.0803446261
21
90.9243298529
0
LINE
5
2CB
100
AcDbEntity
8
0
100
AcDbLine
62
7
6
CONTINUOUS
10
67.5630353184
20
91.2939086294
11
67.5630346090
21
93.3454400696
0
LINE
5
2CC
100
AcDbEntity
8
0
100
AcDbLine
62
7
6
CONTINUOUS
10
67.5630352108
20
96.5836209359
11
67.5630350822
21
110.0041964843
0
LINE
5
2CD
100
AcDbEntity
8
0
100
AcDbLine
62
7
6
CONTINUOUS
10
67.5630348722
20
113.2423774820
11
67.5630353184
21
115.2939086294
0
LINE
5
2CE
100
AcDbEntity
8
0
100
AcDbLine
62
7
6
CONTINUOUS
10
64.1533309870
20
80.0913713103
11
67.0803446261
21
90.9243298529
0
LINE
5
2CF
100
AcDbEntity
8
0
100
AcDbLine
62
7
6
CONTINUOUS
10
64.1533309870
20
126.4964459485
11
67.0803446261
21
115.6634874060
0
LINE
5
2D0
100
AcDbEntity
8
0
100
AcDbLine
62
7
6
CONTINUOUS
10
78.1802030457
20
88.7939277840
11
78.1802030457
21
117.7938894749
0
LINE
5
2D1
100
AcDbEntity
8
0
100
AcDbLine
62
7
6
CONTINUOUS
10
80.1802030457
20
119.7939086294
11
80.1802030457
21
86.7939086294
0
LINE
5
2D2
100
AcDbEntity
8
0
100
AcDbLine
62
7
6
CONTINUOUS
10
60.3431946619
20
77.8739086294
11
61.2571895290
21
77.8739086294
0
LINE
5
2D3
100
AcDbEntity
8
0
100
AcDbLine
62
7
6
CONTINUOUS
10
154.1032165623
20
77.8739086294
11
155.0172114295
21
77.8739086294
0
LINE
5
2D4
100
AcDbEntity
8
0
100
AcDbLine
62
7
6
CONTINUOUS
10
155.0172114295
20
77.9409985519
11
154.1032165623
21
77.9409985519
0
LINE
5
2D5
100
AcDbEntity
8
0
100
AcDbLine
62
7
6
CONTINUOUS
10
61.2571895290
20
77.9409985519
11
60.3431946619
21
77.9409985519
0
LINE
5
2D6
100
AcDbEntity
8
0
100
AcDbLine
62
7
6
CONTINUOUS
10
60.3431946619
20
79.9048464661
11
61.2571895290
21
79.9048464661
0
LINE
5
2D7
100
AcDbEntity
8
0
100
AcDbLine
62
7
6
CONTINUOUS
10
154.1032165623
20
79.9048464661
11
155.0172114295
21
79.9048464661
0
LINE
5
2D8
100
AcDbEntity
8
0
100
AcDbLine
62
7
6
CONTINUOUS
10
130.4302030457
20
85.2939086294
11
110.3302030457
21
85.2939086294
0
LINE
5
2D9
100
AcDbEntity
8
0
100
AcDbLine
62
7
6
CONTINUOUS
10
110.1302030457
20
85.4939086294
11
130.6302030457
21
85.4939086294
0
LINE
5
2DA
100
AcDbEntity
8
0
100
AcDbLine
62
7
6
CONTINUOUS
10
135.1802030457
20
86.7939086294
11
131.1302030457
21
86.7939086294
0
LINE
5
2DB
100
AcDbEntity
8
0
100
AcDbLine
62
7
6
CONTINUOUS
10
109.6302030457
20
86.7939086294
11
80.1802030457
21
86.7939086294
0
LINE
5
2DC
100
AcDbEntity
8
0
100
AcDbLine
62
7
6
CONTINUOUS
10
94.9802031373
20
113.7277330874
11
94.9802030464
21
113.5439012140
0
LINE
5
2DD
100
AcDbEntity
8
0
100
AcDbLine
62
7
6
CONTINUOUS
10
94.9802030454
20
93.0439196875
11
94.9802031273
21
92.8600827941
0
LINE
5
2DE
100
AcDbEntity
8
DEFAULT_1
100
AcDbLine
62
2
6
CENTER
10
94.9802030457
20
103.2939086294
11
94.9802030457
21
94.2939086294
0
LINE
5
2DF
100
AcDbEntity
8
DEFAULT_1
100
AcDbLine
62
2
6
CENTER
10
94.9802030457
20
103.2939086294
11
94.9802030457
21
112.2939086294
0
LINE
5
2E0
100
AcDbEntity
8
0
100
AcDbLine
62
7
6
CONTINUOUS
10
67.5630353184
20
91.2939086294
11
78.1802030457
21
91.2939086294
0
LINE
5
2E1
100
AcDbEntity
8
0
100
AcDbLine
62
7
6
CONTINUOUS
10
137.1802030457
20
91.2939086294
11
147.7973707730
21
91.2939086294
0
LINE
5
2E2
100
AcDbEntity
8
0
100
AcDbLine
62
7
6
CONTINUOUS
10
155.0172114295
20
99.5937276700
11
154.1032165623
21
99.5937276700
0
LINE
5
2E3
100
AcDbEntity
8
0
100
AcDbLine
62
7
6
CONTINUOUS
10
61.2571895290
20
99.5937276700
11
60.3431946619
21
99.5937276700
0
LINE
5
2E4
100
AcDbEntity
8
0
100
AcDbLine
62
7
6
CONTINUOUS
10
60.3431946619
20
101.4482784932
11
61.2571895290
21
101.4482784932
0
LINE
5
2E5
100
AcDbEntity
8
0
100
AcDbLine
62
7
6
CONTINUOUS
10
154.1032165623
20
101.4482784932
11
155.0172114295
21
101.4482784932
0
LINE
5
2E6
100
AcDbEntity
8
0
100
AcDbLine
62
7
6
CONTINUOUS
10
105.2302023432
20
103.2939086294
11
105.7302031764
21
103.2939086291
0
LINE
5
2E7
100
AcDbEntity
8
DEFAULT_1
100
AcDbLine
62
2
6
CENTER
10
94.9802030457
20
103.2939086294
11
85.9802030457
21
103.2939086294
0
LINE
5
2E8
100
AcDbEntity
8
DEFAULT_1
100
AcDbLine
62
2
6
CENTER
10
94.9802030457
20
103.2939086294
11
103.9802030457
21
103.2939086294
0
LINE
5
2E9
100
AcDbEntity
8
0
100
AcDbLine
62
7
6
CONTINUOUS
10
84.7302038274
20
103.2939086294
11
84.2302029039
21
103.2939086294
0
LINE
5
2EA
100
AcDbEntity
8
0
100
AcDbLine
62
7
6
CONTINUOUS
10
110.1302030457
20
121.0939086294
11
110.1302030457
21
120.2939086294
0
LINE
5
2EB
100
AcDbEntity
8
0
100
AcDbLine
62
7
6
CONTINUOUS
10
110.1302030457
20
86.2939086294
11
110.1302030457
21
85.4939086294
0
LINE
5
2EC
100
AcDbEntity
8
0
100
AcDbLine
62
7
6
CONTINUOUS
10
155.0172114295
20
105.1395387657
11
154.1032165623
21
105.1395387657
0
LINE
5
2ED
100
AcDbEntity
8
0
100
AcDbLine
62
7
6
CONTINUOUS
10
61.2571895290
20
105.1395387657
11
60.3431946619
21
105.1395387657
0
LINE
5
2EE
100
AcDbEntity
8
0
100
AcDbLine
62
7
6
CONTINUOUS
10
60.3431946619
20
106.9940895888
11
61.2571895290
21
106.9940895888
0
LINE
5
2EF
100
AcDbEntity
8
0
100
AcDbLine
62
7
6
CONTINUOUS
10
154.1032165623
20
106.9940895888
11
155.0172114295
21
106.9940895888
0
LINE
5
2F0
100
AcDbEntity
8
0
100
AcDbLine
62
7
6
CONTINUOUS
10
67.5630353184
20
115.2939086294
11
78.1802030457
21
115.2939086294
0
LINE
5
2F1
100
AcDbEntity
8
0
100
AcDbLine
62
7
6
CONTINUOUS
10
137.1802030457
20
115.2939086294
11
147.7973707730
21
115.2939086294
0
LINE
5
2F2
100
AcDbEntity
8
0
100
AcDbLine
62
7
6
CONTINUOUS
10
135.1802030457
20
119.7939086294
11
131.1302030457
21
119.7939086294
0
LINE
5
2F3
100
AcDbEntity
8
0
100
AcDbLine
62
7
6
CONTINUOUS
10
109.6302030457
20
119.7939086294
11
80.1802030457
21
119.7939086294
0
LINE
5
2F4
100
AcDbEntity
8
0
100
AcDbLine
62
7
6
CONTINUOUS
10
130.6302030457
20
121.0939086294
11
110.1302030457
21
121.0939086294
0
LINE
5
2F5
100
AcDbEntity
8
0
100
AcDbLine
62
7
6
CONTINUOUS
10
130.4302030457
20
121.2939086294
11
110.3302030457
21
121.2939086294
0
LINE
5
2F6
100
AcDbEntity
8
0
100
AcDbLine
62
7
6
CONTINUOUS
10
130.6302030457
20
121.0939086294
11
130.6302030457
21
120.2939086294
0
LINE
5
2F7
100
AcDbEntity
8
0
100
AcDbLine
62
7
6
CONTINUOUS
10
130.6302030457
20
86.2939086294
11
130.6302030457
21
85.4939086294
0
LINE
5
2F8
100
AcDbEntity
8
0
100
AcDbLine
62
7
6
CONTINUOUS
10
155.0172114295
20
126.6829707928
11
154.1032165623
21
126.6829707928
0
LINE
5
2F9
100
AcDbEntity
8
0
100
AcDbLine
62
7
6
CONTINUOUS
10
61.2571895290
20
126.6829707928
11
60.3431946619
21
126.6829707928
0
LINE
5
2FA
100
AcDbEntity
8
0
100
AcDbLine
62
7
6
CONTINUOUS
10
60.3431946619
20
128.6468187070
11
61.2571895290
21
128.6468187070
0
LINE
5
2FB
100
AcDbEntity
8
0
100
AcDbLine
62
7
6
CONTINUOUS
10
154.1032165623
20
128.6468187070
11
155.0172114295
21
128.6468187070
0
LINE
5
2FC
100
AcDbEntity
8
0
100
AcDbLine
62
7
6
CONTINUOUS
10
60.3431946619
20
128.7139086294
11
61.2571895290
21
128.7139086294
0
LINE
5
2FD
100
AcDbEntity
8
0
100
AcDbLine
62
7
6
CONTINUOUS
10
154.1032165623
20
128.7139086294
11
155.0172114295
21
128.7139086294
0
LINE
5
2FE
100
AcDbEntity
8
0
100
AcDbLine
62
7
6
CONTINUOUS
10
135.1802030457
20
86.7939086294
11
135.1802030457
21
119.7939086294
0
LINE
5
2FF
100
AcDbEntity
8
0
100
AcDbLine
62
7
6
CONTINUOUS
10
137.1802030457
20
88.7939277840
11
137.1802030457
21
117.7938894749
0
LINE
5
300
100
AcDbEntity
8
0
100
AcDbLine
62
7
6
CONTINUOUS
10
148.2800616253
20
115.6634879981
11
151.2070748617
21
126.4964450501
0
LINE
5
301
100
AcDbEntity
8
0
100
AcDbLine
62
7
6
CONTINUOUS
10
148.2800616253
20
90.9243292608
11
151.2070748617
21
80.0913722087
0
LINE
5
302
100
AcDbEntity
8
0
100
AcDbLine
62
7
6
CONTINUOUS
10
147.7973707730
20
115.2939086294
11
147.7973708434
21
113.2423778434
0
LINE
5
303
100
AcDbEntity
8
0
100
AcDbLine
62
7
6
CONTINUOUS
10
147.7973707177
20
110.0041961328
11
147.7973786384
21
96.5836057921
0
LINE
5
304
100
AcDbEntity
8
0
100
AcDbLine
62
7
6
CONTINUOUS
10
147.7973760661
20
93.3454460169
11
147.7973707730
21
91.2939086294
0
LINE
5
305
100
AcDbEntity
8
0
100
AcDbLine
62
7
6
CONTINUOUS
10
148.2800616253
20
90.9243292608
11
148.2800617799
21
93.0390445582
0
LINE
5
306
100
AcDbEntity
8
0
100
AcDbLine
62
7
6
CONTINUOUS
10
148.2800622083
20
96.3769349029
11
148.2800614910
21
110.2108624552
0
LINE
5
307
100
AcDbEntity
8
0
100
AcDbLine
62
7
6
CONTINUOUS
10
148.2800614707
20
113.5487719719
11
148.2800616253
21
115.6634879981
0
LINE
5
308
100
AcDbEntity
8
0
100
AcDbLine
62
7
6
CONTINUOUS
10
151.2070747886
20
126.4292838399
11
151.2070748617
21
126.4964450501
0
LINE
5
309
100
AcDbEntity
8
0
100
AcDbLine
62
7
6
CONTINUOUS
10
151.2070749505
20
101.5297948838
11
151.2070748343
21
105.0580224534
0
LINE
5
30A
100
AcDbEntity
8
0
100
AcDbLine
62
7
6
CONTINUOUS
10
151.2070748617
20
80.0913722087
11
151.2070749347
21
80.1585328698
0
LINE
5
30B
100
AcDbEntity
8
0
100
AcDbLine
62
7
6
CONTINUOUS
10
154.1032165623
20
77.8739086294
11
154.1032165624
21
79.9048464661
0
LINE
5
30C
100
AcDbEntity
8
0
100
AcDbLine
62
7
6
CONTINUOUS
10
154.1032165623
20
99.5937276700
11
154.1032165624
21
106.9940895889
0
LINE
5
30D
100
AcDbEntity
8
0
100
AcDbLine
62
7
6
CONTINUOUS
10
154.1032165623
20
126.6829707928
11
154.1032165623
21
128.7139086294
0
LINE
5
30E
100
AcDbEntity
8
0
100
AcDbLine
62
7
6
CONTINUOUS
10
155.0172114295
20
77.8739086294
11
155.0172114295
21
79.9048464661
0
LINE
5
30F
100
AcDbEntity
8
0
100
AcDbLine
62
7
6
CONTINUOUS
10
155.0172114295
20
99.5937276700
11
155.0172114295
21
106.9940895889
0
LINE
5
310
100
AcDbEntity
8
0
100
AcDbLine
62
7
6
CONTINUOUS
10
155.0172114295
20
126.6829707928
11
155.0172114295
21
128.7139086294
0
LINE
5
311
100
AcDbEntity
8
0
100
AcDbLine
62
7
6
CONTINUOUS
10
158.0140754523
20
125.8510437051
11
158.6802030457
21
111.2939086294
0
LINE
5
312
100
AcDbEntity
8
0
100
AcDbLine
62
7
6
CONTINUOUS
10
158.0140755285
20
101.5506453383
11
158.0140755249
21
105.0371719067
0
LINE
5
313
100
AcDbEntity
8
0
100
AcDbLine
62
7
6
CONTINUOUS
10
158.0140755251
20
125.7835796846
11
158.0140754523
21
125.8510437051
0
LINE
5
314
100
AcDbEntity
8
0
100
AcDbLine
62
7
6
CONTINUOUS
10
158.0140754523
20
80.7367735538
11
158.0140755278
21
80.8042376332
0
LINE
5
315
100
AcDbEntity
8
0
100
AcDbLine
62
7
6
CONTINUOUS
10
158.6802030457
20
111.2939086294
11
158.6802030457
21
95.2939086294
0
LINE
5
316
100
AcDbEntity
8
0
100
AcDbLine
62
7
6
CONTINUOUS
10
158.0140754523
20
80.7367735538
11
158.6802030457
21
95.2939086294
0
ARC
5
317
100
AcDbEntity
8
0
100
AcDbCircle
62
7
6
CONTINUOUS
10
154.1032165623
20
163.7815228426
40
3.0000000000
100
AcDbArc
50
195.1202377117
51
270.0000000000
0
ARC
5
318
100
AcDbEntity
8
0
100
AcDbCircle
62
7
6
CONTINUOUS
10
155.0172114295
20
163.7815228426
40
3.0000000000
100
AcDbArc
50
270.0000000000
51
357.3800310823
0
ARC
5
319
100
AcDbEntity
8
0
100
AcDbCircle
62
7
6
CONTINUOUS
10
154.1032165623
20
208.6215228426
40
3.0000000000
100
AcDbArc
50
90.0000000000
51
164.8797622883
0
ARC
5
31A
100
AcDbEntity
8
0
100
AcDbCircle
62
7
6
CONTINUOUS
10
155.0172114295
20
208.6215228426
40
3.0000000000
100
AcDbArc
50
2.6199689177
51
90.0000000000
0
ARC
5
31B
100
AcDbEntity
8
0
100
AcDbCircle
62
7
6
CONTINUOUS
10
147.7973707729
20
173.7015228426
40
0.5000000000
100
AcDbArc
50
15.1238696687
51
90.0000000000
0
ARC
5
31C
100
AcDbEntity
8
0
100
AcDbCircle
62
7
6
CONTINUOUS
10
147.7973707729
20
198.7015228426
40
0.5000000000
100
AcDbArc
50
270.0000000000
51
344.8764009704
0
CIRCLE
5
31D
100
AcDbEntity
8
0
100
AcDbCircle
62
7
6
CONTINUOUS
10
120.3802030457
20
186.2015228426
40
10.2500000000
0
ARC
5
31E
100
AcDbEntity
8
0
100
AcDbCircle
62
7
6
CONTINUOUS
10
60.3431946619
20
163.7815228426
40
3.0000000000
100
AcDbArc
50
182.6199616942
51
270.0000000000
0
ARC
5
31F
100
AcDbEntity
8
0
100
AcDbCircle
62
7
6
CONTINUOUS
10
60.3431946619
20
208.6215228426
40
3.0000000000
100
AcDbArc
50
90.0000000000
51
177.3800383058
0
ARC
5
320
100
AcDbEntity
8
0
100
AcDbCircle
62
7
6
CONTINUOUS
10
61.2571895290
20
163.7815228426
40
3.0000000000
100
AcDbArc
50
270.0000000000
51
344.8797454420
0
ARC
5
321
100
AcDbEntity
8
0
100
AcDbCircle
62
7
6
CONTINUOUS
10
61.2571895290
20
208.6215228426
40
3.0000000000
100
AcDbArc
50
15.1202545580
51
90.0000000000
0
ARC
5
322
100
AcDbEntity
8
0
100
AcDbCircle
62
7
6
CONTINUOUS
10
67.5630353184
20
173.7015228426
40
0.5000000000
100
AcDbArc
50
90.0000000000
51
164.8758162261
0
ARC
5
323
100
AcDbEntity
8
0
100
AcDbCircle
62
7
6
CONTINUOUS
10
67.5630353184
20
198.7015228426
40
0.5000000000
100
AcDbArc
50
195.1236586791
51
270.0000000000
0
ARC
5
324
100
AcDbEntity
8
0
100
AcDbCircle
62
7
6
CONTINUOUS
10
80.1802030457
20
171.7015228426
40
2.0000000000
100
AcDbArc
50
180.0000000000
51
270.0000000000
0
ARC
5
325
100
AcDbEntity
8
0
100
AcDbCircle
62
7
6
CONTINUOUS
10
80.1802030457
20
200.7015228426
40
2.0000000000
100
AcDbArc
50
90.0000000000
51
180.0000000000
0
ARC
5
326
100
AcDbEntity
8
0
100
AcDbCircle
62
7
6
CONTINUOUS
10
84.9302030457
20
204.0015228426
40
0.2000000000
100
AcDbArc
50
90.0000000000
51
180.0000000000
0
ARC
5
327
100
AcDbEntity
8
0
100
AcDbCircle
62
7
6
CONTINUOUS
10
105.0302030457
20
204.0015228426
40
0.2000000000
100
AcDbArc
50
0.0000000000
51
90.0000000000
0
ARC
5
328
100
AcDbEntity
8
0
100
AcDbCircle
62
7
6
CONTINUOUS
10
105.0302030457
20
168.4015228426
40
0.2000000000
100
AcDbArc
50
270.0000000000
51
360.0000000000
0
ARC
5
329
100
AcDbEntity
8
0
100
AcDbCircle
62
7
6
CONTINUOUS
10
84.9302030457
20
168.4015228426
40
0.2000000000
100
AcDbArc
50
180.0000000000
51
270.0000000000
0
ARC
5
32A
100
AcDbEntity
8
0
100
AcDbCircle
62
7
6
CONTINUOUS
10
135.1802030457
20
171.7015228426
40
2.0000000000
100
AcDbArc
50
270.0000000000
51
360.0000000000
0
ARC
5
32B
100
AcDbEntity
8
0
100
AcDbCircle
62
7
6
CONTINUOUS
10
135.1802030457
20
200.7015228426
40
2.0000000000
100
AcDbArc
50
0.0000000000
51
90.0000000000
0
CIRCLE
5
32C
100
AcDbEntity
8
0
100
AcDbCircle
62
7
6
CONTINUOUS
10
120.3802030457
20
186.2015228426
40
8.0000000000
0
CIRCLE
5
32D
100
AcDbEntity
8
0
100
AcDbCircle
62
7
6
CONTINUOUS
10
120.3802030457
20
186.2015228426
40
10.0500000000
0
ARC
5
32E
100
AcDbEntity
8
0
100
AcDbCircle
62
7
6
CONTINUOUS
10
155.0172114295
20
80.8739086294
40
3.0000000000
100
AcDbArc
50
270.0000000000
51
357.3800000000
0
ARC
5
32F
100
AcDbEntity
8
0
100
AcDbCircle
62
7
6
CONTINUOUS
10
155.0172114295
20
125.7139086294
40
3.0000000000
100
AcDbArc
50
2.6200000000
51
90.0000000000
0
ARC
5
330
100
AcDbEntity
8
0
100
AcDbCircle
62
7
6
CONTINUOUS
10
154.1032165623
20
125.7139086294
40
3.0000000000
100
AcDbArc
50
90.0000000000
51
164.8797645401
0
ARC
5
331
100
AcDbEntity
8
0
100
AcDbCircle
62
7
6
CONTINUOUS
10
154.1032165623
20
80.8739086294
40
3.0000000000
100
AcDbArc
50
195.1202354599
51
270.0000000000
0
CIRCLE
5
332
100
AcDbEntity
8
0
100
AcDbCircle
62
7
6
CONTINUOUS
10
94.9802030457
20
103.2939086294
40
6.0000000000
0
CIRCLE
5
333
100
AcDbEntity
8
0
100
AcDbCircle
62
7
6
CONTINUOUS
10
94.9802030457
20
103.2939086294
40
10.2500000000
0
ARC
5
334
100
AcDbEntity
8
0
100
AcDbCircle
62
7
6
CONTINUOUS
10
147.7973707729
20
115.7939086294
40
0.5000000000
100
AcDbArc
50
270.0000000000
51
344.8800144947
0
ARC
5
335
100
AcDbEntity
8
0
100
AcDbCircle
62
7
6
CONTINUOUS
10
147.7973707729
20
90.7939086294
40
0.5000000000
100
AcDbArc
50
15.1199855053
51
90.0000000000
0
ARC
5
336
100
AcDbEntity
8
0
100
AcDbCircle
62
7
6
CONTINUOUS
10
130.4302030457
20
85.4939086294
40
0.2000000000
100
AcDbArc
50
270.0000000000
51
360.0000000000
0
ARC
5
337
100
AcDbEntity
8
0
100
AcDbCircle
62
7
6
CONTINUOUS
10
110.3302030457
20
85.4939086294
40
0.2000000000
100
AcDbArc
50
180.0000000000
51
270.0000000000
0
ARC
5
338
100
AcDbEntity
8
0
100
AcDbCircle
62
7
6
CONTINUOUS
10
130.4302030457
20
121.0939086294
40
0.2000000000
100
AcDbArc
50
0.0000000000
51
90.0000000000
0
ARC
5
339
100
AcDbEntity
8
0
100
AcDbCircle
62
7
6
CONTINUOUS
10
110.3302030457
20
121.0939086294
40
0.2000000000
100
AcDbArc
50
90.0000000000
51
180.0000000000
0
ARC
5
33A
100
AcDbEntity
8
0
100
AcDbCircle
62
7
6
CONTINUOUS
10
60.3431946619
20
80.8739086294
40
3.0000000000
100
AcDbArc
50
182.6200000000
51
270.0000000000
0
ARC
5
33B
100
AcDbEntity
8
0
100
AcDbCircle
62
7
6
CONTINUOUS
10
60.3431946619
20
125.7139086294
40
3.0000000000
100
AcDbArc
50
90.0000000000
51
177.3800000000
0
ARC
5
33C
100
AcDbEntity
8
0
100
AcDbCircle
62
7
6
CONTINUOUS
10
61.2571895290
20
80.8739086294
40
3.0000000000
100
AcDbArc
50
270.0000000000
51
344.8797467664
0
ARC
5
33D
100
AcDbEntity
8
0
100
AcDbCircle
62
7
6
CONTINUOUS
10
61.2571895290
20
125.7139086294
40
3.0000000000
100
AcDbArc
50
15.1202532336
51
90.0000000000
0
ARC
5
33E
100
AcDbEntity
8
0
100
AcDbCircle
62
7
6
CONTINUOUS
10
67.5630353184
20
90.7939086294
40
0.5000000000
100
AcDbArc
50
90.0000000000
51
164.8799441873
0
ARC
5
33F
100
AcDbEntity
8
0
100
AcDbCircle
62
7
6
CONTINUOUS
10
67.5630353184
20
115.7939086294
40
0.5000000000
100
AcDbArc
50
195.1200558127
51
270.0000000000
0
ARC
5
340
100
AcDbEntity
8
0
100
AcDbCircle
62
7
6
CONTINUOUS
10
80.1802030457
20
88.7939086294
40
2.0000000000
100
AcDbArc
50
180.0000000000
51
270.0000000000
0
ARC
5
341
100
AcDbEntity
8
0
100
AcDbCircle
62
7
6
CONTINUOUS
10
80.1802030457
20
117.7939086294
40
2.0000000000
100
AcDbArc
50
90.0000000000
51
180.0000000000
0
ARC
5
342
100
AcDbEntity
8
0
100
AcDbCircle
62
7
6
CONTINUOUS
10
135.1802030457
20
88.7939086294
40
2.0000000000
100
AcDbArc
50
270.0000000000
51
360.0000000000
0
ARC
5
343
100
AcDbEntity
8
0
100
AcDbCircle
62
7
6
CONTINUOUS
10
135.1802030457
20
117.7939086294
40
2.0000000000
100
AcDbArc
50
0.0000000000
51
90.0000000000
0
CIRCLE
5
344
100
AcDbEntity
8
0
100
AcDbCircle
62
7
6
CONTINUOUS
10
94.9802030457
20
103.2939086294
40
10.0500000000
0
SPLINE
5
345
100
AcDbEntity
8
0
100
AcDbSpline
62
7
6
CONTINUOUS
70
0
71
3
72
11
73
7
74
5
42
0.0000001000
43
0.0000001000
44
0.0000000001
12
-0.0000006288
22
0.7803555805
32
0.0000000000
13
0.7803555805
23
-0.0000009257
33
0.0000000000
40
0.0000000000
40
0.0000000000
40
0.0000000000
40
0.0000000000
40
0.2467730226
40
0.4904232954
40
0.7426298910
40
1.0000000000
40
1.0000000000
40
1.0000000000
40
1.0000000000
10
105.2302024801
20
169.2015228426
30
0.0000000000
10
105.2302024284
20
169.2657130777
30
0.0000000000
10
105.2553891368
20
169.3946523854
30
0.0000000000
10
105.3637190554
20
169.5600919801
30
0.0000000000
10
105.5291569632
20
169.6741759216
30
0.0000000000
10
105.6632564194
20
169.7015234016
30
0.0000000000
10
105.7302031530
20
169.7015233221
30
0.0000000000
11
105.2302024801
21
169.2015228426
31
0.0000000000
11
105.2672858039
21
169.3904892514
31
0.0000000000
11
105.3713023391
21
169.5496477930
31
0.0000000000
11
105.5334552207
21
169.6611867707
31
0.0000000000
11
105.7302031530
21
169.7015233221
31
0.0000000000
0
SPLINE
5
346
100
AcDbEntity
8
0
100
AcDbSpline
62
7
6
CONTINUOUS
70
0
71
3
72
11
73
7
74
5
42
0.0000001000
43
0.0000001000
44
0.0000000001
12
0.0000007069
22
0.7803556988
32
0.0000000000
13
-0.7803556988
23
-0.0000010277
33
0.0000000000
40
0.0000000000
40
0.0000000000
40
0.0000000000
40
0.0000000000
40
0.2467730184
40
0.4904232891
40
0.7426298874
40
1.0000000000
40
1.0000000000
40
1.0000000000
40
1.0000000000
10
84.7302036735
20
169.2015228426
30
0.0000000000
10
84.7302037317
20
169.2657130864
30
0.0000000000
10
84.7050170285
20
169.3946524148
30
0.0000000000
10
84.5966870959
20
169.5600920364
30
0.0000000000
10
84.4312491566
20
169.6741759905
30
0.0000000000
10
84.2971496744
20
169.7015234621
30
0.0000000000
10
84.2302029297
20
169.7015233739
30
0.0000000000
11
84.7302036735
21
169.2015228426
31
0.0000000000
11
84.6931203581
21
169.3904892795
31
0.0000000000
11
84.5891038107
21
169.5496478455
31
0.0000000000
11
84.4269508986
21
169.6611868351
31
0.0000000000
11
84.2302029297
21
169.7015233739
31
0.0000000000
0
SPLINE
5
347
100
AcDbEntity
8
0
100
AcDbSpline
62
7
6
CONTINUOUS
70
0
71
3
72
11
73
7
74
5
42
0.0000001000
43
0.0000001000
44
0.0000000001
12
-0.0000007812
22
-0.7803558410
32
0.0000000000
13
0.7803558410
23
0.0000011499
33
0.0000000000
40
0.0000000000
40
0.0000000000
40
0.0000000000
40
0.0000000000
40
0.2467730206
40
0.4904232876
40
0.7426298858
40
1.0000000000
40
1.0000000000
40
1.0000000000
40
1.0000000000
10
105.2302023432
20
203.2015228426
30
0.0000000000
10
105.2302022789
20
203.1373325866
30
0.0000000000
10
105.2553889792
20
203.0083932323
30
0.0000000000
10
105.3637189315
20
202.8429535796
30
0.0000000000
10
105.5291569073
20
202.7288696123
30
0.0000000000
10
105.6632564191
20
202.7015221508
30
0.0000000000
10
105.7302031764
20
202.7015222495
30
0.0000000000
11
105.2302023432
21
203.2015228426
31
0.0000000000
11
105.2672856541
21
203.0125563675
31
0.0000000000
11
105.3713022184
21
202.8533977744
31
0.0000000000
11
105.5334551657
21
202.7418587727
31
0.0000000000
11
105.7302031764
21
202.7015222495
31
0.0000000000
0
SPLINE
5
348
100
AcDbEntity
8
0
100
AcDbSpline
62
7
6
CONTINUOUS
70
0
71
3
72
11
73
7
74
5
42
0.0000001000
43
0.0000001000
44
0.0000000001
12
0.0000008802
22
-0.7803559914
32
0.0000000000
13
-0.7803559914
23
0.0000012795
33
0.0000000000
40
0.0000000000
40
0.0000000000
40
0.0000000000
40
0.0000000000
40
0.2467730151
40
0.4904232796
40
0.7426298813
40
1.0000000000
40
1.0000000000
40
1.0000000000
40
1.0000000000
10
84.7302038274
20
203.2015228426
30
0.0000000000
10
84.7302038998
20
203.1373325757
30
0.0000000000
10
84.7050172062
20
203.0083931950
30
0.0000000000
10
84.5966872359
20
202.8429535081
30
0.0000000000
10
84.4312492201
20
202.7288695248
30
0.0000000000
10
84.2971496753
20
202.7015220739
30
0.0000000000
10
84.2302029039
20
202.7015221837
30
0.0000000000
11
84.7302038274
21
203.2015228426
31
0.0000000000
11
84.6931205271
21
203.0125563319
31
0.0000000000
11
84.5891039472
21
202.8533977077
31
0.0000000000
11
84.4269509610
21
202.7418586908
31
0.0000000000
11
84.2302029039
21
202.7015221837
31
0.0000000000
0
SPLINE
5
349
100
AcDbEntity
8
0
100
AcDbSpline
62
7
6
CONTINUOUS
70
0
71
3
72
16
73
12
74
10
42
0.0000001000
43
0.0000001000
44
0.0000000001
12
11.5190657466
22
0.0000000008
32
0.0000000000
13
-11.5188505211
23
-0.0704155388
33
0.0000000000
40
0.0000000000
40
0.0000000000
40
0.0000000000
40
0.0000000000
40
0.0145159489
40
0.0589199178
40
0.1351739996
40
0.2446029019
40
0.3838842940
40
0.5410726435
40
0.7005477538
40
0.8543686102
40
1.0000000000
40
1.0000000000
40
1.0000000000
40
1.0000000000
10
105.7302030457
20
169.7015228426
30
0.0000000000
10
105.7859397691
20
169.7015228426
30
0.0000000000
10
105.3385748959
20
169.8913467301
30
0.0000000000
10
105.1448985810
20
170.0878720554
30
0.0000000000
10
104.2324557578
20
170.5726554747
30
0.0000000000
10
103.2026223275
20
171.1489616232
30
0.0000000000
10
101.7747439986
20
171.8381161241
30
0.0000000000
10
100.1595304566
20
172.4955431493
30
0.0000000000
10
98.4259787606
20
173.0240262786
30
0.0000000000
10
96.6904773478
20
173.3456272436
30
0.0000000000
10
95.5393717823
20
173.4227141007
30
0.0000000000
10
94.9802030457
20
173.4192958631
30
0.0000000000
11
105.7302030457
21
169.7015228426
31
0.0000000000
11
105.5875371293
21
169.7887333771
31
0.0000000000
11
105.1491430502
21
170.0522384809
31
0.0000000000
11
104.3889601996
21
170.4923135283
31
0.0000000000
11
103.2804353115
21
171.0923802039
31
0.0000000000
11
101.8361183757
21
171.7909649990
31
0.0000000000
11
100.1565479565
21
172.4673845907
31
0.0000000000
11
98.3972679534
21
172.9960797756
31
0.0000000000
11
96.6545780156
21
173.3163361452
31
0.0000000000
11
94.9802030457
21
173.4192958631
31
0.0000000000
0
SPLINE
5
34A
100
AcDbEntity
8
0
100
AcDbSpline
62
7
6
CONTINUOUS
70
0
71
3
72
16
73
12
74
10
42
0.0000001000
43
0.0000001000
44
0.0000000001
12
-11.5188706126
22
0.0659676631
32
0.0000000000
13
11.5190595069
23
-0.0000000008
33
0.0000000000
40
0.0000000000
40
0.0000000000
40
0.0000000000
40
0.0000000000
40
0.1459334695
40
0.2996489712
40
0.4590890495
40
0.6163182091
40
0.7555810218
40
0.8649380978
40
0.9411294964
40
0.9854943759
40
1.0000000000
40
1.0000000000
40
1.0000000000
40
1.0000000000
10
94.9802030457
20
173.4192958631
30
0.0000000000
10
94.4198734611
20
173.4225048264
30
0.0000000000
10
93.2680095560
20
173.3455109636
30
0.0000000000
10
91.5319679471
20
173.0233449541
30
0.0000000000
10
89.7988400334
20
172.4948282467
30
0.0000000000
10
88.1837498260
20
171.8372340060
30
0.0000000000
10
86.7560799855
20
171.1480868391
30
0.0000000000
10
85.7267653410
20
170.5719873621
30
0.0000000000
10
84.8150253071
20
170.0875602450
30
0.0000000000
10
84.6215008445
20
169.8911896748
30
0.0000000000
10
84.1745059965
20
169.7015228426
30
0.0000000000
10
84.2302030457
20
169.7015228426
30
0.0000000000
11
94.9802030457
21
173.4192958631
31
0.0000000000
11
93.3023697236
21
173.3158975521
31
0.0000000000
11
91.5609344569
21
172.9955336897
31
0.0000000000
11
89.8021010536
21
172.4667580319
31
0.0000000000
11
88.1221617751
21
171.7899986156
31
0.0000000000
11
86.6780863668
21
171.0914079870
31
0.0000000000
11
85.5703208834
21
170.4916778758
31
0.0000000000
11
84.8107725391
21
170.0519489259
31
0.0000000000
11
84.3727671747
21
169.7886716849
31
0.0000000000
11
84.2302030457
21
169.7015228426
31
0.0000000000
0
SPLINE
5
34B
100
AcDbEntity
8
0
100
AcDbSpline
62
7
6
CONTINUOUS
70
0
71
3
72
16
73
12
74
10
42
0.0000001000
43
0.0000001000
44
0.0000000001
12
-11.5190602990
22
0.0000000000
32
0.0000000000
13
11.5188660910
23
0.0668890932
33
0.0000000000
40
0.0000000000
40
0.0000000000
40
0.0000000000
40
0.0000000000
40
0.0145087249
40
0.0588811025
40
0.1350846465
40
0.2444580954
40
0.3837381619
40
0.5409829399
40
0.7004371317
40
0.8541534329
40
1.0000000000
40
1.0000000000
40
1.0000000000
40
1.0000000000
10
84.2302030457
20
202.7015228426
30
0.0000000000
10
84.1744940868
20
202.7015228426
30
0.0000000000
10
84.6215710519
20
202.5118214153
30
0.0000000000
10
84.8151306301
20
202.3154180340
30
0.0000000000
10
85.7270140032
20
201.8309190354
30
0.0000000000
10
86.7564805009
20
201.2547487888
30
0.0000000000
10
88.1843364433
20
200.5655444983
30
0.0000000000
10
89.7996150799
20
199.9079355718
30
0.0000000000
10
91.5328833082
20
199.3794634796
30
0.0000000000
10
93.2686756016
20
199.0574921168
30
0.0000000000
10
94.4202073537
20
198.9804979740
30
0.0000000000
10
94.9802030457
20
198.9837498222
30
0.0000000000
11
84.2302030457
21
202.7015228426
31
0.0000000000
11
84.3727976789
21
202.6143553978
31
0.0000000000
11
84.8108775789
21
202.3510344355
31
0.0000000000
11
85.5705491772
21
201.9112390315
31
0.0000000000
11
86.6784867368
21
201.3114304401
31
0.0000000000
11
88.1227548766
21
200.6127815747
31
0.0000000000
11
89.8028833394
21
199.9360099754
31
0.0000000000
11
91.5618994825
21
199.4072770508
31
0.0000000000
11
93.3033650307
21
199.0870262347
31
0.0000000000
11
94.9802030457
21
198.9837498222
31
0.0000000000
0
SPLINE
5
34C
100
AcDbEntity
8
0
100
AcDbSpline
62
7
6
CONTINUOUS
70
0
71
3
72
16
73
12
74
10
42
0.0000001000
43
0.0000001000
44
0.0000000001
12
-9.2498224738
22
-6.1345549391
32
0.0000000000
13
-11.0991145386
23
0.0435341805
33
0.0000000000
40
0.0000000000
40
0.0000000000
40
0.0000000000
40
0.0000000000
40
0.0149450346
40
0.0606617882
40
0.1391842639
40
0.2517287977
40
0.3940854919
40
0.5523143973
40
0.7096808362
40
0.8590363210
40
1.0000000000
40
1.0000000000
40
1.0000000000
40
1.0000000000
10
105.2302030457
20
203.2015228426
30
0.0000000000
10
105.1841234066
20
203.1709624640
30
0.0000000000
10
104.9968550144
20
203.0472663514
30
0.0000000000
10
104.5649851443
20
202.7667871041
30
0.0000000000
10
103.8222027496
20
202.3021970273
30
0.0000000000
10
102.7571018130
20
201.6793201419
30
0.0000000000
10
101.4016057904
20
200.9710825006
30
0.0000000000
10
99.8458702278
20
200.2950126897
30
0.0000000000
10
98.2060267881
20
199.7636211133
30
0.0000000000
10
96.5770353456
20
199.4432487049
30
0.0000000000
10
95.5017270521
20
199.3690444543
30
0.0000000000
10
94.9802030457
20
199.3710900337
30
0.0000000000
11
105.2302030457
21
203.2015228426
31
0.0000000000
11
105.0917919961
21
203.1101014664
31
0.0000000000
11
104.6662031813
21
202.8337889702
31
0.0000000000
11
103.9270741319
21
202.3719833934
31
0.0000000000
11
102.8480315382
21
201.7426555819
31
0.0000000000
11
101.4458543806
21
201.0143405993
31
0.0000000000
11
99.8326463704
21
200.3201875762
31
0.0000000000
11
98.1687481134
21
199.7889631917
31
0.0000000000
11
96.5414913081
21
199.4725899081
31
0.0000000000
11
94.9802030457
21
199.3710900337
31
0.0000000000
0
SPLINE
5
34D
100
AcDbEntity
8
0
100
AcDbSpline
62
7
6
CONTINUOUS
70
0
71
3
72
16
73
12
74
10
42
0.0000001000
43
0.0000001000
44
0.0000000001
12
-11.0991222135
22
-0.0394418724
32
0.0000000000
13
-9.2498267505
23
6.1345346331
33
0.0000000000
40
0.0000000000
40
0.0000000000
40
0.0000000000
40
0.0000000000
40
0.1412145952
40
0.2904852891
40
0.4478259335
40
0.6061005248
40
0.7484396481
40
0.8609189637
40
0.9393844876
40
0.9850652236
40
1.0000000000
40
1.0000000000
40
1.0000000000
40
1.0000000000
10
94.9802030457
20
199.3710900337
30
0.0000000000
10
94.4577503621
20
199.3692334444
30
0.0000000000
10
93.3818273605
20
199.4433751704
30
0.0000000000
10
91.7523846887
20
199.7642004750
30
0.0000000000
10
90.1128223423
20
200.2956456894
30
0.0000000000
10
88.5571543745
20
200.9718966982
30
0.0000000000
10
87.2018201496
20
201.6801405093
30
0.0000000000
10
86.1372009334
20
202.3028153024
30
0.0000000000
10
85.3949252498
20
202.7671100652
30
0.0000000000
10
84.9633766535
20
203.0473821334
30
0.0000000000
10
84.7762510772
20
203.1709835416
30
0.0000000000
10
84.7302030457
20
203.2015228426
30
0.0000000000
11
94.9802030457
21
199.3710900337
31
0.0000000000
11
93.4161502612
21
199.4729780532
31
0.0000000000
11
91.7898691861
21
199.7894326867
31
0.0000000000
11
90.1262983419
21
200.3207372841
31
0.0000000000
11
88.5126925447
21
201.0152456909
31
0.0000000000
11
87.1107382421
21
201.7435642647
31
0.0000000000
11
86.0323534949
21
202.3725815036
31
0.0000000000
11
85.2937712967
21
202.8340682365
31
0.0000000000
11
84.8685191086
21
203.1101644514
31
0.0000000000
11
84.7302030457
21
203.2015228426
31
0.0000000000
0
SPLINE
5
34E
100
AcDbEntity
8
0
100
AcDbSpline
62
7
6
CONTINUOUS
70
0
71
3
72
11
73
7
74
5
42
0.0000001000
43
0.0000001000
44
0.0000000001
12
-0.6073634741
22
0.0000065111
32
0.0000000000
13
-0.1882048858
23
-0.5774680170
33
0.0000000000
40
0.0000000000
40
0.0000000000
40
0.0000000000
40
0.0000000000
40
0.2644020526
40
0.5183338468
40
0.7646548945
40
1.0000000000
40
1.0000000000
40
1.0000000000
40
1.0000000000
10
67.5630353184
20
176.2530537687
30
0.0000000000
10
67.5095059353
20
176.2530543426
30
0.0000000000
10
67.4039921935
20
176.2390434174
30
0.0000000000
10
67.2598987395
20
176.1772109749
30
0.0000000000
10
67.1445034526
20
176.0791684608
30
0.0000000000
10
67.0951089818
20
175.9919608424
30
0.0000000000
10
67.0803446155
20
175.9466594186
30
0.0000000000
11
67.5630353184
21
176.2530537687
31
0.0000000000
11
67.4039002006
21
176.2314999303
31
0.0000000000
11
67.2625338077
21
176.1698387957
31
0.0000000000
11
67.1496246073
21
176.0716879446
31
0.0000000000
11
67.0803446155
21
175.9466594186
31
0.0000000000
0
SPLINE
5
34F
100
AcDbEntity
8
0
100
AcDbSpline
62
7
6
CONTINUOUS
70
0
71
3
72
11
73
7
74
5
42
0.0000001000
43
0.0000001000
44
0.0000000001
12
0.2380677915
22
0.4927054719
32
0.0000000000
13
0.5472065016
23
0.0000040112
33
0.0000000000
40
0.0000000000
40
0.0000000000
40
0.0000000000
40
0.0000000000
40
0.1953299561
40
0.4325029250
40
0.7059556679
40
1.0000000000
40
1.0000000000
40
1.0000000000
40
1.0000000000
10
67.0803446261
20
179.2845680091
30
0.0000000000
10
67.0958452166
20
179.3166480552
30
0.0000000000
10
67.1499225761
20
179.3779444546
30
0.0000000000
10
67.2635053159
20
179.4413553981
30
0.0000000000
10
67.4056216425
20
179.4820708013
30
0.0000000000
10
67.5094009950
20
179.4912342666
30
0.0000000000
10
67.5630353184
20
179.4912346598
30
0.0000000000
11
67.0803446261
21
179.2845680091
31
0.0000000000
11
67.1478541142
21
179.3674356624
31
0.0000000000
11
67.2594001615
21
179.4337756967
31
0.0000000000
11
67.4028094102
21
179.4764893497
31
0.0000000000
11
67.5630353184
21
179.4912346598
31
0.0000000000
0
SPLINE
5
350
100
AcDbEntity
8
0
100
AcDbSpline
62
7
6
CONTINUOUS
70
0
71
3
72
10
73
6
74
4
42
0.0000001000
43
0.0000001000
44
0.0000000001
12
0.0852826740
22
3.3368154852
32
0.0000000000
13
-0.0651916957
23
3.3372684579
33
0.0000000000
40
0.0000000000
40
0.0000000000
40
0.0000000000
40
0.0000000000
40
0.3032249207
40
0.6357422402
40
1.0000000000
40
1.0000000000
40
1.0000000000
40
1.0000000000
10
67.0803443641
20
175.9466611617
30
0.0000000000
10
67.0889643081
20
176.2839296986
30
0.0000000000
10
67.0762870616
20
176.9914533979
30
0.0000000000
10
67.0779576679
20
178.1039725622
30
0.0000000000
10
67.0882595631
20
178.8793575440
30
0.0000000000
10
67.0803440361
20
179.2845661881
30
0.0000000000
11
67.0803443641
21
175.9466611617
31
0.0000000000
11
67.0799967739
21
176.9587971230
31
0.0000000000
11
67.0799857172
21
178.0687083925
31
0.0000000000
11
67.0803440361
21
179.2845661881
31
0.0000000000
0
SPLINE
5
351
100
AcDbEntity
8
0
100
AcDbSpline
62
7
6
CONTINUOUS
70
0
71
3
72
13
73
9
74
7
42
0.0000001000
43
0.0000001000
44
0.0000000001
12
1.9126116701
22
-0.5121036030
32
0.0000000000
13
1.2107550566
23
1.5666542993
33
0.0000000000
40
0.0000000000
40
0.0000000000
40
0.0000000000
40
0.0000000000
40
0.2551384982
40
0.4855491587
40
0.6886923828
40
0.8509724041
40
0.9575339337
40
1.0000000000
40
1.0000000000
40
1.0000000000
40
1.0000000000
10
62.2225711679
20
163.4879134167
30
0.0000000000
10
62.3852314576
20
163.4443609687
30
0.0000000000
10
62.6949469620
20
163.3637147353
30
0.0000000000
10
63.1374406959
20
163.2526103704
30
0.0000000000
10
63.5165588202
20
163.1684536955
30
0.0000000000
10
63.8317752455
20
163.0916684558
30
0.0000000000
10
64.0138191662
20
163.0821025488
30
0.0000000000
10
64.1361969001
20
163.0439828890
30
0.0000000000
10
64.1533355683
20
163.0661594374
30
0.0000000000
11
62.2225711679
21
163.4879134167
31
0.0000000000
11
62.7113429531
21
163.3602466152
31
0.0000000000
11
63.1541973425
21
163.2506708005
31
0.0000000000
11
63.5461246736
21
163.1602604348
31
0.0000000000
11
63.8608486586
21
163.0955299734
31
0.0000000000
11
64.0693134466
21
163.0629841768
31
0.0000000000
11
64.1533355683
21
163.0661594374
31
0.0000000000
0
SPLINE
5
352
100
AcDbEntity
8
0
100
AcDbSpline
62
7
6
CONTINUOUS
70
0
71
3
72
13
73
9
74
7
42
0.0000001000
43
0.0000001000
44
0.0000000001
12
-0.0953796107
22
-3.0245323155
32
0.0000000000
13
-3.0257725981
23
-0.0399146878
33
0.0000000000
40
0.0000000000
40
0.0000000000
40
0.0000000000
40
0.0000000000
40
0.1685979594
40
0.3314409777
40
0.4960716496
40
0.6631767890
40
0.8307613368
40
1.0000000000
40
1.0000000000
40
1.0000000000
40
1.0000000000
10
64.1533355587
20
184.4374078253
30
0.0000000000
10
64.1479752895
20
184.2674311664
30
0.0000000000
10
64.0957883905
20
183.9331141456
30
0.0000000000
10
63.9002264262
20
183.4676221490
30
0.0000000000
10
63.5993927186
20
183.0632911370
30
0.0000000000
10
63.2034120881
20
182.7430751161
30
0.0000000000
10
62.7341409384
20
182.5334443828
30
0.0000000000
10
62.3932637378
20
182.4817438456
30
0.0000000000
10
62.2225711679
20
182.4794921428
30
0.0000000000
11
64.1533355587
21
184.4374078253
31
0.0000000000
11
64.0745765041
21
183.9333401862
31
0.0000000000
11
63.8835987356
21
183.4790840977
31
0.0000000000
11
63.5858013315
21
183.0797116642
31
0.0000000000
11
63.1922629611
21
182.7621808786
31
0.0000000000
11
62.7289432913
21
182.5560198165
31
0.0000000000
11
62.2225711679
21
182.4794921428
31
0.0000000000
0
SPLINE
5
353
100
AcDbEntity
8
0
100
AcDbSpline
62
7
6
CONTINUOUS
70
0
71
3
72
12
73
8
74
6
42
0.0000001000
43
0.0000001000
44
0.0000000001
12
-2.8765057677
22
-0.3528526201
32
0.0000000000
13
-2.8980666663
23
-0.0000304198
33
0.0000000000
40
0.0000000000
40
0.0000000000
40
0.0000000000
40
0.0000000000
40
0.1041738355
40
0.2689842938
40
0.4833026093
40
0.7326236018
40
1.0000000000
40
1.0000000000
40
1.0000000000
40
1.0000000000
10
64.1533309746
20
184.4374069280
30
0.0000000000
10
64.0534454284
20
184.4251542577
30
0.0000000000
10
63.7939540445
20
184.4079724589
30
0.0000000000
10
63.3276460021
20
184.3866647581
30
0.0000000000
10
62.7207129425
20
184.3698496453
30
0.0000000000
10
62.0146315905
20
184.3584661906
30
0.0000000000
10
61.5154810714
20
184.3558954176
30
0.0000000000
10
61.2571895290
20
184.3558927064
30
0.0000000000
11
64.1533309746
21
184.4374069280
31
0.0000000000
11
63.8524455231
21
184.4126441033
31
0.0000000000
11
63.3753466760
21
184.3900891311
31
0.0000000000
11
62.7545044703
21
184.3718942218
31
0.0000000000
11
62.0320531527
21
184.3600221822
31
0.0000000000
11
61.2571895290
21
184.3558927064
31
0.0000000000
0
SPLINE
5
354
100
AcDbEntity
8
0
100
AcDbSpline
62
7
6
CONTINUOUS
70
0
71
3
72
12
73
8
74
6
42
0.0000001000
43
0.0000001000
44
0.0000000001
12
2.8980667430
22
-0.0000303813
32
0.0000000000
13
2.8765058291
23
-0.3528527497
33
0.0000000000
40
0.0000000000
40
0.0000000000
40
0.0000000000
40
0.0000000000
40
0.2675833518
40
0.5169167916
40
0.7311950713
40
0.8959337270
40
1.0000000000
40
1.0000000000
40
1.0000000000
40
1.0000000000
10
61.2571895290
20
188.0471529789
30
0.0000000000
10
61.5156809999
20
188.0471502691
30
0.0000000000
10
62.0150434878
20
188.0445764094
30
0.0000000000
10
62.7212980291
20
188.0331836056
30
0.0000000000
10
63.3281348325
20
188.0163629591
30
0.0000000000
10
63.7942310730
20
187.9950582495
30
0.0000000000
10
64.0535485857
20
187.9778787775
30
0.0000000000
10
64.1533309993
20
187.9656387540
30
0.0000000000
11
61.2571895290
21
188.0471529789
31
0.0000000000
11
62.0326529122
21
188.0430170249
31
0.0000000000
11
62.7551401976
21
188.0311371124
31
0.0000000000
11
63.3758661960
21
188.0129371593
31
0.0000000000
11
63.8527567522
21
187.9903825650
31
0.0000000000
11
64.1533309993
21
187.9656387540
31
0.0000000000
0
SPLINE
5
355
100
AcDbEntity
8
0
100
AcDbSpline
62
7
6
CONTINUOUS
70
0
71
3
72
13
73
9
74
7
42
0.0000001000
43
0.0000001000
44
0.0000000001
12
-0.0953789978
22
3.0245016414
32
0.0000000000
13
-3.0257417312
23
0.0399287897
33
0.0000000000
40
0.0000000000
40
0.0000000000
40
0.0000000000
40
0.0000000000
40
0.1685996081
40
0.3314437719
40
0.4960748605
40
0.6631795526
40
0.8307629466
40
1.0000000000
40
1.0000000000
40
1.0000000000
40
1.0000000000
10
64.1533042126
20
187.9656425697
30
0.0000000000
10
64.1479439254
20
188.1356191669
30
0.0000000000
10
64.0957574787
20
188.4699356094
30
0.0000000000
10
63.9001975272
20
188.9354263916
30
0.0000000000
10
63.5993677578
20
189.3397553391
30
0.0000000000
10
63.2033935080
20
189.6599690911
30
0.0000000000
10
62.7341310695
20
189.8695985140
30
0.0000000000
10
62.3932603729
20
189.9212996808
30
0.0000000000
10
62.2225711679
20
189.9235521577
30
0.0000000000
11
64.1533042126
21
187.9656425697
31
0.0000000000
11
64.0745456386
21
188.4697100983
31
0.0000000000
11
63.8835695970
21
188.9239652538
31
0.0000000000
11
63.5857758719
21
189.3233357037
31
0.0000000000
11
63.1922438602
21
189.6408640502
31
0.0000000000
11
62.7289329877
21
189.8470236484
31
0.0000000000
11
62.2225711679
21
189.9235521577
31
0.0000000000
0
SPLINE
5
356
100
AcDbEntity
8
0
100
AcDbSpline
62
7
6
CONTINUOUS
70
0
71
3
72
11
73
7
74
5
42
0.0000001000
43
0.0000001000
44
0.0000000001
12
0.9659897345
22
0.0002043710
32
0.0000000000
13
0.9522865945
23
0.1621309687
33
0.0000000000
40
0.0000000000
40
0.0000000000
40
0.0000000000
40
0.0000000000
40
0.3456383663
40
0.6462870533
40
0.8696533807
40
1.0000000000
40
1.0000000000
40
1.0000000000
40
1.0000000000
10
61.2571895290
20
189.9017038020
30
0.0000000000
10
61.3684839003
20
189.9017273482
30
0.0000000000
10
61.5765565058
20
189.9022413643
30
0.0000000000
10
61.8566857059
20
189.9043627406
30
0.0000000000
10
62.0670782508
20
189.9106414994
30
0.0000000000
10
62.1811953885
20
189.9165066647
30
0.0000000000
10
62.2225711679
20
189.9235510726
30
0.0000000000
11
61.2571895290
21
189.9017038020
31
0.0000000000
11
61.5910714978
21
189.9025810386
31
0.0000000000
11
61.8814773693
21
189.9057856119
31
0.0000000000
11
62.0971418495
21
189.9125195130
31
0.0000000000
11
62.2225711679
21
189.9235510726
31
0.0000000000
0
SPLINE
5
357
100
AcDbEntity
8
0
100
AcDbSpline
62
7
6
CONTINUOUS
70
0
71
3
72
12
73
8
74
6
42
0.0000001000
43
0.0000001000
44
0.0000000001
12
0.6188898195
22
-0.7868351260
32
0.0000000000
13
1.0010664781
23
-0.0001749055
33
0.0000000000
40
0.0000000000
40
0.0000000000
40
0.0000000000
40
0.0000000000
40
0.0554742698
40
0.1924791101
40
0.4067753952
40
0.6852760654
40
1.0000000000
40
1.0000000000
40
1.0000000000
40
1.0000000000
10
59.3442399876
20
189.9342296112
30
0.0000000000
10
59.3556841412
20
189.9196799098
30
0.0000000000
10
59.4316735294
20
189.9231230732
30
0.0000000000
10
59.5568465628
20
189.9052104691
30
0.0000000000
10
59.7723696280
20
189.9059515105
30
0.0000000000
10
60.0396436137
20
189.9015106748
30
0.0000000000
10
60.2381748016
20
189.9017221510
30
0.0000000000
10
60.3431946619
20
189.9017038020
30
0.0000000000
11
59.3442399876
21
189.9342296112
31
0.0000000000
11
59.3980937032
21
189.9206745581
31
0.0000000000
11
59.5349051159
21
189.9110297748
31
0.0000000000
11
59.7493521760
21
189.9052538437
31
0.0000000000
11
60.0281360214
21
189.9024755141
31
0.0000000000
11
60.3431946619
21
189.9017038020
31
0.0000000000
0
SPLINE
5
358
100
AcDbEntity
8
0
100
AcDbSpline
62
7
6
CONTINUOUS
70
0
71
3
72
16
73
12
74
10
42
0.0000001000
43
0.0000001000
44
0.0000000001
12
-0.9580398007
22
-18.8142930529
32
0.0000000000
13
12.2894722180
23
-14.2781068754
33
0.0000000000
40
0.0000000000
40
0.0000000000
40
0.0000000000
40
0.0000000000
40
0.1701813160
40
0.3341468894
40
0.4874756178
40
0.6259706731
40
0.7463585262
40
0.8462397358
40
0.9230546126
40
0.9746224983
40
1.0000000000
40
1.0000000000
40
1.0000000000
40
1.0000000000
10
59.3442399876
20
208.7181614751
30
0.0000000000
10
59.2898931629
20
207.6508810912
30
0.0000000000
10
59.1873613644
20
205.5550769351
30
0.0000000000
10
59.0408338151
20
202.4975142810
30
0.0000000000
10
58.9191888185
20
199.6377159950
30
0.0000000000
10
58.8437853385
20
197.0507987951
30
0.0000000000
10
58.8360643493
20
194.7956190829
30
0.0000000000
10
58.9056087744
20
192.9360189468
30
0.0000000000
10
59.0035618743
20
191.4929612894
30
0.0000000000
10
59.1569634211
20
190.5628305321
30
0.0000000000
10
59.2402812867
20
190.0550105052
30
0.0000000000
10
59.3442399876
20
189.9342296112
30
0.0000000000
11
59.3442399876
21
208.7181614751
31
0.0000000000
11
59.1859968454
21
205.5160796423
31
0.0000000000
11
59.0404916242
21
202.4306154025
31
0.0000000000
11
58.9219941629
21
199.5445378126
31
0.0000000000
11
58.8524316032
21
196.9364027571
31
0.0000000000
11
58.8524416987
21
194.6684557970
31
0.0000000000
11
58.9220198703
21
192.7881135710
31
0.0000000000
11
59.0405264798
21
191.3458841017
31
0.0000000000
11
59.1860355437
21
190.3853729105
31
0.0000000000
11
59.3442399876
21
189.9342296112
31
0.0000000000
0
SPLINE
5
359
100
AcDbEntity
8
0
100
AcDbSpline
62
7
6
CONTINUOUS
70
0
71
3
72
12
73
8
74
6
42
0.0000001000
43
0.0000001000
44
0.0000000001
12
-1.4568480901
22
-0.0167044207
32
0.0000000000
13
-0.0671618151
23
-1.4553950274
33
0.0000000000
40
0.0000000000
40
0.0000000000
40
0.0000000000
40
0.0000000000
40
0.2187320113
40
0.4304435529
40
0.6303922932
40
0.8198354794
40
1.0000000000
40
1.0000000000
40
1.0000000000
40
1.0000000000
10
60.3431946619
20
209.5905850060
30
0.0000000000
10
60.2369748909
20
209.5893670755
30
0.0000000000
10
60.0265891949
20
209.5604225229
30
0.0000000000
10
59.7455531427
20
209.4277839553
30
0.0000000000
10
59.5263452487
20
209.2281399954
30
0.0000000000
10
59.3864479068
20
208.9845507993
30
0.0000000000
10
59.3482733797
20
208.8055649909
30
0.0000000000
10
59.3442399876
20
208.7181614751
30
0.0000000000
11
60.3431946619
21
209.5905850060
31
0.0000000000
11
60.0279321088
21
209.5440379277
31
0.0000000000
11
59.7491432325
21
209.4120557564
31
0.0000000000
11
59.5347372593
21
209.2148401973
31
0.0000000000
11
59.3979900888
21
208.9750889202
31
0.0000000000
11
59.3442399876
21
208.7181614751
31
0.0000000000
0
SPLINE
5
35A
100
AcDbEntity
8
0
100
AcDbSpline
62
7
6
CONTINUOUS
70
0
71
3
72
11
73
7
74
5
42
0.0000001000
43
0.0000001000
44
0.0000000001
12
-0.3499251745
22
1.2071917180
32
0.0000000000
13
-1.2567697249
23
0.0170097114
33
0.0000000000
40
0.0000000000
40
0.0000000000
40
0.0000000000
40
0.0000000000
40
0.2282794632
40
0.4722110026
40
0.7312882223
40
1.0000000000
40
1.0000000000
40
1.0000000000
40
1.0000000000
10
62.2225711679
20
208.9151321529
30
0.0000000000
10
62.1959442575
20
209.0069911787
30
0.0000000000
10
62.1062394808
20
209.1882310258
30
0.0000000000
10
61.8861185754
20
209.4084221582
30
0.0000000000
10
61.5924538141
20
209.5568151557
30
0.0000000000
10
61.3697591380
20
209.5890614361
30
0.0000000000
10
61.2571895290
20
209.5905850060
30
0.0000000000
11
62.2225711679
21
208.9151321529
31
0.0000000000
11
62.0969592514
21
209.1730959162
31
0.0000000000
11
61.8812698310
21
209.3909900726
31
0.0000000000
11
61.5908542724
21
209.5382783882
31
0.0000000000
11
61.2571895290
21
209.5905850060
31
0.0000000000
0
SPLINE
5
35B
100
AcDbEntity
8
0
100
AcDbSpline
62
7
6
CONTINUOUS
70
0
71
3
72
17
73
13
74
11
42
0.0000001000
43
0.0000001000
44
0.0000000001
12
20.2670508920
22
3.3260587777
32
0.0000000000
13
-5.9055616467
23
19.6707996912
33
0.0000000000
40
0.0000000000
40
0.0000000000
40
0.0000000000
40
0.0000000000
40
0.0491906724
40
0.1088886405
40
0.1797565458
40
0.2576096192
40
0.3410334335
40
0.4359424910
40
0.5507991650
40
0.6875333153
40
0.8397718063
40
1.0000000000
40
1.0000000000
40
1.0000000000
40
1.0000000000
10
62.2225711679
20
189.9235510726
30
0.0000000000
10
62.5548877882
20
189.9780880951
30
0.0000000000
10
63.2539589341
20
190.3207504494
30
0.0000000000
10
64.0809019675
20
191.2548640600
30
0.0000000000
10
64.7382692712
20
192.5348569061
30
0.0000000000
10
65.1567902742
20
194.0790458701
30
0.0000000000
10
65.2884545959
20
195.8369965541
30
0.0000000000
10
65.1183428201
20
197.8430014940
30
0.0000000000
10
64.6618459534
20
200.1733480314
30
0.0000000000
10
63.9745199608
20
202.8517974768
30
0.0000000000
10
63.1333447182
20
205.8098293022
30
0.0000000000
10
62.5379836598
20
207.8645265849
30
0.0000000000
10
62.2225711679
20
208.9151321529
30
0.0000000000
11
62.2225711679
21
189.9235510726
31
0.0000000000
11
63.1460640275
21
190.3332321010
31
0.0000000000
11
63.9900394735
21
191.2226101789
31
0.0000000000
11
64.6706072396
21
192.5091937304
31
0.0000000000
11
65.0983075510
21
194.0498890136
31
0.0000000000
11
65.2398520400
21
195.7574040428
31
0.0000000000
11
65.0982581588
21
197.7015119710
31
0.0000000000
11
64.6705037471
21
200.0213495778
31
0.0000000000
11
63.9898721414
21
202.7458878905
31
0.0000000000
11
63.1458767635
21
205.7565215923
31
0.0000000000
11
62.2225711679
21
208.9151321529
31
0.0000000000
0
SPLINE
5
35C
100
AcDbEntity
8
0
100
AcDbSpline
62
7
6
CONTINUOUS
70
0
71
3
72
12
73
8
74
6
42
0.0000001000
43
0.0000001000
44
0.0000000001
12
-1.0198397761
22
3.7743281606
32
0.0000000000
13
-3.9096836305
23
0.0003769103
33
0.0000000000
40
0.0000000000
40
0.0000000000
40
0.0000000000
40
0.0000000000
40
0.2001882162
40
0.4002133042
40
0.6001696626
40
0.8001072050
40
1.0000000000
40
1.0000000000
40
1.0000000000
40
1.0000000000
10
64.1533309746
20
209.3368991138
30
0.0000000000
10
64.0852776727
20
209.5887577878
30
0.0000000000
10
63.8822282941
20
210.0768282704
30
0.0000000000
10
63.3997201915
20
210.7032527369
30
0.0000000000
10
62.7715671170
20
211.1839312985
30
0.0000000000
10
62.0413137448
20
211.4858152252
30
0.0000000000
10
61.5176953919
20
211.5544078063
30
0.0000000000
10
61.2571895290
20
211.5544329202
30
0.0000000000
11
64.1533309746
21
209.3368991138
31
0.0000000000
11
63.8524455231
21
210.0594254711
31
0.0000000000
11
63.3753466760
21
210.6790666117
31
0.0000000000
11
62.7545044702
21
211.1541594434
31
0.0000000000
11
62.0320531527
21
211.4526679369
31
0.0000000000
11
61.2571895290
21
211.5544329202
31
0.0000000000
0
SPLINE
5
35D
100
AcDbEntity
8
0
100
AcDbSpline
62
7
6
CONTINUOUS
70
0
71
3
72
16
73
12
74
10
42
0.0000001000
43
0.0000001000
44
0.0000000001
12
11.5188569165
22
-0.0691325179
32
0.0000000000
13
-11.5190643703
23
0.0000000000
33
0.0000000000
40
0.0000000000
40
0.0000000000
40
0.0000000000
40
0.0000000000
40
0.1457504584
40
0.2995704076
40
0.4590226942
40
0.6161963579
40
0.7554535584
40
0.8648585001
40
0.9410951853
40
0.9854885507
40
1.0000000000
40
1.0000000000
40
1.0000000000
40
1.0000000000
10
94.9802030457
20
198.9837498222
30
0.0000000000
10
95.5398292711
20
198.9803911235
30
0.0000000000
10
96.6913904275
20
199.0574786325
30
0.0000000000
10
98.4272211532
20
199.3793427457
30
0.0000000000
10
100.1605939478
20
199.9078878685
30
0.0000000000
10
101.7755576929
20
200.5653009645
30
0.0000000000
10
103.2031970902
20
201.2543852033
30
0.0000000000
10
104.2328130653
20
201.8305904123
30
0.0000000000
10
105.1450492476
20
202.3152700749
30
0.0000000000
10
105.3386750007
20
202.5117481464
30
0.0000000000
10
105.7859224852
20
202.7015228426
30
0.0000000000
10
105.7302030457
20
202.7015228426
30
0.0000000000
11
94.9802030457
21
198.9837498222
31
0.0000000000
11
96.6559416191
21
199.0868777551
31
0.0000000000
11
98.3985922811
21
199.4072888138
31
0.0000000000
11
100.1575840732
21
199.9360287719
31
0.0000000000
11
101.8369666680
21
200.6124613195
31
0.0000000000
11
103.2810132302
21
201.3109646774
31
0.0000000000
11
104.3892864243
21
201.9109162182
31
0.0000000000
11
105.1492927630
21
202.3508959860
31
0.0000000000
11
105.5875814426
21
202.6143392329
31
0.0000000000
11
105.7302030457
21
202.7015228426
31
0.0000000000
0
SPLINE
5
35E
100
AcDbEntity
8
0
100
AcDbSpline
62
7
6
CONTINUOUS
70
0
71
3
72
24
73
20
74
18
42
0.0000001000
43
0.0000001000
44
0.0000000001
12
0.1627263257
22
33.2290394884
32
0.0000000000
13
0.1656991581
23
-33.2290247971
33
0.0000000000
40
0.0000000000
40
0.0000000000
40
0.0000000000
40
0.0000000000
40
0.0538640392
40
0.1097439755
40
0.1683790961
40
0.2304394112
40
0.2947282661
40
0.3579478485
40
0.4172972738
40
0.4729233304
40
0.5271153939
40
0.5827429366
40
0.6420939813
40
0.7053151700
40
0.7696033967
40
0.8316625398
40
0.8902964536
40
0.9461698097
40
1.0000000000
40
1.0000000000
40
1.0000000000
40
1.0000000000
10
131.1302030457
20
186.2015228426
30
0.0000000000
10
131.1331247447
20
186.7981396042
30
0.0000000000
10
131.0206180606
20
188.0163898856
30
0.0000000000
10
130.5253191456
20
189.8242652478
30
0.0000000000
10
129.6607323502
20
191.5921016421
30
0.0000000000
10
128.4156283148
20
193.2360543518
30
0.0000000000
10
126.8305589596
20
194.6349238738
30
0.0000000000
10
125.0287266593
20
195.6797094393
30
0.0000000000
10
123.1568473395
20
196.3385895652
30
0.0000000000
10
121.2998568736
20
196.6475386923
30
0.0000000000
10
119.4592418886
20
196.6474279126
30
0.0000000000
10
117.6022545133
20
196.3382487866
30
0.0000000000
10
115.7304060728
20
195.6791214237
30
0.0000000000
10
113.9286828666
20
194.6340881534
30
0.0000000000
10
112.3438019417
20
193.2350069039
30
0.0000000000
10
111.0989446504
20
191.5909120505
30
0.0000000000
10
110.2346251831
20
189.8230511522
30
0.0000000000
10
109.7397136494
20
188.0155611005
30
0.0000000000
10
109.6272298399
20
186.7977644190
30
0.0000000000
10
109.6302030457
20
186.2015228426
30
0.0000000000
11
131.1302030457
21
186.2015228426
31
0.0000000000
11
130.9720203654
21
187.9843910678
31
0.0000000000
11
130.4801194261
21
189.7749100848
31
0.0000000000
11
129.6252483119
21
191.5257684723
31
0.0000000000
11
128.3809234416
21
193.1702883598
31
0.0000000000
11
126.7800847004
21
194.5848619053
31
0.0000000000
11
124.9633038351
21
195.6395954459
31
0.0000000000
11
123.1032573248
21
196.2950303327
31
0.0000000000
11
121.2799464632
21
196.5986807660
31
0.0000000000
11
119.4791746565
21
196.5985729199
31
0.0000000000
11
117.6558517324
21
196.2946943839
31
0.0000000000
11
115.7958353830
21
195.6390120359
31
0.0000000000
11
113.9791449313
21
194.5840164730
31
0.0000000000
11
112.3785120016
21
193.1692415745
31
0.0000000000
11
111.1344329034
21
191.5245845842
31
0.0000000000
11
110.2798129105
21
189.7736482307
31
0.0000000000
11
109.7881919972
21
187.9832790569
31
0.0000000000
11
109.6302030457
21
186.2015228426
31
0.0000000000
0
SPLINE
5
35F
100
AcDbEntity
8
0
100
AcDbSpline
62
7
6
CONTINUOUS
70
0
71
3
72
24
73
20
74
18
42
0.0000001000
43
0.0000001000
44
0.0000000001
12
-0.1627257462
22
-33.2290395009
32
0.0000000000
13
-0.1657044172
23
33.2290247806
33
0.0000000000
40
0.0000000000
40
0.0000000000
40
0.0000000000
40
0.0000000000
40
0.0538640355
40
0.1097439652
40
0.1683790791
40
0.2304393727
40
0.2947282162
40
0.3579478460
40
0.4172972759
40
0.4729233367
40
0.5271153985
40
0.5827429451
40
0.6420939967
40
0.7053152344
40
0.7696034474
40
0.8316625695
40
0.8902964790
40
0.9461698446
40
1.0000000000
40
1.0000000000
40
1.0000000000
40
1.0000000000
10
109.6302030457
20
186.2015228426
30
0.0000000000
10
109.6272813572
20
185.6049061218
30
0.0000000000
10
109.7397880217
20
184.3866559572
30
0.0000000000
10
110.2350868290
20
182.5787807617
30
0.0000000000
10
111.0996733933
20
180.8109446884
30
0.0000000000
10
112.3447769884
20
179.1669922119
30
0.0000000000
10
113.9298462727
20
177.7681223705
30
0.0000000000
10
115.7316789095
20
176.7233364361
30
0.0000000000
10
117.6035588222
20
176.0644561105
30
0.0000000000
10
119.4605493701
20
175.7555069837
30
0.0000000000
10
121.3011644266
20
175.7556177809
30
0.0000000000
10
123.1581518972
20
176.0647969730
30
0.0000000000
10
125.0300009409
20
176.7239246222
30
0.0000000000
10
126.8317244624
20
177.7689583369
30
0.0000000000
10
128.4166052410
20
179.1680399859
30
0.0000000000
10
129.6614620440
20
180.8121346498
30
0.0000000000
10
130.5257812821
20
182.5799954709
30
0.0000000000
10
131.0206925023
20
184.3874852562
30
0.0000000000
10
131.1331763439
20
185.6052816535
30
0.0000000000
10
131.1302030457
20
186.2015228426
30
0.0000000000
11
109.6302030457
21
186.2015228426
31
0.0000000000
11
109.7883857110
21
184.4186547388
31
0.0000000000
11
110.2802865430
21
182.6281359206
31
0.0000000000
11
111.1351574886
21
180.8772776969
31
0.0000000000
11
112.3794817728
21
179.2327582596
31
0.0000000000
11
113.9803200347
21
177.8181847474
31
0.0000000000
11
115.7971021857
21
176.7634502798
31
0.0000000000
11
117.6571488434
21
176.1080153470
31
0.0000000000
11
119.4804598444
21
175.8043649067
31
0.0000000000
11
121.2812315965
21
175.8044727745
31
0.0000000000
11
123.1045546414
21
176.1083513734
31
0.0000000000
11
124.9645711855
21
176.7640338628
31
0.0000000000
11
126.7812629220
21
177.8190304510
31
0.0000000000
11
128.3818952527
21
179.2338053418
31
0.0000000000
11
129.6259737138
21
180.8784619421
31
0.0000000000
11
130.4805934813
21
182.6293982461
31
0.0000000000
11
130.9722143047
21
184.4197677744
31
0.0000000000
11
131.1302030457
21
186.2015228426
31
0.0000000000
0
SPLINE
5
360
100
AcDbEntity
8
0
100
AcDbSpline
62
7
6
CONTINUOUS
70
0
71
3
72
16
73
12
74
10
42
0.0000001000
43
0.0000001000
44
0.0000000001
12
9.2498257098
22
6.1345387222
32
0.0000000000
13
11.0991192774
23
-0.0406381937
33
0.0000000000
40
0.0000000000
40
0.0000000000
40
0.0000000000
40
0.0000000000
40
0.0149386388
40
0.0606289178
40
0.1391102705
40
0.2516114375
40
0.3939723359
40
0.5522604971
40
0.7096142713
40
0.8588880220
40
1.0000000000
40
1.0000000000
40
1.0000000000
40
1.0000000000
10
84.7302030457
20
169.2015228426
30
0.0000000000
10
84.7762629807
20
169.2320700620
30
0.0000000000
10
84.9634299922
20
169.3556987779
30
0.0000000000
10
85.3950700025
20
169.6360287987
30
0.0000000000
10
86.1374967970
20
170.1004117576
30
0.0000000000
10
87.2023146207
20
170.7231832164
30
0.0000000000
10
88.5578546486
20
171.4314924537
30
0.0000000000
10
90.1137176554
20
172.1077452815
30
0.0000000000
10
91.7534199690
20
172.6391314368
30
0.0000000000
10
93.3825773254
20
172.9597224773
30
0.0000000000
10
94.4581301539
20
173.0338671635
30
0.0000000000
10
94.9802030457
20
173.0319556516
30
0.0000000000
11
84.7302030457
21
169.2015228426
31
0.0000000000
11
84.8685549171
21
169.2929048405
31
0.0000000000
11
85.2938966276
21
169.5690577951
31
0.0000000000
11
86.0326308553
21
170.0306329706
31
0.0000000000
11
87.1112340000
21
170.6597574596
31
0.0000000000
11
88.5134220232
21
171.3881508247
31
0.0000000000
11
90.1271968228
21
172.0826480939
31
0.0000000000
11
91.7909408078
21
172.6138902746
31
0.0000000000
11
93.4172818100
21
172.9302156148
31
0.0000000000
11
94.9802030457
21
173.0319556516
31
0.0000000000
0
SPLINE
5
361
100
AcDbEntity
8
0
100
AcDbSpline
62
7
6
CONTINUOUS
70
0
71
3
72
10
73
6
74
4
42
0.0000001000
43
0.0000001000
44
0.0000000001
12
-0.0776215374
22
3.2376392491
32
0.0000000000
13
0.1149240915
23
3.2365298491
33
0.0000000000
40
0.0000000000
40
0.0000000000
40
0.0000000000
40
0.0000000000
40
0.3758888541
40
0.7116312349
40
1.0000000000
40
1.0000000000
40
1.0000000000
40
1.0000000000
10
67.5630346090
20
192.9118114590
30
0.0000000000
10
67.5533089188
20
193.3174756281
30
0.0000000000
10
67.5399100790
20
194.0856179807
30
0.0000000000
10
67.5388827354
20
195.1651853978
30
0.0000000000
10
67.5519883714
20
195.8388873196
30
0.0000000000
10
67.5630352108
20
196.1499920248
30
0.0000000000
11
67.5630346090
21
192.9118114590
31
0.0000000000
11
67.5426885277
21
194.1289836330
31
0.0000000000
11
67.5428123017
21
195.2163086916
31
0.0000000000
11
67.5630352108
21
196.1499920248
31
0.0000000000
0
SPLINE
5
362
100
AcDbEntity
8
0
100
AcDbSpline
62
7
6
CONTINUOUS
70
0
71
3
72
11
73
7
74
5
42
0.0000001000
43
0.0000001000
44
0.0000000001
12
0.1882095347
22
-0.5774798446
32
0.0000000000
13
0.6073761601
23
0.0000007331
33
0.0000000000
40
0.0000000000
40
0.0000000000
40
0.0000000000
40
0.0000000000
40
0.2304993327
40
0.4750121872
40
0.7333397924
40
1.0000000000
40
1.0000000000
40
1.0000000000
40
1.0000000000
10
67.0803446070
20
196.4563865265
30
0.0000000000
10
67.0948053311
20
196.4120169535
30
0.0000000000
10
67.1431077716
20
196.3259010769
30
0.0000000000
10
67.2573766064
20
196.2272645976
30
0.0000000000
10
67.4021733715
20
196.1643034686
30
0.0000000000
10
67.5090476341
20
196.1499919601
30
0.0000000000
10
67.5630353184
20
196.1499920252
30
0.0000000000
11
67.0803446070
21
196.4563865265
31
0.0000000000
11
67.1477375418
21
196.3336749286
31
0.0000000000
11
67.2590703340
21
196.2353865302
31
0.0000000000
11
67.4025636116
21
196.1719205868
31
0.0000000000
11
67.5630353184
21
196.1499920252
31
0.0000000000
0
SPLINE
5
363
100
AcDbEntity
8
0
100
AcDbSpline
62
7
6
CONTINUOUS
70
0
71
3
72
12
73
8
74
6
42
0.0000001000
43
0.0000001000
44
0.0000000001
12
3.9096835967
22
0.0003769398
32
0.0000000000
13
1.0198398243
23
3.7743281126
33
0.0000000000
40
0.0000000000
40
0.0000000000
40
0.0000000000
40
0.0000000000
40
0.2000502296
40
0.4000163779
40
0.5999727414
40
0.7999691498
40
1.0000000000
40
1.0000000000
40
1.0000000000
40
1.0000000000
10
61.2571895290
20
160.8486127651
30
0.0000000000
10
61.5179005628
20
160.8486379007
30
0.0000000000
10
62.0417674232
20
160.9173181348
30
0.0000000000
10
62.7721799707
20
161.2194619096
30
0.0000000000
10
63.4002156072
20
161.7002937496
30
0.0000000000
10
63.8824312344
20
162.3266324341
30
0.0000000000
10
64.0853311541
20
162.8144858420
30
0.0000000000
10
64.1533309631
20
163.0661465291
30
0.0000000000
11
61.2571895290
21
160.8486127651
31
0.0000000000
11
62.0326528854
21
160.9505381130
31
0.0000000000
11
62.7551401495
21
161.2492524109
31
0.0000000000
11
63.3758661370
21
161.7244970971
31
0.0000000000
11
63.8527566966
21
162.3441570627
31
0.0000000000
11
64.1533309631
21
163.0661465291
31
0.0000000000
0
SPLINE
5
364
100
AcDbEntity
8
0
100
AcDbSpline
62
7
6
CONTINUOUS
70
0
71
3
72
17
73
13
74
11
42
0.0000001000
43
0.0000001000
44
0.0000000001
12
5.9055246203
22
19.6708148900
32
0.0000000000
13
-20.2670591766
23
3.3260324428
33
0.0000000000
40
0.0000000000
40
0.0000000000
40
0.0000000000
40
0.0000000000
40
0.1602611013
40
0.3124974776
40
0.4492262050
40
0.5640780838
40
0.6589848581
40
0.7424066740
40
0.8202588972
40
0.8911254776
40
0.9508204269
40
1.0000000000
40
1.0000000000
40
1.0000000000
40
1.0000000000
10
62.2225711679
20
163.4879135324
30
0.0000000000
10
62.5380464609
20
164.5387356847
30
0.0000000000
10
63.1334695769
20
166.5936348763
30
0.0000000000
10
63.9746807607
20
169.5518377244
30
0.0000000000
10
64.6619651457
20
172.2302113847
30
0.0000000000
10
65.1184080570
20
174.5604823421
30
0.0000000000
10
65.2884582668
20
176.5664314123
30
0.0000000000
10
65.1567321759
20
178.3243429052
30
0.0000000000
10
64.7381545601
20
179.8684877816
30
0.0000000000
10
64.0807442367
20
181.1484186596
30
0.0000000000
10
63.2538051581
20
182.0824021093
30
0.0000000000
10
62.5548129408
20
182.4249703275
30
0.0000000000
10
62.2225711679
20
182.4794946127
30
0.0000000000
11
62.2225711679
21
163.4879135324
31
0.0000000000
11
63.1460645919
21
166.6471739841
31
0.0000000000
11
63.9900367304
21
169.6577697131
31
0.0000000000
11
64.6706176147
21
172.3822064492
31
0.0000000000
11
65.0983149629
21
174.7019548910
31
0.0000000000
11
65.2398516731
21
176.6460203367
31
0.0000000000
11
65.0982492516
21
178.3534897053
31
0.0000000000
11
64.6704897840
21
179.8941507599
31
0.0000000000
11
63.9898700511
21
181.1806763508
31
0.0000000000
11
63.1458761511
21
182.0699517598
31
0.0000000000
11
62.2225711679
21
182.4794946127
31
0.0000000000
0
SPLINE
5
365
100
AcDbEntity
8
0
100
AcDbSpline
62
7
6
CONTINUOUS
70
0
71
3
72
11
73
7
74
5
42
0.0000001000
43
0.0000001000
44
0.0000000001
12
1.2567666813
22
0.0172223677
32
0.0000000000
13
0.3493884904
23
1.2073470023
33
0.0000000000
40
0.0000000000
40
0.0000000000
40
0.0000000000
40
0.0000000000
40
0.2688912029
40
0.5279908206
40
0.7719688521
40
1.0000000000
40
1.0000000000
40
1.0000000000
40
1.0000000000
10
61.2571895290
20
162.8124606793
30
0.0000000000
10
61.3698340306
20
162.8140043270
30
0.0000000000
10
61.5926151990
20
162.8462596180
30
0.0000000000
10
61.8863479875
20
162.9947770495
30
0.0000000000
10
62.1063251428
20
163.2149895954
30
0.0000000000
10
62.1960140150
20
163.3961426248
30
0.0000000000
10
62.2225711679
20
163.4879135324
30
0.0000000000
11
61.2571895290
21
162.8124606793
31
0.0000000000
11
61.5910714978
21
162.8648374891
31
0.0000000000
11
61.8814773693
21
163.0122070394
31
0.0000000000
11
62.0971418495
21
163.2302080362
31
0.0000000000
11
62.2225711679
21
163.4879135324
31
0.0000000000
0
SPLINE
5
366
100
AcDbEntity
8
0
100
AcDbSpline
62
7
6
CONTINUOUS
70
0
71
3
72
12
73
8
74
6
42
0.0000001000
43
0.0000001000
44
0.0000000001
12
0.0677235812
22
-1.4553691354
32
0.0000000000
13
1.4568507047
23
-0.0164871978
33
0.0000000000
40
0.0000000000
40
0.0000000000
40
0.0000000000
40
0.0000000000
40
0.1803632712
40
0.3697904279
40
0.5697274769
40
0.7814126629
40
1.0000000000
40
1.0000000000
40
1.0000000000
40
1.0000000000
10
59.3442399876
20
163.6848842102
30
0.0000000000
10
59.3483116032
20
163.5973858308
30
0.0000000000
10
59.3864884906
20
163.4183076702
30
0.0000000000
10
59.5265256957
20
163.1746940265
30
0.0000000000
10
59.7457607274
20
162.9751252744
30
0.0000000000
10
60.0267457654
20
162.8425973066
30
0.0000000000
10
60.2370449565
20
162.8136619768
30
0.0000000000
10
60.3431946619
20
162.8124606793
30
0.0000000000
11
59.3442399876
21
163.6848842102
31
0.0000000000
11
59.3980937033
21
163.4276825825
31
0.0000000000
11
59.5349051159
21
163.1879948185
31
0.0000000000
11
59.7493521762
21
162.9908490632
31
0.0000000000
11
60.0281360217
21
162.8589459542
31
0.0000000000
11
60.3431946619
21
162.8124606793
31
0.0000000000
0
SPLINE
5
367
100
AcDbEntity
8
0
100
AcDbSpline
62
7
6
CONTINUOUS
70
0
71
3
72
16
73
12
74
10
42
0.0000001000
43
0.0000001000
44
0.0000000001
12
-12.2894037349
22
-14.2781642207
32
0.0000000000
13
0.9580503799
23
-18.8142913005
33
0.0000000000
40
0.0000000000
40
0.0000000000
40
0.0000000000
40
0.0000000000
40
0.0253871273
40
0.0769619772
40
0.1537833528
40
0.2536701686
40
0.3740631138
40
0.5125625752
40
0.6658942845
40
0.8298609114
40
1.0000000000
40
1.0000000000
40
1.0000000000
40
1.0000000000
10
59.3442399876
20
182.4688160741
30
0.0000000000
10
59.2402424353
20
182.3479888833
30
0.0000000000
10
59.1569432810
20
181.8400451168
30
0.0000000000
10
59.0035255870
20
180.9097775231
30
0.0000000000
10
58.9055864499
20
179.4665960747
30
0.0000000000
10
58.8360551512
20
177.6068885266
30
0.0000000000
10
58.8437972053
20
175.3516138801
30
0.0000000000
10
58.9192155422
20
172.7646190598
30
0.0000000000
10
59.0408689411
20
169.9047682422
30
0.0000000000
10
59.1873874676
20
166.8474454727
30
0.0000000000
10
59.2899060481
20
164.7518996686
30
0.0000000000
10
59.3442399876
20
163.6848842102
30
0.0000000000
11
59.3442399876
21
182.4688160741
31
0.0000000000
11
59.1859968139
21
182.0174942307
31
0.0000000000
11
59.0404916252
21
181.0568498216
31
0.0000000000
11
58.9219942692
21
179.6144968447
31
0.0000000000
11
58.8524319371
21
177.7340484674
31
0.0000000000
11
58.8524413424
21
175.4660057258
31
0.0000000000
11
58.9220197881
21
172.8577882271
31
0.0000000000
11
59.0405265602
21
169.9716550021
31
0.0000000000
11
59.1860354493
21
166.8861712660
31
0.0000000000
11
59.3442399876
21
163.6848842102
31
0.0000000000
0
SPLINE
5
368
100
AcDbEntity
8
0
100
AcDbSpline
62
7
6
CONTINUOUS
70
0
71
3
72
12
73
8
74
6
42
0.0000001000
43
0.0000001000
44
0.0000000001
12
-1.0010672035
22
-0.0001772103
32
0.0000000000
13
-0.6156967924
23
-0.7893370872
33
0.0000000000
40
0.0000000000
40
0.0000000000
40
0.0000000000
40
0.0000000000
40
0.3149274037
40
0.5934329205
40
0.8076881237
40
0.9446292344
40
1.0000000000
40
1.0000000000
40
1.0000000000
40
1.0000000000
10
60.3431946619
20
182.5013418832
30
0.0000000000
10
60.2381068301
20
182.5013232804
30
0.0000000000
10
60.0394994796
20
182.5015394753
30
0.0000000000
10
59.7721928282
20
182.4970798886
30
0.0000000000
10
59.5566474291
20
182.4978565590
30
0.0000000000
10
59.4316461693
20
182.4798720892
30
0.0000000000
10
59.3556038552
20
182.4833848070
30
0.0000000000
10
59.3442399876
20
182.4688160741
30
0.0000000000
11
60.3431946619
21
182.5013418832
31
0.0000000000
11
60.0279321088
21
182.5005690732
31
0.0000000000
11
59.7491432325
21
182.4977884091
31
0.0000000000
11
59.5347372593
21
182.4920086974
31
0.0000000000
11
59.3979900888
21
182.4823584451
31
0.0000000000
11
59.3442399876
21
182.4688160741
31
0.0000000000
0
SPLINE
5
369
100
AcDbEntity
8
0
100
AcDbSpline
62
7
6
CONTINUOUS
70
0
71
3
72
11
73
7
74
5
42
0.0000001000
43
0.0000001000
44
0.0000000001
12
-0.9523310539
22
0.1618690428
32
0.0000000000
13
-0.9659896389
23
0.0002018470
33
0.0000000000
40
0.0000000000
40
0.0000000000
40
0.0000000000
40
0.0000000000
40
0.1305357838
40
0.3539277604
40
0.6545864754
40
1.0000000000
40
1.0000000000
40
1.0000000000
40
1.0000000000
10
62.2225711679
20
182.4794946127
30
0.0000000000
10
62.1811334077
20
182.4865378468
30
0.0000000000
10
62.0669494012
20
182.4924168536
30
0.0000000000
10
61.8564825879
20
182.4986824393
30
0.0000000000
10
61.5764151477
20
182.5008058767
30
0.0000000000
10
61.3684114910
20
182.5013186430
30
0.0000000000
10
61.2571895290
20
182.5013418832
30
0.0000000000
11
62.2225711679
21
182.4794946127
31
0.0000000000
11
62.0969592514
21
182.4905355582
31
0.0000000000
11
61.8812698309
21
182.4972639240
31
0.0000000000
11
61.5908542724
21
182.5004659141
31
0.0000000000
11
61.2571895290
21
182.5013418832
31
0.0000000000
0
SPLINE
5
36A
100
AcDbEntity
8
0
100
AcDbSpline
62
7
6
CONTINUOUS
70
0
71
3
72
13
73
9
74
7
42
0.0000001000
43
0.0000001000
44
0.0000000001
12
-3.1186281187
22
-0.0083613833
32
0.0000000000
13
-0.0194034278
23
-3.1185789652
33
0.0000000000
40
0.0000000000
40
0.0000000000
40
0.0000000000
40
0.0000000000
40
0.1662574094
40
0.3269934726
40
0.4905376341
40
0.6580290666
40
0.8275229215
40
1.0000000000
40
1.0000000000
40
1.0000000000
40
1.0000000000
10
59.3442399876
20
189.9342307530
30
0.0000000000
10
59.1714083103
20
189.9337673724
30
0.0000000000
10
58.8299330143
20
189.8882622154
30
0.0000000000
10
58.3532385722
20
189.6933348374
30
0.0000000000
10
57.9388688537
20
189.3844335854
30
0.0000000000
10
57.6112676814
20
188.9724733546
30
0.0000000000
10
57.3982103343
20
188.4811387137
30
0.0000000000
10
57.3474736665
20
188.1240852485
30
0.0000000000
10
57.3463581176
20
187.9447907854
30
0.0000000000
11
59.3442399876
21
189.9342307530
31
0.0000000000
11
58.8302964328
21
189.8656665271
31
0.0000000000
11
58.3662589560
21
189.6760652060
31
0.0000000000
11
57.9573924985
21
189.3711649271
31
0.0000000000
11
57.6322505507
21
188.9623527481
31
0.0000000000
11
57.4221261115
21
188.4773214901
31
0.0000000000
11
57.3463581176
21
187.9447907854
31
0.0000000000
0
SPLINE
5
36B
100
AcDbEntity
8
0
100
AcDbSpline
62
7
6
CONTINUOUS
70
0
71
3
72
13
73
9
74
7
42
0.0000001000
43
0.0000001000
44
0.0000000001
12
-3.0008465904
22
0.0000282612
32
0.0000000000
13
-2.4750954672
23
1.6967565200
33
0.0000000000
40
0.0000000000
40
0.0000000000
40
0.0000000000
40
0.0000000000
40
0.2514364471
40
0.4866532693
40
0.6906465628
40
0.8503884843
40
0.9556646158
40
1.0000000000
40
1.0000000000
40
1.0000000000
40
1.0000000000
10
60.3431946619
20
184.3558927064
30
0.0000000000
10
60.0916872602
20
184.3558950750
30
0.0000000000
10
59.6050648885
20
184.3586662211
30
0.0000000000
10
58.9135919335
20
184.3681664828
30
0.0000000000
10
58.3167373624
20
184.3881728656
30
0.0000000000
10
57.8427071812
20
184.3987721360
30
0.0000000000
10
57.5444492076
20
184.4379572193
30
0.0000000000
10
57.3829086502
20
184.4331844101
30
0.0000000000
10
57.3463305474
20
184.4582598608
30
0.0000000000
11
60.3431946619
21
184.3558927064
31
0.0000000000
11
59.5886826040
21
184.3598058117
31
0.0000000000
11
58.8829229033
21
184.3710708615
31
0.0000000000
11
58.2710160803
21
184.3884150270
31
0.0000000000
11
57.7921423499
21
184.4100233399
31
0.0000000000
11
57.4771306674
21
184.4339298153
31
0.0000000000
11
57.3463305474
21
184.4582598608
31
0.0000000000
0
SPLINE
5
36C
100
AcDbEntity
8
0
100
AcDbSpline
62
7
6
CONTINUOUS
70
0
71
3
72
13
73
9
74
7
42
0.0000001000
43
0.0000001000
44
0.0000000001
12
2.4750952573
22
1.6967559949
32
0.0000000000
13
3.0008461204
23
0.0000282958
33
0.0000000000
40
0.0000000000
40
0.0000000000
40
0.0000000000
40
0.0000000000
40
0.0443953355
40
0.1497409319
40
0.3095282339
40
0.5135613984
40
0.7487593597
40
1.0000000000
40
1.0000000000
40
1.0000000000
40
1.0000000000
10
57.3463305477
20
187.9447858247
30
0.0000000000
10
57.3829581091
20
187.9698951752
30
0.0000000000
10
57.5446449155
20
187.9650894823
30
0.0000000000
10
57.8430698581
20
188.0042981873
30
0.0000000000
10
58.3172567296
20
188.0148891153
30
0.0000000000
10
58.9141775538
20
188.0348916335
30
0.0000000000
10
59.6054754375
20
188.0443826170
30
0.0000000000
10
60.0918831616
20
188.0471506092
30
0.0000000000
10
60.3431946619
20
188.0471529789
30
0.0000000000
11
57.3463305477
21
187.9447858247
31
0.0000000000
11
57.4773100188
21
187.9691353174
31
0.0000000000
11
57.7925304868
21
187.9930446596
31
0.0000000000
11
58.2715406169
21
188.0146495062
31
0.0000000000
11
58.8835671736
21
188.0319889132
31
0.0000000000
11
59.5892702842
21
188.0432460433
31
0.0000000000
11
60.3431946619
21
188.0471529789
31
0.0000000000
0
SPLINE
5
36D
100
AcDbEntity
8
0
100
AcDbSpline
62
7
6
CONTINUOUS
70
0
71
3
72
13
73
9
74
7
42
0.0000001000
43
0.0000001000
44
0.0000000001
12
0.0194034309
22
-3.1185794736
32
0.0000000000
13
3.1186286270
23
-0.0083613787
33
0.0000000000
40
0.0000000000
40
0.0000000000
40
0.0000000000
40
0.0000000000
40
0.1661464856
40
0.3268034795
40
0.4903159535
40
0.6578340648
40
0.8274084791
40
1.0000000000
40
1.0000000000
40
1.0000000000
40
1.0000000000
10
57.3463581180
20
184.4582548952
30
0.0000000000
10
57.3474327220
20
184.2855412221
30
0.0000000000
10
57.3941870716
20
183.9444238650
30
0.0000000000
10
57.5909643468
20
183.4687303180
30
0.0000000000
10
57.9015756736
20
183.0557452060
30
0.0000000000
10
58.3149894233
20
182.7298583880
30
0.0000000000
10
58.8073933330
20
182.5187223844
30
0.0000000000
10
59.1648237016
20
182.4692959666
30
0.0000000000
10
59.3442399876
20
182.4688149322
30
0.0000000000
11
57.3463581180
21
184.4582548952
31
0.0000000000
11
57.4167874643
21
183.9449126933
31
0.0000000000
11
57.6081628225
21
183.4818707546
31
0.0000000000
11
57.9147223404
21
183.0743704337
31
0.0000000000
11
58.3249683275
21
182.7509049337
31
0.0000000000
11
58.8110768703
21
182.5426458606
31
0.0000000000
11
59.3442399876
21
182.4688149322
31
0.0000000000
0
SPLINE
5
36E
100
AcDbEntity
8
0
100
AcDbSpline
62
7
6
CONTINUOUS
70
0
71
3
72
13
73
9
74
7
42
0.0000001000
43
0.0000001000
44
0.0000000001
12
0.2106122133
22
-1.9934224794
32
0.0000000000
13
2.0024680720
23
0.0906217765
33
0.0000000000
40
0.0000000000
40
0.0000000000
40
0.0000000000
40
0.0000000000
40
0.0376594129
40
0.1335869082
40
0.2866071929
40
0.4912709199
40
0.7338302847
40
1.0000000000
40
1.0000000000
40
1.0000000000
40
1.0000000000
10
57.3463303821
20
163.7118502392
30
0.0000000000
10
57.3489742262
20
163.6868265324
30
0.0000000000
10
57.4769800095
20
163.6844859036
30
0.0000000000
10
57.6331909751
20
163.6571070023
30
0.0000000000
10
57.9548274046
20
163.6556777351
30
0.0000000000
10
58.3482477712
20
163.6533170163
30
0.0000000000
10
58.8275679134
20
163.6643538168
30
0.0000000000
10
59.1665745354
20
163.6768437546
30
0.0000000000
10
59.3442399876
20
163.6848840121
30
0.0000000000
11
57.3463303821
21
163.7118502392
31
0.0000000000
11
57.4167597009
21
163.6846786851
31
0.0000000000
11
57.6081362984
21
163.6659755466
31
0.0000000000
11
57.9146989621
21
163.6557892592
31
0.0000000000
11
58.3249506869
21
163.6552834312
31
0.0000000000
11
58.8110673219
21
163.6650387015
31
0.0000000000
11
59.3442399876
21
163.6848840121
31
0.0000000000
0
SPLINE
5
36F
100
AcDbEntity
8
0
100
AcDbSpline
62
7
6
CONTINUOUS
70
0
71
3
72
24
73
20
74
18
42
0.0000001000
43
0.0000001000
44
0.0000000001
12
-12.5867306736
22
-16.5565539427
32
0.0000000000
13
0.9435050511
23
-20.7763102047
33
0.0000000000
40
0.0000000000
40
0.0000000000
40
0.0000000000
40
0.0000000000
40
0.0159193940
40
0.0414479488
40
0.0730023229
40
0.1085353486
40
0.1473815762
40
0.1896163962
40
0.2357007769
40
0.2860320989
40
0.3404649361
40
0.3984445118
40
0.4598200224
40
0.5254172951
40
0.5969710026
40
0.6769780134
40
0.7687236861
40
0.8755220594
40
1.0000000000
40
1.0000000000
40
1.0000000000
40
1.0000000000
10
57.3463305474
20
184.4582594954
30
0.0000000000
10
57.2795395058
20
184.3704027269
30
0.0000000000
10
57.2118105903
20
184.0788950639
30
0.0000000000
10
57.1186259345
20
183.5883624730
30
0.0000000000
10
57.0452305004
20
182.9474024686
30
0.0000000000
10
56.9800884407
20
182.2168105848
30
0.0000000000
10
56.9279087599
20
181.4096952340
30
0.0000000000
10
56.8870724429
20
180.5291089281
30
0.0000000000
10
56.8587754299
20
179.5682490659
30
0.0000000000
10
56.8442811989
20
178.5225504593
30
0.0000000000
10
56.8448272076
20
177.3942805171
30
0.0000000000
10
56.8603828977
20
176.1895587328
30
0.0000000000
10
56.8897994659
20
174.9076837580
30
0.0000000000
10
56.9318606272
20
173.5320175518
30
0.0000000000
10
56.9862080113
20
172.0275296709
30
0.0000000000
10
57.0536407534
20
170.3421357715
30
0.0000000000
10
57.1358548824
20
168.4128094723
30
0.0000000000
10
57.2348314645
20
166.1756234191
30
0.0000000000
10
57.3071820254
20
164.5739163108
30
0.0000000000
10
57.3463305473
20
163.7118522085
30
0.0000000000
11
57.3463305474
21
184.4582594954
31
0.0000000000
11
57.2296991987
21
184.1483952935
31
0.0000000000
11
57.1318433098
21
183.6265552296
31
0.0000000000
11
57.0510183975
21
182.9752923289
31
0.0000000000
11
56.9849687716
21
182.2392438690
31
0.0000000000
11
56.9317761549
21
181.4330837907
31
0.0000000000
11
56.8906724705
21
180.5556579582
31
0.0000000000
11
56.8620212131
21
179.5976361258
31
0.0000000000
11
56.8470797855
21
178.5509658910
31
0.0000000000
11
56.8470861460
21
177.4188868394
31
0.0000000000
11
56.8620375151
21
176.2131364008
31
0.0000000000
11
56.8906949496
21
174.9369872815
31
0.0000000000
11
56.9318034203
21
173.5733328793
31
0.0000000000
11
56.9850006444
21
172.0861298442
31
0.0000000000
11
57.0510581282
21
170.4234779442
31
0.0000000000
11
57.1318894128
21
168.5170897516
31
0.0000000000
11
57.2297310893
21
166.2980828006
31
0.0000000000
11
57.3463305473
21
163.7118522085
31
0.0000000000
0
SPLINE
5
370
100
AcDbEntity
8
0
100
AcDbSpline
62
7
6
CONTINUOUS
70
0
71
3
72
16
73
12
74
10
42
0.0000001000
43
0.0000001000
44
0.0000000001
12
11.0991174534
22
0.0424847736
32
0.0000000000
13
9.2498173518
23
-6.1345606108
33
0.0000000000
40
0.0000000000
40
0.0000000000
40
0.0000000000
40
0.0000000000
40
0.1410690248
40
0.2904361103
40
0.4477809395
40
0.6059919425
40
0.7483253700
40
0.8608471494
40
0.9393527815
40
0.9850592238
40
1.0000000000
40
1.0000000000
40
1.0000000000
40
1.0000000000
10
94.9802030457
20
173.0319556516
30
0.0000000000
10
95.5021169374
20
173.0339534134
30
0.0000000000
10
96.5778601214
20
172.9597396380
30
0.0000000000
10
98.2071668833
20
172.6391126793
30
0.0000000000
10
99.8468710106
20
172.1076435490
30
0.0000000000
10
101.4023615493
20
171.4315937865
30
0.0000000000
10
102.7576278773
20
170.7234294965
30
0.0000000000
10
103.8225189517
20
170.1006550322
30
0.0000000000
10
104.5651415311
20
169.6361579413
30
0.0000000000
10
104.9969132851
20
169.3557411099
30
0.0000000000
10
105.1841365622
20
169.2320745416
30
0.0000000000
10
105.2302030457
20
169.2015228426
30
0.0000000000
11
94.9802030457
21
173.0319556516
31
0.0000000000
11
96.5426531412
21
172.9303061946
31
0.0000000000
11
98.1700068216
21
172.6137574559
31
0.0000000000
11
99.8336371317
21
172.0824830386
31
0.0000000000
11
101.4466298774
21
171.3883329259
31
0.0000000000
11
102.8485571723
21
170.6600975012
31
0.0000000000
11
103.9273721689
21
170.0308810060
31
0.0000000000
11
104.6663394333
21
169.5691694814
31
0.0000000000
11
105.0918315397
21
169.2929182960
31
0.0000000000
11
105.2302030457
21
169.2015228426
31
0.0000000000
0
SPLINE
5
371
100
AcDbEntity
8
0
100
AcDbSpline
62
7
6
CONTINUOUS
70
0
71
3
72
24
73
20
74
18
42
0.0000001000
43
0.0000001000
44
0.0000000001
12
-0.9435056155
22
-20.7763108540
32
0.0000000000
13
12.5866373580
23
-16.5566257301
33
0.0000000000
40
0.0000000000
40
0.0000000000
40
0.0000000000
40
0.0000000000
40
0.1245105741
40
0.2313249384
40
0.3230652752
40
0.4030641128
40
0.4746123819
40
0.5402056381
40
0.6015789329
40
0.6595568952
40
0.7139872473
40
0.7643158213
40
0.8103991790
40
0.8526336629
40
0.8914786910
40
0.9270103765
40
0.9585619232
40
0.9840848374
40
1.0000000000
40
1.0000000000
40
1.0000000000
40
1.0000000000
10
57.3463305475
20
208.6911934812
30
0.0000000000
10
57.3071717389
20
207.8289033504
30
0.0000000000
10
57.2348060264
20
206.2268594375
30
0.0000000000
10
57.1358171928
20
203.9893734578
30
0.0000000000
10
57.0536042536
20
202.0600298230
30
0.0000000000
10
56.9861794384
20
200.3747670108
30
0.0000000000
10
56.9318396488
20
198.8704010946
30
0.0000000000
10
56.8897848023
20
197.4948155955
30
0.0000000000
10
56.8603739961
20
196.2129948505
30
0.0000000000
10
56.8448240907
20
195.0083167265
30
0.0000000000
10
56.8442838633
20
193.8800942078
30
0.0000000000
10
56.8587830872
20
192.8344390105
30
0.0000000000
10
56.8870847012
20
191.8736077430
30
0.0000000000
10
56.9279258292
20
190.9930393607
30
0.0000000000
10
56.9801106052
20
190.1859443628
30
0.0000000000
10
57.0452558524
20
189.4553898162
30
0.0000000000
10
57.1186545499
20
188.8144995945
30
0.0000000000
10
57.2118285725
20
188.3240511899
30
0.0000000000
10
57.2795577545
20
188.0326199854
30
0.0000000000
10
57.3463305477
20
187.9447861888
30
0.0000000000
11
57.3463305475
21
208.6911934812
31
0.0000000000
11
57.2297007774
21
206.1042847787
31
0.0000000000
11
57.1318456112
21
203.8849454519
31
0.0000000000
11
57.0510210395
21
201.9786679860
31
0.0000000000
11
56.9849729469
21
200.3161857773
31
0.0000000000
11
56.9317829413
21
198.8290956141
31
0.0000000000
11
56.8906807892
21
197.4655245520
31
0.0000000000
11
56.8620288817
21
196.1894213616
31
0.0000000000
11
56.8470831681
21
194.9837043707
31
0.0000000000
11
56.8470825259
21
193.8516769670
31
0.0000000000
11
56.8620287196
21
192.8050639231
31
0.0000000000
11
56.8906847797
21
191.8470634900
31
0.0000000000
11
56.9317938895
21
190.9696448794
31
0.0000000000
11
56.9849912189
21
190.1635100872
31
0.0000000000
11
57.0510459533
21
189.4274900472
31
0.0000000000
11
57.1318738667
21
188.7762867518
31
0.0000000000
11
57.2297199906
21
188.2545641957
31
0.0000000000
11
57.3463305477
21
187.9447861888
31
0.0000000000
0
SPLINE
5
372
100
AcDbEntity
8
0
100
AcDbSpline
62
7
6
CONTINUOUS
70
0
71
3
72
10
73
6
74
4
42
0.0000001000
43
0.0000001000
44
0.0000000001
12
-0.1149534444
22
3.2365294670
32
0.0000000000
13
0.0776941200
23
3.2376381683
33
0.0000000000
40
0.0000000000
40
0.0000000000
40
0.0000000000
40
0.0000000000
40
0.2883874562
40
0.6241833467
40
1.0000000000
40
1.0000000000
40
1.0000000000
40
1.0000000000
10
67.5630350822
20
176.2530537692
30
0.0000000000
10
67.5519847050
20
176.5641786026
30
0.0000000000
10
67.5388755961
20
177.2379585744
30
0.0000000000
10
67.5398957993
20
178.3175262385
30
0.0000000000
10
67.5533019575
20
179.0856485466
30
0.0000000000
10
67.5630348722
20
179.4912346603
30
0.0000000000
11
67.5630350822
21
176.2530537692
31
0.0000000000
11
67.5428055494
21
177.1867976960
31
0.0000000000
11
67.5426784752
21
178.2742962706
31
0.0000000000
11
67.5630348722
21
179.4912346603
31
0.0000000000
0
SPLINE
5
373
100
AcDbEntity
8
0
100
AcDbSpline
62
7
6
CONTINUOUS
70
0
71
3
72
13
73
9
74
7
42
0.0000001000
43
0.0000001000
44
0.0000000001
12
0.2106435742
22
1.9933914908
32
0.0000000000
13
2.0024404932
23
-0.0906224143
33
0.0000000000
40
0.0000000000
40
0.0000000000
40
0.0000000000
40
0.0000000000
40
0.0376600248
40
0.1335882360
40
0.2866090553
40
0.4912727299
40
0.7338313893
40
1.0000000000
40
1.0000000000
40
1.0000000000
40
1.0000000000
10
57.3463581180
20
208.6911945184
30
0.0000000000
10
57.3490023987
20
208.7162182428
30
0.0000000000
10
57.4770064726
20
208.7185597598
30
0.0000000000
10
57.6332174088
20
208.7459383062
30
0.0000000000
10
57.9548496435
20
208.7473680338
30
0.0000000000
10
58.3482647356
20
208.7497286089
30
0.0000000000
10
58.8275769417
20
208.7386918254
30
0.0000000000
10
59.1665777195
20
208.7262018233
30
0.0000000000
10
59.3442399876
20
208.7181615426
30
0.0000000000
11
57.3463581180
21
208.6911945184
31
0.0000000000
11
57.4167874643
21
208.7183665294
31
0.0000000000
11
57.6081628225
21
208.7370699575
31
0.0000000000
11
57.9147223404
21
208.7472563783
31
0.0000000000
11
58.3249683275
21
208.7477622242
31
0.0000000000
11
58.8110768703
21
208.7380069145
31
0.0000000000
11
59.3442399876
21
208.7181615426
31
0.0000000000
0
SPLINE
5
374
100
AcDbEntity
8
0
100
AcDbSpline
62
7
6
CONTINUOUS
70
0
71
3
72
13
73
9
74
7
42
0.0000001000
43
0.0000001000
44
0.0000000001
12
-4.5633403860
22
-0.0004156233
32
0.0000000000
13
-0.2089057284
23
-4.5585561364
33
0.0000000000
40
0.0000000000
40
0.0000000000
40
0.0000000000
40
0.0000000000
40
0.1666861423
40
0.3333061434
40
0.4999110101
40
0.6665531531
40
0.8332548357
40
1.0000000000
40
1.0000000000
40
1.0000000000
40
1.0000000000
10
60.3431946619
20
211.5544329202
30
0.0000000000
10
60.0896461269
20
211.5544098273
30
0.0000000000
10
59.5803013813
20
211.4894982337
30
0.0000000000
10
58.8672266138
20
211.2035082422
30
0.0000000000
10
58.2485189138
20
210.7474072033
30
0.0000000000
10
57.7644674998
20
210.1501451090
30
0.0000000000
10
57.4460669703
20
209.4506296605
30
0.0000000000
10
57.3579418875
20
208.9445659068
30
0.0000000000
10
57.3463305475
20
208.6911935095
30
0.0000000000
11
60.3431946619
21
211.5544329202
31
0.0000000000
11
59.5886826044
21
211.4580311765
31
0.0000000000
11
58.8829229040
21
211.1751426573
31
0.0000000000
11
58.2710160812
21
210.7239357313
31
0.0000000000
11
57.7921423508
21
210.1332105152
31
0.0000000000
11
57.4771306680
21
209.4407819852
31
0.0000000000
11
57.3463305475
21
208.6911935095
31
0.0000000000
0
SPLINE
5
375
100
AcDbEntity
8
0
100
AcDbSpline
62
7
6
CONTINUOUS
70
0
71
3
72
13
73
9
74
7
42
0.0000001000
43
0.0000001000
44
0.0000000001
12
-0.0194037993
22
3.1185833033
32
0.0000000000
13
-3.1186324641
23
0.0083595021
33
0.0000000000
40
0.0000000000
40
0.0000000000
40
0.0000000000
40
0.0000000000
40
0.1661462590
40
0.3268030915
40
0.4903154998
40
0.6578336668
40
0.8274082432
40
1.0000000000
40
1.0000000000
40
1.0000000000
40
1.0000000000
10
158.0140522879
20
187.9447902513
30
0.0000000000
10
158.0129776651
20
188.1175039011
30
0.0000000000
10
157.9662232231
20
188.4586212688
30
0.0000000000
10
157.7694456549
20
188.9343148710
30
0.0000000000
10
157.4588337980
20
189.3473001579
30
0.0000000000
10
157.0454191973
20
189.6731872009
30
0.0000000000
10
156.5530141093
20
189.8843233329
30
0.0000000000
10
156.1955828557
20
189.9337496518
30
0.0000000000
10
156.0161661038
20
189.9342305788
30
0.0000000000
11
158.0140522879
21
187.9447902513
31
0.0000000000
11
157.9436228271
21
188.4581323670
31
0.0000000000
11
157.7522472181
21
188.9211743233
31
0.0000000000
11
157.4456872130
21
189.3286748054
31
0.0000000000
11
157.0354403835
21
189.6521405544
31
0.0000000000
11
156.5493306493
21
189.8603997810
31
0.0000000000
11
156.0161661038
21
189.9342305788
31
0.0000000000
0
SPLINE
5
376
100
AcDbEntity
8
0
100
AcDbSpline
62
7
6
CONTINUOUS
70
0
71
3
72
13
73
9
74
7
42
0.0000001000
43
0.0000001000
44
0.0000000001
12
3.1186319555
22
0.0083595057
32
0.0000000000
13
0.0194037962
23
3.1185827948
33
0.0000000000
40
0.0000000000
40
0.0000000000
40
0.0000000000
40
0.0000000000
40
0.1662575968
40
0.3269938035
40
0.4905380483
40
0.6580294599
40
0.8275231720
40
1.0000000000
40
1.0000000000
40
1.0000000000
40
1.0000000000
10
156.0161661038
20
182.4688151065
30
0.0000000000
10
156.1889981885
20
182.4692783836
30
0.0000000000
10
156.5304742763
20
182.5147834241
30
0.0000000000
10
157.0071698442
20
182.7097108634
30
0.0000000000
10
157.4215404748
20
183.0186123191
30
0.0000000000
10
157.7491422740
20
183.4305727774
30
0.0000000000
10
157.9621999556
20
183.9219075260
30
0.0000000000
10
158.0129367200
20
184.2789610151
30
0.0000000000
10
158.0140522884
20
184.4582554379
30
0.0000000000
11
156.0161661038
21
182.4688151065
31
0.0000000000
11
156.5301109128
21
182.5373791671
31
0.0000000000
11
156.9941495058
21
182.7269805681
31
0.0000000000
11
157.4030168877
21
183.0318810906
31
0.0000000000
11
157.7281594470
21
183.4406935198
31
0.0000000000
11
157.9382841870
21
183.9257248700
31
0.0000000000
11
158.0140522884
21
184.4582554379
31
0.0000000000
0
SPLINE
5
377
100
AcDbEntity
8
0
100
AcDbSpline
62
7
6
CONTINUOUS
70
0
71
3
72
13
73
9
74
7
42
0.0000001000
43
0.0000001000
44
0.0000000001
12
3.0008464482
22
-0.0000332001
32
0.0000000000
13
2.4741686965
23
-1.6981073784
33
0.0000000000
40
0.0000000000
40
0.0000000000
40
0.0000000000
40
0.0000000000
40
0.2514364905
40
0.4866532839
40
0.6906465892
40
0.8503885386
40
0.9556646754
40
1.0000000000
40
1.0000000000
40
1.0000000000
40
1.0000000000
10
155.0172114295
20
188.0471529789
30
0.0000000000
10
155.2687188626
20
188.0471501963
30
0.0000000000
10
155.7553408325
20
188.0443794890
30
0.0000000000
10
156.4468153919
20
188.0348811908
30
0.0000000000
10
157.0436652332
20
188.0148691605
30
0.0000000000
10
157.5177075803
20
188.0042863054
30
0.0000000000
10
157.8159410479
20
187.9650632508
30
0.0000000000
10
157.9775111703
20
187.9698812172
30
0.0000000000
10
158.0140755277
20
187.9447858366
30
0.0000000000
11
155.0172114295
21
188.0471529789
31
0.0000000000
11
155.7717235833
21
188.0432401646
31
0.0000000000
11
156.4774831680
21
188.0319753561
31
0.0000000000
11
157.0893900112
21
188.0146316655
31
0.0000000000
11
157.5682637331
21
187.9930218154
31
0.0000000000
11
157.8832753622
21
187.9691146249
31
0.0000000000
11
158.0140755277
21
187.9447858366
31
0.0000000000
0
SPLINE
5
378
100
AcDbEntity
8
0
100
AcDbSpline
62
7
6
CONTINUOUS
70
0
71
3
72
13
73
9
74
7
42
0.0000001000
43
0.0000001000
44
0.0000000001
12
-2.4741686488
22
-1.6981066127
32
0.0000000000
13
-3.0008459757
23
-0.0000332420
33
0.0000000000
40
0.0000000000
40
0.0000000000
40
0.0000000000
40
0.0000000000
40
0.0443952794
40
0.1497408824
40
0.3095282109
40
0.5135613842
40
0.7487593137
40
1.0000000000
40
1.0000000000
40
1.0000000000
40
1.0000000000
10
158.0140755251
20
184.4582598467
30
0.0000000000
10
157.9774617223
20
184.4331305409
30
0.0000000000
10
157.8157453217
20
184.4379814297
30
0.0000000000
10
157.5173448887
20
184.3987347398
30
0.0000000000
10
157.0431458567
20
184.3881602266
30
0.0000000000
10
156.4462297684
20
184.3681520666
30
0.0000000000
10
155.7549302857
20
184.3586630411
30
0.0000000000
10
155.2685229636
20
184.3558954903
30
0.0000000000
10
155.0172114295
20
184.3558927064
30
0.0000000000
11
158.0140755251
21
184.4582598467
31
0.0000000000
11
157.8830959979
21
184.4339116117
31
0.0000000000
11
157.5678755796
21
184.4100015531
31
0.0000000000
11
157.0888654625
21
184.3883951707
31
0.0000000000
11
156.4768388953
21
184.3710562409
31
0.0000000000
11
155.7711359104
21
184.3597993508
31
0.0000000000
11
155.0172114295
21
184.3558927064
31
0.0000000000
0
SPLINE
5
379
100
AcDbEntity
8
0
100
AcDbSpline
62
7
6
CONTINUOUS
70
0
71
3
72
13
73
9
74
7
42
0.0000001000
43
0.0000001000
44
0.0000000001
12
0.2089057288
22
-4.5585561307
32
0.0000000000
13
4.5633403804
23
-0.0004155911
33
0.0000000000
40
0.0000000000
40
0.0000000000
40
0.0000000000
40
0.0000000000
40
0.1668771086
40
0.3336071613
40
0.5002466434
40
0.6668541576
40
0.8334458390
40
1.0000000000
40
1.0000000000
40
1.0000000000
40
1.0000000000
10
57.3463305473
20
163.7118521802
30
0.0000000000
10
57.3579510753
20
163.4582792913
30
0.0000000000
10
57.4461715822
20
162.9519701758
30
0.0000000000
10
57.7648306925
20
162.2523043402
30
0.0000000000
10
58.2490549655
20
161.6551265824
30
0.0000000000
10
58.8678389343
20
161.1992020299
30
0.0000000000
10
59.5807515729
20
160.9134633368
30
0.0000000000
10
60.0898468857
20
160.8486358379
30
0.0000000000
10
60.3431946619
20
160.8486127651
30
0.0000000000
11
57.3463305473
21
163.7118521802
31
0.0000000000
11
57.4773100168
21
162.9616838003
31
0.0000000000
11
57.7925304839
21
162.2692080460
31
0.0000000000
11
58.2715406140
21
161.6786090639
31
0.0000000000
11
58.8835671713
21
161.2275441995
31
0.0000000000
11
59.5892702829
21
160.9448619046
31
0.0000000000
11
60.3431946619
21
160.8486127651
31
0.0000000000
0
SPLINE
5
37A
100
AcDbEntity
8
0
100
AcDbSpline
62
7
6
CONTINUOUS
70
0
71
3
72
14
73
10
74
8
42
0.0000001000
43
0.0000001000
44
0.0000000001
12
1.2924612307
22
-13.1575572114
32
0.0000000000
13
3.4265545889
23
-12.7691225796
33
0.0000000000
40
0.0000000000
40
0.0000000000
40
0.0000000000
40
0.0000000000
40
0.0998292257
40
0.2075600407
40
0.3251966872
40
0.4573827244
40
0.6100455247
40
0.7895672408
40
1.0000000000
40
1.0000000000
40
1.0000000000
40
1.0000000000
10
148.2800614910
20
175.9466590584
30
0.0000000000
10
148.3230699589
20
175.5088228091
30
0.0000000000
10
148.4404518852
20
174.6011563720
30
0.0000000000
10
148.6892307972
20
173.1894623673
30
0.0000000000
10
149.0143440618
20
171.6474279733
30
0.0000000000
10
149.4202554611
20
169.9206606605
30
0.0000000000
10
149.9189878400
20
167.9358490694
30
0.0000000000
10
150.5235292971
20
165.6222158382
30
0.0000000000
10
150.9667217220
20
163.9618280263
30
0.0000000000
10
151.2070748343
20
163.0661474605
30
0.0000000000
11
148.2800614910
21
175.9466590584
31
0.0000000000
11
148.4455611101
21
174.6372459602
31
0.0000000000
11
148.6890818587
21
173.2339219039
31
0.0000000000
11
149.0066119086
21
171.7114207785
31
0.0000000000
11
149.4036213510
21
170.0094965717
31
0.0000000000
11
149.8929565910
21
168.0513760871
31
0.0000000000
11
150.4909420917
21
165.7545063551
31
0.0000000000
11
151.2070748343
21
163.0661474605
31
0.0000000000
0
SPLINE
5
37B
100
AcDbEntity
8
0
100
AcDbSpline
62
7
6
CONTINUOUS
70
0
71
3
72
13
73
9
74
7
42
0.0000001000
43
0.0000001000
44
0.0000000001
12
-1.9125874959
22
-0.5120981489
32
0.0000000000
13
-1.2107402824
23
1.5666344220
33
0.0000000000
40
0.0000000000
40
0.0000000000
40
0.0000000000
40
0.0000000000
40
0.2551380955
40
0.4855483946
40
0.6886913954
40
0.8509715662
40
0.9575335389
40
1.0000000000
40
1.0000000000
40
1.0000000000
40
1.0000000000
10
153.1378349235
20
163.4879134918
30
0.0000000000
10
152.9751769465
20
163.4443615763
30
0.0000000000
10
152.6654658328
20
163.3637163469
30
0.0000000000
10
152.2229782951
20
163.2526134807
30
0.0000000000
10
151.8438651568
20
163.1684578661
30
0.0000000000
10
151.5286524496
20
163.0916738706
30
0.0000000000
10
151.3466101155
20
163.0821078829
30
0.0000000000
10
151.2242332459
20
163.0439891148
30
0.0000000000
10
151.2070946275
20
163.0661655881
30
0.0000000000
11
153.1378349235
21
163.4879134918
31
0.0000000000
11
152.6490700728
21
163.3602482959
31
0.0000000000
11
152.2062219349
21
163.2506739488
31
0.0000000000
11
151.8142999268
21
163.1602648543
31
0.0000000000
11
151.4995795556
21
163.0955352988
31
0.0000000000
11
151.2911164681
21
163.0629900308
31
0.0000000000
11
151.2070946275
21
163.0661655881
31
0.0000000000
0
SPLINE
5
37C
100
AcDbEntity
8
0
100
AcDbSpline
62
7
6
CONTINUOUS
70
0
71
3
72
12
73
8
74
6
42
0.0000001000
43
0.0000001000
44
0.0000000001
12
1.0198473170
22
-3.7743272790
32
0.0000000000
13
3.9096847469
23
-0.0003719957
33
0.0000000000
40
0.0000000000
40
0.0000000000
40
0.0000000000
40
0.0000000000
40
0.2001881921
40
0.4002132533
40
0.6001696199
40
0.8001072024
40
1.0000000000
40
1.0000000000
40
1.0000000000
40
1.0000000000
10
151.2070748343
20
163.0661476170
30
0.0000000000
10
151.2751286312
20
162.8142890322
30
0.0000000000
10
151.4781769147
20
162.3262181222
30
0.0000000000
10
151.9606853152
20
161.6997934898
30
0.0000000000
10
152.5888384328
20
161.2191146044
30
0.0000000000
10
153.3190920727
20
160.9172306953
30
0.0000000000
10
153.8427106218
20
160.8486375515
30
0.0000000000
10
154.1032165623
20
160.8486127651
30
0.0000000000
11
151.2070748343
21
163.0661476170
31
0.0000000000
11
151.5079600063
21
162.3436210035
31
0.0000000000
11
151.9850587454
21
161.7239796300
31
0.0000000000
11
152.6059010761
21
161.2488865423
31
0.0000000000
11
153.3283527142
21
160.9503778284
31
0.0000000000
11
154.1032165623
21
160.8486127651
31
0.0000000000
0
SPLINE
5
37D
100
AcDbEntity
8
0
100
AcDbSpline
62
7
6
CONTINUOUS
70
0
71
3
72
14
73
10
74
8
42
0.0000001000
43
0.0000001000
44
0.0000000001
12
3.4265605760
22
12.7691230299
32
0.0000000000
13
1.2924883186
23
13.1575565467
33
0.0000000000
40
0.0000000000
40
0.0000000000
40
0.0000000000
40
0.0000000000
40
0.2104259486
40
0.3899404137
40
0.5426057161
40
0.6748031418
40
0.7924427932
40
0.9001839160
40
1.0000000000
40
1.0000000000
40
1.0000000000
40
1.0000000000
10
64.1533309632
20
163.0661463578
30
0.0000000000
10
64.3936767164
20
163.9617979667
30
0.0000000000
10
64.8368527818
20
165.6221262728
30
0.0000000000
10
65.4413824639
20
167.9357103005
30
0.0000000000
10
65.9401237072
20
169.9205501327
30
0.0000000000
10
66.3460545657
20
171.6473896791
30
0.0000000000
10
66.6711886135
20
173.1895311581
30
0.0000000000
10
66.9199655110
20
174.6012266772
30
0.0000000000
10
67.0373409080
20
175.5088813383
30
0.0000000000
10
67.0803446156
20
175.9466599283
30
0.0000000000
11
64.1533309632
21
163.0661463578
31
0.0000000000
11
64.8694408718
21
165.7544185852
31
0.0000000000
11
65.4674033250
21
168.0511956260
31
0.0000000000
11
65.9567486218
21
170.0093480072
31
0.0000000000
11
66.3537937168
21
171.7114187764
31
0.0000000000
11
66.6713308189
21
173.2339592514
31
0.0000000000
11
66.9148709273
21
174.6374184789
31
0.0000000000
11
67.0803446156
21
175.9466599283
31
0.0000000000
0
SPLINE
5
37E
100
AcDbEntity
8
0
100
AcDbSpline
62
7
6
CONTINUOUS
70
0
71
3
72
13
73
9
74
7
42
0.0000001000
43
0.0000001000
44
0.0000000001
12
-0.2106482837
22
-1.9933952862
32
0.0000000000
13
-2.0024447696
23
0.0906223533
33
0.0000000000
40
0.0000000000
40
0.0000000000
40
0.0000000000
40
0.0000000000
40
0.0376599836
40
0.1335881123
40
0.2866088482
40
0.4912725072
40
0.7338312442
40
1.0000000000
40
1.0000000000
40
1.0000000000
40
1.0000000000
10
158.0140522879
20
163.7118510031
30
0.0000000000
10
158.0114079510
20
163.6868272585
30
0.0000000000
10
157.8834037518
20
163.6844859542
30
0.0000000000
10
157.7271925596
20
163.6571073033
30
0.0000000000
10
157.4055597836
20
163.6556776806
30
0.0000000000
10
157.0121438630
20
163.6533170803
30
0.0000000000
10
156.5328304978
20
163.6643538773
30
0.0000000000
10
156.1938288481
20
163.6768438733
30
0.0000000000
10
156.0161661038
20
163.6848841530
30
0.0000000000
11
158.0140522879
21
163.7118510031
31
0.0000000000
11
157.9436228271
21
163.6846790717
31
0.0000000000
11
157.7522472181
21
163.6659756976
31
0.0000000000
11
157.4456872130
21
163.6557893066
31
0.0000000000
11
157.0354403835
21
163.6552834717
31
0.0000000000
11
156.5493306493
21
163.6650387828
31
0.0000000000
11
156.0161661038
21
163.6848841530
31
0.0000000000
0
SPLINE
5
37F
100
AcDbEntity
8
0
100
AcDbSpline
62
7
6
CONTINUOUS
70
0
71
3
72
13
73
9
74
7
42
0.0000001000
43
0.0000001000
44
0.0000000001
12
4.5633399589
22
0.0004212089
32
0.0000000000
13
0.2089053410
23
4.5585557270
33
0.0000000000
40
0.0000000000
40
0.0000000000
40
0.0000000000
40
0.0000000000
40
0.1666861778
40
0.3333061673
40
0.4999110571
40
0.6665531905
40
0.8332548334
40
1.0000000000
40
1.0000000000
40
1.0000000000
40
1.0000000000
10
155.0172114295
20
160.8486127651
30
0.0000000000
10
155.2707599948
20
160.8486361683
30
0.0000000000
10
155.7801047256
20
160.9135473424
30
0.0000000000
10
156.4931794926
20
161.1995375200
30
0.0000000000
10
157.1118870932
20
161.6556385157
30
0.0000000000
10
157.5959385472
20
162.2529004433
30
0.0000000000
10
157.9143390323
20
162.9524157457
30
0.0000000000
10
158.0024642063
20
163.4584793833
30
0.0000000000
10
158.0140755249
20
163.7118517613
30
0.0000000000
11
155.0172114295
21
160.8486127651
31
0.0000000000
11
155.7717235732
21
160.9450145525
31
0.0000000000
11
156.4774831499
21
161.2279030461
31
0.0000000000
11
157.0893899886
21
161.6791100079
31
0.0000000000
11
157.5682637113
21
162.2698350830
31
0.0000000000
11
157.8832753468
21
162.9622633573
31
0.0000000000
11
158.0140755249
21
163.7118517613
31
0.0000000000
0
SPLINE
5
380
100
AcDbEntity
8
0
100
AcDbSpline
62
7
6
CONTINUOUS
70
0
71
3
72
24
73
20
74
18
42
0.0000001000
43
0.0000001000
44
0.0000000001
12
0.9435017165
22
20.7763099367
32
0.0000000000
13
-12.5872646587
23
16.5561474531
33
0.0000000000
40
0.0000000000
40
0.0000000000
40
0.0000000000
40
0.0000000000
40
0.1247503964
40
0.2316758170
40
0.3233538355
40
0.4032744719
40
0.4747582645
40
0.5402950469
40
0.6016278711
40
0.6595750363
40
0.7139782149
40
0.7642799829
40
0.8103358176
40
0.8525430471
40
0.8913694900
40
0.9268918368
40
0.9584534491
40
0.9840439365
40
1.0000000000
40
1.0000000000
40
1.0000000000
40
1.0000000000
10
158.0140755249
20
163.7118517831
30
0.0000000000
10
158.0533095960
20
164.5758027502
30
0.0000000000
10
158.1257858008
20
166.1802765615
30
0.0000000000
10
158.2248542941
20
168.4197613250
30
0.0000000000
10
158.3070456838
20
170.3489013389
30
0.0000000000
10
158.3743959750
20
172.0327447588
30
0.0000000000
10
158.4286679697
20
173.5357315107
30
0.0000000000
10
158.4706718860
20
174.9101988977
30
0.0000000000
10
158.5000503176
20
176.1911344832
30
0.0000000000
10
158.5155847156
20
177.3951302064
30
0.0000000000
10
158.5161234384
20
178.5227648951
30
0.0000000000
10
158.5016374639
20
179.5678551105
30
0.0000000000
10
158.4733654281
20
180.5281212141
30
0.0000000000
10
158.4325760614
20
181.4081828801
30
0.0000000000
10
158.3804527577
20
182.2148978488
30
0.0000000000
10
158.3153936495
20
182.9453362098
30
0.0000000000
10
158.2419932595
20
183.5867047860
30
0.0000000000
10
158.1488335569
20
184.0779639694
30
0.0000000000
10
158.0810232566
20
184.3702025848
30
0.0000000000
10
158.0140755251
20
184.4582595650
30
0.0000000000
11
158.0140755249
21
163.7118517831
31
0.0000000000
11
158.1309283522
21
166.3037431176
31
0.0000000000
11
158.2288763007
21
168.5253901990
31
0.0000000000
11
158.3096322114
21
170.4303732306
31
0.0000000000
11
158.3755987808
21
172.0912309010
31
0.0000000000
11
158.4287234424
21
173.5769815017
31
0.0000000000
11
158.4697745166
21
174.9393789735
31
0.0000000000
11
158.4983960984
21
176.2146408680
31
0.0000000000
11
158.5133275137
21
177.4197174143
31
0.0000000000
11
158.5133273305
21
178.5511796118
31
0.0000000000
11
158.4983948449
21
179.5972352349
31
0.0000000000
11
158.4697704703
21
180.5546638943
31
0.0000000000
11
158.4287156105
21
181.4315175486
31
0.0000000000
11
158.3755872904
21
182.2372694793
31
0.0000000000
11
158.3096173816
21
182.9731020856
31
0.0000000000
11
158.2288586161
21
183.6245248706
31
0.0000000000
11
158.1309156314
21
184.1476590754
31
0.0000000000
11
158.0140755251
21
184.4582595650
31
0.0000000000
0
SPLINE
5
381
100
AcDbEntity
8
0
100
AcDbSpline
62
7
6
CONTINUOUS
70
0
71
3
72
12
73
8
74
6
42
0.0000001000
43
0.0000001000
44
0.0000000001
12
-0.6189131509
22
0.7868167761
32
0.0000000000
13
-1.0010664797
23
0.0001749913
33
0.0000000000
40
0.0000000000
40
0.0000000000
40
0.0000000000
40
0.0000000000
40
0.0554744264
40
0.1924780449
40
0.4067741556
40
0.6852706254
40
1.0000000000
40
1.0000000000
40
1.0000000000
40
1.0000000000
10
156.0161661038
20
182.4688160741
30
0.0000000000
10
156.0047214864
20
182.4833654772
30
0.0000000000
10
155.9287334317
20
182.4799230365
30
0.0000000000
10
155.8035599453
20
182.4978349621
30
0.0000000000
10
155.5880391975
20
182.4970942465
30
0.0000000000
10
155.3207646702
20
182.5015349989
30
0.0000000000
10
155.1222331052
20
182.5013235249
30
0.0000000000
10
155.0172114295
20
182.5013418832
30
0.0000000000
11
156.0161661038
21
182.4688160741
31
0.0000000000
11
155.9623122339
21
182.4823711571
31
0.0000000000
11
155.8255020423
21
182.4920158713
31
0.0000000000
11
155.6110551570
21
182.4977918230
31
0.0000000000
11
155.3322755163
21
182.5005701503
31
0.0000000000
11
155.0172114295
21
182.5013418832
31
0.0000000000
0
SPLINE
5
382
100
AcDbEntity
8
0
100
AcDbSpline
62
7
6
CONTINUOUS
70
0
71
3
72
11
73
7
74
5
42
0.0000001000
43
0.0000001000
44
0.0000000001
12
-0.5472102035
22
0.0000036656
32
0.0000000000
13
-0.2380764683
23
0.4927053908
33
0.0000000000
40
0.0000000000
40
0.0000000000
40
0.0000000000
40
0.0000000000
40
0.2947936140
40
0.5689069612
40
0.8054388182
40
1.0000000000
40
1.0000000000
40
1.0000000000
40
1.0000000000
10
67.5630353184
20
192.9118114594
30
0.0000000000
10
67.5092639606
20
192.9118118196
30
0.0000000000
10
67.4052251039
20
192.9210215802
30
0.0000000000
10
67.2629948637
20
192.9618880462
30
0.0000000000
10
67.1496145179
20
193.0253869171
30
0.0000000000
10
67.0957847723
20
193.0865245262
30
0.0000000000
10
67.0803446260
20
193.1184783073
30
0.0000000000
11
67.5630353184
21
192.9118114594
31
0.0000000000
11
67.4024036806
21
192.9266339837
31
0.0000000000
11
67.2586849589
21
192.9695783106
31
0.0000000000
11
67.1475267907
21
193.0358857112
31
0.0000000000
11
67.0803446260
21
193.1184783073
31
0.0000000000
0
SPLINE
5
383
100
AcDbEntity
8
0
100
AcDbSpline
62
7
6
CONTINUOUS
70
0
71
3
72
14
73
10
74
8
42
0.0000001000
43
0.0000001000
44
0.0000000001
12
-0.7308942361
22
6.1938288541
32
0.0000000000
13
-6.1222911202
23
1.1896527634
33
0.0000000000
40
0.0000000000
40
0.0000000000
40
0.0000000000
40
0.0000000000
40
0.1653343303
40
0.3211085158
40
0.4681519451
40
0.6089618670
40
0.7446350198
40
0.8747827282
40
1.0000000000
40
1.0000000000
40
1.0000000000
40
1.0000000000
10
67.0803446262
20
179.2845674338
30
0.0000000000
10
67.0400639898
20
179.6259182823
30
0.0000000000
10
66.9338548850
20
180.2860258064
30
0.0000000000
10
66.6916463379
20
181.2301127097
30
0.0000000000
10
66.3744147215
20
182.0978911380
30
0.0000000000
10
65.9800853807
20
182.8876283209
30
0.0000000000
10
65.4960363672
20
183.5854330064
30
0.0000000000
10
64.9058504680
20
184.1546349074
30
0.0000000000
10
64.4088698384
20
184.3877541387
30
0.0000000000
10
64.1533309746
20
184.4374091632
30
0.0000000000
11
67.0803446262
21
179.2845674338
31
0.0000000000
11
66.9148066516
21
180.3023510857
31
0.0000000000
11
66.6712859459
21
181.2428690884
31
0.0000000000
11
66.3537344230
21
182.1032170632
31
0.0000000000
11
65.9567055596
21
182.8865497554
31
0.0000000000
11
65.4673768606
21
183.5768799290
31
0.0000000000
11
64.8694307976
21
184.1258122524
31
0.0000000000
11
64.1533309746
21
184.4374091632
31
0.0000000000
0
SPLINE
5
384
100
AcDbEntity
8
0
100
AcDbSpline
62
7
6
CONTINUOUS
70
0
71
3
72
14
73
10
74
8
42
0.0000001000
43
0.0000001000
44
0.0000000001
12
6.1222951372
22
1.1896384559
32
0.0000000000
13
0.7309032603
23
6.1938290118
33
0.0000000000
40
0.0000000000
40
0.0000000000
40
0.0000000000
40
0.0000000000
40
0.1252224289
40
0.2553754266
40
0.3910532770
40
0.5318781088
40
0.6789298640
40
0.8347487974
40
1.0000000000
40
1.0000000000
40
1.0000000000
40
1.0000000000
10
64.1533309993
20
187.9656365355
30
0.0000000000
10
64.4088805552
20
188.0152930078
30
0.0000000000
10
64.9058827056
20
188.2484232464
30
0.0000000000
10
65.4960780149
20
188.8176620863
30
0.0000000000
10
65.9801475182
20
189.5155154095
30
0.0000000000
10
66.3744847992
20
190.3053145617
30
0.0000000000
10
66.6917452879
20
191.1732331310
30
0.0000000000
10
66.9339017595
20
192.1172701460
30
0.0000000000
10
67.0400837451
20
192.7772997584
30
0.0000000000
10
67.0803446260
20
193.1184789893
30
0.0000000000
11
64.1533309993
21
187.9656365355
31
0.0000000000
11
64.8694592451
21
188.2772491191
31
0.0000000000
11
65.4674194609
21
188.8262150395
31
0.0000000000
11
65.9567543427
21
189.5165769440
31
0.0000000000
11
66.3538088202
21
190.3000010974
31
0.0000000000
11
66.6713577223
21
191.1604055809
31
0.0000000000
11
66.9149131346
21
192.1012030794
31
0.0000000000
11
67.0803446260
21
193.1184789893
31
0.0000000000
0
SPLINE
5
385
100
AcDbEntity
8
0
100
AcDbSpline
62
7
6
CONTINUOUS
70
0
71
3
72
10
73
6
74
4
42
0.0000001000
43
0.0000001000
44
0.0000000001
12
0.0652070423
22
3.3372677788
32
0.0000000000
13
-0.0852675119
23
3.3368154934
33
0.0000000000
40
0.0000000000
40
0.0000000000
40
0.0000000000
40
0.0000000000
40
0.3642703246
40
0.6967874773
40
1.0000000000
40
1.0000000000
40
1.0000000000
40
1.0000000000
10
67.0803435907
20
193.1184803642
30
0.0000000000
10
67.0882612542
20
193.5237029032
30
0.0000000000
10
67.0779563449
20
194.2991016406
30
0.0000000000
10
67.0762894988
20
195.4116206849
30
0.0000000000
10
67.0889626219
20
196.1191302640
30
0.0000000000
10
67.0803445628
20
196.4563850118
30
0.0000000000
11
67.0803435907
21
193.1184803642
31
0.0000000000
11
67.0799856945
21
194.3343799618
31
0.0000000000
11
67.0799976578
21
195.4442905485
31
0.0000000000
11
67.0803445628
21
196.4563850118
31
0.0000000000
0
SPLINE
5
386
100
AcDbEntity
8
0
100
AcDbSpline
62
7
6
CONTINUOUS
70
0
71
3
72
13
73
9
74
7
42
0.0000001000
43
0.0000001000
44
0.0000000001
12
-1.2107853210
22
1.5666973255
32
0.0000000000
13
-1.9126624306
23
-0.5121172032
33
0.0000000000
40
0.0000000000
40
0.0000000000
40
0.0000000000
40
0.0000000000
40
0.0398203574
40
0.1373684613
40
0.2908159910
40
0.4946983482
40
0.7356969369
40
1.0000000000
40
1.0000000000
40
1.0000000000
40
1.0000000000
10
64.1533355590
20
209.3368862564
30
0.0000000000
10
64.1372642576
20
209.3576817389
30
0.0000000000
10
64.0244649008
20
209.3239146846
30
0.0000000000
10
63.8539076666
20
209.3148418458
30
0.0000000000
10
63.5500238947
20
209.2420833081
30
0.0000000000
10
63.1692316368
20
209.1581995047
30
0.0000000000
10
62.7134065016
20
209.0441065053
30
0.0000000000
10
62.3910786809
20
208.9602503231
30
0.0000000000
10
62.2225711679
20
208.9151322746
30
0.0000000000
11
64.1533355590
21
209.3368862564
31
0.0000000000
11
64.0745765043
21
209.3405822945
31
0.0000000000
11
63.8835987357
21
209.3117045293
31
0.0000000000
11
63.5858013315
21
209.2514521880
31
0.0000000000
11
63.1922629611
21
209.1614706039
31
0.0000000000
11
62.7289432913
21
209.0472725594
31
0.0000000000
11
62.2225711679
21
208.9151322746
31
0.0000000000
0
SPLINE
5
387
100
AcDbEntity
8
0
100
AcDbSpline
62
7
6
CONTINUOUS
70
0
71
3
72
11
73
7
74
5
42
0.0000001000
43
0.0000001000
44
0.0000000001
12
-0.9659897346
22
-0.0002043863
32
0.0000000000
13
-0.9522872506
23
-0.1621271148
33
0.0000000000
40
0.0000000000
40
0.0000000000
40
0.0000000000
40
0.0000000000
40
0.3456389054
40
0.6462866019
40
0.8696512839
40
1.0000000000
40
1.0000000000
40
1.0000000000
40
1.0000000000
10
154.1032165623
20
182.5013418832
30
0.0000000000
10
153.9919220175
20
182.5013183353
30
0.0000000000
10
153.7838495537
20
182.5008043473
30
0.0000000000
10
153.5037210425
20
182.4986828843
30
0.0000000000
10
153.2933286385
20
182.4924043597
30
0.0000000000
10
153.1792113970
20
182.4865389665
30
0.0000000000
10
153.1378349235
20
182.4794946127
30
0.0000000000
11
154.1032165623
21
182.5013418832
31
0.0000000000
11
153.7693340728
21
182.5004646450
31
0.0000000000
11
153.4789291580
21
182.4972600838
31
0.0000000000
11
153.2632662647
21
182.4905262931
31
0.0000000000
11
153.1378349235
21
182.4794946127
31
0.0000000000
0
SPLINE
5
388
100
AcDbEntity
8
0
100
AcDbSpline
62
7
6
CONTINUOUS
70
0
71
3
72
14
73
10
74
8
42
0.0000001000
43
0.0000001000
44
0.0000000001
12
-1.2924749990
22
13.1575573861
32
0.0000000000
13
-3.4265597889
23
12.7691227578
33
0.0000000000
40
0.0000000000
40
0.0000000000
40
0.0000000000
40
0.0000000000
40
0.0998608002
40
0.2075823112
40
0.3252217999
40
0.4574108269
40
0.6100730121
40
0.7895815367
40
1.0000000000
40
1.0000000000
40
1.0000000000
40
1.0000000000
10
67.0803446070
20
196.4563860964
30
0.0000000000
10
67.0373220778
20
196.8943608329
30
0.0000000000
10
66.9199193102
20
197.8021239857
30
0.0000000000
10
66.6711071250
20
199.2139244710
30
0.0000000000
10
66.3459895005
20
200.7559424945
30
0.0000000000
10
65.9400657620
20
202.4827307147
30
0.0000000000
10
65.4413410401
20
204.4674953054
30
0.0000000000
10
64.8368291550
20
206.7810085363
30
0.0000000000
10
64.3936681230
20
208.4412795547
30
0.0000000000
10
64.1533309746
20
209.3368992843
30
0.0000000000
11
67.0803446070
21
196.4563860964
31
0.0000000000
11
66.9147820794
21
197.7662121611
31
0.0000000000
11
66.6712679983
21
199.1694126948
31
0.0000000000
11
66.3537221469
21
200.6919490917
31
0.0000000000
11
65.9566970039
21
202.3939104315
31
0.0000000000
11
65.4673592904
21
204.3520221548
31
0.0000000000
11
64.8694156676
21
206.6487228548
31
0.0000000000
11
64.1533309746
21
209.3368992843
31
0.0000000000
0
SPLINE
5
389
100
AcDbEntity
8
0
100
AcDbSpline
62
7
6
CONTINUOUS
70
0
71
3
72
17
73
13
74
11
42
0.0000001000
43
0.0000001000
44
0.0000000001
12
-20.2670486570
22
-3.3260713181
32
0.0000000000
13
5.9055442674
23
-19.6708047264
33
0.0000000000
40
0.0000000000
40
0.0000000000
40
0.0000000000
40
0.0000000000
40
0.0491886957
40
0.1088857094
40
0.1797544362
40
0.2576050105
40
0.3410339352
40
0.4359518965
40
0.5508061888
40
0.6875403464
40
0.8397774658
40
1.0000000000
40
1.0000000000
40
1.0000000000
40
1.0000000000
10
153.1378349235
20
182.4794946127
30
0.0000000000
10
152.8055316935
20
182.4249595760
30
0.0000000000
10
152.1064783767
20
182.0823136334
30
0.0000000000
10
151.2795294994
20
181.1482240400
30
0.0000000000
10
150.6221613201
20
179.8682508878
30
0.0000000000
10
150.2036208641
20
178.3240435494
30
0.0000000000
10
150.0719471297
20
176.5660126702
30
0.0000000000
10
150.2420793224
20
174.5599287123
30
0.0000000000
10
150.6985970715
20
172.2295412519
30
0.0000000000
10
151.3859206344
20
169.5511176412
30
0.0000000000
10
152.2270884276
20
166.5931337367
30
0.0000000000
10
152.8224345008
20
164.5384822598
30
0.0000000000
10
153.1378349235
20
163.4879135324
30
0.0000000000
11
153.1378349235
21
182.4794946127
31
0.0000000000
11
152.2143760597
21
182.0698370863
31
0.0000000000
11
151.3704010667
21
181.1804856168
31
0.0000000000
11
150.6898143158
21
179.8938930346
31
0.0000000000
11
150.2621153653
21
178.3532506566
31
0.0000000000
11
150.1205560195
21
176.6456315546
31
0.0000000000
11
150.2621740783
21
174.7013420510
31
0.0000000000
11
150.6899333630
21
172.3815551049
31
0.0000000000
11
151.3705708919
21
169.6570181399
31
0.0000000000
11
152.2145630028
21
166.6464128057
31
0.0000000000
11
153.1378349235
21
163.4879135324
31
0.0000000000
0
SPLINE
5
38A
100
AcDbEntity
8
0
100
AcDbSpline
62
7
6
CONTINUOUS
70
0
71
3
72
11
73
7
74
5
42
0.0000001000
43
0.0000001000
44
0.0000000001
12
0.3499329436
22
-1.2071896068
32
0.0000000000
13
1.2567698427
23
-0.0170110009
33
0.0000000000
40
0.0000000000
40
0.0000000000
40
0.0000000000
40
0.0000000000
40
0.2282824806
40
0.4722114905
40
0.7312878268
40
1.0000000000
40
1.0000000000
40
1.0000000000
40
1.0000000000
10
153.1378349235
20
163.4879135324
30
0.0000000000
10
153.1644627770
20
163.3960534530
30
0.0000000000
10
153.2541668452
20
163.2148130079
30
0.0000000000
10
153.4742888276
20
162.9946230374
30
0.0000000000
10
153.7679522012
20
162.8462303665
30
0.0000000000
10
153.9906467771
20
162.8139843670
30
0.0000000000
10
154.1032165623
20
162.8124606793
30
0.0000000000
11
153.1378349235
21
163.4879135324
31
0.0000000000
11
153.2634488340
21
163.2299464874
31
0.0000000000
11
153.4791366903
21
163.0120552099
31
0.0000000000
11
153.7695512932
21
162.8647673869
31
0.0000000000
11
154.1032165623
21
162.8124606793
31
0.0000000000
0
SPLINE
5
38B
100
AcDbEntity
8
0
100
AcDbSpline
62
7
6
CONTINUOUS
70
0
71
3
72
12
73
8
74
6
42
0.0000001000
43
0.0000001000
44
0.0000000001
12
1.4568482153
22
0.0167123397
32
0.0000000000
13
0.0671660202
23
1.4553950496
33
0.0000000000
40
0.0000000000
40
0.0000000000
40
0.0000000000
40
0.0000000000
40
0.2187357399
40
0.4304445575
40
0.6303933734
40
0.8198350387
40
1.0000000000
40
1.0000000000
40
1.0000000000
40
1.0000000000
10
155.0172114295
20
162.8124606793
30
0.0000000000
10
155.1234330203
20
162.8136792080
30
0.0000000000
10
155.3338194875
20
162.8426227382
30
0.0000000000
10
155.6148551341
20
162.9752636478
30
0.0000000000
10
155.8340613676
20
163.1749062335
30
0.0000000000
10
155.9739584185
20
163.4184951440
30
0.0000000000
10
156.0121324493
20
163.5974804792
30
0.0000000000
10
156.0161661038
20
163.6848842102
30
0.0000000000
11
155.0172114295
21
162.8124606793
31
0.0000000000
11
155.3324793516
21
162.8590089091
31
0.0000000000
11
155.6112640780
21
162.9909906779
31
0.0000000000
11
155.8256698982
21
163.1882066301
31
0.0000000000
11
155.9624158419
21
163.4279561029
31
0.0000000000
11
156.0161661038
21
163.6848842102
31
0.0000000000
0
SPLINE
5
38C
100
AcDbEntity
8
0
100
AcDbSpline
62
7
6
CONTINUOUS
70
0
71
3
72
10
73
6
74
4
42
0.0000001000
43
0.0000001000
44
0.0000000001
12
0.1150228573
22
-3.2365078966
32
0.0000000000
13
-0.0776880009
23
-3.2376192174
33
0.0000000000
40
0.0000000000
40
0.0000000000
40
0.0000000000
40
0.0000000000
40
0.2886421280
40
0.6244571887
40
1.0000000000
40
1.0000000000
40
1.0000000000
40
1.0000000000
10
147.7973786384
20
196.1499818103
30
0.0000000000
10
147.8084454525
20
195.8385843014
30
0.0000000000
10
147.8215742253
20
195.1645125766
30
0.0000000000
10
147.8204893605
20
194.0849512972
30
0.0000000000
10
147.8071011229
20
193.3171084838
30
0.0000000000
10
147.7973760661
20
192.9118202761
30
0.0000000000
11
147.7973786384
21
196.1499818103
31
0.0000000000
11
147.8176326717
21
195.2154189604
31
0.0000000000
11
147.8177207964
21
194.1278647095
31
0.0000000000
11
147.7973760661
21
192.9118202761
31
0.0000000000
0
SPLINE
5
38D
100
AcDbEntity
8
0
100
AcDbSpline
62
7
6
CONTINUOUS
70
0
71
3
72
16
73
12
74
10
42
0.0000001000
43
0.0000001000
44
0.0000000001
12
0.9580081729
22
18.8142941950
32
0.0000000000
13
-12.2892307143
23
14.2783141220
33
0.0000000000
40
0.0000000000
40
0.0000000000
40
0.0000000000
40
0.0000000000
40
0.1701781169
40
0.3341438881
40
0.4874735939
40
0.6259687240
40
0.7463558831
40
0.8462374607
40
0.9230534053
40
0.9746220667
40
1.0000000000
40
1.0000000000
40
1.0000000000
40
1.0000000000
10
156.0161661038
20
163.6848842102
30
0.0000000000
10
156.0705101127
20
164.7521445958
30
0.0000000000
10
156.1730384456
20
166.8479299949
30
0.0000000000
10
156.3195720953
20
169.9054795595
30
0.0000000000
10
156.4412160160
20
172.7652856952
30
0.0000000000
10
156.5166188432
20
175.3522050777
30
0.0000000000
10
156.5243427499
20
177.6073831072
30
0.0000000000
10
156.4547987307
20
179.4669879404
30
0.0000000000
10
156.3568504115
20
180.9100596765
30
0.0000000000
10
156.2034407088
20
181.8402044508
30
0.0000000000
10
156.1201245297
20
182.3480313728
30
0.0000000000
10
156.0161661038
20
182.4688160741
30
0.0000000000
11
156.0161661038
21
163.6848842102
31
0.0000000000
11
156.1744037433
21
166.8869058947
31
0.0000000000
11
156.3199127739
21
169.9723736099
31
0.0000000000
11
156.4384109136
21
172.8584695279
31
0.0000000000
11
156.5079733788
21
175.4666059310
31
0.0000000000
11
156.5079653061
21
177.7345397597
31
0.0000000000
11
156.4383891591
21
179.6148889505
31
0.0000000000
11
156.3198830500
21
181.0571386101
31
0.0000000000
11
156.1743698657
21
182.0176639321
31
0.0000000000
11
156.0161661038
21
182.4688160741
31
0.0000000000
0
SPLINE
5
38E
100
AcDbEntity
8
0
100
AcDbSpline
62
7
6
CONTINUOUS
70
0
71
3
72
11
73
7
74
5
42
0.0000001000
43
0.0000001000
44
0.0000000001
12
0.6073799107
22
0.0000016253
32
0.0000000000
13
0.1882077708
23
0.5774843642
33
0.0000000000
40
0.0000000000
40
0.0000000000
40
0.0000000000
40
0.0000000000
40
0.2669393371
40
0.5257362796
40
0.7700478079
40
1.0000000000
40
1.0000000000
40
1.0000000000
40
1.0000000000
10
147.7973707729
20
196.1499818108
30
0.0000000000
10
147.8514153032
20
196.1499819554
30
0.0000000000
10
147.9584432060
20
196.1643292684
30
0.0000000000
10
148.1033179929
20
196.2274211960
30
0.0000000000
10
148.2174558445
20
196.3261216061
30
0.0000000000
10
148.2656359451
20
196.4121149982
30
0.0000000000
10
148.2800622083
20
196.4563795967
30
0.0000000000
11
147.7973707729
21
196.1499818108
31
0.0000000000
11
147.9580081540
21
196.1719575484
31
0.0000000000
11
148.1017250982
21
196.2356248662
31
0.0000000000
11
148.2128814779
21
196.3339296265
31
0.0000000000
11
148.2800622083
21
196.4563795967
31
0.0000000000
0
SPLINE
5
38F
100
AcDbEntity
8
0
100
AcDbSpline
62
7
6
CONTINUOUS
70
0
71
3
72
11
73
7
74
5
42
0.0000001000
43
0.0000001000
44
0.0000000001
12
-0.2380658390
22
-0.4927074589
32
0.0000000000
13
-0.5472074413
23
-0.0000043615
33
0.0000000000
40
0.0000000000
40
0.0000000000
40
0.0000000000
40
0.0000000000
40
0.1953284950
40
0.4324992344
40
0.7059493921
40
1.0000000000
40
1.0000000000
40
1.0000000000
40
1.0000000000
10
148.2800617799
20
193.1184880090
30
0.0000000000
10
148.2645614326
20
193.0864080735
30
0.0000000000
10
148.2104848079
20
193.0251117760
30
0.0000000000
10
148.0969031805
20
192.9617007187
30
0.0000000000
10
147.9547865544
20
192.9209845104
30
0.0000000000
10
147.8510063332
20
192.9118207041
30
0.0000000000
10
147.7973707729
20
192.9118202766
30
0.0000000000
11
148.2800617799
21
193.1184880090
31
0.0000000000
11
148.2125531247
21
193.0356204718
31
0.0000000000
11
148.1010082670
21
192.9692803881
31
0.0000000000
11
147.9576003355
21
192.9265663681
31
0.0000000000
11
147.7973707729
21
192.9118202766
31
0.0000000000
0
SPLINE
5
390
100
AcDbEntity
8
0
100
AcDbSpline
62
7
6
CONTINUOUS
70
0
71
3
72
10
73
6
74
4
42
0.0000001000
43
0.0000001000
44
0.0000000001
12
0.0776456253
22
-3.2376398629
32
0.0000000000
13
-0.1149292236
23
-3.2365308585
33
0.0000000000
40
0.0000000000
40
0.0000000000
40
0.0000000000
40
0.0000000000
40
0.3758560990
40
0.7116178422
40
1.0000000000
40
1.0000000000
40
1.0000000000
40
1.0000000000
10
147.7973708434
20
179.4912351961
30
0.0000000000
10
147.8070987040
20
179.0856062999
30
0.0000000000
10
147.8204994634
20
178.3174781263
30
0.0000000000
10
147.8215251764
20
177.2379103054
30
0.0000000000
10
147.8084185635
20
176.5641727830
30
0.0000000000
10
147.7973707177
20
176.2530535321
30
0.0000000000
11
147.7973708434
21
179.4912351961
31
0.0000000000
11
147.8177197757
21
178.2741687166
31
0.0000000000
11
147.8175954998
21
177.1867805516
31
0.0000000000
11
147.7973707177
21
176.2530535321
31
0.0000000000
0
SPLINE
5
391
100
AcDbEntity
8
0
100
AcDbSpline
62
7
6
CONTINUOUS
70
0
71
3
72
12
73
8
74
6
42
0.0000001000
43
0.0000001000
44
0.0000000001
12
-0.0677277149
22
1.4553691593
32
0.0000000000
13
-1.4568508291
23
0.0164952957
33
0.0000000000
40
0.0000000000
40
0.0000000000
40
0.0000000000
40
0.0000000000
40
0.1803636998
40
0.3697893469
40
0.5697264543
40
0.7814088794
40
1.0000000000
40
1.0000000000
40
1.0000000000
40
1.0000000000
10
156.0161661038
20
208.7181614751
30
0.0000000000
10
156.0120942300
20
208.8056600638
30
0.0000000000
10
155.9739178358
20
208.9847377509
30
0.0000000000
10
155.8338809297
20
209.2283511030
30
0.0000000000
10
155.6146475789
20
209.4279184700
30
0.0000000000
10
155.3336629528
20
209.5604487979
30
0.0000000000
10
155.1233629813
20
209.5893830976
30
0.0000000000
10
155.0172114295
20
209.5905850060
30
0.0000000000
11
156.0161661038
21
208.7181614751
31
0.0000000000
11
155.9623122339
21
208.9753637483
31
0.0000000000
11
155.8255020423
21
209.2150497239
31
0.0000000000
11
155.6110551570
21
209.4121958591
31
0.0000000000
11
155.3322755163
21
209.5440985563
31
0.0000000000
11
155.0172114295
21
209.5905850060
31
0.0000000000
0
SPLINE
5
392
100
AcDbEntity
8
0
100
AcDbSpline
62
7
6
CONTINUOUS
70
0
71
3
72
11
73
7
74
5
42
0.0000001000
43
0.0000001000
44
0.0000000001
12
-1.2567667990
22
-0.0172236531
32
0.0000000000
13
-0.3493964137
23
-1.2073448502
33
0.0000000000
40
0.0000000000
40
0.0000000000
40
0.0000000000
40
0.0000000000
40
0.2688915942
40
0.5279903265
40
0.7719657953
40
1.0000000000
40
1.0000000000
40
1.0000000000
40
1.0000000000
10
154.1032165623
20
209.5905850060
30
0.0000000000
10
153.9905718863
20
209.5890412408
30
0.0000000000
10
153.7677908203
20
209.5567862313
30
0.0000000000
10
153.4740594348
20
209.4082691366
30
0.0000000000
10
153.2540811906
20
209.1880577589
30
0.0000000000
10
153.1643930346
20
209.0069041272
30
0.0000000000
10
153.1378349235
20
208.9151321529
30
0.0000000000
11
154.1032165623
21
209.5905850060
31
0.0000000000
11
153.7693340728
21
209.5382081080
31
0.0000000000
11
153.4789291580
21
209.3908390539
31
0.0000000000
11
153.2632662646
21
209.1728409719
31
0.0000000000
11
153.1378349235
21
208.9151321529
31
0.0000000000
0
SPLINE
5
393
100
AcDbEntity
8
0
100
AcDbSpline
62
7
6
CONTINUOUS
70
0
71
3
72
17
73
13
74
11
42
0.0000001000
43
0.0000001000
44
0.0000000001
12
-5.9055224741
22
-19.6708195043
32
0.0000000000
13
20.2670628233
23
-3.3260337007
33
0.0000000000
40
0.0000000000
40
0.0000000000
40
0.0000000000
40
0.0000000000
40
0.1602469135
40
0.3124675987
40
0.4491716683
40
0.5640180727
40
0.6589880457
40
0.7424421271
40
0.8202833746
40
0.8911386604
40
0.9508254512
40
1.0000000000
40
1.0000000000
40
1.0000000000
40
1.0000000000
10
153.1378349235
20
208.9151321529
30
0.0000000000
10
152.8223876738
20
207.8644027824
30
0.0000000000
10
152.2270170784
20
205.8097008592
30
0.0000000000
10
151.3859087097
20
202.8518567000
30
0.0000000000
10
150.6986745678
20
200.1737930856
30
0.0000000000
10
150.2420999473
20
197.8433221290
30
0.0000000000
10
150.0718766972
20
195.8367594711
30
0.0000000000
10
150.2037327640
20
194.0782647704
30
0.0000000000
10
150.6224449773
20
192.5340875043
30
0.0000000000
10
151.2798403548
20
191.2543866342
30
0.0000000000
10
152.1067125331
20
190.3205717087
30
0.0000000000
10
152.8056270338
20
189.9780698080
30
0.0000000000
10
153.1378349235
20
189.9235510726
30
0.0000000000
11
153.1378349235
21
208.9151321529
31
0.0000000000
11
152.2144201523
21
205.7561516595
31
0.0000000000
11
151.3705294284
21
202.7458671963
31
0.0000000000
11
150.6900325677
21
200.0219309241
31
0.0000000000
11
150.2622513640
21
197.7023118305
31
0.0000000000
11
150.1205425231
21
195.7569571343
31
0.0000000000
11
150.2622826058
21
194.0488339161
31
0.0000000000
11
150.6901019396
21
192.5084231313
31
0.0000000000
11
151.3706943730
21
191.2221452281
31
0.0000000000
11
152.2146144841
21
190.3330304868
31
0.0000000000
11
153.1378349235
21
189.9235510726
31
0.0000000000
0
SPLINE
5
394
100
AcDbEntity
8
0
100
AcDbSpline
62
7
6
CONTINUOUS
70
0
71
3
72
11
73
7
74
5
42
0.0000001000
43
0.0000001000
44
0.0000000001
12
0.9523316944
22
-0.1618652749
32
0.0000000000
13
0.9659896390
23
-0.0002018623
33
0.0000000000
40
0.0000000000
40
0.0000000000
40
0.0000000000
40
0.0000000000
40
0.1305378508
40
0.3539282055
40
0.6545859311
40
1.0000000000
40
1.0000000000
40
1.0000000000
40
1.0000000000
10
153.1378349235
20
189.9235510726
30
0.0000000000
10
153.1792733677
20
189.9165078909
30
0.0000000000
10
153.2934574771
20
189.9106286609
30
0.0000000000
10
153.5039241470
20
189.9043633053
30
0.0000000000
10
153.7839909082
20
189.9022397827
30
0.0000000000
10
153.9919944251
20
189.9017270441
30
0.0000000000
10
154.1032165623
20
189.9017038020
30
0.0000000000
11
153.1378349235
21
189.9235510726
31
0.0000000000
11
153.2634488340
21
189.9125100079
31
0.0000000000
11
153.4791366903
21
189.9057817511
31
0.0000000000
11
153.7695512932
21
189.9025797728
31
0.0000000000
11
154.1032165623
21
189.9017038020
31
0.0000000000
0
SPLINE
5
395
100
AcDbEntity
8
0
100
AcDbSpline
62
7
6
CONTINUOUS
70
0
71
3
72
14
73
10
74
8
42
0.0000001000
43
0.0000001000
44
0.0000000001
12
-3.4265599185
22
-12.7691325657
32
0.0000000000
13
-1.2923250664
23
-13.1575816653
33
0.0000000000
40
0.0000000000
40
0.0000000000
40
0.0000000000
40
0.0000000000
40
0.2104899147
40
0.3900390803
40
0.5426956044
40
0.6748905408
40
0.7925515561
40
0.9003568093
40
1.0000000000
40
1.0000000000
40
1.0000000000
40
1.0000000000
10
151.2070749505
20
209.3368986621
30
0.0000000000
10
150.9666561822
20
208.4409741206
30
0.0000000000
10
150.5233663007
20
206.7802249258
30
0.0000000000
10
149.9187445538
20
204.4662538092
30
0.0000000000
10
149.4199908681
20
202.4813091376
30
0.0000000000
10
149.0140733629
20
200.7544194306
30
0.0000000000
10
148.6888930606
20
199.2119126258
30
0.0000000000
10
148.4402552301
20
197.8005815528
30
0.0000000000
10
148.3229860060
20
196.8933975458
30
0.0000000000
10
148.2800622083
20
196.4563764059
30
0.0000000000
11
151.2070749505
21
209.3368986621
31
0.0000000000
11
150.4907479001
21
206.6478071294
31
0.0000000000
11
149.8926780672
21
204.3505823016
31
0.0000000000
11
149.4033754062
21
202.3925374694
31
0.0000000000
11
149.0063599567
21
200.6904923543
31
0.0000000000
11
148.6887990250
21
199.1676672346
31
0.0000000000
11
148.4451890651
21
197.7633586105
31
0.0000000000
11
148.2800622083
21
196.4563764059
31
0.0000000000
0
SPLINE
5
396
100
AcDbEntity
8
0
100
AcDbSpline
62
7
6
CONTINUOUS
70
0
71
3
72
10
73
6
74
4
42
0.0000001000
43
0.0000001000
44
0.0000000001
12
-0.0852152251
22
-3.3368093168
32
0.0000000000
13
0.0651846955
23
-3.3372607040
33
0.0000000000
40
0.0000000000
40
0.0000000000
40
0.0000000000
40
0.0000000000
40
0.3032548230
40
0.6357770718
40
1.0000000000
40
1.0000000000
40
1.0000000000
40
1.0000000000
10
148.2800760530
20
196.4563750999
30
0.0000000000
10
148.2714620770
20
196.1190739270
30
0.0000000000
10
148.2841502280
20
195.4115134029
30
0.0000000000
10
148.2824648268
20
194.2989967374
30
0.0000000000
10
148.2721574380
20
193.5236469244
30
0.0000000000
10
148.2800713582
20
193.1184779692
30
0.0000000000
11
148.2800760530
21
196.4563750999
31
0.0000000000
11
148.2804356356
21
195.4441417239
31
0.0000000000
11
148.2804380250
21
194.3342166242
31
0.0000000000
11
148.2800713582
21
193.1184779692
31
0.0000000000
0
SPLINE
5
397
100
AcDbEntity
8
0
100
AcDbSpline
62
7
6
CONTINUOUS
70
0
71
3
72
13
73
9
74
7
42
0.0000001000
43
0.0000001000
44
0.0000000001
12
0.0953799962
22
3.0245318637
32
0.0000000000
13
3.0257721563
23
0.0399148634
33
0.0000000000
40
0.0000000000
40
0.0000000000
40
0.0000000000
40
0.0000000000
40
0.1685979628
40
0.3314409840
40
0.4960716560
40
0.6631767935
40
0.8307613390
40
1.0000000000
40
1.0000000000
40
1.0000000000
40
1.0000000000
10
151.2070706978
20
187.9656379014
30
0.0000000000
10
151.2124309888
20
188.1356145383
30
0.0000000000
10
151.2646179192
20
188.4699315099
30
0.0000000000
10
151.4601798971
20
188.9354234272
30
0.0000000000
10
151.7610135851
20
189.3397543627
30
0.0000000000
10
152.1569941638
20
189.6599703214
30
0.0000000000
10
152.6262652377
20
189.8696010216
30
0.0000000000
10
152.9671423808
20
189.9213015637
30
0.0000000000
10
153.1378349235
20
189.9235532764
30
0.0000000000
11
151.2070706978
21
187.9656379014
31
0.0000000000
11
151.2858298007
21
188.4697054683
31
0.0000000000
11
151.4768075841
21
188.9239614825
31
0.0000000000
11
151.7746049691
21
189.3233338405
31
0.0000000000
11
152.1681432874
21
189.6408645643
31
0.0000000000
11
152.6314628833
21
189.8470255947
31
0.0000000000
11
153.1378349235
21
189.9235532764
31
0.0000000000
0
SPLINE
5
398
100
AcDbEntity
8
0
100
AcDbSpline
62
7
6
CONTINUOUS
70
0
71
3
72
14
73
10
74
8
42
0.0000001000
43
0.0000001000
44
0.0000000001
12
-6.1222946006
22
-1.1896191291
32
0.0000000000
13
-0.7308780847
23
-6.1938277401
33
0.0000000000
40
0.0000000000
40
0.0000000000
40
0.0000000000
40
0.0000000000
40
0.1252308566
40
0.2553950729
40
0.3910809862
40
0.5319084192
40
0.6789591370
40
0.8347947616
40
1.0000000000
40
1.0000000000
40
1.0000000000
40
1.0000000000
10
151.2070747886
20
184.4374089912
30
0.0000000000
10
150.9515080563
20
184.3877499837
30
0.0000000000
10
150.4544738214
20
184.1545849856
30
0.0000000000
10
149.8642485887
20
183.5852958491
30
0.0000000000
10
149.3801751047
20
182.8873894161
30
0.0000000000
10
148.9858497476
20
182.0975632207
30
0.0000000000
10
148.6685918333
20
181.2296039303
30
0.0000000000
10
148.4264755345
20
180.2856220668
30
0.0000000000
10
148.3203097668
20
179.6256527590
30
0.0000000000
10
148.2800614707
20
179.2845684962
30
0.0000000000
11
151.2070747886
21
184.4374089912
31
0.0000000000
11
150.4909045312
21
184.1257625448
31
0.0000000000
11
149.8929057608
21
183.5767359713
31
0.0000000000
11
149.4035625563
21
182.8863190288
31
0.0000000000
11
149.0065215302
21
182.1028705360
31
0.0000000000
11
148.6889920586
21
181.2424664385
31
0.0000000000
11
148.4454331498
21
180.3015629923
31
0.0000000000
11
148.2800614707
21
179.2845684962
31
0.0000000000
0
SPLINE
5
399
100
AcDbEntity
8
0
100
AcDbSpline
62
7
6
CONTINUOUS
70
0
71
3
72
14
73
10
74
8
42
0.0000001000
43
0.0000001000
44
0.0000000001
12
0.7309084638
22
-6.1938306984
32
0.0000000000
13
6.1222954155
23
-1.1896490020
33
0.0000000000
40
0.0000000000
40
0.0000000000
40
0.0000000000
40
0.0000000000
40
0.1651649040
40
0.3210237692
40
0.4680795143
40
0.6088998232
40
0.7445832500
40
0.8747580351
40
1.0000000000
40
1.0000000000
40
1.0000000000
40
1.0000000000
10
148.2800617799
20
193.1184781548
30
0.0000000000
10
148.3203019219
20
192.7774770039
30
0.0000000000
10
148.4264512414
20
192.1175414752
30
0.0000000000
10
148.6685379347
20
191.1735756719
30
0.0000000000
10
148.9858123804
20
190.3055749192
30
0.0000000000
10
149.3801178483
20
189.5157478892
30
0.0000000000
10
149.8641818138
20
188.8178352550
30
0.0000000000
10
150.4543997429
20
188.2484740216
30
0.0000000000
10
150.9514854988
20
188.0153012612
30
0.0000000000
10
151.2070749347
20
187.9656366017
30
0.0000000000
11
148.2800617799
21
193.1184781548
31
0.0000000000
11
148.4453792370
21
192.1017286163
31
0.0000000000
11
148.6889546493
21
191.1606786717
31
0.0000000000
11
149.0064910884
21
190.3002427061
31
0.0000000000
11
149.4035003231
21
189.5168268872
31
0.0000000000
11
149.8928172144
21
188.8264092231
31
0.0000000000
11
150.4908400043
21
188.2773100973
31
0.0000000000
11
151.2070749347
21
187.9656366017
31
0.0000000000
0
SPLINE
5
39A
100
AcDbEntity
8
0
100
AcDbSpline
62
7
6
CONTINUOUS
70
0
71
3
72
12
73
8
74
6
42
0.0000001000
43
0.0000001000
44
0.0000000001
12
2.8764255362
22
0.3535066676
32
0.0000000000
13
2.8980667398
23
0.0000325124
33
0.0000000000
40
0.0000000000
40
0.0000000000
40
0.0000000000
40
0.0000000000
40
0.1041736871
40
0.2689841218
40
0.4833024781
40
0.7326235572
40
1.0000000000
40
1.0000000000
40
1.0000000000
40
1.0000000000
10
151.2070749347
20
187.9656387326
30
0.0000000000
10
151.3069575527
20
187.9779140969
30
0.0000000000
10
151.5664539829
20
187.9950520335
30
0.0000000000
10
152.0327587015
20
188.0163873784
30
0.0000000000
10
152.6396931026
20
188.0331933348
30
0.0000000000
10
153.3457742023
20
188.0445809270
30
0.0000000000
10
153.8449249703
20
188.0471500812
30
0.0000000000
10
154.1032165623
20
188.0471529789
30
0.0000000000
11
151.2070749347
21
187.9656387326
31
0.0000000000
11
151.5079601603
21
187.9903991536
31
0.0000000000
11
151.9850589084
21
188.0129550277
31
0.0000000000
11
152.6059012091
21
188.0311512714
31
0.0000000000
11
153.3283527884
21
188.0430237758
31
0.0000000000
11
154.1032165623
21
188.0471529789
31
0.0000000000
0
SPLINE
5
39B
100
AcDbEntity
8
0
100
AcDbSpline
62
7
6
CONTINUOUS
70
0
71
3
72
12
73
8
74
6
42
0.0000001000
43
0.0000001000
44
0.0000000001
12
-2.8980666952
22
0.0000324709
32
0.0000000000
13
-2.8764254484
23
0.3535070164
33
0.0000000000
40
0.0000000000
40
0.0000000000
40
0.0000000000
40
0.0000000000
40
0.2675175273
40
0.5168104566
40
0.7311789368
40
0.8959118239
40
1.0000000000
40
1.0000000000
40
1.0000000000
40
1.0000000000
10
154.1032165624
20
184.3558927064
30
0.0000000000
10
153.8447886836
20
184.3558956019
30
0.0000000000
10
153.3455285936
20
184.3584520073
30
0.0000000000
10
152.6392908121
20
184.3698759491
30
0.0000000000
10
152.0324088084
20
184.3866495031
30
0.0000000000
10
151.5662155367
20
184.4080291143
30
0.0000000000
10
151.3068754149
20
184.4251416724
30
0.0000000000
10
151.2070747887
20
184.4374069726
30
0.0000000000
11
154.1032165624
21
184.3558927064
31
0.0000000000
11
153.3279439160
21
184.3600207281
31
0.0000000000
11
152.6055741358
21
184.3719052071
31
0.0000000000
11
151.9845865440
21
184.3901022845
31
0.0000000000
11
151.5077134452
21
184.4126719471
31
0.0000000000
11
151.2070747887
21
184.4374069726
31
0.0000000000
0
SPLINE
5
39C
100
AcDbEntity
8
0
100
AcDbSpline
62
7
6
CONTINUOUS
70
0
71
3
72
13
73
9
74
7
42
0.0000001000
43
0.0000001000
44
0.0000000001
12
0.0953800419
22
-3.0245078447
32
0.0000000000
13
3.0257480059
23
-0.0399256814
33
0.0000000000
40
0.0000000000
40
0.0000000000
40
0.0000000000
40
0.0000000000
40
0.1685992040
40
0.3314430801
40
0.4960740526
40
0.6631788440
40
0.8307625264
40
1.0000000000
40
1.0000000000
40
1.0000000000
40
1.0000000000
10
151.2070946287
20
184.4374038316
30
0.0000000000
10
151.2124549617
20
184.2674272932
30
0.0000000000
10
151.2646415855
20
183.9331108740
30
0.0000000000
10
151.4602020414
20
183.4676200563
30
0.0000000000
10
151.7610327007
20
183.0632908558
30
0.0000000000
10
152.1570083691
20
182.7430767473
30
0.0000000000
10
152.6262727700
20
182.5334471090
30
0.0000000000
10
152.9671449407
20
182.4817460970
30
0.0000000000
10
153.1378349235
20
182.4794937899
30
0.0000000000
11
151.2070946287
21
184.4374038316
31
0.0000000000
11
151.2858534255
21
183.9333365119
31
0.0000000000
11
151.4768299029
21
183.4790813826
31
0.0000000000
11
151.7746244488
21
183.0797107034
31
0.0000000000
11
152.1681578654
21
182.7621819607
31
0.0000000000
11
152.6314707214
21
182.5560221036
31
0.0000000000
11
153.1378349235
21
182.4794937899
31
0.0000000000
0
SPLINE
5
39D
100
AcDbEntity
8
0
100
AcDbSpline
62
7
6
CONTINUOUS
70
0
71
3
72
10
73
6
74
4
42
0.0000001000
43
0.0000001000
44
0.0000000001
12
-0.0651924115
22
-3.3372706551
32
0.0000000000
13
0.0852634934
23
-3.3368181869
33
0.0000000000
40
0.0000000000
40
0.0000000000
40
0.0000000000
40
0.0000000000
40
0.3642714420
40
0.6967853260
40
1.0000000000
40
1.0000000000
40
1.0000000000
40
1.0000000000
10
148.2800614291
20
179.2845674505
30
0.0000000000
10
148.2721455178
20
178.8793433192
30
0.0000000000
10
148.2824482079
20
178.1039464256
30
0.0000000000
10
148.2841169269
20
176.9914264912
30
0.0000000000
10
148.2714435498
20
176.2839176261
30
0.0000000000
10
148.2800612640
20
175.9466602131
30
0.0000000000
11
148.2800614291
21
179.2845674505
31
0.0000000000
11
148.2804197549
21
178.0686631798
31
0.0000000000
11
148.2804084797
21
176.9587626426
31
0.0000000000
11
148.2800612640
21
175.9466602131
31
0.0000000000
0
SPLINE
5
39E
100
AcDbEntity
8
0
100
AcDbSpline
62
7
6
CONTINUOUS
70
0
71
3
72
11
73
7
74
5
42
0.0000001000
43
0.0000001000
44
0.0000000001
12
0.5472099362
22
-0.0000057353
32
0.0000000000
13
0.2380715042
23
-0.4927074926
33
0.0000000000
40
0.0000000000
40
0.0000000000
40
0.0000000000
40
0.0000000000
40
0.2948597848
40
0.5687914956
40
0.8052792205
40
1.0000000000
40
1.0000000000
40
1.0000000000
40
1.0000000000
10
147.7973707729
20
179.4912351958
30
0.0000000000
10
147.8511541743
20
179.4912346321
30
0.0000000000
10
147.9551721032
20
179.4820247795
30
0.0000000000
10
148.0973736175
20
179.4411692373
30
0.0000000000
10
148.2107504430
20
179.3776952921
30
0.0000000000
10
148.2646089812
20
179.3165490020
30
0.0000000000
10
148.2800614708
20
179.2845688730
30
0.0000000000
11
147.7973707729
21
179.4912351958
31
0.0000000000
11
147.9580380713
21
179.4764059143
31
0.0000000000
11
148.1016628532
21
179.4334946270
31
0.0000000000
11
148.2128118374
21
179.3672190974
31
0.0000000000
11
148.2800614708
21
179.2845688730
31
0.0000000000
0
SPLINE
5
39F
100
AcDbEntity
8
0
100
AcDbSpline
62
7
6
CONTINUOUS
70
0
71
3
72
11
73
7
74
5
42
0.0000001000
43
0.0000001000
44
0.0000000001
12
-0.1882124572
22
0.5774875505
32
0.0000000000
13
-0.6073843924
23
-0.0000018125
33
0.0000000000
40
0.0000000000
40
0.0000000000
40
0.0000000000
40
0.0000000000
40
0.2284724193
40
0.4683657744
40
0.7279381776
40
1.0000000000
40
1.0000000000
40
1.0000000000
40
1.0000000000
10
148.2800614910
20
175.9466588817
30
0.0000000000
10
148.2657277059
20
175.9906388743
30
0.0000000000
10
148.2182656507
20
176.0756002461
30
0.0000000000
10
148.1055020074
20
176.1741401754
30
0.0000000000
10
147.9607111551
20
176.2382657037
30
0.0000000000
10
147.8524528079
20
176.2530536960
30
0.0000000000
10
147.7973707729
20
176.2530535316
30
0.0000000000
11
148.2800614910
21
175.9466588817
31
0.0000000000
11
148.2134522732
21
176.0683983018
31
0.0000000000
11
148.1047758815
21
176.1654555609
31
0.0000000000
11
147.9610316087
21
176.2302192159
31
0.0000000000
11
147.7973707729
21
176.2530535316
31
0.0000000000
0
SPLINE
5
3A0
100
AcDbEntity
8
0
100
AcDbSpline
62
7
6
CONTINUOUS
70
0
71
3
72
12
73
8
74
6
42
0.0000001000
43
0.0000001000
44
0.0000000001
12
1.0010672051
22
0.0001772943
32
0.0000000000
13
0.6157207537
23
0.7893183984
33
0.0000000000
40
0.0000000000
40
0.0000000000
40
0.0000000000
40
0.0000000000
40
0.3149327665
40
0.5934341376
40
0.8076891882
40
0.9446290714
40
1.0000000000
40
1.0000000000
40
1.0000000000
40
1.0000000000
10
155.0172114295
20
189.9017038020
30
0.0000000000
10
155.1223010510
20
189.9017224140
30
0.0000000000
10
155.3209087698
20
189.9015062221
30
0.0000000000
10
155.5882159671
20
189.9059657230
30
0.0000000000
10
155.8037590615
20
189.9051893835
30
0.0000000000
10
155.9287608036
20
189.9231731643
30
0.0000000000
10
156.0048017605
20
189.9196611803
30
0.0000000000
10
156.0161661038
20
189.9342296112
30
0.0000000000
11
155.0172114295
21
189.9017038020
31
0.0000000000
11
155.3324793516
21
189.9024766325
31
0.0000000000
11
155.6112640780
21
189.9052572944
31
0.0000000000
11
155.8256698982
21
189.9110370270
31
0.0000000000
11
155.9624158419
21
189.9206872095
31
0.0000000000
11
156.0161661038
21
189.9342296112
31
0.0000000000
0
SPLINE
5
3A1
100
AcDbEntity
8
0
100
AcDbSpline
62
7
6
CONTINUOUS
70
0
71
3
72
16
73
12
74
10
42
0.0000001000
43
0.0000001000
44
0.0000000001
12
12.2892343963
22
14.2783097348
32
0.0000000000
13
-0.9580260358
23
18.8142923610
33
0.0000000000
40
0.0000000000
40
0.0000000000
40
0.0000000000
40
0.0000000000
40
0.0253864970
40
0.0769608085
40
0.1537817821
40
0.2536681572
40
0.3740621470
40
0.5125617463
40
0.6658931119
40
0.8298599890
40
1.0000000000
40
1.0000000000
40
1.0000000000
40
1.0000000000
10
156.0161661038
20
189.9342296112
30
0.0000000000
10
156.1201596411
20
190.0550550336
30
0.0000000000
10
156.2034590224
20
190.5629889150
30
0.0000000000
10
156.3568804436
20
191.4932474961
30
0.0000000000
10
156.4548175503
20
192.9364198767
30
0.0000000000
10
156.5243519966
20
194.7961287139
30
0.0000000000
10
156.5166082602
20
197.0514079999
30
0.0000000000
10
156.4411916415
20
199.6384080900
30
0.0000000000
10
156.3195397119
20
202.4982592402
30
0.0000000000
10
156.1730160450
20
205.5555869461
30
0.0000000000
10
156.0704989572
20
207.6511401718
30
0.0000000000
10
156.0161661038
20
208.7181614751
30
0.0000000000
11
156.0161661038
21
189.9342296112
31
0.0000000000
11
156.1744050327
21
190.3855403553
31
0.0000000000
11
156.3199127161
21
191.3461741192
31
0.0000000000
11
156.4384104890
21
192.7885194506
31
0.0000000000
11
156.5079740999
21
194.6689594519
31
0.0000000000
11
156.5079645864
21
196.9370218529
31
0.0000000000
11
156.4383871404
21
199.5452419507
31
0.0000000000
11
156.3198812429
21
202.4313687049
31
0.0000000000
11
156.1743695812
21
205.5168569994
31
0.0000000000
11
156.0161661038
21
208.7181614751
31
0.0000000000
0
SPLINE
5
3A2
100
AcDbEntity
8
0
100
AcDbSpline
62
7
6
CONTINUOUS
70
0
71
3
72
12
73
8
74
6
42
0.0000001000
43
0.0000001000
44
0.0000000001
12
-3.9096843148
22
-0.0003720245
32
0.0000000000
13
-1.0198475129
23
-3.7743267785
33
0.0000000000
40
0.0000000000
40
0.0000000000
40
0.0000000000
40
0.0000000000
40
0.2000502370
40
0.4000164251
40
0.5999727927
40
0.7999691737
40
1.0000000000
40
1.0000000000
40
1.0000000000
40
1.0000000000
10
154.1032165624
20
211.5544329202
30
0.0000000000
10
153.8425054710
20
211.5544081123
30
0.0000000000
10
153.3186384622
20
211.4857273268
30
0.0000000000
10
152.5882257129
20
211.1835836257
30
0.0000000000
10
151.9601900713
20
210.7027515569
30
0.0000000000
10
151.4779741514
20
210.0764128188
30
0.0000000000
10
151.2750752641
20
209.5885590666
30
0.0000000000
10
151.2070749506
20
209.3368984985
30
0.0000000000
11
154.1032165624
21
211.5544329202
31
0.0000000000
11
153.3277530402
21
211.4525075079
31
0.0000000000
11
152.6052655210
21
211.1537930454
31
0.0000000000
11
151.9845394537
21
210.6785482004
31
0.0000000000
11
151.5076489945
21
210.0588881119
31
0.0000000000
11
151.2070749506
21
209.3368984985
31
0.0000000000
0
SPLINE
5
3A3
100
AcDbEntity
8
0
100
AcDbSpline
62
7
6
CONTINUOUS
70
0
71
3
72
13
73
9
74
7
42
0.0000001000
43
0.0000001000
44
0.0000000001
12
1.2107724221
22
1.5666760077
32
0.0000000000
13
1.9126382655
23
-0.5121117425
33
0.0000000000
40
0.0000000000
40
0.0000000000
40
0.0000000000
40
0.0000000000
40
0.0398207318
40
0.1373693770
40
0.2908173367
40
0.4946996718
40
0.7356977398
40
1.0000000000
40
1.0000000000
40
1.0000000000
40
1.0000000000
10
151.2070946287
20
209.3368800971
30
0.0000000000
10
151.2231659100
20
209.3576754921
30
0.0000000000
10
151.3359645238
20
209.3239092679
30
0.0000000000
10
151.5065205651
20
209.3148363243
30
0.0000000000
10
151.8104011306
20
209.2420788849
30
0.0000000000
10
152.1911885974
20
209.1581960832
30
0.0000000000
10
152.6470071346
20
209.0441046764
30
0.0000000000
10
152.9693300513
20
208.9602496238
30
0.0000000000
10
153.1378349235
20
208.9151321934
30
0.0000000000
11
151.2070946287
21
209.3368800971
31
0.0000000000
11
151.2858534255
21
209.3405764143
31
0.0000000000
11
151.4768299029
21
209.3116990935
31
0.0000000000
11
151.7746244488
21
209.2514474872
31
0.0000000000
11
152.1681578654
21
209.1614670767
31
0.0000000000
11
152.6314707214
21
209.0472706248
31
0.0000000000
11
153.1378349235
21
208.9151321934
31
0.0000000000
0
SPLINE
5
3A4
100
AcDbEntity
8
0
100
AcDbSpline
62
7
6
CONTINUOUS
70
0
71
3
72
13
73
9
74
7
42
0.0000001000
43
0.0000001000
44
0.0000000001
12
-0.2089052874
22
4.5585557965
32
0.0000000000
13
-4.5633400258
23
0.0004211755
33
0.0000000000
40
0.0000000000
40
0.0000000000
40
0.0000000000
40
0.0000000000
40
0.1668771110
40
0.3336071233
40
0.5002465945
40
0.6668541306
40
0.8334457999
40
1.0000000000
40
1.0000000000
40
1.0000000000
40
1.0000000000
10
158.0140755284
20
208.6911938465
30
0.0000000000
10
158.0024550248
20
208.9447667204
30
0.0000000000
10
157.9142344410
20
209.4510757292
30
0.0000000000
10
157.5955753826
20
210.1507414330
30
0.0000000000
10
157.1113510751
20
210.7479190377
30
0.0000000000
10
156.4925672057
20
211.2038435607
30
0.0000000000
10
155.7796545565
20
211.4895824535
30
0.0000000000
10
155.2705592454
20
211.5544095373
30
0.0000000000
10
155.0172114295
20
211.5544329202
30
0.0000000000
11
158.0140755284
21
208.6911938465
31
0.0000000000
11
157.8830960159
21
209.4413621699
31
0.0000000000
11
157.5678756052
21
210.1338376825
31
0.0000000000
11
157.0888654889
21
210.7244365359
31
0.0000000000
11
156.4768389165
21
211.1755014489
31
0.0000000000
11
155.7711359221
21
211.4581837298
31
0.0000000000
11
155.0172114295
21
211.5544329202
31
0.0000000000
0
SPLINE
5
3A5
100
AcDbEntity
8
0
100
AcDbSpline
62
7
6
CONTINUOUS
70
0
71
3
72
13
73
9
74
7
42
0.0000001000
43
0.0000001000
44
0.0000000001
12
-0.2106306137
22
1.9934204421
32
0.0000000000
13
-2.0024679793
23
-0.0906217776
33
0.0000000000
40
0.0000000000
40
0.0000000000
40
0.0000000000
40
0.0000000000
40
0.0376595182
40
0.1335870820
40
0.2866073881
40
0.4912710864
40
0.7338303818
40
1.0000000000
40
1.0000000000
40
1.0000000000
40
1.0000000000
10
158.0140756455
20
208.6911954638
30
0.0000000000
10
158.0114315630
20
208.7162192149
30
0.0000000000
10
157.8834260312
20
208.7185596769
30
0.0000000000
10
157.7272145761
20
208.7459386848
30
0.0000000000
10
157.4055783301
20
208.7473678799
30
0.0000000000
10
157.0121579432
20
208.7497286124
30
0.0000000000
10
156.5328379862
20
208.7386918018
30
0.0000000000
10
156.1938314829
20
208.7262018691
30
0.0000000000
10
156.0161661038
20
208.7181616145
30
0.0000000000
11
158.0140756455
21
208.6911954638
31
0.0000000000
11
157.9436460936
21
208.7183669904
31
0.0000000000
11
157.7522693649
21
208.7370701066
31
0.0000000000
11
157.4457066719
21
208.7472563761
31
0.0000000000
11
157.0354550235
21
208.7477621931
31
0.0000000000
11
156.5493385502
21
208.7380069197
31
0.0000000000
11
156.0161661038
21
208.7181616145
31
0.0000000000
0
SPLINE
5
3A6
100
AcDbEntity
8
0
100
AcDbSpline
62
7
6
CONTINUOUS
70
0
71
3
72
24
73
20
74
18
42
0.0000001000
43
0.0000001000
44
0.0000000001
12
12.5872423981
22
16.5561649442
32
0.0000000000
13
-0.9435020032
23
20.7763103755
33
0.0000000000
40
0.0000000000
40
0.0000000000
40
0.0000000000
40
0.0000000000
40
0.0159427204
40
0.0415106921
40
0.0730626935
40
0.1085784909
40
0.1474028233
40
0.1896216019
40
0.2356965343
40
0.2860102608
40
0.3404230714
40
0.3983945904
40
0.4597717410
40
0.5253565979
40
0.5968726003
40
0.6768140793
40
0.7685035660
40
0.8753692152
40
1.0000000000
40
1.0000000000
40
1.0000000000
40
1.0000000000
10
158.0140755278
20
187.9447861314
30
0.0000000000
10
158.0809671564
20
188.0327695674
30
0.0000000000
10
158.1487511893
20
188.3247419212
30
0.0000000000
10
158.2419030976
20
188.8156911210
30
0.0000000000
10
158.3152970641
20
189.4567890727
30
0.0000000000
10
158.3803747979
20
190.1870988297
30
0.0000000000
10
158.4325200671
20
190.9938325636
30
0.0000000000
10
158.4733350441
20
191.8740911039
30
0.0000000000
10
158.5016250690
20
192.8346522704
30
0.0000000000
10
158.5161200376
20
193.8800245053
30
0.0000000000
10
158.5155830094
20
195.0079777526
30
0.0000000000
10
158.5000403388
20
196.2125163734
30
0.0000000000
10
158.4706356174
20
197.4942610373
30
0.0000000000
10
158.4285925719
20
198.8695915446
30
0.0000000000
10
158.3742823272
20
200.3732784718
30
0.0000000000
10
158.3069034963
20
202.0575684350
30
0.0000000000
10
158.2247130171
20
203.9865179809
30
0.0000000000
10
158.1256920720
20
206.2248396744
30
0.0000000000
10
158.0532719935
20
207.8280712008
30
0.0000000000
10
158.0140755285
20
208.6911938235
30
0.0000000000
11
158.0140755278
21
187.9447861314
31
0.0000000000
11
158.1308419737
21
188.2551178443
31
0.0000000000
11
158.2287496557
21
188.7777822573
31
0.0000000000
11
158.3095186121
21
189.4290023771
31
0.0000000000
11
158.3755046132
21
190.1646967983
31
0.0000000000
11
158.4286525426
21
190.9704034636
31
0.0000000000
11
158.4697354337
21
191.8474962834
31
0.0000000000
11
158.4983816829
21
192.8053216761
31
0.0000000000
11
158.5133228276
21
193.8516259324
31
0.0000000000
11
158.5133252074
21
194.9832884783
31
0.0000000000
11
158.4983864410
21
196.1888715010
31
0.0000000000
11
158.4697372324
21
197.4650549238
31
0.0000000000
11
158.4286441468
21
198.8284514531
31
0.0000000000
11
158.3754828262
21
200.3148710950
31
0.0000000000
11
158.3094883893
21
201.9761615134
31
0.0000000000
11
158.2287147404
21
203.8813825631
31
0.0000000000
11
158.1308172102
21
206.1017875977
31
0.0000000000
11
158.0140755285
21
208.6911938235
31
0.0000000000
0
SPLINE
5
3A7
100
AcDbEntity
8
0
100
AcDbSpline
62
7
6
CONTINUOUS
70
0
71
3
72
11
73
7
74
5
42
0.0000001000
43
0.0000001000
44
0.0000000001
12
-0.7803768627
22
-0.0000189746
32
0.0000000000
13
0.0000121116
23
0.7803768628
33
0.0000000000
40
0.0000000000
40
0.0000000000
40
0.0000000000
40
0.0000000000
40
0.2467723358
40
0.4904224087
40
0.7426295469
40
1.0000000000
40
1.0000000000
40
1.0000000000
40
1.0000000000
10
131.1302053868
20
119.7938987948
30
0.0000000000
10
131.0660135797
20
119.7938972340
30
0.0000000000
10
130.9370703442
20
119.8190822406
30
0.0000000000
10
130.7716250950
20
119.9274135587
30
0.0000000000
10
130.6575375800
20
120.0928561750
30
0.0000000000
10
130.6301904150
20
120.2269599808
30
0.0000000000
10
130.6301914541
20
120.2939086297
30
0.0000000000
11
131.1302053868
21
119.7938987948
31
0.0000000000
11
130.9412336563
21
119.8309794898
31
0.0000000000
11
130.7820698662
21
119.9349971875
31
0.0000000000
11
130.6705274197
21
120.0971547118
31
0.0000000000
11
130.6301914541
21
120.2939086297
31
0.0000000000
0
SPLINE
5
3A8
100
AcDbEntity
8
0
100
AcDbSpline
62
7
6
CONTINUOUS
70
0
71
3
72
11
73
7
74
5
42
0.0000001000
43
0.0000001000
44
0.0000000001
12
0.0000069413
22
-0.7803683718
32
0.0000000000
13
-0.7803683717
23
0.0000117186
33
0.0000000000
40
0.0000000000
40
0.0000000000
40
0.0000000000
40
0.0000000000
40
0.2467728677
40
0.4904231757
40
0.7426300155
40
1.0000000000
40
1.0000000000
40
1.0000000000
40
1.0000000000
10
110.1302102048
20
120.2939086295
30
0.0000000000
10
110.1302107757
20
120.2297173826
30
0.0000000000
10
110.1050243200
20
120.1007757603
30
0.0000000000
10
109.9966926235
20
119.9353332840
30
0.0000000000
10
109.8312513562
20
119.8212480895
30
0.0000000000
10
109.6971492543
20
119.7939015099
30
0.0000000000
10
109.6302014558
20
119.7939025153
30
0.0000000000
11
110.1302102048
21
120.2939086295
31
0.0000000000
11
110.0931273195
21
120.1049390412
31
0.0000000000
11
109.9891091481
21
119.9457778129
31
0.0000000000
11
109.8269529421
21
119.8342376397
31
0.0000000000
11
109.6302014558
21
119.7939025153
31
0.0000000000
0
SPLINE
5
3A9
100
AcDbEntity
8
0
100
AcDbSpline
62
7
6
CONTINUOUS
70
0
71
3
72
11
73
7
74
5
42
0.0000001000
43
0.0000001000
44
0.0000000001
12
0.7803683076
22
0.0000116535
32
0.0000000000
13
-0.0000068980
23
-0.7803683077
33
0.0000000000
40
0.0000000000
40
0.0000000000
40
0.0000000000
40
0.0000000000
40
0.2467724796
40
0.4904225942
40
0.7426295780
40
1.0000000000
40
1.0000000000
40
1.0000000000
40
1.0000000000
10
109.6302014541
20
86.7939147176
30
0.0000000000
10
109.6943925949
20
86.7939156762
30
0.0000000000
10
109.8233342063
20
86.7687300040
30
0.0000000000
10
109.9887771781
20
86.6603993034
30
0.0000000000
10
110.1028633507
20
86.4949586108
30
0.0000000000
10
110.1302107568
20
86.3608565362
30
0.0000000000
10
110.1302101650
20
86.2939086293
30
0.0000000000
11
109.6302014541
21
86.7939147176
31
0.0000000000
11
109.8191709481
21
86.7568330063
31
0.0000000000
11
109.9783326305
21
86.6528158343
31
0.0000000000
11
110.0898737922
21
86.4906601914
31
0.0000000000
11
110.1302101650
21
86.2939086293
31
0.0000000000
0
SPLINE
5
3AA
100
AcDbEntity
8
0
100
AcDbSpline
62
7
6
CONTINUOUS
70
0
71
3
72
11
73
7
74
5
42
0.0000001000
43
0.0000001000
44
0.0000000001
12
-0.0000122543
22
0.7803770759
32
0.0000000000
13
0.7803770757
23
-0.0000191908
33
0.0000000000
40
0.0000000000
40
0.0000000000
40
0.0000000000
40
0.0000000000
40
0.2467726055
40
0.4904228154
40
0.7426298549
40
1.0000000000
40
1.0000000000
40
1.0000000000
40
1.0000000000
10
130.6301913220
20
86.2939086292
30
0.0000000000
10
130.6301903140
20
86.3581005239
30
0.0000000000
10
130.6553764451
20
86.4870436848
30
0.0000000000
10
130.7637092305
20
86.6524881369
30
0.0000000000
10
130.9291528120
20
86.7665742328
30
0.0000000000
10
131.0632567964
20
86.7939201954
30
0.0000000000
10
131.1302053834
20
86.7939185490
30
0.0000000000
11
130.6301913220
21
86.2939086292
31
0.0000000000
11
130.6672736824
21
86.4828803009
31
0.0000000000
11
130.7712928200
21
86.6420433398
31
0.0000000000
11
130.9334512880
21
86.7535843733
31
0.0000000000
11
131.1302053834
21
86.7939185490
31
0.0000000000
0
SPLINE
5
3AB
100
AcDbEntity
8
0
100
AcDbSpline
62
7
6
CONTINUOUS
70
0
71
3
72
16
73
12
74
10
42
0.0000001000
43
0.0000001000
44
0.0000000001
12
-0.0506160176
22
-16.6172093794
32
0.0000000000
13
16.6168660014
23
0.1182109574
33
0.0000000000
40
0.0000000000
40
0.0000000000
40
0.0000000000
40
0.0000000000
40
0.1022900196
40
0.2072944334
40
0.3172900813
40
0.4335915591
40
0.5549092962
40
0.6760493077
40
0.7910832819
40
0.8987980215
40
1.0000000000
40
1.0000000000
40
1.0000000000
40
1.0000000000
10
84.2302030457
20
103.2939086294
30
0.0000000000
10
84.2284772079
20
102.7273170716
30
0.0000000000
10
84.3278775914
20
101.5767877939
30
0.0000000000
10
84.7705739350
20
99.8677096376
30
0.0000000000
10
85.5381786186
20
98.1898993679
30
0.0000000000
10
86.6490346995
20
96.6037053659
30
0.0000000000
10
88.0821570741
20
95.2095331480
30
0.0000000000
10
89.7451221742
20
94.1135228998
30
0.0000000000
10
91.5072863467
20
93.3638567156
30
0.0000000000
10
93.2605732061
20
92.9504008427
30
0.0000000000
10
94.4196498068
20
92.8560973724
30
0.0000000000
10
94.9802030457
20
92.8600851000
30
0.0000000000
11
84.2302030457
21
103.2939086294
31
0.0000000000
11
84.3727976789
21
101.6001177576
31
0.0000000000
11
84.8108775789
21
99.9111175760
31
0.0000000000
11
85.5705491772
21
98.2486319013
31
0.0000000000
11
86.6784867368
21
96.6651310350
31
0.0000000000
11
88.1227548766
21
95.2586350338
31
0.0000000000
11
89.8028833394
21
94.1498469936
31
0.0000000000
11
91.5618994825
21
93.4015855557
31
0.0000000000
11
93.3033650307
21
92.9879005597
31
0.0000000000
11
94.9802030457
21
92.8600851000
31
0.0000000000
0
SPLINE
5
3AC
100
AcDbEntity
8
0
100
AcDbSpline
62
7
6
CONTINUOUS
70
0
71
3
72
16
73
12
74
10
42
0.0000001000
43
0.0000001000
44
0.0000000001
12
16.6168456983
22
-0.1221756382
32
0.0000000000
13
-0.0512453446
23
16.6172158247
33
0.0000000000
40
0.0000000000
40
0.0000000000
40
0.0000000000
40
0.0000000000
40
0.1011351075
40
0.2089219804
40
0.3239548433
40
0.4450373578
40
0.5663250254
40
0.6826408119
40
0.7926636142
40
0.8977005032
40
1.0000000000
40
1.0000000000
40
1.0000000000
40
1.0000000000
10
94.9802030457
20
92.8600851000
30
0.0000000000
10
95.5403852046
20
92.8559663513
30
0.0000000000
10
96.6994906620
20
92.9503853866
30
0.0000000000
10
98.4528325946
20
93.3636952364
30
0.0000000000
10
100.2150508635
20
94.1134431413
30
0.0000000000
10
101.8776592874
20
95.2090740105
30
0.0000000000
10
103.3106008657
20
96.6028418496
30
0.0000000000
10
104.4217077519
20
98.1889384874
30
0.0000000000
10
105.1896310220
20
99.8670654755
30
0.0000000000
10
105.6324899616
20
101.5765009611
30
0.0000000000
10
105.7319505033
20
102.7272643573
30
0.0000000000
10
105.7302030457
20
103.2939086294
30
0.0000000000
11
94.9802030457
21
92.8600851000
31
0.0000000000
11
96.6559416191
21
92.9877149199
31
0.0000000000
11
98.3985922811
21
93.4016012588
31
0.0000000000
11
100.1575840732
21
94.1498752262
31
0.0000000000
11
101.8369666680
21
95.2580606832
31
0.0000000000
11
103.2810132302
21
96.6640694578
31
0.0000000000
11
104.3892864243
21
98.2476268525
31
0.0000000000
11
105.1492927630
21
99.9104566825
31
0.0000000000
11
105.5875814426
21
101.5999611270
31
0.0000000000
11
105.7302030457
21
103.2939086294
31
0.0000000000
0
SPLINE
5
3AD
100
AcDbEntity
8
0
100
AcDbSpline
62
7
6
CONTINUOUS
70
0
71
3
72
24
73
20
74
18
42
0.0000001000
43
0.0000001000
44
0.0000000001
12
23.0371765586
22
0.0000000015
32
0.0000000000
13
23.0371765586
23
-0.0000000014
33
0.0000000000
40
0.0000000000
40
0.0000000000
40
0.0000000000
40
0.0000000000
40
0.0080456422
40
0.0329432175
40
0.0757375416
40
0.1369039756
40
0.2135414712
40
0.2977090356
40
0.3811115784
40
0.4609439125
40
0.5391119903
40
0.6189458219
40
0.7023486971
40
0.7865139774
40
0.8631431715
40
0.9242984706
40
0.9670806681
40
0.9919642682
40
1.0000000000
40
1.0000000000
40
1.0000000000
40
1.0000000000
10
131.1302030457
20
86.7939086294
30
0.0000000000
10
131.1919860060
20
86.7939086294
30
0.0000000000
10
130.6921193611
20
87.0059042123
30
0.0000000000
10
130.4755487956
20
87.2255729310
30
0.0000000000
10
129.4512871004
20
87.7658099642
30
0.0000000000
10
128.3020572475
20
88.3973610526
30
0.0000000000
10
126.7294404893
20
89.1286569228
30
0.0000000000
10
124.9812027578
20
89.7891780936
30
0.0000000000
10
123.1373974995
20
90.2741591584
30
0.0000000000
10
121.2956322496
20
90.5214748670
30
0.0000000000
10
119.4634734727
20
90.5213836299
30
0.0000000000
10
117.6217185337
20
90.2738937307
30
0.0000000000
10
115.7779547816
20
89.7887702564
30
0.0000000000
10
114.0298342925
20
89.1281724740
30
0.0000000000
10
112.4573938222
20
88.3968813541
30
0.0000000000
10
111.3084051165
20
87.7654089020
30
0.0000000000
10
110.2844080198
20
87.2253078047
30
0.0000000000
10
110.0679766042
20
87.0057376733
30
0.0000000000
10
109.5684961884
20
86.7939086294
30
0.0000000000
10
109.6302030457
20
86.7939086294
30
0.0000000000
11
131.1302030457
21
86.7939086294
31
0.0000000000
11
130.9720203654
21
86.8905132220
31
0.0000000000
11
130.4801194261
21
87.1854976706
31
0.0000000000
11
129.6252483119
21
87.6765334187
31
0.0000000000
11
128.3809234416
21
88.3377624959
31
0.0000000000
11
126.7800847004
21
89.0823068140
31
0.0000000000
11
124.9633038351
21
89.7597745406
31
0.0000000000
11
123.1032573248
21
90.2412802908
31
0.0000000000
11
121.2799464632
21
90.4818398224
31
0.0000000000
11
119.4791746565
21
90.4817523046
31
0.0000000000
11
117.6558517324
21
90.2410205107
31
0.0000000000
11
115.7958353830
21
89.7593677164
31
0.0000000000
11
113.9791449313
21
89.0818081324
31
0.0000000000
11
112.3785120016
21
88.3372747945
31
0.0000000000
11
111.1344329034
21
87.6761298599
31
0.0000000000
11
110.2798129105
21
87.1852178008
31
0.0000000000
11
109.7881919972
21
86.8903923968
31
0.0000000000
11
109.6302030457
21
86.7939086294
31
0.0000000000
0
SPLINE
5
3AE
100
AcDbEntity
8
0
100
AcDbSpline
62
7
6
CONTINUOUS
70
0
71
3
72
24
73
20
74
18
42
0.0000001000
43
0.0000001000
44
0.0000000001
12
-18.4905389980
22
-12.2810731607
32
0.0000000000
13
-18.4900643368
23
12.2817927784
33
0.0000000000
40
0.0000000000
40
0.0000000000
40
0.0000000000
40
0.0000000000
40
0.0083145660
40
0.0339722783
40
0.0780778887
40
0.1410032486
40
0.2191576984
40
0.3033896741
40
0.3851361994
40
0.4623670663
40
0.5376848843
40
0.6149169052
40
0.6966640728
40
0.7808953614
40
0.8590429466
40
0.9219575453
40
0.9660511323
40
0.9916952413
40
1.0000000000
40
1.0000000000
40
1.0000000000
40
1.0000000000
10
130.6302030457
20
120.2939086294
30
0.0000000000
10
130.5789561101
20
120.2598713650
30
0.0000000000
10
130.3692382209
20
120.1212954718
30
0.0000000000
10
129.8842180397
20
119.8074121456
30
0.0000000000
10
129.0500636527
20
119.2894521899
30
0.0000000000
10
127.8613561350
20
118.6070751543
30
0.0000000000
10
126.3705961626
20
117.8579027162
30
0.0000000000
10
124.6921694652
20
117.1823067218
30
0.0000000000
10
122.9543539474
20
116.6978919882
30
0.0000000000
10
121.2325453067
20
116.4539291338
30
0.0000000000
10
119.5266982492
20
116.4540159345
30
0.0000000000
10
117.8049006004
20
116.6981443672
30
0.0000000000
10
116.0671163495
20
117.1826964719
30
0.0000000000
10
114.3887783456
20
117.8583733524
30
0.0000000000
10
112.8981738061
20
118.6075513994
30
0.0000000000
10
111.7096750283
20
119.2898510818
30
0.0000000000
10
110.8757621346
20
119.8076890332
30
0.0000000000
10
110.3909580103
20
120.1214237085
30
0.0000000000
10
110.1813882200
20
120.2599095209
30
0.0000000000
10
110.1302030457
20
120.2939086294
30
0.0000000000
11
130.6302030457
21
120.2939086294
31
0.0000000000
11
130.4762220926
21
120.1921596558
31
0.0000000000
11
129.9981129910
21
119.8826750018
31
0.0000000000
11
129.1659675204
21
119.3668921199
31
0.0000000000
11
127.9535710148
21
118.6732896080
31
0.0000000000
11
126.4010797632
21
117.8990892377
31
0.0000000000
11
124.6635276188
21
117.2085816030
31
0.0000000000
11
122.9135324484
21
116.7288513233
31
0.0000000000
11
121.2155572115
21
116.4926649684
31
0.0000000000
11
119.5436987309
21
116.4927479184
31
0.0000000000
11
117.8457201858
21
116.7290963787
31
0.0000000000
11
116.0957487757
21
117.2089672377
31
0.0000000000
11
114.3582529161
21
117.8995751947
31
0.0000000000
11
112.8059327501
21
118.6737771955
31
0.0000000000
11
111.5937641698
21
119.3672970754
31
0.0000000000
11
110.7618545261
21
119.8829538385
31
0.0000000000
11
110.2839995891
21
120.1922754578
31
0.0000000000
11
110.1302030457
21
120.2939086294
31
0.0000000000
0
SPLINE
5
3AF
100
AcDbEntity
8
0
100
AcDbSpline
62
7
6
CONTINUOUS
70
0
71
3
72
12
73
8
74
6
42
0.0000001000
43
0.0000001000
44
0.0000000001
12
3.9096837342
22
0.0003769398
32
0.0000000000
13
1.0198397731
23
3.7743282688
33
0.0000000000
40
0.0000000000
40
0.0000000000
40
0.0000000000
40
0.0000000000
40
0.2000502296
40
0.4000163779
40
0.5999727414
40
0.7999691498
40
1.0000000000
40
1.0000000000
40
1.0000000000
40
1.0000000000
10
61.2571895290
20
77.9409985519
30
0.0000000000
10
61.5179005719
20
77.9410236875
30
0.0000000000
10
62.0417674510
20
78.0097039265
30
0.0000000000
10
62.7721800208
20
78.3118477222
30
0.0000000000
10
63.4002156678
20
78.7926795944
30
0.0000000000
10
63.8824312955
20
79.4190183160
30
0.0000000000
10
64.0853311937
20
79.9068717523
30
0.0000000000
10
64.1533309993
20
80.1585324498
30
0.0000000000
11
61.2571895290
21
77.9409985519
31
0.0000000000
11
62.0326529122
21
78.0429239069
31
0.0000000000
11
62.7551401976
21
78.3416382254
31
0.0000000000
11
63.3758661960
21
78.8168829427
31
0.0000000000
11
63.8527567522
21
79.4365429456
31
0.0000000000
11
64.1533309993
21
80.1585324498
31
0.0000000000
0
SPLINE
5
3B0
100
AcDbEntity
8
0
100
AcDbSpline
62
7
6
CONTINUOUS
70
0
71
3
72
13
73
9
74
7
42
0.0000001000
43
0.0000001000
44
0.0000000001
12
-1.2107559692
22
-1.5666792994
32
0.0000000000
13
-1.9126309909
23
0.5121100824
33
0.0000000000
40
0.0000000000
40
0.0000000000
40
0.0000000000
40
0.0000000000
40
0.0398207732
40
0.1373695547
40
0.2908176623
40
0.4947000345
40
0.7356979804
40
1.0000000000
40
1.0000000000
40
1.0000000000
40
1.0000000000
10
64.1533042126
20
80.1585533162
30
0.0000000000
10
64.1372331330
20
80.1377578558
30
0.0000000000
10
64.0244344769
20
80.1715239052
30
0.0000000000
10
63.8538791388
20
80.1805967292
30
0.0000000000
10
63.5499993519
20
80.2533538929
30
0.0000000000
10
63.1692133294
20
80.3372363672
30
0.0000000000
10
62.7133967033
20
80.4513273097
30
0.0000000000
10
62.3910752458
20
80.5351820227
30
0.0000000000
10
62.2225711679
20
80.5802992657
30
0.0000000000
11
64.1533042126
21
80.1585533162
31
0.0000000000
11
64.0745456386
21
80.1548568385
31
0.0000000000
11
63.8835695970
21
80.1837339823
31
0.0000000000
11
63.5857758719
21
80.2439853531
31
0.0000000000
11
63.1922438602
21
80.3339654161
31
0.0000000000
11
62.7289329877
21
80.4481613970
31
0.0000000000
11
62.2225711679
21
80.5802992657
31
0.0000000000
0
SPLINE
5
3B1
100
AcDbEntity
8
0
100
AcDbSpline
62
7
6
CONTINUOUS
70
0
71
3
72
11
73
7
74
5
42
0.0000001000
43
0.0000001000
44
0.0000000001
12
1.2567666813
22
0.0172223678
32
0.0000000000
13
0.3493884904
23
1.2073470023
33
0.0000000000
40
0.0000000000
40
0.0000000000
40
0.0000000000
40
0.0000000000
40
0.2688912029
40
0.5279908205
40
0.7719688521
40
1.0000000000
40
1.0000000000
40
1.0000000000
40
1.0000000000
10
61.2571895290
20
79.9048464661
30
0.0000000000
10
61.3698340306
20
79.9063901138
30
0.0000000000
10
61.5926151990
20
79.9386454048
30
0.0000000000
10
61.8863479875
20
80.0871628363
30
0.0000000000
10
62.1063251428
20
80.3073753822
30
0.0000000000
10
62.1960140150
20
80.4885284116
30
0.0000000000
10
62.2225711679
20
80.5802993192
30
0.0000000000
11
61.2571895290
21
79.9048464661
31
0.0000000000
11
61.5910714978
21
79.9572232759
31
0.0000000000
11
61.8814773693
21
80.1045928262
31
0.0000000000
11
62.0971418495
21
80.3225938230
31
0.0000000000
11
62.2225711679
21
80.5802993192
31
0.0000000000
0
SPLINE
5
3B2
100
AcDbEntity
8
0
100
AcDbSpline
62
7
6
CONTINUOUS
70
0
71
3
72
12
73
8
74
6
42
0.0000001000
43
0.0000001000
44
0.0000000001
12
0.0677235812
22
-1.4553691354
32
0.0000000000
13
1.4568507048
23
-0.0164871982
33
0.0000000000
40
0.0000000000
40
0.0000000000
40
0.0000000000
40
0.0000000000
40
0.1803632712
40
0.3697904278
40
0.5697274768
40
0.7814126628
40
1.0000000000
40
1.0000000000
40
1.0000000000
40
1.0000000000
10
59.3442399876
20
80.7772699970
30
0.0000000000
10
59.3483116032
20
80.6897716177
30
0.0000000000
10
59.3864884905
20
80.5106934570
30
0.0000000000
10
59.5265256956
20
80.2670798134
30
0.0000000000
10
59.7457607272
20
80.0675110613
30
0.0000000000
10
60.0267457652
20
79.9349830935
30
0.0000000000
10
60.2370449564
20
79.9060477637
30
0.0000000000
10
60.3431946619
20
79.9048464661
30
0.0000000000
11
59.3442399876
21
80.7772699970
31
0.0000000000
11
59.3980937032
21
80.5200683694
31
0.0000000000
11
59.5349051159
21
80.2803806054
31
0.0000000000
11
59.7493521760
21
80.0832348501
31
0.0000000000
11
60.0281360214
21
79.9513317411
31
0.0000000000
11
60.3431946619
21
79.9048464661
31
0.0000000000
0
SPLINE
5
3B3
100
AcDbEntity
8
0
100
AcDbSpline
62
7
6
CONTINUOUS
70
0
71
3
72
16
73
12
74
10
42
0.0000001000
43
0.0000001000
44
0.0000000001
12
-12.2894045861
22
-14.2781634955
32
0.0000000000
13
0.9580487874
23
-18.8142913873
33
0.0000000000
40
0.0000000000
40
0.0000000000
40
0.0000000000
40
0.0000000000
40
0.0253871179
40
0.0769619785
40
0.1537834200
40
0.2536701623
40
0.3740630503
40
0.5125626676
40
0.6658942461
40
0.8298608785
40
1.0000000000
40
1.0000000000
40
1.0000000000
40
1.0000000000
10
59.3442399876
20
99.5612018609
30
0.0000000000
10
59.2402424666
20
99.4403747208
30
0.0000000000
10
59.1569432740
20
98.9324309548
30
0.0000000000
10
59.0035255263
20
98.0021629512
30
0.0000000000
10
58.9055865066
20
96.5589814747
30
0.0000000000
10
58.8360544656
20
94.6992743472
30
0.0000000000
10
58.8437980278
20
92.4439995401
30
0.0000000000
10
58.9192153408
20
89.8570049081
30
0.0000000000
10
59.0408688877
20
86.9971538933
30
0.0000000000
10
59.1873876407
20
83.9398317173
30
0.0000000000
10
59.2899061279
20
81.8442856661
30
0.0000000000
10
59.3442399876
20
80.7772699970
30
0.0000000000
11
59.3442399876
21
99.5612018609
31
0.0000000000
11
59.1859968454
21
99.1098801936
31
0.0000000000
11
59.0404916242
21
98.1492355848
31
0.0000000000
11
58.9219941629
21
96.7068813697
31
0.0000000000
11
58.8524316032
21
94.8264343888
31
0.0000000000
11
58.8524416987
21
92.5583927229
31
0.0000000000
11
58.9220198703
21
89.9501722785
31
0.0000000000
11
59.0405264798
21
87.0640415117
31
0.0000000000
11
59.1860355437
21
83.9785576774
31
0.0000000000
11
59.3442399876
21
80.7772699970
31
0.0000000000
0
SPLINE
5
3B4
100
AcDbEntity
8
0
100
AcDbSpline
62
7
6
CONTINUOUS
70
0
71
3
72
12
73
8
74
6
42
0.0000001000
43
0.0000001000
44
0.0000000001
12
-1.0010672035
22
-0.0001772103
32
0.0000000000
13
-0.6156967924
23
-0.7893370872
33
0.0000000000
40
0.0000000000
40
0.0000000000
40
0.0000000000
40
0.0000000000
40
0.3149274037
40
0.5934329205
40
0.8076881237
40
0.9446292344
40
1.0000000000
40
1.0000000000
40
1.0000000000
40
1.0000000000
10
60.3431946619
20
99.5937276700
30
0.0000000000
10
60.2381068301
20
99.5937090672
30
0.0000000000
10
60.0394994796
20
99.5939252621
30
0.0000000000
10
59.7721928282
20
99.5894656754
30
0.0000000000
10
59.5566474291
20
99.5902423458
30
0.0000000000
10
59.4316461693
20
99.5722578760
30
0.0000000000
10
59.3556038552
20
99.5757705938
30
0.0000000000
10
59.3442399876
20
99.5612018609
30
0.0000000000
11
60.3431946619
21
99.5937276700
31
0.0000000000
11
60.0279321088
21
99.5929548600
31
0.0000000000
11
59.7491432325
21
99.5901741959
31
0.0000000000
11
59.5347372593
21
99.5843944842
31
0.0000000000
11
59.3979900888
21
99.5747442319
31
0.0000000000
11
59.3442399876
21
99.5612018609
31
0.0000000000
0
SPLINE
5
3B5
100
AcDbEntity
8
0
100
AcDbSpline
62
7
6
CONTINUOUS
70
0
71
3
72
11
73
7
74
5
42
0.0000001000
43
0.0000001000
44
0.0000000001
12
-0.9523310539
22
0.1618690428
32
0.0000000000
13
-0.9659896389
23
0.0002018470
33
0.0000000000
40
0.0000000000
40
0.0000000000
40
0.0000000000
40
0.0000000000
40
0.1305357838
40
0.3539277604
40
0.6545864754
40
1.0000000000
40
1.0000000000
40
1.0000000000
40
1.0000000000
10
62.2225711679
20
99.5718803995
30
0.0000000000
10
62.1811334077
20
99.5789236336
30
0.0000000000
10
62.0669494012
20
99.5848026404
30
0.0000000000
10
61.8564825879
20
99.5910682261
30
0.0000000000
10
61.5764151477
20
99.5931916635
30
0.0000000000
10
61.3684114910
20
99.5937044298
30
0.0000000000
10
61.2571895290
20
99.5937276700
30
0.0000000000
11
62.2225711679
21
99.5718803995
31
0.0000000000
11
62.0969592514
21
99.5829213450
31
0.0000000000
11
61.8812698310
21
99.5896497108
31
0.0000000000
11
61.5908542724
21
99.5928517009
31
0.0000000000
11
61.2571895290
21
99.5937276700
31
0.0000000000
0
SPLINE
5
3B6
100
AcDbEntity
8
0
100
AcDbSpline
62
7
6
CONTINUOUS
70
0
71
3
72
17
73
13
74
11
42
0.0000001000
43
0.0000001000
44
0.0000000001
12
5.9055158696
22
19.6708175205
32
0.0000000000
13
-20.2670593559
23
3.3260313701
33
0.0000000000
40
0.0000000000
40
0.0000000000
40
0.0000000000
40
0.0000000000
40
0.1602611304
40
0.3124979302
40
0.4492238997
40
0.5640754687
40
0.6589877301
40
0.7424042198
40
0.8202570665
40
0.8911252991
40
0.9508203918
40
1.0000000000
40
1.0000000000
40
1.0000000000
40
1.0000000000
10
62.2225711679
20
80.5802993192
30
0.0000000000
10
62.5380460509
20
81.6311218033
30
0.0000000000
10
63.1334691571
20
83.6860242220
30
0.0000000000
10
63.9746781931
20
86.6442112564
30
0.0000000000
10
64.6619573339
20
89.3225676694
30
0.0000000000
10
65.1184067064
20
91.6528537862
30
0.0000000000
10
65.2884595653
20
93.6588027057
30
0.0000000000
10
65.1567305436
20
95.4167181090
30
0.0000000000
10
64.7381671932
20
96.9608450819
30
0.0000000000
10
64.0807532752
20
98.2407935189
30
0.0000000000
10
63.2538065603
20
99.1747872097
30
0.0000000000
10
62.5548131804
20
99.5173560930
30
0.0000000000
10
62.2225711679
20
99.5718803995
30
0.0000000000
11
62.2225711679
21
80.5802993192
31
0.0000000000
11
63.1460640275
21
83.7395605607
31
0.0000000000
11
63.9900394735
21
86.7501643961
31
0.0000000000
11
64.6706072396
21
89.4745460265
31
0.0000000000
11
65.0983075510
21
91.7942874509
31
0.0000000000
11
65.2398520400
21
93.7384653258
31
0.0000000000
11
65.0982581588
21
95.4458256364
31
0.0000000000
11
64.6705037471
21
96.9865013831
31
0.0000000000
11
63.9898721414
21
98.2730590823
31
0.0000000000
11
63.1458767635
21
99.1623371524
31
0.0000000000
11
62.2225711679
21
99.5718803995
31
0.0000000000
0
SPLINE
5
3B7
100
AcDbEntity
8
0
100
AcDbSpline
62
7
6
CONTINUOUS
70
0
71
3
72
12
73
8
74
6
42
0.0000001000
43
0.0000001000
44
0.0000000001
12
-2.8765057677
22
-0.3528526201
32
0.0000000000
13
-2.8980666663
23
-0.0000304198
33
0.0000000000
40
0.0000000000
40
0.0000000000
40
0.0000000000
40
0.0000000000
40
0.1041738355
40
0.2689842938
40
0.4833026093
40
0.7326236018
40
1.0000000000
40
1.0000000000
40
1.0000000000
40
1.0000000000
10
64.1533309746
20
101.5297927147
30
0.0000000000
10
64.0534454284
20
101.5175400445
30
0.0000000000
10
63.7939540445
20
101.5003582457
30
0.0000000000
10
63.3276460021
20
101.4790505449
30
0.0000000000
10
62.7207129425
20
101.4622354321
30
0.0000000000
10
62.0146315905
20
101.4508519774
30
0.0000000000
10
61.5154810714
20
101.4482812044
30
0.0000000000
10
61.2571895290
20
101.4482784932
30
0.0000000000
11
64.1533309746
21
101.5297927147
31
0.0000000000
11
63.8524455231
21
101.5050298901
31
0.0000000000
11
63.3753466760
21
101.4824749179
31
0.0000000000
11
62.7545044702
21
101.4642800086
31
0.0000000000
11
62.0320531527
21
101.4524079690
31
0.0000000000
11
61.2571895290
21
101.4482784932
31
0.0000000000
0
SPLINE
5
3B8
100
AcDbEntity
8
0
100
AcDbSpline
62
7
6
CONTINUOUS
70
0
71
3
72
12
73
8
74
6
42
0.0000001000
43
0.0000001000
44
0.0000000001
12
2.8980667065
22
-0.0000303813
32
0.0000000000
13
2.8765057989
23
-0.3528526959
33
0.0000000000
40
0.0000000000
40
0.0000000000
40
0.0000000000
40
0.0000000000
40
0.2675833459
40
0.5169167815
40
0.7311950602
40
0.8959337190
40
1.0000000000
40
1.0000000000
40
1.0000000000
40
1.0000000000
10
61.2571895290
20
105.1395387657
30
0.0000000000
10
61.5156809910
20
105.1395360559
30
0.0000000000
10
62.0150434628
20
105.1369621964
30
0.0000000000
10
62.7212979845
20
105.1255693932
30
0.0000000000
10
63.3281347782
20
105.1087487479
30
0.0000000000
10
63.7942310226
20
105.0874440387
30
0.0000000000
10
64.0535485429
20
105.0702645683
30
0.0000000000
10
64.1533309631
20
105.0580245457
30
0.0000000000
11
61.2571895290
21
105.1395387657
31
0.0000000000
11
62.0326528854
21
105.1354028120
31
0.0000000000
11
62.7551401495
21
105.1235229003
31
0.0000000000
11
63.3758661370
21
105.1053229483
31
0.0000000000
11
63.8527566966
21
105.0827683552
31
0.0000000000
11
64.1533309631
21
105.0580245457
31
0.0000000000
0
SPLINE
5
3B9
100
AcDbEntity
8
0
100
AcDbSpline
62
7
6
CONTINUOUS
70
0
71
3
72
13
73
9
74
7
42
0.0000001000
43
0.0000001000
44
0.0000000001
12
-0.0953789978
22
3.0245016414
32
0.0000000000
13
-3.0257417312
23
0.0399287897
33
0.0000000000
40
0.0000000000
40
0.0000000000
40
0.0000000000
40
0.0000000000
40
0.1685996081
40
0.3314437719
40
0.4960748605
40
0.6631795526
40
0.8307629466
40
1.0000000000
40
1.0000000000
40
1.0000000000
40
1.0000000000
10
64.1533042126
20
105.0580283565
30
0.0000000000
10
64.1479439254
20
105.2280049537
30
0.0000000000
10
64.0957574787
20
105.5623213962
30
0.0000000000
10
63.9001975272
20
106.0278121784
30
0.0000000000
10
63.5993677578
20
106.4321411259
30
0.0000000000
10
63.2033935080
20
106.7523548779
30
0.0000000000
10
62.7341310695
20
106.9619843008
30
0.0000000000
10
62.3932603729
20
107.0136854676
30
0.0000000000
10
62.2225711679
20
107.0159379445
30
0.0000000000
11
64.1533042126
21
105.0580283565
31
0.0000000000
11
64.0745456386
21
105.5620958851
31
0.0000000000
11
63.8835695970
21
106.0163510406
31
0.0000000000
11
63.5857758719
21
106.4157214905
31
0.0000000000
11
63.1922438602
21
106.7332498370
31
0.0000000000
11
62.7289329876
21
106.9394094352
31
0.0000000000
11
62.2225711679
21
107.0159379445
31
0.0000000000
0
SPLINE
5
3BA
100
AcDbEntity
8
0
100
AcDbSpline
62
7
6
CONTINUOUS
70
0
71
3
72
11
73
7
74
5
42
0.0000001000
43
0.0000001000
44
0.0000000001
12
0.9659897345
22
0.0002043710
32
0.0000000000
13
0.9522865945
23
0.1621309686
33
0.0000000000
40
0.0000000000
40
0.0000000000
40
0.0000000000
40
0.0000000000
40
0.3456383665
40
0.6462870534
40
0.8696533807
40
1.0000000000
40
1.0000000000
40
1.0000000000
40
1.0000000000
10
61.2571895290
20
106.9940895888
30
0.0000000000
10
61.3684839003
20
106.9941131350
30
0.0000000000
10
61.5765565059
20
106.9946271511
30
0.0000000000
10
61.8566857060
20
106.9967485274
30
0.0000000000
10
62.0670782509
20
107.0030272862
30
0.0000000000
10
62.1811953885
20
107.0088924515
30
0.0000000000
10
62.2225711679
20
107.0159368594
30
0.0000000000
11
61.2571895290
21
106.9940895888
31
0.0000000000
11
61.5910714980
21
106.9949668254
31
0.0000000000
11
61.8814773694
21
106.9981713987
31
0.0000000000
11
62.0971418495
21
107.0049052998
31
0.0000000000
11
62.2225711679
21
107.0159368594
31
0.0000000000
0
SPLINE
5
3BB
100
AcDbEntity
8
0
100
AcDbSpline
62
7
6
CONTINUOUS
70
0
71
3
72
12
73
8
74
6
42
0.0000001000
43
0.0000001000
44
0.0000000001
12
0.6188898196
22
-0.7868351259
32
0.0000000000
13
1.0010664781
23
-0.0001749055
33
0.0000000000
40
0.0000000000
40
0.0000000000
40
0.0000000000
40
0.0000000000
40
0.0554742698
40
0.1924791101
40
0.4067753952
40
0.6852760654
40
1.0000000000
40
1.0000000000
40
1.0000000000
40
1.0000000000
10
59.3442399876
20
107.0266153980
30
0.0000000000
10
59.3556841412
20
107.0120656966
30
0.0000000000
10
59.4316735294
20
107.0155088600
30
0.0000000000
10
59.5568465628
20
106.9975962559
30
0.0000000000
10
59.7723696280
20
106.9983372973
30
0.0000000000
10
60.0396436137
20
106.9938964616
30
0.0000000000
10
60.2381748016
20
106.9941079378
30
0.0000000000
10
60.3431946619
20
106.9940895888
30
0.0000000000
11
59.3442399876
21
107.0266153980
31
0.0000000000
11
59.3980937033
21
107.0130603449
31
0.0000000000
11
59.5349051159
21
107.0034155616
31
0.0000000000
11
59.7493521760
21
106.9976396305
31
0.0000000000
11
60.0281360214
21
106.9948613009
31
0.0000000000
11
60.3431946619
21
106.9940895888
31
0.0000000000
0
SPLINE
5
3BC
100
AcDbEntity
8
0
100
AcDbSpline
62
7
6
CONTINUOUS
70
0
71
3
72
16
73
12
74
10
42
0.0000001000
43
0.0000001000
44
0.0000000001
12
-0.9580396873
22
-18.8142930843
32
0.0000000000
13
12.2894840020
23
-14.2780967664
33
0.0000000000
40
0.0000000000
40
0.0000000000
40
0.0000000000
40
0.0000000000
40
0.1701813574
40
0.3341468858
40
0.4874755063
40
0.6259706801
40
0.7463585794
40
0.8462396790
40
0.9230546274
40
0.9746225037
40
1.0000000000
40
1.0000000000
40
1.0000000000
40
1.0000000000
10
59.3442399876
20
125.8105472619
30
0.0000000000
10
59.2898931561
20
124.7432666166
30
0.0000000000
10
59.1873613445
20
122.6474624799
30
0.0000000000
10
59.0408338919
20
119.5899005211
30
0.0000000000
10
58.9191886515
20
116.7301024481
30
0.0000000000
10
58.8437861137
20
114.1431848791
30
0.0000000000
10
58.8360636146
20
111.8880048137
30
0.0000000000
10
58.9056088252
20
110.0284046470
30
0.0000000000
10
59.0035619837
20
108.5853472741
30
0.0000000000
10
59.1569632774
20
107.6552161863
30
0.0000000000
10
59.2402812092
20
107.1473961808
30
0.0000000000
10
59.3442399876
20
107.0266153980
30
0.0000000000
11
59.3442399876
21
125.8105472619
31
0.0000000000
11
59.1859968139
21
122.6084646452
31
0.0000000000
11
59.0404916252
21
119.5230012479
31
0.0000000000
11
58.9219942692
21
116.6369256845
31
0.0000000000
11
58.8524319371
21
114.0287883857
31
0.0000000000
11
58.8524413424
21
111.7608405538
31
0.0000000000
11
58.9220197881
21
109.8805004080
31
0.0000000000
11
59.0405265602
21
108.4382695976
31
0.0000000000
11
59.1860354493
21
107.4777585571
31
0.0000000000
11
59.3442399876
21
107.0266153980
31
0.0000000000
0
SPLINE
5
3BD
100
AcDbEntity
8
0
100
AcDbSpline
62
7
6
CONTINUOUS
70
0
71
3
72
12
73
8
74
6
42
0.0000001000
43
0.0000001000
44
0.0000000001
12
-1.4568480901
22
-0.0167044206
32
0.0000000000
13
-0.0671618152
23
-1.4553950274
33
0.0000000000
40
0.0000000000
40
0.0000000000
40
0.0000000000
40
0.0000000000
40
0.2187320113
40
0.4304435529
40
0.6303922932
40
0.8198354794
40
1.0000000000
40
1.0000000000
40
1.0000000000
40
1.0000000000
10
60.3431946619
20
126.6829707928
30
0.0000000000
10
60.2369748909
20
126.6817528623
30
0.0000000000
10
60.0265891949
20
126.6528083097
30
0.0000000000
10
59.7455531428
20
126.5201697421
30
0.0000000000
10
59.5263452487
20
126.3205257822
30
0.0000000000
10
59.3864479068
20
126.0769365861
30
0.0000000000
10
59.3482733797
20
125.8979507777
30
0.0000000000
10
59.3442399876
20
125.8105472619
30
0.0000000000
11
60.3431946619
21
126.6829707928
31
0.0000000000
11
60.0279321088
21
126.6364237146
31
0.0000000000
11
59.7491432325
21
126.5044415432
31
0.0000000000
11
59.5347372593
21
126.3072259841
31
0.0000000000
11
59.3979900888
21
126.0674747070
31
0.0000000000
11
59.3442399876
21
125.8105472619
31
0.0000000000
0
SPLINE
5
3BE
100
AcDbEntity
8
0
100
AcDbSpline
62
7
6
CONTINUOUS
70
0
71
3
72
11
73
7
74
5
42
0.0000001000
43
0.0000001000
44
0.0000000001
12
-0.3499251745
22
1.2071917180
32
0.0000000000
13
-1.2567697249
23
0.0170097114
33
0.0000000000
40
0.0000000000
40
0.0000000000
40
0.0000000000
40
0.0000000000
40
0.2282794632
40
0.4722110026
40
0.7312882223
40
1.0000000000
40
1.0000000000
40
1.0000000000
40
1.0000000000
10
62.2225711679
20
126.0075179397
30
0.0000000000
10
62.1959442575
20
126.0993769655
30
0.0000000000
10
62.1062394808
20
126.2806168126
30
0.0000000000
10
61.8861185754
20
126.5008079450
30
0.0000000000
10
61.5924538141
20
126.6492009425
30
0.0000000000
10
61.3697591380
20
126.6814472229
30
0.0000000000
10
61.2571895290
20
126.6829707928
30
0.0000000000
11
62.2225711679
21
126.0075179397
31
0.0000000000
11
62.0969592513
21
126.2654817030
31
0.0000000000
11
61.8812698309
21
126.4833758595
31
0.0000000000
11
61.5908542723
21
126.6306641751
31
0.0000000000
11
61.2571895290
21
126.6829707928
31
0.0000000000
0
SPLINE
5
3BF
100
AcDbEntity
8
0
100
AcDbSpline
62
7
6
CONTINUOUS
70
0
71
3
72
17
73
13
74
11
42
0.0000001000
43
0.0000001000
44
0.0000000001
12
20.2670517608
22
3.3260535470
32
0.0000000000
13
-5.9055598545
23
19.6708002400
33
0.0000000000
40
0.0000000000
40
0.0000000000
40
0.0000000000
40
0.0000000000
40
0.0491906942
40
0.1088884369
40
0.1797579173
40
0.2576116425
40
0.3410305649
40
0.4359456735
40
0.5508022544
40
0.6875337169
40
0.8397719017
40
1.0000000000
40
1.0000000000
40
1.0000000000
40
1.0000000000
10
62.2225711679
20
107.0159368594
30
0.0000000000
10
62.5548879497
20
107.0704738203
30
0.0000000000
10
63.2539582475
20
107.4131349140
30
0.0000000000
10
64.0809068920
20
108.3472561809
30
0.0000000000
10
64.7382786696
20
109.6272627581
30
0.0000000000
10
65.1567883386
20
111.1714359691
30
0.0000000000
10
65.2884551184
20
112.9293977478
30
0.0000000000
10
65.1183408511
20
114.9354108873
30
0.0000000000
10
64.6618345345
20
117.2657780281
30
0.0000000000
10
63.9745135012
20
119.9442069582
30
0.0000000000
10
63.1333436119
20
122.9022183081
30
0.0000000000
10
62.5379833761
20
124.9569129683
30
0.0000000000
10
62.2225711679
20
126.0075179397
30
0.0000000000
11
62.2225711679
21
107.0159368594
31
0.0000000000
11
63.1460645919
21
107.4256177206
31
0.0000000000
11
63.9900367304
21
108.3149925581
31
0.0000000000
11
64.6706176147
21
109.6016057665
31
0.0000000000
11
65.0983149629
21
111.1423157655
31
0.0000000000
11
65.2398516731
21
112.8497306257
31
0.0000000000
11
65.0982492516
21
114.7939625400
31
0.0000000000
11
64.6704897840
21
117.1137972712
31
0.0000000000
11
63.9898700511
21
119.8382816543
31
0.0000000000
11
63.1458761511
21
122.8489092408
31
0.0000000000
11
62.2225711679
21
126.0075179397
31
0.0000000000
0
SPLINE
5
3C0
100
AcDbEntity
8
0
100
AcDbSpline
62
7
6
CONTINUOUS
70
0
71
3
72
13
73
9
74
7
42
0.0000001000
43
0.0000001000
44
0.0000000001
12
0.2106435742
22
1.9933914908
32
0.0000000000
13
2.0024404932
23
-0.0906224143
33
0.0000000000
40
0.0000000000
40
0.0000000000
40
0.0000000000
40
0.0000000000
40
0.0376600248
40
0.1335882360
40
0.2866090553
40
0.4912727299
40
0.7338313893
40
1.0000000000
40
1.0000000000
40
1.0000000000
40
1.0000000000
10
57.3463581180
20
125.7835803052
30
0.0000000000
10
57.3490023987
20
125.8086040296
30
0.0000000000
10
57.4770064726
20
125.8109455466
30
0.0000000000
10
57.6332174088
20
125.8383240930
30
0.0000000000
10
57.9548496435
20
125.8397538206
30
0.0000000000
10
58.3482647356
20
125.8421143957
30
0.0000000000
10
58.8275769417
20
125.8310776122
30
0.0000000000
10
59.1665777195
20
125.8185876101
30
0.0000000000
10
59.3442399876
20
125.8105473294
30
0.0000000000
11
57.3463581180
21
125.7835803052
31
0.0000000000
11
57.4167874643
21
125.8107523162
31
0.0000000000
11
57.6081628225
21
125.8294557443
31
0.0000000000
11
57.9147223404
21
125.8396421651
31
0.0000000000
11
58.3249683275
21
125.8401480110
31
0.0000000000
11
58.8110768703
21
125.8303927013
31
0.0000000000
11
59.3442399876
21
125.8105473294
31
0.0000000000
0
SPLINE
5
3C1
100
AcDbEntity
8
0
100
AcDbSpline
62
7
6
CONTINUOUS
70
0
71
3
72
13
73
9
74
7
42
0.0000001000
43
0.0000001000
44
0.0000000001
12
-4.5633403886
22
-0.0004156233
32
0.0000000000
13
-0.2089057266
23
-4.5585561390
33
0.0000000000
40
0.0000000000
40
0.0000000000
40
0.0000000000
40
0.0000000000
40
0.1666861423
40
0.3333061434
40
0.4999110101
40
0.6665531531
40
0.8332548357
40
1.0000000000
40
1.0000000000
40
1.0000000000
40
1.0000000000
10
60.3431946619
20
128.6468187070
30
0.0000000000
10
60.0896461268
20
128.6467956141
30
0.0000000000
10
59.5803013809
20
128.5818840204
30
0.0000000000
10
58.8672266130
20
128.2958940286
30
0.0000000000
10
58.2485189128
20
127.8397929892
30
0.0000000000
10
57.7644674989
20
127.2425308944
30
0.0000000000
10
57.4460669695
20
126.5430154452
30
0.0000000000
10
57.3579418873
20
126.0369516912
30
0.0000000000
10
57.3463305474
20
125.7835792937
30
0.0000000000
11
60.3431946619
21
128.6468187070
31
0.0000000000
11
59.5886826040
21
128.5504169632
31
0.0000000000
11
58.8829229033
21
128.2675284437
31
0.0000000000
11
58.2710160803
21
127.8163215172
31
0.0000000000
11
57.7921423499
21
127.2255963005
31
0.0000000000
11
57.4771306674
21
126.5331677699
31
0.0000000000
11
57.3463305474
21
125.7835792937
31
0.0000000000
0
SPLINE
5
3C2
100
AcDbEntity
8
0
100
AcDbSpline
62
7
6
CONTINUOUS
70
0
71
3
72
16
73
12
74
10
42
0.0000001000
43
0.0000001000
44
0.0000000001
12
0.0506082268
22
16.6172096414
32
0.0000000000
13
-16.6168646645
23
-0.1184321752
33
0.0000000000
40
0.0000000000
40
0.0000000000
40
0.0000000000
40
0.0000000000
40
0.1022909514
40
0.2072960693
40
0.3172926543
40
0.4335953265
40
0.5549138110
40
0.6760528746
40
0.7910865507
40
0.8988036607
40
1.0000000000
40
1.0000000000
40
1.0000000000
40
1.0000000000
10
105.7302030457
20
103.2939086294
30
0.0000000000
10
105.7319286336
20
103.8605053572
30
0.0000000000
10
105.6325268905
20
105.0110437750
30
0.0000000000
10
105.1898231738
20
106.7201349543
30
0.0000000000
10
104.4222063418
20
108.3979572800
30
0.0000000000
10
103.3113324212
20
109.9841585734
30
0.0000000000
10
101.8781977338
20
111.3783264938
30
0.0000000000
10
100.2152276088
20
112.4743233875
30
0.0000000000
10
98.4530542474
20
113.2239849738
30
0.0000000000
10
96.6997832853
20
113.6374196652
30
0.0000000000
10
95.5407250037
20
113.7317271264
30
0.0000000000
10
94.9802030457
20
113.7277321589
30
0.0000000000
11
105.7302030457
21
103.2939086294
31
0.0000000000
11
105.5876057623
21
104.9877148405
31
0.0000000000
11
105.1495193891
21
106.6767254579
31
0.0000000000
11
104.3898356994
21
108.3392227553
31
0.0000000000
11
103.2818786080
21
109.9227342150
31
0.0000000000
11
101.8375927957
21
111.3292299094
31
0.0000000000
11
100.1574703025
21
112.4379984525
31
0.0000000000
11
98.3984549282
21
113.1862491122
31
0.0000000000
11
96.6569482245
21
113.5999314073
31
0.0000000000
11
94.9802030457
21
113.7277321589
31
0.0000000000
0
SPLINE
5
3C3
100
AcDbEntity
8
0
100
AcDbSpline
62
7
6
CONTINUOUS
70
0
71
3
72
10
73
6
74
4
42
0.0000001000
43
0.0000001000
44
0.0000000001
12
-0.1150397529
22
3.2365261836
32
0.0000000000
13
0.0775434484
23
3.2376415637
33
0.0000000000
40
0.0000000000
40
0.0000000000
40
0.0000000000
40
0.0000000000
40
0.2902705443
40
0.6262739225
40
1.0000000000
40
1.0000000000
40
1.0000000000
40
1.0000000000
10
67.5630346090
20
93.3454400696
30
0.0000000000
10
67.5519037251
20
93.6585961419
30
0.0000000000
10
67.5386937245
20
94.3346336512
30
0.0000000000
10
67.5401235999
20
95.4142008786
30
0.0000000000
10
67.5533752079
20
96.1802905752
30
0.0000000000
10
67.5630352108
20
96.5836209359
30
0.0000000000
11
67.5630346090
21
93.3454400696
31
0.0000000000
11
67.5426885277
21
94.2852813523
31
0.0000000000
11
67.5428123017
21
95.3734518183
31
0.0000000000
11
67.5630352108
21
96.5836209359
31
0.0000000000
0
SPLINE
5
3C4
100
AcDbEntity
8
0
100
AcDbSpline
62
7
6
CONTINUOUS
70
0
71
3
72
10
73
6
74
4
42
0.0000001000
43
0.0000001000
44
0.0000000001
12
-0.0775632665
22
3.2376415936
32
0.0000000000
13
0.1151472560
23
3.2365228655
33
0.0000000000
40
0.0000000000
40
0.0000000000
40
0.0000000000
40
0.0000000000
40
0.3737473338
40
0.7097929669
40
1.0000000000
40
1.0000000000
40
1.0000000000
40
1.0000000000
10
67.5630350822
20
110.0041964843
30
0.0000000000
10
67.5533720608
20
110.4075497888
30
0.0000000000
10
67.5401176017
20
111.1737081230
30
0.0000000000
10
67.5386795871
20
112.2532755030
30
0.0000000000
10
67.5518960244
20
112.9292902492
30
0.0000000000
10
67.5630348722
20
113.2423774820
30
0.0000000000
11
67.5630350822
21
110.0041964843
31
0.0000000000
11
67.5428055494
21
111.2144345293
31
0.0000000000
11
67.5426784752
21
112.3027420098
31
0.0000000000
11
67.5630348722
21
113.2423774820
31
0.0000000000
0
SPLINE
5
3C5
100
AcDbEntity
8
0
100
AcDbSpline
62
7
6
CONTINUOUS
70
0
71
3
72
13
73
9
74
7
42
0.0000001000
43
0.0000001000
44
0.0000000001
12
-2.0023372765
22
-0.0906177433
32
0.0000000000
13
-0.2106327164
23
1.9932887406
33
0.0000000000
40
0.0000000000
40
0.0000000000
40
0.0000000000
40
0.0000000000
40
0.2565898132
40
0.4881529867
40
0.6921389719
40
0.8544222162
40
0.9596890920
40
1.0000000000
40
1.0000000000
40
1.0000000000
40
1.0000000000
10
59.3442399876
20
80.7772699293
30
0.0000000000
10
59.1729802050
20
80.7695193994
30
0.0000000000
10
58.8476900708
20
80.7574530089
30
0.0000000000
10
58.3827922138
20
80.7462532975
30
0.0000000000
10
57.9909012244
20
80.7478549679
30
0.0000000000
10
57.6561832577
20
80.7475927276
30
0.0000000000
10
57.4893804305
20
80.7770032314
30
0.0000000000
10
57.3491883830
20
80.7774531942
30
0.0000000000
10
57.3463581176
20
80.8042369538
30
0.0000000000
11
59.3442399876
21
80.7772699293
31
0.0000000000
11
58.8302964328
21
80.7579858151
31
0.0000000000
11
58.3662589560
21
80.7481290159
31
0.0000000000
11
57.9573924985
21
80.7475991497
31
0.0000000000
11
57.6322505507
21
80.7570192706
31
0.0000000000
11
57.4221261115
21
80.7761721580
31
0.0000000000
11
57.3463581176
21
80.8042369538
31
0.0000000000
0
SPLINE
5
3C6
100
AcDbEntity
8
0
100
AcDbSpline
62
7
6
CONTINUOUS
70
0
71
3
72
13
73
9
74
7
42
0.0000001000
43
0.0000001000
44
0.0000000001
12
0.2089057346
22
-4.5585561225
32
0.0000000000
13
4.5633403724
23
-0.0004155911
33
0.0000000000
40
0.0000000000
40
0.0000000000
40
0.0000000000
40
0.0000000000
40
0.1668771086
40
0.3336071613
40
0.5002466434
40
0.6668541576
40
0.8334458390
40
1.0000000000
40
1.0000000000
40
1.0000000000
40
1.0000000000
10
57.3463305477
20
80.8042379589
30
0.0000000000
10
57.3579510760
20
80.5506650706
30
0.0000000000
10
57.4461715845
20
80.0443559562
30
0.0000000000
10
57.7648306954
20
79.3446901225
30
0.0000000000
10
58.2490549686
20
78.7475123665
30
0.0000000000
10
58.8678389367
20
78.2915878155
30
0.0000000000
10
59.5807515742
20
78.0058491234
30
0.0000000000
10
60.0898468861
20
77.9410216247
30
0.0000000000
10
60.3431946619
20
77.9409985519
30
0.0000000000
11
57.3463305477
21
80.8042379589
31
0.0000000000
11
57.4773100188
21
80.0540695807
31
0.0000000000
11
57.7925304868
21
79.3615938282
31
0.0000000000
11
58.2715406169
21
78.7709948479
31
0.0000000000
11
58.8835671736
21
78.3199299850
31
0.0000000000
11
59.5892702842
21
78.0372476911
31
0.0000000000
11
60.3431946619
21
77.9409985519
31
0.0000000000
0
SPLINE
5
3C7
100
AcDbEntity
8
0
100
AcDbSpline
62
7
6
CONTINUOUS
70
0
71
3
72
11
73
7
74
5
42
0.0000001000
43
0.0000001000
44
0.0000000001
12
0.2380704810
22
0.4927060667
32
0.0000000000
13
0.5472082072
23
0.0000009792
33
0.0000000000
40
0.0000000000
40
0.0000000000
40
0.0000000000
40
0.0000000000
40
0.1950564472
40
0.4318530116
40
0.7055015761
40
1.0000000000
40
1.0000000000
40
1.0000000000
40
1.0000000000
10
67.0803446070
20
96.3769546987
30
0.0000000000
10
67.0958236678
20
96.4089898637
30
0.0000000000
10
67.1497942917
20
96.4702091265
30
0.0000000000
10
67.2632662767
20
96.5336459539
30
0.0000000000
10
67.4054186162
20
96.5744332784
30
0.0000000000
10
67.5093180002
20
96.5836208403
30
0.0000000000
10
67.5630353184
20
96.5836209364
30
0.0000000000
11
67.0803446070
21
96.3769546987
31
0.0000000000
11
67.1477375418
21
96.4597246835
31
0.0000000000
11
67.2590703340
21
96.5260210966
31
0.0000000000
11
67.4025636116
21
96.5688295956
31
0.0000000000
11
67.5630353184
21
96.5836209364
31
0.0000000000
0
SPLINE
5
3C8
100
AcDbEntity
8
0
100
AcDbSpline
62
7
6
CONTINUOUS
70
0
71
3
72
11
73
7
74
5
42
0.0000001000
43
0.0000001000
44
0.0000000001
12
-0.5472101830
22
0.0000031531
32
0.0000000000
13
-0.2380756147
23
0.4927057805
33
0.0000000000
40
0.0000000000
40
0.0000000000
40
0.0000000000
40
0.0000000000
40
0.2947929814
40
0.5689064668
40
0.8054383977
40
1.0000000000
40
1.0000000000
40
1.0000000000
40
1.0000000000
10
67.5630353184
20
110.0041964836
30
0.0000000000
10
67.5092640780
20
110.0041967934
30
0.0000000000
10
67.4052253132
20
110.0134064123
30
0.0000000000
10
67.2629950585
20
110.0542725005
30
0.0000000000
10
67.1496144748
20
110.1177712377
30
0.0000000000
10
67.0957847399
20
110.1789090138
30
0.0000000000
10
67.0803446155
20
110.2108628892
30
0.0000000000
11
67.5630353184
21
110.0041964836
31
0.0000000000
11
67.4024040104
21
110.0190187487
31
0.0000000000
11
67.2586851274
21
110.0619627802
31
0.0000000000
11
67.1475268396
21
110.1282700500
31
0.0000000000
11
67.0803446155
21
110.2108628892
31
0.0000000000
0
SPLINE
5
3C9
100
AcDbEntity
8
0
100
AcDbSpline
62
7
6
CONTINUOUS
70
0
71
3
72
11
73
7
74
5
42
0.0000001000
43
0.0000001000
44
0.0000000001
12
0.1882100832
22
-0.5774783878
32
0.0000000000
13
0.6073749449
23
0.0000030031
33
0.0000000000
40
0.0000000000
40
0.0000000000
40
0.0000000000
40
0.0000000000
40
0.2307995044
40
0.4756472599
40
0.7337556723
40
1.0000000000
40
1.0000000000
40
1.0000000000
40
1.0000000000
10
67.0803446261
20
113.5487716190
30
0.0000000000
10
67.0948242241
20
113.5043443771
30
0.0000000000
10
67.1432165994
20
113.4181207784
30
0.0000000000
10
67.2576178537
20
113.3194988445
30
0.0000000000
10
67.4023890544
20
113.2566487799
30
0.0000000000
10
67.5091319405
20
113.2423772151
30
0.0000000000
10
67.5630353184
20
113.2423774816
30
0.0000000000
11
67.0803446261
21
113.5487716190
31
0.0000000000
11
67.1478541142
21
113.4259163536
31
0.0000000000
11
67.2594001615
21
113.3275626565
31
0.0000000000
11
67.4028094102
21
113.2642367066
31
0.0000000000
11
67.5630353184
21
113.2423774816
31
0.0000000000
0
SPLINE
5
3CA
100
AcDbEntity
8
0
100
AcDbSpline
62
7
6
CONTINUOUS
70
0
71
3
72
16
73
12
74
10
42
0.0000001000
43
0.0000001000
44
0.0000000001
12
-16.6168440472
22
0.1224247130
32
0.0000000000
13
0.0512327363
23
-16.6172160456
33
0.0000000000
40
0.0000000000
40
0.0000000000
40
0.0000000000
40
0.0000000000
40
0.1011291744
40
0.2089186509
40
0.3239518334
40
0.4450326214
40
0.5663209950
40
0.6826380482
40
0.7926617917
40
0.8976994041
40
1.0000000000
40
1.0000000000
40
1.0000000000
40
1.0000000000
10
94.9802030457
20
113.7277321589
30
0.0000000000
10
94.4200538060
20
113.7318590622
30
0.0000000000
10
93.2609668637
20
113.6374361208
30
0.0000000000
10
91.5076381156
20
113.2241457150
30
0.0000000000
10
89.7454103802
20
112.4744018900
30
0.0000000000
10
88.0827980379
20
111.3787850735
30
0.0000000000
10
86.6498463478
20
109.9850251776
30
0.0000000000
10
85.5387213748
20
108.3989211762
30
0.0000000000
10
84.7707850618
20
106.7207819988
30
0.0000000000
10
84.3279179782
20
105.0113325622
30
0.0000000000
10
84.2284559992
20
103.8605589973
30
0.0000000000
10
84.2302030457
20
103.2939086294
30
0.0000000000
11
94.9802030457
21
113.7277321589
31
0.0000000000
11
93.3045621147
21
113.6001183336
31
0.0000000000
11
91.5618666600
21
113.1862332730
31
0.0000000000
11
89.8028664669
21
112.4379654319
31
0.0000000000
11
88.1235006866
21
111.3298065427
31
0.0000000000
11
86.6794362755
21
109.9237992523
31
0.0000000000
11
85.5711425157
21
108.3402305311
31
0.0000000000
11
84.8111235095
21
106.6773892740
31
0.0000000000
11
84.3728278018
21
104.9878742145
31
0.0000000000
11
84.2302030457
21
103.2939086294
31
0.0000000000
0
SPLINE
5
3CB
100
AcDbEntity
8
0
100
AcDbSpline
62
7
6
CONTINUOUS
70
0
71
3
72
24
73
20
74
18
42
0.0000001000
43
0.0000001000
44
0.0000000001
12
-12.5867325297
22
-16.5565526397
32
0.0000000000
13
0.9435049573
23
-20.7763102952
33
0.0000000000
40
0.0000000000
40
0.0000000000
40
0.0000000000
40
0.0000000000
40
0.0159190470
40
0.0414472047
40
0.0730011065
40
0.1085327928
40
0.1473758913
40
0.1896062714
40
0.2356842289
40
0.2860082100
40
0.3404382516
40
0.3984208933
40
0.4598017808
40
0.5254035213
40
0.5969590550
40
0.6769638008
40
0.7687064055
40
0.8755101306
40
1.0000000000
40
1.0000000000
40
1.0000000000
40
1.0000000000
10
57.3463305475
20
101.5506452826
30
0.0000000000
10
57.2795409519
20
101.4627904360
30
0.0000000000
10
57.2118117440
20
101.1712886082
30
0.0000000000
10
57.1186285311
20
100.6807640542
30
0.0000000000
10
57.0452337281
20
100.0398195238
30
0.0000000000
10
56.9800938636
20
99.3092617581
30
0.0000000000
10
56.9279163487
20
98.5022082028
30
0.0000000000
10
56.8870817921
20
97.6217189122
30
0.0000000000
10
56.8587836605
20
96.6609853566
30
0.0000000000
10
56.8442843972
20
95.6154016343
30
0.0000000000
10
56.8448234787
20
94.4871806982
30
0.0000000000
10
56.8603737291
20
93.2824196753
30
0.0000000000
10
56.8897886177
20
92.0004551202
30
0.0000000000
10
56.9318502213
20
90.6247079717
30
0.0000000000
10
56.9861974018
20
89.1201921268
30
0.0000000000
10
57.0536282752
20
87.4348224760
30
0.0000000000
10
57.1358417917
20
85.5054960121
30
0.0000000000
10
57.2348222683
20
83.2682114957
30
0.0000000000
10
57.3071782780
20
81.6663847056
30
0.0000000000
10
57.3463305477
20
80.8042379872
30
0.0000000000
11
57.3463305475
21
101.5506452826
31
0.0000000000
11
57.2297007774
21
101.2407881959
31
0.0000000000
11
57.1318456112
21
100.7189563992
31
0.0000000000
11
57.0510210395
21
100.0677033491
31
0.0000000000
11
56.9849729469
21
99.3316827174
31
0.0000000000
11
56.9317829413
21
98.5255876837
31
0.0000000000
11
56.8906807892
21
97.6482542167
31
0.0000000000
11
56.8620288817
21
96.6903660471
31
0.0000000000
11
56.8470831681
21
95.6438485591
31
0.0000000000
11
56.8470825259
21
94.5118276450
31
0.0000000000
11
56.8620287196
21
93.3060133652
31
0.0000000000
11
56.8906847797
21
92.0297523539
31
0.0000000000
11
56.9317938895
21
90.6660050045
31
0.0000000000
11
56.9849912189
21
89.1787639625
31
0.0000000000
11
57.0510459533
21
87.5161590888
31
0.0000000000
11
57.1318738667
21
85.6098346110
31
0.0000000000
11
57.2297199906
21
83.3907164341
31
0.0000000000
11
57.3463305477
21
80.8042379872
31
0.0000000000
0
SPLINE
5
3CC
100
AcDbEntity
8
0
100
AcDbSpline
62
7
6
CONTINUOUS
70
0
71
3
72
24
73
20
74
18
42
0.0000001000
43
0.0000001000
44
0.0000000001
12
18.4900445485
22
12.2818227627
32
0.0000000000
13
18.4905602640
23
-12.2810408793
33
0.0000000000
40
0.0000000000
40
0.0000000000
40
0.0000000000
40
0.0000000000
40
0.0083153342
40
0.0339735039
40
0.0780797062
40
0.1410058084
40
0.2191608506
40
0.3033934685
40
0.3851401040
40
0.4623712146
40
0.5376891347
40
0.6149211341
40
0.6966684474
40
0.7808991378
40
0.8590463523
40
0.9219600819
40
0.9660529997
40
0.9916963180
40
1.0000000000
40
1.0000000000
40
1.0000000000
40
1.0000000000
10
110.1302030457
20
86.2939086294
30
0.0000000000
10
110.1814533454
20
86.3279511162
30
0.0000000000
10
110.3911754746
20
86.4665370405
30
0.0000000000
10
110.8762141984
20
86.7804165795
30
0.0000000000
10
111.7103764464
20
87.2983886702
30
0.0000000000
10
112.8990987283
20
87.9807690119
30
0.0000000000
10
114.3898730039
20
88.7299455394
30
0.0000000000
10
116.0683137159
20
89.4055342531
30
0.0000000000
10
117.8061400754
20
89.8899371242
30
0.0000000000
10
119.5279531413
20
90.1338914085
30
0.0000000000
10
121.2338026194
20
90.1337980924
30
0.0000000000
10
122.9556007919
20
89.8896597328
30
0.0000000000
10
124.6933775946
20
89.4050934598
30
0.0000000000
10
126.3717046780
20
88.7294066794
30
0.0000000000
10
127.8622953229
20
87.9802312424
30
0.0000000000
10
129.0507790908
20
87.2979341943
30
0.0000000000
10
129.8846805293
20
86.7801101306
30
0.0000000000
10
130.3694615483
20
86.4663744152
30
0.0000000000
10
130.5790231349
20
86.3279012488
30
0.0000000000
10
130.6302030457
20
86.2939086294
30
0.0000000000
11
110.1302030457
21
86.2939086294
31
0.0000000000
11
110.2841956188
21
86.3956709469
31
0.0000000000
11
110.7623155953
21
86.7051574882
31
0.0000000000
11
111.5944728511
21
87.2209462899
31
0.0000000000
11
112.8068844806
21
87.9145555451
31
0.0000000000
11
114.3593896449
21
88.6887574802
31
0.0000000000
11
116.0969592125
21
89.3792598699
31
0.0000000000
11
117.8469602419
21
89.8589780176
31
0.0000000000
11
119.5449421210
21
90.0951558836
31
0.0000000000
11
121.2168028665
21
90.0950655944
31
0.0000000000
11
122.9147795661
21
89.8587073504
31
0.0000000000
11
124.6647502609
21
89.3788216632
31
0.0000000000
11
126.4022291105
21
88.6882068646
31
0.0000000000
11
127.9545392541
21
87.9140032069
31
0.0000000000
11
129.1666898902
21
87.2204908135
31
0.0000000000
11
129.9985860692
21
86.7048405266
31
0.0000000000
11
130.4764238395
21
86.3955246853
31
0.0000000000
11
130.6302030457
21
86.2939086294
31
0.0000000000
0
SPLINE
5
3CD
100
AcDbEntity
8
0
100
AcDbSpline
62
7
6
CONTINUOUS
70
0
71
3
72
24
73
20
74
18
42
0.0000001000
43
0.0000001000
44
0.0000000001
12
-0.9435056611
22
-20.7763109054
32
0.0000000000
13
12.5866190802
23
-16.5566396923
33
0.0000000000
40
0.0000000000
40
0.0000000000
40
0.0000000000
40
0.0000000000
40
0.1245122782
40
0.2313274915
40
0.3230683586
40
0.4030693885
40
0.4746221528
40
0.5402204917
40
0.6015995348
40
0.6595824201
40
0.7140120914
40
0.7643347883
40
0.8104117242
40
0.8526417859
40
0.8914845972
40
0.9270159996
40
0.9585671769
40
0.9840867770
40
1.0000000000
40
1.0000000000
40
1.0000000000
40
1.0000000000
10
57.3463305474
20
125.7835792654
30
0.0000000000
10
57.3071712009
20
124.9212773308
30
0.0000000000
10
57.2348047033
20
123.3192157318
30
0.0000000000
10
57.1358149626
20
121.0817083899
30
0.0000000000
10
57.0536010935
20
119.1523400071
30
0.0000000000
10
56.9861745158
20
117.4670271831
30
0.0000000000
10
56.9318324487
20
115.9625796922
30
0.0000000000
10
56.8897758610
20
114.5868879398
30
0.0000000000
10
56.8603657259
20
113.3049579223
30
0.0000000000
10
56.8448204422
20
112.1002104592
30
0.0000000000
10
56.8442870947
20
110.9719992624
30
0.0000000000
10
56.8587921182
20
109.9264341396
30
0.0000000000
10
56.8870958170
20
108.9657189186
30
0.0000000000
10
56.9279364628
20
108.0852411585
30
0.0000000000
10
56.9801208090
20
107.2781942250
30
0.0000000000
10
57.0452682029
20
106.5476598609
30
0.0000000000
10
57.1186654296
20
105.9067971781
30
0.0000000000
10
57.2118414429
20
105.4163875417
30
0.0000000000
10
57.2795659886
20
105.1249951437
30
0.0000000000
10
57.3463305473
20
105.0371719773
30
0.0000000000
11
57.3463305474
21
125.7835792654
31
0.0000000000
11
57.2296991987
21
123.1966351500
31
0.0000000000
11
57.1318433098
21
120.9772781752
31
0.0000000000
11
57.0510183975
21
119.0709896806
31
0.0000000000
11
56.9849687716
21
117.4084618972
31
0.0000000000
11
56.9317761549
21
115.9212782747
31
0.0000000000
11
56.8906724705
21
114.5576014962
31
0.0000000000
11
56.8620212131
21
113.2813787081
31
0.0000000000
11
56.8470797855
21
112.0755592640
31
0.0000000000
11
56.8470861460
21
110.9435460171
31
0.0000000000
11
56.8620375151
21
109.8970552893
31
0.0000000000
11
56.8906949496
21
108.9391885124
31
0.0000000000
11
56.9318034203
21
108.0618619416
31
0.0000000000
11
56.9850006444
21
107.2557733457
31
0.0000000000
11
57.0510581282
21
106.5197594633
31
0.0000000000
11
57.1318894128
21
105.8685643239
31
0.0000000000
11
57.2297310893
21
105.3469110614
31
0.0000000000
11
57.3463305473
21
105.0371719773
31
0.0000000000
0
SPLINE
5
3CE
100
AcDbEntity
8
0
100
AcDbSpline
62
7
6
CONTINUOUS
70
0
71
3
72
13
73
9
74
7
42
0.0000001000
43
0.0000001000
44
0.0000000001
12
0.0194034309
22
-3.1185794736
32
0.0000000000
13
3.1186286270
23
-0.0083613787
33
0.0000000000
40
0.0000000000
40
0.0000000000
40
0.0000000000
40
0.0000000000
40
0.1661464856
40
0.3268034795
40
0.4903159535
40
0.6578340648
40
0.8274084791
40
1.0000000000
40
1.0000000000
40
1.0000000000
40
1.0000000000
10
57.3463581180
20
101.5506406820
30
0.0000000000
10
57.3474327220
20
101.3779270089
30
0.0000000000
10
57.3941870716
20
101.0368096518
30
0.0000000000
10
57.5909643468
20
100.5611161048
30
0.0000000000
10
57.9015756736
20
100.1481309928
30
0.0000000000
10
58.3149894233
20
99.8222441748
30
0.0000000000
10
58.8073933330
20
99.6111081712
30
0.0000000000
10
59.1648237016
20
99.5616817534
30
0.0000000000
10
59.3442399876
20
99.5612007191
30
0.0000000000
11
57.3463581180
21
101.5506406820
31
0.0000000000
11
57.4167874643
21
101.0372984802
31
0.0000000000
11
57.6081628225
21
100.5742565414
31
0.0000000000
11
57.9147223404
21
100.1667562205
31
0.0000000000
11
58.3249683275
21
99.8432907205
31
0.0000000000
11
58.8110768703
21
99.6350316474
31
0.0000000000
11
59.3442399876
21
99.5612007191
31
0.0000000000
0
SPLINE
5
3CF
100
AcDbEntity
8
0
100
AcDbSpline
62
7
6
CONTINUOUS
70
0
71
3
72
13
73
9
74
7
42
0.0000001000
43
0.0000001000
44
0.0000000001
12
-3.0008465903
22
0.0000282612
32
0.0000000000
13
-2.4750954750
23
1.6967565085
33
0.0000000000
40
0.0000000000
40
0.0000000000
40
0.0000000000
40
0.0000000000
40
0.2514364470
40
0.4866532691
40
0.6906465625
40
0.8503884840
40
0.9556646157
40
1.0000000000
40
1.0000000000
40
1.0000000000
40
1.0000000000
10
60.3431946619
20
101.4482784932
30
0.0000000000
10
60.0916872603
20
101.4482808618
30
0.0000000000
10
59.6050648889
20
101.4510520079
30
0.0000000000
10
58.9135919342
20
101.4605522696
30
0.0000000000
10
58.3167373632
20
101.4805586524
30
0.0000000000
10
57.8427071820
20
101.4911579228
30
0.0000000000
10
57.5444492080
20
101.5303430060
30
0.0000000000
10
57.3829086506
20
101.5255701969
30
0.0000000000
10
57.3463305475
20
101.5506456475
30
0.0000000000
11
60.3431946619
21
101.4482784932
31
0.0000000000
11
59.5886826044
21
101.4521915985
31
0.0000000000
11
58.8829229040
21
101.4634566483
31
0.0000000000
11
58.2710160812
21
101.4808008138
31
0.0000000000
11
57.7921423508
21
101.5024091267
31
0.0000000000
11
57.4771306680
21
101.5263156020
31
0.0000000000
11
57.3463305475
21
101.5506456475
31
0.0000000000
0
SPLINE
5
3D0
100
AcDbEntity
8
0
100
AcDbSpline
62
7
6
CONTINUOUS
70
0
71
3
72
13
73
9
74
7
42
0.0000001000
43
0.0000001000
44
0.0000000001
12
2.4750952329
22
1.6967560313
32
0.0000000000
13
3.0008461208
23
0.0000282958
33
0.0000000000
40
0.0000000000
40
0.0000000000
40
0.0000000000
40
0.0000000000
40
0.0443953349
40
0.1497409311
40
0.3095282331
40
0.5135613977
40
0.7487593593
40
1.0000000000
40
1.0000000000
40
1.0000000000
40
1.0000000000
10
57.3463305473
20
105.0371716112
30
0.0000000000
10
57.3829581079
20
105.0622809620
30
0.0000000000
10
57.5446449141
20
105.0574752687
30
0.0000000000
10
57.8430698553
20
105.0966839741
30
0.0000000000
10
58.3172567270
20
105.1072749019
30
0.0000000000
10
58.9141775516
20
105.1272774203
30
0.0000000000
10
59.6054754363
20
105.1367684038
30
0.0000000000
10
60.0918831612
20
105.1395363960
30
0.0000000000
10
60.3431946619
20
105.1395387657
30
0.0000000000
11
57.3463305473
21
105.0371716112
31
0.0000000000
11
57.4773100168
21
105.0615211040
31
0.0000000000
11
57.7925304839
21
105.0854304463
31
0.0000000000
11
58.2715406140
21
105.1070352928
31
0.0000000000
11
58.8835671713
21
105.1243746999
31
0.0000000000
11
59.5892702829
21
105.1356318301
31
0.0000000000
11
60.3431946619
21
105.1395387657
31
0.0000000000
0
SPLINE
5
3D1
100
AcDbEntity
8
0
100
AcDbSpline
62
7
6
CONTINUOUS
70
0
71
3
72
13
73
9
74
7
42
0.0000001000
43
0.0000001000
44
0.0000000001
12
-3.1186281187
22
-0.0083613833
32
0.0000000000
13
-0.0194034278
23
-3.1185789652
33
0.0000000000
40
0.0000000000
40
0.0000000000
40
0.0000000000
40
0.0000000000
40
0.1662574094
40
0.3269934726
40
0.4905376341
40
0.6580290666
40
0.8275229215
40
1.0000000000
40
1.0000000000
40
1.0000000000
40
1.0000000000
10
59.3442399876
20
107.0266165398
30
0.0000000000
10
59.1714083103
20
107.0261531592
30
0.0000000000
10
58.8299330143
20
106.9806480022
30
0.0000000000
10
58.3532385722
20
106.7857206242
30
0.0000000000
10
57.9388688537
20
106.4768193722
30
0.0000000000
10
57.6112676814
20
106.0648591414
30
0.0000000000
10
57.3982103343
20
105.5735245005
30
0.0000000000
10
57.3474736665
20
105.2164710353
30
0.0000000000
10
57.3463581176
20
105.0371765722
30
0.0000000000
11
59.3442399876
21
107.0266165398
31
0.0000000000
11
58.8302964328
21
106.9580523139
31
0.0000000000
11
58.3662589560
21
106.7684509928
31
0.0000000000
11
57.9573924985
21
106.4635507139
31
0.0000000000
11
57.6322505507
21
106.0547385349
31
0.0000000000
11
57.4221261115
21
105.5697072769
31
0.0000000000
11
57.3463581176
21
105.0371765722
31
0.0000000000
0
SPLINE
5
3D2
100
AcDbEntity
8
0
100
AcDbSpline
62
7
6
CONTINUOUS
70
0
71
3
72
24
73
20
74
18
42
0.0000001000
43
0.0000001000
44
0.0000000001
12
23.0371833622
22
0.0000000006
32
0.0000000000
13
23.0371833622
23
-0.0000000006
33
0.0000000000
40
0.0000000000
40
0.0000000000
40
0.0000000000
40
0.0000000000
40
0.0081362114
40
0.0330975461
40
0.0759511162
40
0.1371464783
40
0.2137742954
40
0.2978716165
40
0.3811890927
40
0.4609672336
40
0.5390949072
40
0.6188578872
40
0.7021578478
40
0.7862510470
40
0.8628803603
40
0.9240731941
40
0.9669189891
40
0.9918680661
40
1.0000000000
40
1.0000000000
40
1.0000000000
40
1.0000000000
10
131.1302030457
20
119.7939086294
30
0.0000000000
10
131.1926815106
20
119.7939086294
30
0.0000000000
10
130.6901773624
20
119.5807440645
30
0.0000000000
10
130.4724063961
20
119.3605292335
30
0.0000000000
10
129.4473141081
20
118.8197090430
30
0.0000000000
10
128.2972522042
20
118.1880926528
30
0.0000000000
10
126.7249441993
20
117.4572648363
30
0.0000000000
10
124.9777104549
20
116.7975738624
30
0.0000000000
10
123.1353963901
20
116.3133276823
30
0.0000000000
10
121.2949836539
20
116.0663598775
30
0.0000000000
10
119.4641059907
20
116.0664621661
30
0.0000000000
10
117.6239679996
20
116.3135600873
30
0.0000000000
10
115.7819540087
20
116.7978232684
30
0.0000000000
10
114.0348872353
20
117.4575139987
30
0.0000000000
10
112.4626248900
20
118.1883580498
30
0.0000000000
10
111.3126438542
20
118.8199636532
30
0.0000000000
10
110.2877174988
20
119.3606973868
30
0.0000000000
10
110.0700113865
20
119.5808562037
30
0.0000000000
10
109.5677574286
20
119.7939086294
30
0.0000000000
10
109.6302030457
20
119.7939086294
30
0.0000000000
11
131.1302030457
21
119.7939086294
31
0.0000000000
11
130.9702567233
21
119.6961886153
31
0.0000000000
11
130.4770471894
21
119.4005299800
31
0.0000000000
11
129.6209502915
21
118.9088874374
31
0.0000000000
11
128.3759289207
21
118.2475480427
31
0.0000000000
11
126.7751425594
21
117.5034186618
31
0.0000000000
11
124.9597327412
21
116.8269041294
31
0.0000000000
11
123.1015031059
21
116.3461974751
31
0.0000000000
11
121.2794093723
21
116.1059533038
31
0.0000000000
11
119.4795678326
21
116.1060509214
31
0.0000000000
11
117.6578416682
21
116.3464109367
31
0.0000000000
11
115.8000274559
21
116.8271122915
31
0.0000000000
11
113.9847272353
21
117.5036489851
31
0.0000000000
11
112.3839258169
21
118.2478277467
31
0.0000000000
11
111.1389671979
21
118.9091611126
31
0.0000000000
11
110.2830310310
21
119.4007238687
31
0.0000000000
11
109.7900664179
21
119.6962418588
31
0.0000000000
11
109.6302030457
21
119.7939086294
31
0.0000000000
0
SPLINE
5
3D3
100
AcDbEntity
8
0
100
AcDbSpline
62
7
6
CONTINUOUS
70
0
71
3
72
11
73
7
74
5
42
0.0000001000
43
0.0000001000
44
0.0000000001
12
-0.6073777622
22
0.0000027444
32
0.0000000000
13
-0.1882081211
23
-0.5774819904
33
0.0000000000
40
0.0000000000
40
0.0000000000
40
0.0000000000
40
0.0000000000
40
0.2669302878
40
0.5257294040
40
0.7700433772
40
1.0000000000
40
1.0000000000
40
1.0000000000
40
1.0000000000
10
67.5630353184
20
93.3454400699
30
0.0000000000
10
67.5089928115
20
93.3454403141
30
0.0000000000
10
67.4019666663
20
93.3310945253
30
0.0000000000
10
67.2570920244
20
93.2680058045
30
0.0000000000
10
67.1429519365
20
93.1693056981
30
0.0000000000
10
67.0947711939
20
93.0833113342
30
0.0000000000
10
67.0803446260
20
93.0390460648
30
0.0000000000
11
67.5630353184
21
93.3454400699
31
0.0000000000
11
67.4024036806
21
93.3234671336
31
0.0000000000
11
67.2586849589
21
93.2598019413
31
0.0000000000
11
67.1475267907
21
93.1614977540
31
0.0000000000
11
67.0803446260
21
93.0390460648
31
0.0000000000
0
SPLINE
5
3D4
100
AcDbEntity
8
0
100
AcDbSpline
62
7
6
CONTINUOUS
70
0
71
3
72
14
73
10
74
8
42
0.0000001000
43
0.0000001000
44
0.0000000001
12
3.4265601153
22
12.7691238923
32
0.0000000000
13
1.2925207605
23
13.1575540768
33
0.0000000000
40
0.0000000000
40
0.0000000000
40
0.0000000000
40
0.0000000000
40
0.2104312815
40
0.3899452961
40
0.5426074717
40
0.6748083853
40
0.7924533633
40
0.9002051204
40
1.0000000000
40
1.0000000000
40
1.0000000000
40
1.0000000000
10
64.1533309993
20
80.1585322806
30
0.0000000000
10
64.3936828114
20
81.0542066488
30
0.0000000000
10
64.8368650663
20
82.7145556707
30
0.0000000000
10
65.4413955034
20
85.0281476322
30
0.0000000000
10
65.9401365631
20
87.0129872146
30
0.0000000000
10
66.3460718365
20
88.7398515892
30
0.0000000000
10
66.6712216596
20
90.2820774151
30
0.0000000000
10
66.9199870439
20
91.6937518220
30
0.0000000000
10
67.0373489748
20
92.6013610166
30
0.0000000000
10
67.0803446260
20
93.0390465249
30
0.0000000000
11
64.1533309993
21
80.1585322806
31
0.0000000000
11
64.8694592451
21
82.8468727432
31
0.0000000000
11
65.4674194609
21
85.1436443450
31
0.0000000000
11
65.9567543427
21
87.1017568301
31
0.0000000000
11
66.3538088202
21
88.8038728587
31
0.0000000000
11
66.6713577223
21
90.3264828955
31
0.0000000000
11
66.9149131346
21
91.7300822422
31
0.0000000000
11
67.0803446260
21
93.0390465249
31
0.0000000000
0
SPLINE
5
3D5
100
AcDbEntity
8
0
100
AcDbSpline
62
7
6
CONTINUOUS
70
0
71
3
72
10
73
6
74
4
42
0.0000001000
43
0.0000001000
44
0.0000000001
12
0.0855996028
22
3.3368073809
32
0.0000000000
13
-0.0649236578
23
3.3372736939
33
0.0000000000
40
0.0000000000
40
0.0000000000
40
0.0000000000
40
0.0000000000
40
0.3036488562
40
0.6362059025
40
1.0000000000
40
1.0000000000
40
1.0000000000
40
1.0000000000
10
67.0803435907
20
93.0390483971
30
0.0000000000
10
67.0890076646
20
93.3767876453
30
0.0000000000
10
67.0762429878
20
94.0848285810
30
0.0000000000
10
67.0780021335
20
95.1973475367
30
0.0000000000
10
67.0882175106
20
95.9722599436
30
0.0000000000
10
67.0803445628
20
96.3769534341
30
0.0000000000
11
67.0803435907
21
93.0390483971
31
0.0000000000
11
67.0799856945
21
94.0525994147
31
0.0000000000
11
67.0799976578
21
95.1626432923
31
0.0000000000
11
67.0803445628
21
96.3769534341
31
0.0000000000
0
SPLINE
5
3D6
100
AcDbEntity
8
0
100
AcDbSpline
62
7
6
CONTINUOUS
70
0
71
3
72
13
73
9
74
7
42
0.0000001000
43
0.0000001000
44
0.0000000001
12
-0.0953796113
22
-3.0245323154
32
0.0000000000
13
-3.0257725980
23
-0.0399146869
33
0.0000000000
40
0.0000000000
40
0.0000000000
40
0.0000000000
40
0.0000000000
40
0.1685979595
40
0.3314409777
40
0.4960716496
40
0.6631767890
40
0.8307613368
40
1.0000000000
40
1.0000000000
40
1.0000000000
40
1.0000000000
10
64.1533355590
20
101.5297936119
30
0.0000000000
10
64.1479752897
20
101.3598169530
30
0.0000000000
10
64.0957883907
20
101.0254999322
30
0.0000000000
10
63.9002264263
20
100.5600079357
30
0.0000000000
10
63.5993927186
20
100.1556769237
30
0.0000000000
10
63.2034120880
20
99.8354609029
30
0.0000000000
10
62.7341409384
20
99.6258301698
30
0.0000000000
10
62.3932637377
20
99.5741296327
30
0.0000000000
10
62.2225711679
20
99.5718779299
30
0.0000000000
11
64.1533355590
21
101.5297936119
31
0.0000000000
11
64.0745765043
21
101.0257259728
31
0.0000000000
11
63.8835987357
21
100.5714698843
31
0.0000000000
11
63.5858013315
21
100.1720974509
31
0.0000000000
11
63.1922629611
21
99.8545666654
31
0.0000000000
11
62.7289432913
21
99.6484056035
31
0.0000000000
11
62.2225711679
21
99.5718779299
31
0.0000000000
0
SPLINE
5
3D7
100
AcDbEntity
8
0
100
AcDbSpline
62
7
6
CONTINUOUS
70
0
71
3
72
14
73
10
74
8
42
0.0000001000
43
0.0000001000
44
0.0000000001
12
-0.7308727714
22
6.1938288271
32
0.0000000000
13
-6.1222886392
23
1.1896522035
33
0.0000000000
40
0.0000000000
40
0.0000000000
40
0.0000000000
40
0.0000000000
40
0.1653532092
40
0.3211177694
40
0.4681571004
40
0.6089644062
40
0.7446394117
40
0.8747851683
40
1.0000000000
40
1.0000000000
40
1.0000000000
40
1.0000000000
10
67.0803446070
20
96.3769540613
30
0.0000000000
10
67.0400605543
20
96.7183438859
30
0.0000000000
10
66.9338433405
20
97.3784698044
30
0.0000000000
10
66.6916232339
20
98.3225639212
30
0.0000000000
10
66.3744016449
20
99.1903096360
30
0.0000000000
10
65.9800709527
20
99.9800338403
30
0.0000000000
10
65.4960260096
20
100.6778353839
30
0.0000000000
10
64.9058329816
20
101.2470201346
30
0.0000000000
10
64.4088647552
20
101.4801409165
30
0.0000000000
10
64.1533309746
20
101.5297949500
30
0.0000000000
11
67.0803446070
21
96.3769540613
31
0.0000000000
11
66.9147820794
21
97.3948525852
31
0.0000000000
11
66.6712679983
21
98.3353098832
31
0.0000000000
11
66.3537221469
21
99.1956323073
31
0.0000000000
11
65.9566970039
21
99.9789481913
31
0.0000000000
11
65.4673592904
21
100.6692857155
31
0.0000000000
11
64.8694156676
21
101.2182022077
31
0.0000000000
11
64.1533309746
21
101.5297949500
31
0.0000000000
0
SPLINE
5
3D8
100
AcDbEntity
8
0
100
AcDbSpline
62
7
6
CONTINUOUS
70
0
71
3
72
14
73
10
74
8
42
0.0000001000
43
0.0000001000
44
0.0000000001
12
6.1222899516
22
1.1896408854
32
0.0000000000
13
0.7308814044
23
6.1938269318
33
0.0000000000
40
0.0000000000
40
0.0000000000
40
0.0000000000
40
0.0000000000
40
0.1252198137
40
0.2553712522
40
0.3910516035
40
0.5318716945
40
0.6789160361
40
0.8347159366
40
1.0000000000
40
1.0000000000
40
1.0000000000
40
1.0000000000
10
64.1533309632
20
105.0580222986
30
0.0000000000
10
64.4088749656
20
105.1076778353
30
0.0000000000
10
64.9058608118
20
105.3408176164
30
0.0000000000
10
65.4960712283
20
105.9100316253
30
0.0000000000
10
65.9801320114
20
106.6078830758
30
0.0000000000
10
66.3744679492
20
107.3976585922
30
0.0000000000
10
66.6917076852
20
108.2655152174
30
0.0000000000
10
66.9338837342
20
109.2095594503
30
0.0000000000
10
67.0400769328
20
109.8696166835
30
0.0000000000
10
67.0803446156
20
110.2108636446
30
0.0000000000
11
64.1533309632
21
105.0580222986
31
0.0000000000
11
64.8694408718
21
105.3696346931
31
0.0000000000
11
65.4674033250
21
105.9185829059
31
0.0000000000
11
65.9567486218
21
106.6089557772
31
0.0000000000
11
66.3537937168
21
107.3923508073
31
0.0000000000
11
66.6713308189
21
108.2527096352
31
0.0000000000
11
66.9148709273
21
109.1933877329
31
0.0000000000
11
67.0803446156
21
110.2108636446
31
0.0000000000
0
SPLINE
5
3D9
100
AcDbEntity
8
0
100
AcDbSpline
62
7
6
CONTINUOUS
70
0
71
3
72
10
73
6
74
4
42
0.0000001000
43
0.0000001000
44
0.0000000001
12
0.0649360379
22
3.3372735589
32
0.0000000000
13
-0.0855810000
23
3.3368079640
33
0.0000000000
40
0.0000000000
40
0.0000000000
40
0.0000000000
40
0.0000000000
40
0.3638082229
40
0.6963635267
40
1.0000000000
40
1.0000000000
40
1.0000000000
40
1.0000000000
10
67.0803443641
20
110.2108643709
30
0.0000000000
10
67.0882191189
20
110.6155735586
30
0.0000000000
10
67.0779997819
20
111.3904998048
30
0.0000000000
10
67.0762442761
20
112.5030188132
30
0.0000000000
10
67.0890058737
20
113.2110439794
30
0.0000000000
10
67.0803440361
20
113.5487695135
30
0.0000000000
11
67.0803443641
21
110.2108643709
31
0.0000000000
11
67.0799967739
21
111.4252217006
31
0.0000000000
11
67.0799857172
21
112.5352597968
31
0.0000000000
11
67.0803440361
21
113.5487695135
31
0.0000000000
0
SPLINE
5
3DA
100
AcDbEntity
8
0
100
AcDbSpline
62
7
6
CONTINUOUS
70
0
71
3
72
13
73
9
74
7
42
0.0000001000
43
0.0000001000
44
0.0000000001
12
-1.2107853163
22
1.5666973287
32
0.0000000000
13
-1.9126624304
23
-0.5121172029
33
0.0000000000
40
0.0000000000
40
0.0000000000
40
0.0000000000
40
0.0000000000
40
0.0398203574
40
0.1373684613
40
0.2908159909
40
0.4946983482
40
0.7356969368
40
1.0000000000
40
1.0000000000
40
1.0000000000
40
1.0000000000
10
64.1533355587
20
126.4292720430
30
0.0000000000
10
64.1372642574
20
126.4500675255
30
0.0000000000
10
64.0244649005
20
126.4163004712
30
0.0000000000
10
63.8539076666
20
126.4072276324
30
0.0000000000
10
63.5500238946
20
126.3344690948
30
0.0000000000
10
63.1692316368
20
126.2505852914
30
0.0000000000
10
62.7134065016
20
126.1364922921
30
0.0000000000
10
62.3910786809
20
126.0526361099
30
0.0000000000
10
62.2225711679
20
126.0075180614
30
0.0000000000
11
64.1533355587
21
126.4292720430
31
0.0000000000
11
64.0745765041
21
126.4329680811
31
0.0000000000
11
63.8835987356
21
126.4040903159
31
0.0000000000
11
63.5858013315
21
126.3438379747
31
0.0000000000
11
63.1922629611
21
126.2538563907
31
0.0000000000
11
62.7289432913
21
126.1396583462
31
0.0000000000
11
62.2225711679
21
126.0075180614
31
0.0000000000
0
SPLINE
5
3DB
100
AcDbEntity
8
0
100
AcDbSpline
62
7
6
CONTINUOUS
70
0
71
3
72
14
73
10
74
8
42
0.0000001000
43
0.0000001000
44
0.0000000001
12
-1.2925072788
22
13.1575549027
32
0.0000000000
13
-3.4265599700
23
12.7691234177
33
0.0000000000
40
0.0000000000
40
0.0000000000
40
0.0000000000
40
0.0000000000
40
0.0998485208
40
0.2075752517
40
0.3252175320
40
0.4574081362
40
0.6100676763
40
0.7895771083
40
1.0000000000
40
1.0000000000
40
1.0000000000
40
1.0000000000
10
67.0803446262
20
113.5487712308
30
0.0000000000
10
67.0373263129
20
113.9866920291
30
0.0000000000
10
66.9199327567
20
114.8944248618
30
0.0000000000
10
66.6711279234
20
116.3062077811
30
0.0000000000
10
66.3460032070
20
117.8482675600
30
0.0000000000
10
65.9400788697
20
119.5750635537
30
0.0000000000
10
65.4413546895
20
121.5598276574
30
0.0000000000
10
64.8368405782
20
123.8733526926
30
0.0000000000
10
64.3936731938
20
125.5336464464
30
0.0000000000
10
64.1533309746
20
126.4292850710
30
0.0000000000
11
67.0803446262
21
113.5487712308
31
0.0000000000
11
66.9148066516
21
114.8584368319
31
0.0000000000
11
66.6712859459
21
116.2617063327
31
0.0000000000
11
66.3537344230
21
117.7842793309
31
0.0000000000
11
65.9567055596
21
119.4862613069
31
0.0000000000
11
65.4673768606
21
121.4443393456
31
0.0000000000
11
64.8694307976
21
123.7410519342
31
0.0000000000
11
64.1533309746
21
126.4292850710
31
0.0000000000
0
SPLINE
5
3DC
100
AcDbEntity
8
0
100
AcDbSpline
62
7
6
CONTINUOUS
70
0
71
3
72
12
73
8
74
6
42
0.0000001000
43
0.0000001000
44
0.0000000001
12
-1.0198397761
22
3.7743281606
32
0.0000000000
13
-3.9096836305
23
0.0003769103
33
0.0000000000
40
0.0000000000
40
0.0000000000
40
0.0000000000
40
0.0000000000
40
0.2001882162
40
0.4002133042
40
0.6001696626
40
0.8001072050
40
1.0000000000
40
1.0000000000
40
1.0000000000
40
1.0000000000
10
64.1533309746
20
126.4292849006
30
0.0000000000
10
64.0852776727
20
126.6811435745
30
0.0000000000
10
63.8822282941
20
127.1692140572
30
0.0000000000
10
63.3997201915
20
127.7956385237
30
0.0000000000
10
62.7715671170
20
128.2763170853
30
0.0000000000
10
62.0413137448
20
128.5782010120
30
0.0000000000
10
61.5176953919
20
128.6467935931
30
0.0000000000
10
61.2571895290
20
128.6468187070
30
0.0000000000
11
64.1533309746
21
126.4292849006
31
0.0000000000
11
63.8524455231
21
127.1518112578
31
0.0000000000
11
63.3753466760
21
127.7714523984
31
0.0000000000
11
62.7545044703
21
128.2465452302
31
0.0000000000
11
62.0320531527
21
128.5450537237
31
0.0000000000
11
61.2571895290
21
128.6468187070
31
0.0000000000
0
SPLINE
5
3DD
100
AcDbEntity
8
0
100
AcDbSpline
62
7
6
CONTINUOUS
70
0
71
3
72
13
73
9
74
7
42
0.0000001000
43
0.0000001000
44
0.0000000001
12
-0.2106482837
22
-1.9933952862
32
0.0000000000
13
-2.0024447696
23
0.0906223533
33
0.0000000000
40
0.0000000000
40
0.0000000000
40
0.0000000000
40
0.0000000000
40
0.0376599836
40
0.1335881123
40
0.2866088482
40
0.4912725072
40
0.7338312442
40
1.0000000000
40
1.0000000000
40
1.0000000000
40
1.0000000000
10
158.0140522879
20
80.8042367899
30
0.0000000000
10
158.0114079510
20
80.7792130453
30
0.0000000000
10
157.8834037518
20
80.7768717410
30
0.0000000000
10
157.7271925596
20
80.7494930901
30
0.0000000000
10
157.4055597836
20
80.7480634674
30
0.0000000000
10
157.0121438630
20
80.7457028671
30
0.0000000000
10
156.5328304978
20
80.7567396641
30
0.0000000000
10
156.1938288481
20
80.7692296601
30
0.0000000000
10
156.0161661038
20
80.7772699398
30
0.0000000000
11
158.0140522879
21
80.8042367899
31
0.0000000000
11
157.9436228271
21
80.7770648585
31
0.0000000000
11
157.7522472181
21
80.7583614844
31
0.0000000000
11
157.4456872130
21
80.7481750934
31
0.0000000000
11
157.0354403835
21
80.7476692585
31
0.0000000000
11
156.5493306493
21
80.7574245696
31
0.0000000000
11
156.0161661038
21
80.7772699398
31
0.0000000000
0
SPLINE
5
3DE
100
AcDbEntity
8
0
100
AcDbSpline
62
7
6
CONTINUOUS
70
0
71
3
72
13
73
9
74
7
42
0.0000001000
43
0.0000001000
44
0.0000000001
12
4.5633400207
22
0.0004212089
32
0.0000000000
13
0.2089052966
23
4.5585557909
33
0.0000000000
40
0.0000000000
40
0.0000000000
40
0.0000000000
40
0.0000000000
40
0.1666861778
40
0.3333061673
40
0.4999110571
40
0.6665531905
40
0.8332548334
40
1.0000000000
40
1.0000000000
40
1.0000000000
40
1.0000000000
10
155.0172114295
20
77.9409985519
30
0.0000000000
10
155.2707599983
20
77.9410219551
30
0.0000000000
10
155.7801047360
20
78.0059331309
30
0.0000000000
10
156.4931795114
20
78.2919233162
30
0.0000000000
10
157.1118871167
20
78.7480243236
30
0.0000000000
10
157.5959385698
20
79.3452862654
30
0.0000000000
10
157.9143390498
20
80.0448015824
30
0.0000000000
10
158.0024642116
20
80.5508652288
30
0.0000000000
10
158.0140755277
20
80.8042376103
30
0.0000000000
11
155.0172114295
21
77.9409985519
31
0.0000000000
11
155.7717235833
21
78.0374003419
31
0.0000000000
11
156.4774831680
21
78.3202888430
31
0.0000000000
11
157.0893900112
21
78.7714958162
31
0.0000000000
11
157.5682637331
21
79.3622209051
31
0.0000000000
11
157.8832753622
21
80.0546491937
31
0.0000000000
11
158.0140755277
21
80.8042376103
31
0.0000000000
0
SPLINE
5
3DF
100
AcDbEntity
8
0
100
AcDbSpline
62
7
6
CONTINUOUS
70
0
71
3
72
13
73
9
74
7
42
0.0000001000
43
0.0000001000
44
0.0000000001
12
2.0023415539
22
0.0906176823
32
0.0000000000
13
0.2106374259
23
-1.9932925369
33
0.0000000000
40
0.0000000000
40
0.0000000000
40
0.0000000000
40
0.0000000000
40
0.2565898917
40
0.4881531287
40
0.6921391405
40
0.8544223436
40
0.9596891422
40
1.0000000000
40
1.0000000000
40
1.0000000000
40
1.0000000000
10
156.0161661038
20
125.8105473192
30
0.0000000000
10
156.1874263046
20
125.8182978463
30
0.0000000000
10
156.5127172280
20
125.8303642299
30
0.0000000000
10
156.9776161876
20
125.8415639547
30
0.0000000000
10
157.3695080485
20
125.8399622617
30
0.0000000000
10
157.7042266470
20
125.8402246097
30
0.0000000000
10
157.8710297818
20
125.8108139884
30
0.0000000000
10
158.0112219632
20
125.8103642462
30
0.0000000000
10
158.0140522884
20
125.7835804689
30
0.0000000000
11
156.0161661038
21
125.8105473192
31
0.0000000000
11
156.5301109128
21
125.8298314281
31
0.0000000000
11
156.9941495058
21
125.8396882300
31
0.0000000000
11
157.4030168877
21
125.8402181084
31
0.0000000000
11
157.7281594470
21
125.8307980151
31
0.0000000000
11
157.9382841870
21
125.8116451802
31
0.0000000000
11
158.0140522884
21
125.7835804689
31
0.0000000000
0
SPLINE
5
3E0
100
AcDbEntity
8
0
100
AcDbSpline
62
7
6
CONTINUOUS
70
0
71
3
72
13
73
9
74
7
42
0.0000001000
43
0.0000001000
44
0.0000000001
12
-0.2089053396
22
4.5585557214
32
0.0000000000
13
-4.5633399532
23
0.0004211755
33
0.0000000000
40
0.0000000000
40
0.0000000000
40
0.0000000000
40
0.0000000000
40
0.1668771110
40
0.3336071232
40
0.5002465945
40
0.6668541306
40
0.8334457999
40
1.0000000000
40
1.0000000000
40
1.0000000000
40
1.0000000000
10
158.0140755251
20
125.7835797065
30
0.0000000000
10
158.0024550186
20
126.0371525761
30
0.0000000000
10
157.9142344204
20
126.5434615745
30
0.0000000000
10
157.5955753562
20
127.2431272611
30
0.0000000000
10
157.1113510476
20
127.8403048492
30
0.0000000000
10
156.4925671838
20
128.2962293585
30
0.0000000000
10
155.7796545443
20
128.5819682424
30
0.0000000000
10
155.2705592414
20
128.6467953241
30
0.0000000000
10
155.0172114295
20
128.6468187070
30
0.0000000000
11
158.0140755251
21
125.7835797065
31
0.0000000000
11
157.8830959979
21
126.5337480149
31
0.0000000000
11
157.5678755796
21
127.2262235106
31
0.0000000000
11
157.0888654625
21
127.8168223479
31
0.0000000000
11
156.4768388953
21
128.2678872475
31
0.0000000000
11
155.7711359104
21
128.5505695197
31
0.0000000000
11
155.0172114295
21
128.6468187070
31
0.0000000000
0
SPLINE
5
3E1
100
AcDbEntity
8
0
100
AcDbSpline
62
7
6
CONTINUOUS
70
0
71
3
72
12
73
8
74
6
42
0.0000001000
43
0.0000001000
44
0.0000000001
12
-0.6189131509
22
0.7868167761
32
0.0000000000
13
-1.0010664797
23
0.0001749913
33
0.0000000000
40
0.0000000000
40
0.0000000000
40
0.0000000000
40
0.0000000000
40
0.0554744264
40
0.1924780449
40
0.4067741556
40
0.6852706254
40
1.0000000000
40
1.0000000000
40
1.0000000000
40
1.0000000000
10
156.0161661038
20
99.5612018609
30
0.0000000000
10
156.0047214864
20
99.5757512640
30
0.0000000000
10
155.9287334317
20
99.5723088233
30
0.0000000000
10
155.8035599453
20
99.5902207489
30
0.0000000000
10
155.5880391975
20
99.5894800333
30
0.0000000000
10
155.3207646702
20
99.5939207857
30
0.0000000000
10
155.1222331052
20
99.5937093117
30
0.0000000000
10
155.0172114295
20
99.5937276700
30
0.0000000000
11
156.0161661038
21
99.5612018609
31
0.0000000000
11
155.9623122339
21
99.5747569439
31
0.0000000000
11
155.8255020423
21
99.5844016581
31
0.0000000000
11
155.6110551570
21
99.5901776098
31
0.0000000000
11
155.3322755163
21
99.5929559371
31
0.0000000000
11
155.0172114295
21
99.5937276700
31
0.0000000000
0
SPLINE
5
3E2
100
AcDbEntity
8
0
100
AcDbSpline
62
7
6
CONTINUOUS
70
0
71
3
72
10
73
6
74
4
42
0.0000001000
43
0.0000001000
44
0.0000000001
12
0.1150754439
22
-3.2365258678
32
0.0000000000
13
-0.0775469047
23
-3.2376424336
33
0.0000000000
40
0.0000000000
40
0.0000000000
40
0.0000000000
40
0.0000000000
40
0.2902417042
40
0.6262586582
40
1.0000000000
40
1.0000000000
40
1.0000000000
40
1.0000000000
10
147.7973708434
20
113.2423778434
30
0.0000000000
10
147.8085040744
20
112.9292529156
30
0.0000000000
10
147.8217157879
20
112.2532316575
30
0.0000000000
10
147.8202840034
20
111.1736641201
30
0.0000000000
10
147.8070315457
20
110.4075430752
30
0.0000000000
10
147.7973707177
20
110.0041961328
30
0.0000000000
11
147.7973708434
21
113.2423778434
31
0.0000000000
11
147.8177197757
21
112.3026297685
31
0.0000000000
11
147.8175954998
21
111.2144150164
31
0.0000000000
11
147.7973707177
21
110.0041961328
31
0.0000000000
0
SPLINE
5
3E3
100
AcDbEntity
8
0
100
AcDbSpline
62
7
6
CONTINUOUS
70
0
71
3
72
10
73
6
74
4
42
0.0000001000
43
0.0000001000
44
0.0000000001
12
0.0776103404
22
-3.2376194445
32
0.0000000000
13
-0.1151378939
23
-3.2365021702
33
0.0000000000
40
0.0000000000
40
0.0000000000
40
0.0000000000
40
0.0000000000
40
0.3740365401
40
0.7100333892
40
1.0000000000
40
1.0000000000
40
1.0000000000
40
1.0000000000
10
147.7973786384
20
96.5836057921
30
0.0000000000
10
147.8070550061
20
96.1799431337
30
0.0000000000
10
147.8203359011
20
95.4135303134
30
0.0000000000
10
147.8217100820
20
94.3339698298
30
0.0000000000
10
147.8085047811
20
93.6582718719
30
0.0000000000
10
147.7973760661
20
93.3454460169
30
0.0000000000
11
147.7973786384
21
96.5836057921
31
0.0000000000
11
147.8176326717
21
95.3724392722
31
0.0000000000
11
147.8177207964
21
94.2842968392
31
0.0000000000
11
147.7973760661
21
93.3454460169
31
0.0000000000
0
SPLINE
5
3E4
100
AcDbEntity
8
0
100
AcDbSpline
62
7
6
CONTINUOUS
70
0
71
3
72
11
73
7
74
5
42
0.0000001000
43
0.0000001000
44
0.0000000001
12
-0.2380705245
22
-0.4927059724
32
0.0000000000
13
-0.5472081413
23
-0.0000008295
33
0.0000000000
40
0.0000000000
40
0.0000000000
40
0.0000000000
40
0.0000000000
40
0.1950564021
40
0.4318529550
40
0.7055015370
40
1.0000000000
40
1.0000000000
40
1.0000000000
40
1.0000000000
10
148.2800614910
20
110.2108621935
30
0.0000000000
10
148.2645824310
20
110.1788270421
30
0.0000000000
10
148.2106118022
20
110.1176078087
30
0.0000000000
10
148.0971398181
20
110.0541710277
30
0.0000000000
10
147.9549874761
20
110.0133837465
30
0.0000000000
10
147.8510880918
20
110.0041962134
30
0.0000000000
10
147.7973707729
20
110.0041961320
30
0.0000000000
11
148.2800614910
21
110.2108621935
31
0.0000000000
11
148.2126685603
21
110.1280922539
31
0.0000000000
11
148.1013357675
21
110.0617958844
31
0.0000000000
11
147.9578424859
21
110.0189874287
31
0.0000000000
11
147.7973707729
21
110.0041961320
31
0.0000000000
0
SPLINE
5
3E5
100
AcDbEntity
8
0
100
AcDbSpline
62
7
6
CONTINUOUS
70
0
71
3
72
11
73
7
74
5
42
0.0000001000
43
0.0000001000
44
0.0000000001
12
0.5472124111
22
0.0000021709
32
0.0000000000
13
0.2380659997
23
-0.4927129008
33
0.0000000000
40
0.0000000000
40
0.0000000000
40
0.0000000000
40
0.0000000000
40
0.2948027634
40
0.5689112675
40
0.8054389199
40
1.0000000000
40
1.0000000000
40
1.0000000000
40
1.0000000000
10
147.7973707729
20
96.5836057928
30
0.0000000000
10
147.8511440166
20
96.5836060061
30
0.0000000000
10
147.9551841992
20
96.5743968780
30
0.0000000000
10
148.0974152479
20
96.5335311442
30
0.0000000000
10
148.2107947209
20
96.4700325754
30
0.0000000000
10
148.2646227489
20
96.4088938848
30
0.0000000000
10
148.2800622083
20
96.3769396334
30
0.0000000000
11
147.7973707729
21
96.5836057928
31
0.0000000000
11
147.9580081540
21
96.5687839372
31
0.0000000000
11
148.1017250982
21
96.5258408050
31
0.0000000000
11
148.2128814779
21
96.4595338780
31
0.0000000000
11
148.2800622083
21
96.3769396334
31
0.0000000000
0
SPLINE
5
3E6
100
AcDbEntity
8
0
100
AcDbSpline
62
7
6
CONTINUOUS
70
0
71
3
72
11
73
7
74
5
42
0.0000001000
43
0.0000001000
44
0.0000000001
12
-0.1882089154
22
0.5774796414
32
0.0000000000
13
-0.6073757750
23
-0.0000032653
33
0.0000000000
40
0.0000000000
40
0.0000000000
40
0.0000000000
40
0.0000000000
40
0.2307976927
40
0.4756435079
40
0.7337498604
40
1.0000000000
40
1.0000000000
40
1.0000000000
40
1.0000000000
10
148.2800617799
20
93.0390512045
30
0.0000000000
10
148.2655823855
20
93.0834781941
30
0.0000000000
10
148.2171906147
20
93.1697013676
30
0.0000000000
10
148.1027905910
20
93.2683231849
30
0.0000000000
10
147.9580192466
20
93.3311743244
30
0.0000000000
10
147.8512754013
20
93.3454463070
30
0.0000000000
10
147.7973707729
20
93.3454460172
30
0.0000000000
11
148.2800617799
21
93.0390512045
31
0.0000000000
11
148.2125531247
21
93.1619058906
31
0.0000000000
11
148.1010082670
21
93.2602594622
31
0.0000000000
11
147.9576003355
21
93.3235858281
31
0.0000000000
11
147.7973707729
21
93.3454460172
31
0.0000000000
0
SPLINE
5
3E7
100
AcDbEntity
8
0
100
AcDbSpline
62
7
6
CONTINUOUS
70
0
71
3
72
11
73
7
74
5
42
0.0000001000
43
0.0000001000
44
0.0000000001
12
-0.9659897346
22
-0.0002043863
32
0.0000000000
13
-0.9522872506
23
-0.1621271148
33
0.0000000000
40
0.0000000000
40
0.0000000000
40
0.0000000000
40
0.0000000000
40
0.3456389054
40
0.6462866020
40
0.8696512839
40
1.0000000000
40
1.0000000000
40
1.0000000000
40
1.0000000000
10
154.1032165623
20
99.5937276700
30
0.0000000000
10
153.9919220175
20
99.5937041221
30
0.0000000000
10
153.7838495537
20
99.5931901341
30
0.0000000000
10
153.5037210425
20
99.5910686711
30
0.0000000000
10
153.2933286385
20
99.5847901465
30
0.0000000000
10
153.1792113970
20
99.5789247533
30
0.0000000000
10
153.1378349235
20
99.5718803995
30
0.0000000000
11
154.1032165623
21
99.5937276700
31
0.0000000000
11
153.7693340728
21
99.5928504318
31
0.0000000000
11
153.4789291580
21
99.5896458706
31
0.0000000000
11
153.2632662646
21
99.5829120799
31
0.0000000000
11
153.1378349235
21
99.5718803995
31
0.0000000000
0
SPLINE
5
3E8
100
AcDbEntity
8
0
100
AcDbSpline
62
7
6
CONTINUOUS
70
0
71
3
72
17
73
13
74
11
42
0.0000001000
43
0.0000001000
44
0.0000000001
12
-20.2670559014
22
-3.3260562156
32
0.0000000000
13
5.9055600795
23
-19.6708048896
33
0.0000000000
40
0.0000000000
40
0.0000000000
40
0.0000000000
40
0.0000000000
40
0.0491860123
40
0.1088751090
40
0.1797257193
40
0.2575655263
40
0.3410340292
40
0.4359918565
40
0.5508437862
40
0.6875632992
40
0.8397870948
40
1.0000000000
40
1.0000000000
40
1.0000000000
40
1.0000000000
10
153.1378349235
20
99.5718803995
30
0.0000000000
10
152.8055497034
20
99.5173485856
30
0.0000000000
10
152.1065583085
20
99.1747529831
30
0.0000000000
10
151.2797123563
20
98.2408403091
30
0.0000000000
10
150.6223746047
20
96.9611427903
30
0.0000000000
10
150.2036739360
20
95.4169038552
30
0.0000000000
10
150.0718829421
20
93.6583954298
30
0.0000000000
10
150.2421566435
20
91.6517877994
30
0.0000000000
10
150.6987570158
20
89.3212602015
30
0.0000000000
10
151.3860534110
20
86.6430428806
30
0.0000000000
10
152.2271445906
20
83.6853044210
30
0.0000000000
10
152.8224526111
20
81.6308049188
30
0.0000000000
10
153.1378349235
20
80.5802993192
30
0.0000000000
11
153.1378349235
21
99.5718803995
31
0.0000000000
11
152.2144201523
21
99.1622588221
31
0.0000000000
11
151.3705294284
21
98.2730511563
31
0.0000000000
11
150.6900325677
21
96.9868315826
31
0.0000000000
11
150.2622513640
21
95.4464411695
31
0.0000000000
11
150.1205425231
21
93.7380184170
31
0.0000000000
11
150.2622826058
21
91.7929164106
31
0.0000000000
11
150.6901019396
21
89.4731893305
31
0.0000000000
11
151.3706943730
21
86.7489504554
31
0.0000000000
11
152.2146144841
21
83.7386083888
31
0.0000000000
11
153.1378349235
21
80.5802993192
31
0.0000000000
0
SPLINE
5
3E9
100
AcDbEntity
8
0
100
AcDbSpline
62
7
6
CONTINUOUS
70
0
71
3
72
11
73
7
74
5
42
0.0000001000
43
0.0000001000
44
0.0000000001
12
0.3499329436
22
-1.2071896068
32
0.0000000000
13
1.2567698427
23
-0.0170110009
33
0.0000000000
40
0.0000000000
40
0.0000000000
40
0.0000000000
40
0.0000000000
40
0.2282824806
40
0.4722114905
40
0.7312878268
40
1.0000000000
40
1.0000000000
40
1.0000000000
40
1.0000000000
10
153.1378349235
20
80.5802993192
30
0.0000000000
10
153.1644627770
20
80.4884392398
30
0.0000000000
10
153.2541668452
20
80.3071987947
30
0.0000000000
10
153.4742888276
20
80.0870088242
30
0.0000000000
10
153.7679522012
20
79.9386161533
30
0.0000000000
10
153.9906467771
20
79.9063701538
30
0.0000000000
10
154.1032165623
20
79.9048464661
30
0.0000000000
11
153.1378349235
21
80.5802993192
31
0.0000000000
11
153.2634488340
21
80.3223322742
31
0.0000000000
11
153.4791366903
21
80.1044409967
31
0.0000000000
11
153.7695512932
21
79.9571531737
31
0.0000000000
11
154.1032165623
21
79.9048464661
31
0.0000000000
0
SPLINE
5
3EA
100
AcDbEntity
8
0
100
AcDbSpline
62
7
6
CONTINUOUS
70
0
71
3
72
12
73
8
74
6
42
0.0000001000
43
0.0000001000
44
0.0000000001
12
1.4568482153
22
0.0167123397
32
0.0000000000
13
0.0671660202
23
1.4553950496
33
0.0000000000
40
0.0000000000
40
0.0000000000
40
0.0000000000
40
0.0000000000
40
0.2187357399
40
0.4304445575
40
0.6303933734
40
0.8198350387
40
1.0000000000
40
1.0000000000
40
1.0000000000
40
1.0000000000
10
155.0172114295
20
79.9048464661
30
0.0000000000
10
155.1234330203
20
79.9060649948
30
0.0000000000
10
155.3338194875
20
79.9350085250
30
0.0000000000
10
155.6148551341
20
80.0676494346
30
0.0000000000
10
155.8340613676
20
80.2672920203
30
0.0000000000
10
155.9739584185
20
80.5108809309
30
0.0000000000
10
156.0121324493
20
80.6898662661
30
0.0000000000
10
156.0161661038
20
80.7772699970
30
0.0000000000
11
155.0172114295
21
79.9048464661
31
0.0000000000
11
155.3324793516
21
79.9513946959
31
0.0000000000
11
155.6112640780
21
80.0833764648
31
0.0000000000
11
155.8256698982
21
80.2805924169
31
0.0000000000
11
155.9624158419
21
80.5203418897
31
0.0000000000
11
156.0161661038
21
80.7772699970
31
0.0000000000
0
SPLINE
5
3EB
100
AcDbEntity
8
0
100
AcDbSpline
62
7
6
CONTINUOUS
70
0
71
3
72
16
73
12
74
10
42
0.0000001000
43
0.0000001000
44
0.0000000001
12
0.9580167665
22
18.8142939431
32
0.0000000000
13
-12.2893040176
23
14.2782512748
33
0.0000000000
40
0.0000000000
40
0.0000000000
40
0.0000000000
40
0.0000000000
40
0.1701787293
40
0.3341440225
40
0.4874729355
40
0.6259683360
40
0.7463577746
40
0.8462391936
40
0.9230541678
40
0.9746223259
40
1.0000000000
40
1.0000000000
40
1.0000000000
40
1.0000000000
10
156.0161661038
20
80.7772699970
30
0.0000000000
10
156.0705107958
20
81.8445342092
30
0.0000000000
10
156.1730398657
20
83.9403204384
30
0.0000000000
10
156.3195716635
20
86.9978659863
30
0.0000000000
10
156.4412154396
20
89.8576658515
30
0.0000000000
10
156.5166206112
20
92.4445962444
30
0.0000000000
10
156.5243422664
20
94.6997893780
30
0.0000000000
10
156.4547975064
20
96.5594014012
30
0.0000000000
10
156.3568473731
20
98.0024626627
30
0.0000000000
10
156.2034408790
20
98.9325969064
30
0.0000000000
10
156.1201240878
20
99.4404189251
30
0.0000000000
10
156.0161661038
20
99.5612018609
30
0.0000000000
11
156.0161661038
21
80.7772699970
31
0.0000000000
11
156.1744050327
21
83.9793032009
31
0.0000000000
11
156.3199127161
21
87.0647619949
31
0.0000000000
11
156.4384104890
21
89.9508430088
31
0.0000000000
11
156.5079740999
21
92.5589845012
31
0.0000000000
11
156.5079645864
21
94.8269612954
31
0.0000000000
11
156.4383871404
21
96.7073074673
31
0.0000000000
11
156.3198812429
21
98.1495388148
31
0.0000000000
11
156.1743695812
21
99.1100547896
31
0.0000000000
11
156.0161661038
21
99.5612018609
31
0.0000000000
0
SPLINE
5
3EC
100
AcDbEntity
8
0
100
AcDbSpline
62
7
6
CONTINUOUS
70
0
71
3
72
11
73
7
74
5
42
0.0000001000
43
0.0000001000
44
0.0000000001
12
0.6073775885
22
-0.0000007252
32
0.0000000000
13
0.1882089539
23
0.5774815362
33
0.0000000000
40
0.0000000000
40
0.0000000000
40
0.0000000000
40
0.0000000000
40
0.2669297092
40
0.5257294037
40
0.7700437349
40
1.0000000000
40
1.0000000000
40
1.0000000000
40
1.0000000000
10
147.7973707729
20
113.2423778432
30
0.0000000000
10
147.8514131473
20
113.2423777787
30
0.0000000000
10
147.9584392077
20
113.2567238259
30
0.0000000000
10
148.1033137736
20
113.3198127597
30
0.0000000000
10
148.2174539300
20
113.4185128434
30
0.0000000000
10
148.2656348614
20
113.5045070607
30
0.0000000000
10
148.2800614708
20
113.5487722265
30
0.0000000000
11
147.7973707729
21
113.2423778432
31
0.0000000000
11
147.9580019623
21
113.2643511237
31
0.0000000000
11
148.1017208875
21
113.3280166127
31
0.0000000000
11
148.2128792207
21
113.4263208774
31
0.0000000000
11
148.2800614708
21
113.5487722265
31
0.0000000000
0
SPLINE
5
3ED
100
AcDbEntity
8
0
100
AcDbSpline
62
7
6
CONTINUOUS
70
0
71
3
72
14
73
10
74
8
42
0.0000001000
43
0.0000001000
44
0.0000000001
12
-3.4265543369
22
-12.7691230623
32
0.0000000000
13
-1.2924832370
23
-13.1575554525
33
0.0000000000
40
0.0000000000
40
0.0000000000
40
0.0000000000
40
0.0000000000
40
0.2104438106
40
0.3899699542
40
0.5426360879
40
0.6748348006
40
0.7924757220
40
0.9002351157
40
1.0000000000
40
1.0000000000
40
1.0000000000
40
1.0000000000
10
151.2070747886
20
126.4292838399
30
0.0000000000
10
150.9667090713
20
125.5335562015
30
0.0000000000
10
150.5234986898
20
123.8731025251
30
0.0000000000
10
149.9189378574
20
121.5593885846
30
0.0000000000
10
149.4201858039
20
119.5744890157
30
0.0000000000
10
149.0142598347
20
117.8476331617
30
0.0000000000
10
148.6891167802
20
116.3053999664
30
0.0000000000
10
148.4403854593
20
114.8938378766
30
0.0000000000
10
148.3230429509
20
113.9863259711
30
0.0000000000
10
148.2800614707
20
113.5487719719
30
0.0000000000
11
151.2070747886
21
126.4292838399
31
0.0000000000
11
150.4909045312
21
123.7407836475
31
0.0000000000
11
149.8929057608
21
121.4438568085
31
0.0000000000
11
149.4035625563
21
119.4856928254
31
0.0000000000
11
149.0065215302
21
117.7836038509
31
0.0000000000
11
148.6889920586
21
116.2610448235
31
0.0000000000
11
148.4454331498
21
114.8573438640
31
0.0000000000
11
148.2800614707
21
113.5487719719
31
0.0000000000
0
SPLINE
5
3EE
100
AcDbEntity
8
0
100
AcDbSpline
62
7
6
CONTINUOUS
70
0
71
3
72
10
73
6
74
4
42
0.0000001000
43
0.0000001000
44
0.0000000001
12
-0.0855804871
22
-3.3368100652
32
0.0000000000
13
0.0649208512
23
-3.3372759422
33
0.0000000000
40
0.0000000000
40
0.0000000000
40
0.0000000000
40
0.0000000000
40
0.3036496492
40
0.6362035157
40
1.0000000000
40
1.0000000000
40
1.0000000000
40
1.0000000000
10
148.2800614291
20
113.5487705019
30
0.0000000000
10
148.2713992674
20
113.2110301000
30
0.0000000000
10
148.2841614028
20
112.5029914312
30
0.0000000000
10
148.2824045076
20
111.3904717060
30
0.0000000000
10
148.2721886048
20
110.6155596901
30
0.0000000000
10
148.2800612640
20
110.2108632718
30
0.0000000000
11
148.2800614291
21
113.5487705019
31
0.0000000000
11
148.2804197549
21
112.5352161715
31
0.0000000000
11
148.2804084797
21
111.4251821785
31
0.0000000000
11
148.2800612640
21
110.2108632718
31
0.0000000000
0
SPLINE
5
3EF
100
AcDbEntity
8
0
100
AcDbSpline
62
7
6
CONTINUOUS
70
0
71
3
72
13
73
9
74
7
42
0.0000001000
43
0.0000001000
44
0.0000000001
12
0.0953801033
22
3.0245317572
32
0.0000000000
13
3.0257720530
23
0.0399148858
33
0.0000000000
40
0.0000000000
40
0.0000000000
40
0.0000000000
40
0.0000000000
40
0.1685979638
40
0.3314409858
40
0.4960716579
40
0.6631767949
40
0.8307613397
40
1.0000000000
40
1.0000000000
40
1.0000000000
40
1.0000000000
10
151.2070707269
20
105.0580236984
30
0.0000000000
10
151.2124310240
20
105.2280003304
30
0.0000000000
10
151.2646179636
20
105.5623172905
30
0.0000000000
10
151.4601799473
20
106.0278091887
30
0.0000000000
10
151.7610136329
20
106.4321401047
30
0.0000000000
10
152.1569942009
20
106.7523560467
30
0.0000000000
10
152.6262652578
20
106.9619867364
30
0.0000000000
10
152.9671423874
20
107.0136872775
30
0.0000000000
10
153.1378349235
20
107.0159389914
30
0.0000000000
11
151.2070707269
21
105.0580236984
31
0.0000000000
11
151.2858298439
21
105.5620912487
31
0.0000000000
11
151.4768076334
21
106.0163472448
31
0.0000000000
11
151.7746050161
21
106.4157195838
31
0.0000000000
11
152.1681433238
21
106.7332502908
31
0.0000000000
11
152.6314629030
21
106.9394113111
31
0.0000000000
11
153.1378349235
21
107.0159389914
31
0.0000000000
0
SPLINE
5
3F0
100
AcDbEntity
8
0
100
AcDbSpline
62
7
6
CONTINUOUS
70
0
71
3
72
14
73
10
74
8
42
0.0000001000
43
0.0000001000
44
0.0000000001
12
0.7308634351
22
-6.1938271507
32
0.0000000000
13
6.1222887813
23
-1.1896370086
33
0.0000000000
40
0.0000000000
40
0.0000000000
40
0.0000000000
40
0.0000000000
40
0.1653046696
40
0.3210887145
40
0.4681281720
40
0.6089373640
40
0.7446175209
40
0.8747757091
40
1.0000000000
40
1.0000000000
40
1.0000000000
40
1.0000000000
10
148.2800614910
20
110.2108624552
30
0.0000000000
10
148.3203332039
20
109.8695729382
30
0.0000000000
10
148.4265332413
20
109.2095067092
30
0.0000000000
10
148.6687120754
20
108.2654640453
30
0.0000000000
10
148.9859356565
20
107.3976719610
30
0.0000000000
10
149.3802505793
20
106.6079241535
30
0.0000000000
10
149.8642977761
20
105.9100746758
30
0.0000000000
10
150.4545161856
20
105.3408362482
30
0.0000000000
10
150.9515217439
20
105.1076796037
30
0.0000000000
10
151.2070748343
20
105.0580224534
30
0.0000000000
11
148.2800614910
21
110.2108624552
31
0.0000000000
11
148.4455611101
21
109.1932608713
31
0.0000000000
11
148.6890818587
21
108.2526802145
31
0.0000000000
11
149.0066119086
21
107.3923515491
31
0.0000000000
11
149.4036213510
21
106.6090149545
31
0.0000000000
11
149.8929565910
21
105.9186367554
31
0.0000000000
11
150.4909420917
21
105.3696517625
31
0.0000000000
11
151.2070748343
21
105.0580224534
31
0.0000000000
0
SPLINE
5
3F1
100
AcDbEntity
8
0
100
AcDbSpline
62
7
6
CONTINUOUS
70
0
71
3
72
14
73
10
74
8
42
0.0000001000
43
0.0000001000
44
0.0000000001
12
-6.1223181157
22
-1.1896395656
32
0.0000000000
13
-0.7307816647
23
-6.1938662856
33
0.0000000000
40
0.0000000000
40
0.0000000000
40
0.0000000000
40
0.0000000000
40
0.1252584499
40
0.2554498229
40
0.3911376579
40
0.5319716467
40
0.6790572791
40
0.8349802169
40
1.0000000000
40
1.0000000000
40
1.0000000000
40
1.0000000000
10
151.2070749505
20
101.5297948838
30
0.0000000000
10
150.9514509249
20
101.4801240812
30
0.0000000000
10
150.4542969578
20
101.2469149344
30
0.0000000000
10
149.8640599843
20
100.6774538032
30
0.0000000000
10
149.3799810981
20
99.9794623625
30
0.0000000000
10
148.9856656594
20
99.1895245565
30
0.0000000000
10
148.6683530094
20
98.3212957173
30
0.0000000000
10
148.4263616385
20
97.3774108942
30
0.0000000000
10
148.3202600189
20
96.7176383932
30
0.0000000000
10
148.2800622083
20
96.3769349029
30
0.0000000000
11
151.2070749505
21
101.5297948838
31
0.0000000000
11
150.4907479001
21
101.2180689832
31
0.0000000000
11
149.8926780672
21
100.6688641864
31
0.0000000000
11
149.4033754062
21
99.9783993335
31
0.0000000000
11
149.0063599567
21
99.1948877821
31
0.0000000000
11
148.6887990250
21
98.3342589545
31
0.0000000000
11
148.4451890651
21
97.3928018783
31
0.0000000000
11
148.2800622083
21
96.3769349029
31
0.0000000000
0
SPLINE
5
3F2
100
AcDbEntity
8
0
100
AcDbSpline
62
7
6
CONTINUOUS
70
0
71
3
72
10
73
6
74
4
42
0.0000001000
43
0.0000001000
44
0.0000000001
12
-0.0648865005
22
-3.3372586357
32
0.0000000000
13
0.0855734803
23
-3.3367922678
33
0.0000000000
40
0.0000000000
40
0.0000000000
40
0.0000000000
40
0.0000000000
40
0.3638429093
40
0.6963957211
40
1.0000000000
40
1.0000000000
40
1.0000000000
40
1.0000000000
10
148.2800760530
20
96.3769322229
30
0.0000000000
10
148.2722065553
20
95.9721862592
30
0.0000000000
10
148.2824375024
20
95.1972280447
30
0.0000000000
10
148.2841797205
20
94.0847142526
30
0.0000000000
10
148.2714111999
20
93.3767311073
30
0.0000000000
10
148.2800713582
20
93.0390429705
30
0.0000000000
11
148.2800760530
21
96.3769322229
31
0.0000000000
11
148.2804356356
21
95.1624648962
31
0.0000000000
11
148.2804380250
21
94.0524404000
31
0.0000000000
11
148.2800713582
21
93.0390429705
31
0.0000000000
0
SPLINE
5
3F3
100
AcDbEntity
8
0
100
AcDbSpline
62
7
6
CONTINUOUS
70
0
71
3
72
13
73
9
74
7
42
0.0000001000
43
0.0000001000
44
0.0000000001
12
1.2107895415
22
-1.5666938505
32
0.0000000000
13
1.9126622670
23
0.5121171617
33
0.0000000000
40
0.0000000000
40
0.0000000000
40
0.0000000000
40
0.0000000000
40
0.0398203845
40
0.1373685053
40
0.2908160388
40
0.4946983868
40
0.7356969577
40
1.0000000000
40
1.0000000000
40
1.0000000000
40
1.0000000000
10
151.2070706978
20
80.1585452291
30
0.0000000000
10
151.2231420662
20
80.1377497786
30
0.0000000000
10
151.3359413303
20
80.1715168099
30
0.0000000000
10
151.5064986798
20
80.1805896984
30
0.0000000000
10
151.8103823776
20
80.2533482151
30
0.0000000000
10
152.1911746102
20
80.3372320199
30
0.0000000000
10
152.6469996676
20
80.4513249996
30
0.0000000000
10
152.9693274382
20
80.5351811693
30
0.0000000000
10
153.1378349235
20
80.5802992106
30
0.0000000000
11
151.2070706978
21
80.1585452291
31
0.0000000000
11
151.2858298007
21
80.1548492188
31
0.0000000000
11
151.4768075841
21
80.1837269991
31
0.0000000000
11
151.7746049691
21
80.2439793436
31
0.0000000000
11
152.1681432874
21
80.3339609192
31
0.0000000000
11
152.6314628833
21
80.4481589469
31
0.0000000000
11
153.1378349235
21
80.5802992106
31
0.0000000000
0
SPLINE
5
3F4
100
AcDbEntity
8
0
100
AcDbSpline
62
7
6
CONTINUOUS
70
0
71
3
72
12
73
8
74
6
42
0.0000001000
43
0.0000001000
44
0.0000000001
12
2.8764256198
22
0.3535068173
32
0.0000000000
13
2.8980668410
23
0.0000325124
33
0.0000000000
40
0.0000000000
40
0.0000000000
40
0.0000000000
40
0.0000000000
40
0.1041736651
40
0.2689840911
40
0.4833024502
40
0.7326235409
40
1.0000000000
40
1.0000000000
40
1.0000000000
40
1.0000000000
10
151.2070748343
20
105.0580245057
30
0.0000000000
10
151.3069574341
20
105.0702998727
30
0.0000000000
10
151.5664538436
20
105.0874378138
30
0.0000000000
10
152.0327585514
20
105.1087731597
30
0.0000000000
10
152.6396929792
20
105.1255791193
30
0.0000000000
10
153.3457741333
20
105.1369667133
30
0.0000000000
10
153.8449249456
20
105.1395358680
30
0.0000000000
10
154.1032165623
20
105.1395387657
30
0.0000000000
11
151.2070748343
21
105.0580245057
31
0.0000000000
11
151.5079600063
21
105.0827849310
31
0.0000000000
11
151.9850587454
21
105.1053408084
31
0.0000000000
11
152.6059010761
21
105.1235370552
31
0.0000000000
11
153.3283527142
21
105.1354095618
31
0.0000000000
11
154.1032165623
21
105.1395387657
31
0.0000000000
0
SPLINE
5
3F5
100
AcDbEntity
8
0
100
AcDbSpline
62
7
6
CONTINUOUS
70
0
71
3
72
14
73
10
74
8
42
0.0000001000
43
0.0000001000
44
0.0000000001
12
1.2925246583
22
-13.1575513436
32
0.0000000000
13
3.4265563745
23
-12.7691224744
33
0.0000000000
40
0.0000000000
40
0.0000000000
40
0.0000000000
40
0.0000000000
40
0.0997380899
40
0.2075098620
40
0.3251545979
40
0.4573439675
40
0.6100030232
40
0.7895371449
40
1.0000000000
40
1.0000000000
40
1.0000000000
40
1.0000000000
10
148.2800617799
20
93.0390445582
30
0.0000000000
10
148.3230330934
20
92.6016082119
30
0.0000000000
10
148.4403567281
20
91.6941583069
30
0.0000000000
10
148.6890701090
20
90.2826401635
30
0.0000000000
10
149.0142171779
20
88.7403770031
30
0.0000000000
10
149.4201256395
20
87.0135741136
30
0.0000000000
10
149.9188654273
20
85.0287098250
30
0.0000000000
10
150.5234458071
20
82.7149101491
30
0.0000000000
10
150.9666873221
20
81.0543415275
30
0.0000000000
10
151.2070749347
20
80.1585328698
30
0.0000000000
11
148.2800617799
21
93.0390445582
31
0.0000000000
11
148.4453792370
21
91.7308228814
31
0.0000000000
11
148.6889546493
21
90.3269586918
31
0.0000000000
11
149.0064910884
21
88.8043496045
31
0.0000000000
11
149.4035003231
21
87.1023800608
31
0.0000000000
11
149.8928172144
21
85.1443059635
31
0.0000000000
11
150.4908400043
21
82.8472763913
31
0.0000000000
11
151.2070749347
21
80.1585328698
31
0.0000000000
0
SPLINE
5
3F6
100
AcDbEntity
8
0
100
AcDbSpline
62
7
6
CONTINUOUS
70
0
71
3
72
12
73
8
74
6
42
0.0000001000
43
0.0000001000
44
0.0000000001
12
-2.8980667756
22
0.0000324709
32
0.0000000000
13
-2.8764255554
23
0.3535068048
33
0.0000000000
40
0.0000000000
40
0.0000000000
40
0.0000000000
40
0.0000000000
40
0.2675833962
40
0.5169169165
40
0.7311952311
40
0.8959338662
40
1.0000000000
40
1.0000000000
40
1.0000000000
40
1.0000000000
10
154.1032165624
20
101.4482784932
30
0.0000000000
10
153.8447250456
20
101.4482813894
30
0.0000000000
10
153.3453623217
20
101.4508536279
30
0.0000000000
10
152.6391080548
20
101.4622505744
30
0.0000000000
10
152.0322699268
20
101.4790620587
30
0.0000000000
10
151.5661770104
20
101.5003944088
30
0.0000000000
10
151.3068544462
20
101.5175300419
30
0.0000000000
10
151.2070749506
20
101.5297927374
30
0.0000000000
11
154.1032165624
21
101.4482784932
31
0.0000000000
11
153.3277530402
21
101.4524141739
31
0.0000000000
11
152.6052655210
21
101.4642945522
31
0.0000000000
11
151.9845394537
21
101.4824958378
31
0.0000000000
11
151.5076489945
21
101.5050513318
31
0.0000000000
11
151.2070749506
21
101.5297927374
31
0.0000000000
0
SPLINE
5
3F7
100
AcDbEntity
8
0
100
AcDbSpline
62
7
6
CONTINUOUS
70
0
71
3
72
12
73
8
74
6
42
0.0000001000
43
0.0000001000
44
0.0000000001
12
1.0198474591
22
-3.7743268453
32
0.0000000000
13
3.9096843653
23
-0.0003719956
33
0.0000000000
40
0.0000000000
40
0.0000000000
40
0.0000000000
40
0.0000000000
40
0.2001881919
40
0.4002132531
40
0.6001696198
40
0.8001072024
40
1.0000000000
40
1.0000000000
40
1.0000000000
40
1.0000000000
10
151.2070749347
20
80.1585330322
30
0.0000000000
10
151.2751287410
20
79.9066744766
30
0.0000000000
10
151.4781770841
20
79.4186036455
30
0.0000000000
10
151.9606854829
20
78.7921791164
30
0.0000000000
10
152.5888385712
20
78.3115003197
30
0.0000000000
10
153.3190921494
20
78.0096164686
30
0.0000000000
10
153.8427106471
20
77.9410233383
30
0.0000000000
10
154.1032165623
20
77.9409985519
30
0.0000000000
11
151.2070749347
21
80.1585330322
31
0.0000000000
11
151.5079601603
21
79.4360065245
31
0.0000000000
11
151.9850589084
21
78.8163652543
31
0.0000000000
11
152.6059012091
21
78.3412722526
31
0.0000000000
11
153.3283527884
21
78.0427635954
31
0.0000000000
11
154.1032165623
21
77.9409985519
31
0.0000000000
0
SPLINE
5
3F8
100
AcDbEntity
8
0
100
AcDbSpline
62
7
6
CONTINUOUS
70
0
71
3
72
13
73
9
74
7
42
0.0000001000
43
0.0000001000
44
0.0000000001
12
0.0953800419
22
-3.0245078447
32
0.0000000000
13
3.0257480059
23
-0.0399256814
33
0.0000000000
40
0.0000000000
40
0.0000000000
40
0.0000000000
40
0.0000000000
40
0.1685992040
40
0.3314430801
40
0.4960740526
40
0.6631788440
40
0.8307625264
40
1.0000000000
40
1.0000000000
40
1.0000000000
40
1.0000000000
10
151.2070946287
20
101.5297896184
30
0.0000000000
10
151.2124549617
20
101.3598130800
30
0.0000000000
10
151.2646415855
20
101.0254966608
30
0.0000000000
10
151.4602020414
20
100.5600058431
30
0.0000000000
10
151.7610327007
20
100.1556766426
30
0.0000000000
10
152.1570083691
20
99.8354625341
30
0.0000000000
10
152.6262727700
20
99.6258328958
30
0.0000000000
10
152.9671449407
20
99.5741318838
30
0.0000000000
10
153.1378349235
20
99.5718795767
30
0.0000000000
11
151.2070946287
21
101.5297896184
31
0.0000000000
11
151.2858534255
21
101.0257222987
31
0.0000000000
11
151.4768299029
21
100.5714671694
31
0.0000000000
11
151.7746244488
21
100.1720964902
31
0.0000000000
11
152.1681578654
21
99.8545677475
31
0.0000000000
11
152.6314707214
21
99.6484078904
31
0.0000000000
11
153.1378349235
21
99.5718795767
31
0.0000000000
0
SPLINE
5
3F9
100
AcDbEntity
8
0
100
AcDbSpline
62
7
6
CONTINUOUS
70
0
71
3
72
13
73
9
74
7
42
0.0000001000
43
0.0000001000
44
0.0000000001
12
-0.0194037993
22
3.1185833033
32
0.0000000000
13
-3.1186324641
23
0.0083595021
33
0.0000000000
40
0.0000000000
40
0.0000000000
40
0.0000000000
40
0.0000000000
40
0.1661462590
40
0.3268030915
40
0.4903154998
40
0.6578336668
40
0.8274082432
40
1.0000000000
40
1.0000000000
40
1.0000000000
40
1.0000000000
10
158.0140522879
20
105.0371760381
30
0.0000000000
10
158.0129776651
20
105.2098896879
30
0.0000000000
10
157.9662232231
20
105.5510070556
30
0.0000000000
10
157.7694456549
20
106.0267006578
30
0.0000000000
10
157.4588337980
20
106.4396859447
30
0.0000000000
10
157.0454191973
20
106.7655729877
30
0.0000000000
10
156.5530141093
20
106.9767091197
30
0.0000000000
10
156.1955828557
20
107.0261354386
30
0.0000000000
10
156.0161661038
20
107.0266163656
30
0.0000000000
11
158.0140522879
21
105.0371760381
31
0.0000000000
11
157.9436228271
21
105.5505181538
31
0.0000000000
11
157.7522472181
21
106.0135601101
31
0.0000000000
11
157.4456872130
21
106.4210605922
31
0.0000000000
11
157.0354403835
21
106.7445263412
31
0.0000000000
11
156.5493306493
21
106.9527855678
31
0.0000000000
11
156.0161661038
21
107.0266163656
31
0.0000000000
0
SPLINE
5
3FA
100
AcDbEntity
8
0
100
AcDbSpline
62
7
6
CONTINUOUS
70
0
71
3
72
13
73
9
74
7
42
0.0000001000
43
0.0000001000
44
0.0000000001
12
3.0008464450
22
-0.0000332001
32
0.0000000000
13
2.4741688853
23
-1.6981070975
33
0.0000000000
40
0.0000000000
40
0.0000000000
40
0.0000000000
40
0.0000000000
40
0.2514364874
40
0.4866532784
40
0.6906465825
40
0.8503885322
40
0.9556646713
40
1.0000000000
40
1.0000000000
40
1.0000000000
40
1.0000000000
10
155.0172114295
20
105.1395387657
30
0.0000000000
10
155.2687188593
20
105.1395359831
30
0.0000000000
10
155.7553408231
20
105.1367652760
30
0.0000000000
10
156.4468153748
20
105.1272669778
30
0.0000000000
10
157.0436652130
20
105.1072549486
30
0.0000000000
10
157.5177075588
20
105.0966720919
30
0.0000000000
10
157.8159410369
20
105.0574490406
30
0.0000000000
10
157.9775111613
20
105.0622670043
30
0.0000000000
10
158.0140755249
20
105.0371716255
30
0.0000000000
11
155.0172114295
21
105.1395387657
31
0.0000000000
11
155.7717235732
21
105.1356259515
31
0.0000000000
11
156.4774831499
21
105.1243611433
31
0.0000000000
11
157.0893899886
21
105.1070174531
31
0.0000000000
11
157.5682637113
21
105.0854076035
31
0.0000000000
11
157.8832753468
21
105.0615004134
31
0.0000000000
11
158.0140755249
21
105.0371716255
31
0.0000000000
0
SPLINE
5
3FB
100
AcDbEntity
8
0
100
AcDbSpline
62
7
6
CONTINUOUS
70
0
71
3
72
13
73
9
74
7
42
0.0000001000
43
0.0000001000
44
0.0000000001
12
-2.4741684275
22
-1.6981069419
32
0.0000000000
13
-3.0008459794
23
-0.0000332420
33
0.0000000000
40
0.0000000000
40
0.0000000000
40
0.0000000000
40
0.0000000000
40
0.0443952745
40
0.1497408750
40
0.3095282030
40
0.5135613777
40
0.7487593101
40
1.0000000000
40
1.0000000000
40
1.0000000000
40
1.0000000000
10
158.0140755284
20
101.5506456360
30
0.0000000000
10
157.9774617329
20
101.5255163280
30
0.0000000000
10
157.8157453345
20
101.5303672201
30
0.0000000000
10
157.5173449139
20
101.4911205263
30
0.0000000000
10
157.0431458804
20
101.4805460149
30
0.0000000000
10
156.4462297885
20
101.4605378536
30
0.0000000000
10
155.7549302966
20
101.4510488281
30
0.0000000000
10
155.2685229675
20
101.4482812771
30
0.0000000000
10
155.0172114295
20
101.4482784932
30
0.0000000000
11
158.0140755284
21
101.5506456360
31
0.0000000000
11
157.8830960159
21
101.5262974005
31
0.0000000000
11
157.5678756052
21
101.5023873414
31
0.0000000000
11
157.0888654889
21
101.4807809584
31
0.0000000000
11
156.4768389165
21
101.4634420281
31
0.0000000000
11
155.7711359221
21
101.4521851377
31
0.0000000000
11
155.0172114295
21
101.4482784932
31
0.0000000000
0
SPLINE
5
3FC
100
AcDbEntity
8
0
100
AcDbSpline
62
7
6
CONTINUOUS
70
0
71
3
72
13
73
9
74
7
42
0.0000001000
43
0.0000001000
44
0.0000000001
12
-0.0194017829
22
-3.1186074567
32
0.0000000000
13
-3.1186566310
23
-0.0083496110
33
0.0000000000
40
0.0000000000
40
0.0000000000
40
0.0000000000
40
0.0000000000
40
0.1661450652
40
0.3268010709
40
0.4903131832
40
0.6578316811
40
0.8274070934
40
1.0000000000
40
1.0000000000
40
1.0000000000
40
1.0000000000
10
158.0140756455
20
101.5506456503
30
0.0000000000
10
158.0130011420
20
101.3779319039
30
0.0000000000
10
157.9662465419
20
101.0368139628
30
0.0000000000
10
157.7694676303
20
100.5611191931
30
0.0000000000
10
157.4588528812
20
100.1481320848
30
0.0000000000
10
157.0454334478
20
99.8222430907
30
0.0000000000
10
156.5530216967
20
99.6111057883
30
0.0000000000
10
156.1955854414
20
99.5616798666
30
0.0000000000
10
156.0161661038
20
99.5611995054
30
0.0000000000
11
158.0140756455
21
101.5506456503
31
0.0000000000
11
157.9436460936
21
101.0373032568
31
0.0000000000
11
157.7522693649
21
100.5742603567
31
0.0000000000
11
157.4457066719
21
100.1667581125
31
0.0000000000
11
157.0354550235
21
99.8432902771
31
0.0000000000
11
156.5493385502
21
99.6350297662
31
0.0000000000
11
156.0161661038
21
99.5611995054
31
0.0000000000
0
SPLINE
5
3FD
100
AcDbEntity
8
0
100
AcDbSpline
62
7
6
CONTINUOUS
70
0
71
3
72
12
73
8
74
6
42
0.0000001000
43
0.0000001000
44
0.0000000001
12
-3.9096849303
22
-0.0003720246
32
0.0000000000
13
-1.0198472836
23
-3.7743274779
33
0.0000000000
40
0.0000000000
40
0.0000000000
40
0.0000000000
40
0.0000000000
40
0.2000502371
40
0.4000164251
40
0.5999727928
40
0.7999691738
40
1.0000000000
40
1.0000000000
40
1.0000000000
40
1.0000000000
10
154.1032165624
20
128.6468187070
30
0.0000000000
10
153.8425054299
20
128.6467938991
30
0.0000000000
10
153.3186383380
20
128.5781130916
30
0.0000000000
10
152.5882254888
20
128.2759692967
30
0.0000000000
10
151.9601897999
20
127.7951370842
30
0.0000000000
10
151.4779738779
20
127.1687981797
30
0.0000000000
10
151.2750750869
20
126.6809443006
30
0.0000000000
10
151.2070747887
20
126.4292836860
30
0.0000000000
11
154.1032165624
21
128.6468187070
31
0.0000000000
11
153.3277529202
21
128.5448932626
31
0.0000000000
11
152.6052653057
21
128.2461787082
31
0.0000000000
11
151.9845391897
21
127.7709337239
31
0.0000000000
11
151.5076487452
21
127.1512734687
31
0.0000000000
11
151.2070747887
21
126.4292836860
31
0.0000000000
0
SPLINE
5
3FE
100
AcDbEntity
8
0
100
AcDbSpline
62
7
6
CONTINUOUS
70
0
71
3
72
24
73
20
74
18
42
0.0000001000
43
0.0000001000
44
0.0000000001
12
12.5873465568
22
16.5560846624
32
0.0000000000
13
-0.9435010913
23
20.7763095467
33
0.0000000000
40
0.0000000000
40
0.0000000000
40
0.0000000000
40
0.0000000000
40
0.0159586729
40
0.0415522925
40
0.0731150162
40
0.1086376798
40
0.1474636077
40
0.1896690533
40
0.2357221153
40
0.2860215719
40
0.3404250326
40
0.3983750938
40
0.4597121498
40
0.5252530467
40
0.5967400853
40
0.6766634777
40
0.7683438064
40
0.8752633163
40
1.0000000000
40
1.0000000000
40
1.0000000000
40
1.0000000000
10
158.0140755249
20
105.0371719067
30
0.0000000000
10
158.0810346404
20
105.1252429532
30
0.0000000000
10
158.1488437880
20
105.4175265534
30
0.0000000000
10
158.2420094161
20
105.9088308824
30
0.0000000000
10
158.3154071605
20
106.5502321493
30
0.0000000000
10
158.3804636136
20
107.2806769247
30
0.0000000000
10
158.4325830511
20
108.0873783883
30
0.0000000000
10
158.4733688577
20
108.9674049872
30
0.0000000000
10
158.5016385057
20
109.9276235028
30
0.0000000000
10
158.5161237317
20
110.9726804115
30
0.0000000000
10
158.5155844074
20
112.1003210865
30
0.0000000000
10
158.5000491202
20
113.3043681483
30
0.0000000000
10
158.4706679954
20
114.5853816079
30
0.0000000000
10
158.4286603535
20
115.9599292564
30
0.0000000000
10
158.3743845527
20
117.4629860194
30
0.0000000000
10
158.3070308992
20
119.1468869419
30
0.0000000000
10
158.2248389461
20
121.0760210329
30
0.0000000000
10
158.1257754075
20
123.3153858280
30
0.0000000000
10
158.0533052575
20
124.9197237006
30
0.0000000000
10
158.0140755251
20
125.7835796846
30
0.0000000000
11
158.0140755249
21
105.0371719067
31
0.0000000000
11
158.1309283521
21
105.3478255856
31
0.0000000000
11
158.2288763007
21
105.8710251246
31
0.0000000000
11
158.3096322113
21
106.5224715424
31
0.0000000000
11
158.3755987808
21
107.2583110484
31
0.0000000000
11
158.4287234424
21
108.0640524697
31
0.0000000000
11
158.4697745166
21
108.9408691416
31
0.0000000000
11
158.4983960984
21
109.8982401739
31
0.0000000000
11
158.5133275137
21
110.9442477160
31
0.0000000000
11
158.5133273305
21
112.0757157576
31
0.0000000000
11
158.4983948449
21
113.2808524998
31
0.0000000000
11
158.4697704703
21
114.5562023400
31
0.0000000000
11
158.4287156105
21
115.9186852820
31
0.0000000000
11
158.3755872904
21
117.4045032753
31
0.0000000000
11
158.3096173816
21
119.0654181417
31
0.0000000000
11
158.2288586161
21
120.9704491057
31
0.0000000000
11
158.1309156314
21
123.1919733128
31
0.0000000000
11
158.0140755251
21
125.7835796846
31
0.0000000000
0
SPLINE
5
3FF
100
AcDbEntity
8
0
100
AcDbSpline
62
7
6
CONTINUOUS
70
0
71
3
72
13
73
9
74
7
42
0.0000001000
43
0.0000001000
44
0.0000000001
12
1.2107724221
22
1.5666760077
32
0.0000000000
13
1.9126382655
23
-0.5121117425
33
0.0000000000
40
0.0000000000
40
0.0000000000
40
0.0000000000
40
0.0000000000
40
0.0398207318
40
0.1373693770
40
0.2908173367
40
0.4946996718
40
0.7356977398
40
1.0000000000
40
1.0000000000
40
1.0000000000
40
1.0000000000
10
151.2070946287
20
126.4292658839
30
0.0000000000
10
151.2231659100
20
126.4500612789
30
0.0000000000
10
151.3359645238
20
126.4162950547
30
0.0000000000
10
151.5065205651
20
126.4072221111
30
0.0000000000
10
151.8104011306
20
126.3344646717
30
0.0000000000
10
152.1911885974
20
126.2505818700
30
0.0000000000
10
152.6470071346
20
126.1364904632
30
0.0000000000
10
152.9693300513
20
126.0526354106
30
0.0000000000
10
153.1378349235
20
126.0075179802
30
0.0000000000
11
151.2070946287
21
126.4292658839
31
0.0000000000
11
151.2858534255
21
126.4329622012
31
0.0000000000
11
151.4768299029
21
126.4040848803
31
0.0000000000
11
151.7746244488
21
126.3438332740
31
0.0000000000
11
152.1681578654
21
126.2538528635
31
0.0000000000
11
152.6314707214
21
126.1396564116
31
0.0000000000
11
153.1378349235
21
126.0075179802
31
0.0000000000
0
SPLINE
5
400
100
AcDbEntity
8
0
100
AcDbSpline
62
7
6
CONTINUOUS
70
0
71
3
72
16
73
12
74
10
42
0.0000001000
43
0.0000001000
44
0.0000000001
12
12.2891708915
22
14.2783642212
32
0.0000000000
13
-0.9580161236
23
18.8142927356
33
0.0000000000
40
0.0000000000
40
0.0000000000
40
0.0000000000
40
0.0000000000
40
0.0253863449
40
0.0769607484
40
0.1537821735
40
0.2536684777
40
0.3740599126
40
0.5125588698
40
0.6658912059
40
0.8298587900
40
1.0000000000
40
1.0000000000
40
1.0000000000
40
1.0000000000
10
156.0161661038
20
107.0266153980
30
0.0000000000
10
156.1201584807
20
107.1474405576
30
0.0000000000
10
156.2034579841
20
107.6553733571
30
0.0000000000
10
156.3568814321
20
108.5856344637
30
0.0000000000
10
156.4548177405
20
110.0288098199
30
0.0000000000
10
156.5243501239
20
111.8885051029
30
0.0000000000
10
156.5166092111
20
114.1437637689
30
0.0000000000
10
156.4411931777
20
116.7307499079
30
0.0000000000
10
156.3195421151
20
119.5906075755
30
0.0000000000
10
156.1730156441
20
122.6479532153
30
0.0000000000
10
156.0704987779
20
124.7435184180
30
0.0000000000
10
156.0161661038
20
125.8105472619
30
0.0000000000
11
156.0161661038
21
107.0266153980
31
0.0000000000
11
156.1744037433
21
107.4779235547
31
0.0000000000
11
156.3199127739
21
108.4385588601
31
0.0000000000
11
156.4384109136
21
109.8809126845
31
0.0000000000
11
156.5079733788
21
111.7613513809
31
0.0000000000
11
156.5079653061
21
114.0293656344
31
0.0000000000
11
156.4383891591
21
116.6375736480
31
0.0000000000
11
156.3198830500
21
119.5237186718
31
0.0000000000
11
156.1743698657
21
122.6092202076
31
0.0000000000
11
156.0161661038
21
125.8105472619
31
0.0000000000
0
SPLINE
5
401
100
AcDbEntity
8
0
100
AcDbSpline
62
7
6
CONTINUOUS
70
0
71
3
72
12
73
8
74
6
42
0.0000001000
43
0.0000001000
44
0.0000000001
12
1.0010672051
22
0.0001772943
32
0.0000000000
13
0.6157207532
23
0.7893183988
33
0.0000000000
40
0.0000000000
40
0.0000000000
40
0.0000000000
40
0.0000000000
40
0.3149327667
40
0.5934341378
40
0.8076891883
40
0.9446290715
40
1.0000000000
40
1.0000000000
40
1.0000000000
40
1.0000000000
10
155.0172114295
20
106.9940895888
30
0.0000000000
10
155.1223010510
20
106.9941082008
30
0.0000000000
10
155.3209087699
20
106.9938920090
30
0.0000000000
10
155.5882159672
20
106.9983515098
30
0.0000000000
10
155.8037590616
20
106.9975751703
30
0.0000000000
10
155.9287608036
20
107.0155589511
30
0.0000000000
10
156.0048017605
20
107.0120469671
30
0.0000000000
10
156.0161661038
20
107.0266153980
30
0.0000000000
11
155.0172114295
21
106.9940895888
31
0.0000000000
11
155.3324793518
21
106.9948624193
31
0.0000000000
11
155.6112640782
21
106.9976430813
31
0.0000000000
11
155.8256698983
21
107.0034228138
31
0.0000000000
11
155.9624158420
21
107.0130729963
31
0.0000000000
11
156.0161661038
21
107.0266153980
31
0.0000000000
0
SPLINE
5
402
100
AcDbEntity
8
0
100
AcDbSpline
62
7
6
CONTINUOUS
70
0
71
3
72
11
73
7
74
5
42
0.0000001000
43
0.0000001000
44
0.0000000001
12
0.9523316944
22
-0.1618652748
32
0.0000000000
13
0.9659896390
23
-0.0002018623
33
0.0000000000
40
0.0000000000
40
0.0000000000
40
0.0000000000
40
0.0000000000
40
0.1305378509
40
0.3539282056
40
0.6545859312
40
1.0000000000
40
1.0000000000
40
1.0000000000
40
1.0000000000
10
153.1378349235
20
107.0159368594
30
0.0000000000
10
153.1792733678
20
107.0088936777
30
0.0000000000
10
153.2934574771
20
107.0030144477
30
0.0000000000
10
153.5039241471
20
106.9967490921
30
0.0000000000
10
153.7839909083
20
106.9946255695
30
0.0000000000
10
153.9919944251
20
106.9941128309
30
0.0000000000
10
154.1032165623
20
106.9940895888
30
0.0000000000
11
153.1378349235
21
107.0159368594
31
0.0000000000
11
153.2634488340
21
107.0048957947
31
0.0000000000
11
153.4791366903
21
106.9981675379
31
0.0000000000
11
153.7695512933
21
106.9949655596
31
0.0000000000
11
154.1032165623
21
106.9940895888
31
0.0000000000
0
SPLINE
5
403
100
AcDbEntity
8
0
100
AcDbSpline
62
7
6
CONTINUOUS
70
0
71
3
72
17
73
13
74
11
42
0.0000001000
43
0.0000001000
44
0.0000000001
12
-5.9054948597
22
-19.6708238729
32
0.0000000000
13
20.2670576981
23
-3.3260417375
33
0.0000000000
40
0.0000000000
40
0.0000000000
40
0.0000000000
40
0.0000000000
40
0.1602554790
40
0.3124913424
40
0.4492202993
40
0.5640694715
40
0.6589882053
40
0.7424114598
40
0.8202612072
40
0.8911284297
40
0.9508223559
40
1.0000000000
40
1.0000000000
40
1.0000000000
40
1.0000000000
10
153.1378349235
20
126.0075179397
30
0.0000000000
10
152.8223722877
20
124.9567321723
30
0.0000000000
10
152.2269637370
20
122.9018725018
30
0.0000000000
10
151.3857549825
20
119.9437110302
30
0.0000000000
10
150.6984731679
20
117.2653576601
30
0.0000000000
10
150.2420080189
20
114.9350256322
30
0.0000000000
10
150.0719420692
20
112.9290028117
30
0.0000000000
10
150.2036860106
20
111.1710165814
30
0.0000000000
10
150.6222771652
20
109.6268789671
30
0.0000000000
10
151.2796883996
20
108.3469697145
30
0.0000000000
10
152.1066317268
20
107.4130106966
30
0.0000000000
10
152.8056062068
20
107.0704591583
30
0.0000000000
10
153.1378349235
20
107.0159368594
30
0.0000000000
11
153.1378349235
21
126.0075179397
31
0.0000000000
11
152.2143760597
21
122.8483676806
31
0.0000000000
11
151.3704010667
21
119.8377836849
31
0.0000000000
11
150.6898143158
21
117.1133435500
31
0.0000000000
11
150.2621153653
21
114.7936519262
31
0.0000000000
11
150.1205560195
21
112.8493418456
31
0.0000000000
11
150.2621740783
21
111.1418441218
31
0.0000000000
11
150.6899333630
21
109.6012357852
31
0.0000000000
11
151.3705708919
21
108.3147046882
31
0.0000000000
11
152.2145630028
21
107.4254565437
31
0.0000000000
11
153.1378349235
21
107.0159368594
31
0.0000000000
0
SPLINE
5
404
100
AcDbEntity
8
0
100
AcDbSpline
62
7
6
CONTINUOUS
70
0
71
3
72
11
73
7
74
5
42
0.0000001000
43
0.0000001000
44
0.0000000001
12
-1.2567667990
22
-0.0172236531
32
0.0000000000
13
-0.3493964137
23
-1.2073448502
33
0.0000000000
40
0.0000000000
40
0.0000000000
40
0.0000000000
40
0.0000000000
40
0.2688915942
40
0.5279903265
40
0.7719657953
40
1.0000000000
40
1.0000000000
40
1.0000000000
40
1.0000000000
10
154.1032165623
20
126.6829707928
30
0.0000000000
10
153.9905718863
20
126.6814270276
30
0.0000000000
10
153.7677908203
20
126.6491720181
30
0.0000000000
10
153.4740594349
20
126.5006549235
30
0.0000000000
10
153.2540811906
20
126.2804435457
30
0.0000000000
10
153.1643930346
20
126.0992899140
30
0.0000000000
10
153.1378349235
20
126.0075179397
30
0.0000000000
11
154.1032165623
21
126.6829707928
31
0.0000000000
11
153.7693340728
21
126.6305938948
31
0.0000000000
11
153.4789291580
21
126.4832248408
31
0.0000000000
11
153.2632662647
21
126.2652267587
31
0.0000000000
11
153.1378349235
21
126.0075179397
31
0.0000000000
0
SPLINE
5
405
100
AcDbEntity
8
0
100
AcDbSpline
62
7
6
CONTINUOUS
70
0
71
3
72
12
73
8
74
6
42
0.0000001000
43
0.0000001000
44
0.0000000001
12
-0.0677277149
22
1.4553691593
32
0.0000000000
13
-1.4568508291
23
0.0164952957
33
0.0000000000
40
0.0000000000
40
0.0000000000
40
0.0000000000
40
0.0000000000
40
0.1803636998
40
0.3697893469
40
0.5697264543
40
0.7814088794
40
1.0000000000
40
1.0000000000
40
1.0000000000
40
1.0000000000
10
156.0161661038
20
125.8105472619
30
0.0000000000
10
156.0120942300
20
125.8980458506
30
0.0000000000
10
155.9739178358
20
126.0771235377
30
0.0000000000
10
155.8338809297
20
126.3207368898
30
0.0000000000
10
155.6146475789
20
126.5203042568
30
0.0000000000
10
155.3336629529
20
126.6528345848
30
0.0000000000
10
155.1233629813
20
126.6817688844
30
0.0000000000
10
155.0172114295
20
126.6829707928
30
0.0000000000
11
156.0161661038
21
125.8105472619
31
0.0000000000
11
155.9623122340
21
126.0677495351
31
0.0000000000
11
155.8255020423
21
126.3074355107
31
0.0000000000
11
155.6110551570
21
126.5045816459
31
0.0000000000
11
155.3322755163
21
126.6364843431
31
0.0000000000
11
155.0172114295
21
126.6829707928
31
0.0000000000
0
SPLINE
5
406
100
AcDbEntity
8
0
100
AcDbSpline
62
7
6
CONTINUOUS
70
0
71
3
72
24
73
20
74
18
42
0.0000001000
43
0.0000001000
44
0.0000000001
12
0.9435025204
22
20.7763109218
32
0.0000000000
13
-12.5871383633
23
16.5562447538
33
0.0000000000
40
0.0000000000
40
0.0000000000
40
0.0000000000
40
0.0000000000
40
0.1246574517
40
0.2315351845
40
0.3232212036
40
0.4031549952
40
0.4746555999
40
0.5402252600
40
0.6015927348
40
0.6595585828
40
0.7139724876
40
0.7642933654
40
0.8103766398
40
0.8526045081
40
0.8914350850
40
0.9269512687
40
0.9585006927
40
0.9840620921
40
1.0000000000
40
1.0000000000
40
1.0000000000
40
1.0000000000
10
158.0140755278
20
80.8042376332
30
0.0000000000
10
158.0532804010
20
81.6675449582
30
0.0000000000
10
158.1257125314
20
83.2710448992
30
0.0000000000
10
158.2247435143
20
85.5096110506
30
0.0000000000
10
158.3069326728
20
87.4385671504
30
0.0000000000
10
158.3743020534
20
89.1226733118
30
0.0000000000
10
158.4286006022
20
90.6260951367
30
0.0000000000
10
158.4706341205
20
92.0011466592
30
0.0000000000
10
158.5000352948
20
93.2826796269
30
0.0000000000
10
158.5155806116
20
94.4871194222
30
0.0000000000
10
158.5161221031
20
95.6150905431
30
0.0000000000
10
158.5016302779
20
96.6605778632
30
0.0000000000
10
158.4733377537
20
97.6213095067
30
0.0000000000
10
158.4325139400
20
98.5017319916
30
0.0000000000
10
158.3803570518
20
99.3085742572
30
0.0000000000
10
158.3152700418
20
100.0389115687
30
0.0000000000
10
158.2418724396
20
100.6799471440
30
0.0000000000
10
158.1487281665
20
101.1708029229
30
0.0000000000
10
158.0809464125
20
101.4626880368
30
0.0000000000
10
158.0140755285
20
101.5506453383
30
0.0000000000
11
158.0140755278
21
80.8042376332
31
0.0000000000
11
158.1308419737
21
83.3941979867
31
0.0000000000
11
158.2287496557
21
85.6148541922
31
0.0000000000
11
158.3095186121
21
87.5200033075
31
0.0000000000
11
158.3755046132
21
89.1811341027
31
0.0000000000
11
158.4286525426
21
90.6672338203
31
0.0000000000
11
158.4697354337
21
92.0303144931
31
0.0000000000
11
158.4983816829
21
93.3062967302
31
0.0000000000
11
158.5133228276
21
94.5117618046
31
0.0000000000
11
158.5133252074
21
95.6434471385
31
0.0000000000
11
158.4983864410
21
96.6899002048
31
0.0000000000
11
158.4697372324
21
97.6478991076
31
0.0000000000
11
158.4286441468
21
98.5251807229
31
0.0000000000
11
158.3754828262
21
99.3310166825
31
0.0000000000
11
158.3094883893
21
100.0667184340
31
0.0000000000
11
158.2287147404
21
100.7178839754
31
0.0000000000
11
158.1308172102
21
101.2404112365
31
0.0000000000
11
158.0140755285
21
101.5506453383
31
0.0000000000
0
ENDSEC
0
SECTION
2
OBJECTS
0
DICTIONARY
5
C
100
AcDbDictionary
280
0
281
1
3
ACAD_GROUP
350
D
3
ACAD_MLINESTYLE
350
17
3
ACAD_LAYOUT
350
1A
3
ACAD_PLOTSETTINGS
350
19
3
ACAD_PLOTSTYLENAME
350
E
0
DICTIONARY
5
D
102
{ACAD_REACTORS
330
C
102
}
100
AcDbDictionary
280
0
281
1
0
ACDBDICTIONARYWDFLT
5
E
102
{ACAD_REACTORS
330
C
102
}
100
AcDbDictionary
281
1
3
Normal
350
F
100
AcDbDictionaryWithDefault
340
F
0
DICTIONARY
5
17
102
{ACAD_REACTORS
330
C
102
}
100
AcDbDictionary
280
0
281
1
3
Standard
350
18
0
DICTIONARY
5
19
102
{ACAD_REACTORS
330
C
102
}
100
AcDbDictionary
281
1
0
DICTIONARY
5
1A
102
{ACAD_REACTORS
330
C
102
}
100
AcDbDictionary
281
1
3
Layout1
350
1E
3
Model
350
22
0
ACDBPLACEHOLDER
5
F
102
{ACAD_REACTORS
330
E
102
}
0
MLINESTYLE
5
18
102
{ACAD_REACTORS
330
17
102
}
100
AcDbMlineStyle
2
STANDARD
70
0
3

62
256
51
90.0
52
90.0
71
2
49
0.5
62
256
6
BYLAYER
49
-0.5
62
256
6
BYLAYER
0
LAYOUT
5
1E
102
{ACAD_REACTORS
330
1A
102
}
100
AcDbPlotSettings
1

2

4

6

40
0.0
41
0.0
42
0.0
43
0.0
44
0.0
45
0.0
46
0.0
47
0.0
48
0.0
49
0.0
140
0.0
141
0.0
142
1.0
143
1.0
70
0
72
0
73
0
74
0
7

75
0
147
1.0
148
0.0
149
0.0
100
AcDbLayout
1
Layout1
70
0
71
0
10
0.0
20
0.0
11
0.0
21
0.0
12
0.0
22
0.0
32
0.0
14
0.0
24
0.0
34
0.0
15
0.0
25
0.0
35
0.0
146
0.0
13
0.0
23
0.0
33
0.0
16
0.0
26
0.0
36
0.0
17
0.0
27
0.0
37
0.0
76
0
330
1B
331
0
345
0
346
0
0
LAYOUT
5
22
102
{ACAD_REACTORS
330
1A
102
}
100
AcDbPlotSettings
1

2

4

6

40
0.0
41
0.0
42
0.0
43
0.0
44
0.0
45
0.0
46
0.0
47
0.0
48
0.0
49
0.0
140
0.0
141
0.0
142
1.0
143
1.0
70
0
72
0
73
0
74
0
7

75
0
147
1.0
148
0.0
149
0.0
100
AcDbLayout
1
Model
70
0
71
0
10
0.0
20
0.0
11
0.0
21
0.0
12
0.0
22
0.0
32
0.0
14
0.0
24
0.0
34
0.0
15
0.0
25
0.0
35
0.0
146
0.0
13
0.0
23
0.0
33
0.0
16
0.0
26
0.0
36
0.0
17
0.0
27
0.0
37
0.0
76
0
330
1F
331
0
345
0
346
0
0
ENDSEC
0
EOF
