999
DXF file: p732.dxf
999
Pro/ENGINEER 2005310 by Parametric Technology Corporation
0
SECTION
2
HEADER
9
$ACADVER
1
AC1015
9
$DWGCODEPAGE
3
ANSI_1252
9
$EXTMAX
10
297.0000000000
20
210.0000000000
30
0.0000000000
9
$EXTMIN
10
0.0000000000
20
0.0000000000
30
0.0000000000
9
$LIMMIN
10
0.0000000000
20
0.0000000000
9
$LIMMAX
10
297.0000000000
20
210.0000000000
9
$VIEWCTR
10
148.5000000000
20
105.0000000000
9
$VIEWSIZE
40
210.0000000000
9
$CLAYER
8
0
9
$LTSCALE
40
16.3350000000
9
$CELTYPE
6
BYLAYER
9
$DIMSCALE
40
1
9
$DIMASZ
40
3.5000000000
9
$DIMEXO
40
1.8562500000
9
$DIMDLI
40
11.2860000000
9
$DIMEXE
40
5.3460000000
9
$DIMCEN
40
2.6730000000
9
$DIMLFAC
40
1.0000000000
9
$DIMBLK
1
_FILLED
9
$DIMTXT
40
3.5000000000
9
$DIMTOL
70
1
9
$DIMLIM
70
0
9
$DIMTFAC
40
1.0000000000
9
$DIMTP
40
0.0010000000
9
$DIMTM
40
0.0010000000
9
$PDMODE
70
3
9
$PDSIZE
40
0.3125000000
9
$HANDSEED
5
354
9
$MEASUREMENT
70
1
9
$INSUNITS
70
4
0
ENDSEC
0
SECTION
2
CLASSES
0
CLASS
1
ACDBDICTIONARYWDFLT
2
AcDbDictionaryWithDefault
3
AutoCAD 2000
90
0
280
0
281
0
0
CLASS
1
ACDBPLACEHOLDER
2
AcDbPlaceHolder
3
AutoCAD 2000
90
0
280
0
281
0
0
CLASS
1
LAYOUT
2
AcDbLayout
3
AutoCAD 2000
90
0
280
0
281
0
0
ENDSEC
0
SECTION
2
TABLES
0
TABLE
2
VPORT
5
8
100
AcDbSymbolTable
70
2
0
VPORT
5
1F4
100
AcDbSymbolTableRecord
100
AcDbViewportTableRecord
2
*ACTIVE
70
0
10
0.0
20
0.0
11
1.0
21
1.0
12
148.5000000000
22
105.0000000000
13
0.0
23
0.0
14
1.0
24
1.0
15
0.0
25
0.0
16
0.0
26
0.0
36
1.0
17
0.0
27
0.0
37
0.0
40
210.0000000000
41
1.4142857143
42
50.0
43
0.0
44
0.0
50
0.0
51
0.0
71
0
72
100
73
1
74
1
75
0
76
0
77
0
78
0
0
ENDTAB
0
TABLE
2
LTYPE
5
5
100
AcDbSymbolTable
70
6
0
LTYPE
5
14
100
AcDbSymbolTableRecord
100
AcDbLinetypeTableRecord
2
BYBLOCK
70
0
3

72
65
73
0
40
0.0
0
LTYPE
5
15
100
AcDbSymbolTableRecord
100
AcDbLinetypeTableRecord
2
BYLAYER
70
0
3

72
65
73
0
40
0.0
0
LTYPE
5
16
100
AcDbSymbolTableRecord
100
AcDbLinetypeTableRecord
2
CONTINUOUS
70
64
3
Solid line
72
65
73
0
40
0
0
LTYPE
5
1F5
100
AcDbSymbolTableRecord
100
AcDbLinetypeTableRecord
2
CENTER
70
64
3
____ _ ____ _ ____ _ ____ _ ____ _ ____ _ ____
72
65
73
4
40
0.6
49
0.375
74
0
49
-0.075
74
0
49
0.075
74
0
49
-0.075
74
0
0
LTYPE
5
1F6
100
AcDbSymbolTableRecord
100
AcDbLinetypeTableRecord
2
HIDDEN
70
64
3
- - - - - - - - - - - - - - - - - - - -
72
65
73
2
40
0.2
49
0.1
74
0
49
-0.1
74
0
0
LTYPE
5
1F7
100
AcDbSymbolTableRecord
100
AcDbLinetypeTableRecord
2
PHANTOM
70
64
3
_____ _ _ _____ _ _ _____ _ _ _____
72
65
73
6
40
0.8
49
0.45
74
0
49
-0.05
74
0
49
0.1
74
0
49
-0.05
74
0
49
0.1
74
0
49
-0.05
74
0
0
LTYPE
5
1F8
100
AcDbSymbolTableRecord
100
AcDbLinetypeTableRecord
2
DOT
70
64
3
. . . . . . . . . . . . . . . . . . . .
72
65
73
2
40
0.2
49
0.1
74
0
49
-0.1
74
0
0
LTYPE
5
1F9
100
AcDbSymbolTableRecord
100
AcDbLinetypeTableRecord
2
DASHED
70
64
3
- - - - - - - - - - - - - - - - - - - -
72
65
73
2
40
0.2
49
0.1
74
0
49
-0.1
74
0
0
ENDTAB
0
TABLE
2
LAYER
5
2
100
AcDbSymbolTable
70
36
0
LAYER
5
10
100
AcDbSymbolTableRecord
100
AcDbLayerTableRecord
2
0
70
0
62
7
6
CONTINUOUS
370
-3
390
F
0
LAYER
5
1FA
100
AcDbSymbolTableRecord
100
AcDbLayerTableRecord
2
DEFAULT_1
70
0
62
7
6
CENTER
370
-3
390
F
0
LAYER
5
1FB
100
AcDbSymbolTableRecord
100
AcDbLayerTableRecord
2
DEFAULT_2
70
0
62
8
6
HIDDEN
370
-3
390
F
0
LAYER
5
1FC
100
AcDbSymbolTableRecord
100
AcDbLayerTableRecord
2
DEFAULT_3
70
0
62
7
6
PHANTOM
370
-3
390
F
0
LAYER
5
1FD
100
AcDbSymbolTableRecord
100
AcDbLayerTableRecord
2
ASSI
70
0
62
7
6
CONTINUOUS
370
-3
390
F
0
LAYER
5
1FE
100
AcDbSymbolTableRecord
100
AcDbLayerTableRecord
2
PIANI
70
0
62
7
6
CONTINUOUS
370
-3
390
F
0
ENDTAB
0
TABLE
2
STYLE
5
3
100
AcDbSymbolTable
70
1
0
STYLE
5
11
100
AcDbSymbolTableRecord
100
AcDbTextStyleTableRecord
2
STANDARD
70
0
40
0.0
41
0.7143000000
50
0.0
71
0
42
0.2
3
txt
4

0
ENDTAB
0
TABLE
2
VIEW
5
6
100
AcDbSymbolTable
70
0
0
ENDTAB
0
TABLE
2
UCS
5
7
100
AcDbSymbolTable
70
0
0
ENDTAB
0
TABLE
2
APPID
5
9
100
AcDbSymbolTable
70
1
0
APPID
5
1FF
100
AcDbSymbolTableRecord
100
AcDbRegAppTableRecord
2
ACAD
70
0
0
ENDTAB
0
TABLE
2
BLOCK_RECORD
5
1
100
AcDbSymbolTable
70
0
0
BLOCK_RECORD
5
1F
100
AcDbSymbolTableRecord
100
AcDbBlockTableRecord
2
*MODEL_SPACE
0
BLOCK_RECORD
5
1B
100
AcDbSymbolTableRecord
100
AcDbBlockTableRecord
2
*PAPER_SPACE
0
BLOCK_RECORD
5
200
100
AcDbSymbolTableRecord
100
AcDbBlockTableRecord
2
_FILLED
0
BLOCK_RECORD
5
201
100
AcDbSymbolTableRecord
100
AcDbBlockTableRecord
2
*D0
0
BLOCK_RECORD
5
202
100
AcDbSymbolTableRecord
100
AcDbBlockTableRecord
2
*D1
0
BLOCK_RECORD
5
203
100
AcDbSymbolTableRecord
100
AcDbBlockTableRecord
2
*D2
0
BLOCK_RECORD
5
204
100
AcDbSymbolTableRecord
100
AcDbBlockTableRecord
2
*D3
0
BLOCK_RECORD
5
205
100
AcDbSymbolTableRecord
100
AcDbBlockTableRecord
2
*D4
0
BLOCK_RECORD
5
206
100
AcDbSymbolTableRecord
100
AcDbBlockTableRecord
2
*D5
0
ENDTAB
0
TABLE
2
DIMSTYLE
5
A
100
AcDbSymbolTable
70
1
100
AcDbDimStyleTable
71
0
0
DIMSTYLE
105
207
100
AcDbSymbolTableRecord
100
AcDbDimStyleTableRecord
2
STANDARD
70
0
3

4

40
1.0
41
3.5000000000
42
0.0625
43
0.38
44
0.18
45
0.0
46
0.0
47
0.0010000000
48
0.0010000000
140
3.5000000000
141
0.09
142
0.0
143
25.4
144
1.0000000000
145
0.0
146
1.0000000000
147
0.09
71
1
72
0
73
0
74
0
75
0
76
0
77
1
78
8
170
0
171
2
172
0
173
0
174
0
175
0
176
0
177
0
178
0
270
2
271
3
272
3
273
2
274
2
275
0
280
0
281
0
282
0
283
1
284
8
285
0
286
0
287
3
288
0
340
11
341
200
342
200
343
200
344
200
0
DIMSTYLE
105
208
100
AcDbSymbolTableRecord
100
AcDbDimStyleTableRecord
2
DIMSTYLE_1
70
0
3

4

40
1.0
41
3.5000000000
42
0.0625
43
0.38
44
0.18
45
0.0
46
0.0
47
0.1500000000
48
0.1500000000
140
3.5000000000
141
0.09
142
0.0
143
25.4
144
1.0000000000
145
0.0
146
1.0000000000
147
0.09
71
0
72
0
73
0
74
0
75
0
76
0
77
1
78
8
170
0
171
2
172
0
173
0
174
0
175
0
176
0
177
0
178
0
270
2
271
3
272
3
273
2
274
2
275
0
280
0
281
0
282
0
283
1
284
8
285
0
286
0
287
3
288
0
340
11
341
200
342
200
343
200
344
200
0
DIMSTYLE
105
209
100
AcDbSymbolTableRecord
100
AcDbDimStyleTableRecord
2
DIMSTYLE_2
70
0
3

4

40
1.0
41
3.5000000000
42
0.0625
43
0.38
44
0.18
45
0.0
46
0.0
47
0.1500000000
48
0.1500000000
140
3.5000000000
141
0.09
142
0.0
143
25.4
144
1.0000000000
145
0.0
146
1.0000000000
147
0.09
71
0
72
0
73
0
74
0
75
0
76
0
77
1
78
8
170
0
171
2
172
0
173
0
174
0
175
0
176
0
177
0
178
0
270
2
271
0
272
0
273
2
274
2
275
0
280
0
281
0
282
0
283
1
284
8
285
0
286
0
287
3
288
0
340
11
341
200
342
200
343
200
344
200
0
DIMSTYLE
105
20A
100
AcDbSymbolTableRecord
100
AcDbDimStyleTableRecord
2
DIMSTYLE_3
70
0
3

4

40
1.0
41
3.5000000000
42
0.0625
43
0.38
44
0.18
45
0.0
46
0.0
47
0.1000000000
48
0.1000000000
140
3.5000000000
141
0.09
142
0.0
143
25.4
144
1.0000000000
145
0.0
146
1.0000000000
147
0.09
71
0
72
0
73
0
74
0
75
0
76
0
77
1
78
8
170
0
171
2
172
0
173
0
174
0
175
0
176
0
177
0
178
0
270
2
271
3
272
3
273
2
274
2
275
0
280
0
281
0
282
0
283
1
284
8
285
0
286
0
287
3
288
0
340
11
341
200
342
200
343
200
344
200
0
ENDTAB
0
ENDSEC
0
SECTION
2
BLOCKS
0
BLOCK
5
20
100
AcDbEntity
8
0
100
AcDbBlockBegin
2
*MODEL_SPACE
70
0
10
0.0
20
0.0
30
0.0
3
*MODEL_SPACE
1

0
ENDBLK
5
21
100
AcDbEntity
8
0
100
AcDbBlockEnd
0
BLOCK
5
1C
100
AcDbEntity
8
0
100
AcDbBlockBegin
2
*PAPER_SPACE
70
0
10
0.0
20
0.0
30
0.0
3
*PAPER_SPACE
1

0
ENDBLK
5
1D
100
AcDbEntity
8
0
100
AcDbBlockEnd
0
BLOCK
5
20B
100
AcDbEntity
8
0
100
AcDbBlockBegin
62
2
6
CONTINUOUS
2
*D0
70
65
10
0.0000000000
20
0.0000000000
3
*D0
1

0
TEXT
5
20C
100
AcDbEntity
8
0
100
AcDbText
62
2
6
CONTINUOUS
10
187.7962253223
20
100.5804597864
7
STANDARD
40
3.5000000000
1
102
50
90.0000000000
41
0.7143000000
72
0
100
AcDbText
0
LINE
5
20D
100
AcDbEntity
8
0
100
AcDbLine
62
2
6
CONTINUOUS
10
147.4931819030
20
151.3922535244
11
190.1712253223
21
151.3922535244
0
LINE
5
20E
100
AcDbEntity
8
0
100
AcDbLine
62
2
6
CONTINUOUS
10
147.4931819030
20
49.3922535244
11
190.1712253223
21
49.3922535244
0
LINE
5
20F
100
AcDbEntity
8
0
100
AcDbLine
62
2
6
CONTINUOUS
10
188.6712253223
20
151.3922535244
11
188.6712253223
21
100.3922535244
0
LINE
5
210
100
AcDbEntity
8
0
100
AcDbLine
62
2
6
CONTINUOUS
10
188.6712253223
20
49.3922535244
11
188.6712253223
21
100.3922535244
0
INSERT
5
211
100
AcDbEntity
8
0
100
AcDbBlockReference
62
2
6
CONTINUOUS
2
_FILLED
10
188.6712253223
20
151.3922535244
41
  3.500000
42
  3.500000
43
  3.500000
50
 90.000000
0
INSERT
5
212
100
AcDbEntity
8
0
100
AcDbBlockReference
62
2
6
CONTINUOUS
2
_FILLED
10
188.6712253223
20
49.3922535244
41
  3.500000
42
  3.500000
43
  3.500000
50
270.000000
0
ENDBLK
5
213
100
AcDbEntity
8
0
6
BYBLOCK
62
0
100
AcDbBlockEnd
0
BLOCK
5
214
100
AcDbEntity
8
0
100
AcDbBlockBegin
62
2
6
CONTINUOUS
2
*D1
70
65
10
0.0000000000
20
0.0000000000
3
*D1
1

0
TEXT
5
215
100
AcDbEntity
8
0
100
AcDbText
62
2
6
CONTINUOUS
10
144.3460421647
20
169.7158277717
7
STANDARD
40
3.5000000000
1
51
41
0.7143000000
72
0
100
AcDbText
0
LINE
5
216
100
AcDbEntity
8
0
100
AcDbLine
62
2
6
CONTINUOUS
10
172.4131819030
20
148.2292619082
11
172.4131819030
21
170.3408277717
0
LINE
5
217
100
AcDbEntity
8
0
100
AcDbLine
62
2
6
CONTINUOUS
10
121.5731819030
20
148.2292619082
11
121.5731819030
21
170.3408277717
0
LINE
5
218
100
AcDbEntity
8
0
100
AcDbLine
62
2
6
CONTINUOUS
10
172.4131819030
20
168.8408277717
11
146.9931819030
21
168.8408277717
0
LINE
5
219
100
AcDbEntity
8
0
100
AcDbLine
62
2
6
CONTINUOUS
10
121.5731819030
20
168.8408277717
11
146.9931819030
21
168.8408277717
0
INSERT
5
21A
100
AcDbEntity
8
0
100
AcDbBlockReference
62
2
6
CONTINUOUS
2
_FILLED
10
172.4131819030
20
168.8408277717
41
  3.500000
42
  3.500000
43
  3.500000
0
INSERT
5
21B
100
AcDbEntity
8
0
100
AcDbBlockReference
62
2
6
CONTINUOUS
2
_FILLED
10
121.5731819030
20
168.8408277717
41
  3.500000
42
  3.500000
43
  3.500000
50
180.000000
0
ENDBLK
5
21C
100
AcDbEntity
8
0
6
BYBLOCK
62
0
100
AcDbBlockEnd
0
BLOCK
5
21D
100
AcDbEntity
8
0
100
AcDbBlockBegin
62
2
6
CONTINUOUS
2
*D2
70
65
10
0.0000000000
20
0.0000000000
3
*D2
1

0
TEXT
5
21E
100
AcDbEntity
8
0
100
AcDbText
62
2
6
CONTINUOUS
10
113.7091390335
20
94.8752013332
7
STANDARD
40
3.5000000000
1
25.4
50
90.0000000000
41
0.7143000000
72
0
100
AcDbText
0
LINE
5
21F
100
AcDbEntity
8
0
100
AcDbLine
62
2
6
CONTINUOUS
10
125.6931819030
20
113.0922535244
11
113.0841390335
21
113.0922535244
0
LINE
5
220
100
AcDbEntity
8
0
100
AcDbLine
62
2
6
CONTINUOUS
10
133.2431819030
20
87.6922535244
11
113.0841390335
21
87.6922535244
0
LINE
5
221
100
AcDbEntity
8
0
100
AcDbLine
62
2
6
CONTINUOUS
10
114.5841390335
20
113.0922535244
11
114.5841390335
21
100.3922535244
0
LINE
5
222
100
AcDbEntity
8
0
100
AcDbLine
62
2
6
CONTINUOUS
10
114.5841390335
20
87.6922535244
11
114.5841390335
21
100.3922535244
0
INSERT
5
223
100
AcDbEntity
8
0
100
AcDbBlockReference
62
2
6
CONTINUOUS
2
_FILLED
10
114.5841390335
20
113.0922535244
41
  3.500000
42
  3.500000
43
  3.500000
50
 90.000000
0
INSERT
5
224
100
AcDbEntity
8
0
100
AcDbBlockReference
62
2
6
CONTINUOUS
2
_FILLED
10
114.5841390335
20
87.6922535244
41
  3.500000
42
  3.500000
43
  3.500000
50
270.000000
0
ENDBLK
5
225
100
AcDbEntity
8
0
6
BYBLOCK
62
0
100
AcDbBlockEnd
0
BLOCK
5
226
100
AcDbEntity
8
0
100
AcDbBlockBegin
62
2
6
CONTINUOUS
2
*D3
70
65
10
0.0000000000
20
0.0000000000
3
*D3
1

0
TEXT
5
227
100
AcDbEntity
8
0
100
AcDbText
62
2
6
CONTINUOUS
10
113.5846996912
20
117.2742829503
7
STANDARD
40
3.5000000000
1
16.8
50
90.0000000000
41
0.7143000000
72
0
100
AcDbText
0
LINE
5
228
100
AcDbEntity
8
0
100
AcDbLine
62
2
6
CONTINUOUS
10
131.9931819931
20
129.8922535244
11
112.9596996912
21
129.8922535244
0
LINE
5
229
100
AcDbEntity
8
0
100
AcDbLine
62
2
6
CONTINUOUS
10
125.6931819030
20
113.0922535244
11
112.9596996912
21
113.0922535244
0
LINE
5
22A
100
AcDbEntity
8
0
100
AcDbLine
62
2
6
CONTINUOUS
10
114.4596996912
20
129.8922535244
11
114.4596996912
21
121.4922535244
0
LINE
5
22B
100
AcDbEntity
8
0
100
AcDbLine
62
2
6
CONTINUOUS
10
114.4596996912
20
113.0922535244
11
114.4596996912
21
121.4922535244
0
INSERT
5
22C
100
AcDbEntity
8
0
100
AcDbBlockReference
62
2
6
CONTINUOUS
2
_FILLED
10
114.4596996912
20
129.8922535244
41
  3.500000
42
  3.500000
43
  3.500000
50
 90.000000
0
INSERT
5
22D
100
AcDbEntity
8
0
100
AcDbBlockReference
62
2
6
CONTINUOUS
2
_FILLED
10
114.4596996912
20
113.0922535244
41
  3.500000
42
  3.500000
43
  3.500000
50
270.000000
0
ENDBLK
5
22E
100
AcDbEntity
8
0
6
BYBLOCK
62
0
100
AcDbBlockEnd
0
BLOCK
5
22F
100
AcDbEntity
8
0
100
AcDbBlockBegin
62
2
6
CONTINUOUS
2
*D4
70
65
10
0.0000000000
20
0.0000000000
3
*D4
1

0
TEXT
5
230
100
AcDbEntity
8
0
100
AcDbText
62
2
6
CONTINUOUS
10
113.8628582211
20
75.4187441638
7
STANDARD
40
3.5000000000
1
16.8
50
90.0000000000
41
0.7143000000
72
0
100
AcDbText
0
LINE
5
231
100
AcDbEntity
8
0
100
AcDbLine
62
2
6
CONTINUOUS
10
133.2431819030
20
87.6922535244
11
113.2378582211
21
87.6922535244
0
LINE
5
232
100
AcDbEntity
8
0
100
AcDbLine
62
2
6
CONTINUOUS
10
131.9931819931
20
70.8922535244
11
113.2378582211
21
70.8922535244
0
LINE
5
233
100
AcDbEntity
8
0
100
AcDbLine
62
2
6
CONTINUOUS
10
114.7378582211
20
87.6922535244
11
114.7378582211
21
79.2922535244
0
LINE
5
234
100
AcDbEntity
8
0
100
AcDbLine
62
2
6
CONTINUOUS
10
114.7378582211
20
70.8922535244
11
114.7378582211
21
79.2922535244
0
INSERT
5
235
100
AcDbEntity
8
0
100
AcDbBlockReference
62
2
6
CONTINUOUS
2
_FILLED
10
114.7378582211
20
87.6922535244
41
  3.500000
42
  3.500000
43
  3.500000
50
 90.000000
0
INSERT
5
236
100
AcDbEntity
8
0
100
AcDbBlockReference
62
2
6
CONTINUOUS
2
_FILLED
10
114.7378582211
20
70.8922535244
41
  3.500000
42
  3.500000
43
  3.500000
50
270.000000
0
ENDBLK
5
237
100
AcDbEntity
8
0
6
BYBLOCK
62
0
100
AcDbBlockEnd
0
BLOCK
5
238
100
AcDbEntity
8
0
100
AcDbBlockBegin
62
2
6
CONTINUOUS
2
*D5
70
65
10
0.0000000000
20
0.0000000000
3
*D5
1

0
TEXT
5
239
100
AcDbEntity
8
0
100
AcDbText
62
2
6
CONTINUOUS
10
144.1940680733
20
161.4408354652
7
STANDARD
40
3.5000000000
1
36
41
0.7143000000
72
0
100
AcDbText
0
LINE
5
23A
100
AcDbEntity
8
0
100
AcDbLine
62
2
6
CONTINUOUS
10
128.9931819030
20
113.5922535244
11
128.9931819030
21
162.0658354652
0
LINE
5
23B
100
AcDbEntity
8
0
100
AcDbLine
62
2
6
CONTINUOUS
10
164.9931819030
20
113.5922535244
11
164.9931819030
21
162.0658354652
0
LINE
5
23C
100
AcDbEntity
8
0
100
AcDbLine
62
2
6
CONTINUOUS
10
128.9931819030
20
160.5658354652
11
146.9931819030
21
160.5658354652
0
LINE
5
23D
100
AcDbEntity
8
0
100
AcDbLine
62
2
6
CONTINUOUS
10
164.9931819030
20
160.5658354652
11
146.9931819030
21
160.5658354652
0
INSERT
5
23E
100
AcDbEntity
8
0
100
AcDbBlockReference
62
2
6
CONTINUOUS
2
_FILLED
10
128.9931819030
20
160.5658354652
41
  3.500000
42
  3.500000
43
  3.500000
50
180.000000
0
INSERT
5
23F
100
AcDbEntity
8
0
100
AcDbBlockReference
62
2
6
CONTINUOUS
2
_FILLED
10
164.9931819030
20
160.5658354652
41
  3.500000
42
  3.500000
43
  3.500000
0
ENDBLK
5
240
100
AcDbEntity
8
0
6
BYBLOCK
62
0
100
AcDbBlockEnd
0
BLOCK
5
241
100
AcDbEntity
8
0
100
AcDbBlockBegin
2
_FILLED
70
64
10
0.0000000000
20
0.0000000000
3
_FILLED
1

0
SOLID
5
242
100
AcDbEntity
8
0
6
BYBLOCK
62
0
100
AcDbTrace
10
0.0000000000
20
0.0000000000
11
-1.0000000000
21
0.1857142857
12
-1.0000000000
22
-0.1857142857
13
-1.0000000000
23
-0.1857142857
0
ENDBLK
5
243
100
AcDbEntity
8
0
6
BYBLOCK
62
0
100
AcDbBlockEnd
0
ENDSEC
0
SECTION
2
ENTITIES
0
DIMENSION
5
244
100
AcDbEntity
8
0
100
AcDbDimension
62
2
6
CONTINUOUS
2
*D0
10
188.6712253223
20
49.3922535244
11
186.0462253223
21
104.3305347864
70
160
42
102.000000
3
DIMSTYLE_1
100
AcDbAlignedDimension
13
147.4931819030
23
151.3922535244
14
147.4931819030
24
49.3922535244
50
270.000000
100
AcDbRotatedDimension
0
DIMENSION
5
245
100
AcDbEntity
8
0
100
AcDbDimension
62
2
6
CONTINUOUS
2
*D1
10
121.5731819030
20
168.8408277717
11
146.8460921647
21
171.4658277717
70
160
42
50.840000
3
DIMSTYLE_2
100
AcDbAlignedDimension
13
172.4131819030
23
148.2292619082
14
121.5731819030
24
148.2292619082
50
180.000000
100
AcDbRotatedDimension
0
DIMENSION
5
246
100
AcDbEntity
8
0
100
AcDbDimension
62
2
6
CONTINUOUS
2
*D2
10
114.5841390335
20
87.6922535244
11
111.9591390335
21
99.8753013332
70
160
42
25.400000
3
DIMSTYLE_3
100
AcDbAlignedDimension
13
125.6931819030
23
113.0922535244
14
133.2431819030
24
87.6922535244
50
270.000000
100
AcDbRotatedDimension
0
DIMENSION
5
247
100
AcDbEntity
8
0
100
AcDbDimension
62
2
6
CONTINUOUS
2
*D3
10
114.4596996912
20
113.0922535244
11
111.8346996912
21
122.2743829503
70
160
42
16.800000
3
DIMSTYLE_3
100
AcDbAlignedDimension
13
131.9931819931
23
129.8922535244
14
125.6931819030
24
113.0922535244
50
270.000000
100
AcDbRotatedDimension
0
DIMENSION
5
248
100
AcDbEntity
8
0
100
AcDbDimension
62
2
6
CONTINUOUS
2
*D4
10
114.7378582211
20
70.8922535244
11
112.1128582211
21
80.4188441638
70
160
42
16.800000
3
DIMSTYLE_3
100
AcDbAlignedDimension
13
133.2431819030
23
87.6922535244
14
131.9931819931
24
70.8922535244
50
270.000000
100
AcDbRotatedDimension
0
DIMENSION
5
249
100
AcDbEntity
8
0
100
AcDbDimension
62
2
6
CONTINUOUS
2
*D5
10
164.9931819030
20
160.5658354652
11
146.6941180733
21
163.1908354652
70
160
42
36.000000
3
DIMSTYLE_1
100
AcDbAlignedDimension
13
128.9931819030
23
113.5922535244
14
164.9931819030
24
113.5922535244
100
AcDbRotatedDimension
0
LINE
5
24A
100
AcDbEntity
8
0
100
AcDbLine
62
7
6
CONTINUOUS
10
0.0000000000
20
0.0000000000
11
0.0000000000
21
210.0000000000
0
LINE
5
24B
100
AcDbEntity
8
0
100
AcDbLine
62
7
6
CONTINUOUS
10
0.0000000000
20
0.0000000000
11
297.0000000000
21
0.0000000000
0
LINE
5
24C
100
AcDbEntity
8
0
100
AcDbLine
62
7
6
CONTINUOUS
10
0.0000000000
20
210.0000000000
11
297.0000000000
21
210.0000000000
0
LINE
5
24D
100
AcDbEntity
8
0
100
AcDbLine
62
7
6
CONTINUOUS
10
297.0000000000
20
0.0000000000
11
297.0000000000
21
210.0000000000
0
LINE
5
24E
100
AcDbEntity
8
0
100
AcDbLine
62
7
6
CONTINUOUS
10
169.5503169786
20
50.0583811178
11
154.9931819030
21
49.3922535244
0
LINE
5
24F
100
AcDbEntity
8
0
100
AcDbLine
62
7
6
CONTINUOUS
10
138.9931819030
20
49.3922535244
11
154.9931819030
21
49.3922535244
0
LINE
5
250
100
AcDbEntity
8
0
100
AcDbLine
62
9
6
CONTINUOUS
10
124.5035092396
20
50.0583811178
11
124.4360468274
21
50.0583811178
0
LINE
5
251
100
AcDbEntity
8
0
100
AcDbLine
62
9
6
CONTINUOUS
10
145.2499187841
20
50.0583811178
11
148.7364450244
21
50.0583811178
0
LINE
5
252
100
AcDbEntity
8
0
100
AcDbLine
62
9
6
CONTINUOUS
10
169.4828545664
20
50.0583811178
11
169.5503169786
21
50.0583811178
0
LINE
5
253
100
AcDbEntity
8
0
100
AcDbLine
62
7
6
CONTINUOUS
10
124.4360468274
20
50.0583811178
11
138.9931819030
21
49.3922535244
0
LINE
5
254
100
AcDbEntity
8
0
100
AcDbLine
62
9
6
CONTINUOUS
10
123.6041197396
20
53.0552451415
11
121.5731819030
21
53.0552451406
0
LINE
5
255
100
AcDbEntity
8
0
100
AcDbLine
62
9
6
CONTINUOUS
10
143.2930009436
20
53.0552451415
11
150.6933628624
21
53.0552451415
0
LINE
5
256
100
AcDbEntity
8
0
100
AcDbLine
62
9
6
CONTINUOUS
10
170.3822440587
20
53.0552450196
11
172.4131819030
21
53.0552451406
0
LINE
5
257
100
AcDbEntity
8
0
100
AcDbLine
62
9
6
CONTINUOUS
10
121.5731819030
20
53.9692400078
11
123.6041197396
21
53.9692400068
0
LINE
5
258
100
AcDbEntity
8
0
100
AcDbLine
62
9
6
CONTINUOUS
10
143.2930014790
20
53.9692397993
11
150.6933623270
21
53.9692400881
0
LINE
5
259
100
AcDbEntity
8
0
100
AcDbLine
62
9
6
CONTINUOUS
10
170.3822440581
20
53.9692397993
11
172.4131819030
21
53.9692400078
0
LINE
5
25A
100
AcDbEntity
8
0
100
AcDbLine
62
9
6
CONTINUOUS
10
123.8578182873
20
56.8653849243
11
123.7906573841
21
56.8653849243
0
LINE
5
25B
100
AcDbEntity
8
0
100
AcDbLine
62
9
6
CONTINUOUS
10
145.2290689359
20
56.8653849243
11
148.7572947366
21
56.8653849243
0
LINE
5
25C
100
AcDbEntity
8
0
100
AcDbLine
62
9
6
CONTINUOUS
10
170.1285455187
20
56.8653849243
11
170.1957064219
21
56.8653849243
0
LINE
5
25D
100
AcDbEntity
8
0
100
AcDbLine
62
9
6
CONTINUOUS
10
153.9101368272
20
59.7923949777
11
140.0762273047
21
59.7923949777
0
LINE
5
25E
100
AcDbEntity
8
0
100
AcDbLine
62
9
6
CONTINUOUS
10
134.6236329770
20
59.7924031703
11
136.7383553667
21
59.7924031703
0
LINE
5
25F
100
AcDbEntity
8
0
100
AcDbLine
62
9
6
CONTINUOUS
10
157.2480084393
20
59.7924031703
11
159.3627308290
21
59.7924031703
0
LINE
5
260
100
AcDbEntity
8
0
100
AcDbLine
62
9
6
CONTINUOUS
10
134.9931819030
20
60.2750857972
11
137.0447229353
21
60.2750857972
0
LINE
5
261
100
AcDbEntity
8
0
100
AcDbLine
62
9
6
CONTINUOUS
10
140.2828942565
20
60.2750857972
11
153.7034793365
21
60.2750857972
0
LINE
5
262
100
AcDbEntity
8
0
100
AcDbLine
62
9
6
CONTINUOUS
10
156.9416408707
20
60.2750857972
11
158.9931819030
21
60.2750857972
0
LINE
5
263
100
AcDbEntity
8
0
100
AcDbLine
62
7
6
CONTINUOUS
10
134.6236352568
20
59.7924037863
11
123.7906573841
21
56.8653849243
0
LINE
5
264
100
AcDbEntity
8
0
100
AcDbLine
62
7
6
CONTINUOUS
10
159.3627285492
20
59.7924037863
11
170.1957064219
21
56.8653849243
0
LINE
5
265
100
AcDbEntity
8
0
100
AcDbLine
62
7
6
CONTINUOUS
10
161.4931819030
20
70.8922535244
11
132.4931819030
21
70.8922535244
0
LINE
5
266
100
AcDbEntity
8
0
100
AcDbLine
62
9
6
CONTINUOUS
10
130.4931819030
20
72.8922535244
11
163.4931819030
21
72.8922535244
0
LINE
5
267
100
AcDbEntity
8
0
100
AcDbLine
62
7
6
CONTINUOUS
10
121.5731819030
20
147.7292619082
11
121.5731819030
21
146.8152670411
0
LINE
5
268
100
AcDbEntity
8
0
100
AcDbLine
62
7
6
CONTINUOUS
10
121.5731819030
20
53.9692400078
11
121.5731819030
21
53.0552451406
0
LINE
5
269
100
AcDbEntity
8
0
100
AcDbLine
62
9
6
CONTINUOUS
10
121.6402718255
20
147.7292619082
11
121.6402718255
21
146.8152670411
0
LINE
5
26A
100
AcDbEntity
8
0
100
AcDbLine
62
9
6
CONTINUOUS
10
121.6402718255
20
53.9692400078
11
121.6402718255
21
53.0552451406
0
LINE
5
26B
100
AcDbEntity
8
0
100
AcDbLine
62
9
6
CONTINUOUS
10
123.6041197396
20
147.7292619082
11
123.6041197396
21
146.8152670411
0
LINE
5
26C
100
AcDbEntity
8
0
100
AcDbLine
62
9
6
CONTINUOUS
10
123.6041197396
20
53.9692400078
11
123.6041197396
21
53.0552451406
0
LWPOLYLINE
5
26D
100
AcDbEntity
8
0
100
AcDbPolyline
62
7
6
CONTINUOUS
90
3
70
0
10
148.6208279941
20
77.5723070096
10
147.7859629705
20
77.4730170964
10
146.9931819041
20
77.4422606835
0
LWPOLYLINE
5
26E
100
AcDbEntity
8
0
100
AcDbPolyline
62
7
6
CONTINUOUS
90
22
70
0
10
146.9931819037
20
77.4422652482
10
146.1991517592
20
77.4731072753
10
145.3633587840
20
77.5726612819
10
144.4922415249
20
77.7520563700
10
143.6130230860
20
78.0156526851
10
142.7396464606
20
78.3664921369
10
141.8940039751
20
78.8006400953
10
141.0872539252
20
79.3147493917
10
140.3351245160
20
79.8991178308
10
139.6443354495
20
80.5468260109
10
139.0244140107
20
81.2454179659
10
138.4792343616
20
81.9847726644
10
138.0106139514
20
82.7550055800
10
137.6203789985
20
83.5434104008
10
137.3032759729
20
84.3503469719
10
137.0580929716
20
85.1711478255
10
136.8830952564
20
86.0044745024
10
136.7781555583
20
86.8467528400
10
136.7431823711
20
87.6938124161
10
136.7784246312
20
88.5410215801
10
136.8836362362
20
89.3832463579
10
137.0589486753
20
90.2167406577
0
LINE
5
26F
100
AcDbEntity
8
0
100
AcDbLine
62
7
6
CONTINUOUS
10
128.9931819030
20
103.0422535244
11
128.9931819030
21
123.1422535244
0
LINE
5
270
100
AcDbEntity
8
0
100
AcDbLine
62
9
6
CONTINUOUS
10
129.1931819030
20
123.3422535244
11
129.1931819030
21
102.8422535244
0
LINE
5
271
100
AcDbEntity
8
0
100
AcDbLine
62
7
6
CONTINUOUS
10
130.4931819030
20
72.8922535244
11
130.4931819030
21
102.3422535244
0
LINE
5
272
100
AcDbEntity
8
0
100
AcDbLine
62
7
6
CONTINUOUS
10
130.4931819030
20
123.8422535244
11
130.4931819030
21
127.8922535244
0
LINE
5
273
100
AcDbEntity
8
0
100
AcDbLine
62
7
6
CONTINUOUS
10
134.9931819030
20
140.5094212517
11
134.9931819030
21
129.8922535244
0
LINE
5
274
100
AcDbEntity
8
0
100
AcDbLine
62
7
6
CONTINUOUS
10
134.9931819030
20
70.8922535244
11
134.9931819030
21
60.2750857972
0
LINE
5
275
100
AcDbEntity
8
DEFAULT_1
100
AcDbLine
62
2
6
CENTER
10
146.9931819030
20
87.6922535244
11
133.7431819030
21
87.6922535244
0
LINE
5
276
100
AcDbEntity
8
DEFAULT_1
100
AcDbLine
62
2
6
CENTER
10
146.9931819030
20
87.6922535244
11
160.2431819030
21
87.6922535244
0
LINE
5
277
100
AcDbEntity
8
0
100
AcDbLine
62
9
6
CONTINUOUS
10
143.2930009436
20
147.7292619082
11
143.2930009436
21
146.8152670411
0
LINE
5
278
100
AcDbEntity
8
0
100
AcDbLine
62
9
6
CONTINUOUS
10
143.2930009436
20
53.9692400078
11
143.2930009436
21
53.0552451406
0
LWPOLYLINE
5
279
100
AcDbEntity
8
0
100
AcDbPolyline
62
7
6
CONTINUOUS
90
4
70
0
10
137.0589338089
20
90.2166821762
10
137.3043683431
20
91.0373195327
10
137.6217389975
20
91.8441679095
10
138.0122487923
20
92.6324778564
0
LWPOLYLINE
5
27A
100
AcDbEntity
8
0
100
AcDbPolyline
62
7
6
CONTINUOUS
90
11
70
0
10
138.0122968541
20
92.6325652191
10
138.4810788711
20
93.4024790770
10
139.0264928492
20
94.1416626194
10
139.6464677236
20
94.8398682424
10
140.3374522246
20
95.4873803911
10
141.0895573077
20
96.0713780547
10
141.8964167305
20
96.5852535687
10
142.7418728303
20
97.0190251553
10
143.6151404130
20
97.3695959658
10
144.4939230375
20
97.6328729388
10
145.3646964436
20
97.8120650259
0
LINE
5
27B
100
AcDbEntity
8
0
100
AcDbLine
62
9
6
CONTINUOUS
10
145.1475517667
20
147.7292619082
11
145.1475517667
21
146.8152670411
0
LINE
5
27C
100
AcDbEntity
8
0
100
AcDbLine
62
9
6
CONTINUOUS
10
145.1475517667
20
53.9692400078
11
145.1475517667
21
53.0552451406
0
LINE
5
27D
100
AcDbEntity
8
DEFAULT_1
100
AcDbLine
62
2
6
CENTER
10
146.9931819030
20
154.3922535244
11
146.9931819030
21
100.9422535244
0
LINE
5
27E
100
AcDbEntity
8
DEFAULT_1
100
AcDbLine
62
2
6
CENTER
10
146.9931819030
20
74.4422535244
11
146.9931819030
21
46.3922535244
0
LINE
5
27F
100
AcDbEntity
8
DEFAULT_1
100
AcDbLine
62
2
6
CENTER
10
146.9931819030
20
87.6922535244
11
146.9931819030
21
74.4422535244
0
LINE
5
280
100
AcDbEntity
8
DEFAULT_1
100
AcDbLine
62
2
6
CENTER
10
146.9931819030
20
87.6922535244
11
146.9931819030
21
100.9422535244
0
LWPOLYLINE
5
281
100
AcDbEntity
8
0
100
AcDbPolyline
62
7
6
CONTINUOUS
90
3
70
0
10
145.3655368000
20
97.8122002006
10
146.2004012326
20
97.9114899782
10
146.9931819019
20
97.9422463653
0
LWPOLYLINE
5
282
100
AcDbEntity
8
0
100
AcDbPolyline
62
7
6
CONTINUOUS
90
22
70
0
10
146.9931819023
20
97.9422418010
10
147.7872126249
20
97.9113997373
10
148.6230058747
20
97.8118456263
10
149.4941231593
20
97.6324504618
10
150.3733413583
20
97.3688541437
10
151.2467175397
20
97.0180148377
10
152.0923596362
20
96.5838670455
10
152.8991093620
20
96.0697580298
10
153.6512383913
20
95.4853899806
10
154.3420271757
20
94.8376822690
10
154.9619484755
20
94.1390906958
10
155.5071282327
20
93.3997362146
10
155.9757488888
20
92.6295032313
10
156.3659841271
20
91.8410981868
10
156.6830873973
20
91.0341613449
10
156.9282706555
20
90.2133599315
10
157.1032685672
20
89.3800324695
10
157.2082083347
20
88.5377531439
10
157.2431814327
20
87.6906925006
10
157.2079389071
20
86.8434821963
10
157.1027268421
20
86.0012563767
10
156.9274138030
20
85.1677611318
0
LINE
5
283
100
AcDbEntity
8
0
100
AcDbLine
62
9
6
CONTINUOUS
10
148.8388120393
20
147.7292619082
11
148.8388120393
21
146.8152670411
0
LINE
5
284
100
AcDbEntity
8
0
100
AcDbLine
62
9
6
CONTINUOUS
10
148.8388120393
20
53.9692400078
11
148.8388120393
21
53.0552451406
0
LINE
5
285
100
AcDbEntity
8
0
100
AcDbLine
62
9
6
CONTINUOUS
10
150.6933628624
20
147.7292619082
11
150.6933628624
21
146.8152670411
0
LINE
5
286
100
AcDbEntity
8
0
100
AcDbLine
62
9
6
CONTINUOUS
10
150.6933628624
20
53.9692400078
11
150.6933628624
21
53.0552451406
0
LINE
5
287
100
AcDbEntity
8
0
100
AcDbLine
62
7
6
CONTINUOUS
10
129.1931819030
20
102.8422535244
11
129.9931819030
21
102.8422535244
0
LINE
5
288
100
AcDbEntity
8
0
100
AcDbLine
62
7
6
CONTINUOUS
10
163.9931819030
20
102.8422535244
11
164.7931819030
21
102.8422535244
0
LINE
5
289
100
AcDbEntity
8
0
100
AcDbLine
62
7
6
CONTINUOUS
10
128.9931819030
20
105.0922535244
11
164.9931819030
21
105.0922535244
0
LINE
5
28A
100
AcDbEntity
8
0
100
AcDbLine
62
7
6
CONTINUOUS
10
158.9931819030
20
140.5094212517
11
158.9931819030
21
129.8922535244
0
LINE
5
28B
100
AcDbEntity
8
0
100
AcDbLine
62
7
6
CONTINUOUS
10
158.9931819030
20
70.8922535244
11
158.9931819030
21
60.2750857972
0
LWPOLYLINE
5
28C
100
AcDbEntity
8
0
100
AcDbPolyline
62
7
6
CONTINUOUS
90
4
70
0
10
156.9274313455
20
85.1678302133
10
156.6819975234
20
84.3471934725
10
156.3646276036
20
83.5403454539
10
155.9741185585
20
82.7520356483
0
LINE
5
28D
100
AcDbEntity
8
DEFAULT_1
100
AcDbLine
62
2
6
CENTER
10
167.7931819030
20
113.0922535244
11
126.1931819030
21
113.0922535244
0
LINE
5
28E
100
AcDbEntity
8
0
100
AcDbLine
62
7
6
CONTINUOUS
10
163.4931819030
20
72.8922535244
11
163.4931819030
21
102.3422535244
0
LINE
5
28F
100
AcDbEntity
8
0
100
AcDbLine
62
7
6
CONTINUOUS
10
163.4931819030
20
123.8422535244
11
163.4931819030
21
127.8922535244
0
LINE
5
290
100
AcDbEntity
8
0
100
AcDbLine
62
9
6
CONTINUOUS
10
164.7931819030
20
102.8422535244
11
164.7931819030
21
123.3422535244
0
LINE
5
291
100
AcDbEntity
8
0
100
AcDbLine
62
7
6
CONTINUOUS
10
164.9931819030
20
103.0422535244
11
164.9931819030
21
123.1422535244
0
LWPOLYLINE
5
292
100
AcDbEntity
8
0
100
AcDbPolyline
62
7
6
CONTINUOUS
90
11
70
0
10
155.9740634672
20
82.7519354834
10
155.5052807418
20
81.9820217203
10
154.9598663089
20
81.2428386851
10
154.3398912599
20
80.5446338463
10
153.6489068317
20
79.8971226064
10
152.8968020259
20
79.3131258459
10
152.0899430380
20
78.7992511630
10
151.2444875412
20
78.3654803325
10
150.3712207520
20
78.0149101639
10
149.4924389752
20
77.7516336562
10
148.6216663927
20
77.5724418644
0
LINE
5
293
100
AcDbEntity
8
0
100
AcDbLine
62
7
6
CONTINUOUS
10
128.9931819030
20
121.0922535244
11
164.9931819030
21
121.0922535244
0
LINE
5
294
100
AcDbEntity
8
0
100
AcDbLine
62
7
6
CONTINUOUS
10
129.1931819030
20
123.3422535244
11
129.9931819030
21
123.3422535244
0
LINE
5
295
100
AcDbEntity
8
0
100
AcDbLine
62
7
6
CONTINUOUS
10
163.9931819030
20
123.3422535244
11
164.7931819030
21
123.3422535244
0
LINE
5
296
100
AcDbEntity
8
0
100
AcDbLine
62
9
6
CONTINUOUS
10
170.3822440664
20
147.7292619082
11
170.3822440664
21
146.8152670411
0
LINE
5
297
100
AcDbEntity
8
0
100
AcDbLine
62
9
6
CONTINUOUS
10
170.3822440664
20
53.9692400078
11
170.3822440664
21
53.0552451406
0
LINE
5
298
100
AcDbEntity
8
0
100
AcDbLine
62
9
6
CONTINUOUS
10
172.3460919805
20
147.7292619082
11
172.3460919805
21
146.8152670411
0
LINE
5
299
100
AcDbEntity
8
0
100
AcDbLine
62
9
6
CONTINUOUS
10
172.3460919805
20
53.9692400078
11
172.3460919805
21
53.0552451406
0
LINE
5
29A
100
AcDbEntity
8
0
100
AcDbLine
62
7
6
CONTINUOUS
10
172.4131819030
20
147.7292619082
11
172.4131819030
21
146.8152670411
0
LINE
5
29B
100
AcDbEntity
8
0
100
AcDbLine
62
7
6
CONTINUOUS
10
172.4131819030
20
53.9692400078
11
172.4131819030
21
53.0552451406
0
LINE
5
29C
100
AcDbEntity
8
0
100
AcDbLine
62
9
6
CONTINUOUS
10
163.4931819030
20
127.8922535244
11
130.4931819030
21
127.8922535244
0
LINE
5
29D
100
AcDbEntity
8
0
100
AcDbLine
62
7
6
CONTINUOUS
10
161.4931819030
20
129.8922535244
11
132.4931819030
21
129.8922535244
0
LINE
5
29E
100
AcDbEntity
8
0
100
AcDbLine
62
7
6
CONTINUOUS
10
170.1957064219
20
143.9191221246
11
159.3627259028
21
140.9921025475
0
LINE
5
29F
100
AcDbEntity
8
0
100
AcDbLine
62
7
6
CONTINUOUS
10
123.7906573841
20
143.9191221246
11
134.6236379032
21
140.9921025475
0
LINE
5
2A0
100
AcDbEntity
8
0
100
AcDbLine
62
9
6
CONTINUOUS
10
158.9931819030
20
140.5094212517
11
156.9416509764
21
140.5094212517
0
LINE
5
2A1
100
AcDbEntity
8
0
100
AcDbLine
62
9
6
CONTINUOUS
10
153.7034700853
20
140.5094212517
11
140.2828932866
21
140.5094212517
0
LINE
5
2A2
100
AcDbEntity
8
0
100
AcDbLine
62
9
6
CONTINUOUS
10
137.0447128296
20
140.5094212517
11
134.9931819030
21
140.5094212517
0
LINE
5
2A3
100
AcDbEntity
8
0
100
AcDbLine
62
9
6
CONTINUOUS
10
159.3627303236
20
140.9921037420
11
157.2480196187
21
140.9921037420
0
LINE
5
2A4
100
AcDbEntity
8
0
100
AcDbLine
62
9
6
CONTINUOUS
10
136.7383441873
20
140.9921037420
11
134.6236334824
21
140.9921037420
0
LINE
5
2A5
100
AcDbEntity
8
0
100
AcDbLine
62
9
6
CONTINUOUS
10
140.0762254935
20
140.9921120711
11
153.9101375750
21
140.9921120711
0
LINE
5
2A6
100
AcDbEntity
8
0
100
AcDbLine
62
9
6
CONTINUOUS
10
148.7572946057
20
143.9191221246
11
145.2290691799
21
143.9191221246
0
LINE
5
2A7
100
AcDbEntity
8
0
100
AcDbLine
62
9
6
CONTINUOUS
10
123.8578182702
20
143.9191221246
11
123.7906573841
21
143.9191221246
0
LINE
5
2A8
100
AcDbEntity
8
0
100
AcDbLine
62
9
6
CONTINUOUS
10
170.1285455358
20
143.9191221246
11
170.1957064219
21
143.9191221246
0
LINE
5
2A9
100
AcDbEntity
8
0
100
AcDbLine
62
9
6
CONTINUOUS
10
150.6933628624
20
146.8152670422
11
143.2930009436
21
146.8152670422
0
LINE
5
2AA
100
AcDbEntity
8
0
100
AcDbLine
62
9
6
CONTINUOUS
10
123.6041197396
20
146.8152670422
11
121.5731819030
21
146.8152670411
0
LINE
5
2AB
100
AcDbEntity
8
0
100
AcDbLine
62
9
6
CONTINUOUS
10
170.3822440565
20
146.8152669757
11
172.4131819030
21
146.8152670411
0
LINE
5
2AC
100
AcDbEntity
8
0
100
AcDbLine
62
9
6
CONTINUOUS
10
150.6933622081
20
147.7292620056
11
143.2930015979
21
147.7292617648
0
LINE
5
2AD
100
AcDbEntity
8
0
100
AcDbLine
62
9
6
CONTINUOUS
10
121.5731819030
20
147.7292619082
11
123.6041197396
21
147.7292619071
0
LINE
5
2AE
100
AcDbEntity
8
0
100
AcDbLine
62
9
6
CONTINUOUS
10
170.3822440562
20
147.7292617648
11
172.4131819030
21
147.7292619082
0
LINE
5
2AF
100
AcDbEntity
8
0
100
AcDbLine
62
7
6
CONTINUOUS
10
138.9931819030
20
151.3922535244
11
124.4360468274
21
150.7261259310
0
LINE
5
2B0
100
AcDbEntity
8
0
100
AcDbLine
62
9
6
CONTINUOUS
10
124.5035092407
20
150.7261259310
11
124.4360468274
21
150.7261259310
0
LINE
5
2B1
100
AcDbEntity
8
0
100
AcDbLine
62
9
6
CONTINUOUS
10
145.2499187663
20
150.7261259310
11
148.7364450395
21
150.7261259310
0
LINE
5
2B2
100
AcDbEntity
8
0
100
AcDbLine
62
9
6
CONTINUOUS
10
169.4828545652
20
150.7261259310
11
169.5503169786
21
150.7261259310
0
LINE
5
2B3
100
AcDbEntity
8
0
100
AcDbLine
62
7
6
CONTINUOUS
10
138.9931819030
20
151.3922535244
11
154.9931819030
21
151.3922535244
0
LINE
5
2B4
100
AcDbEntity
8
0
100
AcDbLine
62
7
6
CONTINUOUS
10
154.9931819030
20
151.3922535244
11
169.5503169786
21
150.7261259310
0
CIRCLE
5
2B5
100
AcDbEntity
8
0
100
AcDbCircle
62
7
6
CONTINUOUS
10
146.9931819030
20
87.6922535244
40
8.0000000000
0
CIRCLE
5
2B6
100
AcDbEntity
8
0
100
AcDbCircle
62
9
6
CONTINUOUS
10
146.9931819030
20
87.6922535244
40
10.0499997730
0
ARC
5
2B7
100
AcDbEntity
8
0
100
AcDbCircle
62
7
6
CONTINUOUS
10
163.9931813955
20
123.8422529354
40
0.4999999726
100
AcDbArc
50
179.9999325010
51
270.0000581518
0
ARC
5
2B8
100
AcDbEntity
8
0
100
AcDbCircle
62
7
6
CONTINUOUS
10
163.9931813370
20
102.3422541786
40
0.4999999696
100
AcDbArc
50
89.9999347955
51
180.0000746918
0
ARC
5
2B9
100
AcDbEntity
8
0
100
AcDbCircle
62
7
6
CONTINUOUS
10
129.9931825296
20
123.8422527943
40
0.4999999661
100
AcDbArc
50
269.9999276409
51
0.0000832236
0
ARC
5
2BA
100
AcDbEntity
8
0
100
AcDbCircle
62
7
6
CONTINUOUS
10
129.9931824130
20
102.3422541173
40
0.4999999724
100
AcDbArc
50
359.9999323375
51
90.0000587889
0
ARC
5
2BB
100
AcDbEntity
8
0
100
AcDbCircle
62
7
6
CONTINUOUS
10
161.4931819030
20
72.8922535244
40
2.0000000000
100
AcDbArc
50
270.0000000000
51
360.0000000000
0
ARC
5
2BC
100
AcDbEntity
8
0
100
AcDbCircle
62
7
6
CONTINUOUS
10
132.4931819030
20
72.8922535244
40
2.0000000000
100
AcDbArc
50
180.0000000000
51
270.0000000000
0
ARC
5
2BD
100
AcDbEntity
8
0
100
AcDbCircle
62
7
6
CONTINUOUS
10
161.4931819030
20
127.8922535244
40
2.0000000000
100
AcDbArc
50
0.0000000000
51
90.0000000000
0
ARC
5
2BE
100
AcDbEntity
8
0
100
AcDbCircle
62
7
6
CONTINUOUS
10
132.4931819030
20
127.8922535244
40
2.0000000000
100
AcDbArc
50
90.0000000000
51
180.0000000000
0
CIRCLE
5
2BF
100
AcDbEntity
8
0
100
AcDbCircle
62
7
6
CONTINUOUS
10
146.9931819030
20
87.6922535244
40
10.2500000000
0
ARC
5
2C0
100
AcDbEntity
8
0
100
AcDbCircle
62
7
6
CONTINUOUS
10
129.1931819030
20
123.1422535244
40
0.2000000000
100
AcDbArc
50
90.0000000000
51
180.0000000000
0
ARC
5
2C1
100
AcDbEntity
8
0
100
AcDbCircle
62
7
6
CONTINUOUS
10
129.1931819030
20
103.0422535244
40
0.2000000000
100
AcDbArc
50
180.0000000000
51
270.0000000000
0
ARC
5
2C2
100
AcDbEntity
8
0
100
AcDbCircle
62
7
6
CONTINUOUS
10
164.7931819030
20
103.0422535244
40
0.2000000000
100
AcDbArc
50
270.0000000000
51
360.0000000000
0
ARC
5
2C3
100
AcDbEntity
8
0
100
AcDbCircle
62
7
6
CONTINUOUS
10
164.7931819030
20
123.1422535244
40
0.2000000000
100
AcDbArc
50
0.0000000000
51
90.0000000000
0
ARC
5
2C4
100
AcDbEntity
8
0
100
AcDbCircle
62
7
6
CONTINUOUS
10
124.5731819030
20
53.0552451406
40
3.0000000000
100
AcDbArc
50
180.0000000000
51
267.3800000000
0
ARC
5
2C5
100
AcDbEntity
8
0
100
AcDbCircle
62
7
6
CONTINUOUS
10
169.4131819030
20
53.0552451406
40
3.0000000000
100
AcDbArc
50
272.6200000000
51
360.0000000000
0
ARC
5
2C6
100
AcDbEntity
8
0
100
AcDbCircle
62
7
6
CONTINUOUS
10
124.5731819030
20
53.9692400078
40
3.0000000000
100
AcDbArc
50
105.1200000000
51
180.0000000000
0
ARC
5
2C7
100
AcDbEntity
8
0
100
AcDbCircle
62
7
6
CONTINUOUS
10
169.4131819030
20
53.9692400078
40
3.0000000000
100
AcDbArc
50
0.0000000000
51
74.8800000000
0
ARC
5
2C8
100
AcDbEntity
8
0
100
AcDbCircle
62
7
6
CONTINUOUS
10
159.4931819030
20
60.2750857972
40
0.5000000000
100
AcDbArc
50
180.0000000000
51
254.8761303249
0
ARC
5
2C9
100
AcDbEntity
8
0
100
AcDbCircle
62
7
6
CONTINUOUS
10
134.4931819030
20
60.2750857972
40
0.5000000000
100
AcDbArc
50
285.1238696751
51
360.0000000000
0
ARC
5
2CA
100
AcDbEntity
8
0
100
AcDbCircle
62
7
6
CONTINUOUS
10
124.5731819030
20
147.7292619082
40
3.0000000000
100
AcDbArc
50
92.6200000000
51
180.0000000000
0
ARC
5
2CB
100
AcDbEntity
8
0
100
AcDbCircle
62
7
6
CONTINUOUS
10
169.4131819030
20
147.7292619082
40
3.0000000000
100
AcDbArc
50
0.0000000000
51
87.3800000000
0
ARC
5
2CC
100
AcDbEntity
8
0
100
AcDbCircle
62
7
6
CONTINUOUS
10
124.5731819030
20
146.8152670411
40
3.0000000000
100
AcDbArc
50
180.0000000000
51
254.8800000000
0
ARC
5
2CD
100
AcDbEntity
8
0
100
AcDbCircle
62
7
6
CONTINUOUS
10
169.4131819030
20
146.8152670411
40
3.0000000000
100
AcDbArc
50
285.1200000000
51
360.0000000000
0
ARC
5
2CE
100
AcDbEntity
8
0
100
AcDbCircle
62
7
6
CONTINUOUS
10
159.4931819030
20
140.5094212517
40
0.5000000000
100
AcDbArc
50
105.1241837991
51
180.0000000000
0
ARC
5
2CF
100
AcDbEntity
8
0
100
AcDbCircle
62
7
6
CONTINUOUS
10
134.4931819030
20
140.5094212517
40
0.5000000000
100
AcDbArc
50
0.0000000000
51
74.8758162009
0
SPLINE
5
2D0
100
AcDbEntity
8
0
100
AcDbSpline
62
9
6
CONTINUOUS
70
0
71
3
72
27
73
23
74
21
42
0.0000001000
43
0.0000001000
44
0.0000000001
12
33.2426680765
22
0.0029802888
32
0.0000000000
13
-33.2426680354
23
0.0034083741
33
0.0000000000
40
0.0000000000
40
0.0000000000
40
0.0000000000
40
0.0000000000
40
0.0463152277
40
0.0936405006
40
0.1428291095
40
0.1946935969
40
0.2487126564
40
0.3033898186
40
0.3571135489
40
0.4078623329
40
0.4550230715
40
0.5002123495
40
0.5454155337
40
0.5926077263
40
0.6434265945
40
0.6971242792
40
0.7517293192
40
0.8058444702
40
0.8576200111
40
0.9066419992
40
0.9540863542
40
1.0000000000
40
1.0000000000
40
1.0000000000
40
1.0000000000
10
146.9931819030
20
76.9422535244
30
0.0000000000
10
147.5063958173
20
76.9422995353
30
0.0000000000
10
148.5457273236
20
77.0214293886
30
0.0000000000
10
150.0926996377
20
77.3832554105
30
0.0000000000
10
151.6218015430
20
78.0064823127
30
0.0000000000
10
153.0932976195
20
78.9091216275
30
0.0000000000
10
154.4386444449
20
80.0866245949
30
0.0000000000
10
155.5774906214
20
81.4915076554
30
0.0000000000
10
156.4478547272
20
83.0345288012
30
0.0000000000
10
157.0328217028
20
84.6167556244
30
0.0000000000
10
157.3583927473
20
86.1740773462
30
0.0000000000
10
157.4610639112
20
87.6995083103
30
0.0000000000
10
157.3563827624
20
89.2251565407
30
0.0000000000
10
157.0284083055
20
90.7832921791
30
0.0000000000
10
156.4407140948
20
92.3654275359
30
0.0000000000
10
155.5680077899
20
93.9067595551
30
0.0000000000
10
154.4270998197
20
95.3099038068
30
0.0000000000
10
153.0804404112
20
96.4848696697
30
0.0000000000
10
151.6090469186
20
97.3842277206
30
0.0000000000
10
150.0806661421
20
98.0050387516
30
0.0000000000
10
148.5381001248
20
98.3640132364
30
0.0000000000
10
147.5019459318
20
98.4422013608
30
0.0000000000
10
146.9931819030
20
98.4422535244
30
0.0000000000
11
146.9931819030
21
76.9422535244
31
0.0000000000
11
148.5283719861
21
77.0592497814
31
0.0000000000
11
150.0603231350
21
77.4172185456
31
0.0000000000
11
151.5746803492
21
78.0340430202
31
0.0000000000
11
153.0446522769
21
78.9350155137
31
0.0000000000
11
154.3964232108
21
80.1171276612
31
0.0000000000
11
155.5416241905
21
81.5285943206
31
0.0000000000
11
156.4196156965
21
83.0837925945
31
0.0000000000
11
157.0050337343
21
84.6659869652
31
0.0000000000
11
157.3260603582
21
86.2005156113
31
0.0000000000
11
157.4270027844
21
87.6993324948
31
0.0000000000
11
157.3240767191
21
89.1984778294
31
0.0000000000
11
157.0007265580
21
90.7335871253
31
0.0000000000
11
156.4120666520
21
92.3170640178
31
0.0000000000
11
155.5319834573
21
93.8700844550
31
0.0000000000
11
154.3861924863
21
95.2779824031
31
0.0000000000
11
153.0301788396
21
96.4600921137
31
0.0000000000
11
151.5613023737
21
97.3571895346
31
0.0000000000
11
150.0513443153
21
97.9701279525
31
0.0000000000
11
148.5151371192
21
98.3272757978
31
0.0000000000
11
146.9931819030
21
98.4422535244
31
0.0000000000
0
SPLINE
5
2D1
100
AcDbEntity
8
0
100
AcDbSpline
62
9
6
CONTINUOUS
70
0
71
3
72
27
73
23
74
21
42
0.0000001000
43
0.0000001000
44
0.0000000001
12
-33.2426681875
22
-0.0029801938
32
0.0000000000
13
33.2426681463
23
-0.0034085799
33
0.0000000000
40
0.0000000000
40
0.0000000000
40
0.0000000000
40
0.0000000000
40
0.0463146942
40
0.0936401859
40
0.1428277920
40
0.1946914215
40
0.2487141209
40
0.3033923045
40
0.3571083519
40
0.4078580129
40
0.4550200700
40
0.5002096273
40
0.5454129524
40
0.5926061558
40
0.6434251626
40
0.6971148360
40
0.7517212893
40
0.8058400273
40
0.8576140795
40
0.9066386324
40
0.9540848804
40
1.0000000000
40
1.0000000000
40
1.0000000000
40
1.0000000000
10
146.9931819030
20
98.4422535244
30
0.0000000000
10
146.4799738993
20
98.4422075155
30
0.0000000000
10
145.4406459432
20
98.3630788506
30
0.0000000000
10
143.8936872870
20
98.0012582955
30
0.0000000000
10
142.3646009248
20
97.3780424447
30
0.0000000000
10
140.8930831713
20
96.4754012694
30
0.0000000000
10
139.5477021839
20
95.2978710298
30
0.0000000000
10
138.4088856662
20
93.8930065848
30
0.0000000000
10
137.5385479834
20
92.3500475969
30
0.0000000000
10
136.9535790368
20
90.7678860580
30
0.0000000000
10
136.6279851254
20
89.2105407249
30
0.0000000000
10
136.5252995156
20
87.6850913033
30
0.0000000000
10
136.6299695808
20
86.1594263438
30
0.0000000000
10
136.9579372344
20
84.6012743989
30
0.0000000000
10
137.5455978042
20
83.0192076885
30
0.0000000000
10
138.4182416097
20
81.4779261994
30
0.0000000000
10
139.5590904078
20
80.0747762529
30
0.0000000000
10
140.9057570384
20
78.8997572049
30
0.0000000000
10
142.3771792112
20
78.0003479257
30
0.0000000000
10
143.9055819952
20
77.3795009604
30
0.0000000000
10
145.4482098704
20
77.0204991671
30
0.0000000000
10
146.4844015423
20
76.9423056929
30
0.0000000000
10
146.9931819030
20
76.9422535244
30
0.0000000000
11
146.9931819030
21
98.4422535244
31
0.0000000000
11
145.4580093978
21
98.3252599605
31
0.0000000000
11
143.9260506633
21
97.9672916702
31
0.0000000000
11
142.4117226806
21
97.3504837792
31
0.0000000000
11
140.9417700091
21
96.4495344331
31
0.0000000000
11
139.5899066449
21
95.2673441661
31
0.0000000000
11
138.4446929773
21
93.8558440642
31
0.0000000000
11
137.5668205891
21
92.3008718272
31
0.0000000000
11
136.9813695120
21
90.7186585876
31
0.0000000000
11
136.6603169330
21
89.1840905890
31
0.0000000000
11
136.5593609637
21
87.6852653092
31
0.0000000000
11
136.6622753775
21
86.1861144714
31
0.0000000000
11
136.9856228365
21
84.6509702644
31
0.0000000000
11
137.5742771127
21
83.0674863548
31
0.0000000000
11
138.4542029711
21
81.5146828555
31
0.0000000000
11
139.5999851939
21
80.1067172076
31
0.0000000000
11
140.9560653724
21
78.9245023489
31
0.0000000000
11
142.4248846429
21
78.0274062133
31
0.0000000000
11
143.9349124431
21
77.4144129101
31
0.0000000000
11
145.4711781089
21
77.0572386298
31
0.0000000000
11
146.9931819030
21
76.9422535244
31
0.0000000000
0
SPLINE
5
2D2
100
AcDbEntity
8
0
100
AcDbSpline
62
9
6
CONTINUOUS
70
0
71
3
72
21
73
17
74
15
42
0.0000001000
43
0.0000001000
44
0.0000000001
12
6.0259502491
22
9.8182513863
32
0.0000000000
13
0.0015214112
23
11.5199885960
33
0.0000000000
40
0.0000000000
40
0.0000000000
40
0.0000000000
40
0.0000000000
40
0.0021001160
40
0.0089664218
40
0.0218297245
40
0.0424055483
40
0.0728514503
40
0.1156352267
40
0.1732538429
40
0.2479695059
40
0.3423492269
40
0.4584259960
40
0.5926608423
40
0.7342974465
40
0.8698328606
40
1.0000000000
40
1.0000000000
40
1.0000000000
40
1.0000000000
10
130.4931819030
20
102.3422535244
30
0.0000000000
10
130.4974003012
20
102.3491266800
30
0.0000000000
10
130.5154031616
20
102.3784761716
30
0.0000000000
10
130.5591544763
20
102.4499788797
30
0.0000000000
10
130.6396131454
20
102.5821948953
30
0.0000000000
10
130.7662547262
20
102.7922984709
30
0.0000000000
10
130.9501525279
20
103.1020364917
30
0.0000000000
10
131.2023303020
20
103.5366413857
30
0.0000000000
10
131.5312517993
20
104.1231982714
30
0.0000000000
10
131.9408940791
20
104.8914840667
30
0.0000000000
10
132.4264434802
20
105.8732777370
30
0.0000000000
10
132.9603921856
20
107.0850834280
30
0.0000000000
10
133.4795541357
20
108.4992556308
30
0.0000000000
10
133.8967522640
20
110.0255462206
30
0.0000000000
10
134.1541444261
20
111.5712671856
30
0.0000000000
10
134.2108889109
20
112.5924122037
30
0.0000000000
10
134.2109549234
20
113.0922535244
30
0.0000000000
11
130.4931819030
21
102.3422535244
31
0.0000000000
11
130.5058317928
21
102.3628762464
31
0.0000000000
11
130.5471161658
21
102.4303475242
31
0.0000000000
11
130.6241485044
21
102.5569367939
31
0.0000000000
11
130.7465070315
21
102.7599470311
31
0.0000000000
11
130.9255453811
21
103.0615449825
31
0.0000000000
11
131.1728470552
21
103.4878797789
31
0.0000000000
11
131.4973470454
21
104.0669176049
31
0.0000000000
11
131.9019232392
21
104.8266301873
31
0.0000000000
11
132.3830002414
21
105.8016608012
31
0.0000000000
11
132.9201799855
21
107.0262219331
31
0.0000000000
11
133.4494697822
21
108.4792035278
31
0.0000000000
11
133.8752774982
21
110.0543150471
31
0.0000000000
11
134.1286150379
21
111.5949919257
31
0.0000000000
11
134.2109549234
21
113.0922535244
31
0.0000000000
0
SPLINE
5
2D3
100
AcDbEntity
8
0
100
AcDbSpline
62
9
6
CONTINUOUS
70
0
71
3
72
22
73
18
74
16
42
0.0000001000
43
0.0000001000
44
0.0000000001
12
-0.0016543530
22
11.5202748597
32
0.0000000000
13
-6.0260970175
23
9.8184972514
33
0.0000000000
40
0.0000000000
40
0.0000000000
40
0.0000000000
40
0.0000000000
40
0.1233083607
40
0.2513554846
40
0.3851447943
40
0.5141359629
40
0.6279007091
40
0.7222114079
40
0.7984150881
40
0.8588116354
40
0.9053982886
40
0.9400531492
40
0.9648650895
40
0.9817817853
40
0.9924652927
40
0.9982248557
40
1.0000000000
40
1.0000000000
40
1.0000000000
40
1.0000000000
10
134.2109549234
20
113.0922535244
30
0.0000000000
10
134.2108869249
20
113.5657689269
30
0.0000000000
10
134.1600865646
20
114.5317212368
30
0.0000000000
10
133.9292343451
20
115.9950370557
30
0.0000000000
10
133.5514617602
20
117.4497981385
30
0.0000000000
10
133.0721337216
20
118.8154123205
30
0.0000000000
10
132.5660481627
20
120.0074275694
30
0.0000000000
10
132.0936682317
20
120.9918792190
30
0.0000000000
10
131.6843631597
20
121.7785993497
30
0.0000000000
10
131.3454486770
20
122.3950773557
30
0.0000000000
10
131.0756734885
20
122.8673802816
30
0.0000000000
10
130.8696237968
20
123.2186708855
30
0.0000000000
10
130.7192073745
20
123.4704892798
30
0.0000000000
10
130.6150679127
20
123.6427210990
30
0.0000000000
10
130.5484041481
20
123.7521137811
30
0.0000000000
10
130.5118772389
20
123.8117806541
30
0.0000000000
10
130.4967476335
20
123.8364437747
30
0.0000000000
10
130.4931819030
20
123.8422535244
30
0.0000000000
11
134.2109549234
21
113.0922535244
31
0.0000000000
11
134.1370117953
21
114.5108739751
31
0.0000000000
11
133.9096819184
21
115.9683901756
31
0.0000000000
11
133.5259554217
21
117.4611486031
31
0.0000000000
11
133.0370909506
21
118.8644476943
31
0.0000000000
11
132.5268723068
21
120.0716561830
31
0.0000000000
11
132.0577958676
21
121.0516650331
31
0.0000000000
11
131.6530478560
21
121.8306805959
31
0.0000000000
11
131.3180380564
21
122.4405043147
31
0.0000000000
11
131.0519266131
21
122.9065751119
31
0.0000000000
11
130.8499681542
21
123.2509588906
31
0.0000000000
11
130.7033986107
21
123.4963607835
31
0.0000000000
11
130.6025648357
21
123.6631322084
31
0.0000000000
11
130.5385184129
21
123.7682321117
31
0.0000000000
11
130.5038753081
21
123.8248219518
31
0.0000000000
11
130.4931819030
21
123.8422535244
31
0.0000000000
0
SPLINE
5
2D4
100
AcDbEntity
8
0
100
AcDbSpline
62
9
6
CONTINUOUS
70
0
71
3
72
22
73
18
74
16
42
0.0000001000
43
0.0000001000
44
0.0000000001
12
-6.0261138972
22
-9.8184982037
32
0.0000000000
13
-0.0016391713
23
-11.5202845024
33
0.0000000000
40
0.0000000000
40
0.0000000000
40
0.0000000000
40
0.0000000000
40
0.0017838940
40
0.0075704099
40
0.0183001024
40
0.0352838619
40
0.0601854761
40
0.0949535084
40
0.1416774371
40
0.2022432905
40
0.2786437003
40
0.3731204547
40
0.4869196703
40
0.6157268416
40
0.7491850568
40
0.8769464870
40
1.0000000000
40
1.0000000000
40
1.0000000000
40
1.0000000000
10
163.4931819030
20
123.8422535244
30
0.0000000000
10
163.4895985869
20
123.8364151379
30
0.0000000000
10
163.4743972822
20
123.8116351301
30
0.0000000000
10
163.4377064878
20
123.7516998140
30
0.0000000000
10
163.3707641053
20
123.6418463124
30
0.0000000000
10
163.2662264178
20
123.4689444605
30
0.0000000000
10
163.1152911907
20
123.2162283428
30
0.0000000000
10
162.9086090349
20
122.8637940469
30
0.0000000000
10
162.6380922836
20
122.3900576720
30
0.0000000000
10
162.2983588931
20
121.7718231333
30
0.0000000000
10
161.8883212570
20
120.9831788622
30
0.0000000000
10
161.4156559416
20
119.9971688417
30
0.0000000000
10
160.9101404792
20
118.8048386533
30
0.0000000000
10
160.4321933184
20
117.4406961315
30
0.0000000000
10
160.0559208928
20
115.9887337290
30
0.0000000000
10
159.8260619554
20
114.5286636763
30
0.0000000000
10
159.7754761178
20
113.5647906842
30
0.0000000000
10
159.7754088826
20
113.0922535244
30
0.0000000000
11
163.4931819030
21
123.8422535244
31
0.0000000000
11
163.4824357833
21
123.8247360154
31
0.0000000000
11
163.4476308295
21
123.7678811228
31
0.0000000000
11
163.3833090291
21
123.6623258366
31
0.0000000000
11
163.2820803569
21
123.4948901516
31
0.0000000000
11
163.1349935577
21
123.2485936160
31
0.0000000000
11
162.9324035991
21
122.9030683633
31
0.0000000000
11
162.6655657576
21
122.4355907251
31
0.0000000000
11
162.3297293171
21
121.8239950843
31
0.0000000000
11
161.9241481464
21
121.0428575812
31
0.0000000000
11
161.4546244566
21
120.0609410340
31
0.0000000000
11
160.9448585974
21
118.8531090616
31
0.0000000000
11
160.4574739883
21
117.4515380042
31
0.0000000000
11
160.0754192991
21
115.9622869900
31
0.0000000000
11
159.8490486483
21
114.5079510669
31
0.0000000000
11
159.7754088826
21
113.0922535244
31
0.0000000000
0
SPLINE
5
2D5
100
AcDbEntity
8
0
100
AcDbSpline
62
9
6
CONTINUOUS
70
0
71
3
72
21
73
17
74
15
42
0.0000001000
43
0.0000001000
44
0.0000000001
12
0.0015115455
22
-11.5199997802
32
0.0000000000
13
6.0259659091
23
-9.8182548951
33
0.0000000000
40
0.0000000000
40
0.0000000000
40
0.0000000000
40
0.0000000000
40
0.1298773929
40
0.2651013462
40
0.4063781140
40
0.5404604824
40
0.6566279786
40
0.7512108253
40
0.8261419043
40
0.8839319420
40
0.9268557614
40
0.9574124256
40
0.9780707503
40
0.9909904434
40
0.9978893820
40
1.0000000000
40
1.0000000000
40
1.0000000000
40
1.0000000000
10
159.7754088826
20
113.0922535244
30
0.0000000000
10
159.7754743211
20
112.5935243451
30
0.0000000000
10
159.8319627907
20
111.5746924703
30
0.0000000000
10
160.0881945611
20
110.0325358788
30
0.0000000000
10
160.5037318421
20
108.5090828543
30
0.0000000000
10
161.0215111418
20
107.0961259059
30
0.0000000000
10
161.5550857846
20
105.8835570982
30
0.0000000000
10
162.0411531251
20
104.8998343464
30
0.0000000000
10
162.4516769808
20
104.1294491971
30
0.0000000000
10
162.7814957085
20
103.5410746788
30
0.0000000000
10
163.0344429905
20
103.1050410495
30
0.0000000000
10
163.2189747609
20
102.7941904878
30
0.0000000000
10
163.3461037919
20
102.5832610792
30
0.0000000000
10
163.4269025583
20
102.4504808237
30
0.0000000000
10
163.4708529279
20
102.3786517734
30
0.0000000000
10
163.4889423989
20
102.3491610530
30
0.0000000000
10
163.4931819030
20
102.3422535244
30
0.0000000000
11
159.7754088826
21
113.0922535244
31
0.0000000000
11
159.8573850165
21
111.5983133983
31
0.0000000000
11
160.1096101190
21
110.0610883676
31
0.0000000000
11
160.5335118083
21
108.4897542917
31
0.0000000000
11
161.0613584536
21
107.0381151288
31
0.0000000000
11
161.5983512979
21
105.8123294531
31
0.0000000000
11
162.0801107496
21
104.8350251253
31
0.0000000000
11
162.4856679522
21
104.0730225069
31
0.0000000000
11
162.8110409553
21
103.4922094646
31
0.0000000000
11
163.0591082576
21
103.0644531642
31
0.0000000000
11
163.2387788536
21
102.7617462671
31
0.0000000000
11
163.3616207264
21
102.5579173927
31
0.0000000000
11
163.4389885567
21
102.4307716685
31
0.0000000000
11
163.4804687519
21
102.3629794001
31
0.0000000000
11
163.4931819030
21
102.3422535244
31
0.0000000000
0
SPLINE
5
2D6
100
AcDbEntity
8
0
100
AcDbSpline
62
9
6
CONTINUOUS
70
0
71
3
72
22
73
18
74
16
42
0.0000001000
43
0.0000001000
44
0.0000000001
12
-0.0017277725
22
11.1004230107
32
0.0000000000
13
-6.1353095931
23
9.2508036521
33
0.0000000000
40
0.0000000000
40
0.0000000000
40
0.0000000000
40
0.0000000000
40
0.1220749438
40
0.2490367609
40
0.3821081608
40
0.5108935753
40
0.6248823074
40
0.7196501375
40
0.7963880291
40
0.8573037832
40
0.9043445771
40
0.9393657360
40
0.9644541367
40
0.9815658706
40
0.9923752377
40
0.9982035003
40
1.0000000000
40
1.0000000000
40
1.0000000000
40
1.0000000000
10
133.8236147119
20
113.0922535244
30
0.0000000000
10
133.8235444060
20
113.5439480293
30
0.0000000000
10
133.7710721855
20
114.4662235817
30
0.0000000000
10
133.5327965928
20
115.8625775302
30
0.0000000000
10
133.1431774009
20
117.2500001120
30
0.0000000000
10
132.6492855288
20
118.5515562770
30
0.0000000000
10
132.1281067662
20
119.6873135669
30
0.0000000000
10
131.6416837376
20
120.6253408752
30
0.0000000000
10
131.2201710572
20
121.3750784018
30
0.0000000000
10
130.8711113022
20
121.9626564036
30
0.0000000000
10
130.5932375095
20
122.4128623983
30
0.0000000000
10
130.3809879053
20
122.7477425517
30
0.0000000000
10
130.2260374318
20
122.9878113312
30
0.0000000000
10
130.1187539060
20
123.1520137294
30
0.0000000000
10
130.0500760326
20
123.2563102048
30
0.0000000000
10
130.0124440196
20
123.3131985694
30
0.0000000000
10
129.9968559304
20
123.3367138356
30
0.0000000000
10
129.9931819030
20
123.3422535244
30
0.0000000000
11
133.8236147119
21
113.0922535244
31
0.0000000000
11
133.7473951768
21
114.4451917931
31
0.0000000000
11
133.5131448275
21
115.8349174940
31
0.0000000000
11
133.1177821147
21
117.2581732828
31
0.0000000000
11
132.6141312665
21
118.5960871933
31
0.0000000000
11
132.0884857241
21
119.7470604608
31
0.0000000000
11
131.6052158879
21
120.6814460613
31
0.0000000000
11
131.1882098515
21
121.4242168899
31
0.0000000000
11
130.8430481016
21
122.0056781162
31
0.0000000000
11
130.5688696285
21
122.4500771618
31
0.0000000000
11
130.3607877450
21
122.7784492765
31
0.0000000000
11
130.2097739347
21
123.0124418985
31
0.0000000000
11
130.1058825958
21
123.1714596260
31
0.0000000000
11
130.0398941918
21
123.2716733090
31
0.0000000000
11
130.0042002125
21
123.3256319563
31
0.0000000000
11
129.9931819030
21
123.3422535244
31
0.0000000000
0
SPLINE
5
2D7
100
AcDbEntity
8
0
100
AcDbSpline
62
9
6
CONTINUOUS
70
0
71
3
72
21
73
17
74
15
42
0.0000001000
43
0.0000001000
44
0.0000000001
12
0.0016035896
22
11.1001091965
32
0.0000000000
13
6.1351409069
23
9.2505388957
33
0.0000000000
40
0.0000000000
40
0.0000000000
40
0.0000000000
40
0.0000000000
40
0.1288636868
40
0.2632760310
40
0.4042217381
40
0.5383425640
40
0.6547450560
40
0.7496581067
40
0.8249505816
40
0.8830993181
40
0.9263213433
40
0.9571009318
40
0.9779120911
40
0.9909264478
40
0.9978745975
40
1.0000000000
40
1.0000000000
40
1.0000000000
40
1.0000000000
10
160.1627490941
20
113.0922535244
30
0.0000000000
10
160.1628179756
20
113.5690538561
30
0.0000000000
10
160.2214366105
20
114.5441265720
30
0.0000000000
10
160.4871294177
20
116.0191504110
30
0.0000000000
10
160.9173900806
20
117.4746898623
30
0.0000000000
10
161.4522521289
20
118.8223648485
30
0.0000000000
10
162.0020782184
20
119.9769077311
30
0.0000000000
10
162.5020505769
20
120.9123950253
30
0.0000000000
10
162.9239111321
20
121.6445726288
30
0.0000000000
10
163.2626800789
20
122.2036380364
30
0.0000000000
10
163.5224303848
20
122.6179145150
30
0.0000000000
10
163.7118633708
20
122.9131875216
30
0.0000000000
10
163.8423246146
20
123.1134901323
30
0.0000000000
10
163.9252124809
20
123.2395442681
30
0.0000000000
10
163.9702870117
20
123.3077164293
30
0.0000000000
10
163.9888353550
20
123.3356998182
30
0.0000000000
10
163.9931819030
20
123.3422535244
30
0.0000000000
11
160.1627490941
21
113.0922535244
31
0.0000000000
11
160.2476158855
21
114.5201347089
31
0.0000000000
11
160.5086504161
21
115.9891140309
31
0.0000000000
11
160.9473502889
21
117.4908605415
31
0.0000000000
11
161.4926444005
21
118.8761577119
31
0.0000000000
11
162.0460776745
21
120.0437121365
31
0.0000000000
11
162.5417263957
21
120.9733840744
31
0.0000000000
11
162.9585647757
21
121.6977677339
31
0.0000000000
11
163.2929035394
21
122.2498843506
31
0.0000000000
11
163.5477048116
21
122.6563997885
31
0.0000000000
11
163.7321728745
21
122.9439774309
31
0.0000000000
11
163.8582422228
21
123.1375500469
31
0.0000000000
11
163.9376106058
21
123.2582545517
31
0.0000000000
11
163.9801475301
21
123.3225889105
31
0.0000000000
11
163.9931819030
21
123.3422535244
31
0.0000000000
0
SPLINE
5
2D8
100
AcDbEntity
8
0
100
AcDbSpline
62
9
6
CONTINUOUS
70
0
71
3
72
22
73
18
74
16
42
0.0000001000
43
0.0000001000
44
0.0000000001
12
-0.0017136245
22
-11.1004336087
32
0.0000000000
13
-6.1352936818
23
-9.2508269129
33
0.0000000000
40
0.0000000000
40
0.0000000000
40
0.0000000000
40
0.0000000000
40
0.1218225255
40
0.2485004314
40
0.3812405837
40
0.5098390027
40
0.6238588308
40
0.7187908754
40
0.7957250641
40
0.8568105350
40
0.9039893588
40
0.9391245828
40
0.9643035157
40
0.9814830299
40
0.9923391080
40
0.9981946430
40
1.0000000000
40
1.0000000000
40
1.0000000000
40
1.0000000000
10
133.8236147119
20
113.0922535244
30
0.0000000000
10
133.8235451259
20
112.6414925722
30
0.0000000000
10
133.7712950226
20
111.7212054992
30
0.0000000000
10
133.5340449377
20
110.3279484956
30
0.0000000000
10
133.1459709297
20
108.9431869930
30
0.0000000000
10
132.6534960000
20
107.6430212034
30
0.0000000000
10
132.1329002368
20
106.5069581562
30
0.0000000000
10
131.6461831805
20
105.5674474784
30
0.0000000000
10
131.2239178149
20
104.8158802032
30
0.0000000000
10
130.8740165135
20
104.2266315480
30
0.0000000000
10
130.5953800970
20
103.7750613426
30
0.0000000000
10
130.3824797242
20
103.4390921619
30
0.0000000000
10
130.2269951912
20
103.1981681986
30
0.0000000000
10
130.1193016195
20
103.0333272920
30
0.0000000000
10
130.0503367884
20
102.9285915729
30
0.0000000000
10
130.0125359354
20
102.8714472992
30
0.0000000000
10
129.9968740348
20
102.8478205394
30
0.0000000000
10
129.9931819030
20
102.8422535244
30
0.0000000000
11
133.8236147119
21
113.0922535244
31
0.0000000000
11
133.7477078856
21
111.7421027471
31
0.0000000000
11
133.5144449552
21
110.3554053200
31
0.0000000000
11
133.1208020942
21
108.9354867441
31
0.0000000000
11
132.6186732806
21
107.5992166181
31
0.0000000000
11
132.0934936939
21
106.4476499440
31
0.0000000000
11
131.6097642253
21
105.5114488064
31
0.0000000000
11
131.1919018480
21
104.7666589532
31
0.0000000000
11
130.8458898263
21
104.1835108684
31
0.0000000000
11
130.5709638695
21
103.7377720749
31
0.0000000000
11
130.3622318839
21
103.4083124960
31
0.0000000000
11
130.2106854006
21
103.1734672718
31
0.0000000000
11
130.1063873104
21
103.0138163369
31
0.0000000000
11
130.0401152122
21
102.9131684945
31
0.0000000000
11
130.0042544979
21
102.8589570894
31
0.0000000000
11
129.9931819030
21
102.8422535244
31
0.0000000000
0
SPLINE
5
2D9
100
AcDbEntity
8
0
100
AcDbSpline
62
9
6
CONTINUOUS
70
0
71
3
72
21
73
17
74
15
42
0.0000001000
43
0.0000001000
44
0.0000000001
12
0.0015909219
22
-11.1001214832
32
0.0000000000
13
6.1351245755
23
-9.2505644602
33
0.0000000000
40
0.0000000000
40
0.0000000000
40
0.0000000000
40
0.0000000000
40
0.1285768751
40
0.2626797232
40
0.4032649963
40
0.5372295804
40
0.6537190877
40
0.7488336487
40
0.8243416143
40
0.8826624825
40
0.9260255372
40
0.9569168949
40
0.9778114165
40
0.9908827988
40
0.9978639677
40
1.0000000000
40
1.0000000000
40
1.0000000000
40
1.0000000000
10
160.1627490941
20
113.0922535244
30
0.0000000000
10
160.1628172793
20
112.6165138799
30
0.0000000000
10
160.2211714194
20
111.6436525441
30
0.0000000000
10
160.4856661758
20
110.1720279559
30
0.0000000000
10
160.9142176022
20
108.7191840301
30
0.0000000000
10
161.4476619471
20
107.3726546889
30
0.0000000000
10
161.9971058282
20
106.2173820956
30
0.0000000000
10
162.4976102098
20
105.2800607383
30
0.0000000000
10
162.9203764304
20
104.5458869663
30
0.0000000000
10
163.2600678534
20
103.9850921410
30
0.0000000000
10
163.5206097977
20
103.5694554700
30
0.0000000000
10
163.7106953117
20
103.2731228038
30
0.0000000000
10
163.8416584116
20
103.0720332917
30
0.0000000000
10
163.9248965514
20
102.9454413800
30
0.0000000000
10
163.9701761256
20
102.8769581216
30
0.0000000000
10
163.9888136282
20
102.8488400260
30
0.0000000000
10
163.9931819030
20
102.8422535244
30
0.0000000000
11
160.1627490941
21
113.0922535244
31
0.0000000000
11
160.2472413051
21
111.6675377659
31
0.0000000000
11
160.5071313793
21
110.2018427664
31
0.0000000000
11
160.9438711442
21
108.7036901860
31
0.0000000000
11
161.4876808163
21
107.3196710532
31
0.0000000000
11
162.0409201033
21
106.1509543919
31
0.0000000000
11
162.5372695268
21
105.2191199644
31
0.0000000000
11
162.9551169217
21
104.4925561666
31
0.0000000000
11
163.2903540116
21
103.9387490118
31
0.0000000000
11
163.5459434206
21
103.5308794127
31
0.0000000000
11
163.7310625464
21
103.2422449925
31
0.0000000000
11
163.8576297371
21
103.0478920295
31
0.0000000000
11
163.9373437387
21
102.9266570210
31
0.0000000000
11
163.9800823906
21
102.8620165516
31
0.0000000000
11
163.9931819030
21
102.8422535244
31
0.0000000000
0
SPLINE
5
2DA
100
AcDbEntity
8
0
100
AcDbSpline
62
9
6
CONTINUOUS
70
0
71
3
72
25
73
21
74
19
42
0.0000001000
43
0.0000001000
44
0.0000000001
12
-20.7764168599
22
-0.9434753627
32
0.0000000000
13
-16.5565135303
23
12.5869576553
33
0.0000000000
40
0.0000000000
40
0.0000000000
40
0.0000000000
40
0.0000000000
40
0.1214735418
40
0.2251781080
40
0.3140058649
40
0.3915068638
40
0.4606680476
40
0.5238181317
40
0.5826622597
40
0.6383876430
40
0.6910443249
40
0.7395085659
40
0.7839682411
40
0.8249634415
40
0.8627095826
40
0.8976256587
40
0.9306472081
40
0.9603646671
40
0.9846647438
40
1.0000000000
40
1.0000000000
40
1.0000000000
40
1.0000000000
10
169.4828528838
20
50.0583810417
30
0.0000000000
10
168.6415912362
20
50.0201786103
30
0.0000000000
10
167.0821098951
20
49.9497255694
30
0.0000000000
10
164.9073609575
20
49.8534162296
30
0.0000000000
10
163.0370338911
20
49.7734305311
30
0.0000000000
10
161.4058016876
20
49.7075519665
30
0.0000000000
10
159.9522398792
20
49.6539302922
30
0.0000000000
10
158.6277041008
20
49.6115759207
30
0.0000000000
10
157.3960263185
20
49.5804005902
30
0.0000000000
10
156.2368531188
20
49.5611787906
30
0.0000000000
10
155.1494912889
20
49.5550101553
30
0.0000000000
10
154.1402305050
20
49.5621138887
30
0.0000000000
10
153.2120007295
20
49.5815426037
30
0.0000000000
10
152.3583820900
20
49.6120082788
30
0.0000000000
10
151.5715348663
20
49.6527011000
30
0.0000000000
10
150.8403103442
20
49.7032873191
30
0.0000000000
10
150.1670030487
20
49.7658831693
30
0.0000000000
10
149.5650259283
20
49.8372694000
30
0.0000000000
10
149.0990644476
20
49.9273383293
30
0.0000000000
10
148.8210779838
20
49.9940396357
30
0.0000000000
10
148.7364451917
20
50.0583810424
30
0.0000000000
11
169.4828528838
21
50.0583810417
31
0.0000000000
11
166.9590319057
21
49.9445700588
31
0.0000000000
11
164.8043011301
21
49.8494401403
31
0.0000000000
11
162.9585488586
21
49.7708561004
31
0.0000000000
11
161.3479933503
21
49.7062092155
31
0.0000000000
11
159.9105525139
21
49.6536231712
31
0.0000000000
11
158.5978235201
21
49.6121305265
31
0.0000000000
11
157.3743723304
21
49.5816812004
31
0.0000000000
11
156.2155560912
21
49.5629925700
31
0.0000000000
11
155.1204264807
21
49.5572616507
31
0.0000000000
11
154.1125033036
21
49.5647429605
31
0.0000000000
11
153.1880477953
21
49.5844093639
31
0.0000000000
11
152.3359919445
21
49.6151754187
31
0.0000000000
11
151.5520205757
21
49.6560796011
31
0.0000000000
11
150.8276370731
21
49.7071071867
31
0.0000000000
11
150.1438498696
21
49.7711151490
31
0.0000000000
11
149.5307866037
21
49.8495361997
31
0.0000000000
11
149.0344390789
21
49.9447044035
31
0.0000000000
11
148.7364451917
21
50.0583810424
31
0.0000000000
0
SPLINE
5
2DB
100
AcDbEntity
8
0
100
AcDbSpline
62
9
6
CONTINUOUS
70
0
71
3
72
26
73
22
74
20
42
0.0000001000
43
0.0000001000
44
0.0000000001
12
16.5565349134
22
-12.5870384526
32
0.0000000000
13
20.7764826839
23
0.9434790038
33
0.0000000000
40
0.0000000000
40
0.0000000000
40
0.0000000000
40
0.0000000000
40
0.0149497738
40
0.0386025104
40
0.0675518295
40
0.0996867732
40
0.1335910015
40
0.1690223827
40
0.2063501611
40
0.2464802745
40
0.2905818962
40
0.3378833703
40
0.3869920715
40
0.4375356440
40
0.4911049841
40
0.5495604342
40
0.6151762431
40
0.6906661660
40
0.7782278418
40
0.8806443630
40
1.0000000000
40
1.0000000000
40
1.0000000000
40
1.0000000000
10
148.7364451807
20
50.0583810450
30
0.0000000000
10
148.8189506645
20
49.9956565858
30
0.0000000000
10
149.0891620848
20
49.9294103088
30
0.0000000000
10
149.5430109405
20
49.8407976141
30
0.0000000000
10
150.1288593745
20
49.7700383291
30
0.0000000000
10
150.7836936426
20
49.7079828954
30
0.0000000000
10
151.4856736080
20
49.6581255925
30
0.0000000000
10
152.2240177795
20
49.6183075046
30
0.0000000000
10
153.0060998085
20
49.5880383951
30
0.0000000000
10
153.8485856584
20
49.5670933781
30
0.0000000000
10
154.7604220276
20
49.5564536479
30
0.0000000000
10
155.7345598634
20
49.5570731119
30
0.0000000000
10
156.7532861650
20
49.5687064220
30
0.0000000000
10
157.8153071273
20
49.5902712555
30
0.0000000000
10
158.9419176366
20
49.6211609292
30
0.0000000000
10
160.1727681624
20
49.6618128282
30
0.0000000000
10
161.5552911460
20
49.7134575683
30
0.0000000000
10
163.1392561568
20
49.7777364223
30
0.0000000000
10
164.9779628293
20
49.8565164813
30
0.0000000000
10
167.1203582778
20
49.9514517827
30
0.0000000000
10
168.6562561878
20
50.0208445327
30
0.0000000000
10
169.4828529625
20
50.0583810452
30
0.0000000000
11
148.7364451807
21
50.0583810450
31
0.0000000000
11
149.0266140252
21
49.9466865712
31
0.0000000000
11
149.5095017464
21
49.8528157910
31
0.0000000000
11
150.1065618276
21
49.7751920662
31
0.0000000000
11
150.7718755153
21
49.7116711201
31
0.0000000000
11
151.4751770269
21
49.6608329333
31
0.0000000000
11
152.2109885447
21
49.6208301266
31
0.0000000000
11
152.9867355502
21
49.5905136114
31
0.0000000000
11
153.8210934479
21
49.5695253943
31
0.0000000000
11
154.7382483548
21
49.5585275425
31
0.0000000000
11
155.7220193505
21
49.5588000008
31
0.0000000000
11
156.7433145752
21
49.5700831109
31
0.0000000000
11
157.7943052215
21
49.5910542959
31
0.0000000000
11
158.9080260173
21
49.6212272840
31
0.0000000000
11
160.1231255433
21
49.6609990227
31
0.0000000000
11
161.4868583527
21
49.7115829700
31
0.0000000000
11
163.0556128822
21
49.7748902508
31
0.0000000000
11
164.8750560681
21
49.8525175342
31
0.0000000000
11
167.0030280018
21
49.9465368460
31
0.0000000000
11
169.4828529625
21
50.0583810452
31
0.0000000000
0
SPLINE
5
2DC
100
AcDbEntity
8
0
100
AcDbSpline
62
9
6
CONTINUOUS
70
0
71
3
72
14
73
10
74
8
42
0.0000001000
43
0.0000001000
44
0.0000000001
12
0.0004247696
22
-4.5666034694
32
0.0000000000
13
4.5618155644
23
-0.2090602383
33
0.0000000000
40
0.0000000000
40
0.0000000000
40
0.0000000000
40
0.0000000000
40
0.1427089201
40
0.2855363778
40
0.4283727900
40
0.5712312879
40
0.7141333162
40
0.8570969441
40
1.0000000000
40
1.0000000000
40
1.0000000000
40
1.0000000000
10
121.6402718255
20
53.0552451406
30
0.0000000000
10
121.6402920316
20
52.8380134574
30
0.0000000000
10
121.6878295014
20
52.4018924321
30
0.0000000000
10
121.8986358413
20
51.7796173574
30
0.0000000000
10
122.2391258080
20
51.2171028752
30
0.0000000000
10
122.6932356342
20
50.7415126217
30
0.0000000000
10
123.2397105182
20
50.3752669546
30
0.0000000000
10
123.8522135626
20
50.1358592306
30
0.0000000000
10
124.2862117709
20
50.0683394906
30
0.0000000000
10
124.5035108991
20
50.0583810417
30
0.0000000000
11
121.6402718255
21
53.0552451406
31
0.0000000000
11
121.7110348983
21
52.4074033167
31
0.0000000000
11
121.9202304112
21
51.7896254316
31
0.0000000000
11
122.2580296917
21
51.2316314640
31
0.0000000000
11
122.7085535532
21
50.7597994440
31
0.0000000000
11
123.2506232525
21
50.3964579339
31
0.0000000000
11
123.8587110628
21
50.1588594341
31
0.0000000000
11
124.5035108991
21
50.0583810417
31
0.0000000000
0
SPLINE
5
2DD
100
AcDbEntity
8
0
100
AcDbSpline
62
9
6
CONTINUOUS
70
0
71
3
72
14
73
10
74
8
42
0.0000001000
43
0.0000001000
44
0.0000000001
12
1.6969187791
22
2.4751040244
32
0.0000000000
13
-0.0000330004
23
3.0009453966
33
0.0000000000
40
0.0000000000
40
0.0000000000
40
0.0000000000
40
0.0000000000
40
0.0341941487
40
0.1136695642
40
0.2349183614
40
0.3922473630
40
0.5782385927
40
0.7841186420
40
1.0000000000
40
1.0000000000
40
1.0000000000
40
1.0000000000
10
148.7364448970
20
50.0583810424
30
0.0000000000
10
148.7557864613
20
50.0865924007
30
0.0000000000
10
148.7561012041
20
50.2085382439
30
0.0000000000
10
148.7864172825
20
50.4354252312
30
0.0000000000
10
148.7982770445
20
50.7969161619
30
0.0000000000
10
148.8168567067
20
51.2598705495
30
0.0000000000
10
148.8286614881
20
51.8096266421
30
0.0000000000
10
148.8370364935
20
52.4173593287
30
0.0000000000
10
148.8388144140
20
52.8392957515
30
0.0000000000
10
148.8388120393
20
53.0552451406
30
0.0000000000
11
148.7364448970
21
50.0583810424
31
0.0000000000
11
148.7572747832
21
50.1588594357
31
0.0000000000
11
148.7780078590
21
50.3964579393
31
0.0000000000
11
148.7974445335
21
50.7597994553
31
0.0000000000
11
148.8143766951
21
51.2316314826
31
0.0000000000
11
148.8275530105
21
51.7896254580
31
0.0000000000
11
148.8359374177
21
52.4074033508
31
0.0000000000
11
148.8388120393
21
53.0552451406
31
0.0000000000
0
SPLINE
5
2DE
100
AcDbEntity
8
0
100
AcDbSpline
62
9
6
CONTINUOUS
70
0
71
3
72
14
73
10
74
8
42
0.0000001000
43
0.0000001000
44
0.0000000001
12
-0.0004247696
22
-4.5666034694
32
0.0000000000
13
-4.5618155644
23
-0.2090602383
33
0.0000000000
40
0.0000000000
40
0.0000000000
40
0.0000000000
40
0.0000000000
40
0.1427089201
40
0.2855363778
40
0.4283727900
40
0.5712312879
40
0.7141333162
40
0.8570969441
40
1.0000000000
40
1.0000000000
40
1.0000000000
40
1.0000000000
10
172.3460919805
20
53.0552451406
30
0.0000000000
10
172.3460717744
20
52.8380134574
30
0.0000000000
10
172.2985343046
20
52.4018924321
30
0.0000000000
10
172.0877279647
20
51.7796173574
30
0.0000000000
10
171.7472379980
20
51.2171028752
30
0.0000000000
10
171.2931281718
20
50.7415126217
30
0.0000000000
10
170.7466532878
20
50.3752669546
30
0.0000000000
10
170.1341502434
20
50.1358592306
30
0.0000000000
10
169.7001520351
20
50.0683394906
30
0.0000000000
10
169.4828529069
20
50.0583810417
30
0.0000000000
11
172.3460919805
21
53.0552451406
31
0.0000000000
11
172.2753289077
21
52.4074033167
31
0.0000000000
11
172.0661333948
21
51.7896254316
31
0.0000000000
11
171.7283341143
21
51.2316314640
31
0.0000000000
11
171.2778102528
21
50.7597994440
31
0.0000000000
11
170.7357405535
21
50.3964579339
31
0.0000000000
11
170.1276527432
21
50.1588594341
31
0.0000000000
11
169.4828529069
21
50.0583810417
31
0.0000000000
0
SPLINE
5
2DF
100
AcDbEntity
8
0
100
AcDbSpline
62
9
6
CONTINUOUS
70
0
71
3
72
14
73
10
74
8
42
0.0000001000
43
0.0000001000
44
0.0000000001
12
-1.6969187791
22
2.4751040244
32
0.0000000000
13
0.0000330004
23
3.0009453966
33
0.0000000000
40
0.0000000000
40
0.0000000000
40
0.0000000000
40
0.0000000000
40
0.0341941487
40
0.1136695642
40
0.2349183614
40
0.3922473630
40
0.5782385927
40
0.7841186420
40
1.0000000000
40
1.0000000000
40
1.0000000000
40
1.0000000000
10
145.2499189090
20
50.0583810424
30
0.0000000000
10
145.2305773447
20
50.0865924007
30
0.0000000000
10
145.2302626019
20
50.2085382439
30
0.0000000000
10
145.1999465235
20
50.4354252312
30
0.0000000000
10
145.1880867615
20
50.7969161619
30
0.0000000000
10
145.1695070993
20
51.2598705495
30
0.0000000000
10
145.1577023179
20
51.8096266421
30
0.0000000000
10
145.1493273125
20
52.4173593287
30
0.0000000000
10
145.1475493920
20
52.8392957515
30
0.0000000000
10
145.1475517667
20
53.0552451406
30
0.0000000000
11
145.2499189090
21
50.0583810424
31
0.0000000000
11
145.2290890228
21
50.1588594357
31
0.0000000000
11
145.2083559470
21
50.3964579393
31
0.0000000000
11
145.1889192725
21
50.7597994553
31
0.0000000000
11
145.1719871109
21
51.2316314826
31
0.0000000000
11
145.1588107955
21
51.7896254580
31
0.0000000000
11
145.1504263883
21
52.4074033508
31
0.0000000000
11
145.1475517667
21
53.0552451406
31
0.0000000000
0
SPLINE
5
2E0
100
AcDbEntity
8
0
100
AcDbSpline
62
9
6
CONTINUOUS
70
0
71
3
72
13
73
9
74
7
42
0.0000001000
43
0.0000001000
44
0.0000000001
12
0.0003752054
22
3.9130907164
32
0.0000000000
13
3.7776144924
23
1.0207388708
33
0.0000000000
40
0.0000000000
40
0.0000000000
40
0.0000000000
40
0.0000000000
40
0.1665235568
40
0.3331888447
40
0.4998662828
40
0.6665735333
40
0.8333362450
40
1.0000000000
40
1.0000000000
40
1.0000000000
40
1.0000000000
10
121.6402718255
20
53.9692400078
30
0.0000000000
10
121.6402926523
20
54.1864472691
30
0.0000000000
10
121.6878175186
20
54.6225231780
30
0.0000000000
10
121.8985885302
20
55.2447462910
30
0.0000000000
10
122.2389987527
20
55.8072314676
30
0.0000000000
10
122.6931345827
20
56.2828388578
30
0.0000000000
10
123.2390589231
20
56.6489369342
30
0.0000000000
10
123.6479428719
20
56.8086750114
30
0.0000000000
10
123.8578066773
20
56.8653817358
30
0.0000000000
11
121.6402718255
21
53.9692400078
31
0.0000000000
11
121.7110189854
21
54.6170098688
31
0.0000000000
11
121.9201739092
21
55.2347381801
31
0.0000000000
11
122.2579156197
21
55.7927046693
31
0.0000000000
11
122.7083814688
21
56.2645402059
31
0.0000000000
11
123.2504061169
21
56.6279142979
31
0.0000000000
11
123.8578066773
21
56.8653817358
31
0.0000000000
0
SPLINE
5
2E1
100
AcDbEntity
8
0
100
AcDbSpline
62
9
6
CONTINUOUS
70
0
71
3
72
13
73
9
74
7
42
0.0000001000
43
0.0000001000
44
0.0000000001
12
-0.3531577794
22
-2.8764871164
32
0.0000000000
13
0.0000329348
23
-2.8980853243
33
0.0000000000
40
0.0000000000
40
0.0000000000
40
0.0000000000
40
0.0000000000
40
0.0822502620
40
0.2078141387
40
0.3707281784
40
0.5633111985
40
0.7764813184
40
1.0000000000
40
1.0000000000
40
1.0000000000
40
1.0000000000
10
145.2290660329
20
56.8653817814
30
0.0000000000
10
145.2193835930
20
56.7865178418
30
0.0000000000
10
145.2045755237
20
56.5861781821
30
0.0000000000
10
145.1861372904
20
56.2285606272
30
0.0000000000
10
145.1701953715
20
55.7640746966
30
0.0000000000
10
145.1574770088
20
55.2148733652
30
0.0000000000
10
145.1493970808
20
54.6070208621
30
0.0000000000
10
145.1475493129
20
54.1851654114
30
0.0000000000
10
145.1475517667
20
53.9692400078
30
0.0000000000
11
145.2290660329
21
56.8653817814
31
0.0000000000
11
145.2083624832
21
56.6279143129
31
0.0000000000
11
145.1889019400
21
56.2645402172
31
0.0000000000
11
145.1719829387
21
55.7927046717
31
0.0000000000
11
145.1588080928
21
55.2347381694
31
0.0000000000
11
145.1504257836
21
54.6170098430
31
0.0000000000
11
145.1475517667
21
53.9692400078
31
0.0000000000
0
SPLINE
5
2E2
100
AcDbEntity
8
0
100
AcDbSpline
62
9
6
CONTINUOUS
70
0
71
3
72
13
73
9
74
7
42
0.0000001000
43
0.0000001000
44
0.0000000001
12
-0.0003752054
22
3.9130907164
32
0.0000000000
13
-3.7776144924
23
1.0207388708
33
0.0000000000
40
0.0000000000
40
0.0000000000
40
0.0000000000
40
0.0000000000
40
0.1665235568
40
0.3331888447
40
0.4998662828
40
0.6665735333
40
0.8333362450
40
1.0000000000
40
1.0000000000
40
1.0000000000
40
1.0000000000
10
172.3460919805
20
53.9692400078
30
0.0000000000
10
172.3460711537
20
54.1864472691
30
0.0000000000
10
172.2985462874
20
54.6225231780
30
0.0000000000
10
172.0877752758
20
55.2447462910
30
0.0000000000
10
171.7473650533
20
55.8072314676
30
0.0000000000
10
171.2932292233
20
56.2828388578
30
0.0000000000
10
170.7473048829
20
56.6489369342
30
0.0000000000
10
170.3384209341
20
56.8086750114
30
0.0000000000
10
170.1285571287
20
56.8653817358
30
0.0000000000
11
172.3460919805
21
53.9692400078
31
0.0000000000
11
172.2753448206
21
54.6170098688
31
0.0000000000
11
172.0661898968
21
55.2347381801
31
0.0000000000
11
171.7284481863
21
55.7927046693
31
0.0000000000
11
171.2779823371
21
56.2645402059
31
0.0000000000
11
170.7359576891
21
56.6279142979
31
0.0000000000
11
170.1285571287
21
56.8653817358
31
0.0000000000
0
SPLINE
5
2E3
100
AcDbEntity
8
0
100
AcDbSpline
62
9
6
CONTINUOUS
70
0
71
3
72
13
73
9
74
7
42
0.0000001000
43
0.0000001000
44
0.0000000001
12
0.3531577794
22
-2.8764871164
32
0.0000000000
13
-0.0000329348
23
-2.8980853243
33
0.0000000000
40
0.0000000000
40
0.0000000000
40
0.0000000000
40
0.0000000000
40
0.0822502620
40
0.2078141387
40
0.3707281784
40
0.5633111985
40
0.7764813184
40
1.0000000000
40
1.0000000000
40
1.0000000000
40
1.0000000000
10
148.7572977731
20
56.8653817814
30
0.0000000000
10
148.7669802130
20
56.7865178418
30
0.0000000000
10
148.7817882823
20
56.5861781821
30
0.0000000000
10
148.8002265156
20
56.2285606272
30
0.0000000000
10
148.8161684345
20
55.7640746966
30
0.0000000000
10
148.8288867972
20
55.2148733652
30
0.0000000000
10
148.8369667252
20
54.6070208621
30
0.0000000000
10
148.8388144931
20
54.1851654114
30
0.0000000000
10
148.8388120393
20
53.9692400078
30
0.0000000000
11
148.7572977731
21
56.8653817814
31
0.0000000000
11
148.7780013228
21
56.6279143129
31
0.0000000000
11
148.7974618660
21
56.2645402172
31
0.0000000000
11
148.8143808673
21
55.7927046717
31
0.0000000000
11
148.8275557132
21
55.2347381694
31
0.0000000000
11
148.8359380224
21
54.6170098430
31
0.0000000000
11
148.8388120393
21
53.9692400078
31
0.0000000000
0
SPLINE
5
2E4
100
AcDbEntity
8
0
100
AcDbSpline
62
9
6
CONTINUOUS
70
0
71
3
72
15
73
11
74
9
42
0.0000001000
43
0.0000001000
44
0.0000000001
12
12.7692257805
22
3.4265732106
32
0.0000000000
13
13.1576611255
23
1.2924723239
33
0.0000000000
40
0.0000000000
40
0.0000000000
40
0.0000000000
40
0.0000000000
40
0.1957682850
40
0.3638716951
40
0.5075802597
40
0.6311702563
40
0.7381436763
40
0.8328014430
40
0.9189787291
40
1.0000000000
40
1.0000000000
40
1.0000000000
40
1.0000000000
10
123.8578065209
20
56.8653817358
30
0.0000000000
10
124.6910763315
20
57.0889865228
30
0.0000000000
10
126.2403878404
20
57.5026501661
30
0.0000000000
10
128.4042609424
20
58.0696178834
30
0.0000000000
10
130.2642681439
20
58.5411488962
30
0.0000000000
10
131.8680939155
20
58.9265273282
30
0.0000000000
10
133.2675527534
20
59.2363706700
30
0.0000000000
10
134.5123632769
20
59.4805626211
30
0.0000000000
10
135.6513882221
20
59.6671788423
30
0.0000000000
10
136.3829679765
20
59.7574891624
30
0.0000000000
10
136.7383181188
20
59.7923950791
30
0.0000000000
11
123.8578065209
21
56.8653817358
31
0.0000000000
11
126.3587351997
21
57.5320112027
31
0.0000000000
11
128.5090579408
21
58.0937835747
31
0.0000000000
11
130.3512375379
21
58.5588184923
31
0.0000000000
11
131.9404856287
21
58.9385385735
31
0.0000000000
11
133.3217988735
21
59.2421866899
31
0.0000000000
11
134.5502650455
21
59.4810299025
31
0.0000000000
11
135.6749576934
21
59.6631901029
31
0.0000000000
11
136.7383181188
21
59.7923950791
31
0.0000000000
0
SPLINE
5
2E5
100
AcDbEntity
8
0
100
AcDbSpline
62
9
6
CONTINUOUS
70
0
71
3
72
15
73
11
74
9
42
0.0000001000
43
0.0000001000
44
0.0000000001
12
-13.1576649198
22
-1.2923332510
32
0.0000000000
13
-12.7692157953
23
-3.4265725366
33
0.0000000000
40
0.0000000000
40
0.0000000000
40
0.0000000000
40
0.0000000000
40
0.0867125534
40
0.1784844178
40
0.2774522318
40
0.3863684847
40
0.5088601182
40
0.6492219355
40
0.8118547240
40
1.0000000000
40
1.0000000000
40
1.0000000000
40
1.0000000000
10
136.7383283398
20
59.7923943618
30
0.0000000000
10
136.3580167660
20
59.7550405232
30
0.0000000000
10
135.5771864269
20
59.6572660811
30
0.0000000000
10
134.3710243128
20
59.4552339160
30
0.0000000000
10
133.0759711466
20
59.1959692199
30
0.0000000000
10
131.6553306133
20
58.8767931705
30
0.0000000000
10
130.0629831956
20
58.4909043573
30
0.0000000000
10
128.2457758131
20
58.0284024293
30
0.0000000000
10
126.1521717007
20
57.4791184223
30
0.0000000000
10
124.6586286269
20
57.0802794315
30
0.0000000000
10
123.8578060835
20
56.8653816196
30
0.0000000000
11
136.7383283398
21
59.7923943618
31
0.0000000000
11
135.6004784384
21
59.6524392839
31
0.0000000000
11
134.4034320830
21
59.4544228631
31
0.0000000000
11
133.1199898970
21
59.1998230649
31
0.0000000000
11
131.7145731711
21
58.8862236478
31
0.0000000000
11
130.1402237749
21
58.5066551659
31
0.0000000000
11
128.3414227876
21
58.0505698451
31
0.0000000000
11
126.2612977511
21
57.5062467723
31
0.0000000000
11
123.8578060835
21
56.8653816196
31
0.0000000000
0
SPLINE
5
2E6
100
AcDbEntity
8
0
100
AcDbSpline
62
9
6
CONTINUOUS
70
0
71
3
72
15
73
11
74
9
42
0.0000001000
43
0.0000001000
44
0.0000000001
12
-12.7692257805
22
3.4265732106
32
0.0000000000
13
-13.1576611255
23
1.2924723239
33
0.0000000000
40
0.0000000000
40
0.0000000000
40
0.0000000000
40
0.0000000000
40
0.1957682850
40
0.3638716951
40
0.5075802597
40
0.6311702563
40
0.7381436763
40
0.8328014430
40
0.9189787291
40
1.0000000000
40
1.0000000000
40
1.0000000000
40
1.0000000000
10
170.1285572851
20
56.8653817358
30
0.0000000000
10
169.2952874745
20
57.0889865228
30
0.0000000000
10
167.7459759656
20
57.5026501661
30
0.0000000000
10
165.5821028636
20
58.0696178834
30
0.0000000000
10
163.7220956621
20
58.5411488962
30
0.0000000000
10
162.1182698904
20
58.9265273282
30
0.0000000000
10
160.7188110526
20
59.2363706700
30
0.0000000000
10
159.4740005291
20
59.4805626211
30
0.0000000000
10
158.3349755839
20
59.6671788423
30
0.0000000000
10
157.6033958295
20
59.7574891624
30
0.0000000000
10
157.2480456872
20
59.7923950791
30
0.0000000000
11
170.1285572851
21
56.8653817358
31
0.0000000000
11
167.6276286063
21
57.5320112027
31
0.0000000000
11
165.4773058652
21
58.0937835747
31
0.0000000000
11
163.6351262681
21
58.5588184923
31
0.0000000000
11
162.0458781773
21
58.9385385735
31
0.0000000000
11
160.6645649325
21
59.2421866899
31
0.0000000000
11
159.4360987605
21
59.4810299025
31
0.0000000000
11
158.3114061125
21
59.6631901029
31
0.0000000000
11
157.2480456872
21
59.7923950791
31
0.0000000000
0
SPLINE
5
2E7
100
AcDbEntity
8
0
100
AcDbSpline
62
9
6
CONTINUOUS
70
0
71
3
72
15
73
11
74
9
42
0.0000001000
43
0.0000001000
44
0.0000000001
12
13.1576649198
22
-1.2923332510
32
0.0000000000
13
12.7692157953
23
-3.4265725366
33
0.0000000000
40
0.0000000000
40
0.0000000000
40
0.0000000000
40
0.0000000000
40
0.0867125534
40
0.1784844178
40
0.2774522318
40
0.3863684847
40
0.5088601182
40
0.6492219355
40
0.8118547240
40
1.0000000000
40
1.0000000000
40
1.0000000000
40
1.0000000000
10
157.2480354662
20
59.7923943618
30
0.0000000000
10
157.6283470400
20
59.7550405232
30
0.0000000000
10
158.4091773791
20
59.6572660811
30
0.0000000000
10
159.6153394932
20
59.4552339160
30
0.0000000000
10
160.9103926594
20
59.1959692199
30
0.0000000000
10
162.3310331927
20
58.8767931705
30
0.0000000000
10
163.9233806104
20
58.4909043573
30
0.0000000000
10
165.7405879929
20
58.0284024293
30
0.0000000000
10
167.8341921053
20
57.4791184223
30
0.0000000000
10
169.3277351791
20
57.0802794315
30
0.0000000000
10
170.1285577225
20
56.8653816196
30
0.0000000000
11
157.2480354662
21
59.7923943618
31
0.0000000000
11
158.3858853676
21
59.6524392839
31
0.0000000000
11
159.5829317230
21
59.4544228631
31
0.0000000000
11
160.8663739090
21
59.1998230649
31
0.0000000000
11
162.2717906349
21
58.8862236478
31
0.0000000000
11
163.8461400311
21
58.5066551659
31
0.0000000000
11
165.6449410184
21
58.0505698451
31
0.0000000000
11
167.7250660549
21
57.5062467723
31
0.0000000000
11
170.1285577225
21
56.8653816196
31
0.0000000000
0
SPLINE
5
2E8
100
AcDbEntity
8
0
100
AcDbSpline
62
9
6
CONTINUOUS
70
0
71
3
72
15
73
11
74
9
42
0.0000001000
43
0.0000001000
44
0.0000000001
12
6.1956577792
22
-0.7310901866
32
0.0000000000
13
1.1900585994
23
-6.1240859488
33
0.0000000000
40
0.0000000000
40
0.0000000000
40
0.0000000000
40
0.0000000000
40
0.1369758535
40
0.2670322904
40
0.3938106555
40
0.5193798527
40
0.6443401919
40
0.7667196133
40
0.8850070878
40
1.0000000000
40
1.0000000000
40
1.0000000000
40
1.0000000000
10
140.0762275565
20
59.7923950994
30
0.0000000000
10
140.3591127274
20
59.7590145320
30
0.0000000000
10
140.9085754034
20
59.6747284958
30
0.0000000000
10
141.7072369866
20
59.4901470038
30
0.0000000000
10
142.4661613673
20
59.2495037415
30
0.0000000000
10
143.1909325413
20
58.9457512356
30
0.0000000000
10
143.8715233112
20
58.5702139458
30
0.0000000000
10
144.4821985514
20
58.1115029730
30
0.0000000000
10
144.9803747711
20
57.5564991951
30
0.0000000000
10
145.1834519502
20
57.1001239407
30
0.0000000000
10
145.2290680516
20
56.8653817815
30
0.0000000000
11
140.0762275565
21
59.7923950994
31
0.0000000000
11
140.9207314029
21
59.6617896133
31
0.0000000000
11
141.7110254439
21
59.4780347483
31
0.0000000000
11
142.4645030318
21
59.2375480652
31
0.0000000000
11
143.1860717380
21
58.9325480064
31
0.0000000000
11
143.8664562487
21
58.5519872193
31
0.0000000000
11
144.4722617919
21
58.0873328304
31
0.0000000000
11
144.9531897291
21
57.5276155326
31
0.0000000000
11
145.2290680516
21
56.8653817815
31
0.0000000000
0
SPLINE
5
2E9
100
AcDbEntity
8
0
100
AcDbSpline
62
9
6
CONTINUOUS
70
0
71
3
72
15
73
11
74
9
42
0.0000001000
43
0.0000001000
44
0.0000000001
12
1.1901406099
22
6.1243369942
32
0.0000000000
13
6.1959147453
23
0.7311489311
33
0.0000000000
40
0.0000000000
40
0.0000000000
40
0.0000000000
40
0.0000000000
40
0.1127811827
40
0.2286449371
40
0.3485465544
40
0.4713244122
40
0.5948749980
40
0.7225104208
40
0.8571165621
40
1.0000000000
40
1.0000000000
40
1.0000000000
40
1.0000000000
10
148.7572956621
20
56.8653816354
30
0.0000000000
10
148.8020374839
20
57.0956182919
30
0.0000000000
10
148.9989338595
20
57.5434185053
30
0.0000000000
10
149.4828947257
20
58.0911016220
30
0.0000000000
10
150.0780593235
20
58.5458186674
30
0.0000000000
10
150.7434584976
20
58.9200957776
30
0.0000000000
10
151.4593711789
20
59.2269763839
30
0.0000000000
10
152.2233156869
20
59.4752946422
30
0.0000000000
10
153.0441113645
20
59.6691184054
30
0.0000000000
10
153.6150393486
20
59.7575717659
30
0.0000000000
10
153.9101372152
20
59.7923947902
30
0.0000000000
11
148.7572956621
21
56.8653816354
31
0.0000000000
11
149.0256169075
21
57.5158433536
31
0.0000000000
11
149.4927438605
21
58.0674984088
31
0.0000000000
11
150.0825818531
21
58.5275822757
31
0.0000000000
11
150.7480212743
21
58.9069837567
31
0.0000000000
11
151.4555503533
21
59.2128704719
31
0.0000000000
11
152.2123595317
21
59.4605436572
31
0.0000000000
11
153.0293945066
21
59.6547327891
31
0.0000000000
11
153.9101372152
21
59.7923947902
31
0.0000000000
0
SPLINE
5
2EA
100
AcDbEntity
8
0
100
AcDbSpline
62
9
6
CONTINUOUS
70
0
71
3
72
15
73
11
74
9
42
0.0000001000
43
0.0000001000
44
0.0000000001
12
-1.1901406099
22
6.1243369942
32
0.0000000000
13
-6.1959147453
23
0.7311489311
33
0.0000000000
40
0.0000000000
40
0.0000000000
40
0.0000000000
40
0.0000000000
40
0.1127811827
40
0.2286449371
40
0.3485465544
40
0.4713244122
40
0.5948749980
40
0.7225104208
40
0.8571165621
40
1.0000000000
40
1.0000000000
40
1.0000000000
40
1.0000000000
10
145.2290681439
20
56.8653816354
30
0.0000000000
10
145.1843263221
20
57.0956182919
30
0.0000000000
10
144.9874299465
20
57.5434185053
30
0.0000000000
10
144.5034690803
20
58.0911016220
30
0.0000000000
10
143.9083044825
20
58.5458186674
30
0.0000000000
10
143.2429053084
20
58.9200957776
30
0.0000000000
10
142.5269926271
20
59.2269763839
30
0.0000000000
10
141.7630481190
20
59.4752946422
30
0.0000000000
10
140.9422524415
20
59.6691184054
30
0.0000000000
10
140.3713244574
20
59.7575717659
30
0.0000000000
10
140.0762265908
20
59.7923947902
30
0.0000000000
11
145.2290681439
21
56.8653816354
31
0.0000000000
11
144.9607468985
21
57.5158433536
31
0.0000000000
11
144.4936199455
21
58.0674984088
31
0.0000000000
11
143.9037819529
21
58.5275822757
31
0.0000000000
11
143.2383425317
21
58.9069837567
31
0.0000000000
11
142.5308134527
21
59.2128704719
31
0.0000000000
11
141.7740042743
21
59.4605436572
31
0.0000000000
11
140.9569692994
21
59.6547327891
31
0.0000000000
11
140.0762265908
21
59.7923947902
31
0.0000000000
0
SPLINE
5
2EB
100
AcDbEntity
8
0
100
AcDbSpline
62
9
6
CONTINUOUS
70
0
71
3
72
15
73
11
74
9
42
0.0000001000
43
0.0000001000
44
0.0000000001
12
-6.1956577792
22
-0.7310901866
32
0.0000000000
13
-1.1900585994
23
-6.1240859488
33
0.0000000000
40
0.0000000000
40
0.0000000000
40
0.0000000000
40
0.0000000000
40
0.1369758535
40
0.2670322904
40
0.3938106555
40
0.5193798527
40
0.6443401919
40
0.7667196133
40
0.8850070878
40
1.0000000000
40
1.0000000000
40
1.0000000000
40
1.0000000000
10
153.9101362495
20
59.7923950994
30
0.0000000000
10
153.6272510786
20
59.7590145320
30
0.0000000000
10
153.0777884026
20
59.6747284958
30
0.0000000000
10
152.2791268194
20
59.4901470038
30
0.0000000000
10
151.5202024387
20
59.2495037415
30
0.0000000000
10
150.7954312647
20
58.9457512356
30
0.0000000000
10
150.1148404948
20
58.5702139458
30
0.0000000000
10
149.5041652546
20
58.1115029730
30
0.0000000000
10
149.0059890349
20
57.5564991951
30
0.0000000000
10
148.8029118558
20
57.1001239407
30
0.0000000000
10
148.7572957544
20
56.8653817815
30
0.0000000000
11
153.9101362495
21
59.7923950994
31
0.0000000000
11
153.0656324031
21
59.6617896133
31
0.0000000000
11
152.2753383621
21
59.4780347483
31
0.0000000000
11
151.5218607742
21
59.2375480652
31
0.0000000000
11
150.8002920680
21
58.9325480064
31
0.0000000000
11
150.1199075573
21
58.5519872193
31
0.0000000000
11
149.5141020140
21
58.0873328304
31
0.0000000000
11
149.0331740769
21
57.5276155326
31
0.0000000000
11
148.7572957544
21
56.8653817815
31
0.0000000000
0
SPLINE
5
2EC
100
AcDbEntity
8
0
100
AcDbSpline
62
9
6
CONTINUOUS
70
0
71
3
72
15
73
11
74
9
42
0.0000001000
43
0.0000001000
44
0.0000000001
12
3.2386655147
22
-0.0003234587
32
0.0000000000
13
3.2386655308
23
-0.0000276203
33
0.0000000000
40
0.0000000000
40
0.0000000000
40
0.0000000000
40
0.0000000000
40
0.1994399585
40
0.3697745891
40
0.5161107070
40
0.6424365127
40
0.7518837924
40
0.8467021996
40
0.9288139819
40
1.0000000000
40
1.0000000000
40
1.0000000000
40
1.0000000000
10
153.7034695495
20
60.2750857267
30
0.0000000000
10
153.9187759881
20
60.2750642232
30
0.0000000000
10
154.3179475389
20
60.2681994558
30
0.0000000000
10
154.8749424149
20
60.2546764368
30
0.0000000000
10
155.3531581036
20
60.2481559555
30
0.0000000000
10
155.7656845568
20
60.2498448487
30
0.0000000000
10
156.1225142154
20
60.2569737085
30
0.0000000000
10
156.4315500945
20
60.2657529972
30
0.0000000000
10
156.6993100295
20
60.2728888529
30
0.0000000000
10
156.8648019792
20
60.2750865078
30
0.0000000000
10
156.9416512135
20
60.2750858524
30
0.0000000000
11
153.7034695495
21
60.2750857267
31
0.0000000000
11
154.3493362039
21
60.2668376136
31
0.0000000000
11
154.9008682097
21
60.2550997008
31
0.0000000000
11
155.3747672484
21
60.2493645540
31
0.0000000000
11
155.7838906851
21
60.2510798375
31
0.0000000000
11
156.1382896840
21
60.2578223683
31
0.0000000000
11
156.4452646535
21
60.2660461816
31
0.0000000000
11
156.7111172526
21
60.2725686706
31
0.0000000000
11
156.9416512135
21
60.2750858524
31
0.0000000000
0
SPLINE
5
2ED
100
AcDbEntity
8
0
100
AcDbSpline
62
9
6
CONTINUOUS
70
0
71
3
72
26
73
22
74
20
42
0.0000001000
43
0.0000001000
44
0.0000000001
12
-16.5565349134
22
-12.5870384526
32
0.0000000000
13
-20.7764826839
23
0.9434790038
33
0.0000000000
40
0.0000000000
40
0.0000000000
40
0.0000000000
40
0.0000000000
40
0.0149497738
40
0.0386025104
40
0.0675518295
40
0.0996867732
40
0.1335910015
40
0.1690223827
40
0.2063501611
40
0.2464802745
40
0.2905818962
40
0.3378833703
40
0.3869920715
40
0.4375356440
40
0.4911049841
40
0.5495604342
40
0.6151762431
40
0.6906661660
40
0.7782278418
40
0.8806443630
40
1.0000000000
40
1.0000000000
40
1.0000000000
40
1.0000000000
10
145.2499186253
20
50.0583810450
30
0.0000000000
10
145.1674131415
20
49.9956565858
30
0.0000000000
10
144.8972017212
20
49.9294103088
30
0.0000000000
10
144.4433528655
20
49.8407976141
30
0.0000000000
10
143.8575044314
20
49.7700383291
30
0.0000000000
10
143.2026701633
20
49.7079828954
30
0.0000000000
10
142.5006901980
20
49.6581255925
30
0.0000000000
10
141.7623460265
20
49.6183075046
30
0.0000000000
10
140.9802639974
20
49.5880383951
30
0.0000000000
10
140.1377781475
20
49.5670933781
30
0.0000000000
10
139.2259417783
20
49.5564536479
30
0.0000000000
10
138.2518039425
20
49.5570731119
30
0.0000000000
10
137.2330776409
20
49.5687064220
30
0.0000000000
10
136.1710566786
20
49.5902712555
30
0.0000000000
10
135.0444461694
20
49.6211609292
30
0.0000000000
10
133.8135956436
20
49.6618128282
30
0.0000000000
10
132.4310726600
20
49.7134575683
30
0.0000000000
10
130.8471076492
20
49.7777364223
30
0.0000000000
10
129.0084009767
20
49.8565164813
30
0.0000000000
10
126.8660055282
20
49.9514517827
30
0.0000000000
10
125.3301076182
20
50.0208445327
30
0.0000000000
10
124.5035108435
20
50.0583810452
30
0.0000000000
11
145.2499186253
21
50.0583810450
31
0.0000000000
11
144.9597497808
21
49.9466865712
31
0.0000000000
11
144.4768620596
21
49.8528157910
31
0.0000000000
11
143.8798019783
21
49.7751920662
31
0.0000000000
11
143.2144882907
21
49.7116711201
31
0.0000000000
11
142.5111867791
21
49.6608329333
31
0.0000000000
11
141.7753752612
21
49.6208301266
31
0.0000000000
11
140.9996282558
21
49.5905136114
31
0.0000000000
11
140.1652703581
21
49.5695253943
31
0.0000000000
11
139.2481154511
21
49.5585275425
31
0.0000000000
11
138.2643444554
21
49.5588000008
31
0.0000000000
11
137.2430492307
21
49.5700831109
31
0.0000000000
11
136.1920585844
21
49.5910542959
31
0.0000000000
11
135.0783377887
21
49.6212272840
31
0.0000000000
11
133.8632382627
21
49.6609990227
31
0.0000000000
11
132.4995054533
21
49.7115829700
31
0.0000000000
11
130.9307509238
21
49.7748902508
31
0.0000000000
11
129.1113077379
21
49.8525175342
31
0.0000000000
11
126.9833358042
21
49.9465368460
31
0.0000000000
11
124.5035108435
21
50.0583810452
31
0.0000000000
0
SPLINE
5
2EE
100
AcDbEntity
8
0
100
AcDbSpline
62
9
6
CONTINUOUS
70
0
71
3
72
25
73
21
74
19
42
0.0000001000
43
0.0000001000
44
0.0000000001
12
20.7764168599
22
-0.9434753627
32
0.0000000000
13
16.5565135303
23
12.5869576553
33
0.0000000000
40
0.0000000000
40
0.0000000000
40
0.0000000000
40
0.0000000000
40
0.1214735418
40
0.2251781080
40
0.3140058649
40
0.3915068638
40
0.4606680476
40
0.5238181317
40
0.5826622597
40
0.6383876430
40
0.6910443249
40
0.7395085659
40
0.7839682411
40
0.8249634415
40
0.8627095826
40
0.8976256587
40
0.9306472081
40
0.9603646671
40
0.9846647438
40
1.0000000000
40
1.0000000000
40
1.0000000000
40
1.0000000000
10
124.5035109222
20
50.0583810417
30
0.0000000000
10
125.3447725698
20
50.0201786103
30
0.0000000000
10
126.9042539109
20
49.9497255694
30
0.0000000000
10
129.0790028485
20
49.8534162296
30
0.0000000000
10
130.9493299149
20
49.7734305311
30
0.0000000000
10
132.5805621184
20
49.7075519665
30
0.0000000000
10
134.0341239268
20
49.6539302922
30
0.0000000000
10
135.3586597052
20
49.6115759207
30
0.0000000000
10
136.5903374875
20
49.5804005902
30
0.0000000000
10
137.7495106872
20
49.5611787906
30
0.0000000000
10
138.8368725171
20
49.5550101553
30
0.0000000000
10
139.8461333010
20
49.5621138887
30
0.0000000000
10
140.7743630765
20
49.5815426037
30
0.0000000000
10
141.6279817160
20
49.6120082788
30
0.0000000000
10
142.4148289397
20
49.6527011000
30
0.0000000000
10
143.1460534618
20
49.7032873191
30
0.0000000000
10
143.8193607573
20
49.7658831693
30
0.0000000000
10
144.4213378777
20
49.8372694000
30
0.0000000000
10
144.8872993584
20
49.9273383293
30
0.0000000000
10
145.1652858222
20
49.9940396357
30
0.0000000000
10
145.2499186143
20
50.0583810424
30
0.0000000000
11
124.5035109222
21
50.0583810417
31
0.0000000000
11
127.0273319003
21
49.9445700588
31
0.0000000000
11
129.1820626759
21
49.8494401403
31
0.0000000000
11
131.0278149474
21
49.7708561004
31
0.0000000000
11
132.6383704557
21
49.7062092155
31
0.0000000000
11
134.0758112921
21
49.6536231712
31
0.0000000000
11
135.3885402859
21
49.6121305265
31
0.0000000000
11
136.6119914756
21
49.5816812004
31
0.0000000000
11
137.7708077148
21
49.5629925700
31
0.0000000000
11
138.8659373253
21
49.5572616507
31
0.0000000000
11
139.8738605024
21
49.5647429605
31
0.0000000000
11
140.7983160107
21
49.5844093639
31
0.0000000000
11
141.6503718615
21
49.6151754187
31
0.0000000000
11
142.4343432303
21
49.6560796011
31
0.0000000000
11
143.1587267329
21
49.7071071867
31
0.0000000000
11
143.8425139364
21
49.7711151490
31
0.0000000000
11
144.4555772023
21
49.8495361997
31
0.0000000000
11
144.9519247271
21
49.9447044035
31
0.0000000000
11
145.2499186143
21
50.0583810424
31
0.0000000000
0
SPLINE
5
2EF
100
AcDbEntity
8
0
100
AcDbSpline
62
9
6
CONTINUOUS
70
0
71
3
72
15
73
11
74
9
42
0.0000001000
43
0.0000001000
44
0.0000000001
12
-3.2386655147
22
-0.0003234587
32
0.0000000000
13
-3.2386655308
23
-0.0000276203
33
0.0000000000
40
0.0000000000
40
0.0000000000
40
0.0000000000
40
0.0000000000
40
0.1994399585
40
0.3697745891
40
0.5161107070
40
0.6424365127
40
0.7518837924
40
0.8467021996
40
0.9288139819
40
1.0000000000
40
1.0000000000
40
1.0000000000
40
1.0000000000
10
140.2828942565
20
60.2750857267
30
0.0000000000
10
140.0675878179
20
60.2750642232
30
0.0000000000
10
139.6684162671
20
60.2681994558
30
0.0000000000
10
139.1114213911
20
60.2546764368
30
0.0000000000
10
138.6332057024
20
60.2481559555
30
0.0000000000
10
138.2206792492
20
60.2498448487
30
0.0000000000
10
137.8638495906
20
60.2569737085
30
0.0000000000
10
137.5548137115
20
60.2657529972
30
0.0000000000
10
137.2870537765
20
60.2728888529
30
0.0000000000
10
137.1215618268
20
60.2750865078
30
0.0000000000
10
137.0447125924
20
60.2750858524
30
0.0000000000
11
140.2828942565
21
60.2750857267
31
0.0000000000
11
139.6370276021
21
60.2668376136
31
0.0000000000
11
139.0854955963
21
60.2550997008
31
0.0000000000
11
138.6115965576
21
60.2493645540
31
0.0000000000
11
138.2024731209
21
60.2510798375
31
0.0000000000
11
137.8480741220
21
60.2578223683
31
0.0000000000
11
137.5410991525
21
60.2660461816
31
0.0000000000
11
137.2752465534
21
60.2725686706
31
0.0000000000
11
137.0447125924
21
60.2750858524
31
0.0000000000
0
SPLINE
5
2F0
100
AcDbEntity
8
0
100
AcDbSpline
62
9
6
CONTINUOUS
70
0
71
3
72
25
73
21
74
19
42
0.0000001000
43
0.0000001000
44
0.0000000001
12
18.8171935129
22
-0.9400322551
32
0.0000000000
13
14.3961551295
23
12.1540589857
33
0.0000000000
40
0.0000000000
40
0.0000000000
40
0.0000000000
40
0.0000000000
40
0.1219302801
40
0.2259975808
40
0.3151144409
40
0.3928344625
40
0.4621437593
40
0.5253653153
40
0.5841950007
40
0.6398122417
40
0.6922725358
40
0.7404846215
40
0.7846741737
40
0.8254112501
40
0.8629322408
40
0.8976659916
40
0.9305532264
40
0.9601968336
40
0.9845037001
40
1.0000000000
40
1.0000000000
40
1.0000000000
40
1.0000000000
10
124.4765432705
20
52.0562904663
30
0.0000000000
10
125.2413384956
20
52.0180843343
30
0.0000000000
10
126.6589036024
20
51.9476352693
30
0.0000000000
10
128.6355472349
20
51.8513280365
30
0.0000000000
10
130.3350052657
20
51.7713489522
30
0.0000000000
10
131.8165938829
20
51.7054765448
30
0.0000000000
10
133.1359309285
20
51.6518596320
30
0.0000000000
10
134.3369783780
20
51.6095073964
30
0.0000000000
10
135.4523526361
20
51.5783295148
30
0.0000000000
10
136.5004107482
20
51.5590991098
30
0.0000000000
10
137.4819523668
20
51.5529186118
30
0.0000000000
10
138.3917251140
20
51.5600159053
30
0.0000000000
10
139.2276676935
20
51.5794450574
30
0.0000000000
10
139.9961221799
20
51.6099230221
30
0.0000000000
10
140.7045300659
20
51.6506131228
30
0.0000000000
10
141.3632077218
20
51.7012574460
30
0.0000000000
10
141.9700735027
20
51.7637222387
30
0.0000000000
10
142.5134614233
20
51.8356208846
30
0.0000000000
10
142.9341351106
20
51.9246634456
30
0.0000000000
10
143.1861127553
20
51.9935094853
30
0.0000000000
10
143.2604751344
20
52.0562904663
30
0.0000000000
11
124.4765432705
21
52.0562904663
31
0.0000000000
11
126.7709685751
21
51.9424681273
31
0.0000000000
11
128.7293561305
21
51.8473415981
31
0.0000000000
11
130.4065365767
21
51.7687593490
31
0.0000000000
11
131.8694053195
21
51.7041136572
31
0.0000000000
11
133.1741789265
21
51.6515284008
31
0.0000000000
11
134.3645918234
21
51.6100365017
31
0.0000000000
11
135.4725635721
21
51.5795882980
31
0.0000000000
11
136.5202624039
21
51.5609011508
31
0.0000000000
11
137.5086323051
21
51.5551709986
31
0.0000000000
11
138.4169489712
21
51.5626515065
31
0.0000000000
11
139.2492769794
21
51.5823165737
31
0.0000000000
11
140.0161734972
21
51.6130817861
31
0.0000000000
11
140.7219093236
21
51.6539853509
31
0.0000000000
11
141.3743237450
21
51.7050110712
31
0.0000000000
11
141.9906260522
21
51.7690181970
31
0.0000000000
11
142.5435983299
21
51.8474375844
31
0.0000000000
11
142.9915588229
21
51.9426025051
31
0.0000000000
11
143.2604751344
21
52.0562904663
31
0.0000000000
0
SPLINE
5
2F1
100
AcDbEntity
8
0
100
AcDbSpline
62
9
6
CONTINUOUS
70
0
71
3
72
14
73
10
74
8
42
0.0000001000
43
0.0000001000
44
0.0000000001
12
0.7632481363
22
0.6480436005
32
0.0000000000
13
-0.0000037785
23
1.0012533274
33
0.0000000000
40
0.0000000000
40
0.0000000000
40
0.0000000000
40
0.0000000000
40
0.0350524746
40
0.1145662024
40
0.2356984371
40
0.3929174235
40
0.5787880033
40
0.7845142720
40
1.0000000000
40
1.0000000000
40
1.0000000000
40
1.0000000000
10
143.2604751344
20
52.0562904663
30
0.0000000000
10
143.2693930464
20
52.0638623103
30
0.0000000000
10
143.2718177515
20
52.1072905194
30
0.0000000000
10
143.2824090557
20
52.1811010972
30
0.0000000000
10
143.2856571406
20
52.3027525730
30
0.0000000000
10
143.2898988679
20
52.4567346029
30
0.0000000000
10
143.2916963092
20
52.6402115340
30
0.0000000000
10
143.2928172712
20
52.8427221600
30
0.0000000000
10
143.2930012150
20
52.9833265399
30
0.0000000000
10
143.2930009436
20
53.0552451406
30
0.0000000000
11
143.2604751344
21
52.0562904663
31
0.0000000000
11
143.2711317042
21
52.0897298935
31
0.0000000000
11
143.2794089455
21
52.1689118250
31
0.0000000000
11
143.2853328224
21
52.2900511218
31
0.0000000000
11
143.2892147321
21
52.4474192834
31
0.0000000000
11
143.2915052392
21
52.6335087239
31
0.0000000000
11
143.2926575969
21
52.8394896116
31
0.0000000000
11
143.2930009436
21
53.0552451406
31
0.0000000000
0
SPLINE
5
2F2
100
AcDbEntity
8
0
100
AcDbSpline
62
9
6
CONTINUOUS
70
0
71
3
72
13
73
9
74
7
42
0.0000001000
43
0.0000001000
44
0.0000000001
12
0.0000037506
22
0.9660217611
32
0.0000000000
13
-0.1588156748
23
0.9528775495
33
0.0000000000
40
0.0000000000
40
0.0000000000
40
0.0000000000
40
0.0000000000
40
0.2233149244
40
0.4365430119
40
0.6292106675
40
0.7921620260
40
0.9177087409
40
1.0000000000
40
1.0000000000
40
1.0000000000
40
1.0000000000
10
143.2930009436
20
53.9692400078
30
0.0000000000
10
143.2930012228
20
54.0411490333
30
0.0000000000
10
143.2927949309
20
54.1817183984
30
0.0000000000
10
143.2917679483
20
54.3843300246
30
0.0000000000
10
143.2896771039
20
54.5674831471
30
0.0000000000
10
143.2862816227
20
54.7224174320
30
0.0000000000
10
143.2809077916
20
54.8416442322
30
0.0000000000
10
143.2755100537
20
54.9084838155
30
0.0000000000
10
143.2711536731
20
54.9346216466
30
0.0000000000
11
143.2930009436
21
53.9692400078
31
0.0000000000
11
143.2926576925
21
54.1849668112
31
0.0000000000
11
143.2915054989
21
54.3909465614
31
0.0000000000
11
143.2892149372
21
54.5770536140
31
0.0000000000
11
143.2853332470
21
54.7344203057
31
0.0000000000
11
143.2794104303
21
54.8555564560
31
0.0000000000
11
143.2711536731
21
54.9346216466
31
0.0000000000
0
SPLINE
5
2F3
100
AcDbEntity
8
0
100
AcDbSpline
62
9
6
CONTINUOUS
70
0
71
3
72
25
73
21
74
19
42
0.0000001000
43
0.0000001000
44
0.0000000001
12
-3.3837642876
22
20.2735501746
32
0.0000000000
13
-19.7127433039
23
-5.8201760171
33
0.0000000000
40
0.0000000000
40
0.0000000000
40
0.0000000000
40
0.0000000000
40
0.0355620573
40
0.0709059093
40
0.1064259202
40
0.1419603193
40
0.1771661751
40
0.2135217524
40
0.2518223335
40
0.2926120274
40
0.3368690377
40
0.3853508905
40
0.4371012927
40
0.4922123433
40
0.5519552159
40
0.6180318277
40
0.6928395229
40
0.7793949174
40
0.8809542767
40
1.0000000000
40
1.0000000000
40
1.0000000000
40
1.0000000000
10
143.2711536731
20
54.9346216466
30
0.0000000000
10
143.2310424665
20
55.1749446979
30
0.0000000000
10
143.0494818282
20
55.6393488453
30
0.0000000000
10
142.5899672802
20
56.2134369743
30
0.0000000000
10
142.0285771774
20
56.6839028885
30
0.0000000000
10
141.4064724611
20
57.0658769340
30
0.0000000000
10
140.7393915500
20
57.3748247379
30
0.0000000000
10
140.0263572404
20
57.6197600239
30
0.0000000000
10
139.2557335586
20
57.8032211036
30
0.0000000000
10
138.4176359465
20
57.9207890309
30
0.0000000000
10
137.5026759810
20
57.9651353596
30
0.0000000000
10
136.5123332362
20
57.9296566919
30
0.0000000000
10
135.4534605859
20
57.8153119398
30
0.0000000000
10
134.3268423307
20
57.6290981331
30
0.0000000000
10
133.1131276306
20
57.3757597314
30
0.0000000000
10
131.7765594994
20
57.0541941287
30
0.0000000000
10
130.2695344975
20
56.6575798671
30
0.0000000000
10
128.5341643769
20
56.1743053140
30
0.0000000000
10
126.5119773770
20
55.5915804693
30
0.0000000000
10
125.0618118542
20
55.1655773344
30
0.0000000000
10
124.2795725927
20
54.9346216466
30
0.0000000000
11
143.2711536731
21
54.9346216466
31
0.0000000000
11
143.0175837508
21
55.6201717873
31
0.0000000000
11
142.5738294180
21
56.1953433860
31
0.0000000000
11
142.0183858311
21
56.6691539740
31
0.0000000000
11
141.3978681148
21
57.0543860148
31
0.0000000000
11
140.7420246296
21
57.3601582111
31
0.0000000000
11
140.0357069046
21
57.6040871674
31
0.0000000000
11
139.2701338924
21
57.7874691225
31
0.0000000000
11
138.4400691730
21
57.9053346541
31
0.0000000000
11
137.5315846451
21
57.9515318980
31
0.0000000000
11
136.5356215013
21
57.9189560704
31
0.0000000000
11
135.4777237348
21
57.8082216046
31
0.0000000000
11
134.3595933514
21
57.6268047212
31
0.0000000000
11
133.1569269676
21
57.3788807816
31
0.0000000000
11
131.8358383390
21
57.0638180073
31
0.0000000000
11
130.3482675887
21
56.6747965358
31
0.0000000000
11
128.6338652822
21
56.1995323194
31
0.0000000000
11
126.6275617457
21
55.6231679880
31
0.0000000000
11
124.2795725927
21
54.9346216466
31
0.0000000000
0
SPLINE
5
2F4
100
AcDbEntity
8
0
100
AcDbSpline
62
9
6
CONTINUOUS
70
0
71
3
72
13
73
9
74
7
42
0.0000001000
43
0.0000001000
44
0.0000000001
12
-1.2082266490
22
-0.3570795712
32
0.0000000000
13
-0.0002266246
23
-1.2598878538
33
0.0000000000
40
0.0000000000
40
0.0000000000
40
0.0000000000
40
0.0000000000
40
0.1596928068
40
0.3222897594
40
0.4880349198
40
0.6568100907
40
0.8279258895
40
1.0000000000
40
1.0000000000
40
1.0000000000
40
1.0000000000
10
124.2795725927
20
54.9346216466
30
0.0000000000
10
124.2152575578
20
54.9156139669
30
0.0000000000
10
124.0895319530
20
54.8617094081
30
0.0000000000
10
123.9231985737
20
54.7391374402
30
0.0000000000
10
123.7852084192
20
54.5802796107
30
0.0000000000
10
123.6821003460
20
54.3928748754
30
0.0000000000
10
123.6184295639
20
54.1860450021
30
0.0000000000
10
123.6041327384
20
54.0415047017
30
0.0000000000
10
123.6041197396
20
53.9692400078
30
0.0000000000
11
124.2795725927
21
54.9346216466
31
0.0000000000
11
124.0945641148
21
54.8555564613
31
0.0000000000
11
123.9293637367
21
54.7344203094
31
0.0000000000
11
123.7920988520
21
54.5770536148
31
0.0000000000
11
123.6892446172
21
54.3909465578
31
0.0000000000
11
123.6256052086
21
54.1849668027
31
0.0000000000
11
123.6041197396
21
53.9692400078
31
0.0000000000
0
SPLINE
5
2F5
100
AcDbEntity
8
0
100
AcDbSpline
62
9
6
CONTINUOUS
70
0
71
3
72
14
73
10
74
8
42
0.0000001000
43
0.0000001000
44
0.0000000001
12
0.0002554458
22
-1.4596991455
32
0.0000000000
13
1.4578618421
23
-0.0732155029
33
0.0000000000
40
0.0000000000
40
0.0000000000
40
0.0000000000
40
0.0000000000
40
0.1485396908
40
0.2962344958
40
0.4418946359
40
0.5849547929
40
0.7253090055
40
0.8634311042
40
1.0000000000
40
1.0000000000
40
1.0000000000
40
1.0000000000
10
123.6041197396
20
53.0552451406
30
0.0000000000
10
123.6041323876
20
52.9829707207
30
0.0000000000
10
123.6184330919
20
52.8384193501
30
0.0000000000
10
123.6821095839
20
52.6315869786
30
0.0000000000
10
123.7852285312
20
52.4441872581
30
0.0000000000
10
123.9231890570
20
52.2853297794
30
0.0000000000
10
124.0897693115
20
52.1626715661
30
0.0000000000
10
124.2769590493
20
52.0823259176
30
0.0000000000
10
124.4101770766
20
52.0596234531
30
0.0000000000
10
124.4765432705
20
52.0562904663
30
0.0000000000
11
123.6041197396
21
53.0552451406
31
0.0000000000
11
123.6256110002
21
52.8394896004
31
0.0000000000
11
123.6892578076
21
52.6335087151
31
0.0000000000
11
123.7921071112
21
52.4474192773
31
0.0000000000
11
123.9293771234
21
52.2900511180
31
0.0000000000
11
124.0946012351
21
52.1689118232
31
0.0000000000
11
124.2800183885
21
52.0897298931
31
0.0000000000
11
124.4765432705
21
52.0562904663
31
0.0000000000
0
SPLINE
5
2F6
100
AcDbEntity
8
0
100
AcDbSpline
62
9
6
CONTINUOUS
70
0
71
3
72
26
73
22
74
20
42
0.0000001000
43
0.0000001000
44
0.0000000001
12
14.3961979852
22
-12.1541182208
32
0.0000000000
13
18.8172644495
23
0.9400344639
33
0.0000000000
40
0.0000000000
40
0.0000000000
40
0.0000000000
40
0.0000000000
40
0.0151099600
40
0.0387721275
40
0.0676522120
40
0.0996593361
40
0.1333899512
40
0.1686122189
40
0.2057052411
40
0.2455865545
40
0.2894428086
40
0.3365371360
40
0.3855074778
40
0.4359892438
40
0.4895688350
40
0.5481030886
40
0.6138653982
40
0.6895719712
40
0.7774202309
40
0.8801957294
40
1.0000000000
40
1.0000000000
40
1.0000000000
40
1.0000000000
10
150.7258886716
20
52.0562904663
30
0.0000000000
10
150.7983973302
20
51.9950743863
30
0.0000000000
10
151.0432789954
20
51.9267755968
30
0.0000000000
10
151.4530568474
20
51.8391325545
30
0.0000000000
10
151.9819013273
20
51.7678825054
30
0.0000000000
10
152.5721547735
20
51.7059509380
30
0.0000000000
10
153.2045307541
20
51.6560382848
30
0.0000000000
10
153.8692978241
20
51.6162227966
30
0.0000000000
10
154.5733191981
20
51.5859430907
30
0.0000000000
10
155.3318974675
20
51.5649960648
30
0.0000000000
10
156.1535147469
20
51.5543592418
30
0.0000000000
10
157.0322759437
20
51.5549872644
30
0.0000000000
10
157.9525678395
20
51.5666283710
30
0.0000000000
10
158.9134140719
20
51.5881972890
30
0.0000000000
10
159.9340947861
20
51.6190878515
30
0.0000000000
10
161.0504657801
20
51.6597380926
30
0.0000000000
10
162.3054755500
20
51.7113794910
30
0.0000000000
10
163.7442100992
20
51.7756534465
30
0.0000000000
10
165.4149744397
20
51.8544277662
30
0.0000000000
10
167.3622257069
20
51.9493613011
30
0.0000000000
10
168.7583576546
20
52.0187504186
30
0.0000000000
10
169.5098205355
20
52.0562904663
30
0.0000000000
11
150.7258886716
21
52.0562904663
31
0.0000000000
11
150.9877400064
21
51.9445850289
31
0.0000000000
11
151.4235583746
21
51.8507173411
31
0.0000000000
11
151.9621151582
21
51.7730951560
31
0.0000000000
11
152.5617980089
21
51.7095750322
31
0.0000000000
11
153.1952708268
21
51.6587380499
31
0.0000000000
11
153.8576773419
21
51.6187363682
31
0.0000000000
11
154.5558791288
21
51.5884209001
31
0.0000000000
11
155.3069790307
21
51.5674336978
31
0.0000000000
11
156.1331896909
21
51.5564367370
31
0.0000000000
11
157.0204811555
21
51.5567091900
31
0.0000000000
11
157.9430491576
21
51.5679914506
31
0.0000000000
11
158.8939312764
21
51.5889616298
31
0.0000000000
11
159.9029588856
21
51.6191335785
31
0.0000000000
11
161.0050696088
21
51.6589041656
31
0.0000000000
11
162.2430465749
21
51.7094868713
31
0.0000000000
11
163.6680081206
21
51.7727932355
31
0.0000000000
11
165.3213121237
21
51.8504190284
31
0.0000000000
11
167.2553938089
21
51.9444352759
31
0.0000000000
11
169.5098205355
21
52.0562904663
31
0.0000000000
0
SPLINE
5
2F7
100
AcDbEntity
8
0
100
AcDbSpline
62
9
6
CONTINUOUS
70
0
71
3
72
14
73
10
74
8
42
0.0000001000
43
0.0000001000
44
0.0000000001
12
1.4578618418
22
0.0732155093
32
0.0000000000
13
0.0002554547
23
1.4596991455
33
0.0000000000
40
0.0000000000
40
0.0000000000
40
0.0000000000
40
0.0000000000
40
0.1365688970
40
0.2746909970
40
0.4150452109
40
0.5581053692
40
0.7037655107
40
0.8514603170
40
1.0000000000
40
1.0000000000
40
1.0000000000
40
1.0000000000
10
169.5098205355
20
52.0562904663
30
0.0000000000
10
169.5761867300
20
52.0596234535
30
0.0000000000
10
169.7094047586
20
52.0823259177
30
0.0000000000
10
169.8965944978
20
52.1626715679
30
0.0000000000
10
170.0631747532
20
52.2853297831
30
0.0000000000
10
170.2011352793
20
52.4441872641
30
0.0000000000
10
170.3042542255
20
52.6315869875
30
0.0000000000
10
170.3679307160
20
52.8384193570
30
0.0000000000
10
170.3822314180
20
52.9829707245
30
0.0000000000
10
170.3822440664
20
53.0552451406
30
0.0000000000
11
169.5098205355
21
52.0562904663
31
0.0000000000
11
169.7063454193
21
52.0897298935
31
0.0000000000
11
169.8917625740
21
52.1689118250
31
0.0000000000
11
170.0569866867
21
52.2900511218
31
0.0000000000
11
170.1942566991
21
52.4474192834
31
0.0000000000
11
170.2971060020
21
52.6335087239
31
0.0000000000
11
170.3607528084
21
52.8394896116
31
0.0000000000
11
170.3822440664
21
53.0552451406
31
0.0000000000
0
SPLINE
5
2F8
100
AcDbEntity
8
0
100
AcDbSpline
62
9
6
CONTINUOUS
70
0
71
3
72
13
73
9
74
7
42
0.0000001000
43
0.0000001000
44
0.0000000001
12
-0.0002266173
22
1.2598878537
32
0.0000000000
13
-1.2082266511
23
0.3570795637
33
0.0000000000
40
0.0000000000
40
0.0000000000
40
0.0000000000
40
0.0000000000
40
0.1720741174
40
0.3431899123
40
0.5119650795
40
0.6777102363
40
0.8403071854
40
1.0000000000
40
1.0000000000
40
1.0000000000
40
1.0000000000
10
170.3822440664
20
53.9692400078
30
0.0000000000
10
170.3822310680
20
54.0415047046
30
0.0000000000
10
170.3679342405
20
54.1860450062
30
0.0000000000
10
170.3042634585
20
54.3928748790
30
0.0000000000
10
170.2011553869
20
54.5802796097
30
0.0000000000
10
170.0631652363
20
54.7391374365
30
0.0000000000
10
169.8968318573
20
54.8617094048
30
0.0000000000
10
169.7711062515
20
54.9156139664
30
0.0000000000
10
169.7067912133
20
54.9346216466
30
0.0000000000
11
170.3822440664
21
53.9692400078
31
0.0000000000
11
170.3607585953
21
54.1849668112
31
0.0000000000
11
170.2971191874
21
54.3909465614
31
0.0000000000
11
170.1942649545
21
54.5770536140
31
0.0000000000
11
170.0570000735
21
54.7344203057
31
0.0000000000
11
169.8917996997
21
54.8555564560
31
0.0000000000
11
169.7067912133
21
54.9346216466
31
0.0000000000
0
SPLINE
5
2F9
100
AcDbEntity
8
0
100
AcDbSpline
62
9
6
CONTINUOUS
70
0
71
3
72
26
73
22
74
20
42
0.0000001000
43
0.0000001000
44
0.0000000001
12
-19.7132559263
22
5.8203244375
32
0.0000000000
13
-3.3838083867
23
-20.2740838653
33
0.0000000000
40
0.0000000000
40
0.0000000000
40
0.0000000000
40
0.0000000000
40
0.1171417889
40
0.2173463180
40
0.3026369845
40
0.3756159370
40
0.4384267685
40
0.4936971733
40
0.5437243110
40
0.5904805942
40
0.6356819683
40
0.6790745830
40
0.7195087353
40
0.7565557607
40
0.7916752695
40
0.8260701090
40
0.8605014813
40
0.8953489220
40
0.9302610973
40
0.9650186118
40
1.0000000000
40
1.0000000000
40
1.0000000000
40
1.0000000000
10
169.7067912133
20
54.9346216466
30
0.0000000000
10
168.9370425250
20
55.1618893855
30
0.0000000000
10
167.5082692964
20
55.5816359667
30
0.0000000000
10
165.5158980776
20
56.1560934128
30
0.0000000000
10
163.8100676768
20
56.6319966176
30
0.0000000000
10
162.3455985227
20
57.0192339377
30
0.0000000000
10
161.0736181492
20
57.3290300580
30
0.0000000000
10
159.9474954367
20
57.5716969697
30
0.0000000000
10
158.9217510243
20
57.7554165587
30
0.0000000000
10
157.9570147352
20
57.8836428363
30
0.0000000000
10
157.0316181036
20
57.9529441375
30
0.0000000000
10
156.1467109971
20
57.9564085155
30
0.0000000000
10
155.3200302107
20
57.8923646891
30
0.0000000000
10
154.5578486699
20
57.7668798284
30
0.0000000000
10
153.8496811440
20
57.5853425016
30
0.0000000000
10
153.1778784785
20
57.3457565103
30
0.0000000000
10
152.5347906823
20
57.0409796505
30
0.0000000000
10
151.9277913257
20
56.6616293703
30
0.0000000000
10
151.3796915809
20
56.1955013661
30
0.0000000000
10
150.9315388064
20
55.6280911646
30
0.0000000000
10
150.7546669045
20
55.1710268458
30
0.0000000000
10
150.7152101329
20
54.9346216466
30
0.0000000000
11
169.7067912133
21
54.9346216466
31
0.0000000000
11
167.3963191138
21
55.6122584900
31
0.0000000000
11
165.4168351372
21
56.1813186412
31
0.0000000000
11
163.7276876690
21
56.6505451134
31
0.0000000000
11
162.2769357765
21
57.0319409634
31
0.0000000000
11
161.0220378357
21
57.3353112909
31
0.0000000000
11
159.9110043115
21
57.5724404755
31
0.0000000000
11
158.8984263416
21
57.7514776029
31
0.0000000000
11
157.9454415592
21
57.8757496561
31
0.0000000000
11
157.0187626426
21
57.9426813272
31
0.0000000000
11
156.1268488643
21
57.9439835588
31
0.0000000000
11
155.2983487067
21
57.8782348367
31
0.0000000000
11
154.5471456832
21
57.7535267590
31
0.0000000000
11
153.8481053880
21
57.5734388465
31
0.0000000000
11
153.1825837686
21
57.3349286052
31
0.0000000000
11
152.5438257592
21
57.0302046661
31
0.0000000000
11
151.9382947724
21
56.6476098209
31
0.0000000000
11
151.3957063895
21
56.1779798200
31
0.0000000000
11
150.9627460278
21
55.6096951805
31
0.0000000000
11
150.7152101329
21
54.9346216466
31
0.0000000000
0
SPLINE
5
2FA
100
AcDbEntity
8
0
100
AcDbSpline
62
9
6
CONTINUOUS
70
0
71
3
72
13
73
9
74
7
42
0.0000001000
43
0.0000001000
44
0.0000000001
12
-0.1588156706
22
-0.9528775502
32
0.0000000000
13
0.0000037505
23
-0.9660217611
33
0.0000000000
40
0.0000000000
40
0.0000000000
40
0.0000000000
40
0.0000000000
40
0.0822912537
40
0.2078379702
40
0.3707893317
40
0.5634569918
40
0.7766850844
40
1.0000000000
40
1.0000000000
40
1.0000000000
40
1.0000000000
10
150.7152101329
20
54.9346216466
30
0.0000000000
10
150.7108537527
20
54.9084838172
30
0.0000000000
10
150.7054560144
20
54.8416442353
30
0.0000000000
10
150.7000821834
20
54.7224174352
30
0.0000000000
10
150.6966867020
20
54.5674831474
30
0.0000000000
10
150.6945958577
20
54.3843300208
30
0.0000000000
10
150.6935688750
20
54.1817183944
30
0.0000000000
10
150.6933625832
20
54.0411490304
30
0.0000000000
10
150.6933628624
20
53.9692400078
30
0.0000000000
11
150.7152101329
21
54.9346216466
31
0.0000000000
11
150.7069533761
21
54.8555564613
31
0.0000000000
11
150.7010305591
21
54.7344203094
31
0.0000000000
11
150.6971488688
21
54.5770536148
31
0.0000000000
11
150.6948583071
21
54.3909465578
31
0.0000000000
11
150.6937061135
21
54.1849668027
31
0.0000000000
11
150.6933628624
21
53.9692400078
31
0.0000000000
0
SPLINE
5
2FB
100
AcDbEntity
8
0
100
AcDbSpline
62
9
6
CONTINUOUS
70
0
71
3
72
14
73
10
74
8
42
0.0000001000
43
0.0000001000
44
0.0000000001
12
-0.0000037786
22
-1.0012533274
32
0.0000000000
13
0.7632481645
23
-0.6480435672
33
0.0000000000
40
0.0000000000
40
0.0000000000
40
0.0000000000
40
0.0000000000
40
0.2154857392
40
0.4212120055
40
0.6070825826
40
0.7643015666
40
0.8854337994
40
0.9649475259
40
1.0000000000
40
1.0000000000
40
1.0000000000
40
1.0000000000
10
150.6933628624
20
53.0552451406
30
0.0000000000
10
150.6933625910
20
52.9833265361
30
0.0000000000
10
150.6935465348
20
52.8427221533
30
0.0000000000
10
150.6946674969
20
52.6402115253
30
0.0000000000
10
150.6964649382
20
52.4567345966
30
0.0000000000
10
150.7007066656
20
52.3027525692
30
0.0000000000
10
150.7039547502
20
52.1811010951
30
0.0000000000
10
150.7145460549
20
52.1072905190
30
0.0000000000
10
150.7169707594
20
52.0638623098
30
0.0000000000
10
150.7258886716
20
52.0562904663
30
0.0000000000
11
150.6933628624
21
53.0552451406
31
0.0000000000
11
150.6937062091
21
52.8394896004
31
0.0000000000
11
150.6948585669
21
52.6335087151
31
0.0000000000
11
150.6971490740
21
52.4474192773
31
0.0000000000
11
150.7010309837
21
52.2900511180
31
0.0000000000
11
150.7069548606
21
52.1689118232
31
0.0000000000
11
150.7152321019
21
52.0897298931
31
0.0000000000
11
150.7258886716
21
52.0562904663
31
0.0000000000
0
SPLINE
5
2FC
100
AcDbEntity
8
0
100
AcDbSpline
62
9
6
CONTINUOUS
70
0
71
3
72
12
73
8
74
6
42
0.0000001000
43
0.0000001000
44
0.0000000001
12
-3.0209450716
22
-0.0952676246
32
0.0000000000
13
-0.0398849894
23
-3.0221836863
33
0.0000000000
40
0.0000000000
40
0.0000000000
40
0.0000000000
40
0.0000000000
40
0.2027655652
40
0.4048921126
40
0.6053133652
40
0.8035714232
40
1.0000000000
40
1.0000000000
40
1.0000000000
40
1.0000000000
10
145.2290669373
20
56.8653616629
30
0.0000000000
10
145.0248857256
20
56.8589226650
30
0.0000000000
10
144.6165481137
20
56.7847769626
30
0.0000000000
10
144.0669857043
20
56.5009600453
30
0.0000000000
10
143.6285103594
20
56.0699511174
30
0.0000000000
10
143.3433828871
20
55.5320137987
30
0.0000000000
10
143.2737643675
20
55.1325027267
30
0.0000000000
10
143.2711528503
20
54.9346216466
30
0.0000000000
11
145.2290669373
21
56.8653616629
31
0.0000000000
11
144.6261201124
21
56.7556439463
31
0.0000000000
11
144.0835116019
21
56.4749389784
31
0.0000000000
11
143.6521900540
21
56.0496037774
31
0.0000000000
11
143.3726547415
21
55.5195755277
31
0.0000000000
11
143.2711528503
21
54.9346216466
31
0.0000000000
0
SPLINE
5
2FD
100
AcDbEntity
8
0
100
AcDbSpline
62
9
6
CONTINUOUS
70
0
71
3
72
12
73
8
74
6
42
0.0000001000
43
0.0000001000
44
0.0000000001
12
-3.1147443688
22
0.0193779382
32
0.0000000000
13
-0.0083391686
23
3.1147934837
33
0.0000000000
40
0.0000000000
40
0.0000000000
40
0.0000000000
40
0.0000000000
40
0.1998429775
40
0.3998446816
40
0.5999384630
40
0.8000228722
40
1.0000000000
40
1.0000000000
40
1.0000000000
40
1.0000000000
10
145.2499188532
20
50.0583812379
30
0.0000000000
10
145.0424322569
20
50.0596720862
30
0.0000000000
10
144.6248139984
20
50.1281060883
30
0.0000000000
10
144.0624161604
20
50.4178545849
30
0.0000000000
10
143.6154112547
20
50.8667928913
30
0.0000000000
10
143.3279153250
20
51.4305827689
30
0.0000000000
10
143.2610287724
20
51.8486613148
30
0.0000000000
10
143.2604728914
20
52.0562904663
30
0.0000000000
11
145.2499188532
21
50.0583812379
31
0.0000000000
11
144.6356696655
21
50.1592232961
31
0.0000000000
11
144.0817623070
21
50.4443084955
31
0.0000000000
11
143.6419922576
21
50.8859493628
31
0.0000000000
11
143.3590699824
21
51.4412537392
31
0.0000000000
11
143.2604728914
21
52.0562904663
31
0.0000000000
0
SPLINE
5
2FE
100
AcDbEntity
8
0
100
AcDbSpline
62
9
6
CONTINUOUS
70
0
71
3
72
12
73
8
74
6
42
0.0000001000
43
0.0000001000
44
0.0000000001
12
-1.9928633299
22
0.2105922197
32
0.0000000000
13
0.0905979920
23
2.0019104223
33
0.0000000000
40
0.0000000000
40
0.0000000000
40
0.0000000000
40
0.0000000000
40
0.0527577658
40
0.1953604874
40
0.4157619475
40
0.6928945462
40
1.0000000000
40
1.0000000000
40
1.0000000000
40
1.0000000000
10
124.5035103109
20
50.0584046229
30
0.0000000000
10
124.4684639719
20
50.0621080812
30
0.0000000000
10
124.4784599801
20
50.2537347967
30
0.0000000000
10
124.4380697546
20
50.4759184809
30
0.0000000000
10
124.4478556842
20
50.9321018064
30
0.0000000000
10
124.4517235066
20
51.4584531981
30
0.0000000000
10
124.4672688340
20
51.8513579264
30
0.0000000000
10
124.4765432132
20
52.0562904626
30
0.0000000000
11
124.5035103109
21
50.0584046229
31
0.0000000000
11
124.4717497864
21
50.1592456978
31
0.0000000000
11
124.4519263125
21
50.4443273715
31
0.0000000000
11
124.4459651712
21
50.8859627229
31
0.0000000000
11
124.4544453304
21
51.4412604550
31
0.0000000000
11
124.4765432132
21
52.0562904626
31
0.0000000000
0
SPLINE
5
2FF
100
AcDbEntity
8
0
100
AcDbSpline
62
9
6
CONTINUOUS
70
0
71
3
72
15
73
11
74
9
42
0.0000001000
43
0.0000001000
44
0.0000000001
12
-3.3374231299
22
0.0609588350
32
0.0000000000
13
-3.3370025249
23
-0.0807668018
33
0.0000000000
40
0.0000000000
40
0.0000000000
40
0.0000000000
40
0.0000000000
40
0.1908192897
40
0.3568181295
40
0.5019149288
40
0.6291327889
40
0.7408732014
40
0.8388883218
40
0.9247503198
40
1.0000000000
40
1.0000000000
40
1.0000000000
40
1.0000000000
10
140.0762266824
20
59.7923951006
30
0.0000000000
10
139.8639451120
20
59.7962724745
30
0.0000000000
10
139.4668869067
20
59.7970256407
30
0.0000000000
10
138.9084566619
20
59.7921472564
30
0.0000000000
10
138.4207668307
20
59.7892276310
30
0.0000000000
10
137.9934407365
20
59.7900400903
30
0.0000000000
10
137.6185157865
20
59.7930901476
30
0.0000000000
10
137.2896063727
20
59.7959795727
30
0.0000000000
10
137.0012836319
20
59.7966295752
30
0.0000000000
10
136.8220218321
20
59.7944211756
30
0.0000000000
10
136.7383190412
20
59.7923952836
30
0.0000000000
11
140.0762266824
21
59.7923951006
31
0.0000000000
11
139.4392852315
21
59.7958707890
31
0.0000000000
11
138.8851965178
21
59.7922150079
31
0.0000000000
11
138.4008724188
21
59.7897870653
31
0.0000000000
11
137.9762224441
21
59.7905425903
31
0.0000000000
11
137.6032450848
21
59.7932574094
31
0.0000000000
11
137.2760818515
21
59.7957187477
31
0.0000000000
11
136.9894763034
21
59.7959141842
31
0.0000000000
11
136.7383190412
21
59.7923952836
31
0.0000000000
0
SPLINE
5
300
100
AcDbEntity
8
0
100
AcDbSpline
62
9
6
CONTINUOUS
70
0
71
3
72
12
73
8
74
6
42
0.0000001000
43
0.0000001000
44
0.0000000001
12
-1.5664665207
22
-1.2106160032
32
0.0000000000
13
0.5120434679
23
-1.9123859324
33
0.0000000000
40
0.0000000000
40
0.0000000000
40
0.0000000000
40
0.0000000000
40
0.0554207875
40
0.1993209082
40
0.4192326903
40
0.6947153226
40
1.0000000000
40
1.0000000000
40
1.0000000000
40
1.0000000000
10
123.8578182849
20
56.8653856455
30
0.0000000000
10
123.8288800155
20
56.8430212148
30
0.0000000000
10
123.8878337686
20
56.6792723302
30
0.0000000000
10
123.9001833036
20
56.4356715765
30
0.0000000000
10
124.0113923520
20
56.0093757717
30
0.0000000000
10
124.1289750006
20
55.5015924657
30
0.0000000000
10
124.2274661460
20
55.1292290207
30
0.0000000000
10
124.2795724876
20
54.9346216466
30
0.0000000000
11
123.8578182849
21
56.8653856455
31
0.0000000000
11
123.8575601387
21
56.7556666675
31
0.0000000000
11
123.9061686733
21
56.4749579915
31
0.0000000000
11
123.9990797120
21
56.0496171824
31
0.0000000000
11
124.1275692251
21
55.5195822576
31
0.0000000000
11
124.2795724876
21
54.9346216466
31
0.0000000000
0
SPLINE
5
301
100
AcDbEntity
8
0
100
AcDbSpline
62
9
6
CONTINUOUS
70
0
71
3
72
12
73
8
74
6
42
0.0000001000
43
0.0000001000
44
0.0000000001
12
1.5664492417
22
-1.2105979578
32
0.0000000000
13
-0.5120377446
23
-1.9123618879
33
0.0000000000
40
0.0000000000
40
0.0000000000
40
0.0000000000
40
0.0000000000
40
0.0554208425
40
0.1993208202
40
0.4192324170
40
0.6947150087
40
1.0000000000
40
1.0000000000
40
1.0000000000
40
1.0000000000
10
170.1285390547
20
56.8653616629
30
0.0000000000
10
170.1574770337
20
56.8429975433
30
0.0000000000
10
170.0985250043
20
56.6792506549
30
0.0000000000
10
170.0861754245
20
56.4356530694
30
0.0000000000
10
169.9749683331
20
56.0093627601
30
0.0000000000
10
169.8573870863
20
55.5015857297
30
0.0000000000
10
169.7588970666
20
55.1292267741
30
0.0000000000
10
169.7067912538
20
54.9346216466
30
0.0000000000
11
170.1285390547
21
56.8653616629
31
0.0000000000
11
170.1287976987
21
56.7556439463
31
0.0000000000
11
170.0801902478
21
56.4749389784
31
0.0000000000
11
169.9872807139
21
56.0496037774
31
0.0000000000
11
169.8587928963
21
55.5195755277
31
0.0000000000
11
169.7067912538
21
54.9346216466
31
0.0000000000
0
SPLINE
5
302
100
AcDbEntity
8
0
100
AcDbSpline
62
9
6
CONTINUOUS
70
0
71
3
72
12
73
8
74
6
42
0.0000001000
43
0.0000001000
44
0.0000000001
12
1.9928885315
22
0.2105743923
32
0.0000000000
13
-0.0905976571
23
2.0019336498
33
0.0000000000
40
0.0000000000
40
0.0000000000
40
0.0000000000
40
0.0000000000
40
0.0527575541
40
0.1953603624
40
0.4157620240
40
0.6928947393
40
1.0000000000
40
1.0000000000
40
1.0000000000
40
1.0000000000
10
169.4828545662
20
50.0583812432
30
0.0000000000
10
169.5179012077
20
50.0620843732
30
0.0000000000
10
169.5079037012
20
50.2537143894
30
0.0000000000
10
169.5482947815
20
50.4758995832
30
0.0000000000
10
169.5385080407
20
50.9320890583
30
0.0000000000
10
169.5346403620
20
51.4584463954
30
0.0000000000
10
169.5190950139
20
51.8513556812
30
0.0000000000
10
169.5098206749
20
52.0562904663
30
0.0000000000
11
169.4828545662
21
50.0583812432
31
0.0000000000
11
169.5146147254
21
50.1592232710
31
0.0000000000
11
169.5344378667
21
50.4443084569
31
0.0000000000
11
169.5403987653
21
50.8859493267
31
0.0000000000
11
169.5319184998
21
51.4412537179
31
0.0000000000
11
169.5098206749
21
52.0562904663
31
0.0000000000
0
SPLINE
5
303
100
AcDbEntity
8
0
100
AcDbSpline
62
9
6
CONTINUOUS
70
0
71
3
72
12
73
8
74
6
42
0.0000001000
43
0.0000001000
44
0.0000000001
12
3.1147226476
22
0.0193797615
32
0.0000000000
13
0.0083560839
23
3.1147717288
33
0.0000000000
40
0.0000000000
40
0.0000000000
40
0.0000000000
40
0.0000000000
40
0.1998435786
40
0.3998456542
40
0.5999394368
40
0.8000234755
40
1.0000000000
40
1.0000000000
40
1.0000000000
40
1.0000000000
10
148.7364448704
20
50.0584046229
30
0.0000000000
10
148.9439306439
20
50.0596955965
30
0.0000000000
10
149.3615469176
20
50.1281288275
30
0.0000000000
10
149.9239427714
20
50.4178734514
30
0.0000000000
10
150.3709471396
20
50.8668059507
30
0.0000000000
10
150.6584442280
20
51.4305891352
30
0.0000000000
10
150.7253326323
20
51.8486633914
30
0.0000000000
10
150.7258896392
20
52.0562904663
30
0.0000000000
11
148.7364448704
21
50.0584046229
31
0.0000000000
11
149.3506917205
21
50.1592456978
31
0.0000000000
11
149.9045973118
21
50.4443273715
31
0.0000000000
11
150.3443667493
21
50.8859627229
31
0.0000000000
11
150.6272899551
21
51.4412604550
31
0.0000000000
11
150.7258896392
21
52.0562904663
31
0.0000000000
0
SPLINE
5
304
100
AcDbEntity
8
0
100
AcDbSpline
62
9
6
CONTINUOUS
70
0
71
3
72
15
73
11
74
9
42
0.0000001000
43
0.0000001000
44
0.0000000001
12
-3.3369914098
22
0.0807147470
32
0.0000000000
13
-3.3374097619
23
-0.0610132290
33
0.0000000000
40
0.0000000000
40
0.0000000000
40
0.0000000000
40
0.0000000000
40
0.0761239063
40
0.1629274422
40
0.2619773282
40
0.3747920024
40
0.5028717982
40
0.6481826172
40
0.8132021024
40
1.0000000000
40
1.0000000000
40
1.0000000000
40
1.0000000000
10
157.2480317133
20
59.7923797672
30
0.0000000000
10
157.1633567728
20
59.7944278745
30
0.0000000000
10
156.9820751210
20
59.7966487956
30
0.0000000000
10
156.6905817264
20
59.7959717629
30
0.0000000000
10
156.3582801741
20
59.7929686137
30
0.0000000000
10
155.9800504354
20
59.7899419583
30
0.0000000000
10
155.5503331999
20
59.7893063729
30
0.0000000000
10
155.0625382587
20
59.7922359438
30
0.0000000000
10
154.5094351339
20
59.7971050403
30
0.0000000000
10
154.1179443556
20
59.7961837713
30
0.0000000000
10
153.9101373133
20
59.7923847236
30
0.0000000000
11
157.2480317133
21
59.7923797672
31
0.0000000000
11
156.9939573472
21
59.7959264742
31
0.0000000000
11
156.7042100600
21
59.7957005299
31
0.0000000000
11
156.3735945253
21
59.7931603552
31
0.0000000000
11
155.9970324902
21
59.7904613130
31
0.0000000000
11
155.5695067633
21
59.7898344395
31
0.0000000000
11
155.0844703309
21
59.7923160021
31
0.0000000000
11
154.5336525267
21
59.7959309358
31
0.0000000000
11
153.9101373133
21
59.7923847236
31
0.0000000000
0
SPLINE
5
305
100
AcDbEntity
8
0
100
AcDbSpline
62
9
6
CONTINUOUS
70
0
71
3
72
12
73
8
74
6
42
0.0000001000
43
0.0000001000
44
0.0000000001
12
3.0209667851
22
-0.0952675456
32
0.0000000000
13
0.0398671950
23
-3.0222056232
33
0.0000000000
40
0.0000000000
40
0.0000000000
40
0.0000000000
40
0.0000000000
40
0.2027649412
40
0.4048911042
40
0.6053123485
40
0.8035707848
40
1.0000000000
40
1.0000000000
40
1.0000000000
40
1.0000000000
10
148.7572973617
20
56.8653856697
30
0.0000000000
10
148.9614794125
20
56.8589466969
30
0.0000000000
10
149.3698189826
20
56.7848000441
30
0.0000000000
10
149.9193833114
20
56.5009791116
30
0.0000000000
10
150.3578591448
20
56.0699642837
30
0.0000000000
10
150.6429853887
20
55.5320201915
30
0.0000000000
10
150.7126019761
20
55.1325048062
30
0.0000000000
10
150.7152123367
20
54.9346216466
30
0.0000000000
11
148.7572973617
21
56.8653856697
31
0.0000000000
11
149.3602465150
21
56.7556667074
31
0.0000000000
11
149.9028567392
21
56.4749580345
31
0.0000000000
11
150.3341788221
21
56.0496172173
31
0.0000000000
11
150.6137131207
21
55.5195822766
31
0.0000000000
11
150.7152123367
21
54.9346216466
31
0.0000000000
0
SPLINE
5
306
100
AcDbEntity
8
0
100
AcDbSpline
62
9
6
CONTINUOUS
70
0
71
3
72
12
73
8
74
6
42
0.0000001000
43
0.0000001000
44
0.0000000001
12
3.0209450716
22
-0.0952676246
32
0.0000000000
13
0.0398849894
23
-3.0221836863
33
0.0000000000
40
0.0000000000
40
0.0000000000
40
0.0000000000
40
0.0000000000
40
0.2027655652
40
0.4048921126
40
0.6053133652
40
0.8035714232
40
1.0000000000
40
1.0000000000
40
1.0000000000
40
1.0000000000
10
148.7572968687
20
56.8653616629
30
0.0000000000
10
148.9614780804
20
56.8589226650
30
0.0000000000
10
149.3698156923
20
56.7847769626
30
0.0000000000
10
149.9193781017
20
56.5009600453
30
0.0000000000
10
150.3578534465
20
56.0699511174
30
0.0000000000
10
150.6429809189
20
55.5320137987
30
0.0000000000
10
150.7125994385
20
55.1325027267
30
0.0000000000
10
150.7152109557
20
54.9346216466
30
0.0000000000
11
148.7572968687
21
56.8653616629
31
0.0000000000
11
149.3602436936
21
56.7556439463
31
0.0000000000
11
149.9028522041
21
56.4749389784
31
0.0000000000
11
150.3341737520
21
56.0496037774
31
0.0000000000
11
150.6137090645
21
55.5195755277
31
0.0000000000
11
150.7152109557
21
54.9346216466
31
0.0000000000
0
SPLINE
5
307
100
AcDbEntity
8
0
100
AcDbSpline
62
9
6
CONTINUOUS
70
0
71
3
72
12
73
8
74
6
42
0.0000001000
43
0.0000001000
44
0.0000000001
12
3.1147443688
22
0.0193779382
32
0.0000000000
13
0.0083391686
23
3.1147934837
33
0.0000000000
40
0.0000000000
40
0.0000000000
40
0.0000000000
40
0.0000000000
40
0.1998429775
40
0.3998446816
40
0.5999384630
40
0.8000228722
40
1.0000000000
40
1.0000000000
40
1.0000000000
40
1.0000000000
10
148.7364449528
20
50.0583812379
30
0.0000000000
10
148.9439315491
20
50.0596720862
30
0.0000000000
10
149.3615498076
20
50.1281060883
30
0.0000000000
10
149.9239476456
20
50.4178545849
30
0.0000000000
10
150.3709525513
20
50.8667928913
30
0.0000000000
10
150.6584484810
20
51.4305827689
30
0.0000000000
10
150.7253350336
20
51.8486613148
30
0.0000000000
10
150.7258909146
20
52.0562904663
30
0.0000000000
11
148.7364449528
21
50.0583812379
31
0.0000000000
11
149.3506941405
21
50.1592232961
31
0.0000000000
11
149.9046014990
21
50.4443084955
31
0.0000000000
11
150.3443715484
21
50.8859493628
31
0.0000000000
11
150.6272938236
21
51.4412537392
31
0.0000000000
11
150.7258909146
21
52.0562904663
31
0.0000000000
0
SPLINE
5
308
100
AcDbEntity
8
0
100
AcDbSpline
62
9
6
CONTINUOUS
70
0
71
3
72
12
73
8
74
6
42
0.0000001000
43
0.0000001000
44
0.0000000001
12
1.9928633299
22
0.2105922197
32
0.0000000000
13
-0.0905979920
23
2.0019104223
33
0.0000000000
40
0.0000000000
40
0.0000000000
40
0.0000000000
40
0.0000000000
40
0.0527577658
40
0.1953604874
40
0.4157619475
40
0.6928945462
40
1.0000000000
40
1.0000000000
40
1.0000000000
40
1.0000000000
10
169.4828534951
20
50.0584046229
30
0.0000000000
10
169.5178998341
20
50.0621080812
30
0.0000000000
10
169.5079038258
20
50.2537347967
30
0.0000000000
10
169.5482940514
20
50.4759184809
30
0.0000000000
10
169.5385081218
20
50.9321018064
30
0.0000000000
10
169.5346402994
20
51.4584531981
30
0.0000000000
10
169.5190949720
20
51.8513579264
30
0.0000000000
10
169.5098205928
20
52.0562904626
30
0.0000000000
11
169.4828534951
21
50.0584046229
31
0.0000000000
11
169.5146140196
21
50.1592456978
31
0.0000000000
11
169.5344374935
21
50.4443273715
31
0.0000000000
11
169.5403986348
21
50.8859627229
31
0.0000000000
11
169.5319184756
21
51.4412604550
31
0.0000000000
11
169.5098205928
21
52.0562904626
31
0.0000000000
0
SPLINE
5
309
100
AcDbEntity
8
0
100
AcDbSpline
62
9
6
CONTINUOUS
70
0
71
3
72
15
73
11
74
9
42
0.0000001000
43
0.0000001000
44
0.0000000001
12
3.3374231299
22
0.0609588350
32
0.0000000000
13
3.3370025249
23
-0.0807668018
33
0.0000000000
40
0.0000000000
40
0.0000000000
40
0.0000000000
40
0.0000000000
40
0.1908192897
40
0.3568181295
40
0.5019149288
40
0.6291327889
40
0.7408732014
40
0.8388883218
40
0.9247503198
40
1.0000000000
40
1.0000000000
40
1.0000000000
40
1.0000000000
10
153.9101371236
20
59.7923951006
30
0.0000000000
10
154.1224186940
20
59.7962724745
30
0.0000000000
10
154.5194768993
20
59.7970256407
30
0.0000000000
10
155.0779071440
20
59.7921472564
30
0.0000000000
10
155.5655969753
20
59.7892276310
30
0.0000000000
10
155.9929230695
20
59.7900400903
30
0.0000000000
10
156.3678480195
20
59.7930901476
30
0.0000000000
10
156.6967574333
20
59.7959795727
30
0.0000000000
10
156.9850801741
20
59.7966295752
30
0.0000000000
10
157.1643419739
20
59.7944211756
30
0.0000000000
10
157.2480447648
20
59.7923952836
30
0.0000000000
11
153.9101371236
21
59.7923951006
31
0.0000000000
11
154.5470785745
21
59.7958707890
31
0.0000000000
11
155.1011672882
21
59.7922150079
31
0.0000000000
11
155.5854913872
21
59.7897870653
31
0.0000000000
11
156.0101413619
21
59.7905425903
31
0.0000000000
11
156.3831187212
21
59.7932574094
31
0.0000000000
11
156.7102819544
21
59.7957187477
31
0.0000000000
11
156.9968875026
21
59.7959141842
31
0.0000000000
11
157.2480447648
21
59.7923952836
31
0.0000000000
0
SPLINE
5
30A
100
AcDbEntity
8
0
100
AcDbSpline
62
9
6
CONTINUOUS
70
0
71
3
72
12
73
8
74
6
42
0.0000001000
43
0.0000001000
44
0.0000000001
12
1.5664665207
22
-1.2106160032
32
0.0000000000
13
-0.5120434679
23
-1.9123859324
33
0.0000000000
40
0.0000000000
40
0.0000000000
40
0.0000000000
40
0.0000000000
40
0.0554207875
40
0.1993209082
40
0.4192326903
40
0.6947153226
40
1.0000000000
40
1.0000000000
40
1.0000000000
40
1.0000000000
10
170.1285455211
20
56.8653856455
30
0.0000000000
10
170.1574837905
20
56.8430212148
30
0.0000000000
10
170.0985300374
20
56.6792723302
30
0.0000000000
10
170.0861805024
20
56.4356715765
30
0.0000000000
10
169.9749714540
20
56.0093757717
30
0.0000000000
10
169.8573888054
20
55.5015924657
30
0.0000000000
10
169.7588976600
20
55.1292290207
30
0.0000000000
10
169.7067913183
20
54.9346216466
30
0.0000000000
11
170.1285455211
21
56.8653856455
31
0.0000000000
11
170.1288036672
21
56.7556666675
31
0.0000000000
11
170.0801951327
21
56.4749579915
31
0.0000000000
11
169.9872840940
21
56.0496171824
31
0.0000000000
11
169.8587945809
21
55.5195822576
31
0.0000000000
11
169.7067913183
21
54.9346216466
31
0.0000000000
0
SPLINE
5
30B
100
AcDbEntity
8
0
100
AcDbSpline
62
9
6
CONTINUOUS
70
0
71
3
72
12
73
8
74
6
42
0.0000001000
43
0.0000001000
44
0.0000000001
12
-1.5664492285
22
-1.2105979476
32
0.0000000000
13
0.5120377401
23
-1.9123618724
33
0.0000000000
40
0.0000000000
40
0.0000000000
40
0.0000000000
40
0.0000000000
40
0.0554208430
40
0.1993208218
40
0.4192324205
40
0.6947150145
40
1.0000000000
40
1.0000000000
40
1.0000000000
40
1.0000000000
10
123.8578247513
20
56.8653616629
30
0.0000000000
10
123.8288867723
20
56.8429975433
30
0.0000000000
10
123.8878388017
20
56.6792506549
30
0.0000000000
10
123.9001883815
20
56.4356530694
30
0.0000000000
10
124.0113954729
20
56.0093627601
30
0.0000000000
10
124.1289767185
20
55.5015857350
30
0.0000000000
10
124.2274667365
20
55.1292267849
30
0.0000000000
10
124.2795725479
20
54.9346216627
30
0.0000000000
11
123.8578247513
21
56.8653616629
31
0.0000000000
11
123.8575661073
21
56.7556439463
31
0.0000000000
11
123.9061735581
21
56.4749389784
31
0.0000000000
11
123.9990830921
21
56.0496037774
31
0.0000000000
11
124.1275709097
21
55.5195755277
31
0.0000000000
11
124.2795725479
21
54.9346216627
31
0.0000000000
0
SPLINE
5
30C
100
AcDbEntity
8
0
100
AcDbSpline
62
9
6
CONTINUOUS
70
0
71
3
72
12
73
8
74
6
42
0.0000001000
43
0.0000001000
44
0.0000000001
12
-1.9928885315
22
0.2105743923
32
0.0000000000
13
0.0905976571
23
2.0019336498
33
0.0000000000
40
0.0000000000
40
0.0000000000
40
0.0000000000
40
0.0000000000
40
0.0527575541
40
0.1953603624
40
0.4157620240
40
0.6928947393
40
1.0000000000
40
1.0000000000
40
1.0000000000
40
1.0000000000
10
124.5035092398
20
50.0583812432
30
0.0000000000
10
124.4684625983
20
50.0620843732
30
0.0000000000
10
124.4784601048
20
50.2537143894
30
0.0000000000
10
124.4380690245
20
50.4758995832
30
0.0000000000
10
124.4478557653
20
50.9320890583
30
0.0000000000
10
124.4517234440
20
51.4584463954
30
0.0000000000
10
124.4672687921
20
51.8513556812
30
0.0000000000
10
124.4765431311
20
52.0562904663
30
0.0000000000
11
124.5035092398
21
50.0583812432
31
0.0000000000
11
124.4717490806
21
50.1592232710
31
0.0000000000
11
124.4519259393
21
50.4443084569
31
0.0000000000
11
124.4459650407
21
50.8859493267
31
0.0000000000
11
124.4544453062
21
51.4412537179
31
0.0000000000
11
124.4765431311
21
52.0562904663
31
0.0000000000
0
SPLINE
5
30D
100
AcDbEntity
8
0
100
AcDbSpline
62
9
6
CONTINUOUS
70
0
71
3
72
12
73
8
74
6
42
0.0000001000
43
0.0000001000
44
0.0000000001
12
-3.1147226476
22
0.0193797615
32
0.0000000000
13
-0.0083560839
23
3.1147717288
33
0.0000000000
40
0.0000000000
40
0.0000000000
40
0.0000000000
40
0.0000000000
40
0.1998435786
40
0.3998456542
40
0.5999394368
40
0.8000234755
40
1.0000000000
40
1.0000000000
40
1.0000000000
40
1.0000000000
10
145.2499189356
20
50.0584046229
30
0.0000000000
10
145.0424331621
20
50.0596955965
30
0.0000000000
10
144.6248168884
20
50.1281288275
30
0.0000000000
10
144.0624210346
20
50.4178734514
30
0.0000000000
10
143.6154166664
20
50.8668059507
30
0.0000000000
10
143.3279195779
20
51.4305891352
30
0.0000000000
10
143.2610311737
20
51.8486633914
30
0.0000000000
10
143.2604741668
20
52.0562904663
30
0.0000000000
11
145.2499189356
21
50.0584046229
31
0.0000000000
11
144.6356720855
21
50.1592456978
31
0.0000000000
11
144.0817664942
21
50.4443273715
31
0.0000000000
11
143.6419970567
21
50.8859627229
31
0.0000000000
11
143.3590738509
21
51.4412604550
31
0.0000000000
11
143.2604741668
21
52.0562904663
31
0.0000000000
0
SPLINE
5
30E
100
AcDbEntity
8
0
100
AcDbSpline
62
9
6
CONTINUOUS
70
0
71
3
72
15
73
11
74
9
42
0.0000001000
43
0.0000001000
44
0.0000000001
12
3.3369949575
22
0.0807148328
32
0.0000000000
13
3.3374132999
23
-0.0610138990
33
0.0000000000
40
0.0000000000
40
0.0000000000
40
0.0000000000
40
0.0000000000
40
0.0761238254
40
0.1629272690
40
0.2619770497
40
0.3747916039
40
0.5028712636
40
0.6481819281
40
0.8132012378
40
1.0000000000
40
1.0000000000
40
1.0000000000
40
1.0000000000
10
136.7383320927
20
59.7923797672
30
0.0000000000
10
136.8230070332
20
59.7944278745
30
0.0000000000
10
137.0042886850
20
59.7966487956
30
0.0000000000
10
137.2957820796
20
59.7959717629
30
0.0000000000
10
137.6280836319
20
59.7929686137
30
0.0000000000
10
138.0063133706
20
59.7899419583
30
0.0000000000
10
138.4360306061
20
59.7893063729
30
0.0000000000
10
138.9238255473
20
59.7922359438
30
0.0000000000
10
139.4769298549
20
59.7971050507
30
0.0000000000
10
139.8684218164
20
59.7961837657
30
0.0000000000
10
140.0762300408
20
59.7923846587
30
0.0000000000
11
136.7383320927
21
59.7923797672
31
0.0000000000
11
136.9924064588
21
59.7959264742
31
0.0000000000
11
137.2821537460
21
59.7957005299
31
0.0000000000
11
137.6127692807
21
59.7931603552
31
0.0000000000
11
137.9893313158
21
59.7904613130
31
0.0000000000
11
138.4168570427
21
59.7898344395
31
0.0000000000
11
138.9018934751
21
59.7923160021
31
0.0000000000
11
139.4527112792
21
59.7959309358
31
0.0000000000
11
140.0762300408
21
59.7923846587
31
0.0000000000
0
SPLINE
5
30F
100
AcDbEntity
8
0
100
AcDbSpline
62
9
6
CONTINUOUS
70
0
71
3
72
12
73
8
74
6
42
0.0000001000
43
0.0000001000
44
0.0000000001
12
-3.0209667851
22
-0.0952675456
32
0.0000000000
13
-0.0398671950
23
-3.0222056232
33
0.0000000000
40
0.0000000000
40
0.0000000000
40
0.0000000000
40
0.0000000000
40
0.2027649412
40
0.4048911042
40
0.6053123485
40
0.8035707848
40
1.0000000000
40
1.0000000000
40
1.0000000000
40
1.0000000000
10
145.2290664443
20
56.8653856697
30
0.0000000000
10
145.0248843935
20
56.8589466969
30
0.0000000000
10
144.6165448234
20
56.7848000441
30
0.0000000000
10
144.0669804946
20
56.5009791116
30
0.0000000000
10
143.6285046612
20
56.0699642837
30
0.0000000000
10
143.3433784173
20
55.5320201915
30
0.0000000000
10
143.2737618299
20
55.1325048062
30
0.0000000000
10
143.2711514693
20
54.9346216466
30
0.0000000000
11
145.2290664443
21
56.8653856697
31
0.0000000000
11
144.6261172910
21
56.7556667074
31
0.0000000000
11
144.0835070668
21
56.4749580345
31
0.0000000000
11
143.6521849839
21
56.0496172173
31
0.0000000000
11
143.3726506853
21
55.5195822766
31
0.0000000000
11
143.2711514693
21
54.9346216466
31
0.0000000000
0
SPLINE
5
310
100
AcDbEntity
8
0
100
AcDbSpline
62
9
6
CONTINUOUS
70
0
71
3
72
10
73
6
74
4
42
0.0000001000
43
0.0000001000
44
0.0000000001
12
0.0000015568
22
-0.5458483186
32
0.0000000000
13
0.4914804517
23
-0.2374812677
33
0.0000000000
40
0.0000000000
40
0.0000000000
40
0.0000000000
40
0.0000000000
40
0.3894868798
40
0.7314247092
40
1.0000000000
40
1.0000000000
40
1.0000000000
40
1.0000000000
10
153.7034695498
20
60.2750857267
30
0.0000000000
10
153.7034697519
20
60.2042188072
30
0.0000000000
10
153.7192740943
20
60.0703711519
30
0.0000000000
10
153.7856339182
20
59.8990673463
30
0.0000000000
10
153.8661360376
20
59.8136556328
30
0.0000000000
10
153.9101358727
20
59.7923950993
30
0.0000000000
11
153.7034695498
21
60.2750857267
31
0.0000000000
11
153.7295832799
21
60.0640948369
31
0.0000000000
11
153.8030463645
21
59.8925140246
31
0.0000000000
11
153.9101358727
21
59.7923950993
31
0.0000000000
0
SPLINE
5
311
100
AcDbEntity
8
0
100
AcDbSpline
62
9
6
CONTINUOUS
70
0
71
3
72
10
73
6
74
4
42
0.0000001000
43
0.0000001000
44
0.0000000001
12
-0.0000006191
22
-0.6054414802
32
0.0000000000
13
0.5756404194
23
-0.1876099505
33
0.0000000000
40
0.0000000000
40
0.0000000000
40
0.0000000000
40
0.0000000000
40
0.3543073541
40
0.6899769541
40
1.0000000000
40
1.0000000000
40
1.0000000000
40
1.0000000000
10
156.9416512140
20
60.2750857972
30
0.0000000000
10
156.9416511409
20
60.2035816742
30
0.0000000000
10
156.9666642742
20
60.0629178018
30
0.0000000000
10
157.0745067307
20
59.8864088381
30
0.0000000000
10
157.1885585985
20
59.8117828819
30
0.0000000000
10
157.2480458639
20
59.7923950791
30
0.0000000000
11
156.9416512140
21
60.2750857972
31
0.0000000000
11
156.9803650035
21
60.0640957525
31
0.0000000000
11
157.0892768788
21
59.8925150277
31
0.0000000000
11
157.2480458639
21
59.7923950791
31
0.0000000000
0
SPLINE
5
312
100
AcDbEntity
8
0
100
AcDbSpline
62
9
6
CONTINUOUS
70
0
71
3
72
10
73
6
74
4
42
0.0000001000
43
0.0000001000
44
0.0000000001
12
0.0000014491
22
-0.5458497806
32
0.0000000000
13
0.4914840738
23
-0.2374771319
33
0.0000000000
40
0.0000000000
40
0.0000000000
40
0.0000000000
40
0.0000000000
40
0.3894901518
40
0.7314232761
40
1.0000000000
40
1.0000000000
40
1.0000000000
40
1.0000000000
10
153.7034793370
20
60.2750857972
30
0.0000000000
10
153.7034795251
20
60.2042180925
30
0.0000000000
10
153.7192840839
20
60.0703703752
30
0.0000000000
10
153.7856438734
20
59.8990659788
30
0.0000000000
10
153.8661466752
20
59.8136550669
30
0.0000000000
10
153.9101470694
20
59.7923947902
30
0.0000000000
11
153.7034793370
21
60.2750857972
31
0.0000000000
11
153.7295935549
21
60.0640925942
31
0.0000000000
11
153.8030559879
21
59.8925137529
31
0.0000000000
11
153.9101470694
21
59.7923947902
31
0.0000000000
0
SPLINE
5
313
100
AcDbEntity
8
0
100
AcDbSpline
62
9
6
CONTINUOUS
70
0
71
3
72
10
73
6
74
4
42
0.0000001000
43
0.0000001000
44
0.0000000001
12
-0.0000015568
22
-0.5458483186
32
0.0000000000
13
-0.4914804517
23
-0.2374812677
33
0.0000000000
40
0.0000000000
40
0.0000000000
40
0.0000000000
40
0.0000000000
40
0.3894868798
40
0.7314247092
40
1.0000000000
40
1.0000000000
40
1.0000000000
40
1.0000000000
10
140.2828942562
20
60.2750857267
30
0.0000000000
10
140.2828940541
20
60.2042188072
30
0.0000000000
10
140.2670897117
20
60.0703711519
30
0.0000000000
10
140.2007298878
20
59.8990673463
30
0.0000000000
10
140.1202277684
20
59.8136556328
30
0.0000000000
10
140.0762279333
20
59.7923950993
30
0.0000000000
11
140.2828942562
21
60.2750857267
31
0.0000000000
11
140.2567805261
21
60.0640948369
31
0.0000000000
11
140.1833174415
21
59.8925140246
31
0.0000000000
11
140.0762279333
21
59.7923950993
31
0.0000000000
0
SPLINE
5
314
100
AcDbEntity
8
0
100
AcDbSpline
62
9
6
CONTINUOUS
70
0
71
3
72
10
73
6
74
4
42
0.0000001000
43
0.0000001000
44
0.0000000001
12
0.0000006191
22
-0.6054414802
32
0.0000000000
13
-0.5756404194
23
-0.1876099505
33
0.0000000000
40
0.0000000000
40
0.0000000000
40
0.0000000000
40
0.0000000000
40
0.3543073541
40
0.6899769541
40
1.0000000000
40
1.0000000000
40
1.0000000000
40
1.0000000000
10
137.0447125920
20
60.2750857972
30
0.0000000000
10
137.0447126651
20
60.2035816742
30
0.0000000000
10
137.0196995318
20
60.0629178018
30
0.0000000000
10
136.9118570753
20
59.8864088381
30
0.0000000000
10
136.7978052075
20
59.8117828819
30
0.0000000000
10
136.7383179421
20
59.7923950791
30
0.0000000000
11
137.0447125920
21
60.2750857972
31
0.0000000000
11
137.0059988025
21
60.0640957525
31
0.0000000000
11
136.8970869272
21
59.8925150277
31
0.0000000000
11
136.7383179421
21
59.7923950791
31
0.0000000000
0
SPLINE
5
315
100
AcDbEntity
8
0
100
AcDbSpline
62
9
6
CONTINUOUS
70
0
71
3
72
10
73
6
74
4
42
0.0000001000
43
0.0000001000
44
0.0000000001
12
-0.0000014491
22
-0.5458497806
32
0.0000000000
13
-0.4914840738
23
-0.2374771319
33
0.0000000000
40
0.0000000000
40
0.0000000000
40
0.0000000000
40
0.0000000000
40
0.3894901518
40
0.7314232761
40
1.0000000000
40
1.0000000000
40
1.0000000000
40
1.0000000000
10
140.2828844690
20
60.2750857972
30
0.0000000000
10
140.2828842809
20
60.2042180925
30
0.0000000000
10
140.2670797221
20
60.0703703752
30
0.0000000000
10
140.2007199326
20
59.8990659788
30
0.0000000000
10
140.1202171308
20
59.8136550669
30
0.0000000000
10
140.0762167366
20
59.7923947902
30
0.0000000000
11
140.2828844690
21
60.2750857972
31
0.0000000000
11
140.2567702511
21
60.0640925942
31
0.0000000000
11
140.1833078181
21
59.8925137529
31
0.0000000000
11
140.0762167366
21
59.7923947902
31
0.0000000000
0
SPLINE
5
316
100
AcDbEntity
8
0
100
AcDbSpline
62
9
6
CONTINUOUS
70
0
71
3
72
25
73
21
74
19
42
0.0000001000
43
0.0000001000
44
0.0000000001
12
16.5569212118
22
12.5862207717
32
0.0000000000
13
20.7762956949
23
-0.9434672902
33
0.0000000000
40
0.0000000000
40
0.0000000000
40
0.0000000000
40
0.0000000000
40
0.0161429202
40
0.0419419306
40
0.0735415466
40
0.1085558220
40
0.1454135187
40
0.1836555016
40
0.2238323098
40
0.2674200172
40
0.3149827117
40
0.3649728615
40
0.4164377802
40
0.4707126540
40
0.5302342292
40
0.5975234213
40
0.6754973879
40
0.7667794547
40
0.8741861603
40
1.0000000000
40
1.0000000000
40
1.0000000000
40
1.0000000000
10
148.7364452491
20
150.7261260224
30
0.0000000000
10
148.8255376015
20
150.7938521414
30
0.0000000000
10
149.1208343437
20
150.8616306952
30
0.0000000000
10
149.6149718596
20
150.9551014916
30
0.0000000000
10
150.2545996946
20
151.0279009491
30
0.0000000000
10
150.9682132371
20
151.0914254600
30
0.0000000000
10
151.7303016665
20
151.1411392426
30
0.0000000000
10
152.5284915629
20
151.1795375145
30
0.0000000000
10
153.3739124009
20
151.2071778067
30
0.0000000000
10
154.2842108984
20
151.2241110196
30
0.0000000000
10
155.2626929534
20
151.2292844981
30
0.0000000000
10
156.2957661718
20
151.2223715043
30
0.0000000000
10
157.3752379775
20
151.2042923879
30
0.0000000000
10
158.5205799185
20
151.1758322013
30
0.0000000000
10
159.7753616512
20
151.1365875107
30
0.0000000000
10
161.1941176111
20
151.0851367539
30
0.0000000000
10
162.8326771232
20
151.0196238427
30
0.0000000000
10
164.7489260792
20
150.9380415588
30
0.0000000000
10
166.9963666715
20
150.8386509599
30
0.0000000000
10
168.6115373627
20
150.7656931034
30
0.0000000000
10
169.4828525416
20
150.7261260226
30
0.0000000000
11
148.7364452491
21
150.7261260224
31
0.0000000000
11
149.0508523637
21
150.8438827050
31
0.0000000000
11
149.5783419426
21
150.9421254718
31
0.0000000000
11
150.2305951373
21
151.0226052974
31
0.0000000000
11
150.9559124465
21
151.0875225311
31
0.0000000000
11
151.7207795333
21
151.1383729020
31
0.0000000000
11
152.5151910918
21
151.1769059653
31
0.0000000000
11
153.3503200061
21
151.2045241183
31
0.0000000000
11
154.2566820925
21
151.2216749656
31
0.0000000000
11
155.2458612285
21
151.2272697366
31
0.0000000000
11
156.2855210762
21
151.2207230293
31
0.0000000000
11
157.3557301114
21
151.2032128626
31
0.0000000000
11
158.4841848182
21
151.1755836656
31
0.0000000000
11
159.7215051407
21
151.1373063700
31
0.0000000000
11
161.1200622418
21
151.0870197244
31
0.0000000000
11
162.7404645107
21
151.0226658070
31
0.0000000000
11
164.6372211134
21
150.9423180545
31
0.0000000000
11
166.8688680012
21
150.8439652200
31
0.0000000000
11
169.4828525416
21
150.7261260226
31
0.0000000000
0
SPLINE
5
317
100
AcDbEntity
8
0
100
AcDbSpline
62
9
6
CONTINUOUS
70
0
71
3
72
25
73
21
74
19
42
0.0000001000
43
0.0000001000
44
0.0000000001
12
-20.7762925988
22
0.9434670590
32
0.0000000000
13
-16.5568517692
23
-12.5863069935
33
0.0000000000
40
0.0000000000
40
0.0000000000
40
0.0000000000
40
0.0000000000
40
0.1260116727
40
0.2335600121
40
0.3249631705
40
0.4031292207
40
0.4706173373
40
0.5301627992
40
0.5843957924
40
0.6358893660
40
0.6859513593
40
0.7334334246
40
0.7768153795
40
0.8167436797
40
0.8547507381
40
0.8914319666
40
0.9263646938
40
0.9579909530
40
0.9838330883
40
1.0000000000
40
1.0000000000
40
1.0000000000
40
1.0000000000
10
169.4828525371
20
150.7261260228
30
0.0000000000
10
168.6101674098
20
150.7657553102
30
0.0000000000
10
166.9926459573
20
150.8388188556
30
0.0000000000
10
164.7420156896
20
150.9383443427
30
0.0000000000
10
162.8226161737
20
151.0200444530
30
0.0000000000
10
161.1805081692
20
151.0856648996
30
0.0000000000
10
159.7588755667
20
151.1371543041
30
0.0000000000
10
158.5028370520
20
151.1763362866
30
0.0000000000
10
157.3574181070
20
151.2046687099
30
0.0000000000
10
156.2775373423
20
151.2225946326
30
0.0000000000
10
155.2443249402
20
151.2293034247
30
0.0000000000
10
154.2673315394
20
151.2239019926
30
0.0000000000
10
153.3607449278
20
151.2068221065
30
0.0000000000
10
152.5201054022
20
151.1791766330
30
0.0000000000
10
151.7264896911
20
151.1409005757
30
0.0000000000
10
150.9678160799
20
151.0913746070
30
0.0000000000
10
150.2557967804
20
151.0280137790
30
0.0000000000
10
149.6162385769
20
150.9552931867
30
0.0000000000
10
149.1214725662
20
150.8617576089
30
0.0000000000
10
148.8256696371
20
150.7939532606
30
0.0000000000
10
148.7364452503
20
150.7261260227
30
0.0000000000
11
169.4828525371
21
150.7261260228
31
0.0000000000
11
166.8647580125
21
150.8441487617
31
0.0000000000
11
164.6301683189
21
150.9426236401
31
0.0000000000
11
162.7308950584
21
151.0230597647
31
0.0000000000
11
161.1064997896
21
151.0875346849
31
0.0000000000
11
159.7038059088
21
151.1379007787
31
0.0000000000
11
158.4659860470
21
151.1760907704
31
0.0000000000
11
157.3383991363
21
151.2035703496
31
0.0000000000
11
156.2675917802
21
151.2209303292
31
0.0000000000
11
155.2264366471
21
151.2272782429
31
0.0000000000
11
154.2389359031
21
151.2214556666
31
0.0000000000
11
153.3368564114
21
151.2041733122
31
0.0000000000
11
152.5068983992
21
151.1765689994
31
0.0000000000
11
151.7173716813
21
151.1381786114
31
0.0000000000
11
150.9561687169
21
151.0875422449
31
0.0000000000
11
150.2325379813
21
151.0228074651
31
0.0000000000
11
149.5797262431
21
150.9423302954
31
0.0000000000
11
149.0513402771
21
150.8440024447
31
0.0000000000
11
148.7364452503
21
150.7261260227
31
0.0000000000
0
SPLINE
5
318
100
AcDbEntity
8
0
100
AcDbSpline
62
9
6
CONTINUOUS
70
0
71
3
72
14
73
10
74
8
42
0.0000001000
43
0.0000001000
44
0.0000000001
12
0.0004189637
22
4.5666038255
32
0.0000000000
13
4.5618159055
23
0.2090605614
33
0.0000000000
40
0.0000000000
40
0.0000000000
40
0.0000000000
40
0.0000000000
40
0.1427098869
40
0.2855369433
40
0.4283730748
40
0.5712314009
40
0.7141334691
40
0.8570972642
40
1.0000000000
40
1.0000000000
40
1.0000000000
40
1.0000000000
10
121.6402718255
20
147.7292619082
30
0.0000000000
10
121.6402917555
20
147.9464950800
30
0.0000000000
10
121.6878300182
20
148.3826170394
30
0.0000000000
10
121.8986371380
20
149.0048922642
30
0.0000000000
10
122.2391267851
20
149.5674054733
30
0.0000000000
10
122.6932364182
20
150.0429950949
30
0.0000000000
10
123.2397115288
20
150.4092406064
30
0.0000000000
10
123.8522145689
20
150.6486480581
30
0.0000000000
10
124.2862125829
20
150.7161675807
30
0.0000000000
10
124.5035112405
20
150.7261260228
30
0.0000000000
11
121.6402718255
21
147.7292619082
31
0.0000000000
11
121.7110358432
21
148.3771081212
31
0.0000000000
11
121.9202315318
21
148.9948840656
31
0.0000000000
11
122.2580305188
21
149.5528767720
31
0.0000000000
11
122.7085540726
21
150.0247080712
31
0.0000000000
11
123.2506240949
21
150.3880495180
31
0.0000000000
11
123.8587127669
21
150.6256480500
31
0.0000000000
11
124.5035112405
21
150.7261260228
31
0.0000000000
0
SPLINE
5
319
100
AcDbEntity
8
0
100
AcDbSpline
62
9
6
CONTINUOUS
70
0
71
3
72
14
73
10
74
8
42
0.0000001000
43
0.0000001000
44
0.0000000001
12
-1.6955801829
22
-2.4760214230
32
0.0000000000
13
0.0000333286
23
-3.0009455581
33
0.0000000000
40
0.0000000000
40
0.0000000000
40
0.0000000000
40
0.0000000000
40
0.0341940879
40
0.1136695036
40
0.2349182480
40
0.3922469932
40
0.5782377994
40
0.7841171904
40
1.0000000000
40
1.0000000000
40
1.0000000000
40
1.0000000000
10
145.2499189211
20
150.7261260227
30
0.0000000000
10
145.2305926486
20
150.6979042580
30
0.0000000000
10
145.2302433216
20
150.5759809806
30
0.0000000000
10
145.1999554827
20
150.3490757486
30
0.0000000000
10
145.1880835305
20
149.9875942388
30
0.0000000000
10
145.1695100653
20
149.5246368821
30
0.0000000000
10
145.1577016947
20
148.9748834079
30
0.0000000000
10
145.1493281526
20
148.3671498979
30
0.0000000000
10
145.1475493684
20
147.9452127611
30
0.0000000000
10
145.1475517667
20
147.7292619082
30
0.0000000000
11
145.2499189211
21
150.7261260227
31
0.0000000000
11
145.2290878891
21
150.6256480479
31
0.0000000000
11
145.2083550281
21
150.3880495118
31
0.0000000000
11
145.1889197629
21
150.0247080592
31
0.0000000000
11
145.1719882558
21
149.5528767531
31
0.0000000000
11
145.1588110919
21
148.9948840392
31
0.0000000000
11
145.1504267775
21
148.3771080876
31
0.0000000000
11
145.1475517667
21
147.7292619082
31
0.0000000000
0
SPLINE
5
31A
100
AcDbEntity
8
0
100
AcDbSpline
62
9
6
CONTINUOUS
70
0
71
3
72
14
73
10
74
8
42
0.0000001000
43
0.0000001000
44
0.0000000001
12
-0.0004189637
22
4.5666038255
32
0.0000000000
13
-4.5618159055
23
0.2090605614
33
0.0000000000
40
0.0000000000
40
0.0000000000
40
0.0000000000
40
0.0000000000
40
0.1427098869
40
0.2855369433
40
0.4283730748
40
0.5712314009
40
0.7141334691
40
0.8570972642
40
1.0000000000
40
1.0000000000
40
1.0000000000
40
1.0000000000
10
172.3460919805
20
147.7292619082
30
0.0000000000
10
172.3460720505
20
147.9464950800
30
0.0000000000
10
172.2985337878
20
148.3826170394
30
0.0000000000
10
172.0877266680
20
149.0048922642
30
0.0000000000
10
171.7472370209
20
149.5674054733
30
0.0000000000
10
171.2931273878
20
150.0429950949
30
0.0000000000
10
170.7466522772
20
150.4092406064
30
0.0000000000
10
170.1341492371
20
150.6486480581
30
0.0000000000
10
169.7001512231
20
150.7161675807
30
0.0000000000
10
169.4828525655
20
150.7261260228
30
0.0000000000
11
172.3460919805
21
147.7292619082
31
0.0000000000
11
172.2753279628
21
148.3771081212
31
0.0000000000
11
172.0661322742
21
148.9948840656
31
0.0000000000
11
171.7283332872
21
149.5528767720
31
0.0000000000
11
171.2778097334
21
150.0247080712
31
0.0000000000
11
170.7357397111
21
150.3880495180
31
0.0000000000
11
170.1276510391
21
150.6256480500
31
0.0000000000
11
169.4828525655
21
150.7261260228
31
0.0000000000
0
SPLINE
5
31B
100
AcDbEntity
8
0
100
AcDbSpline
62
9
6
CONTINUOUS
70
0
71
3
72
14
73
10
74
8
42
0.0000001000
43
0.0000001000
44
0.0000000001
12
1.6955801829
22
-2.4760214230
32
0.0000000000
13
-0.0000333286
23
-3.0009455581
33
0.0000000000
40
0.0000000000
40
0.0000000000
40
0.0000000000
40
0.0000000000
40
0.0341940879
40
0.1136695036
40
0.2349182480
40
0.3922469932
40
0.5782377994
40
0.7841171904
40
1.0000000000
40
1.0000000000
40
1.0000000000
40
1.0000000000
10
148.7364448849
20
150.7261260227
30
0.0000000000
10
148.7557711574
20
150.6979042580
30
0.0000000000
10
148.7561204844
20
150.5759809806
30
0.0000000000
10
148.7864083233
20
150.3490757486
30
0.0000000000
10
148.7982802755
20
149.9875942388
30
0.0000000000
10
148.8168537407
20
149.5246368821
30
0.0000000000
10
148.8286621113
20
148.9748834079
30
0.0000000000
10
148.8370356534
20
148.3671498979
30
0.0000000000
10
148.8388144376
20
147.9452127611
30
0.0000000000
10
148.8388120393
20
147.7292619082
30
0.0000000000
11
148.7364448849
21
150.7261260227
31
0.0000000000
11
148.7572759169
21
150.6256480479
31
0.0000000000
11
148.7780087778
21
150.3880495118
31
0.0000000000
11
148.7974440431
21
150.0247080592
31
0.0000000000
11
148.8143755502
21
149.5528767531
31
0.0000000000
11
148.8275527141
21
148.9948840392
31
0.0000000000
11
148.8359370285
21
148.3771080876
31
0.0000000000
11
148.8388120393
21
147.7292619082
31
0.0000000000
0
SPLINE
5
31C
100
AcDbEntity
8
0
100
AcDbSpline
62
9
6
CONTINUOUS
70
0
71
3
72
13
73
9
74
7
42
0.0000001000
43
0.0000001000
44
0.0000000001
12
0.0003800761
22
-3.9130895961
32
0.0000000000
13
3.7776153963
23
-1.0207312325
33
0.0000000000
40
0.0000000000
40
0.0000000000
40
0.0000000000
40
0.0000000000
40
0.1665213034
40
0.3331863455
40
0.4998637489
40
0.6665713028
40
0.8333347580
40
1.0000000000
40
1.0000000000
40
1.0000000000
40
1.0000000000
10
121.6402718255
20
146.8152670411
30
0.0000000000
10
121.6402929224
20
146.5980627812
30
0.0000000000
10
121.6878163356
20
146.1619903209
30
0.0000000000
10
121.8985843549
20
145.5397698444
30
0.0000000000
10
122.2389925964
20
144.9772837073
30
0.0000000000
10
122.6931276398
20
144.5016738954
30
0.0000000000
10
123.2390537083
20
144.1355728795
30
0.0000000000
10
123.6479399038
20
143.9758324015
30
0.0000000000
10
123.8578056318
20
143.9191255955
30
0.0000000000
11
121.6402718255
21
146.8152670411
31
0.0000000000
11
121.7110170157
21
146.1675060228
31
0.0000000000
11
121.9201695875
21
145.5497781275
31
0.0000000000
11
122.2579092587
21
144.9918107809
31
0.0000000000
11
122.7083742455
21
144.5199730375
31
0.0000000000
11
123.2504001664
21
144.1565959543
31
0.0000000000
11
123.8578056318
21
143.9191255955
31
0.0000000000
0
SPLINE
5
31D
100
AcDbEntity
8
0
100
AcDbSpline
62
9
6
CONTINUOUS
70
0
71
3
72
13
73
9
74
7
42
0.0000001000
43
0.0000001000
44
0.0000000001
12
0.3525106778
22
2.8765663016
32
0.0000000000
13
-0.0000337743
23
2.8980851375
33
0.0000000000
40
0.0000000000
40
0.0000000000
40
0.0000000000
40
0.0000000000
40
0.0822513405
40
0.2078162473
40
0.3707310470
40
0.5633143654
40
0.7764843553
40
1.0000000000
40
1.0000000000
40
1.0000000000
40
1.0000000000
10
148.7572978143
20
143.9191255708
30
0.0000000000
10
148.7669626396
20
143.9979927156
30
0.0000000000
10
148.7818053207
20
144.1983303149
30
0.0000000000
10
148.8002225693
20
144.5559530667
30
0.0000000000
10
148.8161717491
20
145.0204400564
30
0.0000000000
10
148.8288857134
20
145.5696426168
30
0.0000000000
10
148.8369667785
20
146.1774921943
30
0.0000000000
10
148.8388145556
20
146.5993445851
30
0.0000000000
10
148.8388120393
20
146.8152670411
30
0.0000000000
11
148.7572978143
21
143.9191255708
31
0.0000000000
11
148.7780039172
21
144.1565959389
31
0.0000000000
11
148.7974639841
21
144.5199730259
31
0.0000000000
11
148.8143820523
21
144.9918107785
31
0.0000000000
11
148.8275556775
21
145.5497781384
31
0.0000000000
11
148.8359378996
21
146.1675060493
31
0.0000000000
11
148.8388120393
21
146.8152670411
31
0.0000000000
0
SPLINE
5
31E
100
AcDbEntity
8
0
100
AcDbSpline
62
9
6
CONTINUOUS
70
0
71
3
72
13
73
9
74
7
42
0.0000001000
43
0.0000001000
44
0.0000000001
12
-0.0003800761
22
-3.9130895961
32
0.0000000000
13
-3.7776153963
23
-1.0207312325
33
0.0000000000
40
0.0000000000
40
0.0000000000
40
0.0000000000
40
0.0000000000
40
0.1665213034
40
0.3331863455
40
0.4998637489
40
0.6665713028
40
0.8333347580
40
1.0000000000
40
1.0000000000
40
1.0000000000
40
1.0000000000
10
172.3460919805
20
146.8152670411
30
0.0000000000
10
172.3460708836
20
146.5980627812
30
0.0000000000
10
172.2985474704
20
146.1619903209
30
0.0000000000
10
172.0877794511
20
145.5397698444
30
0.0000000000
10
171.7473712096
20
144.9772837073
30
0.0000000000
10
171.2932361662
20
144.5016738954
30
0.0000000000
10
170.7473100976
20
144.1355728795
30
0.0000000000
10
170.3384239022
20
143.9758324015
30
0.0000000000
10
170.1285581742
20
143.9191255955
30
0.0000000000
11
172.3460919805
21
146.8152670411
31
0.0000000000
11
172.2753467902
21
146.1675060228
31
0.0000000000
11
172.0661942185
21
145.5497781275
31
0.0000000000
11
171.7284545473
21
144.9918107809
31
0.0000000000
11
171.2779895605
21
144.5199730375
31
0.0000000000
11
170.7359636396
21
144.1565959543
31
0.0000000000
11
170.1285581742
21
143.9191255955
31
0.0000000000
0
SPLINE
5
31F
100
AcDbEntity
8
0
100
AcDbSpline
62
9
6
CONTINUOUS
70
0
71
3
72
13
73
9
74
7
42
0.0000001000
43
0.0000001000
44
0.0000000001
12
-0.3525106778
22
2.8765663016
32
0.0000000000
13
0.0000337743
23
2.8980851375
33
0.0000000000
40
0.0000000000
40
0.0000000000
40
0.0000000000
40
0.0000000000
40
0.0822513405
40
0.2078162473
40
0.3707310470
40
0.5633143654
40
0.7764843553
40
1.0000000000
40
1.0000000000
40
1.0000000000
40
1.0000000000
10
145.2290659917
20
143.9191255708
30
0.0000000000
10
145.2194011664
20
143.9979927156
30
0.0000000000
10
145.2045584853
20
144.1983303149
30
0.0000000000
10
145.1861412367
20
144.5559530667
30
0.0000000000
10
145.1701920569
20
145.0204400564
30
0.0000000000
10
145.1574780926
20
145.5696426168
30
0.0000000000
10
145.1493970275
20
146.1774921943
30
0.0000000000
10
145.1475492504
20
146.5993445851
30
0.0000000000
10
145.1475517667
20
146.8152670411
30
0.0000000000
11
145.2290659917
21
143.9191255708
31
0.0000000000
11
145.2083598888
21
144.1565959389
31
0.0000000000
11
145.1888998219
21
144.5199730259
31
0.0000000000
11
145.1719817537
21
144.9918107785
31
0.0000000000
11
145.1588081285
21
145.5497781384
31
0.0000000000
11
145.1504259064
21
146.1675060493
31
0.0000000000
11
145.1475517667
21
146.8152670411
31
0.0000000000
0
SPLINE
5
320
100
AcDbEntity
8
0
100
AcDbSpline
62
9
6
CONTINUOUS
70
0
71
3
72
15
73
11
74
9
42
0.0000001000
43
0.0000001000
44
0.0000000001
12
12.7692298484
22
-3.4265789770
32
0.0000000000
13
13.1576651691
23
-1.2924866359
33
0.0000000000
40
0.0000000000
40
0.0000000000
40
0.0000000000
40
0.0000000000
40
0.1955124360
40
0.3644671140
40
0.5094466518
40
0.6338590123
40
0.7412283074
40
0.8356303302
40
0.9207115795
40
1.0000000000
40
1.0000000000
40
1.0000000000
40
1.0000000000
10
123.8578054614
20
143.9191255955
30
0.0000000000
10
124.6899865393
20
143.6958126612
30
0.0000000000
10
126.2418335558
20
143.2814707881
30
0.0000000000
10
128.4136648845
20
142.7124204592
30
0.0000000000
10
130.2862863768
20
142.2378324140
30
0.0000000000
10
131.9008821431
20
141.8503096086
30
0.0000000000
10
133.3046569171
20
141.5403186481
30
0.0000000000
10
134.5455456094
20
141.2980056843
30
0.0000000000
10
135.6713300702
20
141.1146706813
30
0.0000000000
10
136.3905684861
20
141.0262717044
30
0.0000000000
10
136.7383186492
20
140.9921119631
30
0.0000000000
11
123.8578054614
21
143.9191255955
31
0.0000000000
11
126.3554648854
21
143.2533602323
31
0.0000000000
11
128.5166823686
21
142.6887609114
31
0.0000000000
11
130.3751990716
21
142.2197870018
31
0.0000000000
11
131.9751330039
21
141.8380023780
31
0.0000000000
11
133.3617341678
21
141.5340300921
31
0.0000000000
11
134.5870884053
21
141.2968971774
31
0.0000000000
11
135.6976434620
21
141.1180831078
31
0.0000000000
11
136.7383186492
21
140.9921119631
31
0.0000000000
0
SPLINE
5
321
100
AcDbEntity
8
0
100
AcDbSpline
62
9
6
CONTINUOUS
70
0
71
3
72
15
73
11
74
9
42
0.0000001000
43
0.0000001000
44
0.0000000001
12
-13.1576644620
22
1.2925001415
32
0.0000000000
13
-12.7692303643
23
3.4265794333
33
0.0000000000
40
0.0000000000
40
0.0000000000
40
0.0000000000
40
0.0000000000
40
0.0791588769
40
0.1641020721
40
0.2585551041
40
0.3661719326
40
0.4906466105
40
0.6354091473
40
0.8042167773
40
1.0000000000
40
1.0000000000
40
1.0000000000
40
1.0000000000
10
136.7383189887
20
140.9921119545
30
0.0000000000
10
136.3911370083
20
141.0262162411
30
0.0000000000
10
135.6730667178
20
141.1144421204
30
0.0000000000
10
134.5482091815
20
141.2975277341
30
0.0000000000
10
133.3066088948
20
141.5398908292
30
0.0000000000
10
131.9012765062
20
141.8502069868
30
0.0000000000
10
130.2862859909
20
142.2378385036
30
0.0000000000
10
128.4149518833
20
142.7120934512
30
0.0000000000
10
126.2435136288
20
143.2810228541
30
0.0000000000
10
124.6911391090
20
143.6955033521
30
0.0000000000
10
123.8578054181
20
143.9191256069
30
0.0000000000
11
136.7383189887
21
140.9921119545
31
0.0000000000
11
135.6993397751
21
141.1178420706
31
0.0000000000
11
134.5905722771
21
141.2962765989
31
0.0000000000
11
133.3645387343
21
141.5334490677
31
0.0000000000
11
131.9747345841
21
141.8380938942
31
0.0000000000
11
130.3740020322
21
142.2200817202
31
0.0000000000
11
128.5182668588
21
142.6883530869
31
0.0000000000
11
126.3589261740
21
143.2524453662
31
0.0000000000
11
123.8578054181
21
143.9191256069
31
0.0000000000
0
SPLINE
5
322
100
AcDbEntity
8
0
100
AcDbSpline
62
9
6
CONTINUOUS
70
0
71
3
72
15
73
11
74
9
42
0.0000001000
43
0.0000001000
44
0.0000000001
12
-12.7692298484
22
-3.4265789770
32
0.0000000000
13
-13.1576651691
23
-1.2924866359
33
0.0000000000
40
0.0000000000
40
0.0000000000
40
0.0000000000
40
0.0000000000
40
0.1955124360
40
0.3644671140
40
0.5094466518
40
0.6338590123
40
0.7412283074
40
0.8356303302
40
0.9207115795
40
1.0000000000
40
1.0000000000
40
1.0000000000
40
1.0000000000
10
170.1285583446
20
143.9191255955
30
0.0000000000
10
169.2963772667
20
143.6958126612
30
0.0000000000
10
167.7445302502
20
143.2814707881
30
0.0000000000
10
165.5726989215
20
142.7124204591
30
0.0000000000
10
163.7000774292
20
142.2378324140
30
0.0000000000
10
162.0854816629
20
141.8503096086
30
0.0000000000
10
160.6817068888
20
141.5403186481
30
0.0000000000
10
159.4408181966
20
141.2980056843
30
0.0000000000
10
158.3150337357
20
141.1146706813
30
0.0000000000
10
157.5957953199
20
141.0262717044
30
0.0000000000
10
157.2480451568
20
140.9921119631
30
0.0000000000
11
170.1285583446
21
143.9191255955
31
0.0000000000
11
167.6308989205
21
143.2533602323
31
0.0000000000
11
165.4696814373
21
142.6887609114
31
0.0000000000
11
163.6111647343
21
142.2197870018
31
0.0000000000
11
162.0112308020
21
141.8380023780
31
0.0000000000
11
160.6246296381
21
141.5340300921
31
0.0000000000
11
159.3992754007
21
141.2968971774
31
0.0000000000
11
158.2887203440
21
141.1180831078
31
0.0000000000
11
157.2480451568
21
140.9921119631
31
0.0000000000
0
SPLINE
5
323
100
AcDbEntity
8
0
100
AcDbSpline
62
9
6
CONTINUOUS
70
0
71
3
72
15
73
11
74
9
42
0.0000001000
43
0.0000001000
44
0.0000000001
12
13.1576644620
22
1.2925001415
32
0.0000000000
13
12.7692303643
23
3.4265794333
33
0.0000000000
40
0.0000000000
40
0.0000000000
40
0.0000000000
40
0.0000000000
40
0.0791588769
40
0.1641020721
40
0.2585551041
40
0.3661719326
40
0.4906466105
40
0.6354091473
40
0.8042167773
40
1.0000000000
40
1.0000000000
40
1.0000000000
40
1.0000000000
10
157.2480448173
20
140.9921119545
30
0.0000000000
10
157.5952267976
20
141.0262162411
30
0.0000000000
10
158.3132970882
20
141.1144421204
30
0.0000000000
10
159.4381546245
20
141.2975277341
30
0.0000000000
10
160.6797549112
20
141.5398908292
30
0.0000000000
10
162.0850872998
20
141.8502069868
30
0.0000000000
10
163.7000778150
20
142.2378385036
30
0.0000000000
10
165.5714119226
20
142.7120934512
30
0.0000000000
10
167.7428501772
20
143.2810228541
30
0.0000000000
10
169.2952246970
20
143.6955033521
30
0.0000000000
10
170.1285583879
20
143.9191256069
30
0.0000000000
11
157.2480448173
21
140.9921119545
31
0.0000000000
11
158.2870240309
21
141.1178420706
31
0.0000000000
11
159.3957915289
21
141.2962765989
31
0.0000000000
11
160.6218250717
21
141.5334490677
31
0.0000000000
11
162.0116292218
21
141.8380938942
31
0.0000000000
11
163.6123617738
21
142.2200817202
31
0.0000000000
11
165.4680969471
21
142.6883530869
31
0.0000000000
11
167.6274376320
21
143.2524453662
31
0.0000000000
11
170.1285583879
21
143.9191256069
31
0.0000000000
0
SPLINE
5
324
100
AcDbEntity
8
0
100
AcDbSpline
62
9
6
CONTINUOUS
70
0
71
3
72
15
73
11
74
9
42
0.0000001000
43
0.0000001000
44
0.0000000001
12
6.1956684265
22
0.7311149408
32
0.0000000000
13
1.1900843629
23
6.1240946692
33
0.0000000000
40
0.0000000000
40
0.0000000000
40
0.0000000000
40
0.0000000000
40
0.1344260585
40
0.2635319683
40
0.3909490918
40
0.5180012785
40
0.6440748998
40
0.7670632937
40
0.8854191199
40
1.0000000000
40
1.0000000000
40
1.0000000000
40
1.0000000000
10
140.0762257563
20
140.9921119441
30
0.0000000000
10
140.3538455184
20
141.0248722440
30
0.0000000000
10
140.8961375995
20
141.1076977547
30
0.0000000000
10
141.6893053526
20
141.2895359690
30
0.0000000000
10
142.4510652937
20
141.5293106749
30
0.0000000000
10
143.1825880828
20
141.8344434658
30
0.0000000000
10
143.8693808955
20
142.2126298776
30
0.0000000000
10
144.4830891991
20
142.6735873108
30
0.0000000000
10
144.9812450863
20
143.2294351814
30
0.0000000000
10
145.1836145723
20
143.6852241851
30
0.0000000000
10
145.2290682102
20
143.9191255708
30
0.0000000000
11
140.0762257563
21
140.9921119441
31
0.0000000000
11
140.9050996300
21
141.1197122085
31
0.0000000000
11
141.6899453862
21
141.3007169421
31
0.0000000000
11
142.4477302411
21
141.5408141984
31
0.0000000000
11
143.1783285268
21
141.8482167558
31
0.0000000000
11
143.8650785582
21
142.2316276105
31
0.0000000000
11
144.4738598954
21
142.6986474157
31
0.0000000000
11
144.9546057881
21
143.2590851162
31
0.0000000000
11
145.2290682102
21
143.9191255708
31
0.0000000000
0
SPLINE
5
325
100
AcDbEntity
8
0
100
AcDbSpline
62
9
6
CONTINUOUS
70
0
71
3
72
15
73
11
74
9
42
0.0000001000
43
0.0000001000
44
0.0000000001
12
1.1900898108
22
-6.1240447926
32
0.0000000000
13
6.1956218198
23
-0.7311009815
33
0.0000000000
40
0.0000000000
40
0.0000000000
40
0.0000000000
40
0.0000000000
40
0.1149956370
40
0.2338139012
40
0.3572446382
40
0.4834213926
40
0.6102284205
40
0.7372028139
40
0.8658430483
40
1.0000000000
40
1.0000000000
40
1.0000000000
40
1.0000000000
10
148.7572955824
20
143.9191255955
30
0.0000000000
10
148.8029139611
20
143.6843794514
30
0.0000000000
10
149.0064561763
20
143.2269691975
30
0.0000000000
10
149.5072741787
20
142.6697900689
30
0.0000000000
10
150.1233577628
20
142.2084999552
30
0.0000000000
10
150.8111874887
20
141.8309331383
30
0.0000000000
10
151.5418733284
20
141.5269999359
30
0.0000000000
10
152.3014769045
20
141.2884224906
30
0.0000000000
10
153.0922959536
20
141.1073632868
30
0.0000000000
10
153.6330753994
20
141.0248060370
30
0.0000000000
10
153.9101373118
20
140.9921119439
30
0.0000000000
11
148.7572955824
21
143.9191255955
31
0.0000000000
11
149.0331810083
21
143.2568806790
31
0.0000000000
11
149.5165613833
21
142.6949102422
31
0.0000000000
11
150.1282334805
21
142.2271359456
31
0.0000000000
11
150.8160613943
21
141.8443497511
31
0.0000000000
11
151.5455577957
21
141.5382888054
31
0.0000000000
11
152.3008569276
21
141.2995114378
31
0.0000000000
11
153.0829197933
21
141.1193952522
31
0.0000000000
11
153.9101373118
21
140.9921119439
31
0.0000000000
0
SPLINE
5
326
100
AcDbEntity
8
0
100
AcDbSpline
62
9
6
CONTINUOUS
70
0
71
3
72
15
73
11
74
9
42
0.0000001000
43
0.0000001000
44
0.0000000001
12
-1.1900898108
22
-6.1240447926
32
0.0000000000
13
-6.1956218198
23
-0.7311009815
33
0.0000000000
40
0.0000000000
40
0.0000000000
40
0.0000000000
40
0.0000000000
40
0.1149956370
40
0.2338139012
40
0.3572446382
40
0.4834213926
40
0.6102284205
40
0.7372028139
40
0.8658430483
40
1.0000000000
40
1.0000000000
40
1.0000000000
40
1.0000000000
10
145.2290682236
20
143.9191255955
30
0.0000000000
10
145.1834498449
20
143.6843794514
30
0.0000000000
10
144.9799076297
20
143.2269691975
30
0.0000000000
10
144.4790896273
20
142.6697900689
30
0.0000000000
10
143.8630060431
20
142.2084999552
30
0.0000000000
10
143.1751763173
20
141.8309331383
30
0.0000000000
10
142.4444904776
20
141.5269999359
30
0.0000000000
10
141.6848869015
20
141.2884224906
30
0.0000000000
10
140.8940678524
20
141.1073632868
30
0.0000000000
10
140.3532884066
20
141.0248060370
30
0.0000000000
10
140.0762264942
20
140.9921119439
30
0.0000000000
11
145.2290682236
21
143.9191255955
31
0.0000000000
11
144.9531827977
21
143.2568806790
31
0.0000000000
11
144.4698024227
21
142.6949102422
31
0.0000000000
11
143.8581303255
21
142.2271359456
31
0.0000000000
11
143.1703024117
21
141.8443497511
31
0.0000000000
11
142.4408060103
21
141.5382888054
31
0.0000000000
11
141.6855068784
21
141.2995114378
31
0.0000000000
11
140.9034440127
21
141.1193952522
31
0.0000000000
11
140.0762264942
21
140.9921119439
31
0.0000000000
0
SPLINE
5
327
100
AcDbEntity
8
0
100
AcDbSpline
62
9
6
CONTINUOUS
70
0
71
3
72
15
73
11
74
9
42
0.0000001000
43
0.0000001000
44
0.0000000001
12
-6.1956684265
22
0.7311149408
32
0.0000000000
13
-1.1900843629
23
6.1240946692
33
0.0000000000
40
0.0000000000
40
0.0000000000
40
0.0000000000
40
0.0000000000
40
0.1344260585
40
0.2635319683
40
0.3909490918
40
0.5180012785
40
0.6440748998
40
0.7670632937
40
0.8854191199
40
1.0000000000
40
1.0000000000
40
1.0000000000
40
1.0000000000
10
153.9101380497
20
140.9921119441
30
0.0000000000
10
153.6325182876
20
141.0248722440
30
0.0000000000
10
153.0902262065
20
141.1076977547
30
0.0000000000
10
152.2970584534
20
141.2895359690
30
0.0000000000
10
151.5352985123
20
141.5293106749
30
0.0000000000
10
150.8037757232
20
141.8344434658
30
0.0000000000
10
150.1169829105
20
142.2126298776
30
0.0000000000
10
149.5032746069
20
142.6735873108
30
0.0000000000
10
149.0051187197
20
143.2294351814
30
0.0000000000
10
148.8027492337
20
143.6852241851
30
0.0000000000
10
148.7572955958
20
143.9191255708
30
0.0000000000
11
153.9101380497
21
140.9921119441
31
0.0000000000
11
153.0812641760
21
141.1197122085
31
0.0000000000
11
152.2964184198
21
141.3007169421
31
0.0000000000
11
151.5386335649
21
141.5408141984
31
0.0000000000
11
150.8080352792
21
141.8482167558
31
0.0000000000
11
150.1212852478
21
142.2316276105
31
0.0000000000
11
149.5125039106
21
142.6986474157
31
0.0000000000
11
149.0317580179
21
143.2590851162
31
0.0000000000
11
148.7572955958
21
143.9191255708
31
0.0000000000
0
SPLINE
5
328
100
AcDbEntity
8
0
100
AcDbSpline
62
9
6
CONTINUOUS
70
0
71
3
72
15
73
11
74
9
42
0.0000001000
43
0.0000001000
44
0.0000000001
12
3.2386641000
22
0.0003604018
32
0.0000000000
13
3.2386641201
23
0.0000062074
33
0.0000000000
40
0.0000000000
40
0.0000000000
40
0.0000000000
40
0.0000000000
40
0.2014591097
40
0.3728757749
40
0.5193050794
40
0.6452473193
40
0.7541048868
40
0.8482362356
40
0.9296135344
40
1.0000000000
40
1.0000000000
40
1.0000000000
40
1.0000000000
10
153.7034705194
20
140.5094219611
30
0.0000000000
10
153.9209566481
20
140.5094461631
30
0.0000000000
10
154.3234748938
20
140.5164325351
30
0.0000000000
10
154.8839172246
20
140.5300298321
30
0.0000000000
10
155.3629901250
20
140.5363949291
30
0.0000000000
10
155.7745654049
20
140.5345432962
30
0.0000000000
10
156.1296003765
20
140.5273443612
30
0.0000000000
10
156.4364651366
20
140.5186094025
30
0.0000000000
10
156.7018291186
20
140.5115725605
30
0.0000000000
10
156.8656650450
20
140.5094212137
30
0.0000000000
10
156.9416510852
20
140.5094213593
30
0.0000000000
11
153.7034705194
21
140.5094219611
31
0.0000000000
11
154.3558750401
21
140.5178060146
31
0.0000000000
11
154.9109109764
21
140.5295894365
31
0.0000000000
11
155.3851133886
21
140.5351773391
31
0.0000000000
11
155.7929937277
21
140.5333099659
31
0.0000000000
11
156.1454811741
21
140.5265065084
31
0.0000000000
11
156.4502311566
21
140.5183236550
31
0.0000000000
11
156.7137063125
21
140.5118881983
31
0.0000000000
11
156.9416510852
21
140.5094213593
31
0.0000000000
0
SPLINE
5
329
100
AcDbEntity
8
0
100
AcDbSpline
62
9
6
CONTINUOUS
70
0
71
3
72
15
73
11
74
9
42
0.0000001000
43
0.0000001000
44
0.0000000001
12
-3.2386653062
22
-0.0000791520
32
0.0000000000
13
-3.2386653061
23
-0.0000857764
33
0.0000000000
40
0.0000000000
40
0.0000000000
40
0.0000000000
40
0.0000000000
40
0.0712204543
40
0.1536414456
40
0.2490614966
40
0.3594085697
40
0.4866091639
40
0.6334915152
40
0.8036227135
40
1.0000000000
40
1.0000000000
40
1.0000000000
40
1.0000000000
10
156.9416509764
20
140.5094214879
30
0.0000000000
10
156.8647645716
20
140.5094196088
30
0.0000000000
10
156.6989016298
20
140.5116229021
30
0.0000000000
10
156.4301218505
20
140.5187958179
30
0.0000000000
10
156.1191320737
20
140.5276308447
30
0.0000000000
10
155.7597362459
20
140.5347561551
30
0.0000000000
10
155.3447034248
20
140.5363245467
30
0.0000000000
10
154.8651759629
20
140.5296292871
30
0.0000000000
10
154.3111170878
20
140.5161562280
30
0.0000000000
10
153.9154701869
20
140.5094273127
30
0.0000000000
10
153.7034700853
20
140.5094216979
30
0.0000000000
11
156.9416509764
21
140.5094214879
31
0.0000000000
11
156.7110055079
21
140.5119396432
31
0.0000000000
11
156.4441519440
21
140.5184923964
31
0.0000000000
11
156.1352290429
21
140.5267635788
31
0.0000000000
11
155.7779154462
21
140.5335077120
31
0.0000000000
11
155.3659584248
21
140.5351136499
31
0.0000000000
11
154.8902921668
21
140.5292194430
31
0.0000000000
11
154.3394194943
21
140.5174676240
31
0.0000000000
11
153.7034700853
21
140.5094216979
31
0.0000000000
0
SPLINE
5
32A
100
AcDbEntity
8
0
100
AcDbSpline
62
9
6
CONTINUOUS
70
0
71
3
72
25
73
21
74
19
42
0.0000001000
43
0.0000001000
44
0.0000000001
12
20.7762925988
22
0.9434670590
32
0.0000000000
13
16.5568517692
23
-12.5863069934
33
0.0000000000
40
0.0000000000
40
0.0000000000
40
0.0000000000
40
0.0000000000
40
0.1260116727
40
0.2335600121
40
0.3249631705
40
0.4031292207
40
0.4706173373
40
0.5301627992
40
0.5843957924
40
0.6358893660
40
0.6859513593
40
0.7334334246
40
0.7768153795
40
0.8167436797
40
0.8547507381
40
0.8914319666
40
0.9263646938
40
0.9579909530
40
0.9838330883
40
1.0000000000
40
1.0000000000
40
1.0000000000
40
1.0000000000
10
124.5035112689
20
150.7261260228
30
0.0000000000
10
125.3761963962
20
150.7657553102
30
0.0000000000
10
126.9937178487
20
150.8388188556
30
0.0000000000
10
129.2443481164
20
150.9383443427
30
0.0000000000
10
131.1637476323
20
151.0200444530
30
0.0000000000
10
132.8058556368
20
151.0856648996
30
0.0000000000
10
134.2274882393
20
151.1371543041
30
0.0000000000
10
135.4835267540
20
151.1763362866
30
0.0000000000
10
136.6289456990
20
151.2046687099
30
0.0000000000
10
137.7088264637
20
151.2225946326
30
0.0000000000
10
138.7420388658
20
151.2293034247
30
0.0000000000
10
139.7190322666
20
151.2239019926
30
0.0000000000
10
140.6256188782
20
151.2068221065
30
0.0000000000
10
141.4662584038
20
151.1791766330
30
0.0000000000
10
142.2598741149
20
151.1409005757
30
0.0000000000
10
143.0185477261
20
151.0913746070
30
0.0000000000
10
143.7305670256
20
151.0280137790
30
0.0000000000
10
144.3701252291
20
150.9552931867
30
0.0000000000
10
144.8648912398
20
150.8617576089
30
0.0000000000
10
145.1606941689
20
150.7939532606
30
0.0000000000
10
145.2499185557
20
150.7261260227
30
0.0000000000
11
124.5035112689
21
150.7261260228
31
0.0000000000
11
127.1216057935
21
150.8441487617
31
0.0000000000
11
129.3561954871
21
150.9426236401
31
0.0000000000
11
131.2554687476
21
151.0230597647
31
0.0000000000
11
132.8798640163
21
151.0875346849
31
0.0000000000
11
134.2825578972
21
151.1379007787
31
0.0000000000
11
135.5203777589
21
151.1760907704
31
0.0000000000
11
136.6479646697
21
151.2035703496
31
0.0000000000
11
137.7187720258
21
151.2209303292
31
0.0000000000
11
138.7599271589
21
151.2272782429
31
0.0000000000
11
139.7474279029
21
151.2214556666
31
0.0000000000
11
140.6495073946
21
151.2041733122
31
0.0000000000
11
141.4794654068
21
151.1765689994
31
0.0000000000
11
142.2689921247
21
151.1381786114
31
0.0000000000
11
143.0301950891
21
151.0875422449
31
0.0000000000
11
143.7538258247
21
151.0228074651
31
0.0000000000
11
144.4066375629
21
150.9423302954
31
0.0000000000
11
144.9350235289
21
150.8440024447
31
0.0000000000
11
145.2499185557
21
150.7261260227
31
0.0000000000
0
SPLINE
5
32B
100
AcDbEntity
8
0
100
AcDbSpline
62
9
6
CONTINUOUS
70
0
71
3
72
25
73
21
74
19
42
0.0000001000
43
0.0000001000
44
0.0000000001
12
-16.5569212118
22
12.5862207717
32
0.0000000000
13
-20.7762956949
23
-0.9434672902
33
0.0000000000
40
0.0000000000
40
0.0000000000
40
0.0000000000
40
0.0000000000
40
0.0161429202
40
0.0419419306
40
0.0735415466
40
0.1085558220
40
0.1454135187
40
0.1836555016
40
0.2238323098
40
0.2674200172
40
0.3149827117
40
0.3649728614
40
0.4164377802
40
0.4707126540
40
0.5302342292
40
0.5975234213
40
0.6754973879
40
0.7667794547
40
0.8741861603
40
1.0000000000
40
1.0000000000
40
1.0000000000
40
1.0000000000
10
145.2499185569
20
150.7261260224
30
0.0000000000
10
145.1608262045
20
150.7938521414
30
0.0000000000
10
144.8655294624
20
150.8616306952
30
0.0000000000
10
144.3713919465
20
150.9551014916
30
0.0000000000
10
143.7317641115
20
151.0279009491
30
0.0000000000
10
143.0181505691
20
151.0914254600
30
0.0000000000
10
142.2560621398
20
151.1411392426
30
0.0000000000
10
141.4578722434
20
151.1795375145
30
0.0000000000
10
140.6124514054
20
151.2071778066
30
0.0000000000
10
139.7021529080
20
151.2241110196
30
0.0000000000
10
138.7236708531
20
151.2292844981
30
0.0000000000
10
137.6905976347
20
151.2223715043
30
0.0000000000
10
136.6111258290
20
151.2042923879
30
0.0000000000
10
135.4657838879
20
151.1758322013
30
0.0000000000
10
134.2110021550
20
151.1365875108
30
0.0000000000
10
132.7922461949
20
151.0851367539
30
0.0000000000
10
131.1536866826
20
151.0196238427
30
0.0000000000
10
129.2374377266
20
150.9380415588
30
0.0000000000
10
126.9899971344
20
150.8386509599
30
0.0000000000
10
125.3748264433
20
150.7656931034
30
0.0000000000
10
124.5035112644
20
150.7261260226
30
0.0000000000
11
145.2499185569
21
150.7261260224
31
0.0000000000
11
144.9355114423
21
150.8438827050
31
0.0000000000
11
144.4080218635
21
150.9421254718
31
0.0000000000
11
143.7557686688
21
151.0226052973
31
0.0000000000
11
143.0304513597
21
151.0875225311
31
0.0000000000
11
142.2655842729
21
151.1383729019
31
0.0000000000
11
141.4711727145
21
151.1769059653
31
0.0000000000
11
140.6360438003
21
151.2045241183
31
0.0000000000
11
139.7296817139
21
151.2216749656
31
0.0000000000
11
138.7405025779
21
151.2272697366
31
0.0000000000
11
137.7008427303
21
151.2207230293
31
0.0000000000
11
136.6306336951
21
151.2032128626
31
0.0000000000
11
135.5021789882
21
151.1755836656
31
0.0000000000
11
134.2648586656
21
151.1373063700
31
0.0000000000
11
132.8663015641
21
151.0870197244
31
0.0000000000
11
131.2458992950
21
151.0226658069
31
0.0000000000
11
129.3491426923
21
150.9423180545
31
0.0000000000
11
127.1174958046
21
150.8439652200
31
0.0000000000
11
124.5035112644
21
150.7261260226
31
0.0000000000
0
SPLINE
5
32C
100
AcDbEntity
8
0
100
AcDbSpline
62
9
6
CONTINUOUS
70
0
71
3
72
15
73
11
74
9
42
0.0000001000
43
0.0000001000
44
0.0000000001
12
-3.2386641000
22
0.0003604018
32
0.0000000000
13
-3.2386641201
23
0.0000062074
33
0.0000000000
40
0.0000000000
40
0.0000000000
40
0.0000000000
40
0.0000000000
40
0.2014591097
40
0.3728757749
40
0.5193050794
40
0.6452473193
40
0.7541048868
40
0.8482362356
40
0.9296135344
40
1.0000000000
40
1.0000000000
40
1.0000000000
40
1.0000000000
10
140.2828932866
20
140.5094219611
30
0.0000000000
10
140.0654071579
20
140.5094461631
30
0.0000000000
10
139.6628889122
20
140.5164325351
30
0.0000000000
10
139.1024465814
20
140.5300298321
30
0.0000000000
10
138.6233736810
20
140.5363949291
30
0.0000000000
10
138.2117984011
20
140.5345432962
30
0.0000000000
10
137.8567634295
20
140.5273443612
30
0.0000000000
10
137.5498986694
20
140.5186094025
30
0.0000000000
10
137.2845346874
20
140.5115725605
30
0.0000000000
10
137.1206987610
20
140.5094212137
30
0.0000000000
10
137.0447127208
20
140.5094213593
30
0.0000000000
11
140.2828932866
21
140.5094219611
31
0.0000000000
11
139.6304887659
21
140.5178060146
31
0.0000000000
11
139.0754528296
21
140.5295894365
31
0.0000000000
11
138.6012504174
21
140.5351773391
31
0.0000000000
11
138.1933700783
21
140.5333099659
31
0.0000000000
11
137.8408826319
21
140.5265065084
31
0.0000000000
11
137.5361326494
21
140.5183236550
31
0.0000000000
11
137.2726574935
21
140.5118881983
31
0.0000000000
11
137.0447127208
21
140.5094213593
31
0.0000000000
0
SPLINE
5
32D
100
AcDbEntity
8
0
100
AcDbSpline
62
9
6
CONTINUOUS
70
0
71
3
72
15
73
11
74
9
42
0.0000001000
43
0.0000001000
44
0.0000000001
12
3.2386653062
22
-0.0000791520
32
0.0000000000
13
3.2386653061
23
-0.0000857764
33
0.0000000000
40
0.0000000000
40
0.0000000000
40
0.0000000000
40
0.0000000000
40
0.0712204543
40
0.1536414456
40
0.2490614966
40
0.3594085697
40
0.4866091639
40
0.6334915152
40
0.8036227135
40
1.0000000000
40
1.0000000000
40
1.0000000000
40
1.0000000000
10
137.0447128296
20
140.5094214879
30
0.0000000000
10
137.1215992344
20
140.5094196088
30
0.0000000000
10
137.2874621762
20
140.5116229021
30
0.0000000000
10
137.5562419555
20
140.5187958179
30
0.0000000000
10
137.8672317323
20
140.5276308447
30
0.0000000000
10
138.2266275601
20
140.5347561551
30
0.0000000000
10
138.6416603812
20
140.5363245467
30
0.0000000000
10
139.1211878431
20
140.5296292871
30
0.0000000000
10
139.6752467182
20
140.5161562280
30
0.0000000000
10
140.0708936191
20
140.5094273127
30
0.0000000000
10
140.2828937207
20
140.5094216979
30
0.0000000000
11
137.0447128296
21
140.5094214879
31
0.0000000000
11
137.2753582981
21
140.5119396432
31
0.0000000000
11
137.5422118620
21
140.5184923964
31
0.0000000000
11
137.8511347631
21
140.5267635788
31
0.0000000000
11
138.2084483598
21
140.5335077120
31
0.0000000000
11
138.6204053812
21
140.5351136499
31
0.0000000000
11
139.0960716391
21
140.5292194430
31
0.0000000000
11
139.6469443117
21
140.5174676240
31
0.0000000000
11
140.2828937207
21
140.5094216979
31
0.0000000000
0
SPLINE
5
32E
100
AcDbEntity
8
0
100
AcDbSpline
62
9
6
CONTINUOUS
70
0
71
3
72
13
73
9
74
7
42
0.0000001000
43
0.0000001000
44
0.0000000001
12
0.1588173470
22
0.9528772743
32
0.0000000000
13
-0.0000038188
23
0.9660217646
33
0.0000000000
40
0.0000000000
40
0.0000000000
40
0.0000000000
40
0.0000000000
40
0.0822832927
40
0.2078208796
40
0.3707755690
40
0.5634672110
40
0.7767008627
40
1.0000000000
40
1.0000000000
40
1.0000000000
40
1.0000000000
10
143.2711536731
20
145.8498854022
30
0.0000000000
10
143.2755096778
20
145.8760206955
30
0.0000000000
10
143.2809072657
20
145.9428547509
30
0.0000000000
10
143.2862812080
20
146.0620771182
30
0.0000000000
10
143.2896770686
20
146.2170172552
30
0.0000000000
10
143.2917679923
20
146.4001809661
30
0.0000000000
10
143.2927949508
20
146.6027970250
30
0.0000000000
10
143.2930012278
20
146.7433630989
30
0.0000000000
10
143.2930009436
20
146.8152670411
30
0.0000000000
11
143.2711536731
21
145.8498854022
31
0.0000000000
11
143.2794098962
21
145.9289429113
31
0.0000000000
11
143.2853326540
21
146.0500702366
31
0.0000000000
11
143.2892147053
21
146.2074401386
31
0.0000000000
11
143.2915055791
21
146.3935703612
31
0.0000000000
11
143.2926577441
21
146.5995554874
31
0.0000000000
11
143.2930009436
21
146.8152670411
31
0.0000000000
0
SPLINE
5
32F
100
AcDbEntity
8
0
100
AcDbSpline
62
9
6
CONTINUOUS
70
0
71
3
72
14
73
10
74
8
42
0.0000001000
43
0.0000001000
44
0.0000000001
12
0.0000037294
22
1.0012533508
32
0.0000000000
13
-0.7632615071
23
0.6480278885
33
0.0000000000
40
0.0000000000
40
0.0000000000
40
0.0000000000
40
0.0000000000
40
0.2154726004
40
0.4211879244
40
0.6070619461
40
0.7642981223
40
0.8854382577
40
0.9649502976
40
1.0000000000
40
1.0000000000
40
1.0000000000
40
1.0000000000
10
143.2930009436
20
147.7292619082
30
0.0000000000
10
143.2930012115
20
147.8011761293
30
0.0000000000
10
143.2928173000
20
147.9417724774
30
0.0000000000
10
143.2916964226
20
148.1442762239
30
0.0000000000
10
143.2898991548
20
148.3277564208
30
0.0000000000
10
143.2856573478
20
148.4817478214
30
0.0000000000
10
143.2824091069
20
148.6034074293
30
0.0000000000
10
143.2718175538
20
148.6772189216
30
0.0000000000
10
143.2693924973
20
148.7206455209
30
0.0000000000
10
143.2604751344
20
148.7282165825
30
0.0000000000
11
143.2930009436
21
147.7292619082
31
0.0000000000
11
143.2926576400
21
147.9450042983
31
0.0000000000
11
143.2915054262
21
148.1509742330
31
0.0000000000
11
143.2892150901
21
148.3370671263
31
0.0000000000
11
143.2853329389
21
148.4944525023
31
0.0000000000
11
143.2794086146
21
148.6155997001
31
0.0000000000
11
143.2711312427
21
148.6947799205
31
0.0000000000
11
143.2604751344
21
148.7282165825
31
0.0000000000
0
SPLINE
5
330
100
AcDbEntity
8
0
100
AcDbSpline
62
9
6
CONTINUOUS
70
0
71
3
72
25
73
21
74
19
42
0.0000001000
43
0.0000001000
44
0.0000000001
12
-14.3962405050
22
12.1537561732
32
0.0000000000
13
-18.8170631588
23
-0.9400339755
33
0.0000000000
40
0.0000000000
40
0.0000000000
40
0.0000000000
40
0.0000000000
40
0.0163060044
40
0.0421060151
40
0.0736209317
40
0.1084860165
40
0.1451452109
40
0.1831540754
40
0.2230770017
40
0.2664042234
40
0.3137271471
40
0.3635386079
40
0.4149057349
40
0.4691618631
40
0.5287412827
40
0.5961652040
40
0.6743535285
40
0.7659297247
40
0.8737106140
40
1.0000000000
40
1.0000000000
40
1.0000000000
40
1.0000000000
10
143.2604751344
20
148.7282165825
30
0.0000000000
10
143.1822267475
20
148.7942763163
30
0.0000000000
10
142.9144522957
20
148.8643953032
30
0.0000000000
10
142.4684332606
20
148.9567126277
30
0.0000000000
10
141.8910911766
20
149.0300750094
30
0.0000000000
10
141.2479679586
20
149.0934541603
30
0.0000000000
10
140.5615479034
20
149.1432314228
30
0.0000000000
10
139.8429650037
20
149.1816258087
30
0.0000000000
10
139.0818822576
20
149.2092761732
30
0.0000000000
10
138.2620107062
20
149.2262081765
30
0.0000000000
10
137.3798701091
20
149.2313747288
30
0.0000000000
10
136.4472574437
20
149.2244520062
30
0.0000000000
10
135.4712515023
20
149.2063667746
30
0.0000000000
10
134.4341294836
20
149.1779042944
30
0.0000000000
10
133.2964575067
20
149.1386605471
30
0.0000000000
10
132.0088403757
20
149.0872132649
30
0.0000000000
10
130.5206934123
20
149.0217060554
30
0.0000000000
10
128.7795677892
20
148.9401308906
30
0.0000000000
10
126.7368664134
20
148.8407422173
30
0.0000000000
10
125.2686750549
20
148.7677886870
30
0.0000000000
10
124.4765432705
20
148.7282165825
30
0.0000000000
11
143.2604751344
21
148.7282165825
31
0.0000000000
11
142.9767317622
21
148.8459874839
31
0.0000000000
11
142.5006765073
21
148.9442261998
31
0.0000000000
11
141.9123980839
21
149.0247041427
31
0.0000000000
11
141.2587370061
21
149.0896203496
31
0.0000000000
11
140.5699327222
21
149.1404691902
31
0.0000000000
11
139.8548629788
21
149.1790004301
31
0.0000000000
11
139.1032010840
21
149.2066169186
31
0.0000000000
11
138.2870734723
21
149.2237663642
31
0.0000000000
11
137.3955021100
21
149.2293603880
31
0.0000000000
11
136.4570506716
21
149.2228144201
31
0.0000000000
11
135.4894252265
21
149.2053055848
31
0.0000000000
11
134.4675844892
21
149.1776779894
31
0.0000000000
11
133.3457294675
21
149.1394024324
31
0.0000000000
11
132.0764227818
21
149.0891175265
31
0.0000000000
11
130.6047196825
21
149.0247649129
31
0.0000000000
11
128.8812475088
21
148.9444188838
31
0.0000000000
11
126.8529815730
21
148.8460700166
31
0.0000000000
11
124.4765432705
21
148.7282165825
31
0.0000000000
0
SPLINE
5
331
100
AcDbEntity
8
0
100
AcDbSpline
62
9
6
CONTINUOUS
70
0
71
3
72
14
73
10
74
8
42
0.0000001000
43
0.0000001000
44
0.0000000001
12
-1.4578617785
22
-0.0732125013
32
0.0000000000
13
-0.0002434658
23
-1.4596989334
33
0.0000000000
40
0.0000000000
40
0.0000000000
40
0.0000000000
40
0.0000000000
40
0.1365622781
40
0.2746846242
40
0.4150486610
40
0.5581225629
40
0.7037831704
40
0.8514694367
40
1.0000000000
40
1.0000000000
40
1.0000000000
40
1.0000000000
10
124.4765432705
20
148.7282165825
30
0.0000000000
10
124.4101802953
20
148.7248838938
30
0.0000000000
10
124.2769653661
20
148.7021826667
30
0.0000000000
10
124.0897733613
20
148.6218380964
30
0.0000000000
10
123.9231830962
20
148.4991734772
30
0.0000000000
10
123.7852169227
20
148.3403047648
30
0.0000000000
10
123.6821025088
20
148.1528994685
30
0.0000000000
10
123.6184313822
20
147.9460746552
30
0.0000000000
10
123.6041317937
20
147.8015318765
30
0.0000000000
10
123.6041197396
20
147.7292619082
30
0.0000000000
11
124.4765432705
21
148.7282165825
31
0.0000000000
11
124.2800277464
21
148.6947799199
31
0.0000000000
11
124.0946095031
21
148.6155996980
31
0.0000000000
11
123.9293734426
21
148.4944524984
31
0.0000000000
11
123.7920926952
21
148.3370671201
31
0.0000000000
11
123.6892483025
21
148.1509742241
31
0.0000000000
11
123.6256083893
21
147.9450042871
31
0.0000000000
11
123.6041197396
21
147.7292619082
31
0.0000000000
0
SPLINE
5
332
100
AcDbEntity
8
0
100
AcDbSpline
62
9
6
CONTINUOUS
70
0
71
3
72
13
73
9
74
7
42
0.0000001000
43
0.0000001000
44
0.0000000001
12
0.0002250975
22
-1.2598877381
32
0.0000000000
13
1.2082274555
23
-0.3570764330
33
0.0000000000
40
0.0000000000
40
0.0000000000
40
0.0000000000
40
0.0000000000
40
0.1720618498
40
0.3431815122
40
0.5119779346
40
0.6777299075
40
0.8403193051
40
1.0000000000
40
1.0000000000
40
1.0000000000
40
1.0000000000
10
123.6041197396
20
146.8152670411
30
0.0000000000
10
123.6041326499
20
146.7430075028
30
0.0000000000
10
123.6184280633
20
146.5984707861
30
0.0000000000
10
123.6820982340
20
146.3916350597
30
0.0000000000
10
123.7852130604
20
146.2042180815
30
0.0000000000
10
123.9232132045
20
146.0453572974
30
0.0000000000
10
124.0895440682
20
145.9227914909
30
0.0000000000
10
124.2152623928
20
145.8688914732
30
0.0000000000
10
124.2795725927
20
145.8498854022
30
0.0000000000
11
123.6041197396
21
146.8152670411
31
0.0000000000
11
123.6256020858
21
146.5995554787
31
0.0000000000
11
123.6892405490
21
146.3935703576
31
0.0000000000
11
123.7921081877
21
146.2074401394
31
0.0000000000
11
123.9293824265
21
146.0500702404
31
0.0000000000
11
124.0945774514
21
145.9289429168
31
0.0000000000
11
124.2795725927
21
145.8498854022
31
0.0000000000
0
SPLINE
5
333
100
AcDbEntity
8
0
100
AcDbSpline
62
9
6
CONTINUOUS
70
0
71
3
72
26
73
22
74
20
42
0.0000001000
43
0.0000001000
44
0.0000000001
12
19.7131691243
22
-5.8203203501
32
0.0000000000
13
3.3838180280
23
20.2739966818
33
0.0000000000
40
0.0000000000
40
0.0000000000
40
0.0000000000
40
0.0000000000
40
0.1172401877
40
0.2181390147
40
0.3043018670
40
0.3778235216
40
0.4408834218
40
0.4959880030
40
0.5453566213
40
0.5911244146
40
0.6351602508
40
0.6775287858
40
0.7173042779
40
0.7540177860
40
0.7891325812
40
0.8239193109
40
0.8590018789
40
0.8944347166
40
0.9298076397
40
0.9648706813
40
1.0000000000
40
1.0000000000
40
1.0000000000
40
1.0000000000
10
124.2795725927
20
145.8498854022
30
0.0000000000
10
125.0499644755
20
145.6224269188
30
0.0000000000
10
126.4839435628
20
145.2011538703
30
0.0000000000
10
128.4872793580
20
144.6235804299
30
0.0000000000
10
130.2070891552
20
144.1440299607
30
0.0000000000
10
131.6827379124
20
143.7544868473
30
0.0000000000
10
132.9591428249
20
143.4447364357
30
0.0000000000
10
134.0817290436
20
143.2043727411
30
0.0000000000
10
135.0955287261
20
143.0244591158
30
0.0000000000
10
136.0413043301
20
142.9000122090
30
0.0000000000
10
136.9449498713
20
142.8325077010
30
0.0000000000
10
137.8102632271
20
142.8276078818
30
0.0000000000
10
138.6233443256
20
142.8874405266
30
0.0000000000
10
139.3794192031
20
143.0076530278
30
0.0000000000
10
140.0890803674
20
143.1847249276
30
0.0000000000
10
140.7691531721
20
143.4223076588
30
0.0000000000
10
141.4241212891
20
143.7281573155
30
0.0000000000
10
142.0427891284
20
144.1108869756
30
0.0000000000
10
142.5996371629
20
144.5811483767
30
0.0000000000
10
143.0530709508
20
145.1525264600
30
0.0000000000
10
143.2315299325
20
145.6124815056
30
0.0000000000
10
143.2711536731
20
145.8498854022
30
0.0000000000
11
124.2795725927
21
145.8498854022
31
0.0000000000
11
126.5919772074
21
145.1716862943
31
0.0000000000
11
128.5851878756
21
144.5987531181
31
0.0000000000
11
130.2916817052
21
144.1250186329
31
0.0000000000
11
131.7533901180
21
143.7414510793
31
0.0000000000
11
133.0135244764
21
143.4379791474
31
0.0000000000
11
134.1215340450
21
143.2030381199
31
0.0000000000
11
135.1210534973
21
143.0279174195
31
0.0000000000
11
136.0540343506
21
142.9074078407
31
0.0000000000
11
136.9568179461
21
142.8422469002
31
0.0000000000
11
137.8276748265
21
142.8393565368
31
0.0000000000
11
138.6429221078
21
142.9008490614
31
0.0000000000
11
139.3880292349
21
143.0203286949
31
0.0000000000
11
140.0881165945
21
143.1958921744
31
0.0000000000
11
140.7627687826
21
143.4327480856
31
0.0000000000
11
141.4153580748
21
143.7395318607
31
0.0000000000
11
142.0328044209
21
144.1257755874
31
0.0000000000
11
142.5841334207
21
144.5997673939
31
0.0000000000
11
143.0220848942
21
145.1721386930
31
0.0000000000
11
143.2711536731
21
145.8498854022
31
0.0000000000
0
SPLINE
5
334
100
AcDbEntity
8
0
100
AcDbSpline
62
9
6
CONTINUOUS
70
0
71
3
72
13
73
9
74
7
42
0.0000001000
43
0.0000001000
44
0.0000000001
12
1.2082274520
22
0.3570764454
32
0.0000000000
13
0.0002251069
23
1.2598877382
33
0.0000000000
40
0.0000000000
40
0.0000000000
40
0.0000000000
40
0.0000000000
40
0.1596806868
40
0.3222700880
40
0.4880220646
40
0.6568184909
40
0.8279381573
40
1.0000000000
40
1.0000000000
40
1.0000000000
40
1.0000000000
10
169.7067912133
20
145.8498854022
30
0.0000000000
10
169.7711014097
20
145.8688914729
30
0.0000000000
10
169.8968197334
20
145.9227914873
30
0.0000000000
10
170.0631505973
20
146.0453572937
30
0.0000000000
10
170.2011507455
20
146.2042180804
30
0.0000000000
10
170.3042655735
20
146.3916350634
30
0.0000000000
10
170.3679357443
20
146.5984707903
30
0.0000000000
10
170.3822311556
20
146.7430075058
30
0.0000000000
10
170.3822440664
20
146.8152670411
30
0.0000000000
11
169.7067912133
21
145.8498854022
31
0.0000000000
11
169.8917863458
21
145.9289429113
31
0.0000000000
11
170.0569813752
21
146.0500702366
31
0.0000000000
11
170.1942556177
21
146.2074401386
31
0.0000000000
11
170.2971232585
21
146.3935703612
31
0.0000000000
11
170.3607617224
21
146.5995554874
31
0.0000000000
11
170.3822440664
21
146.8152670411
31
0.0000000000
0
SPLINE
5
335
100
AcDbEntity
8
0
100
AcDbSpline
62
9
6
CONTINUOUS
70
0
71
3
72
14
73
10
74
8
42
0.0000001000
43
0.0000001000
44
0.0000000001
12
-0.0002434541
22
1.4596989334
32
0.0000000000
13
-1.4578617786
23
0.0732124973
33
0.0000000000
40
0.0000000000
40
0.0000000000
40
0.0000000000
40
0.0000000000
40
0.1485305710
40
0.2962168360
40
0.4418774423
40
0.5849513430
40
0.7253153786
40
0.8634377236
40
1.0000000000
40
1.0000000000
40
1.0000000000
40
1.0000000000
10
170.3822440664
20
147.7292619082
30
0.0000000000
10
170.3822320129
20
147.8015318803
30
0.0000000000
10
170.3679324217
20
147.9460746621
30
0.0000000000
10
170.3042612938
20
148.1528994774
30
0.0000000000
10
170.2011468786
20
148.3403047711
30
0.0000000000
10
170.0631807054
20
148.4991734811
30
0.0000000000
10
169.8965904410
20
148.6218380984
30
0.0000000000
10
169.7093984377
20
148.7021826670
30
0.0000000000
10
169.5761835099
20
148.7248838941
30
0.0000000000
10
169.5098205355
20
148.7282165825
30
0.0000000000
11
170.3822440664
21
147.7292619082
31
0.0000000000
11
170.3607554140
21
147.9450042983
31
0.0000000000
11
170.2971154999
21
148.1509742330
31
0.0000000000
11
170.1942711064
21
148.3370671263
31
0.0000000000
11
170.0569903591
21
148.4944525023
31
0.0000000000
11
169.8917542993
21
148.6155997001
31
0.0000000000
11
169.7063360572
21
148.6947799205
31
0.0000000000
11
169.5098205355
21
148.7282165825
31
0.0000000000
0
SPLINE
5
336
100
AcDbEntity
8
0
100
AcDbSpline
62
9
6
CONTINUOUS
70
0
71
3
72
25
73
21
74
19
42
0.0000001000
43
0.0000001000
44
0.0000000001
12
-18.8170598103
22
0.9400345029
32
0.0000000000
13
-14.3962076047
23
-12.1537900005
33
0.0000000000
40
0.0000000000
40
0.0000000000
40
0.0000000000
40
0.0000000000
40
0.1264879840
40
0.2344109349
40
0.3261084172
40
0.4044890732
40
0.4721117789
40
0.5317139864
40
0.5859269546
40
0.6373213126
40
0.6872028928
40
0.7344445139
40
0.7775667681
40
0.8172427182
40
0.8550181692
40
0.8915018486
40
0.9262856177
40
0.9578269921
40
0.9836699566
40
1.0000000000
40
1.0000000000
40
1.0000000000
40
1.0000000000
10
169.5098205355
20
148.7282165825
30
0.0000000000
10
168.7164432156
20
148.7678509389
30
0.0000000000
10
167.2461153223
20
148.8409100885
30
0.0000000000
10
165.2005163331
20
148.9404336342
30
0.0000000000
10
163.4565316365
20
149.0221265542
30
0.0000000000
10
161.9651685402
20
149.0877412570
30
0.0000000000
10
160.6749516348
20
149.1392272356
30
0.0000000000
10
159.5361564841
20
149.1784083933
30
0.0000000000
10
158.4989879744
20
149.2067431539
30
0.0000000000
10
157.5226388439
20
149.2246752520
30
0.0000000000
10
156.5899237919
20
149.2313938468
30
0.0000000000
10
155.7091421505
20
149.2259991854
30
0.0000000000
10
154.8926236242
20
149.2089203228
30
0.0000000000
10
154.1358488877
20
149.1812648216
30
0.0000000000
10
153.4213845813
20
149.1429927029
30
0.0000000000
10
152.7380402604
20
149.0934037251
30
0.0000000000
10
152.0963533533
20
149.0301878811
30
0.0000000000
10
151.5190731044
20
148.9569035430
30
0.0000000000
10
151.0724884185
20
148.8645251331
30
0.0000000000
10
150.8042522364
20
148.7943738884
30
0.0000000000
10
150.7258886716
20
148.7282165825
30
0.0000000000
11
169.5098205355
21
148.7282165825
31
0.0000000000
11
167.1296454690
21
148.8462536015
31
0.0000000000
11
165.0987061474
21
148.9447244980
31
0.0000000000
11
163.3729508203
21
149.0251588534
31
0.0000000000
11
161.8976261843
21
149.0896325132
31
0.0000000000
11
160.6245747356
21
149.1399969477
31
0.0000000000
11
159.5022873473
21
149.1781851175
31
0.0000000000
11
158.4812562072
21
149.2056630587
31
0.0000000000
11
157.5131150976
21
149.2230217113
31
0.0000000000
11
156.5733413427
21
149.2293688943
31
0.0000000000
11
155.6833034115
21
149.2235470700
31
0.0000000000
11
154.8710412850
21
149.2062660782
31
0.0000000000
11
154.1240353320
21
149.1786633982
31
0.0000000000
11
153.4133620453
21
149.1402748467
31
0.0000000000
11
152.7278578748
21
149.0896400808
31
0.0000000000
11
152.0757183507
21
149.0249064223
31
0.0000000000
11
151.4869365631
21
148.9444310624
31
0.0000000000
11
151.0100726363
21
148.8461072563
31
0.0000000000
11
150.7258886716
21
148.7282165825
31
0.0000000000
0
SPLINE
5
337
100
AcDbEntity
8
0
100
AcDbSpline
62
9
6
CONTINUOUS
70
0
71
3
72
14
73
10
74
8
42
0.0000001000
43
0.0000001000
44
0.0000000001
12
-0.7632614894
22
-0.6480279093
32
0.0000000000
13
0.0000037293
23
-1.0012533508
33
0.0000000000
40
0.0000000000
40
0.0000000000
40
0.0000000000
40
0.0000000000
40
0.0350497031
40
0.1145617444
40
0.2357018817
40
0.3929380602
40
0.5788120844
40
0.7845274107
40
1.0000000000
40
1.0000000000
40
1.0000000000
40
1.0000000000
10
150.7258886716
20
148.7282165825
30
0.0000000000
10
150.7169713087
20
148.7206455206
30
0.0000000000
10
150.7145462519
20
148.6772189209
30
0.0000000000
10
150.7039546990
20
148.6034074270
30
0.0000000000
10
150.7007064580
20
148.4817478174
30
0.0000000000
10
150.6964646511
20
148.3277564144
30
0.0000000000
10
150.6946673834
20
148.1442762151
30
0.0000000000
10
150.6935465060
20
147.9417724707
30
0.0000000000
10
150.6933625945
20
147.8011761256
30
0.0000000000
10
150.6933628624
20
147.7292619082
30
0.0000000000
11
150.7258886716
21
148.7282165825
31
0.0000000000
11
150.7152325631
21
148.6947799199
31
0.0000000000
11
150.7069551913
21
148.6155996980
31
0.0000000000
11
150.7010308670
21
148.4944524984
31
0.0000000000
11
150.6971487158
21
148.3370671201
31
0.0000000000
11
150.6948583797
21
148.1509742241
31
0.0000000000
11
150.6937061660
21
147.9450042871
31
0.0000000000
11
150.6933628624
21
147.7292619082
31
0.0000000000
0
SPLINE
5
338
100
AcDbEntity
8
0
100
AcDbSpline
62
9
6
CONTINUOUS
70
0
71
3
72
13
73
9
74
7
42
0.0000001000
43
0.0000001000
44
0.0000000001
12
-0.0000038189
22
-0.9660217646
32
0.0000000000
13
0.1588173536
23
-0.9528772732
33
0.0000000000
40
0.0000000000
40
0.0000000000
40
0.0000000000
40
0.0000000000
40
0.2232991464
40
0.4365327928
40
0.6292244302
40
0.7921791164
40
0.9177167016
40
1.0000000000
40
1.0000000000
40
1.0000000000
40
1.0000000000
10
150.6933628624
20
146.8152670411
30
0.0000000000
10
150.6933625781
20
146.7433630959
30
0.0000000000
10
150.6935688553
20
146.6027970208
30
0.0000000000
10
150.6945958137
20
146.4001809623
30
0.0000000000
10
150.6966867375
20
146.2170172555
30
0.0000000000
10
150.7000825979
20
146.0620771215
30
0.0000000000
10
150.7054565404
20
145.9428547541
30
0.0000000000
10
150.7108541277
20
145.8760206972
30
0.0000000000
10
150.7152101329
20
145.8498854022
30
0.0000000000
11
150.6933628624
21
146.8152670411
31
0.0000000000
11
150.6937060619
21
146.5995554787
31
0.0000000000
11
150.6948582270
21
146.3935703576
31
0.0000000000
11
150.6971491007
21
146.2074401394
31
0.0000000000
11
150.7010311519
21
146.0500702404
31
0.0000000000
11
150.7069539094
21
145.9289429168
31
0.0000000000
11
150.7152101329
21
145.8498854022
31
0.0000000000
0
SPLINE
5
339
100
AcDbEntity
8
0
100
AcDbSpline
62
9
6
CONTINUOUS
70
0
71
3
72
26
73
22
74
20
42
0.0000001000
43
0.0000001000
44
0.0000000001
12
3.3838386301
22
-20.2739962318
32
0.0000000000
13
19.7131724365
23
5.8203195416
33
0.0000000000
40
0.0000000000
40
0.0000000000
40
0.0000000000
40
0.0000000000
40
0.0351554317
40
0.0702470691
40
0.1056329156
40
0.1409787276
40
0.1758851722
40
0.2104472804
40
0.2453247947
40
0.2818307688
40
0.3214913007
40
0.3638972660
40
0.4080353751
40
0.4537978037
40
0.5031230059
40
0.5582837271
40
0.6215409733
40
0.6951897263
40
0.7813503730
40
0.8823411013
40
1.0000000000
40
1.0000000000
40
1.0000000000
40
1.0000000000
10
150.7152101329
20
145.8498854022
30
0.0000000000
10
150.7548635689
20
145.6123050391
30
0.0000000000
10
150.9335387568
20
145.1520046516
30
0.0000000000
10
151.3874380865
20
144.5803950176
30
0.0000000000
10
151.9441849600
20
144.1105015539
30
0.0000000000
10
152.5614080074
20
143.7287261469
30
0.0000000000
10
153.2132249442
20
143.4240718118
30
0.0000000000
10
153.8889509028
20
143.1873582836
30
0.0000000000
10
154.5939046288
20
143.0104361989
30
0.0000000000
10
155.3459669460
20
142.8894923158
30
0.0000000000
10
156.1569823261
20
142.8282433986
30
0.0000000000
10
157.0224815803
20
142.8316758121
30
0.0000000000
10
157.9271388746
20
142.8981098933
30
0.0000000000
10
158.8733959280
20
143.0217346525
30
0.0000000000
10
159.8873729918
20
143.2009521825
30
0.0000000000
10
161.0114839252
20
143.4410833457
30
0.0000000000
10
162.2905058083
20
143.7511170447
30
0.0000000000
10
163.7683386841
20
144.1410403621
30
0.0000000000
10
165.4896105069
20
144.6208796495
30
0.0000000000
10
167.4963103163
20
145.1993607320
30
0.0000000000
10
168.9336478273
20
145.6216146065
30
0.0000000000
10
169.7067912133
20
145.8498854022
30
0.0000000000
11
150.7152101329
21
145.8498854022
31
0.0000000000
11
150.9645502080
21
145.1716664536
31
0.0000000000
11
151.4030200600
21
144.5989516061
31
0.0000000000
11
151.9546935197
21
144.1249528915
31
0.0000000000
11
152.5706611460
21
143.7397180075
31
0.0000000000
11
153.2198747327
21
143.4342624631
31
0.0000000000
11
153.8899722633
21
143.1983714130
31
0.0000000000
11
154.5850922274
21
143.0230526620
31
0.0000000000
11
155.3257776487
21
142.9029468988
31
0.0000000000
11
156.1385505078
21
142.8400835405
31
0.0000000000
11
157.0101805242
21
142.8414969932
31
0.0000000000
11
157.9151435184
21
142.9056551719
31
0.0000000000
11
158.8481264981
21
143.0252853968
31
0.0000000000
11
159.8468897723
21
143.1995504477
31
0.0000000000
11
160.9561436877
21
143.4341861512
31
0.0000000000
11
162.2203069270
21
143.7382542240
31
0.0000000000
11
163.6845942779
21
144.1222872963
31
0.0000000000
11
165.3910769300
21
144.5958934934
31
0.0000000000
11
167.3861222534
21
145.1692828441
31
0.0000000000
11
169.7067912133
21
145.8498854022
31
0.0000000000
0
SPLINE
5
33A
100
AcDbEntity
8
0
100
AcDbSpline
62
9
6
CONTINUOUS
70
0
71
3
72
15
73
11
74
9
42
0.0000001000
43
0.0000001000
44
0.0000000001
12
3.3370001305
22
-0.0807978045
32
0.0000000000
13
3.3374196060
23
0.0610616893
33
0.0000000000
40
0.0000000000
40
0.0000000000
40
0.0000000000
40
0.0000000000
40
0.0752857418
40
0.1614678165
40
0.2600982205
40
0.3727358264
40
0.5008034867
40
0.6463902838
40
0.8121457324
40
1.0000000000
40
1.0000000000
40
1.0000000000
40
1.0000000000
10
136.7383200637
20
140.9921122583
30
0.0000000000
10
136.8220629072
20
140.9900846175
30
0.0000000000
10
137.0017208804
20
140.9878702000
30
0.0000000000
10
137.2911243669
20
140.9885334065
30
0.0000000000
10
137.6220724176
20
140.9914527629
30
0.0000000000
10
137.9996257030
20
140.9945068016
30
0.0000000000
10
138.4294408145
20
140.9952614077
30
0.0000000000
10
138.9183497609
20
140.9922731492
30
0.0000000000
10
139.4737558546
20
140.9874494192
30
0.0000000000
10
139.8672428083
20
140.9882890455
30
0.0000000000
10
140.0762256469
20
140.9921126118
30
0.0000000000
11
136.7383200637
21
140.9921122583
31
0.0000000000
11
136.9895975477
21
140.9885905489
31
0.0000000000
11
137.2772713584
21
140.9887936264
31
0.0000000000
11
137.6064881202
21
140.9912777809
31
0.0000000000
11
137.9824601582
21
140.9939965145
31
0.0000000000
11
138.4099466277
21
140.9947025141
31
0.0000000000
11
138.8959058117
21
140.9922154444
31
0.0000000000
11
139.4491820539
21
140.9885982476
31
0.0000000000
11
140.0762256469
21
140.9921126118
31
0.0000000000
0
SPLINE
5
33B
100
AcDbEntity
8
0
100
AcDbSpline
62
9
6
CONTINUOUS
70
0
71
3
72
12
73
8
74
6
42
0.0000001000
43
0.0000001000
44
0.0000000001
12
-3.0209671940
22
0.0952671549
32
0.0000000000
13
-0.0398669507
23
3.0222060228
33
0.0000000000
40
0.0000000000
40
0.0000000000
40
0.0000000000
40
0.0000000000
40
0.2027649412
40
0.4048911048
40
0.6053123494
40
0.8035707854
40
1.0000000000
40
1.0000000000
40
1.0000000000
40
1.0000000000
10
145.2290664414
20
143.9191212382
30
0.0000000000
10
145.0248843629
20
143.9255601846
30
0.0000000000
10
144.6165447284
20
143.9997068017
30
0.0000000000
10
144.0669803042
20
144.2835277333
30
0.0000000000
10
143.6285043973
20
144.7145426059
30
0.0000000000
10
143.3433781211
20
145.2524867739
30
0.0000000000
10
143.2737615477
20
145.6520022171
30
0.0000000000
10
143.2711512031
20
145.8498854023
30
0.0000000000
11
145.2290664414
21
143.9191212382
31
0.0000000000
11
144.6261171964
21
144.0288401470
31
0.0000000000
11
144.0835068795
21
144.3095488183
31
0.0000000000
11
143.6521847262
21
144.7348896784
31
0.0000000000
11
143.3726503978
21
145.2649246914
31
0.0000000000
11
143.2711512031
21
145.8498854023
31
0.0000000000
0
SPLINE
5
33C
100
AcDbEntity
8
0
100
AcDbSpline
62
9
6
CONTINUOUS
70
0
71
3
72
12
73
8
74
6
42
0.0000001000
43
0.0000001000
44
0.0000000001
12
-1.5664523521
22
1.2105816231
32
0.0000000000
13
0.5120360622
23
1.9123545458
33
0.0000000000
40
0.0000000000
40
0.0000000000
40
0.0000000000
40
0.0000000000
40
0.0554207804
40
0.1993206856
40
0.4192322433
40
0.6947148673
40
1.0000000000
40
1.0000000000
40
1.0000000000
40
1.0000000000
10
123.8578267231
20
143.9191526992
30
0.0000000000
10
123.8288887192
20
143.9415164920
30
0.0000000000
10
123.8878403746
20
144.1052631244
30
0.0000000000
10
123.9001897553
20
144.3488593031
30
0.0000000000
10
124.0113963572
20
144.7751481617
30
0.0000000000
10
124.1289771609
20
145.2829232685
30
0.0000000000
10
124.2274668736
20
145.6552809318
30
0.0000000000
10
124.2795725393
20
145.8498854022
30
0.0000000000
11
123.8578267231
21
143.9191526992
31
0.0000000000
11
123.8575678567
21
144.0288698750
31
0.0000000000
11
123.9061749443
21
144.3095736610
31
0.0000000000
11
123.9990840224
21
144.7349071879
31
0.0000000000
11
124.1275713517
21
145.2649334881
31
0.0000000000
11
124.2795725393
21
145.8498854022
31
0.0000000000
0
SPLINE
5
33D
100
AcDbEntity
8
0
100
AcDbSpline
62
9
6
CONTINUOUS
70
0
71
3
72
12
73
8
74
6
42
0.0000001000
43
0.0000001000
44
0.0000000001
12
-1.9928904484
22
-0.2105559764
32
0.0000000000
13
0.0905976732
23
-2.0019336203
33
0.0000000000
40
0.0000000000
40
0.0000000000
40
0.0000000000
40
0.0000000000
40
0.0527574316
40
0.1953601835
40
0.4157618594
40
0.6928946430
40
1.0000000000
40
1.0000000000
40
1.0000000000
40
1.0000000000
10
124.5035092422
20
150.7261257526
30
0.0000000000
10
124.4684626484
20
150.7224229551
30
0.0000000000
10
124.4784599795
20
150.5307924694
30
0.0000000000
10
124.4380690011
20
150.3086079836
30
0.0000000000
10
124.4478556826
20
149.8524181722
30
0.0000000000
10
124.4517233794
20
149.3260608527
30
0.0000000000
10
124.4672687288
20
148.9331514289
30
0.0000000000
10
124.4765430724
20
148.7282165825
30
0.0000000000
11
124.5035092422
21
150.7261257526
31
0.0000000000
11
124.4717490513
21
150.6252839939
31
0.0000000000
11
124.4519258857
21
150.3401989270
31
0.0000000000
11
124.4459649738
21
149.8985580351
31
0.0000000000
11
124.4544452379
21
149.3432535148
31
0.0000000000
11
124.4765430724
21
148.7282165825
31
0.0000000000
0
SPLINE
5
33E
100
AcDbEntity
8
0
100
AcDbSpline
62
9
6
CONTINUOUS
70
0
71
3
72
12
73
8
74
6
42
0.0000001000
43
0.0000001000
44
0.0000000001
12
-3.1147190723
22
-0.0193793925
32
0.0000000000
13
-0.0083588237
23
-3.1147681439
33
0.0000000000
40
0.0000000000
40
0.0000000000
40
0.0000000000
40
0.0000000000
40
0.1998437014
40
0.3998458528
40
0.5999396354
40
0.8000235986
40
1.0000000000
40
1.0000000000
40
1.0000000000
40
1.0000000000
10
145.2499189509
20
150.7260980681
30
0.0000000000
10
145.0424332882
20
150.7248071183
30
0.0000000000
10
144.6248172872
20
150.6563741059
30
0.0000000000
10
144.0624216504
20
150.3666302460
30
0.0000000000
10
143.6154172629
20
149.9176988068
30
0.0000000000
10
143.3279199065
20
149.3539168031
30
0.0000000000
10
143.2610311818
20
148.9358432907
30
0.0000000000
10
143.2604739926
20
148.7282165825
30
0.0000000000
11
145.2499189509
21
150.7260980681
31
0.0000000000
11
144.6356723901
21
150.6252572848
31
0.0000000000
11
144.0817669796
21
150.3401763075
31
0.0000000000
11
143.6419975445
21
149.8985419633
31
0.0000000000
11
143.3590741207
21
149.3432454100
31
0.0000000000
11
143.2604739926
21
148.7282165825
31
0.0000000000
0
SPLINE
5
33F
100
AcDbEntity
8
0
100
AcDbSpline
62
9
6
CONTINUOUS
70
0
71
3
72
12
73
8
74
6
42
0.0000001000
43
0.0000001000
44
0.0000000001
12
3.0209392822
22
0.0952665770
32
0.0000000000
13
0.0398894570
23
3.0221778073
33
0.0000000000
40
0.0000000000
40
0.0000000000
40
0.0000000000
40
0.0000000000
40
0.2027657828
40
0.4048924651
40
0.6053137206
40
0.8035716461
40
1.0000000000
40
1.0000000000
40
1.0000000000
40
1.0000000000
10
148.7572967186
20
143.9191526992
30
0.0000000000
10
148.9614777581
20
143.9255916332
30
0.0000000000
10
149.3698149535
20
143.9997369338
30
0.0000000000
10
149.9193770497
20
144.2835525662
30
0.0000000000
10
150.3578524492
20
144.7145597323
30
0.0000000000
10
150.6429803693
20
145.2524950900
30
0.0000000000
10
150.7125994113
20
145.6520049316
30
0.0000000000
10
150.7152112181
20
145.8498854022
30
0.0000000000
11
148.7572967186
21
143.9191526992
31
0.0000000000
11
149.3602431110
21
144.0288698750
31
0.0000000000
11
149.9028513673
21
144.3095736610
31
0.0000000000
11
150.3341729407
21
144.7349071879
31
0.0000000000
11
150.6137086177
21
145.2649334881
31
0.0000000000
11
150.7152112181
21
145.8498854022
31
0.0000000000
0
SPLINE
5
340
100
AcDbEntity
8
0
100
AcDbSpline
62
9
6
CONTINUOUS
70
0
71
3
72
12
73
8
74
6
42
0.0000001000
43
0.0000001000
44
0.0000000001
12
3.1147454382
22
-0.0193760861
32
0.0000000000
13
0.0083390470
23
-3.1147945418
33
0.0000000000
40
0.0000000000
40
0.0000000000
40
0.0000000000
40
0.0000000000
40
0.1998429790
40
0.3998446841
40
0.5999384656
40
0.8000228739
40
1.0000000000
40
1.0000000000
40
1.0000000000
40
1.0000000000
10
148.7364449526
20
150.7261257534
30
0.0000000000
10
148.9439316217
20
150.7248350284
30
0.0000000000
10
149.3615500676
20
150.6564012255
30
0.0000000000
10
149.9239482256
20
150.3666528576
30
0.0000000000
10
150.3709534183
20
149.9177145212
30
0.0000000000
10
150.6584495380
20
149.3539244930
30
0.0000000000
10
150.7253361251
20
148.9358458028
30
0.0000000000
10
150.7258919979
20
148.7282165825
30
0.0000000000
11
148.7364449526
21
150.7261257534
31
0.0000000000
11
149.3506944076
21
150.6252839890
31
0.0000000000
11
149.9046020745
21
150.3401989196
31
0.0000000000
11
150.3443724001
21
149.8985580283
31
0.0000000000
11
150.6272948579
21
149.3432535108
31
0.0000000000
11
150.7258919979
21
148.7282165825
31
0.0000000000
0
SPLINE
5
341
100
AcDbEntity
8
0
100
AcDbSpline
62
9
6
CONTINUOUS
70
0
71
3
72
12
73
8
74
6
42
0.0000001000
43
0.0000001000
44
0.0000000001
12
1.9928594842
22
-0.2105875320
32
0.0000000000
13
-0.0905980255
23
-2.0019060995
33
0.0000000000
40
0.0000000000
40
0.0000000000
40
0.0000000000
40
0.0000000000
40
0.0527577516
40
0.1953604359
40
0.4157618686
40
0.6928944759
40
1.0000000000
40
1.0000000000
40
1.0000000000
40
1.0000000000
10
169.4828532955
20
150.7260980681
30
0.0000000000
10
169.5178995573
20
150.7223946932
30
0.0000000000
10
169.5079038835
20
150.5307683774
30
0.0000000000
10
169.5482939153
20
150.3085852827
30
0.0000000000
10
169.5385081557
20
149.8524029445
30
0.0000000000
10
169.5346403064
20
149.3260526670
30
0.0000000000
10
169.5190949879
20
148.9331487290
30
0.0000000000
10
169.5098206032
20
148.7282165884
30
0.0000000000
11
169.4828532955
21
150.7260980681
31
0.0000000000
11
169.5146138923
21
150.6252572848
31
0.0000000000
11
169.5344374334
21
150.3401763075
31
0.0000000000
11
169.5403986251
21
149.8985419633
31
0.0000000000
11
169.5319184909
21
149.3432454100
31
0.0000000000
11
169.5098206032
21
148.7282165884
31
0.0000000000
0
SPLINE
5
342
100
AcDbEntity
8
0
100
AcDbSpline
62
9
6
CONTINUOUS
70
0
71
3
72
15
73
11
74
9
42
0.0000001000
43
0.0000001000
44
0.0000000001
12
3.3374202656
22
-0.0609572246
32
0.0000000000
13
3.3369996571
23
0.0807657167
33
0.0000000000
40
0.0000000000
40
0.0000000000
40
0.0000000000
40
0.0000000000
40
0.1927712662
40
0.3598678061
40
0.5051081933
40
0.6319828814
40
0.7431560141
40
0.8404841984
40
0.9255918683
40
1.0000000000
40
1.0000000000
40
1.0000000000
40
1.0000000000
10
153.9101388608
20
140.9921130849
30
0.0000000000
10
154.1245917709
20
140.9881961511
30
0.0000000000
10
154.5250438349
20
140.9874972400
30
0.0000000000
10
155.0870257846
20
140.9924482189
30
0.0000000000
10
155.5757151168
20
140.9952978439
30
0.0000000000
10
156.0021873584
20
140.9944127040
30
0.0000000000
10
156.3753343642
20
140.9913440811
30
0.0000000000
10
156.7020089595
20
140.9884942822
30
0.0000000000
10
156.9877916568
20
140.9878974860
30
0.0000000000
10
157.1652771111
20
140.9901088241
30
0.0000000000
10
157.2480437478
20
140.9921120328
30
0.0000000000
11
153.9101388608
21
140.9921130849
31
0.0000000000
11
154.5535956302
21
140.9886600832
31
0.0000000000
11
155.1113477081
21
140.9923662154
31
0.0000000000
11
155.5961509790
21
140.9947350154
31
0.0000000000
11
156.0196549617
21
140.9939138803
31
0.0000000000
11
156.3907382731
21
140.9911844262
31
0.0000000000
11
156.7156084504
21
140.9887589981
31
0.0000000000
11
156.9996958467
21
140.9886076187
31
0.0000000000
11
157.2480437478
21
140.9921120328
31
0.0000000000
0
SPLINE
5
343
100
AcDbEntity
8
0
100
AcDbSpline
62
9
6
CONTINUOUS
70
0
71
3
72
12
73
8
74
6
42
0.0000001000
43
0.0000001000
44
0.0000000001
12
1.5664708429
22
1.2106106967
32
0.0000000000
13
-0.5120435492
23
1.9123860918
33
0.0000000000
40
0.0000000000
40
0.0000000000
40
0.0000000000
40
0.0000000000
40
0.0554207477
40
0.1993208524
40
0.4192326415
40
0.6947152961
40
1.0000000000
40
1.0000000000
40
1.0000000000
40
1.0000000000
10
170.1285455657
20
143.9191212378
30
0.0000000000
10
170.1574838942
20
143.9414855545
30
0.0000000000
10
170.0985300627
20
144.1052346279
30
0.0000000000
10
170.0861806303
20
144.3488351804
30
0.0000000000
10
169.9749715179
20
144.7751311318
30
0.0000000000
10
169.8573888635
20
145.2829144774
30
0.0000000000
10
169.7588976894
20
145.6552779950
30
0.0000000000
10
169.7067913350
20
145.8498854023
30
0.0000000000
11
170.1285455657
21
143.9191212378
31
0.0000000000
11
170.1288037480
21
144.0288401467
31
0.0000000000
11
170.0801952254
21
144.3095488181
31
0.0000000000
11
169.9872841757
21
144.7348896783
31
0.0000000000
11
169.8587946344
21
145.2649246914
31
0.0000000000
11
169.7067913350
21
145.8498854023
31
0.0000000000
0
SPLINE
5
344
100
AcDbEntity
8
0
100
AcDbSpline
62
9
6
CONTINUOUS
70
0
71
3
72
12
73
8
74
6
42
0.0000001000
43
0.0000001000
44
0.0000000001
12
1.5664523382
22
1.2105816124
32
0.0000000000
13
-0.5120360574
23
1.9123545294
33
0.0000000000
40
0.0000000000
40
0.0000000000
40
0.0000000000
40
0.0000000000
40
0.0554207809
40
0.1993206873
40
0.4192322470
40
0.6947148734
40
1.0000000000
40
1.0000000000
40
1.0000000000
40
1.0000000000
10
170.1285370829
20
143.9191526992
30
0.0000000000
10
170.1574750868
20
143.9415164920
30
0.0000000000
10
170.0985234314
20
144.1052631244
30
0.0000000000
10
170.0861740507
20
144.3488593031
30
0.0000000000
10
169.9749674488
20
144.7751481617
30
0.0000000000
10
169.8573866464
20
145.2829232628
30
0.0000000000
10
169.7588969355
20
145.6552809203
30
0.0000000000
10
169.7067912713
20
145.8498853852
30
0.0000000000
11
170.1285370829
21
143.9191526992
31
0.0000000000
11
170.1287959493
21
144.0288698750
31
0.0000000000
11
170.0801888617
21
144.3095736610
31
0.0000000000
11
169.9872797836
21
144.7349071879
31
0.0000000000
11
169.8587924543
21
145.2649334881
31
0.0000000000
11
169.7067912713
21
145.8498853852
31
0.0000000000
0
SPLINE
5
345
100
AcDbEntity
8
0
100
AcDbSpline
62
9
6
CONTINUOUS
70
0
71
3
72
12
73
8
74
6
42
0.0000001000
43
0.0000001000
44
0.0000000001
12
1.9928904484
22
-0.2105559764
32
0.0000000000
13
-0.0905976732
23
-2.0019336203
33
0.0000000000
40
0.0000000000
40
0.0000000000
40
0.0000000000
40
0.0000000000
40
0.0527574316
40
0.1953601835
40
0.4157618594
40
0.6928946430
40
1.0000000000
40
1.0000000000
40
1.0000000000
40
1.0000000000
10
169.4828545638
20
150.7261257526
30
0.0000000000
10
169.5179011576
20
150.7224229551
30
0.0000000000
10
169.5079038265
20
150.5307924694
30
0.0000000000
10
169.5482948049
20
150.3086079836
30
0.0000000000
10
169.5385081234
20
149.8524181722
30
0.0000000000
10
169.5346404266
20
149.3260608527
30
0.0000000000
10
169.5190950772
20
148.9331514289
30
0.0000000000
10
169.5098207336
20
148.7282165825
30
0.0000000000
11
169.4828545638
21
150.7261257526
31
0.0000000000
11
169.5146147547
21
150.6252839939
31
0.0000000000
11
169.5344379203
21
150.3401989270
31
0.0000000000
11
169.5403988322
21
149.8985580351
31
0.0000000000
11
169.5319185681
21
149.3432535148
31
0.0000000000
11
169.5098207336
21
148.7282165825
31
0.0000000000
0
SPLINE
5
346
100
AcDbEntity
8
0
100
AcDbSpline
62
9
6
CONTINUOUS
70
0
71
3
72
12
73
8
74
6
42
0.0000001000
43
0.0000001000
44
0.0000000001
12
3.1147190723
22
-0.0193793925
32
0.0000000000
13
0.0083588237
23
-3.1147681439
33
0.0000000000
40
0.0000000000
40
0.0000000000
40
0.0000000000
40
0.0000000000
40
0.1998437014
40
0.3998458528
40
0.5999396354
40
0.8000235986
40
1.0000000000
40
1.0000000000
40
1.0000000000
40
1.0000000000
10
148.7364448551
20
150.7260980681
30
0.0000000000
10
148.9439305178
20
150.7248071183
30
0.0000000000
10
149.3615465188
20
150.6563741059
30
0.0000000000
10
149.9239421556
20
150.3666302460
30
0.0000000000
10
150.3709465431
20
149.9176988068
30
0.0000000000
10
150.6584438995
20
149.3539168031
30
0.0000000000
10
150.7253326242
20
148.9358432907
30
0.0000000000
10
150.7258898134
20
148.7282165825
30
0.0000000000
11
148.7364448551
21
150.7260980681
31
0.0000000000
11
149.3506914159
21
150.6252572848
31
0.0000000000
11
149.9045968264
21
150.3401763075
31
0.0000000000
11
150.3443662615
21
149.8985419633
31
0.0000000000
11
150.6272896853
21
149.3432454100
31
0.0000000000
11
150.7258898134
21
148.7282165825
31
0.0000000000
0
SPLINE
5
347
100
AcDbEntity
8
0
100
AcDbSpline
62
9
6
CONTINUOUS
70
0
71
3
72
15
73
11
74
9
42
0.0000001000
43
0.0000001000
44
0.0000000001
12
-3.3370001305
22
-0.0807978045
32
0.0000000000
13
-3.3374196060
23
0.0610616893
33
0.0000000000
40
0.0000000000
40
0.0000000000
40
0.0000000000
40
0.0000000000
40
0.0752857418
40
0.1614678165
40
0.2600982205
40
0.3727358264
40
0.5008034867
40
0.6463902838
40
0.8121457324
40
1.0000000000
40
1.0000000000
40
1.0000000000
40
1.0000000000
10
157.2480437423
20
140.9921122583
30
0.0000000000
10
157.1643008988
20
140.9900846175
30
0.0000000000
10
156.9846429256
20
140.9878702000
30
0.0000000000
10
156.6952394390
20
140.9885334065
30
0.0000000000
10
156.3642913884
20
140.9914527629
30
0.0000000000
10
155.9867381030
20
140.9945068016
30
0.0000000000
10
155.5569229915
20
140.9952614077
30
0.0000000000
10
155.0680140451
20
140.9922731492
30
0.0000000000
10
154.5126079514
20
140.9874494192
30
0.0000000000
10
154.1191209977
20
140.9882890455
30
0.0000000000
10
153.9101381591
20
140.9921126118
30
0.0000000000
11
157.2480437423
21
140.9921122583
31
0.0000000000
11
156.9967662583
21
140.9885905489
31
0.0000000000
11
156.7090924476
21
140.9887936264
31
0.0000000000
11
156.3798756858
21
140.9912777809
31
0.0000000000
11
156.0039036478
21
140.9939965145
31
0.0000000000
11
155.5764171783
21
140.9947025141
31
0.0000000000
11
155.0904579943
21
140.9922154444
31
0.0000000000
11
154.5371817521
21
140.9885982476
31
0.0000000000
11
153.9101381591
21
140.9921126118
31
0.0000000000
0
SPLINE
5
348
100
AcDbEntity
8
0
100
AcDbSpline
62
9
6
CONTINUOUS
70
0
71
3
72
12
73
8
74
6
42
0.0000001000
43
0.0000001000
44
0.0000000001
12
3.0209671940
22
0.0952671549
32
0.0000000000
13
0.0398669507
23
3.0222060228
33
0.0000000000
40
0.0000000000
40
0.0000000000
40
0.0000000000
40
0.0000000000
40
0.2027649412
40
0.4048911048
40
0.6053123494
40
0.8035707854
40
1.0000000000
40
1.0000000000
40
1.0000000000
40
1.0000000000
10
148.7572973646
20
143.9191212382
30
0.0000000000
10
148.9614794431
20
143.9255601846
30
0.0000000000
10
149.3698190776
20
143.9997068017
30
0.0000000000
10
149.9193835018
20
144.2835277333
30
0.0000000000
10
150.3578594087
20
144.7145426059
30
0.0000000000
10
150.6429856849
20
145.2524867739
30
0.0000000000
10
150.7126022583
20
145.6520022171
30
0.0000000000
10
150.7152126029
20
145.8498854023
30
0.0000000000
11
148.7572973646
21
143.9191212382
31
0.0000000000
11
149.3602466096
21
144.0288401470
31
0.0000000000
11
149.9028569265
21
144.3095488183
31
0.0000000000
11
150.3341790798
21
144.7348896784
31
0.0000000000
11
150.6137134082
21
145.2649246914
31
0.0000000000
11
150.7152126029
21
145.8498854023
31
0.0000000000
0
SPLINE
5
349
100
AcDbEntity
8
0
100
AcDbSpline
62
9
6
CONTINUOUS
70
0
71
3
72
12
73
8
74
6
42
0.0000001000
43
0.0000001000
44
0.0000000001
12
-3.0209392822
22
0.0952665770
32
0.0000000000
13
-0.0398894570
23
3.0221778073
33
0.0000000000
40
0.0000000000
40
0.0000000000
40
0.0000000000
40
0.0000000000
40
0.2027657828
40
0.4048924651
40
0.6053137206
40
0.8035716461
40
1.0000000000
40
1.0000000000
40
1.0000000000
40
1.0000000000
10
145.2290670874
20
143.9191526992
30
0.0000000000
10
145.0248860479
20
143.9255916332
30
0.0000000000
10
144.6165488525
20
143.9997369338
30
0.0000000000
10
144.0669867563
20
144.2835525662
30
0.0000000000
10
143.6285113568
20
144.7145597323
30
0.0000000000
10
143.3433834367
20
145.2524950900
30
0.0000000000
10
143.2737643947
20
145.6520049316
30
0.0000000000
10
143.2711525879
20
145.8498854022
30
0.0000000000
11
145.2290670874
21
143.9191526992
31
0.0000000000
11
144.6261206950
21
144.0288698750
31
0.0000000000
11
144.0835124387
21
144.3095736610
31
0.0000000000
11
143.6521908653
21
144.7349071879
31
0.0000000000
11
143.3726551883
21
145.2649334881
31
0.0000000000
11
143.2711525879
21
145.8498854022
31
0.0000000000
0
SPLINE
5
34A
100
AcDbEntity
8
0
100
AcDbSpline
62
9
6
CONTINUOUS
70
0
71
3
72
12
73
8
74
6
42
0.0000001000
43
0.0000001000
44
0.0000000001
12
-3.1147454382
22
-0.0193760861
32
0.0000000000
13
-0.0083390470
23
-3.1147945418
33
0.0000000000
40
0.0000000000
40
0.0000000000
40
0.0000000000
40
0.0000000000
40
0.1998429790
40
0.3998446841
40
0.5999384656
40
0.8000228739
40
1.0000000000
40
1.0000000000
40
1.0000000000
40
1.0000000000
10
145.2499188534
20
150.7261257534
30
0.0000000000
10
145.0424321843
20
150.7248350284
30
0.0000000000
10
144.6248137384
20
150.6564012255
30
0.0000000000
10
144.0624155804
20
150.3666528576
30
0.0000000000
10
143.6154103877
20
149.9177145212
30
0.0000000000
10
143.3279142680
20
149.3539244930
30
0.0000000000
10
143.2610276809
20
148.9358458028
30
0.0000000000
10
143.2604718081
20
148.7282165825
30
0.0000000000
11
145.2499188534
21
150.7261257534
31
0.0000000000
11
144.6356693984
21
150.6252839890
31
0.0000000000
11
144.0817617315
21
150.3401989196
31
0.0000000000
11
143.6419914059
21
149.8985580283
31
0.0000000000
11
143.3590689481
21
149.3432535108
31
0.0000000000
11
143.2604718081
21
148.7282165825
31
0.0000000000
0
SPLINE
5
34B
100
AcDbEntity
8
0
100
AcDbSpline
62
9
6
CONTINUOUS
70
0
71
3
72
12
73
8
74
6
42
0.0000001000
43
0.0000001000
44
0.0000000001
12
-1.9928594842
22
-0.2105875320
32
0.0000000000
13
0.0905980255
23
-2.0019060995
33
0.0000000000
40
0.0000000000
40
0.0000000000
40
0.0000000000
40
0.0000000000
40
0.0527577516
40
0.1953604359
40
0.4157618686
40
0.6928944759
40
1.0000000000
40
1.0000000000
40
1.0000000000
40
1.0000000000
10
124.5035105105
20
150.7260980681
30
0.0000000000
10
124.4684642487
20
150.7223946932
30
0.0000000000
10
124.4784599225
20
150.5307683774
30
0.0000000000
10
124.4380698907
20
150.3085852827
30
0.0000000000
10
124.4478556502
20
149.8524029445
30
0.0000000000
10
124.4517234996
20
149.3260526670
30
0.0000000000
10
124.4672688181
20
148.9331487290
30
0.0000000000
10
124.4765432028
20
148.7282165884
30
0.0000000000
11
124.5035105105
21
150.7260980681
31
0.0000000000
11
124.4717499136
21
150.6252572848
31
0.0000000000
11
124.4519263726
21
150.3401763075
31
0.0000000000
11
124.4459651809
21
149.8985419633
31
0.0000000000
11
124.4544453151
21
149.3432454100
31
0.0000000000
11
124.4765432028
21
148.7282165884
31
0.0000000000
0
SPLINE
5
34C
100
AcDbEntity
8
0
100
AcDbSpline
62
9
6
CONTINUOUS
70
0
71
3
72
15
73
11
74
9
42
0.0000001000
43
0.0000001000
44
0.0000000001
12
-3.3374207659
22
-0.0609572338
32
0.0000000000
13
-3.3370001536
23
0.0807658867
33
0.0000000000
40
0.0000000000
40
0.0000000000
40
0.0000000000
40
0.0000000000
40
0.1927712373
40
0.3598677521
40
0.5051081175
40
0.6319827867
40
0.7431559027
40
0.8404840724
40
0.9255917296
40
1.0000000000
40
1.0000000000
40
1.0000000000
40
1.0000000000
10
140.0762249452
20
140.9921130849
30
0.0000000000
10
139.8617720351
20
140.9881961511
30
0.0000000000
10
139.4613199711
20
140.9874972400
30
0.0000000000
10
138.8993380214
20
140.9924482189
30
0.0000000000
10
138.4106486892
20
140.9952978439
30
0.0000000000
10
137.9841764476
20
140.9944127040
30
0.0000000000
10
137.6110294418
20
140.9913440811
30
0.0000000000
10
137.2843548465
20
140.9884942822
30
0.0000000000
10
136.9985719823
20
140.9878974857
30
0.0000000000
10
136.8210863612
20
140.9901088282
30
0.0000000000
10
136.7383195579
20
140.9921120449
30
0.0000000000
11
140.0762249452
21
140.9921130849
31
0.0000000000
11
139.4327681758
21
140.9886600832
31
0.0000000000
11
138.8750160979
21
140.9923662154
31
0.0000000000
11
138.3902128270
21
140.9947350154
31
0.0000000000
11
137.9667088443
21
140.9939138803
31
0.0000000000
11
137.5956255329
21
140.9911844262
31
0.0000000000
11
137.2707553556
21
140.9887589981
31
0.0000000000
11
136.9866679592
21
140.9886076187
31
0.0000000000
11
136.7383195579
21
140.9921120449
31
0.0000000000
0
SPLINE
5
34D
100
AcDbEntity
8
0
100
AcDbSpline
62
9
6
CONTINUOUS
70
0
71
3
72
12
73
8
74
6
42
0.0000001000
43
0.0000001000
44
0.0000000001
12
-1.5664708429
22
1.2106106967
32
0.0000000000
13
0.5120435492
23
1.9123860918
33
0.0000000000
40
0.0000000000
40
0.0000000000
40
0.0000000000
40
0.0000000000
40
0.0554207477
40
0.1993208524
40
0.4192326415
40
0.6947152961
40
1.0000000000
40
1.0000000000
40
1.0000000000
40
1.0000000000
10
123.8578182403
20
143.9191212378
30
0.0000000000
10
123.8288799118
20
143.9414855545
30
0.0000000000
10
123.8878337433
20
144.1052346279
30
0.0000000000
10
123.9001831757
20
144.3488351804
30
0.0000000000
10
124.0113922881
20
144.7751311318
30
0.0000000000
10
124.1289749425
20
145.2829144774
30
0.0000000000
10
124.2274661166
20
145.6552779950
30
0.0000000000
10
124.2795724710
20
145.8498854023
30
0.0000000000
11
123.8578182403
21
143.9191212378
31
0.0000000000
11
123.8575600580
21
144.0288401467
31
0.0000000000
11
123.9061685806
21
144.3095488181
31
0.0000000000
11
123.9990796303
21
144.7348896783
31
0.0000000000
11
124.1275691716
21
145.2649246914
31
0.0000000000
11
124.2795724710
21
145.8498854023
31
0.0000000000
0
SPLINE
5
34E
100
AcDbEntity
8
0
100
AcDbSpline
62
9
6
CONTINUOUS
70
0
71
3
72
10
73
6
74
4
42
0.0000001000
43
0.0000001000
44
0.0000000001
12
0.0000048390
22
0.5458468305
32
0.0000000000
13
0.4914773215
23
0.2374841995
33
0.0000000000
40
0.0000000000
40
0.0000000000
40
0.0000000000
40
0.0000000000
40
0.3894879396
40
0.7314263487
40
1.0000000000
40
1.0000000000
40
1.0000000000
40
1.0000000000
10
153.7034705198
20
140.5094219611
30
0.0000000000
10
153.7034711480
20
140.5802888802
30
0.0000000000
10
153.7192760860
20
140.7141364049
30
0.0000000000
10
153.7856363269
20
140.8854393846
30
0.0000000000
10
153.8661375696
20
140.9708510307
30
0.0000000000
10
153.9101368559
20
140.9921116969
30
0.0000000000
11
153.7034705198
21
140.5094219611
31
0.0000000000
11
153.7295852758
21
140.7204127228
31
0.0000000000
11
153.8030487043
21
140.8919931786
31
0.0000000000
11
153.9101368559
21
140.9921116969
31
0.0000000000
0
SPLINE
5
34F
100
AcDbEntity
8
0
100
AcDbSpline
62
9
6
CONTINUOUS
70
0
71
3
72
10
73
6
74
4
42
0.0000001000
43
0.0000001000
44
0.0000000001
12
-0.0000007307
22
0.6054413993
32
0.0000000000
13
0.5756403167
23
0.1876100043
33
0.0000000000
40
0.0000000000
40
0.0000000000
40
0.0000000000
40
0.0000000000
40
0.3543094793
40
0.6899792002
40
1.0000000000
40
1.0000000000
40
1.0000000000
40
1.0000000000
10
156.9416510856
20
140.5094212517
30
0.0000000000
10
156.9416509993
20
140.5809257940
30
0.0000000000
10
156.9666643298
20
140.7215901333
30
0.0000000000
10
157.0745072240
20
140.8980988344
30
0.0000000000
10
157.1885587630
20
140.9727242952
30
0.0000000000
10
157.2480455868
20
140.9921119631
30
0.0000000000
11
156.9416510856
21
140.5094212517
31
0.0000000000
11
156.9803652978
21
140.7204124977
31
0.0000000000
11
157.0892776229
21
140.8919929916
31
0.0000000000
11
157.2480455868
21
140.9921119631
31
0.0000000000
0
SPLINE
5
350
100
AcDbEntity
8
0
100
AcDbSpline
62
9
6
CONTINUOUS
70
0
71
3
72
10
73
6
74
4
42
0.0000001000
43
0.0000001000
44
0.0000000001
12
0.0000013312
22
0.5458488577
32
0.0000000000
13
0.4914821828
23
0.2374789243
33
0.0000000000
40
0.0000000000
40
0.0000000000
40
0.0000000000
40
0.0000000000
40
0.3894859549
40
0.7314223244
40
1.0000000000
40
1.0000000000
40
1.0000000000
40
1.0000000000
10
153.7034700858
20
140.5094212517
30
0.0000000000
10
153.7034702587
20
140.5802880729
30
0.0000000000
10
153.7192745363
20
140.7141353533
30
0.0000000000
10
153.7856335266
20
140.8854397422
30
0.0000000000
10
153.8661363558
20
140.9708514315
30
0.0000000000
10
153.9101367365
20
140.9921119440
30
0.0000000000
11
153.7034700858
21
140.5094212517
31
0.0000000000
11
153.7295835497
21
140.7204118774
31
0.0000000000
11
153.8030458745
21
140.8919923487
31
0.0000000000
11
153.9101367365
21
140.9921119440
31
0.0000000000
0
SPLINE
5
351
100
AcDbEntity
8
0
100
AcDbSpline
62
9
6
CONTINUOUS
70
0
71
3
72
10
73
6
74
4
42
0.0000001000
43
0.0000001000
44
0.0000000001
12
-0.0000048390
22
0.5458468305
32
0.0000000000
13
-0.4914773215
23
0.2374841995
33
0.0000000000
40
0.0000000000
40
0.0000000000
40
0.0000000000
40
0.0000000000
40
0.3894879396
40
0.7314263487
40
1.0000000000
40
1.0000000000
40
1.0000000000
40
1.0000000000
10
140.2828932862
20
140.5094219611
30
0.0000000000
10
140.2828926580
20
140.5802888802
30
0.0000000000
10
140.2670877200
20
140.7141364049
30
0.0000000000
10
140.2007274791
20
140.8854393846
30
0.0000000000
10
140.1202262364
20
140.9708510307
30
0.0000000000
10
140.0762269501
20
140.9921116969
30
0.0000000000
11
140.2828932862
21
140.5094219611
31
0.0000000000
11
140.2567785302
21
140.7204127228
31
0.0000000000
11
140.1833151017
21
140.8919931786
31
0.0000000000
11
140.0762269501
21
140.9921116969
31
0.0000000000
0
SPLINE
5
352
100
AcDbEntity
8
0
100
AcDbSpline
62
9
6
CONTINUOUS
70
0
71
3
72
10
73
6
74
4
42
0.0000001000
43
0.0000001000
44
0.0000000001
12
0.0000007307
22
0.6054413993
32
0.0000000000
13
-0.5756403167
23
0.1876100043
33
0.0000000000
40
0.0000000000
40
0.0000000000
40
0.0000000000
40
0.0000000000
40
0.3543094793
40
0.6899792002
40
1.0000000000
40
1.0000000000
40
1.0000000000
40
1.0000000000
10
137.0447127204
20
140.5094212517
30
0.0000000000
10
137.0447128067
20
140.5809257940
30
0.0000000000
10
137.0196994762
20
140.7215901333
30
0.0000000000
10
136.9118565820
20
140.8980988344
30
0.0000000000
10
136.7978050429
20
140.9727242952
30
0.0000000000
10
136.7383182192
20
140.9921119631
30
0.0000000000
11
137.0447127204
21
140.5094212517
31
0.0000000000
11
137.0059985082
21
140.7204124977
31
0.0000000000
11
136.8970861831
21
140.8919929916
31
0.0000000000
11
136.7383182192
21
140.9921119631
31
0.0000000000
0
SPLINE
5
353
100
AcDbEntity
8
0
100
AcDbSpline
62
9
6
CONTINUOUS
70
0
71
3
72
10
73
6
74
4
42
0.0000001000
43
0.0000001000
44
0.0000000001
12
-0.0000013312
22
0.5458488577
32
0.0000000000
13
-0.4914821828
23
0.2374789243
33
0.0000000000
40
0.0000000000
40
0.0000000000
40
0.0000000000
40
0.0000000000
40
0.3894859549
40
0.7314223244
40
1.0000000000
40
1.0000000000
40
1.0000000000
40
1.0000000000
10
140.2828937202
20
140.5094212517
30
0.0000000000
10
140.2828935473
20
140.5802880729
30
0.0000000000
10
140.2670892697
20
140.7141353533
30
0.0000000000
10
140.2007302794
20
140.8854397422
30
0.0000000000
10
140.1202274502
20
140.9708514315
30
0.0000000000
10
140.0762270695
20
140.9921119440
30
0.0000000000
11
140.2828937202
21
140.5094212517
31
0.0000000000
11
140.2567802563
21
140.7204118774
31
0.0000000000
11
140.1833179315
21
140.8919923487
31
0.0000000000
11
140.0762270695
21
140.9921119440
31
0.0000000000
0
ENDSEC
0
SECTION
2
OBJECTS
0
DICTIONARY
5
C
100
AcDbDictionary
280
0
281
1
3
ACAD_GROUP
350
D
3
ACAD_MLINESTYLE
350
17
3
ACAD_LAYOUT
350
1A
3
ACAD_PLOTSETTINGS
350
19
3
ACAD_PLOTSTYLENAME
350
E
0
DICTIONARY
5
D
102
{ACAD_REACTORS
330
C
102
}
100
AcDbDictionary
280
0
281
1
0
ACDBDICTIONARYWDFLT
5
E
102
{ACAD_REACTORS
330
C
102
}
100
AcDbDictionary
281
1
3
Normal
350
F
100
AcDbDictionaryWithDefault
340
F
0
DICTIONARY
5
17
102
{ACAD_REACTORS
330
C
102
}
100
AcDbDictionary
280
0
281
1
3
Standard
350
18
0
DICTIONARY
5
19
102
{ACAD_REACTORS
330
C
102
}
100
AcDbDictionary
281
1
0
DICTIONARY
5
1A
102
{ACAD_REACTORS
330
C
102
}
100
AcDbDictionary
281
1
3
Layout1
350
1E
3
Model
350
22
0
ACDBPLACEHOLDER
5
F
102
{ACAD_REACTORS
330
E
102
}
0
MLINESTYLE
5
18
102
{ACAD_REACTORS
330
17
102
}
100
AcDbMlineStyle
2
STANDARD
70
0
3

62
256
51
90.0
52
90.0
71
2
49
0.5
62
256
6
BYLAYER
49
-0.5
62
256
6
BYLAYER
0
LAYOUT
5
1E
102
{ACAD_REACTORS
330
1A
102
}
100
AcDbPlotSettings
1

2

4

6

40
0.0
41
0.0
42
0.0
43
0.0
44
0.0
45
0.0
46
0.0
47
0.0
48
0.0
49
0.0
140
0.0
141
0.0
142
1.0
143
1.0
70
0
72
0
73
0
74
0
7

75
0
147
1.0
148
0.0
149
0.0
100
AcDbLayout
1
Layout1
70
0
71
0
10
0.0
20
0.0
11
0.0
21
0.0
12
0.0
22
0.0
32
0.0
14
0.0
24
0.0
34
0.0
15
0.0
25
0.0
35
0.0
146
0.0
13
0.0
23
0.0
33
0.0
16
0.0
26
0.0
36
0.0
17
0.0
27
0.0
37
0.0
76
0
330
1B
331
0
345
0
346
0
0
LAYOUT
5
22
102
{ACAD_REACTORS
330
1A
102
}
100
AcDbPlotSettings
1

2

4

6

40
0.0
41
0.0
42
0.0
43
0.0
44
0.0
45
0.0
46
0.0
47
0.0
48
0.0
49
0.0
140
0.0
141
0.0
142
1.0
143
1.0
70
0
72
0
73
0
74
0
7

75
0
147
1.0
148
0.0
149
0.0
100
AcDbLayout
1
Model
70
0
71
0
10
0.0
20
0.0
11
0.0
21
0.0
12
0.0
22
0.0
32
0.0
14
0.0
24
0.0
34
0.0
15
0.0
25
0.0
35
0.0
146
0.0
13
0.0
23
0.0
33
0.0
16
0.0
26
0.0
36
0.0
17
0.0
27
0.0
37
0.0
76
0
330
1F
331
0
345
0
346
0
0
ENDSEC
0
EOF
