999
DXF file: s0729.dxf
999
Pro/ENGINEER 2005310 by Parametric Technology Corporation
0
SECTION
2
HEADER
9
$ACADVER
1
AC1015
9
$DWGCODEPAGE
3
ANSI_1252
9
$EXTMAX
10
420.0000000000
20
297.0000000000
30
0.0000000000
9
$EXTMIN
10
0.0000000000
20
-0.0000000000
30
0.0000000000
9
$LIMMIN
10
0.0000000000
20
-0.0000000000
9
$LIMMAX
10
420.0000000000
20
297.0000000000
9
$VIEWCTR
10
210.0000000000
20
148.5000000000
9
$VIEWSIZE
40
297.0000000000
9
$CLAYER
8
0
9
$LTSCALE
40
23.1000000000
9
$CELTYPE
6
BYLAYER
9
$DIMSCALE
40
1
9
$DIMASZ
40
3.5000000000
9
$DIMEXO
40
2.6250000000
9
$DIMDLI
40
15.9600000000
9
$DIMEXE
40
7.5600000000
9
$DIMCEN
40
3.7800000000
9
$DIMLFAC
40
1.0000000000
9
$DIMBLK
1
_FILLED
9
$DIMTXT
40
3.5000000000
9
$DIMTOL
70
1
9
$DIMLIM
70
0
9
$DIMTFAC
40
1.0000000000
9
$DIMTP
40
0.0010000000
9
$DIMTM
40
0.0010000000
9
$PDMODE
70
3
9
$PDSIZE
40
0.3125000000
9
$HANDSEED
5
407
9
$MEASUREMENT
70
1
9
$INSUNITS
70
4
0
ENDSEC
0
SECTION
2
CLASSES
0
CLASS
1
ACDBDICTIONARYWDFLT
2
AcDbDictionaryWithDefault
3
AutoCAD 2000
90
0
280
0
281
0
0
CLASS
1
ACDBPLACEHOLDER
2
AcDbPlaceHolder
3
AutoCAD 2000
90
0
280
0
281
0
0
CLASS
1
LAYOUT
2
AcDbLayout
3
AutoCAD 2000
90
0
280
0
281
0
0
ENDSEC
0
SECTION
2
TABLES
0
TABLE
2
VPORT
5
8
100
AcDbSymbolTable
70
2
0
VPORT
5
1F4
100
AcDbSymbolTableRecord
100
AcDbViewportTableRecord
2
*ACTIVE
70
0
10
0.0
20
0.0
11
1.0
21
1.0
12
210.0000000000
22
148.5000000000
13
0.0
23
0.0
14
1.0
24
1.0
15
0.0
25
0.0
16
0.0
26
0.0
36
1.0
17
0.0
27
0.0
37
0.0
40
297.0000000000
41
1.4141414141
42
50.0
43
0.0
44
0.0
50
0.0
51
0.0
71
0
72
100
73
1
74
1
75
0
76
0
77
0
78
0
0
ENDTAB
0
TABLE
2
LTYPE
5
5
100
AcDbSymbolTable
70
6
0
LTYPE
5
14
100
AcDbSymbolTableRecord
100
AcDbLinetypeTableRecord
2
BYBLOCK
70
0
3

72
65
73
0
40
0.0
0
LTYPE
5
15
100
AcDbSymbolTableRecord
100
AcDbLinetypeTableRecord
2
BYLAYER
70
0
3

72
65
73
0
40
0.0
0
LTYPE
5
16
100
AcDbSymbolTableRecord
100
AcDbLinetypeTableRecord
2
CONTINUOUS
70
64
3
Solid line
72
65
73
0
40
0
0
LTYPE
5
1F5
100
AcDbSymbolTableRecord
100
AcDbLinetypeTableRecord
2
CENTER
70
64
3
____ _ ____ _ ____ _ ____ _ ____ _ ____ _ ____
72
65
73
4
40
0.6
49
0.375
74
0
49
-0.075
74
0
49
0.075
74
0
49
-0.075
74
0
0
LTYPE
5
1F6
100
AcDbSymbolTableRecord
100
AcDbLinetypeTableRecord
2
HIDDEN
70
64
3
- - - - - - - - - - - - - - - - - - - -
72
65
73
2
40
0.2
49
0.1
74
0
49
-0.1
74
0
0
LTYPE
5
1F7
100
AcDbSymbolTableRecord
100
AcDbLinetypeTableRecord
2
PHANTOM
70
64
3
_____ _ _ _____ _ _ _____ _ _ _____
72
65
73
6
40
0.8
49
0.45
74
0
49
-0.05
74
0
49
0.1
74
0
49
-0.05
74
0
49
0.1
74
0
49
-0.05
74
0
0
LTYPE
5
1F8
100
AcDbSymbolTableRecord
100
AcDbLinetypeTableRecord
2
DOT
70
64
3
. . . . . . . . . . . . . . . . . . . .
72
65
73
2
40
0.2
49
0.1
74
0
49
-0.1
74
0
0
LTYPE
5
1F9
100
AcDbSymbolTableRecord
100
AcDbLinetypeTableRecord
2
DASHED
70
64
3
- - - - - - - - - - - - - - - - - - - -
72
65
73
2
40
0.2
49
0.1
74
0
49
-0.1
74
0
0
ENDTAB
0
TABLE
2
LAYER
5
2
100
AcDbSymbolTable
70
36
0
LAYER
5
10
100
AcDbSymbolTableRecord
100
AcDbLayerTableRecord
2
0
70
0
62
7
6
CONTINUOUS
370
-3
390
F
0
LAYER
5
1FA
100
AcDbSymbolTableRecord
100
AcDbLayerTableRecord
2
DEFAULT_1
70
0
62
7
6
CENTER
370
-3
390
F
0
LAYER
5
1FB
100
AcDbSymbolTableRecord
100
AcDbLayerTableRecord
2
DEFAULT_2
70
0
62
8
6
HIDDEN
370
-3
390
F
0
LAYER
5
1FC
100
AcDbSymbolTableRecord
100
AcDbLayerTableRecord
2
DEFAULT_3
70
0
62
7
6
PHANTOM
370
-3
390
F
0
LAYER
5
1FD
100
AcDbSymbolTableRecord
100
AcDbLayerTableRecord
2
_2D_DELETED_OBJS
70
0
62
7
6
CONTINUOUS
370
-3
390
F
0
LAYER
5
1FE
100
AcDbSymbolTableRecord
100
AcDbLayerTableRecord
2
ASSI
70
0
62
7
6
CONTINUOUS
370
-3
390
F
0
LAYER
5
1FF
100
AcDbSymbolTableRecord
100
AcDbLayerTableRecord
2
CURVE
70
0
62
7
6
CONTINUOUS
370
-3
390
F
0
LAYER
5
200
100
AcDbSymbolTableRecord
100
AcDbLayerTableRecord
2
PIANI
70
0
62
7
6
CONTINUOUS
370
-3
390
F
0
LAYER
5
201
100
AcDbSymbolTableRecord
100
AcDbLayerTableRecord
2
SURF_FILETTI
70
0
62
7
6
CONTINUOUS
370
-3
390
F
0
ENDTAB
0
TABLE
2
STYLE
5
3
100
AcDbSymbolTable
70
1
0
STYLE
5
11
100
AcDbSymbolTableRecord
100
AcDbTextStyleTableRecord
2
STANDARD
70
0
40
0.0
41
0.7143000000
50
0.0
71
0
42
0.2
3
txt
4

0
ENDTAB
0
TABLE
2
VIEW
5
6
100
AcDbSymbolTable
70
0
0
ENDTAB
0
TABLE
2
UCS
5
7
100
AcDbSymbolTable
70
0
0
ENDTAB
0
TABLE
2
APPID
5
9
100
AcDbSymbolTable
70
1
0
APPID
5
202
100
AcDbSymbolTableRecord
100
AcDbRegAppTableRecord
2
ACAD
70
0
0
ENDTAB
0
TABLE
2
BLOCK_RECORD
5
1
100
AcDbSymbolTable
70
0
0
BLOCK_RECORD
5
1F
100
AcDbSymbolTableRecord
100
AcDbBlockTableRecord
2
*MODEL_SPACE
0
BLOCK_RECORD
5
1B
100
AcDbSymbolTableRecord
100
AcDbBlockTableRecord
2
*PAPER_SPACE
0
BLOCK_RECORD
5
203
100
AcDbSymbolTableRecord
100
AcDbBlockTableRecord
2
_FILLED
0
BLOCK_RECORD
5
204
100
AcDbSymbolTableRecord
100
AcDbBlockTableRecord
2
*D0
0
BLOCK_RECORD
5
205
100
AcDbSymbolTableRecord
100
AcDbBlockTableRecord
2
*D1
0
BLOCK_RECORD
5
206
100
AcDbSymbolTableRecord
100
AcDbBlockTableRecord
2
*D2
0
BLOCK_RECORD
5
207
100
AcDbSymbolTableRecord
100
AcDbBlockTableRecord
2
*D3
0
BLOCK_RECORD
5
208
100
AcDbSymbolTableRecord
100
AcDbBlockTableRecord
2
*D4
0
BLOCK_RECORD
5
209
100
AcDbSymbolTableRecord
100
AcDbBlockTableRecord
2
*D5
0
BLOCK_RECORD
5
20A
100
AcDbSymbolTableRecord
100
AcDbBlockTableRecord
2
*D6
0
BLOCK_RECORD
5
20B
100
AcDbSymbolTableRecord
100
AcDbBlockTableRecord
2
*D7
0
BLOCK_RECORD
5
20C
100
AcDbSymbolTableRecord
100
AcDbBlockTableRecord
2
*D8
0
ENDTAB
0
TABLE
2
DIMSTYLE
5
A
100
AcDbSymbolTable
70
1
100
AcDbDimStyleTable
71
0
0
DIMSTYLE
105
20D
100
AcDbSymbolTableRecord
100
AcDbDimStyleTableRecord
2
STANDARD
70
0
3

4

40
1.0
41
3.5000000000
42
0.0625
43
0.38
44
0.18
45
0.0
46
0.0
47
0.0010000000
48
0.0010000000
140
3.5000000000
141
0.09
142
0.0
143
25.4
144
1.0000000000
145
0.0
146
1.0000000000
147
0.09
71
1
72
0
73
0
74
0
75
0
76
0
77
1
78
8
170
0
171
2
172
0
173
0
174
0
175
0
176
0
177
0
178
5
270
2
271
3
272
3
273
2
274
2
275
0
280
0
281
0
282
0
283
1
284
8
285
0
286
0
287
3
288
0
340
11
341
203
342
203
343
203
344
203
0
DIMSTYLE
105
20E
100
AcDbSymbolTableRecord
100
AcDbDimStyleTableRecord
2
DIMSTYLE_1
70
0
3

4

40
1.0
41
3.5000000000
42
0.0625
43
0.38
44
0.18
45
0.0
46
0.0
47
0.1500000000
48
0.1500000000
140
3.5000000000
141
0.09
142
0.0
143
25.4
144
1.0000000000
145
0.0
146
1.0000000000
147
0.09
71
0
72
0
73
0
74
0
75
0
76
0
77
1
78
8
170
0
171
2
172
0
173
0
174
0
175
0
176
0
177
0
178
5
270
2
271
3
272
3
273
2
274
2
275
0
280
0
281
0
282
0
283
1
284
8
285
0
286
0
287
3
288
0
340
11
341
203
342
203
343
203
344
203
0
DIMSTYLE
105
20F
100
AcDbSymbolTableRecord
100
AcDbDimStyleTableRecord
2
DIMSTYLE_2
70
0
3

4

40
1.0
41
3.5000000000
42
0.0625
43
0.38
44
0.18
45
0.0
46
0.0
47
0.1500000000
48
0.1500000000
140
3.5000000000
141
0.09
142
0.0
143
25.4
144
1.0000000000
145
0.0
146
1.0000000000
147
0.09
71
0
72
0
73
0
74
0
75
0
76
0
77
1
78
8
170
0
171
2
172
0
173
0
174
0
175
0
176
0
177
0
178
5
270
2
271
3
272
3
273
2
274
2
275
0
280
0
281
0
282
0
283
1
284
8
285
0
286
0
287
3
288
0
340
11
341
203
342
203
343
203
344
203
0
DIMSTYLE
105
210
100
AcDbSymbolTableRecord
100
AcDbDimStyleTableRecord
2
DIMSTYLE_3
70
0
3

4

40
1.0
41
3.5000000000
42
0.0625
43
0.38
44
0.18
45
0.0
46
0.0
47
0.1000000000
48
0.1000000000
140
3.5000000000
141
0.09
142
0.0
143
25.4
144
1.0000000000
145
0.0
146
1.0000000000
147
0.09
71
0
72
0
73
0
74
0
75
0
76
0
77
1
78
8
170
0
171
2
172
0
173
0
174
0
175
0
176
0
177
0
178
5
270
2
271
3
272
3
273
2
274
2
275
0
280
0
281
0
282
0
283
1
284
8
285
0
286
0
287
3
288
0
340
11
341
203
342
203
343
203
344
203
0
DIMSTYLE
105
211
100
AcDbSymbolTableRecord
100
AcDbDimStyleTableRecord
2
DIMSTYLE_4
70
0
3

4

40
1.0
41
3.5000000000
42
0.0625
43
0.38
44
0.18
45
0.0
46
0.0
47
0.1000000000
48
0.1000000000
140
3.5000000000
141
0.09
142
0.0
143
25.4
144
1.0000000000
145
0.0
146
1.0000000000
147
0.09
71
0
72
0
73
0
74
0
75
0
76
0
77
1
78
8
170
0
171
2
172
0
173
0
174
0
175
0
176
0
177
0
178
5
270
2
271
0
272
0
273
2
274
2
275
0
280
0
281
0
282
0
283
1
284
8
285
0
286
0
287
3
288
0
340
11
341
203
342
203
343
203
344
203
0
ENDTAB
0
ENDSEC
0
SECTION
2
BLOCKS
0
BLOCK
5
20
100
AcDbEntity
8
0
100
AcDbBlockBegin
2
*MODEL_SPACE
70
0
10
0.0
20
0.0
30
0.0
3
*MODEL_SPACE
1

0
ENDBLK
5
21
100
AcDbEntity
8
0
100
AcDbBlockEnd
0
BLOCK
5
1C
100
AcDbEntity
8
0
100
AcDbBlockBegin
2
*PAPER_SPACE
70
0
10
0.0
20
0.0
30
0.0
3
*PAPER_SPACE
1

0
ENDBLK
5
1D
100
AcDbEntity
8
0
100
AcDbBlockEnd
0
BLOCK
5
212
100
AcDbEntity
8
0
100
AcDbBlockBegin
62
2
6
CONTINUOUS
2
*D0
70
65
10
0.0000000000
20
0.0000000000
3
*D0
1

0
TEXT
5
213
100
AcDbEntity
8
0
100
AcDbText
62
5
6
CONTINUOUS
10
322.3611948630
20
126.7939865818
7
STANDARD
40
3.5000000000
1
78
41
0.7143000000
72
0
100
AcDbText
0
LINE
5
214
100
AcDbEntity
8
0
100
AcDbLine
62
2
6
CONTINUOUS
10
363.8612448630
20
140.9795232980
11
363.8612448630
21
124.4189865818
0
LINE
5
215
100
AcDbEntity
8
0
100
AcDbLine
62
2
6
CONTINUOUS
10
285.8612448630
20
140.3263066222
11
285.8612448630
21
124.4189865818
0
LINE
5
216
100
AcDbEntity
8
0
100
AcDbLine
62
2
6
CONTINUOUS
10
363.8612448630
20
125.9189865818
11
324.8612448630
21
125.9189865818
0
LINE
5
217
100
AcDbEntity
8
0
100
AcDbLine
62
2
6
CONTINUOUS
10
285.8612448630
20
125.9189865818
11
324.8612448630
21
125.9189865818
0
INSERT
5
218
100
AcDbEntity
8
0
100
AcDbBlockReference
62
2
6
CONTINUOUS
2
_FILLED
10
363.8612448630
20
125.9189865818
41
  3.500000
42
  3.500000
43
  3.500000
0
INSERT
5
219
100
AcDbEntity
8
0
100
AcDbBlockReference
62
2
6
CONTINUOUS
2
_FILLED
10
285.8612448630
20
125.9189865818
41
  3.500000
42
  3.500000
43
  3.500000
50
180.000000
0
ENDBLK
5
21A
100
AcDbEntity
8
0
6
BYBLOCK
62
0
100
AcDbBlockEnd
0
BLOCK
5
21B
100
AcDbEntity
8
0
100
AcDbBlockBegin
62
2
6
CONTINUOUS
2
*D1
70
65
10
0.0000000000
20
0.0000000000
3
*D1
1

0
TEXT
5
21C
100
AcDbEntity
8
0
100
AcDbText
62
5
6
CONTINUOUS
10
188.6504080685
20
184.2221966782
7
STANDARD
40
3.5000000000
1
R
50
61.0085450412
41
0.7143000000
72
0
100
AcDbText
0
TEXT
5
21D
100
AcDbEntity
8
0
100
AcDbText
62
5
6
CONTINUOUS
10
189.8621302396
20
186.4089704165
7
STANDARD
40
3.5000000000
1
75
50
61.0085450412
41
0.7143000000
72
0
100
AcDbText
0
LINE
5
21E
100
AcDbEntity
8
0
100
AcDbLine
62
2
6
CONTINUOUS
10
183.5565092898
20
173.2240090221
11
193.0509300831
21
190.3584236151
0
INSERT
5
21F
100
AcDbEntity
8
0
100
AcDbBlockReference
62
2
6
CONTINUOUS
2
_FILLED
10
183.5565092898
20
173.2240090221
41
  3.500000
42
  3.500000
43
  3.500000
50
241.008545
0
ENDBLK
5
220
100
AcDbEntity
8
0
6
BYBLOCK
62
0
100
AcDbBlockEnd
0
BLOCK
5
221
100
AcDbEntity
8
0
100
AcDbBlockBegin
62
2
6
CONTINUOUS
2
*D2
70
65
10
0.0000000000
20
0.0000000000
3
*D2
1

0
TEXT
5
222
100
AcDbEntity
8
0
100
AcDbText
62
5
6
CONTINUOUS
10
118.8738550762
20
128.3063978354
7
STANDARD
40
3.5000000000
1
26
41
0.7143000000
72
0
100
AcDbText
0
LINE
5
223
100
AcDbEntity
8
0
100
AcDbLine
62
2
6
CONTINUOUS
10
107.7055711756
20
139.6221089108
11
107.7055711756
21
125.9313978354
0
LINE
5
224
100
AcDbEntity
8
0
100
AcDbLine
62
2
6
CONTINUOUS
10
133.7055711756
20
139.6221089108
11
133.7055711756
21
125.9313978354
0
LINE
5
225
100
AcDbEntity
8
0
100
AcDbLine
62
2
6
CONTINUOUS
10
107.7055711756
20
127.4313978354
11
120.7055711756
21
127.4313978354
0
LINE
5
226
100
AcDbEntity
8
0
100
AcDbLine
62
2
6
CONTINUOUS
10
133.7055711756
20
127.4313978354
11
120.7055711756
21
127.4313978354
0
INSERT
5
227
100
AcDbEntity
8
0
100
AcDbBlockReference
62
2
6
CONTINUOUS
2
_FILLED
10
107.7055711756
20
127.4313978354
41
  3.500000
42
  3.500000
43
  3.500000
50
180.000000
0
INSERT
5
228
100
AcDbEntity
8
0
100
AcDbBlockReference
62
2
6
CONTINUOUS
2
_FILLED
10
133.7055711756
20
127.4313978354
41
  3.500000
42
  3.500000
43
  3.500000
0
ENDBLK
5
229
100
AcDbEntity
8
0
6
BYBLOCK
62
0
100
AcDbBlockEnd
0
BLOCK
5
22A
100
AcDbEntity
8
0
100
AcDbBlockBegin
62
2
6
CONTINUOUS
2
*D3
70
65
10
0.0000000000
20
0.0000000000
3
*D3
1

0
TEXT
5
22B
100
AcDbEntity
8
0
100
AcDbText
62
5
6
CONTINUOUS
10
135.5305272397
20
113.0478741961
7
STANDARD
40
3.5000000000
1
118
41
0.7143000000
72
0
100
AcDbText
0
LINE
5
22C
100
AcDbEntity
8
0
100
AcDbLine
62
2
6
CONTINUOUS
10
92.7055711756
20
139.6221089108
11
92.7055711756
21
110.6728741961
0
LINE
5
22D
100
AcDbEntity
8
0
100
AcDbLine
62
2
6
CONTINUOUS
10
210.7055711756
20
145.2305759300
11
210.7055711756
21
110.6728741961
0
LINE
5
22E
100
AcDbEntity
8
0
100
AcDbLine
62
2
6
CONTINUOUS
10
92.7055711756
20
112.1728741961
11
151.7055711756
21
112.1728741961
0
LINE
5
22F
100
AcDbEntity
8
0
100
AcDbLine
62
2
6
CONTINUOUS
10
210.7055711756
20
112.1728741961
11
151.7055711756
21
112.1728741961
0
INSERT
5
230
100
AcDbEntity
8
0
100
AcDbBlockReference
62
2
6
CONTINUOUS
2
_FILLED
10
92.7055711756
20
112.1728741961
41
  3.500000
42
  3.500000
43
  3.500000
50
180.000000
0
INSERT
5
231
100
AcDbEntity
8
0
100
AcDbBlockReference
62
2
6
CONTINUOUS
2
_FILLED
10
210.7055711756
20
112.1728741961
41
  3.500000
42
  3.500000
43
  3.500000
0
ENDBLK
5
232
100
AcDbEntity
8
0
6
BYBLOCK
62
0
100
AcDbBlockEnd
0
BLOCK
5
233
100
AcDbEntity
8
0
100
AcDbBlockBegin
62
2
6
CONTINUOUS
2
*D4
70
65
10
0.0000000000
20
0.0000000000
3
*D4
1

0
TEXT
5
234
100
AcDbEntity
8
0
100
AcDbText
62
5
6
CONTINUOUS
10
107.7154803116
20
195.1292770383
7
STANDARD
40
3.5000000000
1
28
41
0.7143000000
72
0
100
AcDbText
0
LINE
5
235
100
AcDbEntity
8
0
100
AcDbLine
62
2
6
CONTINUOUS
10
92.7055711756
20
161.1221089108
11
92.7055711756
21
195.7542770383
0
LINE
5
236
100
AcDbEntity
8
0
100
AcDbLine
62
2
6
CONTINUOUS
10
120.7055711756
20
186.6221089108
11
120.7055711756
21
195.7542770383
0
LINE
5
237
100
AcDbEntity
8
0
100
AcDbLine
62
2
6
CONTINUOUS
10
92.7055711756
20
194.2542770383
11
106.7055711756
21
194.2542770383
0
LINE
5
238
100
AcDbEntity
8
0
100
AcDbLine
62
2
6
CONTINUOUS
10
120.7055711756
20
194.2542770383
11
106.7055711756
21
194.2542770383
0
INSERT
5
239
100
AcDbEntity
8
0
100
AcDbBlockReference
62
2
6
CONTINUOUS
2
_FILLED
10
92.7055711756
20
194.2542770383
41
  3.500000
42
  3.500000
43
  3.500000
50
180.000000
0
INSERT
5
23A
100
AcDbEntity
8
0
100
AcDbBlockReference
62
2
6
CONTINUOUS
2
_FILLED
10
120.7055711756
20
194.2542770383
41
  3.500000
42
  3.500000
43
  3.500000
0
ENDBLK
5
23B
100
AcDbEntity
8
0
6
BYBLOCK
62
0
100
AcDbBlockEnd
0
BLOCK
5
23C
100
AcDbEntity
8
0
100
AcDbBlockBegin
62
2
6
CONTINUOUS
2
*D5
70
65
10
0.0000000000
20
0.0000000000
3
*D5
1

0
TEXT
5
23D
100
AcDbEntity
8
0
100
AcDbText
62
5
6
CONTINUOUS
10
81.6211046603
20
145.1004953815
7
STANDARD
40
3.5000000000
1
22.5
50
90.0000000000
41
0.7143000000
72
0
100
AcDbText
0
LINE
5
23E
100
AcDbEntity
8
0
100
AcDbLine
62
2
6
CONTINUOUS
10
105.1914492237
20
162.1221089108
11
80.9961046603
21
162.1221089108
0
LINE
5
23F
100
AcDbEntity
8
0
100
AcDbLine
62
2
6
CONTINUOUS
10
95.2055705461
20
139.6221089108
11
80.9961046603
21
139.6221089108
0
LINE
5
240
100
AcDbEntity
8
0
100
AcDbLine
62
2
6
CONTINUOUS
10
82.4961046603
20
162.1221089108
11
82.4961046603
21
150.8721089108
0
LINE
5
241
100
AcDbEntity
8
0
100
AcDbLine
62
2
6
CONTINUOUS
10
82.4961046603
20
139.6221089108
11
82.4961046603
21
150.8721089108
0
INSERT
5
242
100
AcDbEntity
8
0
100
AcDbBlockReference
62
2
6
CONTINUOUS
2
_FILLED
10
82.4961046603
20
162.1221089108
41
  3.500000
42
  3.500000
43
  3.500000
50
 90.000000
0
INSERT
5
243
100
AcDbEntity
8
0
100
AcDbBlockReference
62
2
6
CONTINUOUS
2
_FILLED
10
82.4961046603
20
139.6221089108
41
  3.500000
42
  3.500000
43
  3.500000
50
270.000000
0
ENDBLK
5
244
100
AcDbEntity
8
0
6
BYBLOCK
62
0
100
AcDbBlockEnd
0
BLOCK
5
245
100
AcDbEntity
8
0
100
AcDbBlockBegin
62
2
6
CONTINUOUS
2
*D6
70
65
10
0.0000000000
20
0.0000000000
3
*D6
1

0
TEXT
5
246
100
AcDbEntity
8
0
100
AcDbText
62
5
6
CONTINUOUS
10
69.7384460511
20
156.5195291377
7
STANDARD
40
3.5000000000
1
43
50
90.0000000000
41
0.7143000000
72
0
100
AcDbText
0
LINE
5
247
100
AcDbEntity
8
0
100
AcDbLine
62
2
6
CONTINUOUS
10
103.1630276161
20
182.6221089108
11
69.1134460511
21
182.6221089108
0
LINE
5
248
100
AcDbEntity
8
0
100
AcDbLine
62
2
6
CONTINUOUS
10
95.2055705461
20
139.6221089108
11
69.1134460511
21
139.6221089108
0
LINE
5
249
100
AcDbEntity
8
0
100
AcDbLine
62
2
6
CONTINUOUS
10
70.6134460511
20
182.6221089108
11
70.6134460511
21
161.1221089108
0
LINE
5
24A
100
AcDbEntity
8
0
100
AcDbLine
62
2
6
CONTINUOUS
10
70.6134460511
20
139.6221089108
11
70.6134460511
21
161.1221089108
0
INSERT
5
24B
100
AcDbEntity
8
0
100
AcDbBlockReference
62
2
6
CONTINUOUS
2
_FILLED
10
70.6134460511
20
182.6221089108
41
  3.500000
42
  3.500000
43
  3.500000
50
 90.000000
0
INSERT
5
24C
100
AcDbEntity
8
0
100
AcDbBlockReference
62
2
6
CONTINUOUS
2
_FILLED
10
70.6134460511
20
139.6221089108
41
  3.500000
42
  3.500000
43
  3.500000
50
270.000000
0
ENDBLK
5
24D
100
AcDbEntity
8
0
6
BYBLOCK
62
0
100
AcDbBlockEnd
0
BLOCK
5
24E
100
AcDbEntity
8
0
100
AcDbBlockBegin
62
2
6
CONTINUOUS
2
*D7
70
65
10
0.0000000000
20
0.0000000000
3
*D7
1

0
TEXT
5
24F
100
AcDbEntity
8
0
100
AcDbText
62
5
6
CONTINUOUS
10
371.5838800375
20
197.2006794752
7
STANDARD
40
3.5000000000
1
7
41
0.7143000000
72
0
100
AcDbText
0
LINE
5
250
100
AcDbEntity
8
0
100
AcDbLine
62
2
6
CONTINUOUS
10
356.8612448630
20
178.6221089108
11
356.8612448630
21
197.8256794752
0
LINE
5
251
100
AcDbEntity
8
0
100
AcDbLine
62
2
6
CONTINUOUS
10
363.7903247362
20
140.6261948024
11
363.7903247362
21
197.8256794752
0
LINE
5
252
100
AcDbEntity
8
0
100
AcDbLine
62
2
6
CONTINUOUS
10
356.8612448630
20
196.3256794752
11
348.8612448630
21
196.3256794752
0
LINE
5
253
100
AcDbEntity
8
0
100
AcDbLine
62
2
6
CONTINUOUS
10
348.8612448630
20
196.3256794752
11
360.3257847996
21
196.3256794752
0
LINE
5
254
100
AcDbEntity
8
0
100
AcDbLine
62
2
6
CONTINUOUS
10
363.7903247362
20
196.3256794752
11
374.0839300375
21
196.3256794752
0
LINE
5
255
100
AcDbEntity
8
0
100
AcDbLine
62
2
6
CONTINUOUS
10
374.0839300375
20
196.3256794752
11
360.3257847996
21
196.3256794752
0
INSERT
5
256
100
AcDbEntity
8
0
100
AcDbBlockReference
62
2
6
CONTINUOUS
2
_FILLED
10
356.8612448630
20
196.3256794752
41
  3.500000
42
  3.500000
43
  3.500000
0
INSERT
5
257
100
AcDbEntity
8
0
100
AcDbBlockReference
62
2
6
CONTINUOUS
2
_FILLED
10
363.7903247362
20
196.3256794752
41
  3.500000
42
  3.500000
43
  3.500000
50
180.000000
0
ENDBLK
5
258
100
AcDbEntity
8
0
6
BYBLOCK
62
0
100
AcDbBlockEnd
0
BLOCK
5
259
100
AcDbEntity
8
0
100
AcDbBlockBegin
62
2
6
CONTINUOUS
2
*D8
70
65
10
0.0000000000
20
0.0000000000
3
*D8
1

0
TEXT
5
25A
100
AcDbEntity
8
0
100
AcDbText
62
5
6
CONTINUOUS
10
275.6907537759
20
195.9230825902
7
STANDARD
40
3.5000000000
1
7
41
0.7143000000
72
0
100
AcDbText
0
LINE
5
25B
100
AcDbEntity
8
0
100
AcDbLine
62
2
6
CONTINUOUS
10
292.8612448630
20
181.1221089108
11
292.8612448630
21
196.5480825902
0
LINE
5
25C
100
AcDbEntity
8
0
100
AcDbLine
62
2
6
CONTINUOUS
10
286.0026083464
20
156.3214995639
11
286.0026083464
21
196.5480825902
0
LINE
5
25D
100
AcDbEntity
8
0
100
AcDbLine
62
2
6
CONTINUOUS
10
292.8612448630
20
195.0480825902
11
300.8612448630
21
195.0480825902
0
LINE
5
25E
100
AcDbEntity
8
0
100
AcDbLine
62
2
6
CONTINUOUS
10
300.8612448630
20
195.0480825902
11
289.4319266047
21
195.0480825902
0
LINE
5
25F
100
AcDbEntity
8
0
100
AcDbLine
62
2
6
CONTINUOUS
10
286.0026083464
20
195.0480825902
11
275.6907537759
21
195.0480825902
0
LINE
5
260
100
AcDbEntity
8
0
100
AcDbLine
62
2
6
CONTINUOUS
10
275.6907537759
20
195.0480825902
11
289.4319266047
21
195.0480825902
0
INSERT
5
261
100
AcDbEntity
8
0
100
AcDbBlockReference
62
2
6
CONTINUOUS
2
_FILLED
10
292.8612448630
20
195.0480825902
41
  3.500000
42
  3.500000
43
  3.500000
50
180.000000
0
INSERT
5
262
100
AcDbEntity
8
0
100
AcDbBlockReference
62
2
6
CONTINUOUS
2
_FILLED
10
286.0026083464
20
195.0480825902
41
  3.500000
42
  3.500000
43
  3.500000
0
ENDBLK
5
263
100
AcDbEntity
8
0
6
BYBLOCK
62
0
100
AcDbBlockEnd
0
BLOCK
5
264
100
AcDbEntity
8
0
100
AcDbBlockBegin
2
_FILLED
70
64
10
0.0000000000
20
0.0000000000
3
_FILLED
1

0
SOLID
5
265
100
AcDbEntity
8
0
6
BYBLOCK
62
0
100
AcDbTrace
10
0.0000000000
20
0.0000000000
11
-1.0000000000
21
0.1857142857
12
-1.0000000000
22
-0.1857142857
13
-1.0000000000
23
-0.1857142857
0
ENDBLK
5
266
100
AcDbEntity
8
0
6
BYBLOCK
62
0
100
AcDbBlockEnd
0
ENDSEC
0
SECTION
2
ENTITIES
0
DIMENSION
5
267
100
AcDbEntity
8
0
100
AcDbDimension
62
2
6
CONTINUOUS
2
*D0
10
285.8612448630
20
125.9189865818
11
324.8612448630
21
128.5439865818
70
160
42
78.000000
3
DIMSTYLE_1
100
AcDbAlignedDimension
13
363.8612448630
23
140.9795232980
14
285.8612448630
24
140.3263066222
50
180.000000
100
AcDbRotatedDimension
0
DIMENSION
5
268
100
AcDbEntity
8
0
100
AcDbDimension
62
2
6
CONTINUOUS
2
*D1
10
147.2055711756
20
107.6221089108
11
188.9372803225
21
188.3505458417
70
164
42
75.000000
1
<>
3
DIMSTYLE_2
100
AcDbRadialDimension
15
183.5565092898
25
173.2240090221
0
DIMENSION
5
269
100
AcDbEntity
8
0
100
AcDbDimension
62
2
6
CONTINUOUS
2
*D2
10
133.7055711756
20
127.4313978354
11
121.3739050762
21
130.0563978354
70
160
42
26.000000
3
DIMSTYLE_3
100
AcDbAlignedDimension
13
107.7055711756
23
139.6221089108
14
133.7055711756
24
139.6221089108
100
AcDbRotatedDimension
0
DIMENSION
5
26A
100
AcDbEntity
8
0
100
AcDbDimension
62
2
6
CONTINUOUS
2
*D3
10
210.7055711756
20
112.1728741961
11
139.2806022397
21
114.7978741961
70
160
42
118.000000
3
DIMSTYLE_1
100
AcDbAlignedDimension
13
92.7055711756
23
139.6221089108
14
210.7055711756
24
145.2305759300
100
AcDbRotatedDimension
0
DIMENSION
5
26B
100
AcDbEntity
8
0
100
AcDbDimension
62
2
6
CONTINUOUS
2
*D4
10
120.7055711756
20
194.2542770383
11
110.2155303116
21
196.8792770383
70
160
42
28.000000
3
DIMSTYLE_3
100
AcDbAlignedDimension
13
92.7055711756
23
161.1221089108
14
120.7055711756
24
186.6221089108
100
AcDbRotatedDimension
0
DIMENSION
5
26C
100
AcDbEntity
8
0
100
AcDbDimension
62
2
6
CONTINUOUS
2
*D5
10
82.4961046603
20
139.6221089108
11
79.8711046603
21
150.1005953815
70
160
42
22.500000
3
DIMSTYLE_3
100
AcDbAlignedDimension
13
105.1914492237
23
162.1221089108
14
95.2055705461
24
139.6221089108
50
270.000000
100
AcDbRotatedDimension
0
DIMENSION
5
26D
100
AcDbEntity
8
0
100
AcDbDimension
62
2
6
CONTINUOUS
2
*D6
10
70.6134460511
20
139.6221089108
11
67.9884460511
21
159.0195791377
70
160
42
43.000000
3
DIMSTYLE_1
100
AcDbAlignedDimension
13
103.1630276161
23
182.6221089108
14
95.2055705461
24
139.6221089108
50
270.000000
100
AcDbRotatedDimension
0
DIMENSION
5
26E
100
AcDbEntity
8
0
100
AcDbDimension
62
2
6
CONTINUOUS
2
*D7
10
363.7903247362
20
196.3256794752
11
372.8339050375
21
198.9506794752
70
160
42
6.929080
3
DIMSTYLE_4
100
AcDbAlignedDimension
13
356.8612448630
23
178.6221089108
14
363.7903247362
24
140.6261948024
100
AcDbRotatedDimension
0
DIMENSION
5
26F
100
AcDbEntity
8
0
100
AcDbDimension
62
2
6
CONTINUOUS
2
*D8
10
286.0026083464
20
195.0480825902
11
276.9407787759
21
197.6730825902
70
160
42
7.000000
3
DIMSTYLE_4
100
AcDbAlignedDimension
13
292.8612448630
23
181.1221089108
14
286.0026083464
24
156.3214995639
50
180.000000
100
AcDbRotatedDimension
0
MTEXT
5
270
100
AcDbEntity
8
0
100
AcDbMText
62
5
6
CONTINUOUS
7
STANDARD
71
1
72
1
10
228.2444217934
20
207.4711001834
30
0.0000000000
11
1.0000000000
21
0.0000000000
31
0.0000000000
1
SEZIONE C-C
40
3.5000000000
41
27.5005500000
0
LINE
5
271
100
AcDbEntity
8
0
100
AcDbLine
62
7
6
CONTINUOUS
10
0.0000000000
20
-0.0000000000
11
0.0000000000
21
297.0000000000
0
LINE
5
272
100
AcDbEntity
8
0
100
AcDbLine
62
7
6
CONTINUOUS
10
0.0000000000
20
-0.0000000000
11
420.0000000000
21
-0.0000000000
0
LINE
5
273
100
AcDbEntity
8
0
100
AcDbLine
62
7
6
CONTINUOUS
10
0.0000000000
20
297.0000000000
11
420.0000000000
21
297.0000000000
0
LINE
5
274
100
AcDbEntity
8
0
100
AcDbLine
62
7
6
CONTINUOUS
10
420.0000000000
20
-0.0000000000
11
420.0000000000
21
297.0000000000
0
LINE
5
275
100
AcDbEntity
8
0
100
AcDbLine
62
7
6
CONTINUOUS
10
92.7055711756
20
140.1221089108
11
92.7055711756
21
160.6221089108
0
LWPOLYLINE
5
276
100
AcDbEntity
8
0
100
AcDbPolyline
62
7
6
CONTINUOUS
90
9
70
0
10
93.4861770003
20
174.1242596578
10
93.4609891114
20
162.4846197291
10
93.4587786465
20
162.3268866162
10
93.4550535769
20
162.1741150197
10
93.4499172552
20
162.0273273153
10
93.4435510230
20
161.8873645262
10
93.4360858116
20
161.7552308268
10
93.4276458183
20
161.6317850460
10
93.4234342010
20
161.5796187488
0
LINE
5
277
100
AcDbEntity
8
0
100
AcDbLine
62
7
6
CONTINUOUS
10
94.8035266704
20
175.9090869189
11
94.8035266704
21
175.2132888761
0
LINE
5
278
100
AcDbEntity
8
0
100
AcDbLine
62
7
6
CONTINUOUS
10
96.2055711756
20
155.6221089108
11
96.2055711756
21
140.1221089108
0
LINE
5
279
100
AcDbEntity
8
0
100
AcDbLine
62
7
6
CONTINUOUS
10
96.6270532580
20
176.8353593599
11
96.6270532987
21
177.1221089108
0
LINE
5
27A
100
AcDbEntity
8
0
100
AcDbLine
62
7
6
CONTINUOUS
10
98.4679456513
20
177.7396435351
11
98.4679259979
21
177.7392848384
0
LWPOLYLINE
5
27B
100
AcDbEntity
8
0
100
AcDbPolyline
62
7
6
CONTINUOUS
90
5
70
0
10
98.4679259979
20
177.7392848384
10
98.4664389977
20
177.7149224224
10
98.4475356740
20
177.4844429751
10
98.4206363002
20
177.2606533220
10
98.3979552787
20
177.1221089108
0
LWPOLYLINE
5
27C
100
AcDbEntity
8
0
100
AcDbPolyline
62
7
6
CONTINUOUS
90
5
70
0
10
98.5547942304
20
178.4745671455
10
98.5365385792
20
178.3671889051
10
98.5020802852
20
178.1220656180
10
98.4775004568
20
177.8772639533
10
98.4678779287
20
177.7396475188
0
LWPOLYLINE
5
27D
100
AcDbEntity
8
0
100
AcDbPolyline
62
7
6
CONTINUOUS
90
6
70
0
10
93.9158163170
20
175.6617773280
10
93.7417391623
20
175.3269317566
10
93.6113879745
20
174.9735383877
10
93.5265234387
20
174.6070719438
10
93.4884454009
20
174.2332089158
10
93.4862097010
20
174.1242598797
0
LINE
5
27E
100
AcDbEntity
8
0
100
AcDbLine
62
7
6
CONTINUOUS
10
93.9625742953
20
175.7368724996
11
93.9158163170
21
175.6617773280
0
LINE
5
27F
100
AcDbEntity
8
0
100
AcDbLine
62
7
6
CONTINUOUS
10
93.9625411273
20
175.7368940603
11
94.0073902245
21
175.8009535908
0
LINE
5
280
100
AcDbEntity
8
0
100
AcDbLine
62
7
6
CONTINUOUS
10
94.0080617830
20
175.8018341721
11
94.0073902245
21
175.8009535908
0
LINE
5
281
100
AcDbEntity
8
0
100
AcDbLine
62
7
6
CONTINUOUS
10
94.1211310520
20
175.9416298612
11
94.0097830162
21
175.8040953305
0
LINE
5
282
100
AcDbEntity
8
0
100
AcDbLine
62
7
6
CONTINUOUS
10
100.5304714844
20
177.1221089108
11
100.5304714849
21
178.1221089108
0
LINE
5
283
100
AcDbEntity
8
0
100
AcDbLine
62
7
6
CONTINUOUS
10
101.2805711756
20
140.1221089108
11
101.2805711756
21
156.6221089108
0
LWPOLYLINE
5
284
100
AcDbEntity
8
0
100
AcDbPolyline
62
7
6
CONTINUOUS
90
13
70
0
10
97.3573696594
20
156.1198338986
10
97.3551857116
20
156.1128354004
10
97.3620038638
20
156.1293526134
10
97.3798957346
20
156.1656517772
10
97.4125926890
20
156.2201641497
10
97.4626871116
20
156.2877999180
10
97.5342812219
20
156.3646576744
10
97.6263557559
20
156.4413765598
10
97.7365941834
20
156.5103550751
10
97.8625006868
20
156.5660845711
10
97.9995106606
20
156.6039344704
10
98.1438449706
20
156.6212283152
10
98.1856051146
20
156.6221338583
0
LINE
5
285
100
AcDbEntity
8
0
100
AcDbLine
62
7
6
CONTINUOUS
10
103.6630276115
20
180.6221089108
11
103.6630276161
21
182.6221089108
0
LINE
5
286
100
AcDbEntity
8
0
100
AcDbLine
62
7
6
CONTINUOUS
10
104.2055711756
20
155.6221089108
11
104.2055711756
21
140.1221089108
0
LWPOLYLINE
5
287
100
AcDbEntity
8
0
100
AcDbPolyline
62
7
6
CONTINUOUS
90
3
70
0
10
94.6779578344
20
176.4620972351
10
94.3885891120
20
176.2208698911
10
94.1211310520
20
175.9416298612
0
LINE
5
288
100
AcDbEntity
8
0
100
AcDbLine
62
7
6
CONTINUOUS
10
106.7055711756
20
161.6221089108
11
106.7055711756
21
177.1221089108
0
LINE
5
289
100
AcDbEntity
8
0
100
AcDbLine
62
7
6
CONTINUOUS
10
107.2055711756
20
178.1221089108
11
107.2055711756
21
177.1221089108
0
LINE
5
28A
100
AcDbEntity
8
0
100
AcDbLine
62
7
6
CONTINUOUS
10
107.7055711756
20
140.1221089108
11
107.7055711756
21
176.1221089108
0
LINE
5
28B
100
AcDbEntity
8
0
100
AcDbLine
62
7
6
CONTINUOUS
10
108.2055711756
20
162.1221089750
11
108.2055711756
21
176.1221089108
0
LINE
5
28C
100
AcDbEntity
8
0
100
AcDbLine
62
2
6
CONTINUOUS
10
93.4727345022
20
161.5914154321
11
92.7362646542
21
160.8549455841
0
LINE
5
28D
100
AcDbEntity
8
0
100
AcDbLine
62
2
6
CONTINUOUS
10
96.3318551056
20
161.6221089108
11
92.7055711756
21
157.9958249808
0
LINE
5
28E
100
AcDbEntity
8
0
100
AcDbLine
62
2
6
CONTINUOUS
10
99.1602822304
20
161.6221089108
11
92.7055711756
21
155.1673978560
0
LINE
5
28F
100
AcDbEntity
8
0
100
AcDbLine
62
2
6
CONTINUOUS
10
101.9887093551
20
161.6221089108
11
96.9533790125
21
156.5867785682
0
LINE
5
290
100
AcDbEntity
8
0
100
AcDbLine
62
2
6
CONTINUOUS
10
96.2409015182
20
155.8743010739
11
92.7055711756
21
152.3389707313
0
LINE
5
291
100
AcDbEntity
8
0
100
AcDbLine
62
2
6
CONTINUOUS
10
104.8171364798
20
161.6221089108
11
99.8171364798
21
156.6221089108
0
LINE
5
292
100
AcDbEntity
8
0
100
AcDbLine
62
2
6
CONTINUOUS
10
96.2055711756
20
153.0105436065
11
92.7055711756
21
149.5105436065
0
LINE
5
293
100
AcDbEntity
8
DEFAULT_1
100
AcDbLine
62
2
6
CENTER
10
120.7055711756
20
186.1221089108
11
120.7055711756
21
155.3722089108
0
LINE
5
294
100
AcDbEntity
8
DEFAULT_1
100
AcDbLine
62
2
6
CENTER
10
120.7055711756
20
149.3720089108
11
120.7055711756
21
136.6221089073
0
LINE
5
295
100
AcDbEntity
8
DEFAULT_1
100
AcDbLine
62
2
6
CENTER
10
120.7055711756
20
152.3721089108
11
120.7055711756
21
149.3720089108
0
LINE
5
296
100
AcDbEntity
8
DEFAULT_1
100
AcDbLine
62
2
6
CENTER
10
120.7055711756
20
152.3721089108
11
120.7055711756
21
155.3722089108
0
LINE
5
297
100
AcDbEntity
8
0
100
AcDbLine
62
2
6
CONTINUOUS
10
107.3801961395
20
161.3567414457
11
102.6455636046
21
156.6221089108
0
LINE
5
298
100
AcDbEntity
8
0
100
AcDbLine
62
2
6
CONTINUOUS
10
96.2055711756
20
150.1821164818
11
92.7055711756
21
146.6821164818
0
LINE
5
299
100
AcDbEntity
8
0
100
AcDbLine
62
2
6
CONTINUOUS
10
107.7055711756
20
158.8536893570
11
104.2055711756
21
155.3536893570
0
LINE
5
29A
100
AcDbEntity
8
0
100
AcDbLine
62
2
6
CONTINUOUS
10
96.2055711756
20
147.3536893570
11
92.7055711756
21
143.8536893570
0
LINE
5
29B
100
AcDbEntity
8
0
100
AcDbLine
62
7
6
CONTINUOUS
10
107.6483802184
20
176.4554422407
11
108.1197847375
21
176.6221089084
0
LINE
5
29C
100
AcDbEntity
8
0
100
AcDbLine
62
2
6
CONTINUOUS
10
107.7055711756
20
156.0252622323
11
104.2055711756
21
152.5252622323
0
LINE
5
29D
100
AcDbEntity
8
0
100
AcDbLine
62
2
6
CONTINUOUS
10
96.2055711756
20
144.5252622323
11
92.7055711756
21
141.0252622323
0
LINE
5
29E
100
AcDbEntity
8
0
100
AcDbLine
62
2
6
CONTINUOUS
10
107.7055711756
20
153.1968351075
11
104.2055711756
21
149.6968351075
0
LINE
5
29F
100
AcDbEntity
8
0
100
AcDbLine
62
2
6
CONTINUOUS
10
96.2055711756
20
141.6968351075
11
94.1308449788
21
139.6221089108
0
LINE
5
2A0
100
AcDbEntity
8
0
100
AcDbLine
62
2
6
CONTINUOUS
10
134.4592721036
20
177.1221089108
11
133.7055711756
21
176.3684079828
0
LINE
5
2A1
100
AcDbEntity
8
0
100
AcDbLine
62
2
6
CONTINUOUS
10
107.7055711756
20
150.3684079828
11
104.2055711756
21
146.8684079828
0
LINE
5
2A2
100
AcDbEntity
8
0
100
AcDbLine
62
2
6
CONTINUOUS
10
137.2876992283
20
177.1221089108
11
133.7055711756
21
173.5399808580
0
LINE
5
2A3
100
AcDbEntity
8
0
100
AcDbLine
62
2
6
CONTINUOUS
10
107.7055711756
20
147.5399808580
11
104.2055711756
21
144.0399808580
0
LINE
5
2A4
100
AcDbEntity
8
0
100
AcDbLine
62
7
6
CONTINUOUS
10
93.2055711756
20
139.6221089108
11
107.2055711756
21
139.6221089108
0
LINE
5
2A5
100
AcDbEntity
8
0
100
AcDbLine
62
7
6
CONTINUOUS
10
134.2055711756
20
139.6221089108
11
204.5971041564
21
139.6221089108
0
LINE
5
2A6
100
AcDbEntity
8
0
100
AcDbLine
62
7
6
CONTINUOUS
10
96.2055711756
20
140.1221089108
11
104.2055711756
21
140.1221089108
0
LINE
5
2A7
100
AcDbEntity
8
0
100
AcDbLine
62
7
6
CONTINUOUS
10
137.7055711756
20
140.1221089108
11
143.7829548863
21
140.1221089108
0
LINE
5
2A8
100
AcDbEntity
8
0
100
AcDbLine
62
7
6
CONTINUOUS
10
196.3096421768
20
140.1221089108
11
204.2187975602
21
140.1221089108
0
LINE
5
2A9
100
AcDbEntity
8
0
100
AcDbLine
62
7
6
CONTINUOUS
10
133.2055711756
20
162.1221089750
11
133.2055711756
21
176.6221089108
0
LINE
5
2AA
100
AcDbEntity
8
0
100
AcDbLine
62
7
6
CONTINUOUS
10
133.7055711756
20
176.6221089108
11
133.7055711756
21
140.1221089108
0
LINE
5
2AB
100
AcDbEntity
8
0
100
AcDbLine
62
7
6
CONTINUOUS
10
134.2055711756
20
178.1221089108
11
134.2055711756
21
177.1221089108
0
LINE
5
2AC
100
AcDbEntity
8
0
100
AcDbLine
62
2
6
CONTINUOUS
10
139.6972111159
20
176.7031936736
11
133.7055711756
21
170.7115537333
0
LINE
5
2AD
100
AcDbEntity
8
0
100
AcDbLine
62
2
6
CONTINUOUS
10
107.7055711756
20
144.7115537333
11
104.2055711756
21
141.2115537333
0
LINE
5
2AE
100
AcDbEntity
8
0
100
AcDbLine
62
2
6
CONTINUOUS
10
139.7055711756
20
173.8831266085
11
133.7055711756
21
167.8831266085
0
LINE
5
2AF
100
AcDbEntity
8
0
100
AcDbLine
62
2
6
CONTINUOUS
10
107.7055711756
20
141.8831266085
11
105.4445534778
21
139.6221089108
0
LINE
5
2B0
100
AcDbEntity
8
0
100
AcDbLine
62
7
6
CONTINUOUS
10
137.7055711756
20
140.1221089108
11
137.7055711756
21
162.1221089108
0
LINE
5
2B1
100
AcDbEntity
8
0
100
AcDbLine
62
7
6
CONTINUOUS
10
138.6021228997
20
140.1221089108
11
138.6021228997
21
160.7883776907
0
LINE
5
2B2
100
AcDbEntity
8
0
100
AcDbLine
62
2
6
CONTINUOUS
10
139.7055711756
20
171.0546994838
11
133.7055711756
21
165.0546994838
0
LINE
5
2B3
100
AcDbEntity
8
0
100
AcDbLine
62
2
6
CONTINUOUS
10
140.0248003659
20
168.5455015493
11
133.7055711756
21
162.2262723591
0
LWPOLYLINE
5
2B4
100
AcDbEntity
8
0
100
AcDbPolyline
62
7
6
CONTINUOUS
90
3
70
0
10
198.4599058372
20
154.2810163131
10
198.6366642463
20
154.3057194629
10
198.8149951337
20
154.2986085299
0
LINE
5
2B5
100
AcDbEntity
8
0
100
AcDbLine
62
7
6
CONTINUOUS
10
139.7055711756
20
176.6221089108
11
139.7055711756
21
169.6221089108
0
LINE
5
2B6
100
AcDbEntity
8
0
100
AcDbLine
62
7
6
CONTINUOUS
10
143.5044244135
20
140.1221089108
11
143.5044244135
21
161.2327468133
0
LINE
5
2B7
100
AcDbEntity
8
0
100
AcDbLine
62
7
6
CONTINUOUS
10
143.7829548863
20
161.2327468133
11
143.7829548863
21
140.1221089108
0
LINE
5
2B8
100
AcDbEntity
8
0
100
AcDbLine
62
2
6
CONTINUOUS
10
141.9298348521
20
167.6221089108
11
133.7055711756
21
159.3978452343
0
LINE
5
2B9
100
AcDbEntity
8
0
100
AcDbLine
62
2
6
CONTINUOUS
10
144.7582619768
20
167.6221089108
11
140.2582619768
21
163.1221089108
0
LINE
5
2BA
100
AcDbEntity
8
0
100
AcDbLine
62
2
6
CONTINUOUS
10
137.7055711756
20
160.5694181096
11
133.7055711756
21
156.5694181096
0
LINE
5
2BB
100
AcDbEntity
8
DEFAULT_1
100
AcDbLine
62
2
6
CENTER
10
120.7055711756
20
152.3721089108
11
90.7190319801
21
152.3721089108
0
LINE
5
2BC
100
AcDbEntity
8
DEFAULT_1
100
AcDbLine
62
2
6
CENTER
10
120.7055711756
20
152.3721089108
11
211.1585619185
21
152.3721089108
0
LINE
5
2BD
100
AcDbEntity
8
0
100
AcDbLine
62
7
6
CONTINUOUS
10
146.7055711756
20
178.1221089108
11
146.7055711756
21
167.6221089108
0
LINE
5
2BE
100
AcDbEntity
8
0
100
AcDbLine
62
7
6
CONTINUOUS
10
147.2024726517
20
180.6221089108
11
147.2024726517
21
167.6221089108
0
LINE
5
2BF
100
AcDbEntity
8
0
100
AcDbLine
62
2
6
CONTINUOUS
10
147.5866891015
20
167.6221089108
11
142.8598322322
21
162.8952520414
0
LINE
5
2C0
100
AcDbEntity
8
0
100
AcDbLine
62
2
6
CONTINUOUS
10
137.7055711756
20
157.7409909848
11
133.7055711756
21
153.7409909848
0
LINE
5
2C1
100
AcDbEntity
8
0
100
AcDbLine
62
2
6
CONTINUOUS
10
150.4151162263
20
167.6221089108
11
143.7829548863
21
160.9899475707
0
LINE
5
2C2
100
AcDbEntity
8
0
100
AcDbLine
62
2
6
CONTINUOUS
10
137.7055711756
20
154.9125638601
11
133.7055711756
21
150.9125638601
0
LINE
5
2C3
100
AcDbEntity
8
0
100
AcDbLine
62
7
6
CONTINUOUS
10
96.2055711756
20
155.6221089108
11
97.1952229669
21
155.6221089108
0
LINE
5
2C4
100
AcDbEntity
8
0
100
AcDbLine
62
7
6
CONTINUOUS
10
103.2055711756
20
156.6221089108
11
97.2055711756
21
156.6221089108
0
LINE
5
2C5
100
AcDbEntity
8
0
100
AcDbLine
62
2
6
CONTINUOUS
10
153.2435433510
20
167.6221089108
11
143.7829548863
21
158.1615204460
0
LINE
5
2C6
100
AcDbEntity
8
0
100
AcDbLine
62
2
6
CONTINUOUS
10
137.7055711756
20
152.0841367353
11
133.7055711756
21
148.0841367353
0
LINE
5
2C7
100
AcDbEntity
8
0
100
AcDbLine
62
2
6
CONTINUOUS
10
156.0719704758
20
167.6221089108
11
143.7829548863
21
155.3330933212
0
LINE
5
2C8
100
AcDbEntity
8
0
100
AcDbLine
62
2
6
CONTINUOUS
10
137.7055711756
20
149.2557096106
11
133.7055711756
21
145.2557096106
0
LINE
5
2C9
100
AcDbEntity
8
0
100
AcDbLine
62
2
6
CONTINUOUS
10
158.9003976005
20
167.6221089108
11
143.7829548863
21
152.5046661965
0
LINE
5
2CA
100
AcDbEntity
8
0
100
AcDbLine
62
2
6
CONTINUOUS
10
137.7055711756
20
146.4272824858
11
133.7055711756
21
142.4272824858
0
LINE
5
2CB
100
AcDbEntity
8
0
100
AcDbLine
62
7
6
CONTINUOUS
10
138.6021228997
20
160.7883776907
11
137.7055711756
21
160.7883776907
0
LINE
5
2CC
100
AcDbEntity
8
0
100
AcDbLine
62
7
6
CONTINUOUS
10
143.5044244135
20
161.2327468133
11
143.7829548863
21
161.2327468133
0
LINE
5
2CD
100
AcDbEntity
8
0
100
AcDbLine
62
7
6
CONTINUOUS
10
93.7055711756
20
161.6221089108
11
106.7055711756
21
161.6221089108
0
LINE
5
2CE
100
AcDbEntity
8
0
100
AcDbLine
62
2
6
CONTINUOUS
10
161.7288247253
20
167.6221089108
11
143.7829548863
21
149.6762390718
0
LINE
5
2CF
100
AcDbEntity
8
0
100
AcDbLine
62
2
6
CONTINUOUS
10
137.7055711756
20
143.5988553611
11
133.8648225091
21
139.7581066946
0
LINE
5
2D0
100
AcDbEntity
8
0
100
AcDbLine
62
2
6
CONTINUOUS
10
164.5572518500
20
167.6221089108
11
143.7829548863
21
146.8478119470
0
LINE
5
2D1
100
AcDbEntity
8
0
100
AcDbLine
62
2
6
CONTINUOUS
10
137.7055711756
20
140.7704282363
11
136.5572518500
21
139.6221089108
0
LINE
5
2D2
100
AcDbEntity
8
0
100
AcDbLine
62
7
6
CONTINUOUS
10
142.7211440536
20
162.1221089108
11
139.4389045089
21
162.1221089108
0
LINE
5
2D3
100
AcDbEntity
8
0
100
AcDbLine
62
7
6
CONTINUOUS
10
108.2055711756
20
162.1221089108
11
133.2055711756
21
162.1221089108
0
LINE
5
2D4
100
AcDbEntity
8
0
100
AcDbLine
62
7
6
CONTINUOUS
10
108.2055711756
20
162.4242917430
11
133.2055711756
21
162.4242917430
0
LINE
5
2D5
100
AcDbEntity
8
0
100
AcDbLine
62
7
6
CONTINUOUS
10
106.7055711756
20
162.6046565043
11
94.4615652582
21
162.6046565043
0
LINE
5
2D6
100
AcDbEntity
8
0
100
AcDbLine
62
7
6
CONTINUOUS
10
107.7055711756
20
162.9095511170
11
133.7055711756
21
162.9095511170
0
LINE
5
2D7
100
AcDbEntity
8
0
100
AcDbLine
62
7
6
CONTINUOUS
10
138.7055711756
20
163.1221089108
11
142.2222564021
21
163.1221089108
0
LINE
5
2D8
100
AcDbEntity
8
0
100
AcDbLine
62
7
6
CONTINUOUS
10
133.2055711756
20
165.6221089108
11
108.2055711756
21
165.6221089108
0
LINE
5
2D9
100
AcDbEntity
8
0
100
AcDbLine
62
2
6
CONTINUOUS
10
167.2511738754
20
167.4876038114
11
143.7829548863
21
144.0193848223
0
LINE
5
2DA
100
AcDbEntity
8
0
100
AcDbLine
62
2
6
CONTINUOUS
10
169.6560641583
20
167.0640669696
11
143.7829548863
21
141.1909576975
0
LINE
5
2DB
100
AcDbEntity
8
0
100
AcDbLine
62
7
6
CONTINUOUS
10
107.7055711756
20
166.6221089108
11
133.7055711756
21
166.6221089108
0
LINE
5
2DC
100
AcDbEntity
8
0
100
AcDbLine
62
7
6
CONTINUOUS
10
164.9800419926
20
167.6221089108
11
141.7055711756
21
167.6221089108
0
LINE
5
2DD
100
AcDbEntity
8
0
100
AcDbLine
62
7
6
CONTINUOUS
10
100.5235215886
20
178.1220584904
11
98.5547942304
21
178.4745671455
0
LINE
5
2DE
100
AcDbEntity
8
0
100
AcDbLine
62
7
6
CONTINUOUS
10
198.7892044796
20
154.3195579018
11
197.5772330379
21
154.6561349189
0
LINE
5
2DF
100
AcDbEntity
8
0
100
AcDbLine
62
2
6
CONTINUOUS
10
171.8825444899
20
166.4621201764
11
145.0425332243
21
139.6221089108
0
LINE
5
2E0
100
AcDbEntity
8
0
100
AcDbLine
62
2
6
CONTINUOUS
10
174.0962129616
20
165.8473615234
11
147.8709603490
21
139.6221089108
0
LINE
5
2E1
100
AcDbEntity
8
0
100
AcDbLine
62
7
6
CONTINUOUS
10
199.9933304593
20
158.6554638769
11
170.3317130134
21
166.8928021335
0
LINE
5
2E2
100
AcDbEntity
8
0
100
AcDbLine
62
2
6
CONTINUOUS
10
176.3098814333
20
165.2326028703
11
150.6993874738
21
139.6221089108
0
LINE
5
2E3
100
AcDbEntity
8
0
100
AcDbLine
62
2
6
CONTINUOUS
10
178.5235499050
20
164.6178442172
11
153.5278145985
21
139.6221089108
0
LINE
5
2E4
100
AcDbEntity
8
0
100
AcDbLine
62
7
6
CONTINUOUS
10
94.8040579414
20
175.2132888761
11
106.7055711756
21
175.2132888761
0
LINE
5
2E5
100
AcDbEntity
8
0
100
AcDbLine
62
7
6
CONTINUOUS
10
94.8032223132
20
175.9090869189
11
106.7055711756
21
175.9090869189
0
LINE
5
2E6
100
AcDbEntity
8
0
100
AcDbLine
62
7
6
CONTINUOUS
10
107.7055711756
20
176.1221089108
11
108.2055711756
21
176.1221089108
0
LINE
5
2E7
100
AcDbEntity
8
0
100
AcDbLine
62
7
6
CONTINUOUS
10
142.5055711756
20
176.6221089108
11
139.7055711756
21
176.6221089108
0
LINE
5
2E8
100
AcDbEntity
8
0
100
AcDbLine
62
7
6
CONTINUOUS
10
133.7055711756
20
176.6221089108
11
108.1197847380
21
176.6221089108
0
LINE
5
2E9
100
AcDbEntity
8
0
100
AcDbLine
62
7
6
CONTINUOUS
10
106.7055711756
20
176.8353593599
11
96.6270532580
21
176.8353593599
0
LINE
5
2EA
100
AcDbEntity
8
0
100
AcDbLine
62
7
6
CONTINUOUS
10
96.6195317473
20
177.1220995472
11
142.2055711756
21
177.1221089108
0
LINE
5
2EB
100
AcDbEntity
8
0
100
AcDbLine
62
7
6
CONTINUOUS
10
100.5235128703
20
178.1221089108
11
107.2056468169
21
178.1221089108
0
LINE
5
2EC
100
AcDbEntity
8
0
100
AcDbLine
62
7
6
CONTINUOUS
10
134.2054905121
20
178.1221089108
11
146.7055711756
21
178.1221089108
0
LINE
5
2ED
100
AcDbEntity
8
0
100
AcDbLine
62
7
6
CONTINUOUS
10
171.3737402343
20
175.9565472778
11
171.3737402343
21
166.6034203860
0
LINE
5
2EE
100
AcDbEntity
8
0
100
AcDbLine
62
2
6
CONTINUOUS
10
180.7372183766
20
164.0030855641
11
156.3562417232
21
139.6221089108
0
LINE
5
2EF
100
AcDbEntity
8
0
100
AcDbLine
62
2
6
CONTINUOUS
10
182.9508868483
20
163.3883269111
11
159.1846688480
21
139.6221089108
0
LWPOLYLINE
5
2F0
100
AcDbEntity
8
0
100
AcDbPolyline
62
7
6
CONTINUOUS
90
7
70
0
10
96.6195191966
20
177.1219246688
10
96.2909294233
20
177.1036526177
10
95.9615664455
20
177.0497513268
10
95.6310140157
20
176.9592320725
10
95.3037516176
20
176.8312943511
10
94.9845508975
20
176.6655467033
10
94.6779578344
20
176.4620972351
0
LINE
5
2F1
100
AcDbEntity
8
0
100
AcDbLine
62
7
6
CONTINUOUS
10
147.2024726517
20
180.6221089108
11
103.6630276115
21
180.6221089108
0
LINE
5
2F2
100
AcDbEntity
8
0
100
AcDbLine
62
2
6
CONTINUOUS
10
185.1645553200
20
162.7735682580
11
162.0130959727
21
139.6221089108
0
LINE
5
2F3
100
AcDbEntity
8
0
100
AcDbLine
62
2
6
CONTINUOUS
10
187.3782237916
20
162.1588096049
11
164.8415230975
21
139.6221089108
0
LWPOLYLINE
5
2F4
100
AcDbEntity
8
0
100
AcDbPolyline
62
7
6
CONTINUOUS
90
15
70
0
10
103.6630276161
20
182.6220705057
10
103.3725943763
20
182.6142219248
10
102.8082241581
20
182.5538554681
10
102.2566243204
20
182.4350785142
10
101.7238335121
20
182.2599341212
10
101.2153098320
20
182.0307887792
10
100.7365715891
20
181.7507102516
10
100.2930744502
20
181.4232353271
10
99.8895521756
20
181.0524017040
10
99.5306047362
20
180.6429695670
10
99.2199184881
20
180.1998026375
10
98.9607942423
20
179.7287641204
10
98.7558574846
20
179.2354619425
10
98.6067020662
20
178.7259850067
10
98.5548199560
20
178.4745625429
0
LINE
5
2F5
100
AcDbEntity
8
0
100
AcDbLine
62
7
6
CONTINUOUS
10
147.2055711756
20
182.6221089108
11
103.6630276115
21
182.6221089108
0
LINE
5
2F6
100
AcDbEntity
8
0
100
AcDbLine
62
2
6
CONTINUOUS
10
189.5918922633
20
161.5440509518
11
167.6699502222
21
139.6221089108
0
LINE
5
2F7
100
AcDbEntity
8
0
100
AcDbLine
62
2
6
CONTINUOUS
10
191.8055607350
20
160.9292922988
11
170.4983773470
21
139.6221089108
0
LINE
5
2F8
100
AcDbEntity
8
0
100
AcDbLine
62
2
6
CONTINUOUS
10
194.0192292066
20
160.3145336457
11
173.3268044717
21
139.6221089108
0
LINE
5
2F9
100
AcDbEntity
8
0
100
AcDbLine
62
2
6
CONTINUOUS
10
196.2328976783
20
159.6997749926
11
176.1552315965
21
139.6221089108
0
LINE
5
2FA
100
AcDbEntity
8
0
100
AcDbLine
62
2
6
CONTINUOUS
10
198.4465661500
20
159.0850163395
11
178.9836587212
21
139.6221089108
0
LINE
5
2FB
100
AcDbEntity
8
0
100
AcDbLine
62
2
6
CONTINUOUS
10
200.6321097628
20
158.4421328275
11
181.8120858460
21
139.6221089108
0
LINE
5
2FC
100
AcDbEntity
8
0
100
AcDbLine
62
2
6
CONTINUOUS
10
202.5493157492
20
157.5309116893
11
199.2005771628
21
154.1821731028
0
LINE
5
2FD
100
AcDbEntity
8
0
100
AcDbLine
62
2
6
CONTINUOUS
10
196.3096421768
20
151.2912381169
11
184.6405129707
21
139.6221089108
0
LINE
5
2FE
100
AcDbEntity
8
0
100
AcDbLine
62
2
6
CONTINUOUS
10
204.1528104191
20
156.3059792344
11
200.9697310643
21
153.1228998796
0
LINE
5
2FF
100
AcDbEntity
8
0
100
AcDbLine
62
2
6
CONTINUOUS
10
196.3096421768
20
148.4628109921
11
187.4689400955
21
139.6221089108
0
LINE
5
300
100
AcDbEntity
8
0
100
AcDbLine
62
7
6
CONTINUOUS
10
196.3096421768
20
153.6925854490
11
196.3096421768
21
140.1221089108
0
LINE
5
301
100
AcDbEntity
8
0
100
AcDbLine
62
7
6
CONTINUOUS
10
196.6273017038
20
140.1221089108
11
196.6273017038
21
153.6631965080
0
LINE
5
302
100
AcDbEntity
8
0
100
AcDbLine
62
7
6
CONTINUOUS
10
197.6861667938
20
153.3094288004
11
197.6861667938
21
140.1221089108
0
LWPOLYLINE
5
303
100
AcDbEntity
8
0
100
AcDbPolyline
62
7
6
CONTINUOUS
90
9
70
0
10
197.6861487196
20
153.3069582158
10
197.6903348248
20
153.3983610971
10
197.7224452407
20
153.5739299140
10
197.7852561592
20
153.7409951160
10
197.8767667555
20
153.8942336306
10
197.9940614837
20
154.0287631671
10
198.1334029905
20
154.1402977245
10
198.2903514028
20
154.2252843477
10
198.4599058372
20
154.2810163131
0
LINE
5
304
100
AcDbEntity
8
0
100
AcDbLine
62
2
6
CONTINUOUS
10
205.4894930736
20
154.8142347642
11
202.2922331159
21
151.6169748065
0
LINE
5
305
100
AcDbEntity
8
0
100
AcDbLine
62
2
6
CONTINUOUS
10
196.3096421768
20
145.6343838674
11
190.2973672202
21
139.6221089108
0
LINE
5
306
100
AcDbEntity
8
0
100
AcDbLine
62
2
6
CONTINUOUS
10
206.7356462008
20
153.2319607666
11
203.5282328113
21
150.0245473771
0
LINE
5
307
100
AcDbEntity
8
0
100
AcDbLine
62
2
6
CONTINUOUS
10
196.3096421768
20
142.8059567426
11
193.1257943449
21
139.6221089108
0
LINE
5
308
100
AcDbEntity
8
0
100
AcDbLine
62
2
6
CONTINUOUS
10
207.9429832994
20
151.6108707405
11
204.6732701186
21
148.3411575597
0
LINE
5
309
100
AcDbEntity
8
0
100
AcDbLine
62
2
6
CONTINUOUS
10
196.2753524957
20
139.9432399368
11
195.9885111330
21
139.6563985741
0
LINE
5
30A
100
AcDbEntity
8
0
100
AcDbLine
62
7
6
CONTINUOUS
10
199.6556035714
20
140.1221089108
11
199.6556035714
21
153.0393993692
0
LINE
5
30B
100
AcDbEntity
8
0
100
AcDbLine
62
2
6
CONTINUOUS
10
209.1112684751
20
149.9507287914
11
204.7055711756
21
145.5450314919
0
LINE
5
30C
100
AcDbEntity
8
0
100
AcDbLine
62
2
6
CONTINUOUS
10
210.1802284191
20
148.1912616107
11
204.7055711756
21
142.7166043672
0
LINE
5
30D
100
AcDbEntity
8
0
100
AcDbLine
62
7
6
CONTINUOUS
10
203.2137678969
20
140.1221089108
11
203.2137678969
21
149.1158495952
0
LINE
5
30E
100
AcDbEntity
8
0
100
AcDbLine
62
7
6
CONTINUOUS
10
204.7055711756
20
140.1552131443
11
204.7055711756
21
148.0943216005
0
LINE
5
30F
100
AcDbEntity
8
0
100
AcDbLine
62
2
6
CONTINUOUS
10
210.6956477717
20
145.8782538386
11
204.7562914519
21
139.9388975188
0
LINE
5
310
100
AcDbEntity
8
0
100
AcDbLine
62
7
6
CONTINUOUS
10
285.9406617047
20
145.6742385360
11
285.9266054190
21
140.1228106557
0
LINE
5
311
100
AcDbEntity
8
0
100
AcDbLine
62
7
6
CONTINUOUS
10
285.9673007080
20
151.0768642257
11
285.9406617047
21
145.6742385360
0
LINE
5
312
100
AcDbEntity
8
0
100
AcDbLine
62
7
6
CONTINUOUS
10
286.0026083504
20
155.8215000373
11
285.9673007080
21
151.0768642257
0
LINE
5
313
100
AcDbEntity
8
0
100
AcDbLine
62
7
6
CONTINUOUS
10
285.8656463745
20
140.1264721785
11
286.0018649729
21
155.7355774882
0
LINE
5
314
100
AcDbEntity
8
0
100
AcDbLine
62
7
6
CONTINUOUS
10
286.0026148030
20
155.8214995010
11
286.2321748218
21
182.1264721785
0
LINE
5
315
100
AcDbEntity
8
0
100
AcDbLine
62
7
6
CONTINUOUS
10
285.9266080593
20
140.1237733258
11
285.9266101484
21
140.1238411494
0
LINE
5
316
100
AcDbEntity
8
0
100
AcDbLine
62
7
6
CONTINUOUS
10
292.8612448630
20
180.6221089108
11
292.8612448630
21
178.1221089108
0
LWPOLYLINE
5
317
100
AcDbEntity
8
0
100
AcDbPolyline
62
7
6
CONTINUOUS
90
9
70
0
10
363.2958844343
20
139.6221089108
10
363.3925448616
20
139.6315416719
10
363.4861159633
20
139.6597108501
10
363.5727556220
20
139.7057649034
10
363.6491774096
20
139.7682952931
10
363.7123153582
20
139.8453684785
10
363.7591724594
20
139.9340551697
10
363.7874822215
20
140.0308349345
10
363.7958839231
20
140.1228019741
0
LWPOLYLINE
5
318
100
AcDbEntity
8
0
100
AcDbPolyline
62
7
6
CONTINUOUS
90
10
70
0
10
286.4266052891
20
139.6221089108
10
286.3381736989
20
139.6299953794
10
286.2511390224
20
139.6539085377
10
286.1703146551
20
139.6927897086
10
286.0969026978
20
139.7462150403
10
286.0328048178
20
139.8140161056
10
285.9813919369
20
139.8945455741
10
285.9455398234
20
139.9858160914
10
285.9280505005
20
140.0841204289
10
285.9266078630
20
140.1228750102
0
LINE
5
319
100
AcDbEntity
8
0
100
AcDbLine
62
7
6
CONTINUOUS
10
363.3568623899
20
139.6221089108
11
286.3656273361
21
139.6221089108
0
LINE
5
31A
100
AcDbEntity
8
0
100
AcDbLine
62
7
6
CONTINUOUS
10
359.8563746615
20
140.1221089108
11
289.8661150644
21
140.1221089108
0
LINE
5
31B
100
AcDbEntity
8
0
100
AcDbLine
62
7
6
CONTINUOUS
10
313.1240099342
20
175.2132888761
11
313.3440944309
21
162.6046565043
0
LINE
5
31C
100
AcDbEntity
8
0
100
AcDbLine
62
7
6
CONTINUOUS
10
346.5221347570
20
177.8580276290
11
344.4568044484
21
177.1221089108
0
LINE
5
31D
100
AcDbEntity
8
0
100
AcDbLine
62
7
6
CONTINUOUS
10
346.5220902809
20
177.8580131245
11
346.5221347570
21
177.8580276290
0
LWPOLYLINE
5
31E
100
AcDbEntity
8
0
100
AcDbPolyline
62
7
6
CONTINUOUS
90
11
70
0
10
358.0139803668
20
182.4337755453
10
357.3024870626
20
182.1054446672
10
356.7389823482
20
181.8493199777
10
356.0096928593
20
181.5229848246
10
355.1130705854
20
181.1301208130
10
354.0473868292
20
180.6751577365
10
352.8140244989
20
180.1653567793
10
351.4100652029
20
179.6072822908
10
349.8515610235
20
179.0163419557
10
348.1608604064
20
178.4100945524
10
346.5220885355
20
177.8580184698
0
LINE
5
31F
100
AcDbEntity
8
0
100
AcDbLine
62
7
6
CONTINUOUS
10
336.8974182226
20
175.9090869189
11
337.8399999065
21
176.8353593599
0
LINE
5
320
100
AcDbEntity
8
0
100
AcDbLine
62
7
6
CONTINUOUS
10
314.2428142152
20
160.6221089108
11
335.4796755108
21
160.6221089108
0
LINE
5
321
100
AcDbEntity
8
DEFAULT_1
100
AcDbLine
62
2
6
CENTER
10
324.8612448630
20
186.1221089108
11
324.8612448630
21
134.3916878472
0
LINE
5
322
100
AcDbEntity
8
0
100
AcDbLine
62
7
6
CONTINUOUS
10
314.3439421261
20
161.6221089108
11
335.3785475999
21
161.6221089108
0
LINE
5
323
100
AcDbEntity
8
0
100
AcDbLine
62
7
6
CONTINUOUS
10
311.8824898195
20
176.8353593599
11
312.8250715034
21
175.9090869189
0
LINE
5
324
100
AcDbEntity
8
0
100
AcDbLine
62
7
6
CONTINUOUS
10
285.9266101484
20
140.1238411494
11
285.9321653543
21
140.1261947779
0
LINE
5
325
100
AcDbEntity
8
0
100
AcDbLine
62
7
6
CONTINUOUS
10
292.4211593369
20
182.1049152470
11
291.7085053840
21
182.4337774006
0
LINE
5
326
100
AcDbEntity
8
0
100
AcDbLine
62
7
6
CONTINUOUS
10
303.2004080838
20
177.8580162201
11
303.2003538099
21
177.8580339192
0
LWPOLYLINE
5
327
100
AcDbEntity
8
0
100
AcDbPolyline
62
7
6
CONTINUOUS
90
10
70
0
10
303.2004080838
20
177.8580162201
10
301.5757749450
20
178.4051779702
10
299.8829476898
20
179.0119032694
10
298.3222932419
20
179.6034449964
10
296.9163128351
20
180.1621710299
10
295.6811675275
20
180.6726067060
10
294.6139142410
20
181.1281742478
10
293.7159485183
20
181.5215877409
10
292.9855439047
20
181.8484005018
10
292.4211593369
20
182.1049152470
0
LINE
5
328
100
AcDbEntity
8
0
100
AcDbLine
62
7
6
CONTINUOUS
10
305.2644675322
20
177.1221089108
11
303.2003528212
21
177.8580308923
0
LINE
5
329
100
AcDbEntity
8
0
100
AcDbLine
62
7
6
CONTINUOUS
10
363.7903243717
20
140.1261947778
11
363.7958844361
21
140.1220665396
0
LINE
5
32A
100
AcDbEntity
8
0
100
AcDbLine
62
7
6
CONTINUOUS
10
336.3783952950
20
162.6046565043
11
336.5984797917
21
175.2132888761
0
LINE
5
32B
100
AcDbEntity
8
0
100
AcDbLine
62
7
6
CONTINUOUS
10
337.7018772396
20
174.1221089108
11
355.5687920232
21
174.1221089108
0
LINE
5
32C
100
AcDbEntity
8
0
100
AcDbLine
62
7
6
CONTINUOUS
10
294.1538027681
20
174.1220487146
11
312.0206124864
21
174.1221089108
0
LINE
5
32D
100
AcDbEntity
8
0
100
AcDbLine
62
7
6
CONTINUOUS
10
337.6229946729
20
176.6221089108
11
312.0994950531
21
176.6221089108
0
LINE
5
32E
100
AcDbEntity
8
0
100
AcDbLine
62
7
6
CONTINUOUS
10
293.8612448630
20
177.1221089108
11
355.8612448630
21
177.1221089108
0
LINE
5
32F
100
AcDbEntity
8
0
100
AcDbLine
62
7
6
CONTINUOUS
10
290.2132063970
20
177.6221089108
11
290.2437368422
21
177.6221089108
0
LINE
5
330
100
AcDbEntity
8
0
100
AcDbLine
62
7
6
CONTINUOUS
10
359.4787530645
20
177.6221089108
11
359.5092833280
21
177.6221089108
0
LINE
5
331
100
AcDbEntity
8
0
100
AcDbLine
62
7
6
CONTINUOUS
10
286.7321557833
20
182.6221089108
11
290.8612448630
21
182.6221089108
0
LINE
5
332
100
AcDbEntity
8
0
100
AcDbLine
62
7
6
CONTINUOUS
10
358.8612448630
20
182.6221089108
11
362.9903339427
21
182.6221089108
0
LINE
5
333
100
AcDbEntity
8
0
100
AcDbLine
62
7
6
CONTINUOUS
10
356.8612448630
20
178.1221089108
11
356.8612448630
21
180.6221089108
0
LINE
5
334
100
AcDbEntity
8
0
100
AcDbLine
62
7
6
CONTINUOUS
10
363.4903149042
20
182.1264721785
11
363.8568433514
21
140.1264721785
0
LINE
5
335
100
AcDbEntity
8
0
100
AcDbLine
62
7
6
CONTINUOUS
10
363.7700735697
20
148.4023062707
11
363.7378274736
21
153.6088526244
0
LWPOLYLINE
5
336
100
AcDbEntity
8
0
100
AcDbPolyline
62
7
6
CONTINUOUS
90
3
70
0
10
363.7958843175
20
140.1228106510
10
363.7906887038
20
142.8036035070
10
363.7700735697
20
148.4023062707
0
ARC
5
337
100
AcDbEntity
8
0
100
AcDbCircle
62
7
6
CONTINUOUS
10
197.1861667938
20
140.1221089108
40
0.5000000000
100
AcDbArc
50
270.0000511213
51
360.0000000000
0
ARC
5
338
100
AcDbEntity
8
0
100
AcDbCircle
62
7
6
CONTINUOUS
10
133.2055711756
20
161.6221089108
40
0.5000000000
100
AcDbArc
50
0.0019685257
51
90.0000000000
0
ARC
5
339
100
AcDbEntity
8
0
100
AcDbCircle
62
7
6
CONTINUOUS
10
108.2055711756
20
161.6221089108
40
0.5000000000
100
AcDbArc
50
90.0000000000
51
179.9979911934
0
ARC
5
33A
100
AcDbEntity
8
0
100
AcDbCircle
62
7
6
CONTINUOUS
10
108.2055711756
20
165.1221089108
40
0.5000000000
100
AcDbArc
50
90.0000000000
51
180.0000000000
0
ARC
5
33B
100
AcDbEntity
8
0
100
AcDbCircle
62
7
6
CONTINUOUS
10
133.2055711756
20
165.1221089108
40
0.5000000000
100
AcDbArc
50
0.0000000000
51
90.0000000000
0
ARC
5
33C
100
AcDbEntity
8
0
100
AcDbCircle
62
7
6
CONTINUOUS
10
106.7055711756
20
176.1221089108
40
1.0000000000
100
AcDbArc
50
0.0000000000
51
90.0000000000
0
ARC
5
33D
100
AcDbEntity
8
0
100
AcDbCircle
62
7
6
CONTINUOUS
10
107.2055711756
20
140.1221089108
40
0.5000000000
100
AcDbArc
50
270.0000000000
51
360.0000000000
0
ARC
5
33E
100
AcDbEntity
8
0
100
AcDbCircle
62
7
6
CONTINUOUS
10
106.7055711756
20
160.6221089108
40
1.0000000000
100
AcDbArc
50
0.0000000000
51
90.0000000000
0
ARC
5
33F
100
AcDbEntity
8
0
100
AcDbCircle
62
7
6
CONTINUOUS
10
93.7055711756
20
160.6221089108
40
1.0000000000
100
AcDbArc
50
90.0000000000
51
180.0000000000
0
ARC
5
340
100
AcDbEntity
8
0
100
AcDbCircle
62
7
6
CONTINUOUS
10
93.2055711756
20
140.1221089108
40
0.5000000000
100
AcDbArc
50
180.0000000000
51
270.0000000000
0
ARC
5
341
100
AcDbEntity
8
0
100
AcDbCircle
62
7
6
CONTINUOUS
10
95.7055711756
20
140.1221089108
40
0.5000000000
100
AcDbArc
50
270.0000000000
51
360.0000000000
0
ARC
5
342
100
AcDbEntity
8
0
100
AcDbCircle
62
7
6
CONTINUOUS
10
97.2055711756
20
155.6221089108
40
1.0000000000
100
AcDbArc
50
90.0000000000
51
180.0000000000
0
ARC
5
343
100
AcDbEntity
8
0
100
AcDbCircle
62
7
6
CONTINUOUS
10
103.2055711756
20
155.6221089108
40
1.0000000000
100
AcDbArc
50
0.0000000000
51
90.0000000000
0
ARC
5
344
100
AcDbEntity
8
0
100
AcDbCircle
62
7
6
CONTINUOUS
10
104.7055711756
20
140.1221089108
40
0.5000000000
100
AcDbArc
50
180.0000000000
51
270.0000000000
0
ARC
5
345
100
AcDbEntity
8
0
100
AcDbCircle
62
7
6
CONTINUOUS
10
197.3174949489
20
149.0201172656
40
10.0000000000
100
AcDbArc
50
39.5604846636
51
74.4794754813
0
ARC
5
346
100
AcDbEntity
8
0
100
AcDbCircle
62
7
6
CONTINUOUS
10
164.9800419926
20
147.6221089108
40
20.0000000000
100
AcDbArc
50
74.4794754813
51
90.0000000000
0
ARC
5
347
100
AcDbEntity
8
0
100
AcDbCircle
62
7
6
CONTINUOUS
10
141.7055711756
20
169.6221089108
40
2.0000000000
100
AcDbArc
50
180.0000000000
51
270.0000000000
0
ARC
5
348
100
AcDbEntity
8
0
100
AcDbCircle
62
7
6
CONTINUOUS
10
139.2055711756
20
176.6221089108
40
0.5000000000
100
AcDbArc
50
0.0000000000
51
90.0000000000
0
ARC
5
349
100
AcDbEntity
8
0
100
AcDbCircle
62
7
6
CONTINUOUS
10
134.2055711756
20
176.6221089108
40
0.5000000000
100
AcDbArc
50
90.0000000000
51
180.0000000000
0
ARC
5
34A
100
AcDbEntity
8
0
100
AcDbCircle
62
7
6
CONTINUOUS
10
134.2055711756
20
140.1221089108
40
0.5000000000
100
AcDbArc
50
180.0000000000
51
270.0000000000
0
ARC
5
34B
100
AcDbEntity
8
0
100
AcDbCircle
62
7
6
CONTINUOUS
10
137.2055711756
20
140.1221089108
40
0.5000000000
100
AcDbArc
50
270.0000000000
51
360.0000000000
0
ARC
5
34C
100
AcDbEntity
8
0
100
AcDbCircle
62
7
6
CONTINUOUS
10
138.7055711756
20
162.1221089108
40
1.0000000000
100
AcDbArc
50
90.0000000000
51
180.0000000000
0
ARC
5
34D
100
AcDbEntity
8
0
100
AcDbCircle
62
7
6
CONTINUOUS
10
144.2829548863
20
140.1221089108
40
0.5000000000
100
AcDbArc
50
180.0000000000
51
270.0000000000
0
ARC
5
34E
100
AcDbEntity
8
0
100
AcDbCircle
62
7
6
CONTINUOUS
10
195.8096421768
20
140.1221089108
40
0.5000000000
100
AcDbArc
50
270.0000000000
51
360.0000000000
0
ARC
5
34F
100
AcDbEntity
8
0
100
AcDbCircle
62
7
6
CONTINUOUS
10
197.3174949489
20
149.0201172656
40
5.5000000000
100
AcDbArc
50
39.5604846636
51
74.4794754813
0
ARC
5
350
100
AcDbEntity
8
0
100
AcDbCircle
62
7
6
CONTINUOUS
10
147.2055711756
20
107.6221089108
40
70.5000000000
100
AcDbArc
50
35.6148714498
51
39.5604846636
0
ARC
5
351
100
AcDbEntity
8
0
100
AcDbCircle
62
7
6
CONTINUOUS
10
203.7055711756
20
148.0943216005
40
1.0000000000
100
AcDbArc
50
0.0000000000
51
35.6148714498
0
ARC
5
352
100
AcDbEntity
8
0
100
AcDbCircle
62
7
6
CONTINUOUS
10
205.2055711756
20
140.1552131443
40
0.5000000000
100
AcDbArc
50
180.0000000000
51
276.2283235504
0
ARC
5
353
100
AcDbEntity
8
0
100
AcDbCircle
62
7
6
CONTINUOUS
10
147.2055711756
20
107.6221089108
40
75.0000000000
100
AcDbArc
50
33.5844993634
51
90.0000000000
0
ARC
5
354
100
AcDbEntity
8
0
100
AcDbCircle
62
7
6
CONTINUOUS
10
204.5971041564
20
145.7305759300
40
6.1084670192
100
AcDbArc
50
270.0000000000
51
33.5844993634
0
ARC
5
355
100
AcDbEntity
8
0
100
AcDbCircle
62
7
6
CONTINUOUS
10
197.3096494869
20
153.6926002578
40
1.0000000000
100
AcDbArc
50
74.4794754815
51
180.0008485023
0
ARC
5
356
100
AcDbEntity
8
0
100
AcDbCircle
62
7
6
CONTINUOUS
10
142.2222564021
20
162.1221089108
40
1.0000000000
100
AcDbArc
50
59.2106484247
51
90.0000000000
0
ARC
5
357
100
AcDbEntity
8
0
100
AcDbCircle
62
7
6
CONTINUOUS
10
106.7055711756
20
176.1221089108
40
1.5000074603
100
AcDbArc
50
0.0000000000
51
19.4712206345
0
ARC
5
358
100
AcDbEntity
8
0
100
AcDbCircle
62
7
6
CONTINUOUS
10
335.3785475999
20
162.6221089108
40
1.0000000000
100
AcDbArc
50
270.0000000000
51
359.0000000000
0
ARC
5
359
100
AcDbEntity
8
0
100
AcDbCircle
62
7
6
CONTINUOUS
10
312.1241622391
20
175.1958364697
40
1.0000000000
100
AcDbArc
50
1.0000000000
51
45.5000000000
0
ARC
5
35A
100
AcDbEntity
8
0
100
AcDbCircle
62
7
6
CONTINUOUS
10
314.3439421261
20
162.6221089108
40
1.0000000000
100
AcDbArc
50
181.0000000000
51
270.0000000000
0
ARC
5
35B
100
AcDbEntity
8
0
100
AcDbCircle
62
7
6
CONTINUOUS
10
311.1815805552
20
176.1221089108
40
1.0000000000
100
AcDbArc
50
45.5000000000
51
90.0000000000
0
ARC
5
35C
100
AcDbEntity
8
0
100
AcDbCircle
62
7
6
CONTINUOUS
10
337.5983274869
20
175.1958364697
40
1.0000000000
100
AcDbArc
50
134.5000000000
51
179.0000000000
0
ARC
5
35D
100
AcDbEntity
8
0
100
AcDbCircle
62
7
6
CONTINUOUS
10
338.5409091708
20
176.1221089108
40
1.0000000000
100
AcDbArc
50
90.0000000000
51
134.5000000000
0
ARC
5
35E
100
AcDbEntity
8
0
100
AcDbCircle
62
7
6
CONTINUOUS
10
293.8612448630
20
178.1221089108
40
1.0000000000
100
AcDbArc
50
180.0000000000
51
270.0000000000
0
ARC
5
35F
100
AcDbEntity
8
0
100
AcDbCircle
62
7
6
CONTINUOUS
10
355.8612448630
20
178.1221089108
40
1.0000000000
100
AcDbArc
50
270.0000003368
51
360.0000000000
0
ARC
5
360
100
AcDbEntity
8
0
100
AcDbCircle
62
7
6
CONTINUOUS
10
290.8612448630
20
180.6221089108
40
2.0000000000
100
AcDbArc
50
0.0000000000
51
90.0000000000
0
ARC
5
361
100
AcDbEntity
8
0
100
AcDbCircle
62
7
6
CONTINUOUS
10
358.8612448630
20
180.6221089108
40
2.0000000000
100
AcDbArc
50
90.0000000000
51
180.0000000000
0
ARC
5
362
100
AcDbEntity
8
0
100
AcDbCircle
62
7
6
CONTINUOUS
10
286.7321557833
20
182.1221089108
40
0.5000000000
100
AcDbArc
50
90.0000000000
51
179.5000000000
0
ARC
5
363
100
AcDbEntity
8
0
100
AcDbCircle
62
7
6
CONTINUOUS
10
286.3656273361
20
140.1221089108
40
0.5000000000
100
AcDbArc
50
179.5000000000
51
270.0000000000
0
ARC
5
364
100
AcDbEntity
8
0
100
AcDbCircle
62
7
6
CONTINUOUS
10
363.3568623899
20
140.1221089108
40
0.5000000000
100
AcDbArc
50
270.0000000000
51
0.5000000000
0
ARC
5
365
100
AcDbEntity
8
0
100
AcDbCircle
62
7
6
CONTINUOUS
10
362.9903339427
20
182.1221089108
40
0.5000000000
100
AcDbArc
50
0.5000000000
51
90.0000000000
0
SPLINE
5
366
100
AcDbEntity
8
0
100
AcDbSpline
62
7
6
CONTINUOUS
70
0
71
3
72
9
73
5
74
3
42
0.0000001000
43
0.0000001000
44
0.0000000001
12
1.4024399168
22
-0.8356687172
32
0.0000000000
13
-0.0000000054
23
-2.1451749362
33
0.0000000000
40
0.0000000000
40
0.0000000000
40
0.0000000000
40
0.0000000000
40
0.4999999978
40
1.0000000000
40
1.0000000000
40
1.0000000000
40
1.0000000000
10
142.7341396183
20
162.9811639526
30
0.0000000000
10
142.9678796034
20
162.8418858337
30
0.0000000000
10
143.4919233603
20
162.3252064212
30
0.0000000000
10
143.7829548866
20
161.5902759710
30
0.0000000000
10
143.7829548857
20
161.2327468133
30
0.0000000000
11
142.7341396183
21
162.9811639526
31
0.0000000000
11
143.4336703009
21
162.2706436645
31
0.0000000000
11
143.7829548857
21
161.2327468133
31
0.0000000000
0
SPLINE
5
367
100
AcDbEntity
8
0
100
AcDbSpline
62
7
6
CONTINUOUS
70
0
71
3
72
12
73
8
74
6
42
0.0000001000
43
0.0000001000
44
0.0000000001
12
1.7292289168
22
1.2162697069
32
0.0000000000
13
2.0333688392
23
-0.5721181400
33
0.0000000000
40
0.0000000000
40
0.0000000000
40
0.0000000000
40
0.0000000000
40
0.1148881666
40
0.3013900869
40
0.5079736456
40
0.7390025769
40
1.0000000000
40
1.0000000000
40
1.0000000000
40
1.0000000000
10
194.4442536648
20
160.1973748932
30
0.0000000000
10
194.5104763114
20
160.2439532255
30
0.0000000000
10
194.6901817755
20
160.3576609163
30
0.0000000000
10
195.0163239259
20
160.5083692972
30
0.0000000000
10
195.4438037748
20
160.6208185007
30
0.0000000000
10
195.9381702648
20
160.6504846843
30
0.0000000000
10
196.2838120045
20
160.5944397917
30
0.0000000000
10
196.4607133469
20
160.5446660050
30
0.0000000000
11
194.4442536648
21
160.1973748932
31
0.0000000000
11
194.6494870495
21
160.3271131552
31
0.0000000000
11
195.0072260639
21
160.4921016190
31
0.0000000000
11
195.4292744197
21
160.6029844051
31
0.0000000000
11
195.9164038571
21
160.6322491795
31
0.0000000000
11
196.4607133469
21
160.5446660050
31
0.0000000000
0
SPLINE
5
368
100
AcDbEntity
8
0
100
AcDbSpline
62
7
6
CONTINUOUS
70
0
71
3
72
11
73
7
74
5
42
0.0000001000
43
0.0000001000
44
0.0000000001
12
0.0000000000
22
1.0003907268
32
0.0000000000
13
-1.0003907268
23
0.0000000000
33
0.0000000000
40
0.0000000000
40
0.0000000000
40
0.0000000000
40
0.0000000000
40
0.0763831084
40
0.2931451721
40
0.6174638442
40
1.0000000000
40
1.0000000000
40
1.0000000000
40
1.0000000000
10
107.7055711756
20
162.5872040979
30
0.0000000000
10
107.7055711756
20
162.6126750823
30
0.0000000000
10
107.5484426930
20
162.5677207012
30
0.0000000000
10
107.3962859673
20
162.6168208378
30
0.0000000000
10
107.0611279632
20
162.5974838316
30
0.0000000000
10
106.8331330499
20
162.6046565043
30
0.0000000000
10
106.7055711756
20
162.6046565043
30
0.0000000000
11
107.7055711756
21
162.5872040979
31
0.0000000000
11
107.6294506544
21
162.5938828469
31
0.0000000000
11
107.4126778268
21
162.5995448151
31
0.0000000000
11
107.0882544927
21
162.6033280198
31
0.0000000000
11
106.7055711756
21
162.6046565043
31
0.0000000000
0
SPLINE
5
369
100
AcDbEntity
8
0
100
AcDbSpline
62
7
6
CONTINUOUS
70
0
71
3
72
12
73
8
74
6
42
0.0000001000
43
0.0000001000
44
0.0000000001
12
0.0000000000
22
1.0004254252
32
0.0000000000
13
-1.0004254252
23
-0.0000000000
33
0.0000000000
40
0.0000000000
40
0.0000000000
40
0.0000000000
40
0.0000000000
40
0.0492187810
40
0.1912811633
40
0.4124525030
40
0.6911132333
40
1.0000000000
40
1.0000000000
40
1.0000000000
40
1.0000000000
10
107.7055711756
20
175.1958364697
30
0.0000000000
10
107.7055711756
20
175.2122497097
30
0.0000000000
10
107.6034063581
20
175.1854784019
30
0.0000000000
10
107.5014238431
20
175.2175398359
30
0.0000000000
10
107.2688166467
20
175.2062561777
30
0.0000000000
10
107.0063890837
20
175.2142604967
30
0.0000000000
10
106.8085772339
20
175.2132888761
30
0.0000000000
10
106.7055711756
20
175.2132888761
30
0.0000000000
11
107.7055711756
21
175.1958364697
31
0.0000000000
11
107.6566276919
21
175.2012295599
31
0.0000000000
11
107.5145881700
21
175.2060947368
31
0.0000000000
11
107.2933564279
21
175.2099557631
31
0.0000000000
11
107.0145881700
21
175.2124346946
31
0.0000000000
11
106.7055711756
21
175.2132888761
31
0.0000000000
0
SPLINE
5
36A
100
AcDbEntity
8
0
100
AcDbSpline
62
7
6
CONTINUOUS
70
0
71
3
72
15
73
11
74
9
42
0.0000001000
43
0.0000001000
44
0.0000000001
12
0.0001649934
22
1.2089073895
32
0.0000000000
13
1.2089074004
23
0.0000280260
33
0.0000000000
40
0.0000000000
40
0.0000000000
40
0.0000000000
40
0.0000000000
40
0.0902912255
40
0.1899342678
40
0.3045665496
40
0.4336876138
40
0.5723583413
40
0.7171411027
40
0.8619063917
40
1.0000000000
40
1.0000000000
40
1.0000000000
40
1.0000000000
10
133.2055711756
20
176.6221089108
30
0.0000000000
10
133.2055761414
20
176.6584934873
30
0.0000000000
10
133.2236125065
20
176.7355775690
30
0.0000000000
10
133.2950030923
20
176.8378965525
30
0.0000000000
10
133.4030943863
20
176.9262716611
30
0.0000000000
10
133.5395144155
20
176.9994107334
30
0.0000000000
10
133.6963671136
20
177.0559253605
30
0.0000000000
10
133.8647552877
20
177.0951255374
30
0.0000000000
10
134.0358833606
20
177.1173703185
30
0.0000000000
10
134.1499235335
20
177.1221076207
30
0.0000000000
10
134.2055709951
20
177.1221089108
30
0.0000000000
11
133.2055711756
21
176.6221089108
31
0.0000000000
11
133.2287095787
21
176.7287820153
31
0.0000000000
11
133.2952136849
21
176.8292191869
31
0.0000000000
11
133.4007954047
21
176.9189792297
31
0.0000000000
11
133.5375681322
21
176.9942055418
31
0.0000000000
11
133.6949286909
21
177.0520056043
31
0.0000000000
11
133.8652644166
21
177.0922656901
31
0.0000000000
11
134.0387756273
21
177.1151042547
31
0.0000000000
11
134.2055709951
21
177.1221089108
31
0.0000000000
0
SPLINE
5
36B
100
AcDbEntity
8
0
100
AcDbSpline
62
7
6
CONTINUOUS
70
0
71
3
72
8
73
4
74
2
42
0.0000001000
43
0.0000001000
44
0.0000000001
12
0.0616747021
22
0.1501625521
32
0.0000000000
13
0.0662355546
23
0.1481926603
33
0.0000000000
40
0.0000000000
40
0.0000000000
40
0.0000000000
40
0.0000000000
40
1.0000000000
40
1.0000000000
40
1.0000000000
40
1.0000000000
10
133.8046876518
20
177.1221733393
30
0.0000000000
10
133.8252458858
20
177.1722275233
30
0.0000000000
10
133.8472231061
20
177.2216676159
30
0.0000000000
10
133.8693016243
20
177.2710651693
30
0.0000000000
11
133.8046876518
21
177.1221733393
31
0.0000000000
11
133.8693016243
21
177.2710651693
31
0.0000000000
0
SPLINE
5
36C
100
AcDbEntity
8
0
100
AcDbSpline
62
7
6
CONTINUOUS
70
0
71
3
72
11
73
7
74
5
42
0.0000001000
43
0.0000001000
44
0.0000000001
12
0.3735648346
22
0.8357983413
32
0.0000000000
13
0.2896252262
23
0.8683803490
33
0.0000000000
40
0.0000000000
40
0.0000000000
40
0.0000000000
40
0.0000000000
40
0.0124209780
40
0.2694315090
40
0.5948097061
40
1.0000000000
40
1.0000000000
40
1.0000000000
40
1.0000000000
10
133.8693016243
20
177.2710651693
30
0.0000000000
10
133.8708483045
20
177.2745256469
30
0.0000000000
10
133.9044091335
20
177.3495845880
30
0.0000000000
10
133.9785454264
20
177.5152755029
30
0.0000000000
10
134.0891319460
20
177.7956634273
30
0.0000000000
10
134.1664533988
20
178.0048224811
30
0.0000000000
10
134.2055711756
20
178.1221089108
30
0.0000000000
11
133.8693016243
21
177.2710651693
31
0.0000000000
11
133.8739427032
21
177.2814461724
31
0.0000000000
11
133.9685881307
21
177.4968380820
31
0.0000000000
11
134.0793050108
21
177.7733487941
31
0.0000000000
11
134.2055711756
21
178.1221089108
31
0.0000000000
0
SPLINE
5
36D
100
AcDbEntity
8
0
100
AcDbSpline
62
7
6
CONTINUOUS
70
0
71
3
72
11
73
7
74
5
42
0.0000001000
43
0.0000001000
44
0.0000000001
12
0.7609773177
22
0.0000000000
32
0.0000000000
13
0.0000000000
23
0.7609773177
33
0.0000000000
40
0.0000000000
40
0.0000000000
40
0.0000000000
40
0.0000000000
40
0.2440507203
40
0.4916279336
40
0.7441086450
40
1.0000000000
40
1.0000000000
40
1.0000000000
40
1.0000000000
10
100.8055711756
20
139.6221089108
30
0.0000000000
10
100.8674768631
20
139.6221089108
30
0.0000000000
10
100.9936380637
20
139.6486190401
30
0.0000000000
10
101.1515052690
20
139.7608544599
30
0.0000000000
10
101.2562711202
20
139.9269349527
30
0.0000000000
10
101.2805711756
20
140.0571997384
30
0.0000000000
10
101.2805711756
20
140.1221089108
30
0.0000000000
11
100.8055711756
21
139.6221089108
31
0.0000000000
11
100.9873463849
21
139.6601693969
31
0.0000000000
11
101.1414474245
21
139.7685560757
31
0.0000000000
11
101.2444141366
21
139.9307676596
31
0.0000000000
11
101.2805711756
21
140.1221089108
31
0.0000000000
0
SPLINE
5
36E
100
AcDbEntity
8
0
100
AcDbSpline
62
7
6
CONTINUOUS
70
0
71
3
72
13
73
9
74
7
42
0.0000001000
43
0.0000001000
44
0.0000000001
12
-0.0042202658
22
-1.0365990751
32
0.0000000000
13
-1.0362602263
23
-0.0008218107
33
0.0000000000
40
0.0000000000
40
0.0000000000
40
0.0000000000
40
0.0000000000
40
0.2465869775
40
0.4746635552
40
0.6725086571
40
0.8293975211
40
0.9377899001
40
1.0000000000
40
1.0000000000
40
1.0000000000
40
1.0000000000
10
94.4615652582
20
162.6046565043
30
0.0000000000
10
94.4612183706
20
162.5194525600
30
0.0000000000
10
94.4555521455
20
162.3554355852
30
0.0000000000
10
94.4322497709
20
162.1239296857
30
0.0000000000
10
94.3983639756
20
161.9256295648
30
0.0000000000
10
94.3531298666
20
161.7703230520
30
0.0000000000
10
94.3104666103
20
161.6684741664
30
0.0000000000
10
94.2602954978
20
161.6221259457
30
0.0000000000
10
94.2388068804
20
161.6221089041
30
0.0000000000
11
94.4615652582
21
162.6046565043
31
0.0000000000
11
94.4524216643
21
162.3492061437
31
0.0000000000
11
94.4283330990
21
162.1140105637
31
0.0000000000
11
94.3916208991
21
161.9122354431
31
0.0000000000
11
94.3453682061
21
161.7563190533
31
0.0000000000
11
94.2931692467
21
161.6568196986
31
0.0000000000
11
94.2388068804
21
161.6221089041
31
0.0000000000
0
SPLINE
5
36F
100
AcDbEntity
8
0
100
AcDbSpline
62
7
6
CONTINUOUS
70
0
71
3
72
12
73
8
74
6
42
0.0000001000
43
0.0000001000
44
0.0000000001
12
-0.9904459459
22
0.0020959298
32
0.0000000000
13
-0.0629914913
23
-0.2552797974
33
0.0000000000
40
0.0000000000
40
0.0000000000
40
0.0000000000
40
0.0000000000
40
0.3350661079
40
0.6321597591
40
0.8576226556
40
0.9859465632
40
1.0000000000
40
1.0000000000
40
1.0000000000
40
1.0000000000
10
94.4615652582
20
162.6046568270
30
0.0000000000
10
94.3509436355
20
162.6048909187
30
0.0000000000
10
94.1376454751
20
162.6029026646
30
0.0000000000
10
93.8717747942
20
162.6078676811
30
0.0000000000
10
93.6156000574
20
162.5879562256
30
0.0000000000
10
93.5599397406
20
162.6105661942
30
0.0000000000
10
93.4676561003
20
162.5890943916
30
0.0000000000
10
93.4673610180
20
162.5878985387
30
0.0000000000
11
94.4615652582
21
162.6046568270
31
0.0000000000
11
94.1296997709
21
162.6043699616
31
0.0000000000
11
93.8354523799
21
162.6021373093
31
0.0000000000
11
93.6121775717
21
162.5982119125
31
0.0000000000
11
93.4851847178
21
162.5930387055
31
0.0000000000
11
93.4673610180
21
162.5878985387
31
0.0000000000
0
SPLINE
5
370
100
AcDbEntity
8
0
100
AcDbSpline
62
7
6
CONTINUOUS
70
0
71
3
72
10
73
6
74
4
42
0.0000001000
43
0.0000001000
44
0.0000000001
12
-0.0248087341
22
-11.5349043865
32
0.0000000000
13
-0.0244101720
23
-11.5349052368
33
0.0000000000
40
0.0000000000
40
0.0000000000
40
0.0000000000
40
0.0000000000
40
0.3333072244
40
0.6666405577
40
1.0000000000
40
1.0000000000
40
1.0000000000
40
1.0000000000
10
94.4861746875
20
174.1395613172
30
0.0000000000
10
94.4834183774
20
172.8580056622
30
0.0000000000
10
94.4779203064
20
170.2947939325
30
0.0000000000
10
94.4697171651
20
166.4498256613
30
0.0000000000
10
94.4642777119
20
163.8864130297
30
0.0000000000
10
94.4615652582
20
162.6046565043
30
0.0000000000
11
94.4861746875
21
174.1395613172
31
0.0000000000
11
94.4779279022
21
170.2948943047
31
0.0000000000
11
94.4697247591
21
166.4499260336
31
0.0000000000
11
94.4615652582
21
162.6046565043
31
0.0000000000
0
SPLINE
5
371
100
AcDbEntity
8
0
100
AcDbSpline
62
7
6
CONTINUOUS
70
0
71
3
72
12
73
8
74
6
42
0.0000001000
43
0.0000001000
44
0.0000000001
12
0.0000000000
22
1.3494678952
32
0.0000000000
13
-1.3494678952
23
-0.0000000000
33
0.0000000000
40
0.0000000000
40
0.0000000000
40
0.0000000000
40
0.0000000000
40
0.1662127988
40
0.3475003242
40
0.5492168971
40
0.7694396363
40
1.0000000000
40
1.0000000000
40
1.0000000000
40
1.0000000000
10
107.7055711756
20
175.1958364697
30
0.0000000000
10
107.7055711756
20
175.2706027483
30
0.0000000000
10
107.6691396106
20
175.4285155928
30
0.0000000000
10
107.5185160291
20
175.6311418932
30
0.0000000000
10
107.2921593896
20
175.7877513796
30
0.0000000000
10
107.0128369996
20
175.8866710801
30
0.0000000000
10
106.8092824452
20
175.9090869189
30
0.0000000000
10
106.7055711756
20
175.9090869189
30
0.0000000000
11
107.7055711756
21
175.1958364697
31
0.0000000000
11
107.6572515227
21
175.4148688392
31
0.0000000000
11
107.5154527606
21
175.6142244766
31
0.0000000000
11
107.2940083304
21
175.7725300976
31
0.0000000000
11
107.0147365184
21
175.8741435684
31
0.0000000000
11
106.7055711756
21
175.9090869189
31
0.0000000000
0
SPLINE
5
372
100
AcDbEntity
8
0
100
AcDbSpline
62
7
6
CONTINUOUS
70
0
71
3
72
12
73
8
74
6
42
0.0000001000
43
0.0000001000
44
0.0000000001
12
-0.9903714209
22
0.0021293958
32
0.0000000000
13
-0.0634351526
23
-0.2606201736
33
0.0000000000
40
0.0000000000
40
0.0000000000
40
0.0000000000
40
0.0000000000
40
0.3354665185
40
0.6328295170
40
0.8583248738
40
0.9863839012
40
1.0000000000
40
1.0000000000
40
1.0000000000
40
1.0000000000
10
94.4861746875
20
174.1395613172
30
0.0000000000
10
94.3754292033
20
174.1397994309
30
0.0000000000
10
94.1619318827
20
174.1377205438
30
0.0000000000
10
93.8958197298
20
174.1430525841
30
0.0000000000
10
93.6397705141
20
174.1222975394
30
0.0000000000
10
93.5839598909
20
174.1461757428
30
0.0000000000
10
93.4925008277
20
174.1239736871
30
0.0000000000
10
93.4922129146
20
174.1227908105
30
0.0000000000
11
94.4861746875
21
174.1395613172
31
0.0000000000
11
94.1539375825
21
174.1392842864
31
0.0000000000
11
93.8594455166
21
174.1370559823
31
0.0000000000
11
93.6361553627
21
174.1331295599
31
0.0000000000
11
93.5094348340
21
174.1279510955
31
0.0000000000
11
93.4922129146
21
174.1227908105
31
0.0000000000
0
SPLINE
5
373
100
AcDbEntity
8
0
100
AcDbSpline
62
7
6
CONTINUOUS
70
0
71
3
72
12
73
8
74
6
42
0.0000001000
43
0.0000001000
44
0.0000000001
12
0.0000000000
22
1.3494584803
32
0.0000000000
13
-1.3494584803
23
0.0000000000
33
0.0000000000
40
0.0000000000
40
0.0000000000
40
0.0000000000
40
0.0000000000
40
0.1673080880
40
0.3483842123
40
0.5497534513
40
0.7695501257
40
1.0000000000
40
1.0000000000
40
1.0000000000
40
1.0000000000
10
107.7055711756
20
176.1221089108
30
0.0000000000
10
107.7055711756
20
176.1973673501
30
0.0000000000
10
107.6687802255
20
176.3556952166
30
0.0000000000
10
107.5176260612
20
176.5581716917
30
0.0000000000
10
107.2915064721
20
176.7142959039
30
0.0000000000
10
107.0125429385
20
176.8129805793
30
0.0000000000
10
106.8092320213
20
176.8353593599
30
0.0000000000
10
106.7055711756
20
176.8353593599
30
0.0000000000
11
107.7055711756
21
176.1221089108
31
0.0000000000
11
107.6566276919
21
176.3425154208
31
0.0000000000
11
107.5145881700
21
176.5413470060
31
0.0000000000
11
107.2933564279
21
176.6991406454
31
0.0000000000
11
107.0145881700
21
176.8004503982
31
0.0000000000
11
106.7055711756
21
176.8353593599
31
0.0000000000
0
SPLINE
5
374
100
AcDbEntity
8
0
100
AcDbSpline
62
7
6
CONTINUOUS
70
0
71
3
72
12
73
8
74
6
42
0.0000001000
43
0.0000001000
44
0.0000000001
12
-0.8252263211
22
0.5307598286
32
0.0000000000
13
-0.2662819152
23
-0.0615055953
33
0.0000000000
40
0.0000000000
40
0.0000000000
40
0.0000000000
40
0.0000000000
40
0.3326418285
40
0.6276834966
40
0.8527119779
40
0.9830298703
40
1.0000000000
40
1.0000000000
40
1.0000000000
40
1.0000000000
10
94.8035266704
20
175.2132888762
30
0.0000000000
10
94.7120250729
20
175.2721398495
30
0.0000000000
10
94.5346694359
20
175.3844119577
30
0.0000000000
10
94.3156969121
20
175.5273835637
30
0.0000000000
10
94.0948217887
20
175.6545819770
30
0.0000000000
10
94.0561089977
20
175.6936439184
30
0.0000000000
10
93.9667258771
20
175.7346617411
30
0.0000000000
10
93.9652195976
20
175.7343138218
30
0.0000000000
11
94.8035266704
21
175.2132888762
31
0.0000000000
11
94.5285864433
21
175.3891629394
31
0.0000000000
11
94.2838571154
21
175.5437934089
31
0.0000000000
11
94.0962350643
21
175.6601859320
31
0.0000000000
11
93.9863395827
21
175.7255491903
31
0.0000000000
11
93.9652195976
21
175.7343138218
31
0.0000000000
0
SPLINE
5
375
100
AcDbEntity
8
0
100
AcDbSpline
62
7
6
CONTINUOUS
70
0
71
3
72
11
73
7
74
5
42
0.0000001000
43
0.0000001000
44
0.0000000001
12
-0.5484410464
22
0.0000000243
32
0.0000000000
13
-0.0000000048
23
0.5484410464
33
0.0000000000
40
0.0000000000
40
0.0000000000
40
0.0000000000
40
0.0000000000
40
0.1298177765
40
0.3482469984
40
0.6504657947
40
1.0000000000
40
1.0000000000
40
1.0000000000
40
1.0000000000
10
199.8128066825
20
139.6221089108
30
0.0000000000
10
199.7890742168
20
139.6221089118
30
0.0000000000
10
199.7338458501
20
139.6713129822
30
0.0000000000
10
199.6944370338
20
139.7818256598
30
0.0000000000
10
199.6619219661
20
139.9390174971
30
0.0000000000
10
199.6556035636
20
140.0582092757
30
0.0000000000
10
199.6556035630
20
140.1221089108
30
0.0000000000
11
199.8128066825
21
139.6221089108
31
0.0000000000
11
199.7526414029
21
139.6601773819
31
0.0000000000
11
199.7016412863
21
139.7685746243
31
0.0000000000
11
199.6675677868
21
139.9307837226
31
0.0000000000
11
199.6556035630
21
140.1221089108
31
0.0000000000
0
SPLINE
5
376
100
AcDbEntity
8
0
100
AcDbSpline
62
7
6
CONTINUOUS
70
0
71
3
72
10
73
6
74
4
42
0.0000001000
43
0.0000001000
44
0.0000000001
12
-0.6131683203
22
-0.9532867093
32
0.0000000000
13
-0.0026285265
23
-1.1334566732
33
0.0000000000
40
0.0000000000
40
0.0000000000
40
0.0000000000
40
0.0000000000
40
0.3469462962
40
0.6820076645
40
1.0000000000
40
1.0000000000
40
1.0000000000
40
1.0000000000
10
94.8040579414
20
175.2132888761
30
0.0000000000
10
94.7331457822
20
175.1030424451
30
0.0000000000
10
94.6140985211
20
174.8722611790
30
0.0000000000
10
94.5095386117
20
174.5069577328
30
0.0000000000
10
94.4864533046
20
174.2597048288
30
0.0000000000
10
94.4861746875
20
174.1395613172
30
0.0000000000
11
94.8040579414
21
175.2132888761
31
0.0000000000
11
94.6243776704
21
174.8634885201
31
0.0000000000
11
94.5196517517
21
174.4984347701
31
0.0000000000
11
94.4861746875
21
174.1395613172
31
0.0000000000
0
SPLINE
5
377
100
AcDbEntity
8
0
100
AcDbSpline
62
7
6
CONTINUOUS
70
0
71
3
72
11
73
7
74
5
42
0.0000001000
43
0.0000001000
44
0.0000000001
12
-0.5338231114
22
0.0000000000
32
0.0000000000
13
0.0000000000
23
0.5338231114
33
0.0000000000
40
0.0000000000
40
0.0000000000
40
0.0000000000
40
0.0000000000
40
0.1156657022
40
0.3328894767
40
0.6411058933
40
1.0000000000
40
1.0000000000
40
1.0000000000
40
1.0000000000
10
203.3408170773
20
139.6221089108
30
0.0000000000
10
203.3202354022
20
139.6221089108
30
0.0000000000
10
203.2745773534
20
139.6768904995
30
0.0000000000
10
203.2455206183
20
139.7822567380
30
0.0000000000
10
203.2185872474
20
139.9399414212
30
0.0000000000
10
203.2137678969
20
140.0582469212
30
0.0000000000
10
203.2137678969
20
140.1221089108
30
0.0000000000
11
203.3408170773
21
139.6221089108
31
0.0000000000
11
203.2921974626
21
139.6601691417
31
0.0000000000
11
203.2509797419
21
139.7685555140
31
0.0000000000
11
203.2234389405
21
139.9307671894
31
0.0000000000
11
203.2137678969
21
140.1221089108
31
0.0000000000
0
SPLINE
5
378
100
AcDbEntity
8
0
100
AcDbSpline
62
7
6
CONTINUOUS
70
0
71
3
72
11
73
7
74
5
42
0.0000001000
43
0.0000001000
44
0.0000000001
12
-0.6886898220
22
0.0000000013
32
0.0000000000
13
-0.0000000048
23
0.6886898220
33
0.0000000000
40
0.0000000000
40
0.0000000000
40
0.0000000000
40
0.0000000000
40
0.2173643433
40
0.4551225977
40
0.7190448944
40
1.0000000000
40
1.0000000000
40
1.0000000000
40
1.0000000000
10
204.5971041552
20
139.6221089108
30
0.0000000000
10
204.5472052849
20
139.6221089108
30
0.0000000000
10
204.4413890737
20
139.6514687091
30
0.0000000000
10
204.3171324447
20
139.7672481589
30
0.0000000000
10
204.2370524953
20
139.9316526853
30
0.0000000000
10
204.2187975569
20
140.0576119369
30
0.0000000000
10
204.2187975565
20
140.1221089108
30
0.0000000000
11
204.5971041552
21
139.6221089108
31
0.0000000000
11
204.4523274815
21
139.6601718855
31
0.0000000000
11
204.3295962234
21
139.7685618265
31
0.0000000000
11
204.2475927310
21
139.9307726238
31
0.0000000000
11
204.2187975565
21
140.1221089108
31
0.0000000000
0
SPLINE
5
379
100
AcDbEntity
8
0
100
AcDbSpline
62
7
6
CONTINUOUS
70
0
71
3
72
18
73
14
74
12
42
0.0000001000
43
0.0000001000
44
0.0000000001
12
1.5474957254
22
0.0000031346
32
0.0000000000
13
0.8924542196
23
-1.2642264378
33
0.0000000000
40
0.0000000000
40
0.0000000000
40
0.0000000000
40
0.0000000000
40
0.0798340688
40
0.1842462075
40
0.3016890337
40
0.4225840354
40
0.5382830350
40
0.6416101089
40
0.7315856595
40
0.8099783750
40
0.8794452923
40
0.9427117757
40
1.0000000000
40
1.0000000000
40
1.0000000000
40
1.0000000000
10
106.7055711813
20
177.1221089108
30
0.0000000000
10
106.7467521414
20
177.1221089942
30
0.0000000000
10
106.8418019802
20
177.1201535086
30
0.0000000000
10
106.9971359787
20
177.1095165076
30
0.0000000000
10
107.1726181651
20
177.0869617147
30
0.0000000000
10
107.3518928227
20
177.0513059988
30
0.0000000000
10
107.5209480783
20
177.0040698686
30
0.0000000000
10
107.6705994749
20
176.9486485744
30
0.0000000000
10
107.7974602785
20
176.8886399559
30
0.0000000000
10
107.9031746494
20
176.8260178242
30
0.0000000000
10
107.9909633041
20
176.7612149116
30
0.0000000000
10
108.0628777007
20
176.6942893654
30
0.0000000000
10
108.1027423655
20
176.6462506734
30
0.0000000000
10
108.1197847380
20
176.6221089108
30
0.0000000000
11
106.7055711813
21
177.1221089108
31
0.0000000000
11
106.8290878026
21
177.1195618515
31
0.0000000000
11
106.9902843129
21
177.1084748633
31
0.0000000000
11
107.1705260435
21
177.0851688168
31
0.0000000000
11
107.3539657308
21
177.0484197943
31
0.0000000000
11
107.5263046980
21
176.9998818760
31
0.0000000000
11
107.6761055929
21
176.9439611472
31
0.0000000000
11
107.8017897314
21
176.8840413823
31
0.0000000000
11
107.9059502603
21
176.8218539181
31
0.0000000000
11
107.9921833401
21
176.7576662726
31
0.0000000000
11
108.0635539141
21
176.6906472133
31
0.0000000000
11
108.1197847380
21
176.6221089108
31
0.0000000000
0
SPLINE
5
37A
100
AcDbEntity
8
0
100
AcDbSpline
62
7
6
CONTINUOUS
70
0
71
3
72
11
73
7
74
5
42
0.0000001000
43
0.0000001000
44
0.0000000001
12
-0.7941212700
22
0.3133242612
32
0.0000000000
13
-0.5230538298
23
-0.6864663492
33
0.0000000000
40
0.0000000000
40
0.0000000000
40
0.0000000000
40
0.0000000000
40
0.3293370359
40
0.6184196439
40
0.8686321546
40
1.0000000000
40
1.0000000000
40
1.0000000000
40
1.0000000000
10
94.8035266704
20
175.9090869189
30
0.0000000000
10
94.7163488220
20
175.9434833467
30
0.0000000000
10
94.5435146433
20
175.9859705419
30
0.0000000000
10
94.2923924810
20
175.9851041146
30
0.0000000000
10
94.1105447102
20
175.9101780627
30
0.0000000000
10
94.0308494376
20
175.8319828055
30
0.0000000000
10
94.0079452861
20
175.8019229371
30
0.0000000000
11
94.8035266704
21
175.9090869189
31
0.0000000000
11
94.5305766077
21
175.9765115934
31
0.0000000000
11
94.2839373108
21
175.9679079601
31
0.0000000000
11
94.0885404869
21
175.8816085057
31
0.0000000000
11
94.0079452861
21
175.8019229371
31
0.0000000000
0
SPLINE
5
37B
100
AcDbEntity
8
0
100
AcDbSpline
62
7
6
CONTINUOUS
70
0
71
3
72
11
73
7
74
5
42
0.0000001000
43
0.0000001000
44
0.0000000001
12
-0.7019648412
22
0.0000000002
32
0.0000000000
13
-0.0000000000
23
0.7019648412
33
0.0000000000
40
0.0000000000
40
0.0000000000
40
0.0000000000
40
0.0000000000
40
0.2228834276
40
0.4625293767
40
0.7240526529
40
1.0000000000
40
1.0000000000
40
1.0000000000
40
1.0000000000
10
138.9986746242
20
139.6221089108
30
0.0000000000
10
138.9465225142
20
139.6221089108
30
0.0000000000
10
138.8368881377
20
139.6507846385
30
0.0000000000
10
138.7060982858
20
139.7659535672
30
0.0000000000
10
138.6214523688
20
139.9308272161
30
0.0000000000
10
138.6021228999
20
140.0575404655
30
0.0000000000
10
138.6021228999
20
140.1221089108
30
0.0000000000
11
138.9986746242
21
139.6221089108
31
0.0000000000
11
138.8469185375
21
139.6601703519
31
0.0000000000
11
138.7182678526
21
139.7685584937
31
0.0000000000
11
138.6323077277
21
139.9307698577
31
0.0000000000
11
138.6021228999
21
140.1221089108
31
0.0000000000
0
SPLINE
5
37C
100
AcDbEntity
8
0
100
AcDbSpline
62
7
6
CONTINUOUS
70
0
71
3
72
12
73
8
74
6
42
0.0000001000
43
0.0000001000
44
0.0000000001
12
0.0270363273
22
1.8006214209
32
0.0000000000
13
1.7351500126
23
-0.4818951114
33
0.0000000000
40
0.0000000000
40
0.0000000000
40
0.0000000000
40
0.0000000000
40
0.2025176482
40
0.4046011938
40
0.6049702952
40
0.8032087020
40
1.0000000000
40
1.0000000000
40
1.0000000000
40
1.0000000000
10
197.5490370785
20
153.3560232406
30
0.0000000000
10
197.5508621896
20
153.4775757791
30
0.0000000000
10
197.5986117688
20
153.7219131815
30
0.0000000000
10
197.7920575956
20
154.0380208306
30
0.0000000000
10
198.0827853781
20
154.2648304865
30
0.0000000000
10
198.4323749418
20
154.3711437245
30
0.0000000000
10
198.6753853424
20
154.3511748381
30
0.0000000000
10
198.7892061501
20
154.3195639166
30
0.0000000000
11
197.5490370785
21
153.3560232406
31
0.0000000000
11
197.6191133248
21
153.7139261261
31
0.0000000000
11
197.8092703856
21
154.0242096385
31
0.0000000000
11
198.0942072026
21
154.2455893676
31
0.0000000000
11
198.4360119101
21
154.3486098883
31
0.0000000000
11
198.7892061501
21
154.3195639166
31
0.0000000000
0
SPLINE
5
37D
100
AcDbEntity
8
0
100
AcDbSpline
62
7
6
CONTINUOUS
70
0
71
3
72
9
73
5
74
3
42
0.0000001000
43
0.0000001000
44
0.0000000001
12
0.1301907569
22
-0.0434311485
32
0.0000000000
13
0.0501508330
23
-0.0190916965
33
0.0000000000
40
0.0000000000
40
0.0000000000
40
0.0000000000
40
0.0000000000
40
0.8589800438
40
1.0000000000
40
1.0000000000
40
1.0000000000
40
1.0000000000
10
197.5490452394
20
153.3560232407
30
0.0000000000
10
197.5863223268
20
153.3435877441
30
0.0000000000
10
197.5944661978
20
153.3417671583
30
0.0000000000
10
197.6837856398
20
153.3078402157
30
0.0000000000
10
197.6861430626
20
153.3069427790
30
0.0000000000
11
197.5490452394
21
153.3560232407
31
0.0000000000
11
197.6602083006
21
153.3167704805
31
0.0000000000
11
197.6861430626
21
153.3069427790
31
0.0000000000
0
SPLINE
5
37E
100
AcDbEntity
8
0
100
AcDbSpline
62
7
6
CONTINUOUS
70
0
71
3
72
15
73
11
74
9
42
0.0000001000
43
0.0000001000
44
0.0000000001
12
-1.7048538799
22
0.1551244748
32
0.0000000000
13
-0.0000000971
23
-1.7118967155
33
0.0000000000
40
0.0000000000
40
0.0000000000
40
0.0000000000
40
0.0000000000
40
0.0938579683
40
0.1952779028
40
0.3094523268
40
0.4361805005
40
0.5726308352
40
0.7148646600
40
0.8586446085
40
1.0000000000
40
1.0000000000
40
1.0000000000
40
1.0000000000
10
139.4389045390
20
162.1221092413
30
0.0000000000
10
139.3855664986
20
162.1269624640
30
0.0000000000
10
139.2713148490
20
162.1107609637
30
0.0000000000
10
139.1159348303
20
162.0212943343
30
0.0000000000
10
138.9755972295
20
161.8833447704
30
0.0000000000
10
138.8517006085
20
161.7061027344
30
0.0000000000
10
138.7475394246
20
161.4987764462
30
0.0000000000
10
138.6672751266
20
161.2707889310
30
0.0000000000
10
138.6152452589
20
161.0319146751
30
0.0000000000
10
138.6021228219
20
160.8690396342
30
0.0000000000
10
138.6021228173
20
160.7883776907
30
0.0000000000
11
139.4389045390
21
162.1221092413
31
0.0000000000
11
139.2794815722
21
162.1020887370
31
0.0000000000
11
139.1267357715
21
162.0195491585
31
0.0000000000
11
138.9851607220
21
161.8847934812
31
0.0000000000
11
138.8592500258
21
161.7081246788
31
0.0000000000
11
138.7534972853
21
161.4998457248
31
0.0000000000
11
138.6723961023
21
161.2702595930
31
0.0000000000
11
138.6204400790
21
161.0296692571
31
0.0000000000
11
138.6021228173
21
160.7883776907
31
0.0000000000
0
SPLINE
5
37F
100
AcDbEntity
8
0
100
AcDbSpline
62
7
6
CONTINUOUS
70
0
71
3
72
13
73
9
74
7
42
0.0000001000
43
0.0000001000
44
0.0000000001
12
1.2859022616
22
0.0189773603
32
0.0000000000
13
0.0000000664
23
-1.2860422881
33
0.0000000000
40
0.0000000000
40
0.0000000000
40
0.0000000000
40
0.0000000000
40
0.1100944337
40
0.2268500667
40
0.3508831943
40
0.4805369667
40
0.7448135501
40
1.0000000000
40
1.0000000000
40
1.0000000000
40
1.0000000000
10
142.7211440516
20
162.1221090487
30
0.0000000000
10
142.7683342787
20
162.1228054826
30
0.0000000000
10
142.8661200723
20
162.1082595514
30
0.0000000000
10
143.0055050831
20
162.0487555678
30
0.0000000000
10
143.1370512370
20
161.9581639974
30
0.0000000000
10
143.2966380778
20
161.8026058965
30
0.0000000000
10
143.4496364715
20
161.5652472374
30
0.0000000000
10
143.5044244566
20
161.3421403353
30
0.0000000000
10
143.5044244622
20
161.2327468133
30
0.0000000000
11
142.7211440516
21
162.1221090487
31
0.0000000000
11
142.8614417435
21
162.1030517498
31
0.0000000000
11
143.0002287574
21
162.0457456201
31
0.0000000000
11
143.1322050555
21
161.9561560776
31
0.0000000000
11
143.2520705993
21
161.8402485407
31
0.0000000000
11
143.4342692702
21
161.5533411565
31
0.0000000000
11
143.5044244622
21
161.2327468133
31
0.0000000000
0
SPLINE
5
380
100
AcDbEntity
8
0
100
AcDbSpline
62
7
6
CONTINUOUS
70
0
71
3
72
10
73
6
74
4
42
0.0000001000
43
0.0000001000
44
0.0000000001
12
-0.1029946150
22
-0.6394630722
32
0.0000000000
13
-0.6405203125
23
0.0015869515
33
0.0000000000
40
0.0000000000
40
0.0000000000
40
0.0000000000
40
0.0000000000
40
0.4986113876
40
0.8367785629
40
1.0000000000
40
1.0000000000
40
1.0000000000
40
1.0000000000
10
97.4068909295
20
156.2104971056
30
0.0000000000
10
97.3897728335
20
156.1042159157
30
0.0000000000
10
97.3542666101
20
155.9246027730
30
0.0000000000
10
97.3014802627
20
155.7341909474
30
0.0000000000
10
97.2300718489
20
155.6220225693
30
0.0000000000
10
97.1952229669
20
155.6221089108
30
0.0000000000
11
97.4068909295
21
156.2104971056
31
0.0000000000
11
97.3443822912
21
155.8973645453
31
0.0000000000
11
97.2718015203
21
155.6932832983
31
0.0000000000
11
97.1952229669
21
155.6221089108
31
0.0000000000
0
SPLINE
5
381
100
AcDbEntity
8
0
100
AcDbSpline
62
7
6
CONTINUOUS
70
0
71
3
72
11
73
7
74
5
42
0.0000001000
43
0.0000001000
44
0.0000000001
12
0.0000000584
22
0.6340824950
32
0.0000000000
13
-0.6340824950
23
0.0000000000
33
0.0000000000
40
0.0000000000
40
0.0000000000
40
0.0000000000
40
0.0000000000
40
0.3039021758
40
0.5795159022
40
0.8092519943
40
1.0000000000
40
1.0000000000
40
1.0000000000
40
1.0000000000
10
142.5055711756
20
176.6221089108
30
0.0000000000
10
142.5055711815
20
176.6863419274
30
0.0000000000
10
142.4916741516
20
176.8094527432
30
0.0000000000
10
142.4303217051
20
176.9711504408
30
0.0000000000
10
142.3352221956
20
177.0886789812
30
0.0000000000
10
142.2458878327
20
177.1221089108
30
0.0000000000
10
142.2055711756
20
177.1221089108
30
0.0000000000
11
142.5055711756
21
176.6221089108
31
0.0000000000
11
142.4827351823
21
176.8134500752
31
0.0000000000
11
142.4177036048
21
176.9756616482
31
0.0000000000
11
142.3203766283
21
177.0840483850
31
0.0000000000
11
142.2055711756
21
177.1221089108
31
0.0000000000
0
SPLINE
5
382
100
AcDbEntity
8
0
100
AcDbSpline
62
7
6
CONTINUOUS
70
0
71
3
72
11
73
7
74
5
42
0.0000001000
43
0.0000001000
44
0.0000000001
12
0.1234692685
22
1.1740879416
32
0.0000000000
13
1.1024879967
23
0.4421318491
33
0.0000000000
40
0.0000000000
40
0.0000000000
40
0.0000000000
40
0.0000000000
40
0.3004478905
40
0.5949233244
40
0.8709464703
40
1.0000000000
40
1.0000000000
40
1.0000000000
40
1.0000000000
10
196.6272776828
20
153.6631965085
30
0.0000000000
10
196.6396430432
20
153.7807805902
30
0.0000000000
10
196.6972020962
20
154.0113260408
30
0.0000000000
10
196.8692764707
20
154.3127869723
30
0.0000000000
10
197.0736255494
20
154.5044387386
30
0.0000000000
10
197.2165839434
20
154.5791446129
30
0.0000000000
10
197.2640105992
20
154.5981641715
30
0.0000000000
11
196.6272776828
21
153.6631965085
31
0.0000000000
11
196.7130777602
21
154.0073601505
31
0.0000000000
11
196.8872925745
21
154.3082045247
31
0.0000000000
11
197.1279935233
21
154.5278620326
31
0.0000000000
11
197.2640105992
21
154.5981641715
31
0.0000000000
0
SPLINE
5
383
100
AcDbEntity
8
0
100
AcDbSpline
62
7
6
CONTINUOUS
70
0
71
3
72
9
73
5
74
3
42
0.0000001000
43
0.0000001000
44
0.0000000001
12
0.2945007009
22
0.1181039067
32
0.0000000000
13
0.3168078644
23
-0.0281776944
33
0.0000000000
40
0.0000000000
40
0.0000000000
40
0.0000000000
40
0.0000000000
40
0.4626144177
40
1.0000000000
40
1.0000000000
40
1.0000000000
40
1.0000000000
10
197.2640105992
20
154.5981641715
30
0.0000000000
10
197.3094240227
20
154.6163763615
30
0.0000000000
10
197.4113200370
20
154.6462683464
30
0.0000000000
10
197.5187399121
20
154.6511657818
30
0.0000000000
10
197.5754892383
20
154.6461183529
30
0.0000000000
11
197.2640105992
21
154.5981641715
31
0.0000000000
11
197.4048833264
21
154.6386841519
31
0.0000000000
11
197.5754892383
21
154.6461183529
31
0.0000000000
0
SPLINE
5
384
100
AcDbEntity
8
0
100
AcDbSpline
62
7
6
CONTINUOUS
70
0
71
3
72
14
73
10
74
8
42
0.0000001000
43
0.0000001000
44
0.0000000001
12
-4.0476255968
22
-1.9396111147
32
0.0000000000
13
-4.4883586769
23
-0.0007973557
33
0.0000000000
40
0.0000000000
40
0.0000000000
40
0.0000000000
40
0.0000000000
40
0.1279426820
40
0.2654968001
40
0.4148140226
40
0.5771620343
40
0.7374684572
40
0.8798482362
40
1.0000000000
40
1.0000000000
40
1.0000000000
40
1.0000000000
10
146.7055711756
20
178.1221089108
30
0.0000000000
10
146.5329498174
20
178.0393892280
30
0.0000000000
10
146.1747302631
20
177.8677534660
30
0.0000000000
10
145.6132625543
20
177.6033216233
30
0.0000000000
10
145.0006854284
20
177.3266958059
30
0.0000000000
10
144.3484401125
20
177.0557293381
30
0.0000000000
10
143.6917934894
20
176.8238659081
30
0.0000000000
10
143.0780604148
20
176.6664481275
30
0.0000000000
10
142.6853325795
20
176.6221408453
30
0.0000000000
10
142.5055711756
20
176.6221089108
30
0.0000000000
11
146.7055711756
21
178.1221089108
31
0.0000000000
11
146.1874334034
21
177.8745218309
31
0.0000000000
11
145.6285177496
21
177.6122501080
31
0.0000000000
11
145.0171449568
21
177.3377014697
31
0.0000000000
11
144.3431614977
21
177.0607264123
31
0.0000000000
11
143.6631334033
21
176.8256511753
31
0.0000000000
11
143.0423638578
21
176.6738881190
31
0.0000000000
11
142.5055711756
21
176.6221089108
31
0.0000000000
0
SPLINE
5
385
100
AcDbEntity
8
0
100
AcDbSpline
62
7
6
CONTINUOUS
70
0
71
3
72
10
73
6
74
4
42
0.0000001000
43
0.0000001000
44
0.0000000001
12
0.9217485543
22
-0.3071582073
32
0.0000000000
13
0.9217416395
23
-0.3071789572
33
0.0000000000
40
0.0000000000
40
0.0000000000
40
0.0000000000
40
0.0000000000
40
0.4316953988
40
0.7675261874
40
1.0000000000
40
1.0000000000
40
1.0000000000
40
1.0000000000
10
196.6273017038
20
153.6631965080
30
0.0000000000
10
196.7599399071
20
153.6189969131
30
0.0000000000
10
196.9957580824
20
153.5404012932
30
0.0000000000
10
197.3030097210
20
153.4380215871
30
0.0000000000
10
197.4776183084
20
153.3798269284
30
0.0000000000
10
197.5490452394
20
153.3560232407
30
0.0000000000
11
196.6273017038
21
153.6631965080
31
0.0000000000
11
197.0252136946
21
153.5305898643
31
0.0000000000
11
197.3347649480
21
153.4274358095
31
0.0000000000
11
197.5490452394
21
153.3560232407
31
0.0000000000
0
SPLINE
5
386
100
AcDbEntity
8
0
100
AcDbSpline
62
7
6
CONTINUOUS
70
0
71
3
72
10
73
6
74
4
42
0.0000001000
43
0.0000001000
44
0.0000000001
12
-0.3176639238
22
0.0293414023
32
0.0000000000
13
-0.3176685817
23
0.0292909307
33
0.0000000000
40
0.0000000000
40
0.0000000000
40
0.0000000000
40
0.0000000000
40
0.5129401766
40
0.8713183445
40
1.0000000000
40
1.0000000000
40
1.0000000000
40
1.0000000000
10
196.6273017038
20
153.6631965080
30
0.0000000000
10
196.5729875074
20
153.6682133027
30
0.0000000000
10
196.4807295079
20
153.6767799039
30
0.0000000000
10
196.3748424987
20
153.6865708336
30
0.0000000000
10
196.3232682165
20
153.6913290472
30
0.0000000000
10
196.3096421768
20
153.6925854490
30
0.0000000000
11
196.6273017038
21
153.6631965080
31
0.0000000000
11
196.4643628418
21
153.6782871897
31
0.0000000000
11
196.3505200946
21
153.6888140616
31
0.0000000000
11
196.3096421768
21
153.6925854490
31
0.0000000000
0
SPLINE
5
387
100
AcDbEntity
8
0
100
AcDbSpline
62
7
6
CONTINUOUS
70
0
71
3
72
14
73
10
74
8
42
0.0000001000
43
0.0000001000
44
0.0000000001
12
-4.4299775900
22
-1.3208143118
32
0.0000000000
13
-4.6226888010
23
-0.0003781807
33
0.0000000000
40
0.0000000000
40
0.0000000000
40
0.0000000000
40
0.0000000000
40
0.1252764377
40
0.2602137364
40
0.4073212905
40
0.5685135446
40
0.7297157598
40
0.8752771136
40
1.0000000000
40
1.0000000000
40
1.0000000000
40
1.0000000000
10
146.7055711756
20
178.1221089108
30
0.0000000000
10
146.5205805718
20
178.0669532735
30
0.0000000000
10
146.1363319678
20
177.9523931352
30
0.0000000000
10
145.5340141738
20
177.7758968437
30
0.0000000000
10
144.8764635179
20
177.5911567457
30
0.0000000000
10
144.1759226518
20
177.4102030688
30
0.0000000000
10
143.4713192553
20
177.2555886865
30
0.0000000000
10
142.8142345017
20
177.1512678099
30
0.0000000000
10
142.3977562056
20
177.1221246334
30
0.0000000000
10
142.2055711756
20
177.1221089108
30
0.0000000000
11
146.7055711756
21
178.1221089108
31
0.0000000000
11
146.1504733629
21
177.9570651935
31
0.0000000000
11
145.5517014535
21
177.7822363253
31
0.0000000000
11
144.8967565691
21
177.5992299732
31
0.0000000000
11
144.1748405101
21
177.4146405558
31
0.0000000000
11
143.4463172262
21
177.2579290392
31
0.0000000000
11
142.7810858609
21
177.1567300201
31
0.0000000000
11
142.2055711756
21
177.1221089108
31
0.0000000000
0
SPLINE
5
388
100
AcDbEntity
8
0
100
AcDbSpline
62
7
6
CONTINUOUS
70
0
71
3
72
13
73
9
74
7
42
0.0000001000
43
0.0000001000
44
0.0000000001
12
-2.1148980478
22
0.0000791834
32
0.0000000000
13
-1.2872685970
23
-1.6780146954
33
0.0000000000
40
0.0000000000
40
0.0000000000
40
0.0000000000
40
0.0000000000
40
0.1880517337
40
0.3813409876
40
0.5634611186
40
0.7279808320
40
0.8729718363
40
1.0000000000
40
1.0000000000
40
1.0000000000
40
1.0000000000
10
96.6270532580
20
176.8353593599
30
0.0000000000
10
96.4944831765
20
176.8353643234
30
0.0000000000
10
96.2250621449
20
176.8089570825
30
0.0000000000
10
95.8414714674
20
176.6981324107
30
0.0000000000
10
95.4975293191
20
176.5311757664
30
0.0000000000
10
95.2113243591
20
176.3335696571
30
0.0000000000
10
94.9835026125
20
176.1255200176
30
0.0000000000
10
94.8577287685
20
175.9801386273
30
0.0000000000
10
94.8032223132
20
175.9090869189
30
0.0000000000
11
96.6270532580
21
176.8353593599
31
0.0000000000
11
96.2311489067
21
176.7975019507
31
0.0000000000
11
95.8382230152
21
176.6847362235
31
0.0000000000
11
95.4915667539
21
176.5168615489
31
0.0000000000
11
95.2052264546
21
176.3191922256
31
0.0000000000
11
94.9787272787
21
176.1124872573
31
0.0000000000
11
94.8032223132
21
175.9090869189
31
0.0000000000
0
SPLINE
5
389
100
AcDbEntity
8
0
100
AcDbSpline
62
7
6
CONTINUOUS
70
0
71
3
72
8
73
4
74
2
42
0.0000001000
43
0.0000001000
44
0.0000000001
12
-0.0378519342
22
-0.0073950196
32
0.0000000000
13
-0.0375618342
23
-0.0088626353
33
0.0000000000
40
0.0000000000
40
0.0000000000
40
0.0000000000
40
0.0000000000
40
1.0000000000
40
1.0000000000
40
1.0000000000
40
1.0000000000
10
97.9976189011
20
156.6038054682
30
0.0000000000
10
97.9850015897
20
156.6013404616
30
0.0000000000
10
97.9724268729
20
156.5986298319
30
0.0000000000
10
97.9599062614
20
156.5956756201
30
0.0000000000
11
97.9976189011
21
156.6038054682
31
0.0000000000
11
97.9599062614
21
156.5956756201
31
0.0000000000
0
SPLINE
5
38A
100
AcDbEntity
8
0
100
AcDbSpline
62
7
6
CONTINUOUS
70
0
71
3
72
8
73
4
74
2
42
0.0000001000
43
0.0000001000
44
0.0000000001
12
-0.1221509539
22
-0.0288212592
32
0.0000000000
13
-0.1175301800
23
-0.0440666425
33
0.0000000000
40
0.0000000000
40
0.0000000000
40
0.0000000000
40
0.0000000000
40
1.0000000000
40
1.0000000000
40
1.0000000000
40
1.0000000000
10
97.9599062614
20
156.5956756201
30
0.0000000000
10
97.9191892768
20
156.5860685337
30
0.0000000000
10
97.8790444832
20
156.5738854502
30
0.0000000000
10
97.8398677566
20
156.5591965694
30
0.0000000000
11
97.9599062614
21
156.5956756201
31
0.0000000000
11
97.8398677566
21
156.5591965694
31
0.0000000000
0
SPLINE
5
38B
100
AcDbEntity
8
0
100
AcDbSpline
62
7
6
CONTINUOUS
70
0
71
3
72
9
73
5
74
3
42
0.0000001000
43
0.0000001000
44
0.0000000001
12
-0.0848979594
22
-0.0318315519
32
0.0000000000
13
-0.0814766313
23
-0.0395431677
33
0.0000000000
40
0.0000000000
40
0.0000000000
40
0.0000000000
40
0.0000000000
40
0.3956939552
40
1.0000000000
40
1.0000000000
40
1.0000000000
40
1.0000000000
10
97.8398677566
20
156.5591965694
30
0.0000000000
10
97.8286698868
20
156.5549980518
30
0.0000000000
10
97.8005704429
20
156.5438701647
30
0.0000000000
10
97.7730351687
20
156.5314452476
30
0.0000000000
10
97.7566228951
20
156.5234798558
30
0.0000000000
11
97.8398677566
21
156.5591965694
31
0.0000000000
11
97.8065206607
21
156.5459884957
31
0.0000000000
11
97.7566228951
21
156.5234798558
31
0.0000000000
0
SPLINE
5
38C
100
AcDbEntity
8
0
100
AcDbSpline
62
7
6
CONTINUOUS
70
0
71
3
72
8
73
4
74
2
42
0.0000001000
43
0.0000001000
44
0.0000000001
12
-0.0475469039
22
-0.0230760056
32
0.0000000000
13
-0.0462163237
23
-0.0255875083
33
0.0000000000
40
0.0000000000
40
0.0000000000
40
0.0000000000
40
0.0000000000
40
1.0000000000
40
1.0000000000
40
1.0000000000
40
1.0000000000
10
97.7566228951
20
156.5234798558
30
0.0000000000
10
97.7407739271
20
156.5157878540
30
0.0000000000
10
97.7251370723
20
156.5076697409
30
0.0000000000
10
97.7097316311
20
156.4991405715
30
0.0000000000
11
97.7566228951
21
156.5234798558
31
0.0000000000
11
97.7097316311
21
156.4991405715
31
0.0000000000
0
SPLINE
5
38D
100
AcDbEntity
8
0
100
AcDbSpline
62
7
6
CONTINUOUS
70
0
71
3
72
8
73
4
74
2
42
0.0000001000
43
0.0000001000
44
0.0000000001
12
-0.0763785345
22
-0.0422867124
32
0.0000000000
13
-0.0723249839
23
-0.0488188948
33
0.0000000000
40
0.0000000000
40
0.0000000000
40
0.0000000000
40
0.0000000000
40
1.0000000000
40
1.0000000000
40
1.0000000000
40
1.0000000000
10
97.7097316311
20
156.4991405715
30
0.0000000000
10
97.6842721196
20
156.4850450007
30
0.0000000000
10
97.6594446423
20
156.4698267569
30
0.0000000000
10
97.6353363144
20
156.4535537920
30
0.0000000000
11
97.7097316311
21
156.4991405715
31
0.0000000000
11
97.6353363144
21
156.4535537920
31
0.0000000000
0
SPLINE
5
38E
100
AcDbEntity
8
0
100
AcDbSpline
62
7
6
CONTINUOUS
70
0
71
3
72
8
73
4
74
2
42
0.0000001000
43
0.0000001000
44
0.0000000001
12
-0.1618572750
22
-0.1092526102
32
0.0000000000
13
-0.1373179331
23
-0.1386617480
33
0.0000000000
40
0.0000000000
40
0.0000000000
40
0.0000000000
40
0.0000000000
40
1.0000000000
40
1.0000000000
40
1.0000000000
40
1.0000000000
10
97.6353363144
20
156.4535537920
30
0.0000000000
10
97.5813838894
20
156.4171362552
30
0.0000000000
10
97.5310331582
20
156.3754363901
30
0.0000000000
10
97.4852605139
20
156.3292158074
30
0.0000000000
11
97.6353363144
21
156.4535537920
31
0.0000000000
11
97.4852605139
21
156.3292158074
31
0.0000000000
0
SPLINE
5
38F
100
AcDbEntity
8
0
100
AcDbSpline
62
7
6
CONTINUOUS
70
0
71
3
72
9
73
5
74
3
42
0.0000001000
43
0.0000001000
44
0.0000000001
12
-0.5512953717
22
-0.5566904349
32
0.0000000000
13
-0.0000000017
23
-0.7790470526
33
0.0000000000
40
0.0000000000
40
0.0000000000
40
0.0000000000
40
0.0000000000
40
0.4993413682
40
1.0000000000
40
1.0000000000
40
1.0000000000
40
1.0000000000
10
97.4852605139
20
156.3292158074
30
0.0000000000
10
97.3934989855
20
156.2365562862
30
0.0000000000
10
97.2465803191
20
156.0146080832
30
0.0000000000
10
97.1952229672
20
155.7521211212
30
0.0000000000
10
97.1952229669
20
155.6221089108
30
0.0000000000
11
97.4852605139
21
156.3292158074
31
0.0000000000
11
97.2706012801
21
156.0047924403
31
0.0000000000
11
97.1952229669
21
155.6221089108
31
0.0000000000
0
SPLINE
5
390
100
AcDbEntity
8
0
100
AcDbSpline
62
7
6
CONTINUOUS
70
0
71
3
72
12
73
8
74
6
42
0.0000001000
43
0.0000001000
44
0.0000000001
12
-2.0351508710
22
0.1155972909
32
0.0000000000
13
-0.2742540715
23
-1.6672183363
33
0.0000000000
40
0.0000000000
40
0.0000000000
40
0.0000000000
40
0.0000000000
40
0.3048680816
40
0.5791641840
40
0.7969150987
40
0.9392475444
40
1.0000000000
40
1.0000000000
40
1.0000000000
40
1.0000000000
10
100.4587977286
20
177.9549943939
30
0.0000000000
10
100.2519802147
20
177.9667417020
30
0.0000000000
10
99.8576696904
20
177.9774634524
30
0.0000000000
10
99.3189466290
20
177.9709940355
30
0.0000000000
10
98.8818318100
20
177.9120943772
30
0.0000000000
10
98.6166666030
20
177.8825478184
30
0.0000000000
10
98.4742246699
20
177.7732867855
30
0.0000000000
10
98.4686708005
20
177.7395242495
30
0.0000000000
11
100.4587977286
21
177.9549943939
31
0.0000000000
11
99.8376283782
21
177.9737557346
31
0.0000000000
11
99.2787286923
21
177.9575793314
31
0.0000000000
11
98.8376278889
21
177.9080728695
31
0.0000000000
11
98.5581513370
21
177.8301554977
31
0.0000000000
11
98.4686708005
21
177.7395242495
31
0.0000000000
0
SPLINE
5
391
100
AcDbEntity
8
0
100
AcDbSpline
62
7
6
CONTINUOUS
70
0
71
3
72
11
73
7
74
5
42
0.0000001000
43
0.0000001000
44
0.0000000001
12
-0.2949733873
22
-1.2721434128
32
0.0000000000
13
-1.1513931577
23
-0.6149399830
33
0.0000000000
40
0.0000000000
40
0.0000000000
40
0.0000000000
40
0.0000000000
40
0.1819250654
40
0.4129099499
40
0.7381114311
40
1.0000000000
40
1.0000000000
40
1.0000000000
40
1.0000000000
10
100.4587977286
20
177.9549943939
30
0.0000000000
10
100.4409100443
20
177.8778494694
30
0.0000000000
10
100.3714578102
20
177.7074281657
30
0.0000000000
10
100.1417923309
20
177.4734557369
30
0.0000000000
10
99.8320058382
20
177.2950238869
30
0.0000000000
10
99.6058233812
20
177.1761294812
30
0.0000000000
10
99.5053111458
20
177.1224475638
30
0.0000000000
11
100.4587977286
21
177.9549943939
31
0.0000000000
11
100.3682515533
21
177.7353511200
31
0.0000000000
11
100.1646305783
21
177.5128062781
31
0.0000000000
11
99.8068448628
21
177.2840241868
31
0.0000000000
11
99.5053111458
21
177.1224475638
31
0.0000000000
0
SPLINE
5
392
100
AcDbEntity
8
0
100
AcDbSpline
62
7
6
CONTINUOUS
70
0
71
3
72
9
73
5
74
3
42
0.0000001000
43
0.0000001000
44
0.0000000001
12
-0.0852692720
22
-0.1580302656
32
0.0000000000
13
-0.0402404301
23
-0.1750003468
33
0.0000000000
40
0.0000000000
40
0.0000000000
40
0.0000000000
40
0.0000000000
40
0.5209423373
40
1.0000000000
40
1.0000000000
40
1.0000000000
40
1.0000000000
10
100.5235215886
20
178.1220584904
30
0.0000000000
10
100.5087147974
20
178.0946169384
30
0.0000000000
10
100.4832793844
20
178.0402488253
30
0.0000000000
10
100.4652236211
20
177.9829356890
30
0.0000000000
10
100.4587977923
20
177.9549906033
30
0.0000000000
11
100.5235215886
21
178.1220584904
31
0.0000000000
11
100.4842167265
21
178.0371724115
31
0.0000000000
11
100.4587977923
21
177.9549906033
31
0.0000000000
0
SPLINE
5
393
100
AcDbEntity
8
0
100
AcDbSpline
62
7
6
CONTINUOUS
70
0
71
3
72
11
73
7
74
5
42
0.0000001000
43
0.0000001000
44
0.0000000001
12
0.6457210672
22
0.5137538994
32
0.0000000000
13
-0.4926776453
23
0.6619422207
33
0.0000000000
40
0.0000000000
40
0.0000000000
40
0.0000000000
40
0.0000000000
40
0.3836589401
40
0.6967164093
40
0.9059651963
40
1.0000000000
40
1.0000000000
40
1.0000000000
40
1.0000000000
10
203.2137816745
20
149.1158495992
30
0.0000000000
10
203.2963605613
20
149.1815516913
30
0.0000000000
10
203.4420757536
20
149.3024633650
30
0.0000000000
10
203.6267952310
20
149.4824223557
30
0.0000000000
10
203.7277330439
20
149.5968917084
30
0.0000000000
10
203.7773279651
20
149.6921319881
30
0.0000000000
10
203.7618850165
20
149.7128805237
30
0.0000000000
11
203.2137816745
21
149.1158495992
31
0.0000000000
11
203.4557319149
21
149.3200172221
31
0.0000000000
11
203.6404323929
21
149.5006195550
31
0.0000000000
11
203.7465665091
21
149.6368133111
31
0.0000000000
11
203.7618850165
21
149.7128805237
31
0.0000000000
0
SPLINE
5
394
100
AcDbEntity
8
0
100
AcDbSpline
62
7
6
CONTINUOUS
70
0
71
3
72
9
73
5
74
3
42
0.0000001000
43
0.0000001000
44
0.0000000001
12
0.9499355989
22
-0.6369628668
32
0.0000000000
13
0.9402179658
23
-0.6512107646
33
0.0000000000
40
0.0000000000
40
0.0000000000
40
0.0000000000
40
0.0000000000
40
0.5551718373
40
1.0000000000
40
1.0000000000
40
1.0000000000
40
1.0000000000
10
203.2137678969
20
149.1158495952
30
0.0000000000
10
203.3895603942
20
148.9979749802
30
0.0000000000
10
203.7049238310
20
148.7837527885
30
0.0000000000
10
204.0200327342
20
148.5691469522
30
0.0000000000
10
204.1594445443
20
148.4725879896
30
0.0000000000
11
203.2137678969
21
149.1158495952
31
0.0000000000
11
203.7396437402
21
148.7599964794
31
0.0000000000
11
204.1594445443
21
148.4725879896
31
0.0000000000
0
SPLINE
5
395
100
AcDbEntity
8
0
100
AcDbSpline
62
7
6
CONTINUOUS
70
0
71
3
72
8
73
4
74
2
42
0.0000001000
43
0.0000001000
44
0.0000000001
12
0.1683984629
22
-0.1166356055
32
0.0000000000
13
0.1682215160
23
-0.1168932343
33
0.0000000000
40
0.0000000000
40
0.0000000000
40
0.0000000000
40
0.0000000000
40
1.0000000000
40
1.0000000000
40
1.0000000000
40
1.0000000000
10
204.1594445443
20
148.4725879896
30
0.0000000000
10
204.2155773653
20
148.4337094544
30
0.0000000000
10
204.2715873802
20
148.3946531972
30
0.0000000000
10
204.3276612189
20
148.3556887857
30
0.0000000000
11
204.1594445443
21
148.4725879896
31
0.0000000000
11
204.3276612189
21
148.3556887857
31
0.0000000000
0
SPLINE
5
396
100
AcDbEntity
8
0
100
AcDbSpline
62
7
6
CONTINUOUS
70
0
71
3
72
10
73
6
74
4
42
0.0000001000
43
0.0000001000
44
0.0000000001
12
0.3773366261
22
-0.2622024796
32
0.0000000000
13
0.3737572989
23
-0.2673243693
33
0.0000000000
40
0.0000000000
40
0.0000000000
40
0.0000000000
40
0.0000000000
40
0.3666743590
40
0.8482357952
40
1.0000000000
40
1.0000000000
40
1.0000000000
40
1.0000000000
10
204.3276612189
20
148.3556887857
30
0.0000000000
10
204.3737811074
20
148.3236411437
30
0.0000000000
10
204.4805711308
20
148.2496483654
30
0.0000000000
10
204.6073952663
20
148.1637552260
30
0.0000000000
10
204.6866635159
20
148.1078450239
30
0.0000000000
10
204.7055711756
20
148.0943216005
30
0.0000000000
11
204.3276612189
21
148.3556887857
31
0.0000000000
11
204.4662542512
21
148.2598822420
31
0.0000000000
11
204.6486128685
21
148.1345537986
31
0.0000000000
11
204.7055711756
21
148.0943216005
31
0.0000000000
0
SPLINE
5
397
100
AcDbEntity
8
0
100
AcDbSpline
62
7
6
CONTINUOUS
70
0
71
3
72
13
73
9
74
7
42
0.0000001000
43
0.0000001000
44
0.0000000001
12
-4.3462277349
22
-0.0007241918
32
0.0000000000
13
-0.7648850266
23
-4.2783930329
33
0.0000000000
40
0.0000000000
40
0.0000000000
40
0.0000000000
40
0.0000000000
40
0.1724135011
40
0.3437474688
40
0.5124031971
40
0.6779683642
40
0.8404777963
40
1.0000000000
40
1.0000000000
40
1.0000000000
40
1.0000000000
10
103.6630276115
20
180.6221089108
30
0.0000000000
10
103.4132448314
20
180.6220672906
30
0.0000000000
10
102.9134529779
20
180.5667801220
30
0.0000000000
10
102.2063856170
20
180.3216154865
30
0.0000000000
10
101.5804784852
20
179.9288920453
30
0.0000000000
10
101.0705902946
20
179.4116064157
30
0.0000000000
10
100.7033798619
20
178.8005770977
30
0.0000000000
10
100.5641849186
20
178.3496084724
30
0.0000000000
10
100.5235128703
20
178.1221089108
30
0.0000000000
11
103.6630276115
21
180.6221089108
31
0.0000000000
11
102.9182867333
21
180.5391391864
31
0.0000000000
11
102.2149370161
21
180.2945734324
31
0.0000000000
11
101.5946584802
21
179.9039747792
31
0.0000000000
11
101.0902960366
21
179.3907306273
31
0.0000000000
11
100.7274436220
21
178.7847586244
31
0.0000000000
11
100.5235128703
21
178.1221089108
31
0.0000000000
0
SPLINE
5
398
100
AcDbEntity
8
0
100
AcDbSpline
62
7
6
CONTINUOUS
70
0
71
3
72
10
73
6
74
4
42
0.0000001000
43
0.0000001000
44
0.0000000001
12
-0.4836762468
22
-0.0663378565
32
0.0000000000
13
-0.4881968160
23
-0.0000107312
33
0.0000000000
40
0.0000000000
40
0.0000000000
40
0.0000000000
40
0.0000000000
40
0.1123877577
40
0.4499744752
40
1.0000000000
40
1.0000000000
40
1.0000000000
40
1.0000000000
10
204.7055711756
20
140.1552131443
30
0.0000000000
10
204.6874514127
20
140.1527279566
30
0.0000000000
10
204.6148272226
20
140.1433448754
30
0.0000000000
10
204.4528166293
20
140.1275118735
30
0.0000000000
10
204.3083044635
20
140.1221108782
30
0.0000000000
10
204.2187975602
20
140.1221089108
30
0.0000000000
11
204.7055711756
21
140.1552131443
31
0.0000000000
11
204.6511562437
21
140.1481817301
31
0.0000000000
11
204.4871313244
21
140.1321270284
31
0.0000000000
11
204.2187975602
21
140.1221089108
31
0.0000000000
0
SPLINE
5
399
100
AcDbEntity
8
0
100
AcDbSpline
62
7
6
CONTINUOUS
70
0
71
3
72
11
73
7
74
5
42
0.0000001000
43
0.0000001000
44
0.0000000001
12
0.6073553155
22
0.5479227598
32
0.0000000000
13
-0.5209686661
23
0.6306278451
33
0.0000000000
40
0.0000000000
40
0.0000000000
40
0.0000000000
40
0.0000000000
40
0.3790018600
40
0.6882245536
40
0.8973138873
40
1.0000000000
40
1.0000000000
40
1.0000000000
40
1.0000000000
10
201.0770951337
20
151.8861332286
30
0.0000000000
10
201.1538247318
20
151.9553544769
30
0.0000000000
10
201.2891305385
20
152.0835305516
30
0.0000000000
10
201.4526334229
20
152.2731297642
30
0.0000000000
10
201.5464259607
20
152.4007687840
30
0.0000000000
10
201.5755666851
20
152.5014400495
30
0.0000000000
10
201.5577346027
20
152.5230256234
30
0.0000000000
11
201.0770951337
21
151.8861332286
31
0.0000000000
11
201.2998463206
21
152.1017556318
31
0.0000000000
11
201.4651272427
21
152.2932253564
31
0.0000000000
11
201.5544241647
21
152.4390951611
31
0.0000000000
11
201.5577346027
21
152.5230256234
31
0.0000000000
0
SPLINE
5
39A
100
AcDbEntity
8
0
100
AcDbSpline
62
7
6
CONTINUOUS
70
0
71
3
72
10
73
6
74
4
42
0.0000001000
43
0.0000001000
44
0.0000000001
12
2.2061080773
22
-2.7157388341
32
0.0000000000
13
2.0663378074
23
-2.8235435767
33
0.0000000000
40
0.0000000000
40
0.0000000000
40
0.0000000000
40
0.0000000000
40
0.3325406088
40
0.6658669390
40
1.0000000000
40
1.0000000000
40
1.0000000000
40
1.0000000000
10
201.0770951326
20
151.8861332286
30
0.0000000000
10
201.3216353070
20
151.5851020801
30
0.0000000000
10
201.8062409367
20
150.9782030246
30
0.0000000000
10
202.5185932641
20
150.0546725605
30
0.0000000000
10
202.9836239713
20
149.4303293480
30
0.0000000000
10
203.2137678969
20
149.1158495952
30
0.0000000000
11
201.0770951326
21
151.8861332286
31
0.0000000000
11
201.8031067197
21
150.9769115734
31
0.0000000000
11
202.5154160042
21
150.0534413542
31
0.0000000000
11
203.2137678969
21
149.1158495952
31
0.0000000000
0
SPLINE
5
39B
100
AcDbEntity
8
0
100
AcDbSpline
62
7
6
CONTINUOUS
70
0
71
3
72
9
73
5
74
3
42
0.0000001000
43
0.0000001000
44
0.0000000001
12
0.3231896699
22
0.0000000054
32
0.0000000000
13
0.2013579561
23
0.2553949411
33
0.0000000000
40
0.0000000000
40
0.0000000000
40
0.0000000000
40
0.0000000000
40
0.4813446580
40
1.0000000000
40
1.0000000000
40
1.0000000000
40
1.0000000000
10
196.2331882167
20
139.6221089108
30
0.0000000000
10
196.2850434237
20
139.6221089116
30
0.0000000000
10
196.3941738211
20
139.6508759176
30
0.0000000000
10
196.4770713542
20
139.7244200807
30
0.0000000000
10
196.5118831474
20
139.7685740642
30
0.0000000000
11
196.2331882167
21
139.6221089108
31
0.0000000000
11
196.3840241287
21
139.6601771405
31
0.0000000000
11
196.5118831474
21
139.7685740642
31
0.0000000000
0
SPLINE
5
39C
100
AcDbEntity
8
0
100
AcDbSpline
62
7
6
CONTINUOUS
70
0
71
3
72
9
73
5
74
3
42
0.0000001000
43
0.0000001000
44
0.0000000001
12
0.2348775093
22
0.2979098954
32
0.0000000000
13
-0.0000000022
23
0.3769902424
33
0.0000000000
40
0.0000000000
40
0.0000000000
40
0.0000000000
40
0.0000000000
40
0.4862927890
40
1.0000000000
40
1.0000000000
40
1.0000000000
40
1.0000000000
10
196.5118831474
20
139.7685740642
30
0.0000000000
10
196.5499562271
20
139.8168645421
30
0.0000000000
10
196.6081197347
20
139.9309505282
30
0.0000000000
10
196.6273016986
20
140.0575547087
30
0.0000000000
10
196.6273016983
20
140.1221089108
30
0.0000000000
11
196.5118831474
21
139.7685740642
31
0.0000000000
11
196.5973068339
21
139.9307832379
31
0.0000000000
11
196.6273016983
21
140.1221089108
31
0.0000000000
0
SPLINE
5
39D
100
AcDbEntity
8
0
100
AcDbSpline
62
7
6
CONTINUOUS
70
0
71
3
72
11
73
7
74
5
42
0.0000001000
43
0.0000001000
44
0.0000000001
12
0.3866228076
22
0.8521156239
32
0.0000000000
13
-0.7944700282
23
0.4754836097
33
0.0000000000
40
0.0000000000
40
0.0000000000
40
0.0000000000
40
0.0000000000
40
0.3619961238
40
0.6654250801
40
0.8802932985
40
1.0000000000
40
1.0000000000
40
1.0000000000
40
1.0000000000
10
199.6556044826
20
153.0393993693
30
0.0000000000
10
199.7022564685
20
153.1422202202
30
0.0000000000
10
199.7800021019
20
153.3348036886
30
0.0000000000
10
199.8473416801
20
153.6035953282
30
0.0000000000
10
199.8703415424
20
153.7980780359
30
0.0000000000
10
199.8274470170
20
153.9109125665
30
0.0000000000
10
199.7957458882
20
153.9298854247
30
0.0000000000
11
199.6556044826
21
153.0393993693
31
0.0000000000
11
199.7789009001
21
153.3548907481
31
0.0000000000
11
199.8469313704
21
153.6305455730
31
0.0000000000
11
199.8511062603
21
153.8315594374
31
0.0000000000
11
199.7957458882
21
153.9298854247
31
0.0000000000
0
SPLINE
5
39E
100
AcDbEntity
8
0
100
AcDbSpline
62
7
6
CONTINUOUS
70
0
71
3
72
12
73
8
74
6
42
0.0000001000
43
0.0000001000
44
0.0000000001
12
0.0019725835
22
2.0000027538
32
0.0000000000
13
0.0161666115
23
1.9999482680
33
0.0000000000
40
0.0000000000
40
0.0000000000
40
0.0000000000
40
0.0000000000
40
0.3090165739
40
0.5877844846
40
0.8090160315
40
0.9510556267
40
1.0000000000
40
1.0000000000
40
1.0000000000
40
1.0000000000
10
147.2024726517
20
180.6221089108
30
0.0000000000
10
147.2026758387
20
180.8281202437
30
0.0000000000
10
147.2030793194
20
181.2199770176
30
0.0000000000
10
147.2035961837
20
181.7593220735
30
0.0000000000
10
147.2043332014
20
182.1873476591
30
0.0000000000
10
147.2045238686
20
182.4621597378
30
0.0000000000
10
147.2053074207
20
182.5894801725
30
0.0000000000
10
147.2055711756
20
182.6221089108
30
0.0000000000
11
147.2024726517
21
180.6221089108
31
0.0000000000
11
147.2030923563
21
181.2401428995
31
0.0000000000
11
147.2037120612
21
181.7976794153
31
0.0000000000
11
147.2043317660
21
182.2401428995
31
0.0000000000
11
147.2049514708
21
182.5242219433
31
0.0000000000
11
147.2055711756
21
182.6221089108
31
0.0000000000
0
SPLINE
5
39F
100
AcDbEntity
8
0
100
AcDbSpline
62
7
6
CONTINUOUS
70
0
71
3
72
10
73
6
74
4
42
0.0000001000
43
0.0000001000
44
0.0000000001
12
1.6397052122
22
-0.8397610552
32
0.0000000000
13
1.1616748858
23
-1.4298053268
33
0.0000000000
40
0.0000000000
40
0.0000000000
40
0.0000000000
40
0.0000000000
40
0.3337782473
40
0.6679006553
40
1.0000000000
40
1.0000000000
40
1.0000000000
40
1.0000000000
10
199.6556035714
20
153.0393993692
30
0.0000000000
10
199.8380362154
20
152.9459680448
30
0.0000000000
10
200.1905232335
20
152.7331746378
30
0.0000000000
10
200.6684699945
20
152.3447648448
30
0.0000000000
10
200.9484979765
20
152.0444123659
30
0.0000000000
10
201.0770951326
20
151.8861332286
30
0.0000000000
11
199.6556035714
21
153.0393993692
31
0.0000000000
11
200.1820336542
21
152.7216398602
31
0.0000000000
11
200.6597808970
21
152.3335194753
31
0.0000000000
11
201.0770951326
21
151.8861332286
31
0.0000000000
0
SPLINE
5
3A0
100
AcDbEntity
8
0
100
AcDbSpline
62
7
6
CONTINUOUS
70
0
71
3
72
13
73
9
74
7
42
0.0000001000
43
0.0000001000
44
0.0000000001
12
-22.9969719196
22
9.1816216906
32
0.0000000000
13
-24.7621262058
23
-0.0003267317
33
0.0000000000
40
0.0000000000
40
0.0000000000
40
0.0000000000
40
0.0000000000
40
0.1440983758
40
0.3039418853
40
0.4730877086
40
0.6477764658
40
0.8248941178
40
1.0000000000
40
1.0000000000
40
1.0000000000
40
1.0000000000
10
171.3737402343
20
175.9565472778
30
0.0000000000
10
170.2691314673
20
176.3975662019
30
0.0000000000
10
167.9136955582
20
177.2652260115
30
0.0000000000
10
164.1761298067
20
178.4039516130
30
0.0000000000
10
160.1287532497
20
179.3664811670
30
0.0000000000
10
155.8862091661
20
180.0863153036
30
0.0000000000
10
151.5560110330
20
180.5247728333
30
0.0000000000
10
148.6478039697
20
180.6221279159
30
0.0000000000
10
147.2024726517
20
180.6221088450
30
0.0000000000
11
171.3737402343
21
175.9565472778
31
0.0000000000
11
168.0254164143
21
177.1896942979
31
0.0000000000
11
164.2391156805
21
178.3430400954
31
0.0000000000
11
160.1642923384
21
179.3118511956
31
0.0000000000
11
155.8995502464
21
180.0352826346
31
0.0000000000
11
151.5360361857
21
180.4769514499
31
0.0000000000
11
147.2024726517
21
180.6221088450
31
0.0000000000
0
SPLINE
5
3A1
100
AcDbEntity
8
0
100
AcDbSpline
62
7
6
CONTINUOUS
70
0
71
3
72
11
73
7
74
5
42
0.0000001000
43
0.0000001000
44
0.0000000001
12
0.0546048205
22
1.3989569891
32
0.0000000000
13
-1.4089647302
23
0.0009028040
33
0.0000000000
40
0.0000000000
40
0.0000000000
40
0.0000000000
40
0.0000000000
40
0.2579871328
40
0.5116490928
40
0.7586123930
40
1.0000000000
40
1.0000000000
40
1.0000000000
40
1.0000000000
10
139.4389045089
20
162.1221089108
30
0.0000000000
10
139.4436002893
20
162.2424132116
30
0.0000000000
10
139.3882263433
20
162.4831043633
30
0.0000000000
10
139.1991340079
20
162.7898745861
30
0.0000000000
10
138.9092468830
20
162.9970907068
30
0.0000000000
10
138.6801203850
20
163.0469514245
30
0.0000000000
10
138.5667515101
20
163.0470240664
30
0.0000000000
11
139.4389045089
21
162.1221089108
31
0.0000000000
11
139.3694119276
21
162.4765484084
31
0.0000000000
11
139.1792883872
21
162.7765018302
31
0.0000000000
11
138.8972636770
21
162.9765217634
31
0.0000000000
11
138.5667515101
21
163.0470240664
31
0.0000000000
0
SPLINE
5
3A2
100
AcDbEntity
8
0
100
AcDbSpline
62
7
6
CONTINUOUS
70
0
71
3
72
8
73
4
74
2
42
0.0000001000
43
0.0000001000
44
0.0000000001
12
-0.1687297693
22
0.0001081148
32
0.0000000000
13
-0.1652531954
23
-0.0350898393
33
0.0000000000
40
0.0000000000
40
0.0000000000
40
0.0000000000
40
0.0000000000
40
1.0000000000
40
1.0000000000
40
1.0000000000
40
1.0000000000
10
138.5667515101
20
163.0470240664
30
0.0000000000
10
138.5105082537
20
163.0470601046
30
0.0000000000
10
138.4542370280
20
163.0410481289
30
0.0000000000
10
138.3991526295
20
163.0293515158
30
0.0000000000
11
138.5667515101
21
163.0470240664
31
0.0000000000
11
138.3991526295
21
163.0293515158
31
0.0000000000
0
SPLINE
5
3A3
100
AcDbEntity
8
0
100
AcDbSpline
62
7
6
CONTINUOUS
70
0
71
3
72
11
73
7
74
5
42
0.0000001000
43
0.0000001000
44
0.0000000001
12
-0.0088462935
22
0.8591082012
32
0.0000000000
13
0.0102445528
23
0.8590915434
33
0.0000000000
40
0.0000000000
40
0.0000000000
40
0.0000000000
40
0.0000000000
40
0.3833107215
40
0.7077246129
40
0.9240028251
40
1.0000000000
40
1.0000000000
40
1.0000000000
40
1.0000000000
10
142.7211440536
20
162.1221089108
30
0.0000000000
10
142.7200137606
20
162.2318773722
30
0.0000000000
10
142.7273394382
20
162.4345207299
30
0.0000000000
10
142.7292401462
20
162.6991259811
30
0.0000000000
10
142.7326800232
20
162.8757064527
30
0.0000000000
10
142.7338801013
20
162.9594011126
30
0.0000000000
10
142.7341396203
20
162.9811639561
30
0.0000000000
11
142.7211440536
21
162.1221089108
31
0.0000000000
11
142.7262272075
21
162.4513925207
31
0.0000000000
11
142.7301479270
21
162.7300863533
31
0.0000000000
11
142.7332269273
21
162.9158770779
31
0.0000000000
11
142.7341396203
21
162.9811639561
31
0.0000000000
0
SPLINE
5
3A4
100
AcDbEntity
8
0
100
AcDbSpline
62
7
6
CONTINUOUS
70
0
71
3
72
13
73
9
74
7
42
0.0000001000
43
0.0000001000
44
0.0000000001
12
0.5196973209
22
3.2203841787
32
0.0000000000
13
3.0535601398
23
-1.1474885779
33
0.0000000000
40
0.0000000000
40
0.0000000000
40
0.0000000000
40
0.0000000000
40
0.1866816431
40
0.3723743101
40
0.5495011768
40
0.7127773526
40
0.8612884285
40
1.0000000000
40
1.0000000000
40
1.0000000000
40
1.0000000000
10
171.3737356430
20
175.9565472777
30
0.0000000000
10
171.4060749596
20
176.1569428143
30
0.0000000000
10
171.5175671885
20
176.5504159091
30
0.0000000000
10
171.8049729665
20
177.0797092765
30
0.0000000000
10
172.1904115909
20
177.5103199091
30
0.0000000000
10
172.6431229679
20
177.8032358674
30
0.0000000000
10
173.1272615302
20
177.9281043336
30
0.0000000000
10
173.4467862909
20
177.8817779235
30
0.0000000000
10
173.5879743328
20
177.8287212756
30
0.0000000000
11
171.3737356430
21
175.9565472777
31
0.0000000000
11
171.5387917284
21
176.5427164606
31
0.0000000000
11
171.8293740712
21
177.0742058643
31
0.0000000000
11
172.2183762383
21
177.5014364830
31
0.0000000000
11
172.6695108852
21
177.7845548990
31
0.0000000000
11
173.1406947542
21
177.8971509343
31
0.0000000000
11
173.5879743328
21
177.8287212756
31
0.0000000000
0
SPLINE
5
3A5
100
AcDbEntity
8
0
100
AcDbSpline
62
7
6
CONTINUOUS
70
0
71
3
72
15
73
11
74
9
42
0.0000001000
43
0.0000001000
44
0.0000000001
12
1.3674490108
22
0.0000000000
32
0.0000000000
13
-0.0066139258
23
-1.3674330160
33
0.0000000000
40
0.0000000000
40
0.0000000000
40
0.0000000000
40
0.0000000000
40
0.0746327210
40
0.1563357345
40
0.2503887194
40
0.3592623255
40
0.4831412427
40
0.6279065348
40
0.8027885305
40
1.0000000000
40
1.0000000000
40
1.0000000000
40
1.0000000000
10
138.7055711756
20
163.1221089108
30
0.0000000000
10
138.7395899891
20
163.1221089108
30
0.0000000000
10
138.8111094195
20
163.1166892914
30
0.0000000000
10
138.9213424511
20
163.0836536128
30
0.0000000000
10
139.0353475390
20
163.0198353133
30
0.0000000000
10
139.1499975016
20
162.9234736573
30
0.0000000000
10
139.2596516637
20
162.7893466879
30
0.0000000000
10
139.3530103572
20
162.6086200092
30
0.0000000000
10
139.4233050191
20
162.3823917653
30
0.0000000000
10
139.4393392896
20
162.2120000689
30
0.0000000000
10
139.4389045089
20
162.1221089108
30
0.0000000000
11
138.7055711756
21
163.1221089108
31
0.0000000000
11
138.8072612179
21
163.1134687513
31
0.0000000000
11
138.9143972125
21
163.0817782424
31
0.0000000000
11
139.0272439965
21
163.0200788100
31
0.0000000000
11
139.1416594000
21
162.9248207219
31
0.0000000000
11
139.2490168559
21
162.7937860171
31
0.0000000000
11
139.3417873662
21
162.6189104623
31
0.0000000000
11
139.4126313908
21
162.3905026652
31
0.0000000000
11
139.4389045089
21
162.1221089108
31
0.0000000000
0
SPLINE
5
3A6
100
AcDbEntity
8
0
100
AcDbSpline
62
7
6
CONTINUOUS
70
0
71
3
72
15
73
11
74
9
42
0.0000001000
43
0.0000001000
44
0.0000000001
12
-22.1173729924
22
20.4459150166
32
0.0000000000
13
-28.3063710617
23
10.2938324385
33
0.0000000000
40
0.0000000000
40
0.0000000000
40
0.0000000000
40
0.0000000000
40
0.1120096121
40
0.2330709860
40
0.3640257055
40
0.5036251126
40
0.6457676896
40
0.7805338564
40
0.8995941054
40
1.0000000000
40
1.0000000000
40
1.0000000000
40
1.0000000000
10
196.9434102390
20
160.4089246906
30
0.0000000000
10
196.1176241160
20
161.1723043604
30
0.0000000000
10
194.3630457056
20
162.7220021817
30
0.0000000000
10
191.5121171997
20
165.0111079701
30
0.0000000000
10
188.3243851843
20
167.3158519724
30
0.0000000000
10
184.8387210936
20
169.5600076404
30
0.0000000000
10
181.1996587275
20
171.6246539879
30
0.0000000000
10
177.6381172977
20
173.3953268953
30
0.0000000000
10
174.3772969292
20
174.8182231597
30
0.0000000000
10
172.3211157371
20
175.6120267929
30
0.0000000000
10
171.3737402343
20
175.9565472778
30
0.0000000000
11
196.9434102390
21
160.4089246906
31
0.0000000000
11
194.4148463937
21
162.6423986777
31
0.0000000000
11
191.5716704249
21
164.9254542934
31
0.0000000000
11
188.3753494587
21
167.2366151507
31
0.0000000000
11
184.8400720664
21
169.5129253121
31
0.0000000000
11
181.1164278039
21
171.6258101261
31
0.0000000000
11
177.4817657661
21
173.4330104319
31
0.0000000000
11
174.1950044839
21
174.8673271877
31
0.0000000000
11
171.3737402343
21
175.9565472778
31
0.0000000000
0
SPLINE
5
3A7
100
AcDbEntity
8
0
100
AcDbSpline
62
7
6
CONTINUOUS
70
0
71
3
72
9
73
5
74
3
42
0.0000001000
43
0.0000001000
44
0.0000000001
12
0.0009772081
22
0.5857762130
32
0.0000000000
13
-0.1938510674
23
0.5538287075
33
0.0000000000
40
0.0000000000
40
0.0000000000
40
0.0000000000
40
0.0000000000
40
0.5349514482
40
1.0000000000
40
1.0000000000
40
1.0000000000
40
1.0000000000
10
142.7211440536
20
162.1221089108
30
0.0000000000
10
142.7213183066
20
162.2265628552
30
0.0000000000
10
142.7066657970
20
162.4223541477
30
0.0000000000
10
142.6595683701
20
162.6127247999
30
0.0000000000
10
142.6295183173
20
162.6985772127
30
0.0000000000
11
142.7211440536
21
162.1221089108
31
0.0000000000
11
142.6963566831
21
162.4344892850
31
0.0000000000
11
142.6295183173
21
162.6985772127
31
0.0000000000
0
SPLINE
5
3A8
100
AcDbEntity
8
0
100
AcDbSpline
62
7
6
CONTINUOUS
70
0
71
3
72
11
73
7
74
5
42
0.0000001000
43
0.0000001000
44
0.0000000001
12
-0.2056725211
22
0.5876023695
32
0.0000000000
13
-0.6214989671
23
0.0000000000
33
0.0000000000
40
0.0000000000
40
0.0000000000
40
0.0000000000
40
0.0000000000
40
0.3512017330
40
0.6226311574
40
0.8331427147
40
1.0000000000
40
1.0000000000
40
1.0000000000
40
1.0000000000
10
142.6295183173
20
162.6985772127
30
0.0000000000
10
142.6054408021
20
162.7673662028
30
0.0000000000
10
142.5534815663
20
162.8862700184
30
0.0000000000
10
142.4480476510
20
163.0258771892
30
0.0000000000
10
142.3352528223
20
163.1034930566
30
0.0000000000
10
142.2568236122
20
163.1221089108
30
0.0000000000
10
142.2222564021
20
163.1221089108
30
0.0000000000
11
142.6295183173
21
162.6985772127
31
0.0000000000
11
142.5382866937
21
162.8968680213
31
0.0000000000
11
142.4331074546
21
163.0287569594
31
0.0000000000
11
142.3236731352
21
163.1004600218
31
0.0000000000
11
142.2222564021
21
163.1221089108
31
0.0000000000
0
SPLINE
5
3A9
100
AcDbEntity
8
0
100
AcDbSpline
62
7
6
CONTINUOUS
70
0
71
3
72
9
73
5
74
3
42
0.0000001000
43
0.0000001000
44
0.0000000001
12
0.2151920720
22
-0.0591976866
32
0.0000000000
13
0.1459178000
23
0.1688397734
33
0.0000000000
40
0.0000000000
40
0.0000000000
40
0.0000000000
40
0.0000000000
40
0.5780293684
40
1.0000000000
40
1.0000000000
40
1.0000000000
40
1.0000000000
10
195.9662709834
20
159.7738202455
30
0.0000000000
10
196.0077334293
20
159.7624142450
30
0.0000000000
10
196.0856696805
20
159.7994610424
30
0.0000000000
10
196.1404891343
20
159.8516108248
30
0.0000000000
10
196.1610134764
20
159.8753593001
30
0.0000000000
11
195.9662709834
21
159.7738202455
31
0.0000000000
11
196.0901085764
21
159.8102886972
31
0.0000000000
11
196.1610134764
21
159.8753593001
31
0.0000000000
0
SPLINE
5
3AA
100
AcDbEntity
8
0
100
AcDbSpline
62
7
6
CONTINUOUS
70
0
71
3
72
10
73
6
74
4
42
0.0000001000
43
0.0000001000
44
0.0000000001
12
0.4827985016
22
0.5586404784
32
0.0000000000
13
0.1748301106
23
0.7177819946
33
0.0000000000
40
0.0000000000
40
0.0000000000
40
0.0000000000
40
0.0000000000
40
0.1615736519
40
0.5551268689
40
1.0000000000
40
1.0000000000
40
1.0000000000
40
1.0000000000
10
196.1610134764
20
159.8753593001
30
0.0000000000
10
196.1870159821
20
159.9054464942
30
0.0000000000
10
196.2619728446
20
160.0184294359
30
0.0000000000
10
196.3732112724
20
160.2405146064
30
0.0000000000
10
196.4347875838
20
160.4382253639
30
0.0000000000
10
196.4607133234
20
160.5446660050
30
0.0000000000
11
196.1610134764
21
159.8753593001
31
0.0000000000
11
196.2295307579
21
159.9720882523
31
0.0000000000
11
196.3605204510
21
160.2316529464
31
0.0000000000
11
196.4607133234
21
160.5446660050
31
0.0000000000
0
SPLINE
5
3AB
100
AcDbEntity
8
0
100
AcDbSpline
62
7
6
CONTINUOUS
70
0
71
3
72
11
73
7
74
5
42
0.0000001000
43
0.0000001000
44
0.0000000001
12
-0.5841948438
22
0.0000000000
32
0.0000000000
13
0.0000000154
23
0.5841948438
33
0.0000000000
40
0.0000000000
40
0.0000000000
40
0.0000000000
40
0.0000000000
40
0.1590316703
40
0.3816249452
40
0.6711983388
40
1.0000000000
40
1.0000000000
40
1.0000000000
40
1.0000000000
10
143.7258939407
20
139.6221089108
30
0.0000000000
10
143.6949254468
20
139.6221089108
30
0.0000000000
10
143.6230298820
20
139.6623903449
30
0.0000000000
10
143.5587407068
20
139.7786829051
30
0.0000000000
10
143.5141424656
20
139.9372220368
30
0.0000000000
10
143.5044244124
20
140.0580808324
30
0.0000000000
10
143.5044244141
20
140.1221089108
30
0.0000000000
11
143.7258939407
21
139.6221089108
31
0.0000000000
11
143.6411419532
21
139.6601684581
31
0.0000000000
11
143.5692920054
21
139.7685540003
31
0.0000000000
11
143.5212830086
21
139.9307659172
31
0.0000000000
11
143.5044244141
21
140.1221089108
31
0.0000000000
0
SPLINE
5
3AC
100
AcDbEntity
8
0
100
AcDbSpline
62
7
6
CONTINUOUS
70
0
71
3
72
14
73
10
74
8
42
0.0000001000
43
0.0000001000
44
0.0000000001
12
2.1558156793
22
-0.2303310905
32
0.0000000000
13
1.9517574307
23
-0.3271548274
33
0.0000000000
40
0.0000000000
40
0.0000000000
40
0.0000000000
40
0.0000000000
40
0.0069046464
40
0.0584370071
40
0.1590240807
40
0.3143216695
40
0.5202369910
40
0.7584166258
40
1.0000000000
40
1.0000000000
40
1.0000000000
40
1.0000000000
10
197.6861613776
20
153.3073943459
30
0.0000000000
10
197.6911230926
20
153.3068642276
30
0.0000000000
10
197.7685846198
20
153.2985662601
30
0.0000000000
10
197.8161667172
20
153.2933221972
30
0.0000000000
10
198.0576141708
20
153.2663133876
30
0.0000000000
10
198.3401730953
20
153.2321257549
30
0.0000000000
10
198.7403061131
20
153.1800604388
30
0.0000000000
10
199.1852641889
20
153.1158109713
30
0.0000000000
10
199.4984328562
20
153.0657444249
30
0.0000000000
10
199.6556035714
20
153.0393993692
30
0.0000000000
11
197.6861613776
21
153.3073943459
31
0.0000000000
11
197.7085907718
21
153.3049922711
31
0.0000000000
11
197.8099764985
21
153.2939817864
31
0.0000000000
11
198.0077822254
21
153.2716667857
31
0.0000000000
11
198.3129208651
21
153.2350162723
31
0.0000000000
11
198.7169885776
21
153.1822100975
31
0.0000000000
11
199.1835077763
21
153.1148700355
31
0.0000000000
11
199.6556035714
21
153.0393993692
31
0.0000000000
0
SPLINE
5
3AD
100
AcDbEntity
8
0
100
AcDbSpline
62
7
6
CONTINUOUS
70
0
71
3
72
11
73
7
74
5
42
0.0000001000
43
0.0000001000
44
0.0000000001
12
0.7689012971
22
-0.0000000001
32
0.0000000000
13
0.0000000000
23
-0.7689012971
33
0.0000000000
40
0.0000000000
40
0.0000000000
40
0.0000000000
40
0.0000000000
40
0.2534432713
40
0.5048831334
40
0.7534624818
40
1.0000000000
40
1.0000000000
40
1.0000000000
40
1.0000000000
10
133.2055711756
20
162.4242917431
30
0.0000000000
10
133.2705287956
20
162.4242917431
30
0.0000000000
10
133.4012888680
20
162.3992948306
30
0.0000000000
10
133.5674306217
20
162.2918620565
30
0.0000000000
10
133.6792714082
20
162.1305624947
30
0.0000000000
10
133.7055711756
20
162.0022200415
30
0.0000000000
10
133.7055711756
20
161.9390323690
30
0.0000000000
11
133.2055711756
21
162.4242917431
31
0.0000000000
11
133.3969113175
21
162.3873542055
31
0.0000000000
11
133.5591226955
21
162.2821643785
31
0.0000000000
11
133.6675100989
21
162.1247350669
31
0.0000000000
11
133.7055711756
21
161.9390323690
31
0.0000000000
0
SPLINE
5
3AE
100
AcDbEntity
8
0
100
AcDbSpline
62
7
6
CONTINUOUS
70
0
71
3
72
10
73
6
74
4
42
0.0000001000
43
0.0000001000
44
0.0000000001
12
-0.4298734337
22
0.1193855538
32
0.0000000000
13
0.1123610521
23
0.4317627513
33
0.0000000000
40
0.0000000000
40
0.0000000000
40
0.0000000000
40
0.0000000000
40
0.1234357720
40
0.4721606653
40
1.0000000000
40
1.0000000000
40
1.0000000000
40
1.0000000000
10
199.9933302834
20
158.6554632436
30
0.0000000000
10
199.9756430303
20
158.6603753930
30
0.0000000000
10
200.0264261122
20
158.7620044401
30
0.0000000000
10
200.0244988957
20
158.8769026299
30
0.0000000000
10
200.0699079288
20
159.0146041127
30
0.0000000000
10
200.0896774564
20
159.0905712338
30
0.0000000000
11
199.9933302834
21
158.6554632436
31
0.0000000000
11
199.9986622905
21
158.7102745826
31
0.0000000000
11
200.0322983425
21
158.8621764511
31
0.0000000000
11
200.0896774564
21
159.0905712338
31
0.0000000000
0
SPLINE
5
3AF
100
AcDbEntity
8
0
100
AcDbSpline
62
7
6
CONTINUOUS
70
0
71
3
72
8
73
4
74
2
42
0.0000001000
43
0.0000001000
44
0.0000000001
12
0.0758912371
22
-0.0316510042
32
0.0000000000
13
0.0756725657
23
-0.0321762681
33
0.0000000000
40
0.0000000000
40
0.0000000000
40
0.0000000000
40
0.0000000000
40
1.0000000000
40
1.0000000000
40
1.0000000000
40
1.0000000000
10
200.0896774564
20
159.0905712338
30
0.0000000000
10
200.1149745355
20
159.0800208991
30
0.0000000000
10
200.1402354708
20
159.0693827633
30
0.0000000000
10
200.1654596594
20
159.0586573406
30
0.0000000000
11
200.0896774564
21
159.0905712338
31
0.0000000000
11
200.1654596594
21
159.0586573406
31
0.0000000000
0
SPLINE
5
3B0
100
AcDbEntity
8
0
100
AcDbSpline
62
7
6
CONTINUOUS
70
0
71
3
72
17
73
13
74
11
42
0.0000001000
43
0.0000001000
44
0.0000000001
12
5.6583410937
22
-2.4059485553
32
0.0000000000
13
3.9160283571
23
-4.7400411572
33
0.0000000000
40
0.0000000000
40
0.0000000000
40
0.0000000000
40
0.0000000000
40
0.0528605325
40
0.1249717584
40
0.2036780506
40
0.2896472984
40
0.3835298685
40
0.4859485684
40
0.5976211581
40
0.7196740767
40
0.8533842775
40
1.0000000000
40
1.0000000000
40
1.0000000000
40
1.0000000000
10
200.1654596594
20
159.0586573406
30
0.0000000000
10
200.2651606338
20
159.0162641000
30
0.0000000000
10
200.4995143166
20
158.9128148997
30
0.0000000000
10
200.8758932937
20
158.7320808725
30
0.0000000000
10
201.3051583502
20
158.5054515470
30
0.0000000000
10
201.7633745494
20
158.2389737144
30
0.0000000000
10
202.2503256869
20
157.9262718939
30
0.0000000000
10
202.7648844094
20
157.5602864115
30
0.0000000000
10
203.3054892932
20
157.1327410699
30
0.0000000000
10
203.8700003282
20
156.6337073708
30
0.0000000000
10
204.4548633697
20
156.0516290821
30
0.0000000000
10
204.8356220923
20
155.6207149444
30
0.0000000000
10
205.0270058680
20
155.3890600914
30
0.0000000000
11
200.1654596594
21
159.0586573406
31
0.0000000000
11
200.4628030595
21
158.9274183087
31
0.0000000000
11
200.8624982164
21
158.7355280568
31
0.0000000000
11
201.2904613107
21
158.5096370300
31
0.0000000000
11
201.7474160673
21
158.2439578956
31
0.0000000000
11
202.2331601668
21
157.9321113084
31
0.0000000000
11
202.7463592154
21
157.5671900502
31
0.0000000000
11
203.2849587889
21
157.1413423537
31
0.0000000000
11
203.8472656229
21
156.6443885367
31
0.0000000000
11
204.4300307558
21
156.0645200829
31
0.0000000000
11
205.0270058680
21
155.3890600914
31
0.0000000000
0
SPLINE
5
3B1
100
AcDbEntity
8
0
100
AcDbSpline
62
7
6
CONTINUOUS
70
0
71
3
72
13
73
9
74
7
42
0.0000001000
43
0.0000001000
44
0.0000000001
12
0.4804603692
22
1.2988558878
32
0.0000000000
13
1.1296141508
23
0.7983515650
33
0.0000000000
40
0.0000000000
40
0.0000000000
40
0.0000000000
40
0.0000000000
40
0.0144481378
40
0.1848976529
40
0.3690548112
40
0.5660501653
40
0.7741908065
40
1.0000000000
40
1.0000000000
40
1.0000000000
40
1.0000000000
10
133.2814958574
20
177.1223514830
30
0.0000000000
10
133.2838097766
20
177.1286068326
30
0.0000000000
10
133.3140439400
20
177.2084271909
30
0.0000000000
10
133.3900790293
20
177.3616176517
30
0.0000000000
10
133.5400424669
20
177.5683675241
30
0.0000000000
10
133.7308166135
20
177.7629799474
30
0.0000000000
10
133.9571290095
20
177.9463919325
30
0.0000000000
10
134.1204647586
20
178.0620172031
30
0.0000000000
10
134.2054905121
20
178.1221089108
30
0.0000000000
11
133.2814958574
21
177.1223514830
31
0.0000000000
11
133.2885828401
21
177.1410626069
31
0.0000000000
11
133.3926493757
21
177.3526283044
31
0.0000000000
11
133.5411669560
21
177.5595898481
31
0.0000000000
11
133.7305566833
21
177.7555105243
31
0.0000000000
11
133.9525590848
21
177.9388352851
31
0.0000000000
11
134.2054905121
21
178.1221089108
31
0.0000000000
0
SPLINE
5
3B2
100
AcDbEntity
8
0
100
AcDbSpline
62
7
6
CONTINUOUS
70
0
71
3
72
11
73
7
74
5
42
0.0000001000
43
0.0000001000
44
0.0000000001
12
0.9226128215
22
-0.2559629067
32
0.0000000000
13
0.2278883033
23
0.9299453475
33
0.0000000000
40
0.0000000000
40
0.0000000000
40
0.0000000000
40
0.0000000000
40
0.1326631807
40
0.3544032431
40
0.6572421746
40
1.0000000000
40
1.0000000000
40
1.0000000000
40
1.0000000000
10
196.4549809124
20
159.6380534085
30
0.0000000000
10
196.4957798296
20
159.6267344574
30
0.0000000000
10
196.6137814413
20
159.6849599542
30
0.0000000000
10
196.7317109621
20
159.8552522719
30
0.0000000000
10
196.8560150162
20
160.1054292989
30
0.0000000000
10
196.9173555639
20
160.3026763748
30
0.0000000000
10
196.9433923970
20
160.4089250565
30
0.0000000000
11
196.4549809124
21
159.6380534085
31
0.0000000000
11
196.5764984008
21
159.6750335745
31
0.0000000000
11
196.7137743753
21
159.8369896129
31
0.0000000000
11
196.8434321616
21
160.0963418793
31
0.0000000000
11
196.9433923970
21
160.4089250565
31
0.0000000000
0
SPLINE
5
3B3
100
AcDbEntity
8
0
100
AcDbSpline
62
7
6
CONTINUOUS
70
0
71
3
72
10
73
6
74
4
42
0.0000001000
43
0.0000001000
44
0.0000000001
12
3.1448720243
22
-1.3217216603
32
0.0000000000
13
3.1485133526
23
-1.3130239392
33
0.0000000000
40
0.0000000000
40
0.0000000000
40
0.0000000000
40
0.0000000000
40
0.3587201722
40
0.6925216868
40
1.0000000000
40
1.0000000000
40
1.0000000000
40
1.0000000000
10
196.9433923970
20
160.4089250565
30
0.0000000000
10
197.3194354083
20
160.2508823160
30
0.0000000000
10
198.0454801584
20
159.9459673178
30
0.0000000000
10
199.0941927911
20
159.5063985829
30
0.0000000000
10
199.7669810562
20
159.2251565424
30
0.0000000000
10
200.0896809145
20
159.0905810804
30
0.0000000000
11
196.9433923970
21
160.4089250565
31
0.0000000000
11
198.0716618057
21
159.9351309776
31
0.0000000000
11
199.1218714224
21
159.4950023568
31
0.0000000000
11
200.0896809145
21
159.0905810804
31
0.0000000000
0
SPLINE
5
3B4
100
AcDbEntity
8
0
100
AcDbSpline
62
7
6
CONTINUOUS
70
0
71
3
72
9
73
5
74
3
42
0.0000001000
43
0.0000001000
44
0.0000000001
12
-0.3882011323
22
-0.0000000000
32
0.0000000000
13
-0.2801403625
23
-0.2719225288
33
0.0000000000
40
0.0000000000
40
0.0000000000
40
0.0000000000
40
0.0000000000
40
0.5019817778
40
1.0000000000
40
1.0000000000
40
1.0000000000
40
1.0000000000
10
108.2055711756
20
162.4242917429
30
0.0000000000
10
108.1406145441
20
162.4242917429
30
0.0000000000
10
108.0098559216
20
162.3992954991
30
0.0000000000
10
107.8985277027
20
162.3273081252
30
0.0000000000
10
107.8520227009
20
162.2821673337
30
0.0000000000
11
108.2055711756
21
162.4242917429
31
0.0000000000
11
108.0142338365
21
162.3873553320
31
0.0000000000
11
107.8520227009
21
162.2821673337
31
0.0000000000
0
SPLINE
5
3B5
100
AcDbEntity
8
0
100
AcDbSpline
62
7
6
CONTINUOUS
70
0
71
3
72
9
73
5
74
3
42
0.0000001000
43
0.0000001000
44
0.0000000001
12
-0.2747273827
22
-0.2666683372
32
0.0000000000
13
-0.0000000003
23
-0.3807001607
33
0.0000000000
40
0.0000000000
40
0.0000000000
40
0.0000000000
40
0.0000000000
40
0.5020597111
40
1.0000000000
40
1.0000000000
40
1.0000000000
40
1.0000000000
10
107.8520227009
20
162.2821673337
30
0.0000000000
10
107.8060461841
20
162.2375395243
30
0.0000000000
10
107.7318716659
20
162.1305649219
30
0.0000000000
10
107.7055711757
20
162.0022210184
30
0.0000000000
10
107.7055711756
20
161.9390323691
30
0.0000000000
11
107.8520227009
21
162.2821673337
31
0.0000000000
11
107.7436334265
21
162.1247378178
31
0.0000000000
11
107.7055711756
21
161.9390323691
31
0.0000000000
0
SPLINE
5
3B6
100
AcDbEntity
8
0
100
AcDbSpline
62
7
6
CONTINUOUS
70
0
71
3
72
11
73
7
74
5
42
0.0000001000
43
0.0000001000
44
0.0000000001
12
0.2901385460
22
-0.8681435850
32
0.0000000000
13
0.3735372155
23
-0.8357355368
33
0.0000000000
40
0.0000000000
40
0.0000000000
40
0.0000000000
40
0.0000000000
40
0.4046811402
40
0.7292494845
40
0.9853875494
40
1.0000000000
40
1.0000000000
40
1.0000000000
40
1.0000000000
10
107.2055711756
20
178.1221089108
30
0.0000000000
10
107.2447090415
20
178.0050017988
30
0.0000000000
10
107.3217774577
20
177.7961979416
30
0.0000000000
10
107.4321273298
20
177.5164566890
30
0.0000000000
10
107.5062730456
20
177.3506132184
30
0.0000000000
10
107.5399981904
20
177.2751935259
30
0.0000000000
10
107.5418176217
20
177.2711228112
30
0.0000000000
11
107.2055711756
21
178.1221089108
31
0.0000000000
11
107.3316597062
21
177.7738068631
31
0.0000000000
11
107.4420693589
21
177.4979933832
31
0.0000000000
11
107.5363578978
21
177.2833343696
31
0.0000000000
11
107.5418176217
21
177.2711228112
31
0.0000000000
0
SPLINE
5
3B7
100
AcDbEntity
8
0
100
AcDbSpline
62
7
6
CONTINUOUS
70
0
71
3
72
8
73
4
74
2
42
0.0000001000
43
0.0000001000
44
0.0000000001
12
0.0662647624
22
-0.1482578295
32
0.0000000000
13
0.0617027227
23
-0.1502321670
33
0.0000000000
40
0.0000000000
40
0.0000000000
40
0.0000000000
40
0.0000000000
40
1.0000000000
40
1.0000000000
40
1.0000000000
40
1.0000000000
10
107.5418176217
20
177.2711228112
30
0.0000000000
10
107.5639058759
20
177.2217035347
30
0.0000000000
10
107.5858879639
20
177.1722398459
30
0.0000000000
10
107.6064555381
20
177.1221624570
30
0.0000000000
11
107.5418176217
21
177.2711228112
31
0.0000000000
11
107.6064555381
21
177.1221624570
31
0.0000000000
0
SPLINE
5
3B8
100
AcDbEntity
8
0
100
AcDbSpline
62
7
6
CONTINUOUS
70
0
71
3
72
13
73
9
74
7
42
0.0000001000
43
0.0000001000
44
0.0000000001
12
1.1295840072
22
-0.7983470215
32
0.0000000000
13
0.4804561286
23
-1.2988319442
33
0.0000000000
40
0.0000000000
40
0.0000000000
40
0.0000000000
40
0.0000000000
40
0.2254841321
40
0.4329010629
40
0.6290320596
40
0.8124112737
40
0.9826345847
40
1.0000000000
40
1.0000000000
40
1.0000000000
40
1.0000000000
10
107.2056468169
20
178.1221089108
30
0.0000000000
10
107.2905479068
20
178.0621040490
30
0.0000000000
10
107.4534880715
20
177.9467635285
30
0.0000000000
10
107.6791488705
20
177.7639661839
30
0.0000000000
10
107.8693382190
20
177.5703359921
30
0.0000000000
10
108.0191896608
20
177.3645985429
30
0.0000000000
10
108.0960503769
20
177.2108391486
30
0.0000000000
10
108.1268514720
20
177.1299057984
30
0.0000000000
10
108.1296325788
20
177.1223875463
30
0.0000000000
11
107.2056468169
21
178.1221089108
31
0.0000000000
11
107.4582156598
21
177.9391116813
31
0.0000000000
11
107.6794982491
21
177.7564963267
31
0.0000000000
11
107.8682550054
21
177.5616343395
31
0.0000000000
11
108.0165562550
21
177.3558488326
31
0.0000000000
11
108.1210797337
21
177.1448628189
31
0.0000000000
11
108.1296325788
21
177.1223875463
31
0.0000000000
0
SPLINE
5
3B9
100
AcDbEntity
8
0
100
AcDbSpline
62
7
6
CONTINUOUS
70
0
71
3
72
9
73
5
74
3
42
0.0000001000
43
0.0000001000
44
0.0000000001
12
0.4826869126
22
-0.1357768017
32
0.0000000000
13
0.4826869135
23
-0.1357767984
33
0.0000000000
40
0.0000000000
40
0.0000000000
40
0.0000000000
40
0.0000000000
40
0.4996608637
40
1.0000000000
40
1.0000000000
40
1.0000000000
40
1.0000000000
10
196.4607133469
20
160.5446660050
30
0.0000000000
10
196.5411066001
20
160.5220518870
30
0.0000000000
10
196.7020171513
20
160.4768459862
30
0.0000000000
10
196.8629078545
20
160.4315695060
30
0.0000000000
10
196.9434102390
20
160.4089246906
30
0.0000000000
11
196.4607133469
21
160.5446660050
31
0.0000000000
11
196.7019030548
21
160.4768590272
31
0.0000000000
11
196.9434102390
21
160.4089246906
31
0.0000000000
0
SPLINE
5
3BA
100
AcDbEntity
8
0
100
AcDbSpline
62
7
6
CONTINUOUS
70
0
71
3
72
9
73
5
74
3
42
0.0000001000
43
0.0000001000
44
0.0000000001
12
0.0000012950
22
-0.1677949913
32
0.0000000000
13
0.0278174624
23
-0.1654731033
33
0.0000000000
40
0.0000000000
40
0.0000000000
40
0.0000000000
40
0.0000000000
40
0.5063441474
40
1.0000000000
40
1.0000000000
40
1.0000000000
40
1.0000000000
10
292.8612579624
20
178.1220584904
30
0.0000000000
10
292.8612581809
20
178.0937378198
30
0.0000000000
10
292.8636310749
20
178.0377810956
30
0.0000000000
10
292.8706377408
20
177.9822195252
30
0.0000000000
10
292.8752151585
20
177.9549906033
30
0.0000000000
11
292.8612579624
21
178.1220584904
31
0.0000000000
11
292.8648492097
21
178.0371724115
31
0.0000000000
11
292.8752151585
21
177.9549906033
31
0.0000000000
0
SPLINE
5
3BB
100
AcDbEntity
8
0
100
AcDbSpline
62
7
6
CONTINUOUS
70
0
71
3
72
9
73
5
74
3
42
0.0000001000
43
0.0000001000
44
0.0000000001
12
0.0278171468
22
0.1654686976
32
0.0000000000
13
0.0000016659
23
0.1677905943
33
0.0000000000
40
0.0000000000
40
0.0000000000
40
0.0000000000
40
0.0000000000
40
0.4912881458
40
1.0000000000
40
1.0000000000
40
1.0000000000
40
1.0000000000
10
356.8472748596
20
177.9549903993
30
0.0000000000
10
356.8518302711
20
177.9820880026
30
0.0000000000
10
356.8588478494
20
178.0376458257
30
0.0000000000
10
356.8612314050
20
178.0936015618
30
0.0000000000
10
356.8612316875
20
178.1220539166
30
0.0000000000
11
356.8472748596
21
177.9549903993
31
0.0000000000
11
356.8576070907
21
178.0367738443
31
0.0000000000
11
356.8612316875
21
178.1220539166
31
0.0000000000
0
SPLINE
5
3BC
100
AcDbEntity
8
0
100
AcDbSpline
62
7
6
CONTINUOUS
70
0
71
3
72
10
73
6
74
4
42
0.0000001000
43
0.0000001000
44
0.0000000001
12
-0.0223353409
22
-1.6102097829
32
0.0000000000
13
0.0189464581
23
-1.6102532236
33
0.0000000000
40
0.0000000000
40
0.0000000000
40
0.0000000000
40
0.0000000000
40
0.3253862649
40
0.6654009749
40
1.0000000000
40
1.0000000000
40
1.0000000000
40
1.0000000000
10
312.0204851364
20
175.7324366207
30
0.0000000000
10
312.0180625987
20
175.5577899051
30
0.0000000000
10
312.0152098150
20
175.2006146572
30
0.0000000000
10
312.0155357263
20
174.6638218003
30
0.0000000000
10
312.0184993310
20
174.3017052970
30
0.0000000000
10
312.0206124864
20
174.1221089108
30
0.0000000000
11
312.0204851364
21
175.7324366207
31
0.0000000000
11
312.0160065718
21
175.2084652110
31
0.0000000000
11
312.0162344838
21
174.6609175777
31
0.0000000000
11
312.0206124864
21
174.1221089108
31
0.0000000000
0
SPLINE
5
3BD
100
AcDbEntity
8
0
100
AcDbSpline
62
7
6
CONTINUOUS
70
0
71
3
72
10
73
6
74
4
42
0.0000001000
43
0.0000001000
44
0.0000000001
12
-0.1369560095
22
-15.6949020445
32
0.0000000000
13
-0.0115896085
23
-15.6954953033
33
0.0000000000
40
0.0000000000
40
0.0000000000
40
0.0000000000
40
0.0000000000
40
0.3211667551
40
0.6543040861
40
1.0000000000
40
1.0000000000
40
1.0000000000
40
1.0000000000
10
286.0026083464
20
155.8214995639
30
0.0000000000
10
285.9879464406
20
154.1412726437
30
0.0000000000
10
285.9633914891
20
150.7181450875
30
0.0000000000
10
285.9402408822
20
145.4863577780
30
0.0000000000
10
285.9335004031
20
141.9348176387
30
0.0000000000
10
285.9321649096
20
140.1261947743
30
0.0000000000
11
286.0026083464
21
155.8214995639
31
0.0000000000
11
285.9661073110
21
150.7807590482
31
0.0000000000
11
285.9426931004
21
145.5520546324
31
0.0000000000
11
285.9321649096
21
140.1261947743
31
0.0000000000
0
SPLINE
5
3BE
100
AcDbEntity
8
0
100
AcDbSpline
62
7
6
CONTINUOUS
70
0
71
3
72
11
73
7
74
5
42
0.0000001000
43
0.0000001000
44
0.0000000001
12
-0.6265216370
22
0.6156810980
32
0.0000000000
13
-0.7303675445
23
-0.4880121167
33
0.0000000000
40
0.0000000000
40
0.0000000000
40
0.0000000000
40
0.0000000000
40
0.1755999612
40
0.3991863893
40
0.6787551859
40
1.0000000000
40
1.0000000000
40
1.0000000000
40
1.0000000000
10
312.8250715034
20
175.9090869189
30
0.0000000000
10
312.7883991116
20
175.9451247779
30
0.0000000000
10
312.6731751051
20
175.9941875236
30
0.0000000000
10
312.4712302915
20
175.9741174780
30
0.0000000000
10
312.2445713400
20
175.8844819605
30
0.0000000000
10
312.0987338169
20
175.7849573697
30
0.0000000000
10
312.0205248882
20
175.7327002492
30
0.0000000000
11
312.8250715034
21
175.9090869189
31
0.0000000000
11
312.6863406934
21
175.9765115934
31
0.0000000000
11
312.4901301491
21
175.9679079601
31
0.0000000000
11
312.2602191095
21
175.8816085057
31
0.0000000000
11
312.0205248882
21
175.7327002492
31
0.0000000000
0
SPLINE
5
3BF
100
AcDbEntity
8
0
100
AcDbSpline
62
7
6
CONTINUOUS
70
0
71
3
72
13
73
9
74
7
42
0.0000001000
43
0.0000001000
44
0.0000000001
12
-1.6269627201
22
-0.0007507402
32
0.0000000000
13
0.8944980720
23
-1.3590001675
33
0.0000000000
40
0.0000000000
40
0.0000000000
40
0.0000000000
40
0.0000000000
40
0.0358480436
40
0.1539223551
40
0.3344689123
40
0.5495738790
40
0.7760372100
40
1.0000000000
40
1.0000000000
40
1.0000000000
40
1.0000000000
10
311.1815805552
20
177.1221089108
30
0.0000000000
10
311.1621394117
20
177.1220999399
30
0.0000000000
10
311.2373946830
20
176.9901417482
30
0.0000000000
10
311.2856743711
20
176.8860122737
30
0.0000000000
10
311.4506391728
20
176.6196868359
30
0.0000000000
10
311.6228112411
20
176.3441201098
30
0.0000000000
10
311.8206242820
20
176.0377273020
30
0.0000000000
10
311.9537070418
20
175.8338917771
30
0.0000000000
10
312.0204851364
20
175.7324366207
30
0.0000000000
11
311.1815805552
21
177.1221089108
31
0.0000000000
11
311.1943160762
21
177.0651929220
31
0.0000000000
11
311.2849092987
21
176.8957932539
31
0.0000000000
11
311.4358870894
21
176.6438202556
31
0.0000000000
11
311.6218130617
21
176.3473257479
31
0.0000000000
11
311.8211664118
21
176.0374681110
31
0.0000000000
11
312.0204851364
21
175.7324366207
31
0.0000000000
0
SPLINE
5
3C0
100
AcDbEntity
8
0
100
AcDbSpline
62
7
6
CONTINUOUS
70
0
71
3
72
10
73
6
74
4
42
0.0000001000
43
0.0000001000
44
0.0000000001
12
-0.0097308659
22
13.1784343431
32
0.0000000000
13
-0.0952272228
23
13.1780994261
33
0.0000000000
40
0.0000000000
40
0.0000000000
40
0.0000000000
40
0.0000000000
40
0.4122782906
40
0.8090047555
40
1.0000000000
40
1.0000000000
40
1.0000000000
40
1.0000000000
10
363.7903247362
20
140.1261948024
30
0.0000000000
10
363.7889874613
20
141.9372555968
30
0.0000000000
10
363.7822372440
20
145.4910597531
30
0.0000000000
10
363.7627837301
20
149.8838338054
30
0.0000000000
10
363.7459984860
20
152.4655327264
30
0.0000000000
10
363.7399358371
20
153.3045175003
30
0.0000000000
11
363.7903247362
21
140.1261948024
31
0.0000000000
11
363.7797733218
21
145.5593684213
31
0.0000000000
11
363.7563428578
21
150.7875510146
31
0.0000000000
11
363.7399358371
21
153.3045175003
31
0.0000000000
0
SPLINE
5
3C1
100
AcDbEntity
8
0
100
AcDbSpline
62
7
6
CONTINUOUS
70
0
71
3
72
8
73
4
74
2
42
0.0000001000
43
0.0000001000
44
0.0000000001
12
-0.0002261850
22
0.0313007981
32
0.0000000000
13
-0.0002267493
23
0.0313007939
33
0.0000000000
40
0.0000000000
40
0.0000000000
40
0.0000000000
40
0.0000000000
40
1.0000000000
40
1.0000000000
40
1.0000000000
40
1.0000000000
10
363.7399358371
20
153.3045175003
30
0.0000000000
10
363.7398604421
20
153.3149510997
30
0.0000000000
10
363.7397849531
20
153.3253846983
30
0.0000000000
10
363.7397093700
20
153.3358182963
30
0.0000000000
11
363.7399358371
21
153.3045175003
31
0.0000000000
11
363.7397093700
21
153.3358182963
31
0.0000000000
0
SPLINE
5
3C2
100
AcDbEntity
8
0
100
AcDbSpline
62
7
6
CONTINUOUS
70
0
71
3
72
8
73
4
74
2
42
0.0000001000
43
0.0000001000
44
0.0000000001
12
-0.0180068817
22
2.4856958334
32
0.0000000000
13
-0.0216902743
23
2.4856653828
33
0.0000000000
40
0.0000000000
40
0.0000000000
40
0.0000000000
40
0.0000000000
40
1.0000000000
40
1.0000000000
40
1.0000000000
40
1.0000000000
10
363.7397093700
20
153.3358182963
30
0.0000000000
10
363.7337070761
20
154.1643835741
30
0.0000000000
10
363.7271114160
20
154.9929444358
30
0.0000000000
10
363.7198813246
20
155.8214995634
30
0.0000000000
11
363.7397093700
21
153.3358182963
31
0.0000000000
11
363.7198813246
21
155.8214995634
31
0.0000000000
0
SPLINE
5
3C3
100
AcDbEntity
8
0
100
AcDbSpline
62
7
6
CONTINUOUS
70
0
71
3
72
9
73
5
74
3
42
0.0000001000
43
0.0000001000
44
0.0000000001
12
0.0216092920
22
0.1188610204
32
0.0000000000
13
0.1208093688
23
-0.0000089360
33
0.0000000000
40
0.0000000000
40
0.0000000000
40
0.0000000000
40
0.0000000000
40
0.7129341031
40
1.0000000000
40
1.0000000000
40
1.0000000000
40
1.0000000000
10
286.6915596878
20
182.5102929476
30
0.0000000000
10
286.6966950216
20
182.5385396393
30
0.0000000000
10
286.7040257372
20
182.5702587960
30
0.0000000000
10
286.7205957000
20
182.6221097658
30
0.0000000000
10
286.7321557833
20
182.6221089108
30
0.0000000000
11
286.6915596878
21
182.5102929476
31
0.0000000000
11
286.7118437346
21
182.5939994744
31
0.0000000000
11
286.7321557833
21
182.6221089108
31
0.0000000000
0
SPLINE
5
3C4
100
AcDbEntity
8
0
100
AcDbSpline
62
7
6
CONTINUOUS
70
0
71
3
72
10
73
6
74
4
42
0.0000001000
43
0.0000001000
44
0.0000000001
12
0.0063429775
22
0.7263102023
32
0.0000000000
13
0.7241486945
23
0.0563507900
33
0.0000000000
40
0.0000000000
40
0.0000000000
40
0.0000000000
40
0.0000000000
40
0.3306687037
40
0.6639235682
40
1.0000000000
40
1.0000000000
40
1.0000000000
40
1.0000000000
10
286.2312965989
20
182.0258378117
30
0.0000000000
10
286.2319957403
20
182.1058938294
30
0.0000000000
10
286.2755147027
20
182.2690737783
30
0.0000000000
10
286.4492362693
20
182.4509342782
30
0.0000000000
10
286.6104368318
20
182.5039771824
30
0.0000000000
10
286.6915599349
20
182.5102899066
30
0.0000000000
11
286.2312965989
21
182.0258378117
31
0.0000000000
11
286.2931603001
21
182.2579110229
31
0.0000000000
11
286.4598824350
21
182.4333951010
31
0.0000000000
11
286.6915599349
21
182.5102899066
31
0.0000000000
0
SPLINE
5
3C5
100
AcDbEntity
8
0
100
AcDbSpline
62
7
6
CONTINUOUS
70
0
71
3
72
15
73
11
74
9
42
0.0000001000
43
0.0000001000
44
0.0000000001
12
-4.5321775425
22
3.9100306838
32
0.0000000000
13
0.0511803287
23
5.9855119914
33
0.0000000000
40
0.0000000000
40
0.0000000000
40
0.0000000000
40
0.0000000000
40
0.2413703327
40
0.4440310540
40
0.6103601081
40
0.7436593195
40
0.8462882438
40
0.9209711338
40
0.9708716574
40
1.0000000000
40
1.0000000000
40
1.0000000000
40
1.0000000000
10
290.2132064041
20
177.6221089045
30
0.0000000000
10
289.8485620037
20
177.9366973736
30
0.0000000000
10
289.1872587112
20
178.5265844122
30
0.0000000000
10
288.3075191853
20
179.3690844532
30
0.0000000000
10
287.6098383168
20
180.0888031487
30
0.0000000000
10
287.0757079480
20
180.6885001796
30
0.0000000000
10
286.6881043776
20
181.1719009312
30
0.0000000000
10
286.4286159545
20
181.5456361907
30
0.0000000000
10
286.2823594036
20
181.8135469665
30
0.0000000000
10
286.2308160757
20
181.9677216536
30
0.0000000000
10
286.2313130084
20
182.0258376683
30
0.0000000000
11
290.2132064041
21
177.6221089045
31
0.0000000000
11
289.1359021075
21
178.5848126209
31
0.0000000000
11
288.2609787947
21
179.4250828980
31
0.0000000000
11
287.5696077260
21
180.1414817269
31
0.0000000000
11
287.0410049209
21
180.7391544012
31
0.0000000000
11
286.6595172822
21
181.2206550433
31
0.0000000000
11
286.4088441806
21
181.5907905789
31
0.0000000000
11
286.2720248038
21
181.8563029737
31
0.0000000000
11
286.2313130084
21
182.0258376683
31
0.0000000000
0
SPLINE
5
3C6
100
AcDbEntity
8
0
100
AcDbSpline
62
7
6
CONTINUOUS
70
0
71
3
72
15
73
11
74
9
42
0.0000001000
43
0.0000001000
44
0.0000000001
12
-4.2199980415
22
4.3899295247
32
0.0000000000
13
1.0874403105
23
5.9914387482
33
0.0000000000
40
0.0000000000
40
0.0000000000
40
0.0000000000
40
0.0000000000
40
0.2390011503
40
0.4403069952
40
0.6060189626
40
0.7392965510
40
0.8423727860
40
0.9179068360
40
0.9690675871
40
1.0000000000
40
1.0000000000
40
1.0000000000
40
1.0000000000
10
290.2132062756
20
177.6221089108
30
0.0000000000
10
289.8770114802
20
177.9718416461
30
0.0000000000
10
289.2695599892
20
178.6277650101
30
0.0000000000
10
288.4698494947
20
179.5628560092
30
0.0000000000
10
287.8425882545
20
180.3618006417
30
0.0000000000
10
287.3696729979
20
181.0275711598
30
0.0000000000
10
287.0340291870
20
181.5643815743
30
0.0000000000
10
286.8183161927
20
181.9798014250
30
0.0000000000
10
286.7061944834
20
182.2783729189
30
0.0000000000
10
286.6803473036
20
182.4485163951
30
0.0000000000
10
286.6915596878
20
182.5102929476
30
0.0000000000
11
290.2132062756
21
177.6221089108
31
0.0000000000
11
289.2253385601
21
178.6908355904
31
0.0000000000
11
288.4301480673
21
179.6237332912
31
0.0000000000
11
287.8090468051
21
180.4190088533
31
0.0000000000
11
287.3416685596
21
181.0824876260
31
0.0000000000
11
287.0125595488
21
181.6169500440
31
0.0000000000
11
286.8056793839
21
182.0277490061
31
0.0000000000
11
286.7044463562
21
182.3223768127
31
0.0000000000
11
286.6915596878
21
182.5102929476
31
0.0000000000
0
SPLINE
5
3C7
100
AcDbEntity
8
0
100
AcDbSpline
62
7
6
CONTINUOUS
70
0
71
3
72
19
73
15
74
13
42
0.0000001000
43
0.0000001000
44
0.0000000001
12
-3.0426110461
22
-0.0017070770
32
0.0000000000
13
0.0000119696
23
-3.0426115249
33
0.0000000000
40
0.0000000000
40
0.0000000000
40
0.0000000000
40
0.0000000000
40
0.0305755607
40
0.0907231000
40
0.1725208944
40
0.2673210747
40
0.3687366506
40
0.4719937998
40
0.5732988801
40
0.6701887291
40
0.7613671951
40
0.8464498235
40
0.9257048728
40
1.0000000000
40
1.0000000000
40
1.0000000000
40
1.0000000000
10
355.8612448630
20
177.1221089108
30
0.0000000000
10
355.8302350167
20
177.1220915125
30
0.0000000000
10
355.7759750200
20
177.0175737013
30
0.0000000000
10
355.7375715634
20
176.8636936043
30
0.0000000000
10
355.6937405503
20
176.6201831370
30
0.0000000000
10
355.6607665675
20
176.3425126339
30
0.0000000000
10
355.6331400314
20
176.0392938074
30
0.0000000000
10
355.6120435621
20
175.7298676687
30
0.0000000000
10
355.5961409130
20
175.4244856062
30
0.0000000000
10
355.5847146171
20
175.1312306800
30
0.0000000000
10
355.5769005132
20
174.8543025334
30
0.0000000000
10
355.5719756937
20
174.5952014055
30
0.0000000000
10
355.5693452442
20
174.3531909649
30
0.0000000000
10
355.5687845547
20
174.1974593141
30
0.0000000000
10
355.5687848511
20
174.1221089108
30
0.0000000000
11
355.8612448630
21
177.1221089108
31
0.0000000000
11
355.7975307233
21
177.0543224355
31
0.0000000000
11
355.7433457332
21
176.8795224497
31
0.0000000000
11
355.6986686293
21
176.6346864448
31
0.0000000000
11
355.6627583087
21
176.3484904416
31
0.0000000000
11
355.6344809203
21
176.0412206524
31
0.0000000000
11
355.6127530345
21
175.7278015038
31
0.0000000000
11
355.5965949797
21
175.4199933069
31
0.0000000000
11
355.5850321363
21
175.1254219872
31
0.0000000000
11
355.5771663399
21
174.8481128688
31
0.0000000000
11
355.5722268286
21
174.5892866121
31
0.0000000000
11
355.5695921208
21
174.3481586794
31
0.0000000000
11
355.5687848511
21
174.1221089108
31
0.0000000000
0
SPLINE
5
3C8
100
AcDbEntity
8
0
100
AcDbSpline
62
7
6
CONTINUOUS
70
0
71
3
72
8
73
4
74
2
42
0.0000001000
43
0.0000001000
44
0.0000000001
12
0.0666439451
22
0.0000000000
32
0.0000000000
13
0.0650310411
23
0.0183749188
33
0.0000000000
40
0.0000000000
40
0.0000000000
40
0.0000000000
40
0.0000000000
40
1.0000000000
40
1.0000000000
40
1.0000000000
40
1.0000000000
10
363.3568623899
20
139.6221089108
30
0.0000000000
10
363.3790770383
20
139.6221089108
30
0.0000000000
10
363.4014172304
20
139.6254606059
30
0.0000000000
10
363.4230942441
20
139.6315855788
30
0.0000000000
11
363.3568623899
21
139.6221089108
31
0.0000000000
11
363.4230942441
21
139.6315855788
31
0.0000000000
0
SPLINE
5
3C9
100
AcDbEntity
8
0
100
AcDbSpline
62
7
6
CONTINUOUS
70
0
71
3
72
9
73
5
74
3
42
0.0000001000
43
0.0000001000
44
0.0000000001
12
0.0752498125
22
0.0212622952
32
0.0000000000
13
0.0663041360
23
0.0408540739
33
0.0000000000
40
0.0000000000
40
0.0000000000
40
0.0000000000
40
0.0000000000
40
0.8889425851
40
1.0000000000
40
1.0000000000
40
1.0000000000
40
1.0000000000
10
363.4230942441
20
139.6315855788
30
0.0000000000
10
363.4453918317
20
139.6378858987
30
0.0000000000
10
363.4696857454
20
139.6482742620
30
0.0000000000
10
363.4920053807
20
139.6615792961
30
0.0000000000
10
363.4944599027
20
139.6630916787
30
0.0000000000
11
363.4230942441
21
139.6315855788
31
0.0000000000
11
363.4870235085
21
139.6586600242
31
0.0000000000
11
363.4944599027
21
139.6630916787
31
0.0000000000
0
SPLINE
5
3CA
100
AcDbEntity
8
0
100
AcDbSpline
62
7
6
CONTINUOUS
70
0
71
3
72
10
73
6
74
4
42
0.0000001000
43
0.0000001000
44
0.0000000001
12
0.3470913326
22
-37.5000000000
32
0.0000000000
13
0.3470913326
23
-37.5000000000
33
0.0000000000
40
0.0000000000
40
0.0000000000
40
0.0000000000
40
0.0000000000
40
0.3334550875
40
0.6667884208
40
1.0000000000
40
1.0000000000
40
1.0000000000
40
1.0000000000
10
359.5092833280
20
177.6221089108
30
0.0000000000
10
359.5478631183
20
173.4539203171
30
0.0000000000
10
359.6250086135
20
165.1190650569
30
0.0000000000
10
359.7407057238
20
152.6190650569
30
0.0000000000
10
359.8178230445
20
144.2872536505
30
0.0000000000
10
359.8563746615
20
140.1221089108
30
0.0000000000
11
359.5092833280
21
177.6221089108
31
0.0000000000
11
359.6250226996
21
165.1175431298
31
0.0000000000
11
359.7407198105
21
152.6175431300
31
0.0000000000
11
359.8563746615
21
140.1221089108
31
0.0000000000
0
SPLINE
5
3CB
100
AcDbEntity
8
0
100
AcDbSpline
62
7
6
CONTINUOUS
70
0
71
3
72
9
73
5
74
3
42
0.0000001000
43
0.0000001000
44
0.0000000001
12
0.0482906996
22
0.0079849212
32
0.0000000000
13
0.0496164526
23
0.0223690307
33
0.0000000000
40
0.0000000000
40
0.0000000000
40
0.0000000000
40
0.0000000000
40
0.7863907375
40
1.0000000000
40
1.0000000000
40
1.0000000000
40
1.0000000000
10
363.7949519294
20
140.1137161233
30
0.0000000000
10
363.8076103824
20
140.1158092127
30
0.0000000000
10
363.8235833268
20
140.1188978656
30
0.0000000000
10
363.8496952185
20
140.1198509539
30
0.0000000000
10
363.8532280631
20
140.1214436980
30
0.0000000000
11
363.7949519294
21
140.1137161233
31
0.0000000000
11
363.8390023638
21
140.1193463334
31
0.0000000000
11
363.8532280631
21
140.1214436980
31
0.0000000000
0
SPLINE
5
3CC
100
AcDbEntity
8
0
100
AcDbSpline
62
7
6
CONTINUOUS
70
0
71
3
72
8
73
4
74
2
42
0.0000001000
43
0.0000001000
44
0.0000000001
12
0.0066702536
22
0.0030072103
32
0.0000000000
13
-0.0000647562
23
0.0074203321
33
0.0000000000
40
0.0000000000
40
0.0000000000
40
0.0000000000
40
0.0000000000
40
1.0000000000
40
1.0000000000
40
1.0000000000
40
1.0000000000
10
363.8532280631
20
140.1214436980
30
0.0000000000
10
363.8554514809
20
140.1224461014
30
0.0000000000
10
363.8568649368
20
140.1239987345
30
0.0000000000
10
363.8568433514
20
140.1264721785
30
0.0000000000
11
363.8532280631
21
140.1214436980
31
0.0000000000
11
363.8568433514
21
140.1264721785
31
0.0000000000
0
SPLINE
5
3CD
100
AcDbEntity
8
0
100
AcDbSpline
62
7
6
CONTINUOUS
70
0
71
3
72
8
73
4
74
2
42
0.0000001000
43
0.0000001000
44
0.0000000001
12
-0.0932767147
22
-0.0000000004
32
0.0000000000
13
-0.0922707825
23
0.0179178574
33
0.0000000000
40
0.0000000000
40
0.0000000000
40
0.0000000000
40
0.0000000000
40
1.0000000000
40
1.0000000000
40
1.0000000000
40
1.0000000000
10
286.4266052916
20
139.6221089108
30
0.0000000000
10
286.3955130533
20
139.6221089106
30
0.0000000000
10
286.3642525615
20
139.6251550218
30
0.0000000000
10
286.3334956340
20
139.6311276409
30
0.0000000000
11
286.4266052916
21
139.6221089108
31
0.0000000000
11
286.3334956340
21
139.6311276409
31
0.0000000000
0
SPLINE
5
3CE
100
AcDbEntity
8
0
100
AcDbSpline
62
7
6
CONTINUOUS
70
0
71
3
72
8
73
4
74
2
42
0.0000001000
43
0.0000001000
44
0.0000000001
12
-0.0193885511
22
0.0037650195
32
0.0000000000
13
-0.0192364483
23
0.0045369789
33
0.0000000000
40
0.0000000000
40
0.0000000000
40
0.0000000000
40
0.0000000000
40
1.0000000000
40
1.0000000000
40
1.0000000000
40
1.0000000000
10
286.3334956340
20
139.6311276409
30
0.0000000000
10
286.3270327836
20
139.6323826474
30
0.0000000000
10
286.3205921673
20
139.6337668686
30
0.0000000000
10
286.3141800178
20
139.6352791949
30
0.0000000000
11
286.3334956340
21
139.6311276409
31
0.0000000000
11
286.3141800178
21
139.6352791949
31
0.0000000000
0
SPLINE
5
3CF
100
AcDbEntity
8
0
100
AcDbSpline
62
7
6
CONTINUOUS
70
0
71
3
72
8
73
4
74
2
42
0.0000001000
43
0.0000001000
44
0.0000000001
12
-0.0766419172
22
0.0180762454
32
0.0000000000
13
-0.0727480248
23
0.0300668499
33
0.0000000000
40
0.0000000000
40
0.0000000000
40
0.0000000000
40
0.0000000000
40
1.0000000000
40
1.0000000000
40
1.0000000000
40
1.0000000000
10
286.3141800178
20
139.6352791949
30
0.0000000000
10
286.2886327121
20
139.6413046101
30
0.0000000000
10
286.2635372871
20
139.6493635491
30
0.0000000000
10
286.2392879455
20
139.6593858324
30
0.0000000000
11
286.3141800178
21
139.6352791949
31
0.0000000000
11
286.2392879455
21
139.6593858324
31
0.0000000000
0
SPLINE
5
3D0
100
AcDbEntity
8
0
100
AcDbSpline
62
7
6
CONTINUOUS
70
0
71
3
72
11
73
7
74
5
42
0.0000001000
43
0.0000001000
44
0.0000000001
12
-0.5487680792
22
0.2268065353
32
0.0000000000
13
0.0007941720
23
0.5890648440
33
0.0000000000
40
0.0000000000
40
0.0000000000
40
0.0000000000
40
0.0000000000
40
0.0035278600
40
0.3344130928
40
0.6668082442
40
1.0000000000
40
1.0000000000
40
1.0000000000
40
1.0000000000
10
286.2392879455
20
139.6593858324
30
0.0000000000
10
286.2386426199
20
139.6596525463
30
0.0000000000
10
286.1775276757
20
139.6850667079
30
0.0000000000
10
286.0665354404
20
139.7606303997
30
0.0000000000
10
285.9563701481
20
139.9284545494
30
0.0000000000
10
285.9320771504
20
140.0607709280
30
0.0000000000
10
285.9321653543
20
140.1261947779
30
0.0000000000
11
286.2392879455
21
139.6593858324
31
0.0000000000
11
286.2373537736
21
139.6601901441
31
0.0000000000
11
286.0760135784
21
139.7695539073
31
0.0000000000
11
285.9687515310
21
139.9333631340
31
0.0000000000
11
285.9321653543
21
140.1261947779
31
0.0000000000
0
SPLINE
5
3D1
100
AcDbEntity
8
0
100
AcDbSpline
62
7
6
CONTINUOUS
70
0
71
3
72
14
73
10
74
8
42
0.0000001000
43
0.0000001000
44
0.0000000001
12
-3.9339468053
22
0.0032178648
32
0.0000000000
13
-3.9339364274
23
0.0095920194
33
0.0000000000
40
0.0000000000
40
0.0000000000
40
0.0000000000
40
0.0000000000
40
0.1788788799
40
0.3722085957
40
0.5608536247
40
0.7276033088
40
0.8595487045
40
0.9501226244
40
1.0000000000
40
1.0000000000
40
1.0000000000
40
1.0000000000
10
289.8661177873
20
140.1221089108
30
0.0000000000
10
289.6315511213
20
140.1223007801
30
0.0000000000
10
289.1434681896
20
140.1227087794
30
0.0000000000
10
288.4080121199
20
140.1233558033
30
0.0000000000
10
287.6884612884
20
140.1240298391
30
0.0000000000
10
287.0494047215
20
140.1246812652
30
0.0000000000
10
286.5389503499
20
140.1252557646
30
0.0000000000
10
286.1817525400
20
140.1257373919
30
0.0000000000
10
285.9975767120
20
140.1260346878
30
0.0000000000
10
285.9321719038
20
140.1261941627
30
0.0000000000
11
289.8661177873
21
140.1221089108
31
0.0000000000
11
289.1624178002
21
140.1226978807
31
0.0000000000
11
288.4018690236
21
140.1233685199
31
0.0000000000
11
287.6597495953
21
140.1240675820
31
0.0000000000
11
287.0037653345
21
140.1247407410
31
0.0000000000
11
286.4846993384
21
140.1253396890
31
0.0000000000
11
286.1283865732
21
140.1258297098
31
0.0000000000
11
285.9321719038
21
140.1261941627
31
0.0000000000
0
SPLINE
5
3D2
100
AcDbEntity
8
0
100
AcDbSpline
62
7
6
CONTINUOUS
70
0
71
3
72
11
73
7
74
5
42
0.0000001000
43
0.0000001000
44
0.0000000001
12
-0.5533343754
22
0.0000000000
32
0.0000000000
13
-0.0000000023
23
0.5533343754
33
0.0000000000
40
0.0000000000
40
0.0000000000
40
0.0000000000
40
0.0000000000
40
0.1342138945
40
0.3531067280
40
0.6534414691
40
1.0000000000
40
1.0000000000
40
1.0000000000
40
1.0000000000
10
290.0327585397
20
139.6221089108
30
0.0000000000
10
290.0080034858
20
139.6221089108
30
0.0000000000
10
289.9500774448
20
139.6697526902
30
0.0000000000
10
289.9071650417
20
139.7815068148
30
0.0000000000
10
289.8729259713
20
139.9387342133
30
0.0000000000
10
289.8661150648
20
140.0581879947
30
0.0000000000
10
289.8661150645
20
140.1221089108
30
0.0000000000
11
290.0327585397
21
139.6221089108
31
0.0000000000
11
289.9689872774
21
139.6601686049
31
0.0000000000
11
289.9149242079
21
139.7685543237
31
0.0000000000
11
289.8788001840
21
139.9307661833
31
0.0000000000
11
289.8661150645
21
140.1221089108
31
0.0000000000
0
SPLINE
5
3D3
100
AcDbEntity
8
0
100
AcDbSpline
62
7
6
CONTINUOUS
70
0
71
3
72
11
73
7
74
5
42
0.0000001000
43
0.0000001000
44
0.0000000001
12
0.5533343527
22
0.0000000000
32
0.0000000000
13
0.0000000004
23
0.5533343527
33
0.0000000000
40
0.0000000000
40
0.0000000000
40
0.0000000000
40
0.0000000000
40
0.1342147024
40
0.3531082564
40
0.6534427217
40
1.0000000000
40
1.0000000000
40
1.0000000000
40
1.0000000000
10
359.6897311863
20
139.6221089108
30
0.0000000000
10
359.7144863881
20
139.6221089108
30
0.0000000000
10
359.7724125798
20
139.6697531182
30
0.0000000000
10
359.8153248645
20
139.7815074541
30
0.0000000000
10
359.8495637984
20
139.9387347425
30
0.0000000000
10
359.8563746615
20
140.0581882283
30
0.0000000000
10
359.8563746616
20
140.1221089108
30
0.0000000000
11
359.6897311863
21
139.6221089108
31
0.0000000000
11
359.7535027457
21
139.6601689734
31
0.0000000000
11
359.8075657921
21
139.7685551436
31
0.0000000000
11
359.8436896387
21
139.9307668794
31
0.0000000000
11
359.8563746616
21
140.1221089108
31
0.0000000000
0
SPLINE
5
3D4
100
AcDbEntity
8
0
100
AcDbSpline
62
7
6
CONTINUOUS
70
0
71
3
72
14
73
10
74
8
42
0.0000001000
43
0.0000001000
44
0.0000000001
12
-3.9339367128
22
-0.0095921116
32
0.0000000000
13
-3.9339470909
23
-0.0032178631
33
0.0000000000
40
0.0000000000
40
0.0000000000
40
0.0000000000
40
0.0000000000
40
0.0498773562
40
0.1404514195
40
0.2723970888
40
0.4391471594
40
0.6277923848
40
0.8211230623
40
1.0000000000
40
1.0000000000
40
1.0000000000
40
1.0000000000
10
363.7903180550
20
140.1261941635
30
0.0000000000
10
363.7249132674
20
140.1260346871
30
0.0000000000
10
363.5407372634
20
140.1257373935
30
0.0000000000
10
363.1835389062
20
140.1252557632
30
0.0000000000
10
362.6730834439
20
140.1246812636
30
0.0000000000
10
362.0340257075
20
140.1240298369
30
0.0000000000
10
361.3144727982
20
140.1233557982
30
0.0000000000
10
360.5790177033
20
140.1227087770
30
0.0000000000
10
360.0909360220
20
140.1223007779
30
0.0000000000
10
359.8563718858
20
140.1221089108
30
0.0000000000
11
363.7903180550
21
140.1261941635
31
0.0000000000
11
363.5941034476
21
140.1258297105
31
0.0000000000
11
363.2377900922
21
140.1253396886
31
0.0000000000
11
362.7187229826
21
140.1247407393
31
0.0000000000
11
362.0627371531
21
140.1240675793
31
0.0000000000
11
361.3206168985
21
140.1233685161
31
0.0000000000
11
360.5600642834
21
140.1226978745
31
0.0000000000
11
359.8563718858
21
140.1221089108
31
0.0000000000
0
SPLINE
5
3D5
100
AcDbEntity
8
0
100
AcDbSpline
62
7
6
CONTINUOUS
70
0
71
3
72
19
73
15
74
13
42
0.0000001000
43
0.0000001000
44
0.0000000001
12
0.0000081892
22
3.0426101422
32
0.0000000000
13
-3.0426096491
23
0.0017323292
33
0.0000000000
40
0.0000000000
40
0.0000000000
40
0.0000000000
40
0.0000000000
40
0.0741355630
40
0.1533947088
40
0.2384826521
40
0.3296687566
40
0.4265695844
40
0.5278897090
40
0.6311661084
40
0.7326042235
40
0.8274285720
40
0.9092498185
40
0.9694160906
40
1.0000000000
40
1.0000000000
40
1.0000000000
40
1.0000000000
10
294.1536977041
20
174.1221089108
30
0.0000000000
10
294.1536979065
20
174.1972974494
30
0.0000000000
10
294.1531498099
20
174.3528713880
30
0.0000000000
10
294.1505200445
20
174.5947294657
30
0.0000000000
10
294.1456002928
20
174.8538478450
30
0.0000000000
10
294.1377895059
20
175.1308002519
30
0.0000000000
10
294.1263669058
20
175.4240893453
30
0.0000000000
10
294.1104673039
20
175.7295174266
30
0.0000000000
10
294.0893729824
20
176.0390012591
30
0.0000000000
10
294.0617471572
20
176.3422875244
30
0.0000000000
10
294.0287719653
20
176.6200281593
30
0.0000000000
10
293.9849374564
20
176.8636102166
30
0.0000000000
10
293.9465288610
20
177.0175322564
30
0.0000000000
10
293.8922631623
20
177.1220912503
30
0.0000000000
10
293.8612448630
20
177.1221089108
30
0.0000000000
11
294.1536977041
21
174.1221089108
31
0.0000000000
11
294.1529010441
21
174.3476731199
31
0.0000000000
11
294.1502698950
21
174.5888134465
31
0.0000000000
11
294.1453340966
21
174.8476558303
31
0.0000000000
11
294.1374720855
21
175.1249881801
31
0.0000000000
11
294.1259128945
21
175.4195929390
31
0.0000000000
11
294.1097580031
21
175.7274469987
31
0.0000000000
11
294.0880323012
21
176.0409248669
31
0.0000000000
11
294.0597555826
21
176.3482634448
31
0.0000000000
11
294.0238439078
21
176.6345332569
31
0.0000000000
11
293.9791626483
21
176.8794409221
31
0.0000000000
11
293.9249702373
21
177.0542981925
31
0.0000000000
11
293.8612448630
21
177.1221089108
31
0.0000000000
0
SPLINE
5
3D6
100
AcDbEntity
8
0
100
AcDbSpline
62
7
6
CONTINUOUS
70
0
71
3
72
15
73
11
74
9
42
0.0000001000
43
0.0000001000
44
0.0000000001
12
1.0874239963
22
-5.9914418057
32
0.0000000000
13
-4.2199980618
23
-4.3899296369
33
0.0000000000
40
0.0000000000
40
0.0000000000
40
0.0000000000
40
0.0000000000
40
0.0309324511
40
0.0820932850
40
0.1576274656
40
0.2607038932
40
0.3939817398
40
0.5596940395
40
0.7610002993
40
1.0000000000
40
1.0000000000
40
1.0000000000
40
1.0000000000
10
363.0309300381
20
182.5102929476
30
0.0000000000
10
363.0421422680
20
182.4485162874
30
0.0000000000
10
363.0162954548
20
182.2783725949
30
0.0000000000
10
362.9041730038
20
181.9798006974
30
0.0000000000
10
362.6884598250
20
181.5643800985
30
0.0000000000
10
362.3528151079
20
181.0275687930
30
0.0000000000
10
361.8798988310
20
180.3617970585
30
0.0000000000
10
361.2526361018
20
179.5628509694
30
0.0000000000
10
360.4529263294
20
178.6277612051
30
0.0000000000
10
359.8454760869
20
177.9718395339
30
0.0000000000
10
359.5092833289
20
177.6221089108
30
0.0000000000
11
363.0309300381
21
182.5102929476
31
0.0000000000
11
363.0180433927
21
182.3223765753
31
0.0000000000
11
362.9168100177
21
182.0277483498
31
0.0000000000
11
362.7099294345
21
181.6169486998
31
0.0000000000
11
362.3808196650
21
181.0824853598
31
0.0000000000
11
361.9134403545
21
180.4190053989
31
0.0000000000
11
361.2923376479
21
179.6237283767
31
0.0000000000
11
360.4971452690
21
178.6908289399
31
0.0000000000
11
359.5092833289
21
177.6221089108
31
0.0000000000
0
SPLINE
5
3D7
100
AcDbEntity
8
0
100
AcDbSpline
62
7
6
CONTINUOUS
70
0
71
3
72
10
73
6
74
4
42
0.0000001000
43
0.0000001000
44
0.0000000001
12
-0.0063556031
22
0.7262845501
32
0.0000000000
13
-0.7241217604
23
0.0563676984
33
0.0000000000
40
0.0000000000
40
0.0000000000
40
0.0000000000
40
0.0000000000
40
0.3306682274
40
0.6639230448
40
1.0000000000
40
1.0000000000
40
1.0000000000
40
1.0000000000
10
363.4911767458
20
182.0258376685
30
0.0000000000
10
363.4904762138
20
182.1058907435
30
0.0000000000
10
363.4469570891
20
182.2690639150
30
0.0000000000
10
363.2732425007
20
182.4509180571
30
0.0000000000
10
363.1120489122
20
182.5039618576
30
0.0000000000
10
363.0309287001
20
182.5102764857
30
0.0000000000
11
363.4911767458
21
182.0258376685
31
0.0000000000
11
363.4293127558
21
182.2579017043
31
0.0000000000
11
363.2625970249
21
182.4333800788
31
0.0000000000
11
363.0309287001
21
182.5102764857
31
0.0000000000
0
SPLINE
5
3D8
100
AcDbEntity
8
0
100
AcDbSpline
62
7
6
CONTINUOUS
70
0
71
3
72
8
73
4
74
2
42
0.0000001000
43
0.0000001000
44
0.0000000001
12
0.0006346586
22
-0.0742380410
32
0.0000000000
13
-0.0168016224
23
-0.0726160185
33
0.0000000000
40
0.0000000000
40
0.0000000000
40
0.0000000000
40
0.0000000000
40
1.0000000000
40
1.0000000000
40
1.0000000000
40
1.0000000000
10
363.4911767458
20
182.0258376685
30
0.0000000000
10
363.4913882987
20
182.0010916549
30
0.0000000000
10
363.4880653391
20
181.9765796261
30
0.0000000000
10
363.4824647983
20
181.9523742866
30
0.0000000000
11
363.4911767458
21
182.0258376685
31
0.0000000000
11
363.4824647983
21
181.9523742866
31
0.0000000000
0
SPLINE
5
3D9
100
AcDbEntity
8
0
100
AcDbSpline
62
7
6
CONTINUOUS
70
0
71
3
72
15
73
11
74
9
42
0.0000001000
43
0.0000001000
44
0.0000000001
12
-1.3378450293
22
-5.7821189711
32
0.0000000000
13
-4.4759649697
23
-3.8615349573
33
0.0000000000
40
0.0000000000
40
0.0000000000
40
0.0000000000
40
0.0000000000
40
0.0169356717
40
0.0674629089
40
0.1430837849
40
0.2470016152
40
0.3819748787
40
0.5503927552
40
0.7555985274
40
1.0000000000
40
1.0000000000
40
1.0000000000
40
1.0000000000
10
363.4824647983
20
181.9523742866
30
0.0000000000
10
363.4749123636
20
181.9197329305
30
0.0000000000
10
363.4283286601
20
181.7919283899
30
0.0000000000
10
363.2938727685
20
181.5456348919
30
0.0000000000
10
363.0343843220
20
181.1718994314
30
0.0000000000
10
362.6467804678
20
180.6884987102
30
0.0000000000
10
362.1126501568
20
180.0888017894
30
0.0000000000
10
361.4149694687
20
179.3690834106
30
0.0000000000
10
360.5352303902
20
178.5265838415
30
0.0000000000
10
359.8739274714
20
177.9366971866
30
0.0000000000
10
359.5092833280
20
177.6221089099
30
0.0000000000
11
363.4824647983
21
181.9523742866
31
0.0000000000
11
363.4504644833
21
181.8563016558
31
0.0000000000
11
363.3136447217
21
181.5907892801
31
0.0000000000
11
363.0629713143
21
181.2206534911
31
0.0000000000
11
362.6814834996
21
180.7391528521
31
0.0000000000
11
362.1528806874
21
180.1414803060
31
0.0000000000
11
361.4615098034
21
179.4250817724
31
0.0000000000
11
360.5865869179
21
178.5848119747
31
0.0000000000
11
359.5092833280
21
177.6221089099
31
0.0000000000
0
SPLINE
5
3DA
100
AcDbEntity
8
0
100
AcDbSpline
62
7
6
CONTINUOUS
70
0
71
3
72
9
73
5
74
3
42
0.0000001000
43
0.0000001000
44
0.0000000001
12
0.1208093689
22
0.0000089283
32
0.0000000000
13
0.0216092922
23
-0.1188610204
33
0.0000000000
40
0.0000000000
40
0.0000000000
40
0.0000000000
40
0.0000000000
40
0.2870658973
40
1.0000000000
40
1.0000000000
40
1.0000000000
40
1.0000000000
10
362.9903339427
20
182.6221089108
30
0.0000000000
10
363.0018940260
20
182.6221097651
30
0.0000000000
10
363.0184639890
20
182.5702587970
30
0.0000000000
10
363.0257947044
20
182.5385396392
30
0.0000000000
10
363.0309300381
20
182.5102929476
30
0.0000000000
11
362.9903339427
21
182.6221089108
31
0.0000000000
11
363.0106459915
21
182.5939994744
31
0.0000000000
11
363.0309300381
21
182.5102929476
31
0.0000000000
0
SPLINE
5
3DB
100
AcDbEntity
8
0
100
AcDbSpline
62
7
6
CONTINUOUS
70
0
71
3
72
11
73
7
74
5
42
0.0000001000
43
0.0000001000
44
0.0000000001
12
0.6266067089
22
0.6157646979
32
0.0000000000
13
0.7042607369
23
-0.5251846774
33
0.0000000000
40
0.0000000000
40
0.0000000000
40
0.0000000000
40
0.0000000000
40
0.1754510276
40
0.3958636756
40
0.6740611485
40
1.0000000000
40
1.0000000000
40
1.0000000000
40
1.0000000000
10
336.8974182226
20
175.9090869189
30
0.0000000000
10
336.9340644863
20
175.9450991019
30
0.0000000000
10
337.0481399952
20
175.9943734946
30
0.0000000000
10
337.2488122106
20
175.9737651257
30
0.0000000000
10
337.4753316537
20
175.8854576396
30
0.0000000000
10
337.6254495258
20
175.7897596127
30
0.0000000000
10
337.7019648377
20
175.7327002492
30
0.0000000000
11
336.8974182226
21
175.9090869189
31
0.0000000000
11
337.0359251238
21
175.9767202834
31
0.0000000000
11
337.2293695810
21
175.9680756958
31
0.0000000000
11
337.4588552051
21
175.8839979089
31
0.0000000000
11
337.7019648377
21
175.7327002492
31
0.0000000000
0
SPLINE
5
3DC
100
AcDbEntity
8
0
100
AcDbSpline
62
7
6
CONTINUOUS
70
0
71
3
72
13
73
9
74
7
42
0.0000001000
43
0.0000001000
44
0.0000000001
12
0.8944975315
22
1.3589986251
32
0.0000000000
13
-1.6269611380
23
0.0007431527
33
0.0000000000
40
0.0000000000
40
0.0000000000
40
0.0000000000
40
0.0000000000
40
0.2239497377
40
0.4503837267
40
0.6654648262
40
0.8460212128
40
0.9641343460
40
1.0000000000
40
1.0000000000
40
1.0000000000
40
1.0000000000
10
337.7020045828
20
175.7324373330
30
0.0000000000
10
337.7687787453
20
175.8338864616
30
0.0000000000
10
337.9018493057
20
176.0377023874
30
0.0000000000
10
338.0996426529
20
176.3440636826
30
0.0000000000
10
338.2718020581
20
176.6196128816
30
0.0000000000
10
338.4367836208
20
176.8859446320
30
0.0000000000
10
338.4850573669
20
176.9900960725
30
0.0000000000
10
338.5603598459
20
177.1221000262
30
0.0000000000
10
338.5409091708
20
177.1221089108
30
0.0000000000
11
337.7020045828
21
175.7324373330
31
0.0000000000
11
337.9013119021
21
176.0374504846
31
0.0000000000
11
338.1006394117
21
176.3472675545
31
0.0000000000
11
338.2865459392
21
176.6437280189
31
0.0000000000
11
338.4375345659
21
176.8957128337
31
0.0000000000
11
338.5281600460
21
177.0651666647
31
0.0000000000
11
338.5409091708
21
177.1221089108
31
0.0000000000
0
SPLINE
5
3DD
100
AcDbEntity
8
0
100
AcDbSpline
62
7
6
CONTINUOUS
70
0
71
3
72
12
73
8
74
6
42
0.0000001000
43
0.0000001000
44
0.0000000001
12
0.0231378391
22
1.3255659055
32
0.0000000000
13
1.3184896064
23
-0.1387281063
33
0.0000000000
40
0.0000000000
40
0.0000000000
40
0.0000000000
40
0.0000000000
40
0.1382946442
40
0.3073719474
40
0.5140375449
40
0.7507294009
40
1.0000000000
40
1.0000000000
40
1.0000000000
40
1.0000000000
10
336.5984797917
20
175.2132888762
30
0.0000000000
10
336.5995464048
20
175.2743950980
30
0.0000000000
10
336.6496016854
20
175.4099337330
30
0.0000000000
10
336.8243885803
20
175.5634627905
30
0.0000000000
10
337.0744732299
20
175.6742389162
30
0.0000000000
10
337.3758035186
20
175.7347112380
30
0.0000000000
10
337.5924112731
20
175.7442271952
30
0.0000000000
10
337.7019648377
20
175.7327002492
30
0.0000000000
11
336.5984797917
21
175.2132888762
31
0.0000000000
11
336.6556132041
21
175.3875063989
31
0.0000000000
11
336.8168052325
21
175.5432741818
31
0.0000000000
11
337.0647851189
21
175.6597938144
31
0.0000000000
11
337.3715618330
21
175.7258052782
31
0.0000000000
11
337.7019648377
21
175.7327002492
31
0.0000000000
0
SPLINE
5
3DE
100
AcDbEntity
8
0
100
AcDbSpline
62
7
6
CONTINUOUS
70
0
71
3
72
10
73
6
74
4
42
0.0000001000
43
0.0000001000
44
0.0000000001
12
0.0189466231
22
1.6102539337
32
0.0000000000
13
-0.0223353323
23
1.6102104950
33
0.0000000000
40
0.0000000000
40
0.0000000000
40
0.0000000000
40
0.0000000000
40
0.3345988772
40
0.6746134379
40
1.0000000000
40
1.0000000000
40
1.0000000000
40
1.0000000000
10
337.7018772396
20
174.1221089108
30
0.0000000000
10
337.7039904125
20
174.3017052968
30
0.0000000000
10
337.7069540228
20
174.6638218009
30
0.0000000000
10
337.7072798225
20
175.2006148949
30
0.0000000000
10
337.7044271218
20
175.5577903806
30
0.0000000000
10
337.7020045828
20
175.7324373330
30
0.0000000000
11
337.7018772396
21
174.1221089108
31
0.0000000000
11
337.7062552453
21
174.6609175777
31
0.0000000000
11
337.7064831060
21
175.2084652127
31
0.0000000000
11
337.7020045828
21
175.7324373330
31
0.0000000000
0
SPLINE
5
3DF
100
AcDbEntity
8
0
100
AcDbSpline
62
7
6
CONTINUOUS
70
0
71
3
72
12
73
8
74
6
42
0.0000001000
43
0.0000001000
44
0.0000000001
12
0.0319958451
22
1.1218192698
32
0.0000000000
13
1.1220993027
23
-0.0198837404
33
0.0000000000
40
0.0000000000
40
0.0000000000
40
0.0000000000
40
0.0000000000
40
0.0506246691
40
0.1967232833
40
0.4217004917
40
0.6999978929
40
1.0000000000
40
1.0000000000
40
1.0000000000
40
1.0000000000
10
336.5797378078
20
174.1395613172
30
0.0000000000
10
336.5802777341
20
174.1584918936
30
0.0000000000
10
336.6976700720
20
174.1129842833
30
0.0000000000
10
336.8151387782
20
174.1518411157
30
0.0000000000
10
337.0788154345
20
174.1268133283
30
0.0000000000
10
337.3713637950
20
174.1298875733
30
0.0000000000
10
337.5896625770
20
174.1240972800
30
0.0000000000
10
337.7018732953
20
174.1221088920
30
0.0000000000
11
336.5797378078
21
174.1395613172
31
0.0000000000
11
336.6365519557
21
174.1392841780
31
0.0000000000
11
336.8004997021
21
174.1370558240
31
0.0000000000
11
337.0529555705
21
174.1331294095
31
0.0000000000
11
337.3652389821
21
174.1279510016
31
0.0000000000
11
337.7018732953
21
174.1221088920
31
0.0000000000
0
SPLINE
5
3E0
100
AcDbEntity
8
0
100
AcDbSpline
62
7
6
CONTINUOUS
70
0
71
3
72
10
73
6
74
4
42
0.0000001000
43
0.0000001000
44
0.0000000001
12
0.2032784981
22
11.5349048129
32
0.0000000000
13
0.2032784981
23
11.5349048129
33
0.0000000000
40
0.0000000000
40
0.0000000000
40
0.0000000000
40
0.0000000000
40
0.3333594504
40
0.6666927838
40
1.0000000000
40
1.0000000000
40
1.0000000000
40
1.0000000000
10
337.4985987414
20
162.5872040979
30
0.0000000000
10
337.5211870109
20
163.8689606077
30
0.0000000000
10
337.5663617802
20
166.4323732078
30
0.0000000000
10
337.6341212795
20
170.2773414787
30
0.0000000000
10
337.6792925094
20
172.8405532399
30
0.0000000000
10
337.7018772396
20
174.1221089108
30
0.0000000000
11
337.4985987414
21
162.5872040979
31
0.0000000000
11
337.5663635498
21
166.4324736272
31
0.0000000000
11
337.6341230492
21
170.2774418982
31
0.0000000000
11
337.7018772396
21
174.1221089108
31
0.0000000000
0
SPLINE
5
3E1
100
AcDbEntity
8
0
100
AcDbSpline
62
7
6
CONTINUOUS
70
0
71
3
72
12
73
8
74
6
42
0.0000001000
43
0.0000001000
44
0.0000000001
12
0.0195526904
22
1.1201728817
32
0.0000000000
13
1.1201678305
23
-0.0198399637
33
0.0000000000
40
0.0000000000
40
0.0000000000
40
0.0000000000
40
0.0000000000
40
0.0505909237
40
0.1966190769
40
0.4215344908
40
0.6998434799
40
1.0000000000
40
1.0000000000
40
1.0000000000
40
1.0000000000
10
336.3783952950
20
162.6046565043
30
0.0000000000
10
336.3787250246
20
162.6235466979
30
0.0000000000
10
336.4963492320
20
162.5781072332
30
0.0000000000
10
336.6131118984
20
162.6169007864
30
0.0000000000
10
336.8765231135
20
162.5918999156
30
0.0000000000
10
337.1685142926
20
162.5949729787
30
0.0000000000
10
337.3865235154
20
162.5891891294
30
0.0000000000
10
337.4985987414
20
162.5872040979
30
0.0000000000
11
336.3783952950
21
162.6046565043
31
0.0000000000
11
336.4350737815
21
162.6043694749
31
0.0000000000
11
336.5986602401
21
162.6021367626
31
0.0000000000
11
336.8506121898
21
162.5982114332
31
0.0000000000
11
337.1623709461
21
162.5930384208
31
0.0000000000
11
337.4985987414
21
162.5872040979
31
0.0000000000
0
SPLINE
5
3E2
100
AcDbEntity
8
0
100
AcDbSpline
62
7
6
CONTINUOUS
70
0
71
3
72
11
73
7
74
5
42
0.0000001000
43
0.0000001000
44
0.0000000001
12
1.0125589043
22
0.0000000000
32
0.0000000000
13
-0.0000006714
23
-1.0125589043
33
0.0000000000
40
0.0000000000
40
0.0000000000
40
0.0000000000
40
0.0000000000
40
0.0843307937
40
0.3008470242
40
0.6219766595
40
1.0000000000
40
1.0000000000
40
1.0000000000
40
1.0000000000
10
335.3785475999
20
161.6221089108
30
0.0000000000
10
335.4070108985
20
161.6221089108
30
0.0000000000
10
335.4256289359
20
161.4775536392
30
0.0000000000
10
335.4588143660
20
161.3082541604
30
0.0000000000
10
335.4742999405
20
160.9802062495
30
0.0000000000
10
335.4796756129
20
160.7496992125
30
0.0000000000
10
335.4796755283
20
160.6221089127
30
0.0000000000
11
335.3785475999
21
161.6221089108
31
0.0000000000
11
335.4172469337
21
161.5459919225
31
0.0000000000
11
335.4500551417
21
161.3292252313
31
0.0000000000
11
335.4719773980
21
161.0048023935
31
0.0000000000
11
335.4796755283
21
160.6221089127
31
0.0000000000
0
SPLINE
5
3E3
100
AcDbEntity
8
0
100
AcDbSpline
62
7
6
CONTINUOUS
70
0
71
3
72
13
73
9
74
7
42
0.0000001000
43
0.0000001000
44
0.0000000001
12
3.1130694106
22
-0.0010651282
32
0.0000000000
13
0.0538817431
23
3.1126032590
33
0.0000000000
40
0.0000000000
40
0.0000000000
40
0.0000000000
40
0.0000000000
40
0.1705307008
40
0.3383297422
40
0.5043255247
40
0.6692499833
40
0.8341070705
40
1.0000000000
40
1.0000000000
40
1.0000000000
40
1.0000000000
10
335.4796755108
20
160.6221089108
30
0.0000000000
10
335.6566334802
20
160.6220483651
30
0.0000000000
10
336.0094550715
20
160.6683440545
30
0.0000000000
10
336.4985566883
20
160.8695745489
30
0.0000000000
10
336.9160385510
20
161.1850722657
30
0.0000000000
10
337.2375553015
20
161.5940302924
30
0.0000000000
10
337.4442087747
20
162.0710337567
30
0.0000000000
10
337.4956192080
20
162.4150844735
30
0.0000000000
10
337.4985987414
20
162.5872040979
30
0.0000000000
11
335.4796755108
21
160.6221089108
31
0.0000000000
11
336.0060273775
21
160.6912526159
31
0.0000000000
11
336.4891114439
21
160.8899994378
31
0.0000000000
11
336.9012314917
21
161.2017593887
31
0.0000000000
11
337.2184971103
21
161.6054225854
31
0.0000000000
11
337.4222911867
21
162.0764364977
31
0.0000000000
11
337.4985987414
21
162.5872040979
31
0.0000000000
0
SPLINE
5
3E4
100
AcDbEntity
8
0
100
AcDbSpline
62
7
6
CONTINUOUS
70
0
71
3
72
11
73
7
74
5
42
0.0000001000
43
0.0000001000
44
0.0000000001
12
-1.0125587237
22
0.0000000000
32
0.0000000000
13
0.0000000185
23
-1.0125587237
33
0.0000000000
40
0.0000000000
40
0.0000000000
40
0.0000000000
40
0.0000000000
40
0.0843341404
40
0.3008563099
40
0.6219864805
40
1.0000000000
40
1.0000000000
40
1.0000000000
40
1.0000000000
10
314.3439421261
20
161.6221089108
30
0.0000000000
10
314.3154777029
20
161.6221089108
30
0.0000000000
10
314.2968609648
20
161.4775481209
30
0.0000000000
10
314.2636746318
20
161.3082466945
30
0.0000000000
10
314.2481899368
20
160.9801998474
30
0.0000000000
10
314.2428142128
20
160.7496958730
30
0.0000000000
10
314.2428142152
20
160.6221089108
30
0.0000000000
11
314.3439421261
21
161.6221089108
31
0.0000000000
11
314.3052421522
21
161.5459884634
31
0.0000000000
11
314.2724338991
21
161.3292157366
31
0.0000000000
11
314.2505121170
21
161.0047923815
31
0.0000000000
11
314.2428142152
21
160.6221089108
31
0.0000000000
0
SPLINE
5
3E5
100
AcDbEntity
8
0
100
AcDbSpline
62
7
6
CONTINUOUS
70
0
71
3
72
13
73
9
74
7
42
0.0000001000
43
0.0000001000
44
0.0000000001
12
0.0538162350
22
-3.1126049453
32
0.0000000000
13
3.1130699995
23
0.0009542192
33
0.0000000000
40
0.0000000000
40
0.0000000000
40
0.0000000000
40
0.0000000000
40
0.1659060714
40
0.3306375399
40
0.4955491984
40
0.6615354446
40
0.8294358831
40
1.0000000000
40
1.0000000000
40
1.0000000000
40
1.0000000000
10
312.2238909846
20
162.5872040979
30
0.0000000000
10
312.2268671313
20
162.4150707451
30
0.0000000000
10
312.2782675027
20
162.0711360695
30
0.0000000000
10
312.4848208368
20
161.5942439737
30
0.0000000000
10
312.8061712481
20
161.1853506228
30
0.0000000000
10
313.2236568134
20
160.8697252383
30
0.0000000000
10
313.7128587038
20
160.6683685916
30
0.0000000000
10
314.0658215367
20
160.6220546589
30
0.0000000000
10
314.2428142152
20
160.6221089108
30
0.0000000000
11
312.2238909846
21
162.5872040979
31
0.0000000000
11
312.3002076182
21
162.0763963956
31
0.0000000000
11
312.5038072038
21
161.6057243298
31
0.0000000000
11
312.8209763608
21
161.2020358945
31
0.0000000000
11
313.2330120267
21
160.8902134701
31
0.0000000000
11
313.7163610267
21
160.6912807319
31
0.0000000000
11
314.2428142152
21
160.6221089108
31
0.0000000000
0
SPLINE
5
3E6
100
AcDbEntity
8
0
100
AcDbSpline
62
7
6
CONTINUOUS
70
0
71
3
72
18
73
14
74
12
42
0.0000001000
43
0.0000001000
44
0.0000000001
12
0.9269591104
22
-5.3927585065
32
0.0000000000
13
4.6904447062
23
-2.8179471179
33
0.0000000000
40
0.0000000000
40
0.0000000000
40
0.0000000000
40
0.0000000000
40
0.1122943210
40
0.2323770064
40
0.3557878472
40
0.4755977450
40
0.5851024430
40
0.6806340436
40
0.7620042084
40
0.8316533386
40
0.8930954495
40
0.9485849120
40
1.0000000000
40
1.0000000000
40
1.0000000000
40
1.0000000000
10
290.2437368422
20
177.6221089108
30
0.0000000000
10
290.2784342569
20
177.4202501924
30
0.0000000000
10
290.3941972505
20
177.0088321744
30
0.0000000000
10
290.6991643374
20
176.4306840721
30
0.0000000000
10
291.1241660366
20
175.9166546489
30
0.0000000000
10
291.6168343528
20
175.4989934740
30
0.0000000000
10
292.1146192284
20
175.1758150319
30
0.0000000000
10
292.5739544964
20
174.9264629736
30
0.0000000000
10
292.9773172097
20
174.7275843576
30
0.0000000000
10
293.3266834769
20
174.5599233410
30
0.0000000000
10
293.6320270390
20
174.4096196748
30
0.0000000000
10
293.9040376129
20
174.2670684281
30
0.0000000000
10
294.0734162256
20
174.1703437143
30
0.0000000000
10
294.1538027681
20
174.1220487146
30
0.0000000000
11
290.2437368422
21
177.6221089108
31
0.0000000000
11
290.4097980969
21
177.0305167079
31
0.0000000000
11
290.7148278569
21
176.4485347325
31
0.0000000000
11
291.1425881125
21
175.9260109205
31
0.0000000000
11
291.6397177477
21
175.4986364210
31
0.0000000000
11
292.1402079331
21
175.1691798612
31
0.0000000000
11
292.5983293781
21
174.9174343904
31
0.0000000000
11
292.9968593046
21
174.7188972155
31
0.0000000000
11
293.3398883171
21
174.5528387900
31
0.0000000000
11
293.6410988909
21
174.4034941715
31
0.0000000000
11
293.9097169237
21
174.2619477120
31
0.0000000000
11
294.1538027681
21
174.1220487146
31
0.0000000000
0
SPLINE
5
3E7
100
AcDbEntity
8
0
100
AcDbSpline
62
7
6
CONTINUOUS
70
0
71
3
72
8
73
4
74
2
42
0.0000001000
43
0.0000001000
44
0.0000000001
12
-0.0229172587
22
0.1048577233
32
0.0000000000
13
-0.1376696162
23
-0.0196998874
33
0.0000000000
40
0.0000000000
40
0.0000000000
40
0.0000000000
40
0.0000000000
40
1.0000000000
40
1.0000000000
40
1.0000000000
40
1.0000000000
10
292.8752376244
20
177.9549943939
30
0.0000000000
10
292.8675985382
20
177.9899469683
30
0.0000000000
10
292.8154470585
20
177.9803223637
30
0.0000000000
10
292.7695571864
20
177.9737557346
30
0.0000000000
11
292.8752376244
21
177.9549943939
31
0.0000000000
11
292.7695571864
21
177.9737557346
31
0.0000000000
0
SPLINE
5
3E8
100
AcDbEntity
8
0
100
AcDbSpline
62
7
6
CONTINUOUS
70
0
71
3
72
12
73
8
74
6
42
0.0000001000
43
0.0000001000
44
0.0000000001
12
-3.2732013615
22
-0.4683800257
32
0.0000000000
13
-2.5074391296
23
-0.4743972468
33
0.0000000000
40
0.0000000000
40
0.0000000000
40
0.0000000000
40
0.0000000000
40
0.1142516763
40
0.2907265933
40
0.5121496318
40
0.7566420818
40
1.0000000000
40
1.0000000000
40
1.0000000000
40
1.0000000000
10
292.7695571864
20
177.9737557346
30
0.0000000000
10
292.6449009390
20
177.9559180002
30
0.0000000000
10
292.4452703130
20
177.9679461572
30
0.0000000000
10
291.9846454890
20
177.9002494439
30
0.0000000000
10
291.4540963516
20
177.8307845492
30
0.0000000000
10
290.8549532000
20
177.7330330322
30
0.0000000000
10
290.4471743760
20
177.6605916796
30
0.0000000000
10
290.2437726538
20
177.6221089042
30
0.0000000000
11
292.7695571864
21
177.9737557346
31
0.0000000000
11
292.4784449639
21
177.9575793314
31
0.0000000000
11
292.0308241795
21
177.9080728695
31
0.0000000000
11
291.4711678871
21
177.8301554977
31
0.0000000000
11
290.8550803789
21
177.7315690639
31
0.0000000000
11
290.2437726538
21
177.6221089042
31
0.0000000000
0
SPLINE
5
3E9
100
AcDbEntity
8
0
100
AcDbSpline
62
7
6
CONTINUOUS
70
0
71
3
72
8
73
4
74
2
42
0.0000001000
43
0.0000001000
44
0.0000000001
12
0.0033175827
22
-0.0197336178
32
0.0000000000
13
0.0037121741
23
-0.0196750434
33
0.0000000000
40
0.0000000000
40
0.0000000000
40
0.0000000000
40
0.0000000000
40
1.0000000000
40
1.0000000000
40
1.0000000000
40
1.0000000000
10
292.8752376244
20
177.9549943939
30
0.0000000000
10
292.8763434853
20
177.9484165213
30
0.0000000000
10
292.8775155206
20
177.9418477355
30
0.0000000000
10
292.8787529120
20
177.9352893877
30
0.0000000000
11
292.8752376244
21
177.9549943939
31
0.0000000000
11
292.8787529120
21
177.9352893877
31
0.0000000000
0
SPLINE
5
3EA
100
AcDbEntity
8
0
100
AcDbSpline
62
7
6
CONTINUOUS
70
0
71
3
72
8
73
4
74
2
42
0.0000001000
43
0.0000001000
44
0.0000000001
12
0.0041793911
22
-0.0221513592
32
0.0000000000
13
0.0046729451
23
-0.0220661888
33
0.0000000000
40
0.0000000000
40
0.0000000000
40
0.0000000000
40
0.0000000000
40
1.0000000000
40
1.0000000000
40
1.0000000000
40
1.0000000000
10
292.8787529120
20
177.9352893877
30
0.0000000000
10
292.8801460424
20
177.9279056013
30
0.0000000000
10
292.8816220156
20
177.9205350457
30
0.0000000000
10
292.8831796640
20
177.9131796495
30
0.0000000000
11
292.8787529120
21
177.9352893877
31
0.0000000000
11
292.8831796640
21
177.9131796495
31
0.0000000000
0
SPLINE
5
3EB
100
AcDbEntity
8
0
100
AcDbSpline
62
7
6
CONTINUOUS
70
0
71
3
72
17
73
13
74
11
42
0.0000001000
43
0.0000001000
44
0.0000000001
12
0.8390348901
22
-3.9620200771
32
0.0000000000
13
0.7127784609
23
-3.9818416040
33
0.0000000000
40
0.0000000000
40
0.0000000000
40
0.0000000000
40
0.0000000000
40
0.0459373089
40
0.1081482532
40
0.1775033721
40
0.2577963078
40
0.3552776224
40
0.4725871397
40
0.6040248852
40
0.7420696794
40
0.8765042114
40
1.0000000000
40
1.0000000000
40
1.0000000000
40
1.0000000000
10
292.8831796640
20
177.9131796495
30
0.0000000000
10
292.8960273323
20
177.8525114694
30
0.0000000000
10
292.9393554271
20
177.7121109143
30
0.0000000000
10
293.0550554345
20
177.5008973783
30
0.0000000000
10
293.2278737006
20
177.2733479645
30
0.0000000000
10
293.4190795096
20
176.9996766652
30
0.0000000000
10
293.5916892155
20
176.6391370814
30
0.0000000000
10
293.7372230567
20
176.1947924689
30
0.0000000000
10
293.8606548452
20
175.6877801831
30
0.0000000000
10
293.9677194705
20
175.1537141331
30
0.0000000000
10
294.0629618091
20
174.6283471679
30
0.0000000000
10
294.1243561157
20
174.2860223892
30
0.0000000000
10
294.1536978284
20
174.1221088329
30
0.0000000000
11
292.8831796640
21
177.9131796495
31
0.0000000000
11
292.9377368056
21
177.7353511200
31
0.0000000000
11
293.0552202075
21
177.5128062781
31
0.0000000000
11
293.2176009625
21
177.2840241868
31
0.0000000000
11
293.3989355347
21
177.0145616623
31
0.0000000000
11
293.5728080789
21
176.6606399322
31
0.0000000000
11
293.7256843622
21
176.2114069945
31
0.0000000000
11
293.8550813584
21
175.6957097421
31
0.0000000000
11
293.9669601905
21
175.1486223310
31
0.0000000000
11
294.0654177372
21
174.6138037953
31
0.0000000000
11
294.1536978284
21
174.1221088329
31
0.0000000000
0
SPLINE
5
3EC
100
AcDbEntity
8
0
100
AcDbSpline
62
7
6
CONTINUOUS
70
0
71
3
72
12
73
8
74
6
42
0.0000001000
43
0.0000001000
44
0.0000000001
12
-0.0167549810
22
1.1202330088
32
0.0000000000
13
-1.1201825945
23
-0.0198413246
33
0.0000000000
40
0.0000000000
40
0.0000000000
40
0.0000000000
40
0.0000000000
40
0.0505901964
40
0.1966190977
40
0.4215358452
40
0.6998453599
40
1.0000000000
40
1.0000000000
40
1.0000000000
40
1.0000000000
10
313.3441134184
20
162.6046568270
30
0.0000000000
10
313.3438308724
20
162.6235477630
30
0.0000000000
10
313.2260928814
20
162.5781063746
30
0.0000000000
10
313.1094317699
20
162.6169022307
30
0.0000000000
10
312.8459625873
20
162.5919000826
30
0.0000000000
10
312.5539878988
20
162.5949733832
30
0.0000000000
10
312.3359711933
20
162.5891892382
30
0.0000000000
10
312.2238951921
20
162.5872040830
30
0.0000000000
11
313.3441134184
21
162.6046568270
31
0.0000000000
11
313.2874349979
21
162.6043699616
31
0.0000000000
11
313.1238455408
21
162.6021373093
31
0.0000000000
11
312.8718887719
21
162.5982119125
31
0.0000000000
11
312.5601253143
21
162.5930387055
31
0.0000000000
11
312.2238951921
21
162.5872040830
31
0.0000000000
0
SPLINE
5
3ED
100
AcDbEntity
8
0
100
AcDbSpline
62
7
6
CONTINUOUS
70
0
71
3
72
9
73
5
74
3
42
0.0000001000
43
0.0000001000
44
0.0000000001
12
-0.0180633287
22
-0.8341378133
32
0.0000000000
13
0.0856677198
23
-0.8299236213
33
0.0000000000
40
0.0000000000
40
0.0000000000
40
0.0000000000
40
0.0000000000
40
0.5077674596
40
1.0000000000
40
1.0000000000
40
1.0000000000
40
1.0000000000
10
290.2100244500
20
178.4553571123
30
0.0000000000
10
290.2069671265
20
178.3141744328
30
0.0000000000
10
290.2096871312
20
178.0358684760
30
0.0000000000
10
290.2296806958
20
177.7582807149
30
0.0000000000
10
290.2437368422
20
177.6221089108
30
0.0000000000
11
290.2100244500
21
178.4553571123
31
0.0000000000
11
290.2141829901
21
178.0317301862
31
0.0000000000
11
290.2437368422
21
177.6221089108
31
0.0000000000
0
SPLINE
5
3EE
100
AcDbEntity
8
0
100
AcDbSpline
62
7
6
CONTINUOUS
70
0
71
3
72
13
73
9
74
7
42
0.0000001000
43
0.0000001000
44
0.0000000001
12
0.0003734300
22
2.7257873435
32
0.0000000000
13
-2.7207796500
23
-0.1651510752
33
0.0000000000
40
0.0000000000
40
0.0000000000
40
0.0000000000
40
0.0000000000
40
0.0544364213
40
0.1665546151
40
0.3340353011
40
0.5423185044
40
0.7716757723
40
1.0000000000
40
1.0000000000
40
1.0000000000
40
1.0000000000
10
292.8612579624
20
178.1220584904
30
0.0000000000
10
292.8612647384
20
178.1715191931
30
0.0000000000
10
292.7057020473
20
178.2753128628
30
0.0000000000
10
292.4311768775
20
178.3445682742
30
0.0000000000
10
291.9840803147
20
178.4221644041
30
0.0000000000
10
291.4390421979
20
178.4646815884
30
0.0000000000
10
290.8328008252
20
178.4803151512
30
0.0000000000
10
290.4171012652
20
178.4679246457
30
0.0000000000
10
290.2100279611
20
178.4553553152
30
0.0000000000
11
292.8612579624
21
178.1220584904
31
0.0000000000
11
292.7615725863
21
178.2319678905
31
0.0000000000
11
292.4724250128
21
178.3309192463
31
0.0000000000
11
292.0226433642
21
178.4090473530
31
0.0000000000
11
291.4570710411
21
178.4585630117
31
0.0000000000
11
290.8320958179
21
178.4745296119
31
0.0000000000
11
290.2100279611
21
178.4553553152
31
0.0000000000
0
SPLINE
5
3EF
100
AcDbEntity
8
0
100
AcDbSpline
62
7
6
CONTINUOUS
70
0
71
3
72
13
73
9
74
7
42
0.0000001000
43
0.0000001000
44
0.0000000001
12
-4.2860699997
22
-0.0018962182
32
0.0000000000
13
-0.0933186511
23
-4.2850544065
33
0.0000000000
40
0.0000000000
40
0.0000000000
40
0.0000000000
40
0.0000000000
40
0.0491812678
40
0.1503806315
40
0.3051983386
40
0.5061420297
40
0.7422470163
40
1.0000000000
40
1.0000000000
40
1.0000000000
40
1.0000000000
10
290.8612448630
20
182.6221089108
30
0.0000000000
10
290.7909800776
20
182.6220778246
30
0.0000000000
10
290.6403201967
20
182.4056244294
30
0.0000000000
10
290.5349536452
20
182.0110600233
30
0.0000000000
10
290.4065642252
20
181.3561393321
30
0.0000000000
10
290.3144594935
20
180.5204413147
30
0.0000000000
10
290.2431419058
20
179.5283476708
30
0.0000000000
10
290.2180421702
20
178.8235189651
30
0.0000000000
10
290.2100244500
20
178.4553571123
30
0.0000000000
11
290.8612448630
21
182.6221089108
31
0.0000000000
11
290.7029962488
21
182.4828550223
31
0.0000000000
11
290.5560360112
21
182.0747623019
31
0.0000000000
11
290.4279688472
21
181.4236784845
31
0.0000000000
11
290.3248253038
21
180.5686181660
31
0.0000000000
11
290.2512133607
21
179.5593364494
31
0.0000000000
11
290.2100244500
21
178.4553571123
31
0.0000000000
0
SPLINE
5
3F0
100
AcDbEntity
8
0
100
AcDbSpline
62
7
6
CONTINUOUS
70
0
71
3
72
11
73
7
74
5
42
0.0000001000
43
0.0000001000
44
0.0000000001
12
0.7800319450
22
-0.0000000039
32
0.0000000000
13
-0.0062233416
23
0.7800071187
33
0.0000000000
40
0.0000000000
40
0.0000000000
40
0.0000000000
40
0.0000000000
40
0.2486858905
40
0.4981528864
40
0.7487036184
40
1.0000000000
40
1.0000000000
40
1.0000000000
40
1.0000000000
10
363.2958844340
20
139.6221089108
30
0.0000000000
10
363.3605454136
20
139.6221089104
30
0.0000000000
10
363.4915237449
20
139.6485102941
30
0.0000000000
10
363.6564144809
20
139.7611146108
30
0.0000000000
10
363.7659922780
20
139.9287497449
30
0.0000000000
10
363.7908456727
20
140.0608571223
30
0.0000000000
10
363.7903243717
20
140.1261947778
30
0.0000000000
11
363.2958844340
21
139.6221089108
31
0.0000000000
11
363.4860181228
21
139.6605609714
31
0.0000000000
11
363.6469173874
21
139.7700030156
31
0.0000000000
11
363.7538343882
21
139.9336019172
31
0.0000000000
11
363.7903243717
21
140.1261947778
31
0.0000000000
0
SPLINE
5
3F1
100
AcDbEntity
8
0
100
AcDbSpline
62
7
6
CONTINUOUS
70
0
71
3
72
10
73
6
74
4
42
0.0000001000
43
0.0000001000
44
0.0000000001
12
0.2032784981
22
-11.5349048129
32
0.0000000000
13
0.2032784981
23
-11.5349048129
33
0.0000000000
40
0.0000000000
40
0.0000000000
40
0.0000000000
40
0.0000000000
40
0.3333072162
40
0.6666405496
40
1.0000000000
40
1.0000000000
40
1.0000000000
40
1.0000000000
10
312.0206124864
20
174.1221089108
30
0.0000000000
10
312.0431972165
20
172.8405532399
30
0.0000000000
10
312.0883684464
20
170.2773414787
30
0.0000000000
10
312.1561279458
20
166.4323732078
30
0.0000000000
10
312.2013027151
20
163.8689606077
30
0.0000000000
10
312.2238909846
20
162.5872040979
30
0.0000000000
11
312.0206124864
21
174.1221089108
31
0.0000000000
11
312.0883666768
21
170.2774418982
31
0.0000000000
11
312.1561261761
21
166.4324736272
31
0.0000000000
11
312.2238909846
21
162.5872040979
31
0.0000000000
0
SPLINE
5
3F2
100
AcDbEntity
8
0
100
AcDbSpline
62
7
6
CONTINUOUS
70
0
71
3
72
12
73
8
74
6
42
0.0000001000
43
0.0000001000
44
0.0000000001
12
-0.0195864762
22
1.1221084757
32
0.0000000000
13
-1.1221032475
23
-0.0198837378
33
0.0000000000
40
0.0000000000
40
0.0000000000
40
0.0000000000
40
0.0000000000
40
0.0506191801
40
0.1967154736
40
0.4216934193
40
0.6999939842
40
1.0000000000
40
1.0000000000
40
1.0000000000
40
1.0000000000
10
313.1427519185
20
174.1395613172
30
0.0000000000
10
313.1424214347
20
174.1584947208
30
0.0000000000
10
313.0245354285
20
174.1129780798
30
0.0000000000
10
312.9075273084
20
174.1518455231
30
0.0000000000
10
312.6436120085
20
174.1268116786
30
0.0000000000
10
312.3511500423
20
174.1298882752
30
0.0000000000
10
312.1328250613
20
174.1240973244
30
0.0000000000
10
312.0206124864
20
174.1221089108
30
0.0000000000
11
313.1427519185
21
174.1395613172
31
0.0000000000
11
313.0859437307
21
174.1392842864
31
0.0000000000
11
312.9219980119
21
174.1370559823
31
0.0000000000
11
312.6695404287
21
174.1331295599
31
0.0000000000
11
312.3572523691
21
174.1279510955
31
0.0000000000
11
312.0206124864
21
174.1221089108
31
0.0000000000
0
SPLINE
5
3F3
100
AcDbEntity
8
0
100
AcDbSpline
62
7
6
CONTINUOUS
70
0
71
3
72
9
73
5
74
3
42
0.0000001000
43
0.0000001000
44
0.0000000001
12
-0.7598345009
22
0.2976695767
32
0.0000000000
13
-0.7570613975
23
0.3045853968
33
0.0000000000
40
0.0000000000
40
0.0000000000
40
0.0000000000
40
0.0000000000
40
0.2336844582
40
1.0000000000
40
1.0000000000
40
1.0000000000
40
1.0000000000
10
300.7404793926
20
177.1199425393
30
0.0000000000
10
300.6812922214
20
177.1431294572
30
0.0000000000
10
300.4281220324
20
177.2426257237
30
0.0000000000
10
300.1754148471
20
177.3432825872
30
0.0000000000
10
299.9820322088
20
177.4210854283
30
0.0000000000
11
300.7404793926
21
177.1199425393
31
0.0000000000
11
300.5629936284
21
177.1896942979
31
0.0000000000
11
299.9820322088
21
177.4210854283
31
0.0000000000
0
SPLINE
5
3F4
100
AcDbEntity
8
0
100
AcDbSpline
62
7
6
CONTINUOUS
70
0
71
3
72
12
73
8
74
6
42
0.0000001000
43
0.0000001000
44
0.0000000001
12
-7.2450090218
22
2.9148546666
32
0.0000000000
13
-7.0012023026
23
3.4586848275
33
0.0000000000
40
0.0000000000
40
0.0000000000
40
0.0000000000
40
0.0000000000
40
0.3064867867
40
0.6107470986
40
0.8284173370
40
0.9579209929
40
1.0000000000
40
1.0000000000
40
1.0000000000
40
1.0000000000
10
299.9820322088
20
177.4210854283
30
0.0000000000
10
299.2418656971
20
177.7188735751
30
0.0000000000
10
297.7748151420
20
178.3317850075
30
0.0000000000
10
295.8059472298
20
179.2117259796
30
0.0000000000
10
294.2715368888
20
179.9336080249
30
0.0000000000
10
293.3601269814
20
180.3762888933
30
0.0000000000
10
292.9594460767
20
180.5735961706
30
0.0000000000
10
292.8612448630
20
180.6221088450
30
0.0000000000
11
299.9820322088
21
177.4210854283
31
0.0000000000
11
297.7733731432
21
178.3430400954
31
0.0000000000
11
295.6039170560
21
179.3118511956
31
0.0000000000
11
294.0657769933
21
180.0352826346
31
0.0000000000
11
293.1560366615
21
180.4769514499
31
0.0000000000
11
292.8612448630
21
180.6221088450
31
0.0000000000
0
SPLINE
5
3F5
100
AcDbEntity
8
0
100
AcDbSpline
62
7
6
CONTINUOUS
70
0
71
3
72
10
73
6
74
4
42
0.0000001000
43
0.0000001000
44
0.0000000001
12
-0.3090510274
22
0.9653407898
32
0.0000000000
13
-0.9692792055
23
0.3151325386
33
0.0000000000
40
0.0000000000
40
0.0000000000
40
0.0000000000
40
0.0000000000
40
0.4163777442
40
0.8245314281
40
1.0000000000
40
1.0000000000
40
1.0000000000
40
1.0000000000
10
303.8452579355
20
177.1230407972
30
0.0000000000
10
303.8023639456
20
177.2570229374
30
0.0000000000
10
303.6848548836
20
177.5124431504
30
0.0000000000
10
303.4388017966
20
177.7577566011
30
0.0000000000
10
303.2569141501
20
177.8390102867
30
0.0000000000
10
303.2002214708
20
177.8574422389
30
0.0000000000
11
303.8452579355
21
177.1230407972
31
0.0000000000
11
303.6619125915
21
177.5014364830
31
0.0000000000
11
303.3628240248
21
177.7845548990
31
0.0000000000
11
303.2002214708
21
177.8574422389
31
0.0000000000
0
SPLINE
5
3F6
100
AcDbEntity
8
0
100
AcDbSpline
62
7
6
CONTINUOUS
70
0
71
3
72
10
73
6
74
4
42
0.0000001000
43
0.0000001000
44
0.0000000001
12
0.3090502984
22
0.9653347743
32
0.0000000000
13
0.9692719025
23
0.3151357537
33
0.0000000000
40
0.0000000000
40
0.0000000000
40
0.0000000000
40
0.0000000000
40
0.4163704276
40
0.8245253348
40
1.0000000000
40
1.0000000000
40
1.0000000000
40
1.0000000000
10
345.8772447568
20
177.1230408999
30
0.0000000000
10
345.9201378918
20
177.2570198508
30
0.0000000000
10
346.0376450263
20
177.5124366360
30
0.0000000000
10
346.2836943866
20
177.7577506164
30
0.0000000000
10
346.4655826745
20
177.8390063687
30
0.0000000000
10
346.5222768954
20
177.8574391490
30
0.0000000000
11
345.8772447568
21
177.1230408999
31
0.0000000000
11
346.0605849730
21
177.5014281882
31
0.0000000000
11
346.3596702327
21
177.7845484024
31
0.0000000000
11
346.5222768954
21
177.8574391490
31
0.0000000000
0
SPLINE
5
3F7
100
AcDbEntity
8
0
100
AcDbSpline
62
7
6
CONTINUOUS
70
0
71
3
72
12
73
8
74
6
42
0.0000001000
43
0.0000001000
44
0.0000000001
12
-7.0012024029
22
-3.4586846231
32
0.0000000000
13
-7.2450090250
23
-2.9148546582
33
0.0000000000
40
0.0000000000
40
0.0000000000
40
0.0000000000
40
0.0000000000
40
0.0420790067
40
0.1715826631
40
0.3892529015
40
0.6935132133
40
1.0000000000
40
1.0000000000
40
1.0000000000
40
1.0000000000
10
356.8612448630
20
180.6221088450
30
0.0000000000
10
356.7630436487
20
180.5735961738
30
0.0000000000
10
356.3623627406
20
180.3762889030
30
0.0000000000
10
355.4509528419
20
179.9336080163
30
0.0000000000
10
353.9165424945
20
179.2117259821
30
0.0000000000
10
351.9476745840
20
178.3317850076
30
0.0000000000
10
350.4806240292
20
177.7188735744
30
0.0000000000
10
349.7404575172
20
177.4210854284
30
0.0000000000
11
356.8612448630
21
180.6221088450
31
0.0000000000
11
356.5664530644
21
180.4769514563
31
0.0000000000
11
355.6567127327
21
180.0352826327
31
0.0000000000
11
354.1185726701
21
179.3118511947
31
0.0000000000
11
351.9491165827
21
178.3430400958
31
0.0000000000
11
349.7404575172
21
177.4210854284
31
0.0000000000
0
SPLINE
5
3F8
100
AcDbEntity
8
0
100
AcDbSpline
62
7
6
CONTINUOUS
70
0
71
3
72
9
73
5
74
3
42
0.0000001000
43
0.0000001000
44
0.0000000001
12
-0.7570614006
22
-0.3045853970
32
0.0000000000
13
-0.7598345043
23
-0.2976695759
33
0.0000000000
40
0.0000000000
40
0.0000000000
40
0.0000000000
40
0.0000000000
40
0.7663155388
40
1.0000000000
40
1.0000000000
40
1.0000000000
40
1.0000000000
10
349.7404575172
20
177.4210854284
30
0.0000000000
10
349.5470748788
20
177.3432825875
30
0.0000000000
10
349.2943676924
20
177.2426257241
30
0.0000000000
10
349.0411975023
20
177.1431294579
30
0.0000000000
10
348.9820103301
20
177.1199425397
30
0.0000000000
11
349.7404575172
21
177.4210854284
31
0.0000000000
11
349.1594960974
21
177.1896942990
31
0.0000000000
11
348.9820103301
21
177.1199425397
31
0.0000000000
0
SPLINE
5
3F9
100
AcDbEntity
8
0
100
AcDbSpline
62
7
6
CONTINUOUS
70
0
71
3
72
12
73
8
74
6
42
0.0000001000
43
0.0000001000
44
0.0000000001
12
-0.0231375563
22
1.3255497072
32
0.0000000000
13
-1.3226307347
23
-0.0909137647
33
0.0000000000
40
0.0000000000
40
0.0000000000
40
0.0000000000
40
0.0000000000
40
0.1396930721
40
0.3083578154
40
0.5145030176
40
0.7504115371
40
1.0000000000
40
1.0000000000
40
1.0000000000
40
1.0000000000
10
313.1240099342
20
175.2132888762
30
0.0000000000
10
313.1229325488
20
175.2750122465
30
0.0000000000
10
313.0725547016
20
175.4111332121
30
0.0000000000
10
312.8966158912
20
175.5636120622
30
0.0000000000
10
312.6477885611
20
175.6745138378
30
0.0000000000
10
312.3463807921
20
175.7359119820
30
0.0000000000
10
312.1305626789
20
175.7402639247
30
0.0000000000
10
312.0205248882
20
175.7327002492
30
0.0000000000
11
313.1240099342
21
175.2132888762
31
0.0000000000
11
313.0659863987
21
175.3891629394
31
0.0000000000
11
312.9044631568
21
175.5437934089
31
0.0000000000
11
312.6571895938
21
175.6601859320
31
0.0000000000
11
312.3513399173
21
175.7255491903
31
0.0000000000
11
312.0205248882
21
175.7327002492
31
0.0000000000
0
SPLINE
5
3FA
100
AcDbEntity
8
0
100
AcDbSpline
62
7
6
CONTINUOUS
70
0
71
3
72
9
73
5
74
3
42
0.0000001000
43
0.0000001000
44
0.0000000001
12
-0.0005413764
22
-0.0620356157
32
0.0000000000
13
0.0542690130
23
-0.0090022435
33
0.0000000000
40
0.0000000000
40
0.0000000000
40
0.0000000000
40
0.0000000000
40
0.3096717943
40
1.0000000000
40
1.0000000000
40
1.0000000000
40
1.0000000000
10
285.8656463745
20
140.1264721785
30
0.0000000000
10
285.8655904915
20
140.1200686184
30
0.0000000000
10
285.8964701181
20
140.1193211970
30
0.0000000000
10
285.9145419025
20
140.1158691466
30
0.0000000000
10
285.9270297127
20
140.1137976457
30
0.0000000000
11
285.8656463745
21
140.1264721785
31
0.0000000000
11
285.8834873615
21
140.1193463429
31
0.0000000000
11
285.9270297127
21
140.1137976457
31
0.0000000000
0
SPLINE
5
3FB
100
AcDbEntity
8
0
100
AcDbSpline
62
7
6
CONTINUOUS
70
0
71
3
72
8
73
4
74
2
42
0.0000001000
43
0.0000001000
44
0.0000000001
12
-0.0668059692
22
0.0000000000
32
0.0000000000
13
-0.0652287068
23
0.0183150924
33
0.0000000000
40
0.0000000000
40
0.0000000000
40
0.0000000000
40
0.0000000000
40
1.0000000000
40
1.0000000000
40
1.0000000000
40
1.0000000000
10
286.3656273361
20
139.6221089108
30
0.0000000000
10
286.3433586797
20
139.6221089108
30
0.0000000000
10
286.3209363113
20
139.6254291324
30
0.0000000000
10
286.2991934090
20
139.6315341632
30
0.0000000000
11
286.3656273361
21
139.6221089108
31
0.0000000000
11
286.2991934090
21
139.6315341632
31
0.0000000000
0
SPLINE
5
3FC
100
AcDbEntity
8
0
100
AcDbSpline
62
7
6
CONTINUOUS
70
0
71
3
72
9
73
5
74
3
42
0.0000001000
43
0.0000001000
44
0.0000000001
12
-0.0791990288
22
0.0222377171
32
0.0000000000
13
-0.0688721954
23
0.0439817966
33
0.0000000000
40
0.0000000000
40
0.0000000000
40
0.0000000000
40
0.0000000000
40
0.8223799663
40
1.0000000000
40
1.0000000000
40
1.0000000000
40
1.0000000000
10
286.2991934090
20
139.6315341632
30
0.0000000000
10
286.2774828441
20
139.6376301142
30
0.0000000000
10
286.2519069313
20
139.6484189018
30
0.0000000000
10
286.2285591615
20
139.6625249678
30
0.0000000000
10
286.2244814676
20
139.6651289839
30
0.0000000000
11
286.2991934090
21
139.6315341632
31
0.0000000000
11
286.2369235202
21
139.6576185844
31
0.0000000000
11
286.2244814676
21
139.6651289839
31
0.0000000000
0
SPLINE
5
3FD
100
AcDbEntity
8
0
100
AcDbSpline
62
7
6
CONTINUOUS
70
0
71
3
72
13
73
9
74
7
42
0.0000001000
43
0.0000001000
44
0.0000000001
12
-0.0933189251
22
4.2850550312
32
0.0000000000
13
-4.2860706291
23
0.0018985985
33
0.0000000000
40
0.0000000000
40
0.0000000000
40
0.0000000000
40
0.0000000000
40
0.2577529795
40
0.4938579631
40
0.6948016593
40
0.8496193677
40
0.9508187386
40
1.0000000000
40
1.0000000000
40
1.0000000000
40
1.0000000000
10
359.5124653295
20
178.4553564704
30
0.0000000000
10
359.5044475859
20
178.8235183709
30
0.0000000000
10
359.4793477441
20
179.5283471638
30
0.0000000000
10
359.4080303463
20
180.5204409660
30
0.0000000000
10
359.3159254729
20
181.3561390980
30
0.0000000000
10
359.1875361687
20
182.0110599202
30
0.0000000000
10
359.0821695060
20
182.4056243890
30
0.0000000000
10
358.9315096496
20
182.6220777856
30
0.0000000000
10
358.8612448630
20
182.6221089108
30
0.0000000000
11
359.5124653295
21
178.4553564704
31
0.0000000000
11
359.4712763504
21
179.5593359497
31
0.0000000000
11
359.3976644813
21
180.5686178080
31
0.0000000000
11
359.2945208956
21
181.4236782709
31
0.0000000000
11
359.1664537601
21
182.0747621992
31
0.0000000000
11
359.0194934604
21
182.4828549977
31
0.0000000000
11
358.8612448630
21
182.6221089108
31
0.0000000000
0
SPLINE
5
3FE
100
AcDbEntity
8
0
100
AcDbSpline
62
7
6
CONTINUOUS
70
0
71
3
72
13
73
9
74
7
42
0.0000001000
43
0.0000001000
44
0.0000000001
12
-0.0000177172
22
2.7257624723
32
0.0000000000
13
2.7207548523
23
-0.1651486901
33
0.0000000000
40
0.0000000000
40
0.0000000000
40
0.0000000000
40
0.0000000000
40
0.0544392831
40
0.1665594933
40
0.3340402944
40
0.5423221490
40
0.7716774277
40
1.0000000000
40
1.0000000000
40
1.0000000000
40
1.0000000000
10
356.8612448630
20
178.1220577688
30
0.0000000000
10
356.8612445415
20
178.1715206205
30
0.0000000000
10
357.0168105392
20
178.2753052543
30
0.0000000000
10
357.2913383919
20
178.3445668349
30
0.0000000000
10
357.7384310408
20
178.4221592442
30
0.0000000000
10
358.2834614620
20
178.4646773248
30
0.0000000000
10
358.8896926821
20
178.4803104399
30
0.0000000000
10
359.3053851511
20
178.4679202844
30
0.0000000000
10
359.5124550667
20
178.4553512265
30
0.0000000000
11
356.8612448630
21
178.1220577688
31
0.0000000000
11
356.9609411291
21
178.2319659931
31
0.0000000000
11
357.2500919397
21
178.3309162434
31
0.0000000000
11
357.6998698319
21
178.4090434434
31
0.0000000000
11
358.2654333081
21
178.4585585456
31
0.0000000000
11
358.8903973973
21
178.4745250669
31
0.0000000000
11
359.5124550667
21
178.4553512265
31
0.0000000000
0
SPLINE
5
3FF
100
AcDbEntity
8
0
100
AcDbSpline
62
7
6
CONTINUOUS
70
0
71
3
72
10
73
6
74
4
42
0.0000001000
43
0.0000001000
44
0.0000000001
12
0.3470913326
22
37.5000000000
32
0.0000000000
13
0.3470913326
23
37.5000000000
33
0.0000000000
40
0.0000000000
40
0.0000000000
40
0.0000000000
40
0.0000000000
40
0.3332115793
40
0.6665449127
40
1.0000000000
40
1.0000000000
40
1.0000000000
40
1.0000000000
10
289.8661150644
20
140.1221089108
30
0.0000000000
10
289.9046666814
20
144.2872536518
30
0.0000000000
10
289.9817840021
20
152.6190650606
30
0.0000000000
10
290.0974811130
20
165.1190650606
30
0.0000000000
10
290.1746266068
20
173.4539203195
30
0.0000000000
10
290.2132063970
20
177.6221089108
30
0.0000000000
11
289.8661150644
21
140.1221089108
31
0.0000000000
11
289.9817699155
21
152.6175431339
31
0.0000000000
11
290.0974670264
21
165.1175431371
31
0.0000000000
11
290.2132063970
21
177.6221089108
31
0.0000000000
0
SPLINE
5
400
100
AcDbEntity
8
0
100
AcDbSpline
62
7
6
CONTINUOUS
70
0
71
3
72
9
73
5
74
3
42
0.0000001000
43
0.0000001000
44
0.0000000001
12
0.0856681830
22
0.8299227521
32
0.0000000000
13
-0.0180663447
23
0.8341369307
33
0.0000000000
40
0.0000000000
40
0.0000000000
40
0.0000000000
40
0.0000000000
40
0.4898245567
40
1.0000000000
40
1.0000000000
40
1.0000000000
40
1.0000000000
10
359.4787530645
20
177.6221089108
30
0.0000000000
10
359.4927405244
20
177.7576144255
30
0.0000000000
10
359.5127718827
20
178.0351965722
30
0.0000000000
10
359.5155376647
20
178.3135044109
30
0.0000000000
10
359.5124653295
20
178.4553564704
30
0.0000000000
11
359.4787530645
21
177.6221089108
31
0.0000000000
11
359.5082217299
21
178.0297216433
31
0.0000000000
11
359.5124653295
21
178.4553564704
31
0.0000000000
0
SPLINE
5
401
100
AcDbEntity
8
0
100
AcDbSpline
62
7
6
CONTINUOUS
70
0
71
3
72
8
73
4
74
2
42
0.0000001000
43
0.0000001000
44
0.0000000001
12
0.0229490670
22
0.1048579262
32
0.0000000000
13
0.1376673910
23
-0.0197029526
33
0.0000000000
40
0.0000000000
40
0.0000000000
40
0.0000000000
40
0.0000000000
40
1.0000000000
40
1.0000000000
40
1.0000000000
40
1.0000000000
10
356.8472748596
20
177.9549903993
30
0.0000000000
10
356.8549245486
20
177.9899430414
30
0.0000000000
10
356.9070737469
20
177.9803167095
30
0.0000000000
10
356.9529628772
20
177.9737490586
30
0.0000000000
11
356.8472748596
21
177.9549903993
31
0.0000000000
11
356.9529628772
21
177.9737490586
31
0.0000000000
0
SPLINE
5
402
100
AcDbEntity
8
0
100
AcDbSpline
62
7
6
CONTINUOUS
70
0
71
3
72
12
73
8
74
6
42
0.0000001000
43
0.0000001000
44
0.0000000001
12
3.2729320765
22
-0.4684219349
32
0.0000000000
13
2.5074377557
23
-0.4743915101
33
0.0000000000
40
0.0000000000
40
0.0000000000
40
0.0000000000
40
0.0000000000
40
0.1142528485
40
0.2907274090
40
0.5121493747
40
0.7566411547
40
1.0000000000
40
1.0000000000
40
1.0000000000
40
1.0000000000
10
356.9529628772
20
177.9737490586
30
0.0000000000
10
357.0776101481
20
177.9559095451
30
0.0000000000
10
357.2772584820
20
177.9679399190
30
0.0000000000
10
357.7378724081
20
177.9002436212
30
0.0000000000
10
358.2684235492
20
177.8307812382
30
0.0000000000
10
358.8675644685
20
177.7330316514
30
0.0000000000
10
359.2753435909
20
177.6605913647
30
0.0000000000
10
359.4787459765
20
177.6221089080
30
0.0000000000
11
356.9529628772
21
177.9737490586
31
0.0000000000
11
357.2440777966
21
177.9575722475
31
0.0000000000
11
357.6916973861
21
177.9080671380
31
0.0000000000
11
358.2513506939
21
177.8301520623
31
0.0000000000
11
358.8674362321
21
177.7315678773
31
0.0000000000
11
359.4787459765
21
177.6221089080
31
0.0000000000
0
SPLINE
5
403
100
AcDbEntity
8
0
100
AcDbSpline
62
7
6
CONTINUOUS
70
0
71
3
72
17
73
13
74
11
42
0.0000001000
43
0.0000001000
44
0.0000000001
12
0.7138776276
22
3.9813445833
32
0.0000000000
13
0.8402285686
23
3.9615512353
33
0.0000000000
40
0.0000000000
40
0.0000000000
40
0.0000000000
40
0.0000000000
40
0.1247186217
40
0.2601232181
40
0.3990727714
40
0.5312842414
40
0.6474625347
40
0.7431622692
40
0.8222152603
40
0.8911609562
40
0.9536680084
40
1.0000000000
40
1.0000000000
40
1.0000000000
40
1.0000000000
10
355.5687918458
20
174.1221088030
30
0.0000000000
10
355.5984697904
20
174.2876247394
30
0.0000000000
10
355.6603112002
20
174.6328472253
30
0.0000000000
10
355.7563549539
20
175.1622744834
30
0.0000000000
10
355.8644029715
20
175.6997475973
30
0.0000000000
10
355.9887095352
20
176.2072796431
30
0.0000000000
10
356.1346385545
20
176.6484498979
30
0.0000000000
10
356.3059095208
20
177.0033003321
30
0.0000000000
10
356.4944774148
20
177.2731076655
30
0.0000000000
10
356.6661915850
20
177.4991629289
30
0.0000000000
10
356.7825082820
20
177.7104436502
30
0.0000000000
10
356.8262699293
20
177.8517023293
30
0.0000000000
10
356.8392464169
20
177.9128845155
30
0.0000000000
11
355.5687918458
21
174.1221088030
31
0.0000000000
11
355.6579458370
21
174.6186350523
31
0.0000000000
11
355.7571785420
21
175.1572601923
31
0.0000000000
11
355.8701215765
21
175.7078235881
31
0.0000000000
11
356.0011158705
21
176.2263058962
31
0.0000000000
11
356.1538090153
21
176.6707291153
31
0.0000000000
11
356.3254089147
21
177.0177048902
31
0.0000000000
11
356.5040694183
21
177.2828930173
31
0.0000000000
11
356.6656048913
21
177.5102191022
31
0.0000000000
11
356.7840381212
21
177.7335956431
31
0.0000000000
11
356.8392464169
21
177.9128845155
31
0.0000000000
0
SPLINE
5
404
100
AcDbEntity
8
0
100
AcDbSpline
62
7
6
CONTINUOUS
70
0
71
3
72
8
73
4
74
2
42
0.0000001000
43
0.0000001000
44
0.0000000001
12
0.0047604579
22
0.0224448427
32
0.0000000000
13
0.0042495866
23
0.0225329082
33
0.0000000000
40
0.0000000000
40
0.0000000000
40
0.0000000000
40
0.0000000000
40
1.0000000000
40
1.0000000000
40
1.0000000000
40
1.0000000000
10
356.8392464169
20
177.9128845155
30
0.0000000000
10
356.8408332363
20
177.9203661297
30
0.0000000000
10
356.8423355309
20
177.9278634359
30
0.0000000000
10
356.8437520598
20
177.9353744053
30
0.0000000000
11
356.8392464169
21
177.9128845155
31
0.0000000000
11
356.8437520598
21
177.9353744053
31
0.0000000000
0
SPLINE
5
405
100
AcDbEntity
8
0
100
AcDbSpline
62
7
6
CONTINUOUS
70
0
71
3
72
8
73
4
74
2
42
0.0000001000
43
0.0000001000
44
0.0000000001
12
0.0036946274
22
0.0195903054
32
0.0000000000
13
0.0033032130
23
0.0196482712
33
0.0000000000
40
0.0000000000
40
0.0000000000
40
0.0000000000
40
0.0000000000
40
1.0000000000
40
1.0000000000
40
1.0000000000
40
1.0000000000
10
356.8437520598
20
177.9353744053
30
0.0000000000
10
356.8449836023
20
177.9419045071
30
0.0000000000
10
356.8461503168
20
177.9484449365
30
0.0000000000
10
356.8472513878
20
177.9549943603
30
0.0000000000
11
356.8437520598
21
177.9353744053
31
0.0000000000
11
356.8472513878
21
177.9549943603
31
0.0000000000
0
SPLINE
5
406
100
AcDbEntity
8
0
100
AcDbSpline
62
7
6
CONTINUOUS
70
0
71
3
72
18
73
14
74
12
42
0.0000001000
43
0.0000001000
44
0.0000000001
12
4.6902410004
22
2.8180616031
32
0.0000000000
13
0.9269288961
23
5.3926463506
33
0.0000000000
40
0.0000000000
40
0.0000000000
40
0.0000000000
40
0.0000000000
40
0.0518729271
40
0.1077931530
40
0.1697715206
40
0.2403458668
40
0.3221424756
40
0.4169759787
40
0.5249184042
40
0.6431958283
40
0.7660717133
40
0.8867790619
40
1.0000000000
40
1.0000000000
40
1.0000000000
40
1.0000000000
10
355.5687920232
20
174.1221089108
30
0.0000000000
10
355.6498908663
20
174.1708359454
30
0.0000000000
10
355.8206978016
20
174.2683228426
30
0.0000000000
10
356.0950633790
20
174.4119657558
30
0.0000000000
10
356.4035548517
20
174.5636724205
30
0.0000000000
10
356.7560274590
20
174.7327995104
30
0.0000000000
10
357.1603042822
20
174.9325060927
30
0.0000000000
10
357.6163067654
20
175.1809698301
30
0.0000000000
10
358.1078176097
20
175.5010305265
30
0.0000000000
10
358.5954248498
20
175.9142510228
30
0.0000000000
10
359.0197294941
20
176.4253267348
30
0.0000000000
10
359.3268592060
20
177.0044770197
30
0.0000000000
10
359.4437704781
20
177.4185887511
30
0.0000000000
10
359.4787530645
20
177.6221089108
30
0.0000000000
11
355.5687920232
21
174.1221089108
31
0.0000000000
11
355.8150710184
21
174.2632073621
31
0.0000000000
11
356.0858221228
21
174.4057480208
31
0.0000000000
11
356.3897049427
21
174.5562925266
31
0.0000000000
11
356.7372798984
21
174.7245605225
31
0.0000000000
11
357.1377344537
21
174.9244458372
31
0.0000000000
11
357.5921306258
21
175.1750147941
31
0.0000000000
11
358.0850854665
21
175.5003476834
31
0.0000000000
11
358.5759952755
21
175.9220730742
31
0.0000000000
11
359.0029463315
21
176.4414562095
31
0.0000000000
11
359.3108180641
21
177.0257902324
31
0.0000000000
11
359.4787530645
21
177.6221089108
31
0.0000000000
0
ENDSEC
0
SECTION
2
OBJECTS
0
DICTIONARY
5
C
100
AcDbDictionary
280
0
281
1
3
ACAD_GROUP
350
D
3
ACAD_MLINESTYLE
350
17
3
ACAD_LAYOUT
350
1A
3
ACAD_PLOTSETTINGS
350
19
3
ACAD_PLOTSTYLENAME
350
E
0
DICTIONARY
5
D
102
{ACAD_REACTORS
330
C
102
}
100
AcDbDictionary
280
0
281
1
0
ACDBDICTIONARYWDFLT
5
E
102
{ACAD_REACTORS
330
C
102
}
100
AcDbDictionary
281
1
3
Normal
350
F
100
AcDbDictionaryWithDefault
340
F
0
DICTIONARY
5
17
102
{ACAD_REACTORS
330
C
102
}
100
AcDbDictionary
280
0
281
1
3
Standard
350
18
0
DICTIONARY
5
19
102
{ACAD_REACTORS
330
C
102
}
100
AcDbDictionary
281
1
0
DICTIONARY
5
1A
102
{ACAD_REACTORS
330
C
102
}
100
AcDbDictionary
281
1
3
Layout1
350
1E
3
Model
350
22
0
ACDBPLACEHOLDER
5
F
102
{ACAD_REACTORS
330
E
102
}
0
MLINESTYLE
5
18
102
{ACAD_REACTORS
330
17
102
}
100
AcDbMlineStyle
2
STANDARD
70
0
3

62
256
51
90.0
52
90.0
71
2
49
0.5
62
256
6
BYLAYER
49
-0.5
62
256
6
BYLAYER
0
LAYOUT
5
1E
102
{ACAD_REACTORS
330
1A
102
}
100
AcDbPlotSettings
1

2

4

6

40
0.0
41
0.0
42
0.0
43
0.0
44
0.0
45
0.0
46
0.0
47
0.0
48
0.0
49
0.0
140
0.0
141
0.0
142
1.0
143
1.0
70
0
72
0
73
0
74
0
7

75
0
147
1.0
148
0.0
149
0.0
100
AcDbLayout
1
Layout1
70
0
71
0
10
0.0
20
0.0
11
0.0
21
0.0
12
0.0
22
0.0
32
0.0
14
0.0
24
0.0
34
0.0
15
0.0
25
0.0
35
0.0
146
0.0
13
0.0
23
0.0
33
0.0
16
0.0
26
0.0
36
0.0
17
0.0
27
0.0
37
0.0
76
0
330
1B
331
0
345
0
346
0
0
LAYOUT
5
22
102
{ACAD_REACTORS
330
1A
102
}
100
AcDbPlotSettings
1

2

4

6

40
0.0
41
0.0
42
0.0
43
0.0
44
0.0
45
0.0
46
0.0
47
0.0
48
0.0
49
0.0
140
0.0
141
0.0
142
1.0
143
1.0
70
0
72
0
73
0
74
0
7

75
0
147
1.0
148
0.0
149
0.0
100
AcDbLayout
1
Model
70
0
71
0
10
0.0
20
0.0
11
0.0
21
0.0
12
0.0
22
0.0
32
0.0
14
0.0
24
0.0
34
0.0
15
0.0
25
0.0
35
0.0
146
0.0
13
0.0
23
0.0
33
0.0
16
0.0
26
0.0
36
0.0
17
0.0
27
0.0
37
0.0
76
0
330
1F
331
0
345
0
346
0
0
ENDSEC
0
EOF
