999
DXF file: S0725-688762.dxf
999
Pro/ENGINEER 2005310 by Parametric Technology Corporation
0
SECTION
2
HEADER
9
$ACADVER
1
AC1015
9
$DWGCODEPAGE
3
ANSI_1252
9
$EXTMAX
10
210.0000000000
20
297.0000000000
30
0.0000000000
9
$EXTMIN
10
0.0000000000
20
0.0000000000
30
0.0000000000
9
$LIMMIN
10
0.0000000000
20
0.0000000000
9
$LIMMAX
10
210.0000000000
20
297.0000000000
9
$VIEWCTR
10
105.0000000000
20
148.5000000000
9
$VIEWSIZE
40
297.0000000000
9
$CLAYER
8
0
9
$LTSCALE
40
19.3600000000
9
$CELTYPE
6
BYLAYER
9
$DIMSCALE
40
1
9
$DIMASZ
40
3.5000000000
9
$DIMEXO
40
2.2000000000
9
$DIMDLI
40
13.3760000000
9
$DIMEXE
40
6.3360000000
9
$DIMCEN
40
3.1680000000
9
$DIMLFAC
40
1.0000000000
9
$DIMBLK
1
_FILLED
9
$DIMTXT
40
3.5000000000
9
$DIMTOL
70
1
9
$DIMLIM
70
0
9
$DIMTFAC
40
1.0000000000
9
$DIMTP
40
0.0010000000
9
$DIMTM
40
0.0010000000
9
$PDMODE
70
3
9
$PDSIZE
40
0.3125000000
9
$HANDSEED
5
2DB
9
$MEASUREMENT
70
1
9
$INSUNITS
70
4
0
ENDSEC
0
SECTION
2
CLASSES
0
CLASS
1
ACDBDICTIONARYWDFLT
2
AcDbDictionaryWithDefault
3
AutoCAD 2000
90
0
280
0
281
0
0
CLASS
1
ACDBPLACEHOLDER
2
AcDbPlaceHolder
3
AutoCAD 2000
90
0
280
0
281
0
0
CLASS
1
LAYOUT
2
AcDbLayout
3
AutoCAD 2000
90
0
280
0
281
0
0
ENDSEC
0
SECTION
2
TABLES
0
TABLE
2
VPORT
5
8
100
AcDbSymbolTable
70
2
0
VPORT
5
1F4
100
AcDbSymbolTableRecord
100
AcDbViewportTableRecord
2
*ACTIVE
70
0
10
0.0
20
0.0
11
1.0
21
1.0
12
105.0000000000
22
148.5000000000
13
0.0
23
0.0
14
1.0
24
1.0
15
0.0
25
0.0
16
0.0
26
0.0
36
1.0
17
0.0
27
0.0
37
0.0
40
297.0000000000
41
0.7070707071
42
50.0
43
0.0
44
0.0
50
0.0
51
0.0
71
0
72
100
73
1
74
1
75
0
76
0
77
0
78
0
0
ENDTAB
0
TABLE
2
LTYPE
5
5
100
AcDbSymbolTable
70
6
0
LTYPE
5
14
100
AcDbSymbolTableRecord
100
AcDbLinetypeTableRecord
2
BYBLOCK
70
0
3

72
65
73
0
40
0.0
0
LTYPE
5
15
100
AcDbSymbolTableRecord
100
AcDbLinetypeTableRecord
2
BYLAYER
70
0
3

72
65
73
0
40
0.0
0
LTYPE
5
16
100
AcDbSymbolTableRecord
100
AcDbLinetypeTableRecord
2
CONTINUOUS
70
64
3
Solid line
72
65
73
0
40
0
0
LTYPE
5
1F5
100
AcDbSymbolTableRecord
100
AcDbLinetypeTableRecord
2
CENTER
70
64
3
____ _ ____ _ ____ _ ____ _ ____ _ ____ _ ____
72
65
73
4
40
0.6
49
0.375
74
0
49
-0.075
74
0
49
0.075
74
0
49
-0.075
74
0
0
LTYPE
5
1F6
100
AcDbSymbolTableRecord
100
AcDbLinetypeTableRecord
2
HIDDEN
70
64
3
- - - - - - - - - - - - - - - - - - - -
72
65
73
2
40
0.2
49
0.1
74
0
49
-0.1
74
0
0
LTYPE
5
1F7
100
AcDbSymbolTableRecord
100
AcDbLinetypeTableRecord
2
PHANTOM
70
64
3
_____ _ _ _____ _ _ _____ _ _ _____
72
65
73
6
40
0.8
49
0.45
74
0
49
-0.05
74
0
49
0.1
74
0
49
-0.05
74
0
49
0.1
74
0
49
-0.05
74
0
0
LTYPE
5
1F8
100
AcDbSymbolTableRecord
100
AcDbLinetypeTableRecord
2
DOT
70
64
3
. . . . . . . . . . . . . . . . . . . .
72
65
73
2
40
0.2
49
0.1
74
0
49
-0.1
74
0
0
LTYPE
5
1F9
100
AcDbSymbolTableRecord
100
AcDbLinetypeTableRecord
2
DASHED
70
64
3
- - - - - - - - - - - - - - - - - - - -
72
65
73
2
40
0.2
49
0.1
74
0
49
-0.1
74
0
0
ENDTAB
0
TABLE
2
LAYER
5
2
100
AcDbSymbolTable
70
36
0
LAYER
5
10
100
AcDbSymbolTableRecord
100
AcDbLayerTableRecord
2
0
70
0
62
7
6
CONTINUOUS
370
-3
390
F
0
LAYER
5
1FA
100
AcDbSymbolTableRecord
100
AcDbLayerTableRecord
2
DEFAULT_1
70
0
62
7
6
CENTER
370
-3
390
F
0
LAYER
5
1FB
100
AcDbSymbolTableRecord
100
AcDbLayerTableRecord
2
DEFAULT_2
70
0
62
8
6
HIDDEN
370
-3
390
F
0
LAYER
5
1FC
100
AcDbSymbolTableRecord
100
AcDbLayerTableRecord
2
DEFAULT_3
70
0
62
7
6
PHANTOM
370
-3
390
F
0
LAYER
5
1FD
100
AcDbSymbolTableRecord
100
AcDbLayerTableRecord
2
_2D_DELETED_OBJS
70
0
62
7
6
CONTINUOUS
370
-3
390
F
0
LAYER
5
1FE
100
AcDbSymbolTableRecord
100
AcDbLayerTableRecord
2
ASSI
70
0
62
7
6
CONTINUOUS
370
-3
390
F
0
LAYER
5
1FF
100
AcDbSymbolTableRecord
100
AcDbLayerTableRecord
2
CURVE
70
0
62
7
6
CONTINUOUS
370
-3
390
F
0
LAYER
5
200
100
AcDbSymbolTableRecord
100
AcDbLayerTableRecord
2
PIANI
70
0
62
7
6
CONTINUOUS
370
-3
390
F
0
LAYER
5
201
100
AcDbSymbolTableRecord
100
AcDbLayerTableRecord
2
SURF_FILETTI
70
0
62
7
6
CONTINUOUS
370
-3
390
F
0
ENDTAB
0
TABLE
2
STYLE
5
3
100
AcDbSymbolTable
70
1
0
STYLE
5
11
100
AcDbSymbolTableRecord
100
AcDbTextStyleTableRecord
2
STANDARD
70
0
40
0.0
41
0.7143000000
50
0.0
71
0
42
0.2
3
txt
4

0
ENDTAB
0
TABLE
2
VIEW
5
6
100
AcDbSymbolTable
70
0
0
ENDTAB
0
TABLE
2
UCS
5
7
100
AcDbSymbolTable
70
0
0
ENDTAB
0
TABLE
2
APPID
5
9
100
AcDbSymbolTable
70
1
0
APPID
5
202
100
AcDbSymbolTableRecord
100
AcDbRegAppTableRecord
2
ACAD
70
0
0
ENDTAB
0
TABLE
2
BLOCK_RECORD
5
1
100
AcDbSymbolTable
70
0
0
BLOCK_RECORD
5
1F
100
AcDbSymbolTableRecord
100
AcDbBlockTableRecord
2
*MODEL_SPACE
0
BLOCK_RECORD
5
1B
100
AcDbSymbolTableRecord
100
AcDbBlockTableRecord
2
*PAPER_SPACE
0
BLOCK_RECORD
5
203
100
AcDbSymbolTableRecord
100
AcDbBlockTableRecord
2
_FILLED
0
BLOCK_RECORD
5
204
100
AcDbSymbolTableRecord
100
AcDbBlockTableRecord
2
*D0
0
BLOCK_RECORD
5
205
100
AcDbSymbolTableRecord
100
AcDbBlockTableRecord
2
*D1
0
BLOCK_RECORD
5
206
100
AcDbSymbolTableRecord
100
AcDbBlockTableRecord
2
*D2
0
BLOCK_RECORD
5
207
100
AcDbSymbolTableRecord
100
AcDbBlockTableRecord
2
*D3
0
BLOCK_RECORD
5
208
100
AcDbSymbolTableRecord
100
AcDbBlockTableRecord
2
*D4
0
BLOCK_RECORD
5
209
100
AcDbSymbolTableRecord
100
AcDbBlockTableRecord
2
*D5
0
ENDTAB
0
TABLE
2
DIMSTYLE
5
A
100
AcDbSymbolTable
70
1
100
AcDbDimStyleTable
71
0
0
DIMSTYLE
105
20A
100
AcDbSymbolTableRecord
100
AcDbDimStyleTableRecord
2
STANDARD
70
0
3

4

40
1.0
41
3.5000000000
42
0.0625
43
0.38
44
0.18
45
0.0
46
0.0
47
0.0010000000
48
0.0010000000
140
3.5000000000
141
0.09
142
0.0
143
25.4
144
1.0000000000
145
0.0
146
1.0000000000
147
0.09
71
1
72
0
73
0
74
0
75
0
76
0
77
1
78
8
170
0
171
2
172
0
173
0
174
0
175
0
176
0
177
0
178
5
270
2
271
3
272
3
273
2
274
2
275
0
280
0
281
0
282
0
283
1
284
8
285
0
286
0
287
3
288
0
340
11
341
203
342
203
343
203
344
203
0
DIMSTYLE
105
20B
100
AcDbSymbolTableRecord
100
AcDbDimStyleTableRecord
2
DIMSTYLE_1
70
0
3

4

40
1.0
41
3.5000000000
42
0.0625
43
0.38
44
0.18
45
0.0
46
0.0
47
0.1500000000
48
0.1500000000
140
3.5000000000
141
0.09
142
0.0
143
25.4
144
1.0000000000
145
0.0
146
1.0000000000
147
0.09
71
0
72
0
73
0
74
0
75
0
76
0
77
1
78
8
170
0
171
2
172
0
173
0
174
0
175
0
176
0
177
0
178
5
270
2
271
2
272
2
273
2
274
2
275
0
280
0
281
0
282
0
283
1
284
8
285
0
286
0
287
3
288
0
340
11
341
203
342
203
343
203
344
203
0
DIMSTYLE
105
20C
100
AcDbSymbolTableRecord
100
AcDbDimStyleTableRecord
2
DIMSTYLE_2
70
0
3

4

40
1.0
41
3.5000000000
42
0.0625
43
0.38
44
0.18
45
0.0
46
0.0
47
0.1000000000
48
0.1000000000
140
3.5000000000
141
0.09
142
0.0
143
25.4
144
1.0000000000
145
0.0
146
1.0000000000
147
0.09
71
0
72
0
73
0
74
0
75
0
76
0
77
1
78
8
170
0
171
2
172
0
173
0
174
0
175
0
176
0
177
0
178
5
270
2
271
3
272
3
273
2
274
2
275
0
280
0
281
0
282
0
283
1
284
8
285
0
286
0
287
3
288
0
340
11
341
203
342
203
343
203
344
203
0
DIMSTYLE
105
20D
100
AcDbSymbolTableRecord
100
AcDbDimStyleTableRecord
2
DIMSTYLE_3
70
0
3

4

40
1.0
41
3.5000000000
42
0.0625
43
0.38
44
0.18
45
0.0
46
0.0
47
0.1000000000
48
0.1000000000
140
3.5000000000
141
0.09
142
0.0
143
25.4
144
1.0000000000
145
0.0
146
1.0000000000
147
0.09
71
0
72
0
73
0
74
0
75
0
76
0
77
1
78
8
170
0
171
2
172
0
173
0
174
0
175
0
176
0
177
0
178
5
270
2
271
2
272
2
273
2
274
2
275
0
280
0
281
0
282
0
283
1
284
8
285
0
286
0
287
3
288
0
340
11
341
203
342
203
343
203
344
203
0
DIMSTYLE
105
20E
100
AcDbSymbolTableRecord
100
AcDbDimStyleTableRecord
2
DIMSTYLE_4
70
0
3

4

40
1.0
41
3.5000000000
42
0.0625
43
0.38
44
0.18
45
0.0
46
0.0
47
0.1500000000
48
0.1500000000
140
3.5000000000
141
0.09
142
0.0
143
25.4
144
1.0000000000
145
0.0
146
1.0000000000
147
0.09
71
0
72
0
73
0
74
0
75
0
76
0
77
1
78
8
170
0
171
2
172
0
173
0
174
0
175
0
176
0
177
0
178
5
270
2
271
3
272
3
273
2
274
2
275
0
280
0
281
0
282
0
283
1
284
8
285
0
286
0
287
3
288
0
340
11
341
203
342
203
343
203
344
203
0
ENDTAB
0
ENDSEC
0
SECTION
2
BLOCKS
0
BLOCK
5
20
100
AcDbEntity
8
0
100
AcDbBlockBegin
2
*MODEL_SPACE
70
0
10
0.0
20
0.0
30
0.0
3
*MODEL_SPACE
1

0
ENDBLK
5
21
100
AcDbEntity
8
0
100
AcDbBlockEnd
0
BLOCK
5
1C
100
AcDbEntity
8
0
100
AcDbBlockBegin
2
*PAPER_SPACE
70
0
10
0.0
20
0.0
30
0.0
3
*PAPER_SPACE
1

0
ENDBLK
5
1D
100
AcDbEntity
8
0
100
AcDbBlockEnd
0
BLOCK
5
20F
100
AcDbEntity
8
0
100
AcDbBlockBegin
62
2
6
CONTINUOUS
2
*D0
70
65
10
0.0000000000
20
0.0000000000
3
*D0
1

0
TEXT
5
210
100
AcDbEntity
8
0
100
AcDbText
62
5
6
CONTINUOUS
10
78.9259259898
20
225.9389707589
7
STANDARD
40
3.5000000000
1
42
41
0.7143000000
72
0
100
AcDbText
0
LINE
5
211
100
AcDbEntity
8
0
100
AcDbLine
62
2
6
CONTINUOUS
10
102.5721821630
20
180.2652202073
11
102.5721821630
21
226.5639707589
0
LINE
5
212
100
AcDbEntity
8
0
100
AcDbLine
62
2
6
CONTINUOUS
10
60.5721821630
20
185.4064119171
11
60.5721821630
21
226.5639707589
0
LINE
5
213
100
AcDbEntity
8
0
100
AcDbLine
62
2
6
CONTINUOUS
10
102.5721821630
20
225.0639707589
11
81.5721821630
21
225.0639707589
0
LINE
5
214
100
AcDbEntity
8
0
100
AcDbLine
62
2
6
CONTINUOUS
10
60.5721821630
20
225.0639707589
11
81.5721821630
21
225.0639707589
0
INSERT
5
215
100
AcDbEntity
8
0
100
AcDbBlockReference
62
2
6
CONTINUOUS
2
_FILLED
10
102.5721821630
20
225.0639707589
41
  3.500000
42
  3.500000
43
  3.500000
0
INSERT
5
216
100
AcDbEntity
8
0
100
AcDbBlockReference
62
2
6
CONTINUOUS
2
_FILLED
10
60.5721821630
20
225.0639707589
41
  3.500000
42
  3.500000
43
  3.500000
50
180.000000
0
ENDBLK
5
217
100
AcDbEntity
8
0
6
BYBLOCK
62
0
100
AcDbBlockEnd
0
BLOCK
5
218
100
AcDbEntity
8
0
100
AcDbBlockBegin
62
2
6
CONTINUOUS
2
*D1
70
65
10
0.0000000000
20
0.0000000000
3
*D1
1

0
TEXT
5
219
100
AcDbEntity
8
0
100
AcDbText
62
5
6
CONTINUOUS
10
167.8991995103
20
76.5170865937
7
STANDARD
40
3.5000000000
1
15
41
0.7143000000
72
0
100
AcDbText
0
LINE
5
21A
100
AcDbEntity
8
0
100
AcDbLine
62
2
6
CONTINUOUS
10
163.3195900781
20
88.3893377454
11
163.3195900781
21
74.1420865937
0
LINE
5
21B
100
AcDbEntity
8
0
100
AcDbLine
62
2
6
CONTINUOUS
10
178.3195900781
20
88.3893377454
11
178.3195900781
21
74.1420865937
0
LINE
5
21C
100
AcDbEntity
8
0
100
AcDbLine
62
2
6
CONTINUOUS
10
163.3195900781
20
75.6420865937
11
170.8195900781
21
75.6420865937
0
LINE
5
21D
100
AcDbEntity
8
0
100
AcDbLine
62
2
6
CONTINUOUS
10
178.3195900781
20
75.6420865937
11
170.8195900781
21
75.6420865937
0
INSERT
5
21E
100
AcDbEntity
8
0
100
AcDbBlockReference
62
2
6
CONTINUOUS
2
_FILLED
10
163.3195900781
20
75.6420865937
41
  3.500000
42
  3.500000
43
  3.500000
50
180.000000
0
INSERT
5
21F
100
AcDbEntity
8
0
100
AcDbBlockReference
62
2
6
CONTINUOUS
2
_FILLED
10
178.3195900781
20
75.6420865937
41
  3.500000
42
  3.500000
43
  3.500000
0
ENDBLK
5
220
100
AcDbEntity
8
0
6
BYBLOCK
62
0
100
AcDbBlockEnd
0
BLOCK
5
221
100
AcDbEntity
8
0
100
AcDbBlockBegin
62
2
6
CONTINUOUS
2
*D2
70
65
10
0.0000000000
20
0.0000000000
3
*D2
1

0
TEXT
5
222
100
AcDbEntity
8
0
100
AcDbText
62
5
6
CONTINUOUS
10
78.2739224527
20
64.6257422355
7
STANDARD
40
3.5000000000
1
38
41
0.7143000000
72
0
100
AcDbText
0
LINE
5
223
100
AcDbEntity
8
0
100
AcDbLine
62
2
6
CONTINUOUS
10
62.5721821630
20
90.0285627795
11
62.5721821630
21
62.2507422355
0
LINE
5
224
100
AcDbEntity
8
0
100
AcDbLine
62
2
6
CONTINUOUS
10
100.5721821630
20
90.0285627795
11
100.5721821630
21
62.2507422355
0
LINE
5
225
100
AcDbEntity
8
0
100
AcDbLine
62
2
6
CONTINUOUS
10
62.5721821630
20
63.7507422355
11
81.5721821630
21
63.7507422355
0
LINE
5
226
100
AcDbEntity
8
0
100
AcDbLine
62
2
6
CONTINUOUS
10
100.5721821630
20
63.7507422355
11
81.5721821630
21
63.7507422355
0
INSERT
5
227
100
AcDbEntity
8
0
100
AcDbBlockReference
62
2
6
CONTINUOUS
2
_FILLED
10
62.5721821630
20
63.7507422355
41
  3.500000
42
  3.500000
43
  3.500000
50
180.000000
0
INSERT
5
228
100
AcDbEntity
8
0
100
AcDbBlockReference
62
2
6
CONTINUOUS
2
_FILLED
10
100.5721821630
20
63.7507422355
41
  3.500000
42
  3.500000
43
  3.500000
0
ENDBLK
5
229
100
AcDbEntity
8
0
6
BYBLOCK
62
0
100
AcDbBlockEnd
0
BLOCK
5
22A
100
AcDbEntity
8
0
100
AcDbBlockBegin
62
2
6
CONTINUOUS
2
*D3
70
65
10
0.0000000000
20
0.0000000000
3
*D3
1

0
TEXT
5
22B
100
AcDbEntity
8
0
100
AcDbText
62
5
6
CONTINUOUS
10
130.9061178634
20
92.1880572040
7
STANDARD
40
3.5000000000
1
16
50
90.0000000000
41
0.7143000000
72
0
100
AcDbText
0
LINE
5
22C
100
AcDbEntity
8
0
100
AcDbLine
62
2
6
CONTINUOUS
10
82.0210492228
20
86.7778870989
11
133.2811178634
21
86.7778870989
0
LINE
5
22D
100
AcDbEntity
8
0
100
AcDbLine
62
2
6
CONTINUOUS
10
82.0721821630
20
102.7778870989
11
133.2811178634
21
102.7778870989
0
LINE
5
22E
100
AcDbEntity
8
0
100
AcDbLine
62
2
6
CONTINUOUS
10
131.7811178634
20
86.7778870989
11
131.7811178634
21
94.7778870989
0
LINE
5
22F
100
AcDbEntity
8
0
100
AcDbLine
62
2
6
CONTINUOUS
10
131.7811178634
20
102.7778870989
11
131.7811178634
21
94.7778870989
0
INSERT
5
230
100
AcDbEntity
8
0
100
AcDbBlockReference
62
2
6
CONTINUOUS
2
_FILLED
10
131.7811178634
20
86.7778870989
41
  3.500000
42
  3.500000
43
  3.500000
50
270.000000
0
INSERT
5
231
100
AcDbEntity
8
0
100
AcDbBlockReference
62
2
6
CONTINUOUS
2
_FILLED
10
131.7811178634
20
102.7778870989
41
  3.500000
42
  3.500000
43
  3.500000
50
 90.000000
0
ENDBLK
5
232
100
AcDbEntity
8
0
6
BYBLOCK
62
0
100
AcDbBlockEnd
0
BLOCK
5
233
100
AcDbEntity
8
0
100
AcDbBlockBegin
62
2
6
CONTINUOUS
2
*D4
70
65
10
0.0000000000
20
0.0000000000
3
*D4
1

0
TEXT
5
234
100
AcDbEntity
8
0
100
AcDbText
62
5
6
CONTINUOUS
10
130.9061178634
20
143.5166315632
7
STANDARD
40
3.5000000000
1
80
50
90.0000000000
41
0.7143000000
72
0
100
AcDbText
0
LINE
5
235
100
AcDbEntity
8
0
100
AcDbLine
62
2
6
CONTINUOUS
10
85.0722821630
20
102.7778870989
11
133.2811178634
21
102.7778870989
0
LINE
5
236
100
AcDbEntity
8
0
100
AcDbLine
62
2
6
CONTINUOUS
10
85.0722821630
20
182.7778870989
11
133.2811178634
21
182.7778870989
0
LINE
5
237
100
AcDbEntity
8
0
100
AcDbLine
62
2
6
CONTINUOUS
10
131.7811178634
20
102.7778870989
11
131.7811178634
21
142.7778870989
0
LINE
5
238
100
AcDbEntity
8
0
100
AcDbLine
62
2
6
CONTINUOUS
10
131.7811178634
20
182.7778870989
11
131.7811178634
21
142.7778870989
0
INSERT
5
239
100
AcDbEntity
8
0
100
AcDbBlockReference
62
2
6
CONTINUOUS
2
_FILLED
10
131.7811178634
20
102.7778870989
41
  3.500000
42
  3.500000
43
  3.500000
50
270.000000
0
INSERT
5
23A
100
AcDbEntity
8
0
100
AcDbBlockReference
62
2
6
CONTINUOUS
2
_FILLED
10
131.7811178634
20
182.7778870989
41
  3.500000
42
  3.500000
43
  3.500000
50
 90.000000
0
ENDBLK
5
23B
100
AcDbEntity
8
0
6
BYBLOCK
62
0
100
AcDbBlockEnd
0
BLOCK
5
23C
100
AcDbEntity
8
0
100
AcDbBlockBegin
62
2
6
CONTINUOUS
2
*D5
70
65
10
0.0000000000
20
0.0000000000
3
*D5
1

0
TEXT
5
23D
100
AcDbEntity
8
0
100
AcDbText
62
5
6
CONTINUOUS
10
38.9148316062
20
138.3939812176
7
STANDARD
40
3.5000000000
1
109.5
50
90.0000000000
41
0.7143000000
72
0
100
AcDbText
0
LINE
5
23E
100
AcDbEntity
8
0
100
AcDbLine
62
2
6
CONTINUOUS
10
81.0721821630
20
196.2778870989
11
38.2898316062
21
196.2778870989
0
LINE
5
23F
100
AcDbEntity
8
0
100
AcDbLine
62
2
6
CONTINUOUS
10
81.0721821630
20
86.7778870989
11
38.2898316062
21
86.7778870989
0
LINE
5
240
100
AcDbEntity
8
0
100
AcDbLine
62
2
6
CONTINUOUS
10
39.7898316062
20
196.2778870989
11
39.7898316062
21
141.5278870989
0
LINE
5
241
100
AcDbEntity
8
0
100
AcDbLine
62
2
6
CONTINUOUS
10
39.7898316062
20
86.7778870989
11
39.7898316062
21
141.5278870989
0
INSERT
5
242
100
AcDbEntity
8
0
100
AcDbBlockReference
62
2
6
CONTINUOUS
2
_FILLED
10
39.7898316062
20
196.2778870989
41
  3.500000
42
  3.500000
43
  3.500000
50
 90.000000
0
INSERT
5
243
100
AcDbEntity
8
0
100
AcDbBlockReference
62
2
6
CONTINUOUS
2
_FILLED
10
39.7898316062
20
86.7778870989
41
  3.500000
42
  3.500000
43
  3.500000
50
270.000000
0
ENDBLK
5
244
100
AcDbEntity
8
0
6
BYBLOCK
62
0
100
AcDbBlockEnd
0
BLOCK
5
245
100
AcDbEntity
8
0
100
AcDbBlockBegin
2
_FILLED
70
64
10
0.0000000000
20
0.0000000000
3
_FILLED
1

0
SOLID
5
246
100
AcDbEntity
8
0
6
BYBLOCK
62
0
100
AcDbTrace
10
0.0000000000
20
0.0000000000
11
-1.0000000000
21
0.1857142857
12
-1.0000000000
22
-0.1857142857
13
-1.0000000000
23
-0.1857142857
0
ENDBLK
5
247
100
AcDbEntity
8
0
6
BYBLOCK
62
0
100
AcDbBlockEnd
0
ENDSEC
0
SECTION
2
ENTITIES
0
TEXT
5
248
100
AcDbEntity
8
0
100
AcDbText
62
7
6
CONTINUOUS
10
72.5233121208
20
72.4443523350
7
STANDARD
40
3.5000000000
1
A
41
0.7143000000
72
0
100
AcDbText
0
LINE
5
249
100
AcDbEntity
8
0
100
AcDbLine
62
7
6
CONTINUOUS
10
81.5721821630
20
77.6943523350
11
71.2732871208
21
77.6943523350
0
SOLID
5
24A
100
AcDbEntity
8
0
100
AcDbTrace
62
7
6
CONTINUOUS
10
74.5721821630
20
76.6943523350
11
81.5721821630
21
77.6943523350
12
74.5721821630
22
78.6943523350
13
74.5721821630
23
78.6943523350
0
TEXT
5
24B
100
AcDbEntity
8
0
100
AcDbText
62
7
6
CONTINUOUS
10
71.2699353257
20
207.7262690352
7
STANDARD
40
3.5000000000
1
A
41
0.7143000000
72
0
100
AcDbText
0
LINE
5
24C
100
AcDbEntity
8
0
100
AcDbLine
62
7
6
CONTINUOUS
10
81.5721821630
20
205.9762690352
11
70.0199103257
21
205.9762690352
0
SOLID
5
24D
100
AcDbEntity
8
0
100
AcDbTrace
62
7
6
CONTINUOUS
10
74.5721821630
20
204.9762690352
11
81.5721821630
21
205.9762690352
12
74.5721821630
22
206.9762690352
13
74.5721821630
23
206.9762690352
0
DIMENSION
5
24E
100
AcDbEntity
8
0
100
AcDbDimension
62
2
6
CONTINUOUS
2
*D0
10
60.5721821630
20
225.0639707589
11
81.4259759898
21
227.6889707589
70
160
42
42.000000
3
DIMSTYLE_1
100
AcDbAlignedDimension
13
102.5721821630
23
180.2652202073
14
60.5721821630
24
185.4064119171
50
180.000000
100
AcDbRotatedDimension
0
DIMENSION
5
24F
100
AcDbEntity
8
0
100
AcDbDimension
62
2
6
CONTINUOUS
2
*D1
10
178.3195900781
20
75.6420865937
11
170.3992495103
21
78.2670865937
70
160
42
15.000000
3
DIMSTYLE_2
100
AcDbAlignedDimension
13
163.3195900781
23
88.3893377454
14
178.3195900781
24
88.3893377454
100
AcDbRotatedDimension
0
DIMENSION
5
250
100
AcDbEntity
8
0
100
AcDbDimension
62
2
6
CONTINUOUS
2
*D2
10
100.5721821630
20
63.7507422355
11
80.7739724527
21
66.3757422355
70
160
42
38.000000
3
DIMSTYLE_1
100
AcDbAlignedDimension
13
62.5721821630
23
90.0285627795
14
100.5721821630
24
90.0285627795
100
AcDbRotatedDimension
0
DIMENSION
5
251
100
AcDbEntity
8
0
100
AcDbDimension
62
2
6
CONTINUOUS
2
*D3
10
131.7811178634
20
102.7778870989
11
129.1561178634
21
94.6881072040
70
160
42
16.000000
3
DIMSTYLE_3
100
AcDbAlignedDimension
13
82.0210492228
23
86.7778870989
14
82.0721821630
24
102.7778870989
50
90.000000
100
AcDbRotatedDimension
0
DIMENSION
5
252
100
AcDbEntity
8
0
100
AcDbDimension
62
2
6
CONTINUOUS
2
*D4
10
131.7811178634
20
182.7778870989
11
129.1561178634
21
146.0166815632
70
160
42
80.000000
3
DIMSTYLE_4
100
AcDbAlignedDimension
13
85.0722821630
23
102.7778870989
14
85.0722821630
24
182.7778870989
50
90.000000
100
AcDbRotatedDimension
0
DIMENSION
5
253
100
AcDbEntity
8
0
100
AcDbDimension
62
2
6
CONTINUOUS
2
*D5
10
39.7898316062
20
86.7778870989
11
37.1648316062
21
144.6441062176
70
160
42
109.500000
3
DIMSTYLE_4
100
AcDbAlignedDimension
13
81.0721821630
23
196.2778870989
14
81.0721821630
24
86.7778870989
50
270.000000
100
AcDbRotatedDimension
0
MTEXT
5
254
100
AcDbEntity
8
0
100
AcDbMText
62
5
6
CONTINUOUS
7
STANDARD
71
1
72
1
10
158.4197855747
20
68.0427338624
30
0.0000000000
11
1.0000000000
21
0.0000000000
31
0.0000000000
1
SEZIONE A-A
40
3.5000000000
41
27.5005500000
0
LINE
5
255
100
AcDbEntity
8
0
100
AcDbLine
62
7
6
CONTINUOUS
10
0.0000000000
20
0.0000000000
11
210.0000000000
21
0.0000000000
0
LINE
5
256
100
AcDbEntity
8
0
100
AcDbLine
62
7
6
CONTINUOUS
10
0.0000000000
20
0.0000000000
11
0.0000000000
21
297.0000000000
0
LINE
5
257
100
AcDbEntity
8
0
100
AcDbLine
62
2
6
CONTINUOUS
10
89.5721821630
20
89.7779840820
11
73.5721821630
21
89.7779840820
0
LINE
5
258
100
AcDbEntity
8
0
100
AcDbLine
62
2
6
CONTINUOUS
10
73.5721821630
20
95.2779840820
11
89.5721821630
21
95.2779840820
0
LINE
5
259
100
AcDbEntity
8
0
100
AcDbLine
62
2
6
CONTINUOUS
10
73.5721821630
20
95.2779840820
11
73.5721821630
21
89.7779840820
0
LINE
5
25A
100
AcDbEntity
8
0
100
AcDbLine
62
2
6
CONTINUOUS
10
89.5721821630
20
95.2779840820
11
89.5721821630
21
89.7779840820
0
LINE
5
25B
100
AcDbEntity
8
0
100
AcDbLine
62
7
6
CONTINUOUS
10
210.0000000000
20
0.0000000000
11
210.0000000000
21
297.0000000000
0
LINE
5
25C
100
AcDbEntity
8
0
100
AcDbLine
62
7
6
CONTINUOUS
10
0.0000000000
20
297.0000000000
11
210.0000000000
21
297.0000000000
0
LINE
5
25D
100
AcDbEntity
8
DEFAULT_1
100
AcDbLine
62
2
6
CENTER
10
94.0721821630
20
96.2778870989
11
88.5721821630
21
96.2778870989
0
LINE
5
25E
100
AcDbEntity
8
DEFAULT_1
100
AcDbLine
62
2
6
CENTER
10
69.0721821630
20
96.2778870989
11
63.5721821630
21
96.2778870989
0
LINE
5
25F
100
AcDbEntity
8
DEFAULT_1
100
AcDbLine
62
2
6
CENTER
10
69.0721821630
20
96.2778870989
11
74.5721821630
21
96.2778870989
0
LINE
5
260
100
AcDbEntity
8
DEFAULT_1
100
AcDbLine
62
2
6
CENTER
10
94.0721821630
20
96.2778870989
11
99.5721821630
21
96.2778870989
0
LINE
5
261
100
AcDbEntity
8
DEFAULT_1
100
AcDbLine
62
2
6
CENTER
10
81.5721821630
20
102.7778870989
11
78.5720821630
21
102.7778870989
0
LINE
5
262
100
AcDbEntity
8
DEFAULT_1
100
AcDbLine
62
2
6
CENTER
10
81.5721821630
20
102.7778870989
11
84.5722821630
21
102.7778870989
0
LINE
5
263
100
AcDbEntity
8
0
100
AcDbLine
62
7
6
CONTINUOUS
10
60.5721821630
20
184.7356561450
11
60.5721821630
21
140.9825021698
0
LINE
5
264
100
AcDbEntity
8
DEFAULT_1
100
AcDbLine
62
2
6
CENTER
10
68.8221821630
20
186.9778870989
11
68.8221821630
21
181.4778870989
0
LINE
5
265
100
AcDbEntity
8
DEFAULT_1
100
AcDbLine
62
2
6
CENTER
10
68.8221821630
20
186.9778870989
11
68.8221821630
21
192.4778870989
0
LINE
5
266
100
AcDbEntity
8
DEFAULT_1
100
AcDbLine
62
2
6
CENTER
10
69.0721821630
20
96.2778870989
11
69.0721821630
21
90.7778870989
0
LINE
5
267
100
AcDbEntity
8
DEFAULT_1
100
AcDbLine
62
2
6
CENTER
10
69.0721821630
20
96.2778870989
11
69.0721821630
21
101.7778870989
0
LINE
5
268
100
AcDbEntity
8
0
100
AcDbLine
62
7
6
CONTINUOUS
10
76.0721821630
20
182.7778870989
11
76.0721821630
21
143.2778870989
0
LINE
5
269
100
AcDbEntity
8
0
100
AcDbLine
62
7
6
CONTINUOUS
10
76.0721821630
20
142.2778870989
11
76.0721821630
21
102.7778870989
0
LINE
5
26A
100
AcDbEntity
8
0
100
AcDbLine
62
7
6
CONTINUOUS
10
76.6757355536
20
143.8814404895
11
76.0721821630
21
143.2778870989
0
LINE
5
26B
100
AcDbEntity
8
DEFAULT_1
100
AcDbLine
62
2
6
CENTER
10
81.5721821630
20
199.2778870989
11
81.5721821630
21
185.7779870989
0
LINE
5
26C
100
AcDbEntity
8
DEFAULT_1
100
AcDbLine
62
2
6
CENTER
10
81.5721821630
20
179.7777870989
11
81.5721821630
21
105.7779870989
0
LINE
5
26D
100
AcDbEntity
8
DEFAULT_1
100
AcDbLine
62
2
6
CENTER
10
81.5721821630
20
99.7777870989
11
81.5721821630
21
83.7778870989
0
LINE
5
26E
100
AcDbEntity
8
DEFAULT_1
100
AcDbLine
62
2
6
CENTER
10
81.5721821630
20
182.7778870989
11
81.5721821630
21
179.7777870989
0
LINE
5
26F
100
AcDbEntity
8
DEFAULT_1
100
AcDbLine
62
2
6
CENTER
10
81.5721821630
20
102.7778870989
11
81.5721821630
21
99.7777870989
0
LINE
5
270
100
AcDbEntity
8
DEFAULT_1
100
AcDbLine
62
7
6
CENTER
10
81.5721821630
20
77.6943523350
11
81.5721821630
21
82.6943523350
0
LINE
5
271
100
AcDbEntity
8
DEFAULT_1
100
AcDbLine
62
2
6
CENTER
10
81.5721821630
20
102.7778870989
11
81.5721821630
21
105.7779870989
0
LINE
5
272
100
AcDbEntity
8
DEFAULT_1
100
AcDbLine
62
2
6
CENTER
10
81.5721821630
20
182.7778870989
11
81.5721821630
21
185.7779870989
0
LINE
5
273
100
AcDbEntity
8
DEFAULT_1
100
AcDbLine
62
9
6
CENTER
10
81.5721821630
20
82.6943523350
11
81.5721821630
21
83.7778870989
0
LINE
5
274
100
AcDbEntity
8
DEFAULT_1
100
AcDbLine
62
9
6
CENTER
10
81.5721821630
20
199.2778870989
11
81.5721821630
21
200.9762690352
0
LINE
5
275
100
AcDbEntity
8
DEFAULT_1
100
AcDbLine
62
7
6
CENTER
10
81.5721821630
20
200.9762690352
11
81.5721821630
21
205.9762690352
0
LINE
5
276
100
AcDbEntity
8
0
100
AcDbLine
62
7
6
CONTINUOUS
10
77.0292889442
20
141.5278870989
11
86.1150753818
21
141.5278870989
0
LINE
5
277
100
AcDbEntity
8
0
100
AcDbLine
62
7
6
CONTINUOUS
10
76.0721821630
20
142.2778870989
11
76.6757355536
21
141.6743337083
0
LINE
5
278
100
AcDbEntity
8
0
100
AcDbLine
62
7
6
CONTINUOUS
10
86.4686287724
20
141.6743337083
11
87.0721821630
21
142.2778870989
0
LINE
5
279
100
AcDbEntity
8
0
100
AcDbLine
62
7
6
CONTINUOUS
10
86.1150753818
20
144.0278870989
11
77.0292889442
21
144.0278870989
0
LINE
5
27A
100
AcDbEntity
8
0
100
AcDbLine
62
7
6
CONTINUOUS
10
87.0721821630
20
102.7778870989
11
87.0721821630
21
142.2778870989
0
LINE
5
27B
100
AcDbEntity
8
0
100
AcDbLine
62
7
6
CONTINUOUS
10
87.0721821630
20
143.2778870989
11
87.0721821630
21
182.7778870989
0
LINE
5
27C
100
AcDbEntity
8
0
100
AcDbLine
62
7
6
CONTINUOUS
10
87.0721821630
20
143.2778870989
11
86.4686287724
21
143.8814404895
0
LINE
5
27D
100
AcDbEntity
8
DEFAULT_1
100
AcDbLine
62
2
6
CENTER
10
94.0721821630
20
96.2778870989
11
94.0721821630
21
90.7778870989
0
LINE
5
27E
100
AcDbEntity
8
DEFAULT_1
100
AcDbLine
62
2
6
CENTER
10
94.0721821630
20
96.2778870989
11
94.0721821630
21
101.7778870989
0
LINE
5
27F
100
AcDbEntity
8
DEFAULT_1
100
AcDbLine
62
2
6
CENTER
10
94.3221821630
20
186.9778870989
11
94.3221821630
21
181.4778870989
0
LINE
5
280
100
AcDbEntity
8
DEFAULT_1
100
AcDbLine
62
2
6
CENTER
10
94.3221821630
20
186.9778870989
11
94.3221821630
21
192.4778870989
0
LINE
5
281
100
AcDbEntity
8
0
100
AcDbLine
62
7
6
CONTINUOUS
10
102.5721821630
20
140.9825021698
11
102.5721821630
21
184.7356561450
0
LINE
5
282
100
AcDbEntity
8
DEFAULT_1
100
AcDbLine
62
2
6
CENTER
10
81.5721821630
20
182.7778870989
11
78.5720821630
21
182.7778870989
0
LINE
5
283
100
AcDbEntity
8
DEFAULT_1
100
AcDbLine
62
2
6
CENTER
10
81.5721821630
20
182.7778870989
11
84.5722821630
21
182.7778870989
0
LINE
5
284
100
AcDbEntity
8
DEFAULT_1
100
AcDbLine
62
2
6
CENTER
10
94.3221821630
20
186.9778870989
11
88.8221821630
21
186.9778870989
0
LINE
5
285
100
AcDbEntity
8
DEFAULT_1
100
AcDbLine
62
2
6
CENTER
10
68.8221821630
20
186.9778870989
11
63.3221821630
21
186.9778870989
0
LINE
5
286
100
AcDbEntity
8
DEFAULT_1
100
AcDbLine
62
2
6
CENTER
10
68.8221821630
20
186.9778870989
11
74.3221821630
21
186.9778870989
0
LINE
5
287
100
AcDbEntity
8
DEFAULT_1
100
AcDbLine
62
2
6
CENTER
10
94.3221821630
20
186.9778870989
11
99.8221821630
21
186.9778870989
0
LINE
5
288
100
AcDbEntity
8
0
100
AcDbLine
62
7
6
CONTINUOUS
10
163.3195900781
20
86.9087901158
11
178.3195900781
21
86.7778870989
0
LINE
5
289
100
AcDbEntity
8
0
100
AcDbLine
62
7
6
CONTINUOUS
10
163.8195900781
20
91.2866146314
11
163.3195900781
21
91.2778870989
0
LINE
5
28A
100
AcDbEntity
8
0
100
AcDbLine
62
7
6
CONTINUOUS
10
178.3195900781
20
93.7778870989
11
181.8283163225
21
93.8391321433
0
LINE
5
28B
100
AcDbEntity
8
0
100
AcDbLine
62
2
6
CONTINUOUS
10
163.3626383460
20
196.1473597586
11
163.3195900781
21
196.1043114908
0
LINE
5
28C
100
AcDbEntity
8
0
100
AcDbLine
62
7
6
CONTINUOUS
10
163.3195900781
20
95.4137347837
11
163.8195900781
21
95.4143631656
0
LINE
5
28D
100
AcDbEntity
8
DEFAULT_1
100
AcDbLine
62
2
6
CENTER
10
185.3195900781
20
96.2778870989
11
175.3195900781
21
96.2778870989
0
LINE
5
28E
100
AcDbEntity
8
0
100
AcDbLine
62
7
6
CONTINUOUS
10
163.8195900781
20
97.2778870989
11
178.3195900781
21
97.2778870989
0
LINE
5
28F
100
AcDbEntity
8
0
100
AcDbLine
62
2
6
CONTINUOUS
10
166.2159660846
20
196.1722603725
11
163.3195900781
21
193.2758843660
0
LINE
5
290
100
AcDbEntity
8
0
100
AcDbLine
62
2
6
CONTINUOUS
10
169.0692938233
20
196.1971609865
11
163.8195900781
21
190.9474572413
0
LINE
5
291
100
AcDbEntity
8
0
100
AcDbLine
62
7
6
CONTINUOUS
10
178.3195900781
20
98.7778870989
11
181.8283163225
21
98.7166420545
0
LINE
5
292
100
AcDbEntity
8
0
100
AcDbLine
62
2
6
CONTINUOUS
10
171.9226215620
20
196.2220616004
11
163.9784470605
21
188.2778870989
0
LINE
5
293
100
AcDbEntity
8
0
100
AcDbLine
62
2
6
CONTINUOUS
10
174.7759493007
20
196.2469622143
11
166.8068741853
21
188.2778870989
0
LINE
5
294
100
AcDbEntity
8
0
100
AcDbLine
62
7
6
CONTINUOUS
10
178.3195900781
20
102.7778870989
11
163.8195900781
21
102.7778870989
0
LINE
5
295
100
AcDbEntity
8
0
100
AcDbLine
62
2
6
CONTINUOUS
10
177.6292770394
20
196.2718628283
11
169.6353013100
21
188.2778870989
0
LINE
5
296
100
AcDbEntity
8
0
100
AcDbLine
62
2
6
CONTINUOUS
10
178.3195900781
20
194.1337487423
11
172.4637284348
21
188.2778870989
0
LINE
5
297
100
AcDbEntity
8
0
100
AcDbLine
62
2
6
CONTINUOUS
10
178.3195900781
20
191.3053216175
11
175.2921555595
21
188.2778870989
0
LINE
5
298
100
AcDbEntity
8
0
100
AcDbLine
62
2
6
CONTINUOUS
10
178.3195900781
20
188.4768944928
11
178.1205826842
21
188.2778870989
0
LINE
5
299
100
AcDbEntity
8
0
100
AcDbLine
62
7
6
CONTINUOUS
10
163.3195900781
20
86.9087901158
11
163.3195900781
21
196.1469840820
0
LINE
5
29A
100
AcDbEntity
8
0
100
AcDbLine
62
7
6
CONTINUOUS
10
163.8195900781
20
91.2866146314
11
163.8195900781
21
191.7691595664
0
LINE
5
29B
100
AcDbEntity
8
0
100
AcDbLine
62
2
6
CONTINUOUS
10
164.9832810565
20
144.0278870989
11
163.8195900781
21
142.8641961206
0
LINE
5
29C
100
AcDbEntity
8
0
100
AcDbLine
62
2
6
CONTINUOUS
10
167.8117081812
20
144.0278870989
11
165.3117081812
21
141.5278870989
0
LINE
5
29D
100
AcDbEntity
8
0
100
AcDbLine
62
2
6
CONTINUOUS
10
170.6401353059
20
144.0278870989
11
168.1401353059
21
141.5278870989
0
LINE
5
29E
100
AcDbEntity
8
0
100
AcDbLine
62
2
6
CONTINUOUS
10
173.4685624307
20
144.0278870989
11
170.9685624307
21
141.5278870989
0
LINE
5
29F
100
AcDbEntity
8
0
100
AcDbLine
62
7
6
CONTINUOUS
10
163.3195900781
20
140.9825021698
11
163.8195900781
21
140.9825021698
0
LINE
5
2A0
100
AcDbEntity
8
0
100
AcDbLine
62
7
6
CONTINUOUS
10
163.8195900781
20
141.5278870989
11
178.3195900781
21
141.5278870989
0
LINE
5
2A1
100
AcDbEntity
8
0
100
AcDbLine
62
2
6
CONTINUOUS
10
176.2969895554
20
144.0278870989
11
173.7969895554
21
141.5278870989
0
LINE
5
2A2
100
AcDbEntity
8
0
100
AcDbLine
62
2
6
CONTINUOUS
10
178.3195900781
20
143.2220604968
11
176.6254166802
21
141.5278870989
0
LINE
5
2A3
100
AcDbEntity
8
0
100
AcDbLine
62
7
6
CONTINUOUS
10
163.8195900781
20
144.0278870989
11
178.3195900781
21
144.0278870989
0
LINE
5
2A4
100
AcDbEntity
8
0
100
AcDbLine
62
7
6
CONTINUOUS
10
178.3195900781
20
86.7778870989
11
178.3195900781
21
196.2778870989
0
LINE
5
2A5
100
AcDbEntity
8
0
100
AcDbLine
62
7
6
CONTINUOUS
10
181.8283163225
20
189.4166420545
11
181.8283163225
21
184.5391321433
0
LINE
5
2A6
100
AcDbEntity
8
0
100
AcDbLine
62
7
6
CONTINUOUS
10
181.8283163225
20
98.7166420545
11
181.8283163225
21
93.8391321433
0
LINE
5
2A7
100
AcDbEntity
8
0
100
AcDbLine
62
7
6
CONTINUOUS
10
182.3195900781
20
188.9167166778
11
182.3195900781
21
185.0390559902
0
LINE
5
2A8
100
AcDbEntity
8
0
100
AcDbLine
62
7
6
CONTINUOUS
10
182.3195900781
20
98.2167166778
11
182.3195900781
21
94.3390559902
0
LINE
5
2A9
100
AcDbEntity
8
0
100
AcDbLine
62
2
6
CONTINUOUS
10
166.3165421771
20
97.2778870989
11
163.8195900781
21
94.7809349999
0
LINE
5
2AA
100
AcDbEntity
8
0
100
AcDbLine
62
2
6
CONTINUOUS
10
169.1449693019
20
97.2778870989
11
163.8195900781
21
91.9525078751
0
LINE
5
2AB
100
AcDbEntity
8
0
100
AcDbLine
62
2
6
CONTINUOUS
10
171.9733964266
20
97.2778870989
11
163.3195900781
21
88.6240807504
0
LINE
5
2AC
100
AcDbEntity
8
0
100
AcDbLine
62
2
6
CONTINUOUS
10
174.8018235514
20
97.2778870989
11
164.4230964143
21
86.8991599619
0
LINE
5
2AD
100
AcDbEntity
8
0
100
AcDbLine
62
2
6
CONTINUOUS
10
177.6302506761
20
97.2778870989
11
167.2270537739
21
86.8746901967
0
LINE
5
2AE
100
AcDbEntity
8
0
100
AcDbLine
62
2
6
CONTINUOUS
10
178.3195900781
20
95.1387993762
11
170.0310111335
21
86.8502204315
0
LINE
5
2AF
100
AcDbEntity
8
0
100
AcDbLine
62
2
6
CONTINUOUS
10
178.3195900781
20
92.3103722514
11
172.8349684931
21
86.8257506664
0
LINE
5
2B0
100
AcDbEntity
8
0
100
AcDbLine
62
2
6
CONTINUOUS
10
178.3195900781
20
89.4819451267
11
175.6389258527
21
86.8012809012
0
LINE
5
2B1
100
AcDbEntity
8
0
100
AcDbLine
62
7
6
CONTINUOUS
10
178.3195900781
20
184.4778870989
11
181.8283163225
21
184.5391321433
0
LINE
5
2B2
100
AcDbEntity
8
0
100
AcDbLine
62
7
6
CONTINUOUS
10
178.3195900781
20
182.7778870989
11
163.8195900781
21
182.7778870989
0
LINE
5
2B3
100
AcDbEntity
8
0
100
AcDbLine
62
7
6
CONTINUOUS
10
163.3195900781
20
184.7356561450
11
163.8195900781
21
184.7356561450
0
LINE
5
2B4
100
AcDbEntity
8
DEFAULT_1
100
AcDbLine
62
2
6
CENTER
10
185.3195900781
20
186.9778870989
11
175.3195900781
21
186.9778870989
0
LINE
5
2B5
100
AcDbEntity
8
0
100
AcDbLine
62
7
6
CONTINUOUS
10
163.8195900781
20
188.2778870989
11
178.3195900781
21
188.2778870989
0
LINE
5
2B6
100
AcDbEntity
8
0
100
AcDbLine
62
7
6
CONTINUOUS
10
163.3195900781
20
190.0235993888
11
163.8195900781
21
190.0152083531
0
LINE
5
2B7
100
AcDbEntity
8
0
100
AcDbLine
62
7
6
CONTINUOUS
10
178.3195900781
20
189.4778870989
11
181.8283163225
21
189.4166420545
0
LINE
5
2B8
100
AcDbEntity
8
0
100
AcDbLine
62
7
6
CONTINUOUS
10
163.3195900781
20
196.1469840820
11
178.3195900781
21
196.2778870989
0
LINE
5
2B9
100
AcDbEntity
8
0
100
AcDbLine
62
7
6
CONTINUOUS
10
163.8195900781
20
191.7691595664
11
163.3195900781
21
191.7778870989
0
CIRCLE
5
2BA
100
AcDbEntity
8
0
100
AcDbCircle
62
2
6
CONTINUOUS
10
68.5721821630
20
109.2778870989
40
3.0000000000
0
ARC
5
2BB
100
AcDbEntity
8
0
100
AcDbCircle
62
7
6
CONTINUOUS
10
77.0292889442
20
143.5278870989
40
0.5000000000
100
AcDbArc
50
90.0000000000
51
135.0000000000
0
ARC
5
2BC
100
AcDbEntity
8
0
100
AcDbCircle
62
7
6
CONTINUOUS
10
86.1150753818
20
143.5278870989
40
0.5000000000
100
AcDbArc
50
45.0000000000
51
90.0000000000
0
ARC
5
2BD
100
AcDbEntity
8
0
100
AcDbCircle
62
7
6
CONTINUOUS
10
86.1150753818
20
142.0278870989
40
0.5000000000
100
AcDbArc
50
270.0000000000
51
315.0000000000
0
ARC
5
2BE
100
AcDbEntity
8
0
100
AcDbCircle
62
7
6
CONTINUOUS
10
77.0292889442
20
142.0278870989
40
0.5000000000
100
AcDbArc
50
225.0000000000
51
270.0000000000
0
ARC
5
2BF
100
AcDbEntity
8
0
100
AcDbCircle
62
7
6
CONTINUOUS
10
697.9721821630
20
140.9825021698
40
637.4000000000
100
AcDbArc
50
180.0000000000
51
184.1288657611
0
ARC
5
2C0
100
AcDbEntity
8
0
100
AcDbCircle
62
7
6
CONTINUOUS
10
81.5721821630
20
146.2778870989
40
50.0000000000
100
AcDbArc
50
74.0379858372
51
105.9620141628
0
ARC
5
2C1
100
AcDbEntity
8
0
100
AcDbCircle
62
7
6
CONTINUOUS
10
-534.8278178370
20
140.9825021698
40
637.4000000000
100
AcDbArc
50
355.8711342389
51
360.0000000000
0
ARC
5
2C2
100
AcDbEntity
8
0
100
AcDbCircle
62
7
6
CONTINUOUS
10
81.5721821630
20
136.7778870989
40
50.0000000000
100
AcDbArc
50
253.2897331163
51
286.7102668837
0
ARC
5
2C3
100
AcDbEntity
8
0
100
AcDbCircle
62
7
6
CONTINUOUS
10
81.5721821630
20
102.7778870989
40
5.5000000000
100
AcDbArc
50
180.0000000000
51
360.0000000000
0
ARC
5
2C4
100
AcDbEntity
8
0
100
AcDbCircle
62
7
6
CONTINUOUS
10
81.5721821630
20
182.7778870989
40
5.5000000000
100
AcDbArc
50
0.0000000000
51
180.0000000000
0
ARC
5
2C5
100
AcDbEntity
8
0
100
AcDbCircle
62
7
6
CONTINUOUS
10
92.5721821630
20
184.7356561450
40
10.0000000000
100
AcDbArc
50
0.0000000000
51
74.0379858372
0
ARC
5
2C6
100
AcDbEntity
8
0
100
AcDbCircle
62
7
6
CONTINUOUS
10
70.5721821630
20
184.7356561450
40
10.0000000000
100
AcDbArc
50
105.9620141628
51
180.0000000000
0
ARC
5
2C7
100
AcDbEntity
8
0
100
AcDbCircle
62
7
6
CONTINUOUS
10
69.2082997847
20
95.5937346549
40
7.0000000000
100
AcDbArc
50
184.1288657611
51
253.2897331163
0
ARC
5
2C8
100
AcDbEntity
8
0
100
AcDbCircle
62
7
6
CONTINUOUS
10
93.9360645413
20
95.5937346549
40
7.0000000000
100
AcDbArc
50
286.7102668837
51
355.8711342389
0
CIRCLE
5
2C9
100
AcDbEntity
8
0
100
AcDbCircle
62
7
6
CONTINUOUS
10
94.0721821630
20
96.2778870989
40
2.5000000000
0
CIRCLE
5
2CA
100
AcDbEntity
8
0
100
AcDbCircle
62
7
6
CONTINUOUS
10
69.0721821630
20
96.2778870989
40
2.5000000000
0
CIRCLE
5
2CB
100
AcDbEntity
8
0
100
AcDbCircle
62
7
6
CONTINUOUS
10
94.3221821630
20
186.9778870989
40
2.5000000000
0
CIRCLE
5
2CC
100
AcDbEntity
8
0
100
AcDbCircle
62
7
6
CONTINUOUS
10
68.8221821630
20
186.9778870989
40
2.5000000000
0
CIRCLE
5
2CD
100
AcDbEntity
8
0
100
AcDbCircle
62
7
6
CONTINUOUS
10
69.0721821630
20
96.2778870989
40
2.4387549529
0
CIRCLE
5
2CE
100
AcDbEntity
8
0
100
AcDbCircle
62
7
6
CONTINUOUS
10
69.0721821630
20
96.2778870989
40
1.9388240670
0
CIRCLE
5
2CF
100
AcDbEntity
8
0
100
AcDbCircle
62
7
6
CONTINUOUS
10
68.8221821630
20
186.9778870989
40
2.4387549529
0
CIRCLE
5
2D0
100
AcDbEntity
8
0
100
AcDbCircle
62
7
6
CONTINUOUS
10
68.8221821630
20
186.9778870989
40
1.9388240670
0
CIRCLE
5
2D1
100
AcDbEntity
8
0
100
AcDbCircle
62
7
6
CONTINUOUS
10
94.3221821630
20
186.9778870989
40
2.4387549529
0
CIRCLE
5
2D2
100
AcDbEntity
8
0
100
AcDbCircle
62
7
6
CONTINUOUS
10
94.3221821630
20
186.9778870989
40
1.9388240670
0
CIRCLE
5
2D3
100
AcDbEntity
8
0
100
AcDbCircle
62
7
6
CONTINUOUS
10
94.0721821630
20
96.2778870989
40
2.4387549529
0
CIRCLE
5
2D4
100
AcDbEntity
8
0
100
AcDbCircle
62
7
6
CONTINUOUS
10
94.0721821630
20
96.2778870989
40
1.9388240670
0
ARC
5
2D5
100
AcDbEntity
8
0
100
AcDbCircle
62
7
6
CONTINUOUS
10
181.8195900781
20
98.2167182076
40
0.5000000000
100
AcDbArc
50
0.0000000000
51
88.9999952852
0
ARC
5
2D6
100
AcDbEntity
8
0
100
AcDbCircle
62
7
6
CONTINUOUS
10
181.8195900781
20
94.3390559902
40
0.5000000000
100
AcDbArc
50
271.0000047148
51
360.0000000000
0
ARC
5
2D7
100
AcDbEntity
8
0
100
AcDbCircle
62
7
6
CONTINUOUS
10
181.8195900781
20
188.9167182076
40
0.5000000000
100
AcDbArc
50
0.0000000000
51
88.9999952852
0
ARC
5
2D8
100
AcDbEntity
8
0
100
AcDbCircle
62
7
6
CONTINUOUS
10
181.8195900781
20
185.0390559902
40
0.5000000000
100
AcDbArc
50
271.0000047148
51
360.0000000000
0
SPLINE
5
2D9
100
AcDbEntity
8
0
100
AcDbSpline
62
7
6
CONTINUOUS
70
0
71
3
72
8
73
4
74
2
42
0.0000001000
43
0.0000001000
44
0.0000000001
12
-0.4999992024
22
-0.0185013713
32
0.0000000000
13
-0.5000010108
23
-0.0184524214
33
0.0000000000
40
0.0000000000
40
0.0000000000
40
0.0000000000
40
0.0000000000
40
1.0000000000
40
1.0000000000
40
1.0000000000
40
1.0000000000
10
163.8195901854
20
92.3371414132
30
0.0000000000
10
163.6529237846
20
92.3309742895
30
0.0000000000
10
163.4862570817
20
92.3248153291
30
0.0000000000
10
163.3195900781
20
92.3186645220
30
0.0000000000
11
163.8195901854
21
92.3371414132
31
0.0000000000
11
163.3195900781
21
92.3186645220
31
0.0000000000
0
SPLINE
5
2DA
100
AcDbEntity
8
0
100
AcDbSpline
62
7
6
CONTINUOUS
70
0
71
3
72
8
73
4
74
2
42
0.0000001000
43
0.0000001000
44
0.0000000001
12
0.4999594332
22
-0.0271710360
32
0.0000000000
13
0.5000311120
23
-0.0258258273
33
0.0000000000
40
0.0000000000
40
0.0000000000
40
0.0000000000
40
0.0000000000
40
1.0000000000
40
1.0000000000
40
1.0000000000
40
1.0000000000
10
163.3195900781
20
93.7243905760
30
0.0000000000
10
163.4862432225
20
93.7153335640
30
0.0000000000
10
163.6529089118
20
93.7065053250
30
0.0000000000
10
163.8195859492
20
93.6978967159
30
0.0000000000
11
163.3195900781
21
93.7243905760
31
0.0000000000
11
163.8195859492
21
93.6978967159
31
0.0000000000
0
ENDSEC
0
SECTION
2
OBJECTS
0
DICTIONARY
5
C
100
AcDbDictionary
280
0
281
1
3
ACAD_GROUP
350
D
3
ACAD_MLINESTYLE
350
17
3
ACAD_LAYOUT
350
1A
3
ACAD_PLOTSETTINGS
350
19
3
ACAD_PLOTSTYLENAME
350
E
0
DICTIONARY
5
D
102
{ACAD_REACTORS
330
C
102
}
100
AcDbDictionary
280
0
281
1
0
ACDBDICTIONARYWDFLT
5
E
102
{ACAD_REACTORS
330
C
102
}
100
AcDbDictionary
281
1
3
Normal
350
F
100
AcDbDictionaryWithDefault
340
F
0
DICTIONARY
5
17
102
{ACAD_REACTORS
330
C
102
}
100
AcDbDictionary
280
0
281
1
3
Standard
350
18
0
DICTIONARY
5
19
102
{ACAD_REACTORS
330
C
102
}
100
AcDbDictionary
281
1
0
DICTIONARY
5
1A
102
{ACAD_REACTORS
330
C
102
}
100
AcDbDictionary
281
1
3
Layout1
350
1E
3
Model
350
22
0
ACDBPLACEHOLDER
5
F
102
{ACAD_REACTORS
330
E
102
}
0
MLINESTYLE
5
18
102
{ACAD_REACTORS
330
17
102
}
100
AcDbMlineStyle
2
STANDARD
70
0
3

62
256
51
90.0
52
90.0
71
2
49
0.5
62
256
6
BYLAYER
49
-0.5
62
256
6
BYLAYER
0
LAYOUT
5
1E
102
{ACAD_REACTORS
330
1A
102
}
100
AcDbPlotSettings
1

2

4

6

40
0.0
41
0.0
42
0.0
43
0.0
44
0.0
45
0.0
46
0.0
47
0.0
48
0.0
49
0.0
140
0.0
141
0.0
142
1.0
143
1.0
70
0
72
0
73
0
74
0
7

75
0
147
1.0
148
0.0
149
0.0
100
AcDbLayout
1
Layout1
70
0
71
0
10
0.0
20
0.0
11
0.0
21
0.0
12
0.0
22
0.0
32
0.0
14
0.0
24
0.0
34
0.0
15
0.0
25
0.0
35
0.0
146
0.0
13
0.0
23
0.0
33
0.0
16
0.0
26
0.0
36
0.0
17
0.0
27
0.0
37
0.0
76
0
330
1B
331
0
345
0
346
0
0
LAYOUT
5
22
102
{ACAD_REACTORS
330
1A
102
}
100
AcDbPlotSettings
1

2

4

6

40
0.0
41
0.0
42
0.0
43
0.0
44
0.0
45
0.0
46
0.0
47
0.0
48
0.0
49
0.0
140
0.0
141
0.0
142
1.0
143
1.0
70
0
72
0
73
0
74
0
7

75
0
147
1.0
148
0.0
149
0.0
100
AcDbLayout
1
Model
70
0
71
0
10
0.0
20
0.0
11
0.0
21
0.0
12
0.0
22
0.0
32
0.0
14
0.0
24
0.0
34
0.0
15
0.0
25
0.0
35
0.0
146
0.0
13
0.0
23
0.0
33
0.0
16
0.0
26
0.0
36
0.0
17
0.0
27
0.0
37
0.0
76
0
330
1F
331
0
345
0
346
0
0
ENDSEC
0
EOF
