999
DXF file: S0709685322.dxf
999
Pro/ENGINEER 2005310 by Parametric Technology Corporation
0
SECTION
2
HEADER
9
$ACADVER
1
AC1015
9
$DWGCODEPAGE
3
ANSI_1252
9
$EXTMAX
10
594.0000000000
20
420.0000000000
30
0.0000000000
9
$EXTMIN
10
0.0000000000
20
0.0000000000
30
0.0000000000
9
$LIMMIN
10
0.0000000000
20
0.0000000000
9
$LIMMAX
10
594.0000000000
20
420.0000000000
9
$VIEWCTR
10
297.0000000000
20
210.0000000000
9
$VIEWSIZE
40
420.0000000000
9
$CLAYER
8
0
9
$LTSCALE
40
32.6700000000
9
$CELTYPE
6
BYLAYER
9
$DIMSCALE
40
1
9
$DIMASZ
40
3.5000000000
9
$DIMEXO
40
3.7125000000
9
$DIMDLI
40
22.5720000000
9
$DIMEXE
40
10.6920000000
9
$DIMCEN
40
5.3460000000
9
$DIMLFAC
40
1.0000000000
9
$DIMBLK
1
_FILLED
9
$DIMTXT
40
3.5000000000
9
$DIMTOL
70
1
9
$DIMLIM
70
0
9
$DIMTFAC
40
1.0000000000
9
$DIMTP
40
0.0010000000
9
$DIMTM
40
0.0010000000
9
$PDMODE
70
3
9
$PDSIZE
40
0.3125000000
9
$HANDSEED
5
3C3
9
$MEASUREMENT
70
1
9
$INSUNITS
70
4
0
ENDSEC
0
SECTION
2
CLASSES
0
CLASS
1
ACDBDICTIONARYWDFLT
2
AcDbDictionaryWithDefault
3
AutoCAD 2000
90
0
280
0
281
0
0
CLASS
1
ACDBPLACEHOLDER
2
AcDbPlaceHolder
3
AutoCAD 2000
90
0
280
0
281
0
0
CLASS
1
LAYOUT
2
AcDbLayout
3
AutoCAD 2000
90
0
280
0
281
0
0
ENDSEC
0
SECTION
2
TABLES
0
TABLE
2
VPORT
5
8
100
AcDbSymbolTable
70
2
0
VPORT
5
1F4
100
AcDbSymbolTableRecord
100
AcDbViewportTableRecord
2
*ACTIVE
70
0
10
0.0
20
0.0
11
1.0
21
1.0
12
297.0000000000
22
210.0000000000
13
0.0
23
0.0
14
1.0
24
1.0
15
0.0
25
0.0
16
0.0
26
0.0
36
1.0
17
0.0
27
0.0
37
0.0
40
420.0000000000
41
1.4142857143
42
50.0
43
0.0
44
0.0
50
0.0
51
0.0
71
0
72
100
73
1
74
1
75
0
76
0
77
0
78
0
0
ENDTAB
0
TABLE
2
LTYPE
5
5
100
AcDbSymbolTable
70
6
0
LTYPE
5
14
100
AcDbSymbolTableRecord
100
AcDbLinetypeTableRecord
2
BYBLOCK
70
0
3

72
65
73
0
40
0.0
0
LTYPE
5
15
100
AcDbSymbolTableRecord
100
AcDbLinetypeTableRecord
2
BYLAYER
70
0
3

72
65
73
0
40
0.0
0
LTYPE
5
16
100
AcDbSymbolTableRecord
100
AcDbLinetypeTableRecord
2
CONTINUOUS
70
64
3
Solid line
72
65
73
0
40
0
0
LTYPE
5
1F5
100
AcDbSymbolTableRecord
100
AcDbLinetypeTableRecord
2
CENTER
70
64
3
____ _ ____ _ ____ _ ____ _ ____ _ ____ _ ____
72
65
73
4
40
0.6
49
0.375
74
0
49
-0.075
74
0
49
0.075
74
0
49
-0.075
74
0
0
LTYPE
5
1F6
100
AcDbSymbolTableRecord
100
AcDbLinetypeTableRecord
2
HIDDEN
70
64
3
- - - - - - - - - - - - - - - - - - - -
72
65
73
2
40
0.2
49
0.1
74
0
49
-0.1
74
0
0
LTYPE
5
1F7
100
AcDbSymbolTableRecord
100
AcDbLinetypeTableRecord
2
PHANTOM
70
64
3
_____ _ _ _____ _ _ _____ _ _ _____
72
65
73
6
40
0.8
49
0.45
74
0
49
-0.05
74
0
49
0.1
74
0
49
-0.05
74
0
49
0.1
74
0
49
-0.05
74
0
0
LTYPE
5
1F8
100
AcDbSymbolTableRecord
100
AcDbLinetypeTableRecord
2
DOT
70
64
3
. . . . . . . . . . . . . . . . . . . .
72
65
73
2
40
0.2
49
0.1
74
0
49
-0.1
74
0
0
LTYPE
5
1F9
100
AcDbSymbolTableRecord
100
AcDbLinetypeTableRecord
2
DASHED
70
64
3
- - - - - - - - - - - - - - - - - - - -
72
65
73
2
40
0.2
49
0.1
74
0
49
-0.1
74
0
0
ENDTAB
0
TABLE
2
LAYER
5
2
100
AcDbSymbolTable
70
36
0
LAYER
5
10
100
AcDbSymbolTableRecord
100
AcDbLayerTableRecord
2
0
70
0
62
7
6
CONTINUOUS
370
-3
390
F
0
LAYER
5
1FA
100
AcDbSymbolTableRecord
100
AcDbLayerTableRecord
2
DEFAULT_1
70
0
62
7
6
CENTER
370
-3
390
F
0
LAYER
5
1FB
100
AcDbSymbolTableRecord
100
AcDbLayerTableRecord
2
DEFAULT_2
70
0
62
8
6
HIDDEN
370
-3
390
F
0
LAYER
5
1FC
100
AcDbSymbolTableRecord
100
AcDbLayerTableRecord
2
DEFAULT_3
70
0
62
7
6
PHANTOM
370
-3
390
F
0
LAYER
5
1FD
100
AcDbSymbolTableRecord
100
AcDbLayerTableRecord
2
_2D_DELETED_OBJS
70
0
62
7
6
CONTINUOUS
370
-3
390
F
0
LAYER
5
1FE
100
AcDbSymbolTableRecord
100
AcDbLayerTableRecord
2
ASSI
70
0
62
7
6
CONTINUOUS
370
-3
390
F
0
LAYER
5
1FF
100
AcDbSymbolTableRecord
100
AcDbLayerTableRecord
2
CURVE
70
0
62
7
6
CONTINUOUS
370
-3
390
F
0
LAYER
5
200
100
AcDbSymbolTableRecord
100
AcDbLayerTableRecord
2
PIANI
70
0
62
7
6
CONTINUOUS
370
-3
390
F
0
LAYER
5
201
100
AcDbSymbolTableRecord
100
AcDbLayerTableRecord
2
PUNTI
70
0
62
7
6
CONTINUOUS
370
-3
390
F
0
LAYER
5
202
100
AcDbSymbolTableRecord
100
AcDbLayerTableRecord
2
SURF_FILETTI
70
0
62
7
6
CONTINUOUS
370
-3
390
F
0
ENDTAB
0
TABLE
2
STYLE
5
3
100
AcDbSymbolTable
70
1
0
STYLE
5
11
100
AcDbSymbolTableRecord
100
AcDbTextStyleTableRecord
2
STANDARD
70
0
40
0.0
41
0.7143000000
50
0.0
71
0
42
0.2
3
txt
4

0
ENDTAB
0
TABLE
2
VIEW
5
6
100
AcDbSymbolTable
70
0
0
ENDTAB
0
TABLE
2
UCS
5
7
100
AcDbSymbolTable
70
0
0
ENDTAB
0
TABLE
2
APPID
5
9
100
AcDbSymbolTable
70
1
0
APPID
5
203
100
AcDbSymbolTableRecord
100
AcDbRegAppTableRecord
2
ACAD
70
0
0
ENDTAB
0
TABLE
2
BLOCK_RECORD
5
1
100
AcDbSymbolTable
70
0
0
BLOCK_RECORD
5
1F
100
AcDbSymbolTableRecord
100
AcDbBlockTableRecord
2
*MODEL_SPACE
0
BLOCK_RECORD
5
1B
100
AcDbSymbolTableRecord
100
AcDbBlockTableRecord
2
*PAPER_SPACE
0
BLOCK_RECORD
5
204
100
AcDbSymbolTableRecord
100
AcDbBlockTableRecord
2
_FILLED
0
BLOCK_RECORD
5
205
100
AcDbSymbolTableRecord
100
AcDbBlockTableRecord
2
*D0
0
BLOCK_RECORD
5
206
100
AcDbSymbolTableRecord
100
AcDbBlockTableRecord
2
*D1
0
BLOCK_RECORD
5
207
100
AcDbSymbolTableRecord
100
AcDbBlockTableRecord
2
*D2
0
BLOCK_RECORD
5
208
100
AcDbSymbolTableRecord
100
AcDbBlockTableRecord
2
*D3
0
BLOCK_RECORD
5
209
100
AcDbSymbolTableRecord
100
AcDbBlockTableRecord
2
*D4
0
BLOCK_RECORD
5
20A
100
AcDbSymbolTableRecord
100
AcDbBlockTableRecord
2
*D5
0
BLOCK_RECORD
5
20B
100
AcDbSymbolTableRecord
100
AcDbBlockTableRecord
2
*D6
0
BLOCK_RECORD
5
20C
100
AcDbSymbolTableRecord
100
AcDbBlockTableRecord
2
*D7
0
BLOCK_RECORD
5
20D
100
AcDbSymbolTableRecord
100
AcDbBlockTableRecord
2
*D8
0
BLOCK_RECORD
5
20E
100
AcDbSymbolTableRecord
100
AcDbBlockTableRecord
2
*D9
0
BLOCK_RECORD
5
20F
100
AcDbSymbolTableRecord
100
AcDbBlockTableRecord
2
*D10
0
BLOCK_RECORD
5
210
100
AcDbSymbolTableRecord
100
AcDbBlockTableRecord
2
*D11
0
ENDTAB
0
TABLE
2
DIMSTYLE
5
A
100
AcDbSymbolTable
70
1
100
AcDbDimStyleTable
71
0
0
DIMSTYLE
105
211
100
AcDbSymbolTableRecord
100
AcDbDimStyleTableRecord
2
STANDARD
70
0
3

4

40
1.0
41
3.5000000000
42
0.0625
43
0.38
44
0.18
45
0.0
46
0.0
47
0.0010000000
48
0.0010000000
140
3.5000000000
141
0.09
142
0.0
143
25.4
144
1.0000000000
145
0.0
146
1.0000000000
147
0.09
71
1
72
0
73
0
74
0
75
0
76
0
77
1
78
8
170
0
171
2
172
0
173
0
174
0
175
0
176
0
177
0
178
5
270
2
271
3
272
3
273
2
274
2
275
0
280
0
281
0
282
0
283
1
284
8
285
0
286
0
287
3
288
0
340
11
341
204
342
204
343
204
344
204
0
DIMSTYLE
105
212
100
AcDbSymbolTableRecord
100
AcDbDimStyleTableRecord
2
DIMSTYLE_1
70
0
3

4

40
1.0
41
3.5000000000
42
0.0625
43
0.38
44
0.18
45
0.0
46
0.0
47
0.5000000000
48
0.5000000000
140
3.5000000000
141
0.09
142
0.0
143
25.4
144
1.0000000000
145
0.0
146
1.0000000000
147
0.09
71
0
72
0
73
0
74
0
75
0
76
0
77
1
78
8
170
0
171
2
172
0
173
0
174
0
175
0
176
0
177
0
178
5
270
2
271
3
272
3
273
2
274
2
275
0
280
0
281
0
282
0
283
1
284
8
285
0
286
0
287
3
288
0
340
11
341
204
342
204
343
204
344
204
0
DIMSTYLE
105
213
100
AcDbSymbolTableRecord
100
AcDbDimStyleTableRecord
2
DIMSTYLE_2
70
0
3

4

40
1.0
41
3.5000000000
42
0.0625
43
0.38
44
0.18
45
0.0
46
0.0
47
0.3000000000
48
0.3000000000
140
3.5000000000
141
0.09
142
0.0
143
25.4
144
1.0000000000
145
0.0
146
1.0000000000
147
0.09
71
0
72
0
73
0
74
0
75
0
76
0
77
1
78
8
170
0
171
2
172
0
173
0
174
0
175
0
176
0
177
0
178
5
270
2
271
1
272
1
273
2
274
2
275
0
280
0
281
0
282
0
283
1
284
8
285
0
286
0
287
3
288
0
340
11
341
204
342
204
343
204
344
204
0
DIMSTYLE
105
214
100
AcDbSymbolTableRecord
100
AcDbDimStyleTableRecord
2
DIMSTYLE_3
70
0
3

4

40
1.0
41
3.5000000000
42
0.0625
43
0.38
44
0.18
45
0.0
46
0.0
47
0.2000000000
48
0.2000000000
140
3.5000000000
141
0.09
142
0.0
143
25.4
144
1.0000000000
145
0.0
146
1.0000000000
147
0.09
71
0
72
0
73
0
74
0
75
0
76
0
77
1
78
8
170
0
171
2
172
0
173
0
174
0
175
0
176
0
177
0
178
5
270
2
271
1
272
1
273
2
274
2
275
0
280
0
281
0
282
0
283
1
284
8
285
0
286
0
287
3
288
0
340
11
341
204
342
204
343
204
344
204
0
DIMSTYLE
105
215
100
AcDbSymbolTableRecord
100
AcDbDimStyleTableRecord
2
DIMSTYLE_4
70
0
3

4

40
1.0
41
3.5000000000
42
0.0625
43
0.38
44
0.18
45
0.0
46
0.0
47
0.1500000000
48
0.1500000000
140
3.5000000000
141
0.09
142
0.0
143
25.4
144
1.0000000000
145
0.0
146
1.0000000000
147
0.09
71
0
72
0
73
0
74
0
75
0
76
0
77
1
78
8
170
0
171
2
172
0
173
0
174
0
175
0
176
0
177
0
178
5
270
2
271
3
272
3
273
2
274
2
275
0
280
0
281
0
282
0
283
1
284
8
285
0
286
0
287
3
288
0
340
11
341
204
342
204
343
204
344
204
0
DIMSTYLE
105
216
100
AcDbSymbolTableRecord
100
AcDbDimStyleTableRecord
2
DIMSTYLE_5
70
0
3

4

40
1.0
41
3.5000000000
42
0.0625
43
0.38
44
0.18
45
0.0
46
0.0
47
0.1500000000
48
0.1500000000
140
3.5000000000
141
0.09
142
0.0
143
25.4
144
1.0000000000
145
0.0
146
1.0000000000
147
0.09
71
0
72
0
73
0
74
0
75
0
76
0
77
1
78
8
170
0
171
2
172
0
173
0
174
0
175
0
176
0
177
0
178
5
270
2
271
1
272
1
273
2
274
2
275
0
280
0
281
0
282
0
283
1
284
8
285
0
286
0
287
3
288
0
340
11
341
204
342
204
343
204
344
204
0
DIMSTYLE
105
217
100
AcDbSymbolTableRecord
100
AcDbDimStyleTableRecord
2
DIMSTYLE_6
70
0
3

4

40
1.0
41
3.5000000000
42
0.0625
43
0.38
44
0.18
45
0.0
46
0.0
47
0.1000000000
48
0.1000000000
140
3.5000000000
141
0.09
142
0.0
143
25.4
144
1.0000000000
145
0.0
146
1.0000000000
147
0.09
71
0
72
0
73
0
74
0
75
0
76
0
77
1
78
8
170
0
171
2
172
0
173
0
174
0
175
0
176
0
177
0
178
5
270
2
271
1
272
1
273
2
274
2
275
0
280
0
281
0
282
0
283
1
284
8
285
0
286
0
287
3
288
0
340
11
341
204
342
204
343
204
344
204
0
ENDTAB
0
ENDSEC
0
SECTION
2
BLOCKS
0
BLOCK
5
20
100
AcDbEntity
8
0
100
AcDbBlockBegin
2
*MODEL_SPACE
70
0
10
0.0
20
0.0
30
0.0
3
*MODEL_SPACE
1

0
ENDBLK
5
21
100
AcDbEntity
8
0
100
AcDbBlockEnd
0
BLOCK
5
1C
100
AcDbEntity
8
0
100
AcDbBlockBegin
2
*PAPER_SPACE
70
0
10
0.0
20
0.0
30
0.0
3
*PAPER_SPACE
1

0
ENDBLK
5
1D
100
AcDbEntity
8
0
100
AcDbBlockEnd
0
BLOCK
5
218
100
AcDbEntity
8
0
100
AcDbBlockBegin
62
2
6
CONTINUOUS
2
*D0
70
65
10
0.0000000000
20
0.0000000000
3
*D0
1

0
TEXT
5
219
100
AcDbEntity
8
0
100
AcDbText
62
5
6
CONTINUOUS
10
388.5250576424
20
362.4780349434
7
STANDARD
40
3.5000000000
1
16%%d
50
-0.1168790895
41
0.6984222222
72
0
100
AcDbText
0
LINE
5
21A
100
AcDbEntity
8
0
100
AcDbLine
62
2
6
CONTINUOUS
10
403.6993536424
20
316.0101245404
11
409.5289579640
21
357.4899146235
0
LINE
5
21B
100
AcDbEntity
8
0
100
AcDbLine
62
2
6
CONTINUOUS
10
380.1167879629
20
316.2667491090
11
374.3232498724
21
357.4899146235
0
ARC
5
21C
100
AcDbEntity
8
0
100
AcDbCircle
62
2
6
CONTINUOUS
10
391.9261039182
20
232.2390999184
40
124.9817261695
100
AcDbArc
50
82.0000000000
51
90.0000000000
0
ARC
5
21D
100
AcDbEntity
8
0
100
AcDbCircle
62
2
6
CONTINUOUS
10
391.9261039182
20
232.2390999184
40
124.9817261695
100
AcDbArc
50
90.0000000000
51
98.0000000000
0
SOLID
5
21E
100
AcDbEntity
8
0
100
AcDbTrace
62
2
6
CONTINUOUS
10
405.7663383862
20
355.7981642137
11
409.3201983125
21
356.0045125203
12
405.9292207568
22
357.0879197461
13
405.9292207568
23
357.0879197461
0
SOLID
5
21F
100
AcDbEntity
8
0
100
AcDbTrace
62
2
6
CONTINUOUS
10
377.9229870795
20
357.0879197461
11
374.5320095238
21
356.0045125203
12
378.0858694502
22
355.7981642137
13
378.0858694502
23
355.7981642137
0
ENDBLK
5
220
100
AcDbEntity
8
0
6
BYBLOCK
62
0
100
AcDbBlockEnd
0
BLOCK
5
221
100
AcDbEntity
8
0
100
AcDbBlockBegin
62
2
6
CONTINUOUS
2
*D1
70
65
10
0.0000000000
20
0.0000000000
3
*D1
1

0
TEXT
5
222
100
AcDbEntity
8
0
100
AcDbText
62
5
6
CONTINUOUS
10
321.0537989182
20
290.0600196679
7
STANDARD
40
3.5000000000
1
50
50
90.0000000000
41
0.7143000000
72
0
100
AcDbText
0
LINE
5
223
100
AcDbEntity
8
0
100
AcDbLine
62
2
6
CONTINUOUS
10
388.4260039182
20
267.2373849184
11
320.4287989182
21
267.2373849184
0
LINE
5
224
100
AcDbEntity
8
0
100
AcDbLine
62
2
6
CONTINUOUS
10
391.4261039182
20
317.2349349184
11
320.4287989182
21
317.2349349184
0
LINE
5
225
100
AcDbEntity
8
0
100
AcDbLine
62
2
6
CONTINUOUS
10
321.9287989182
20
267.2373849184
11
321.9287989182
21
292.2361599184
0
LINE
5
226
100
AcDbEntity
8
0
100
AcDbLine
62
2
6
CONTINUOUS
10
321.9287989182
20
317.2349349184
11
321.9287989182
21
292.2361599184
0
INSERT
5
227
100
AcDbEntity
8
0
100
AcDbBlockReference
62
2
6
CONTINUOUS
2
_FILLED
10
321.9287989182
20
267.2373849184
41
  3.500000
42
  3.500000
43
  3.500000
50
270.000000
0
INSERT
5
228
100
AcDbEntity
8
0
100
AcDbBlockReference
62
2
6
CONTINUOUS
2
_FILLED
10
321.9287989182
20
317.2349349184
41
  3.500000
42
  3.500000
43
  3.500000
50
 90.000000
0
ENDBLK
5
229
100
AcDbEntity
8
0
6
BYBLOCK
62
0
100
AcDbBlockEnd
0
BLOCK
5
22A
100
AcDbEntity
8
0
100
AcDbBlockBegin
62
2
6
CONTINUOUS
2
*D2
70
65
10
0.0000000000
20
0.0000000000
3
*D2
1

0
TEXT
5
22B
100
AcDbEntity
8
0
100
AcDbText
62
5
6
CONTINUOUS
10
321.0537989182
20
324.9497247151
7
STANDARD
40
3.5000000000
1
20
50
90.0000000000
41
0.7143000000
72
0
100
AcDbText
0
LINE
5
22C
100
AcDbEntity
8
0
100
AcDbLine
62
2
6
CONTINUOUS
10
391.4261039182
20
317.2349349184
11
320.4287989182
21
317.2349349184
0
LINE
5
22D
100
AcDbEntity
8
0
100
AcDbLine
62
2
6
CONTINUOUS
10
391.4261039182
20
337.2339549184
11
320.4287989182
21
337.2339549184
0
LINE
5
22E
100
AcDbEntity
8
0
100
AcDbLine
62
2
6
CONTINUOUS
10
321.9287989182
20
317.2349349184
11
321.9287989182
21
327.2344449184
0
LINE
5
22F
100
AcDbEntity
8
0
100
AcDbLine
62
2
6
CONTINUOUS
10
321.9287989182
20
337.2339549184
11
321.9287989182
21
327.2344449184
0
INSERT
5
230
100
AcDbEntity
8
0
100
AcDbBlockReference
62
2
6
CONTINUOUS
2
_FILLED
10
321.9287989182
20
317.2349349184
41
  3.500000
42
  3.500000
43
  3.500000
50
270.000000
0
INSERT
5
231
100
AcDbEntity
8
0
100
AcDbBlockReference
62
2
6
CONTINUOUS
2
_FILLED
10
321.9287989182
20
337.2339549184
41
  3.500000
42
  3.500000
43
  3.500000
50
 90.000000
0
ENDBLK
5
232
100
AcDbEntity
8
0
6
BYBLOCK
62
0
100
AcDbBlockEnd
0
BLOCK
5
233
100
AcDbEntity
8
0
100
AcDbBlockBegin
62
2
6
CONTINUOUS
2
*D3
70
65
10
0.0000000000
20
0.0000000000
3
*D3
1

0
TEXT
5
234
100
AcDbEntity
8
0
100
AcDbText
62
5
6
CONTINUOUS
10
135.6754897164
20
92.9614033925
7
STANDARD
40
3.5000000000
1
60.3
41
0.7143000000
72
0
100
AcDbText
0
LINE
5
235
100
AcDbEntity
8
0
100
AcDbLine
62
2
6
CONTINUOUS
10
109.4578827714
20
106.7452249184
11
109.4578827714
21
90.5864033925
0
LINE
5
236
100
AcDbEntity
8
0
100
AcDbLine
62
2
6
CONTINUOUS
10
170.7548790714
20
106.7452249184
11
170.7548790714
21
90.5864033925
0
LINE
5
237
100
AcDbEntity
8
0
100
AcDbLine
62
2
6
CONTINUOUS
10
109.4578827714
20
92.0864033925
11
140.1063809214
21
92.0864033925
0
LINE
5
238
100
AcDbEntity
8
0
100
AcDbLine
62
2
6
CONTINUOUS
10
170.7548790714
20
92.0864033925
11
140.1063809214
21
92.0864033925
0
INSERT
5
239
100
AcDbEntity
8
0
100
AcDbBlockReference
62
2
6
CONTINUOUS
2
_FILLED
10
109.4578827714
20
92.0864033925
41
  3.500000
42
  3.500000
43
  3.500000
50
180.000000
0
INSERT
5
23A
100
AcDbEntity
8
0
100
AcDbBlockReference
62
2
6
CONTINUOUS
2
_FILLED
10
170.7548790714
20
92.0864033925
41
  3.500000
42
  3.500000
43
  3.500000
0
ENDBLK
5
23B
100
AcDbEntity
8
0
6
BYBLOCK
62
0
100
AcDbBlockEnd
0
BLOCK
5
23C
100
AcDbEntity
8
0
100
AcDbBlockBegin
62
2
6
CONTINUOUS
2
*D4
70
65
10
0.0000000000
20
0.0000000000
3
*D4
1

0
TEXT
5
23D
100
AcDbEntity
8
0
100
AcDbText
62
5
6
CONTINUOUS
10
216.2283429214
20
143.8537419806
7
STANDARD
40
3.5000000000
1
77
50
90.0000000000
41
0.7143000000
72
0
100
AcDbText
0
LINE
5
23E
100
AcDbEntity
8
0
100
AcDbLine
62
2
6
CONTINUOUS
10
170.6680928401
20
184.2414519184
11
218.6033429214
21
184.2414519184
0
LINE
5
23F
100
AcDbEntity
8
0
100
AcDbLine
62
2
6
CONTINUOUS
10
179.1327477188
20
107.2452249184
11
218.6033429214
21
107.2452249184
0
LINE
5
240
100
AcDbEntity
8
0
100
AcDbLine
62
2
6
CONTINUOUS
10
217.1033429214
20
184.2414519184
11
217.1033429214
21
145.7433384184
0
LINE
5
241
100
AcDbEntity
8
0
100
AcDbLine
62
2
6
CONTINUOUS
10
217.1033429214
20
107.2452249184
11
217.1033429214
21
145.7433384184
0
INSERT
5
242
100
AcDbEntity
8
0
100
AcDbBlockReference
62
2
6
CONTINUOUS
2
_FILLED
10
217.1033429214
20
184.2414519184
41
  3.500000
42
  3.500000
43
  3.500000
50
 90.000000
0
INSERT
5
243
100
AcDbEntity
8
0
100
AcDbBlockReference
62
2
6
CONTINUOUS
2
_FILLED
10
217.1033429214
20
107.2452249184
41
  3.500000
42
  3.500000
43
  3.500000
50
270.000000
0
ENDBLK
5
244
100
AcDbEntity
8
0
6
BYBLOCK
62
0
100
AcDbBlockEnd
0
BLOCK
5
245
100
AcDbEntity
8
0
100
AcDbBlockBegin
62
2
6
CONTINUOUS
2
*D5
70
65
10
0.0000000000
20
0.0000000000
3
*D5
1

0
TEXT
5
246
100
AcDbEntity
8
0
100
AcDbText
62
5
6
CONTINUOUS
10
216.2283429214
20
265.2479750549
7
STANDARD
40
3.5000000000
1
125
50
90.0000000000
41
0.7143000000
72
0
100
AcDbText
0
LINE
5
247
100
AcDbEntity
8
0
100
AcDbLine
62
2
6
CONTINUOUS
10
202.6033429214
20
337.2339549184
11
218.6033429214
21
337.2339549184
0
LINE
5
248
100
AcDbEntity
8
0
100
AcDbLine
62
2
6
CONTINUOUS
10
202.6033429214
20
212.2400799184
11
218.6033429214
21
212.2400799184
0
LINE
5
249
100
AcDbEntity
8
0
100
AcDbLine
62
2
6
CONTINUOUS
10
217.1033429214
20
337.2339549184
11
217.1033429214
21
274.7370174184
0
LINE
5
24A
100
AcDbEntity
8
0
100
AcDbLine
62
2
6
CONTINUOUS
10
217.1033429214
20
212.2400799184
11
217.1033429214
21
274.7370174184
0
INSERT
5
24B
100
AcDbEntity
8
0
100
AcDbBlockReference
62
2
6
CONTINUOUS
2
_FILLED
10
217.1033429214
20
337.2339549184
41
  3.500000
42
  3.500000
43
  3.500000
50
 90.000000
0
INSERT
5
24C
100
AcDbEntity
8
0
100
AcDbBlockReference
62
2
6
CONTINUOUS
2
_FILLED
10
217.1033429214
20
212.2400799184
41
  3.500000
42
  3.500000
43
  3.500000
50
270.000000
0
ENDBLK
5
24D
100
AcDbEntity
8
0
6
BYBLOCK
62
0
100
AcDbBlockEnd
0
BLOCK
5
24E
100
AcDbEntity
8
0
100
AcDbBlockBegin
62
2
6
CONTINUOUS
2
*D6
70
65
10
0.0000000000
20
0.0000000000
3
*D6
1

0
TEXT
5
24F
100
AcDbEntity
8
0
100
AcDbText
62
5
6
CONTINUOUS
10
228.2283429214
20
216.8419889128
7
STANDARD
40
3.5000000000
1
230
50
90.0000000000
41
0.7143000000
72
0
100
AcDbText
0
LINE
5
250
100
AcDbEntity
8
0
100
AcDbLine
62
2
6
CONTINUOUS
10
202.6033429214
20
337.2339549184
11
230.6033429214
21
337.2339549184
0
LINE
5
251
100
AcDbEntity
8
0
100
AcDbLine
62
2
6
CONTINUOUS
10
179.6044699214
20
107.2452249184
11
230.6033429214
21
107.2452249184
0
LINE
5
252
100
AcDbEntity
8
0
100
AcDbLine
62
2
6
CONTINUOUS
10
229.1033429214
20
337.2339549184
11
229.1033429214
21
222.2395899184
0
LINE
5
253
100
AcDbEntity
8
0
100
AcDbLine
62
2
6
CONTINUOUS
10
229.1033429214
20
107.2452249184
11
229.1033429214
21
222.2395899184
0
INSERT
5
254
100
AcDbEntity
8
0
100
AcDbBlockReference
62
2
6
CONTINUOUS
2
_FILLED
10
229.1033429214
20
337.2339549184
41
  3.500000
42
  3.500000
43
  3.500000
50
 90.000000
0
INSERT
5
255
100
AcDbEntity
8
0
100
AcDbBlockReference
62
2
6
CONTINUOUS
2
_FILLED
10
229.1033429214
20
107.2452249184
41
  3.500000
42
  3.500000
43
  3.500000
50
270.000000
0
ENDBLK
5
256
100
AcDbEntity
8
0
6
BYBLOCK
62
0
100
AcDbBlockEnd
0
BLOCK
5
257
100
AcDbEntity
8
0
100
AcDbBlockBegin
62
2
6
CONTINUOUS
2
*D7
70
65
10
0.0000000000
20
0.0000000000
3
*D7
1

0
TEXT
5
258
100
AcDbEntity
8
0
100
AcDbText
62
5
6
CONTINUOUS
10
163.8247767767
20
78.2960177578
7
STANDARD
40
3.5000000000
1
62
41
0.7143000000
72
0
100
AcDbText
0
LINE
5
259
100
AcDbEntity
8
0
100
AcDbLine
62
2
6
CONTINUOUS
10
140.1063809214
20
103.7452249184
11
140.1063809214
21
99.1683200182
0
LINE
5
25A
100
AcDbEntity
8
0
100
AcDbLine
62
2
6
CONTINUOUS
10
140.1063809214
20
88.8792737874
11
140.1063809214
21
75.9210177578
0
LINE
5
25B
100
AcDbEntity
8
0
100
AcDbLine
62
2
6
CONTINUOUS
10
202.1033429214
20
231.7390999184
11
202.1033429214
21
75.9210177578
0
LINE
5
25C
100
AcDbEntity
8
0
100
AcDbLine
62
2
6
CONTINUOUS
10
140.1063809214
20
77.4210177578
11
171.1048619214
21
77.4210177578
0
LINE
5
25D
100
AcDbEntity
8
0
100
AcDbLine
62
2
6
CONTINUOUS
10
202.1033429214
20
77.4210177578
11
171.1048619214
21
77.4210177578
0
INSERT
5
25E
100
AcDbEntity
8
0
100
AcDbBlockReference
62
2
6
CONTINUOUS
2
_FILLED
10
140.1063809214
20
77.4210177578
41
  3.500000
42
  3.500000
43
  3.500000
50
180.000000
0
INSERT
5
25F
100
AcDbEntity
8
0
100
AcDbBlockReference
62
2
6
CONTINUOUS
2
_FILLED
10
202.1033429214
20
77.4210177578
41
  3.500000
42
  3.500000
43
  3.500000
0
ENDBLK
5
260
100
AcDbEntity
8
0
6
BYBLOCK
62
0
100
AcDbBlockEnd
0
BLOCK
5
261
100
AcDbEntity
8
0
100
AcDbBlockBegin
62
2
6
CONTINUOUS
2
*D8
70
65
10
0.0000000000
20
0.0000000000
3
*D8
1

0
TEXT
5
262
100
AcDbEntity
8
0
100
AcDbText
62
5
6
CONTINUOUS
10
388.7244397959
20
372.0484693878
7
STANDARD
40
3.5000000000
1
78
41
0.7143000000
72
0
100
AcDbText
0
LINE
5
263
100
AcDbEntity
8
0
100
AcDbLine
62
2
6
CONTINUOUS
10
352.9280149182
20
279.2108983055
11
352.9280149182
21
372.6734693878
0
LINE
5
264
100
AcDbEntity
8
0
100
AcDbLine
62
2
6
CONTINUOUS
10
430.9241929182
20
279.8695454471
11
430.9241929182
21
372.6734693878
0
LINE
5
265
100
AcDbEntity
8
0
100
AcDbLine
62
2
6
CONTINUOUS
10
352.9280149182
20
371.1734693878
11
391.9261039182
21
371.1734693878
0
LINE
5
266
100
AcDbEntity
8
0
100
AcDbLine
62
2
6
CONTINUOUS
10
430.9241929182
20
371.1734693878
11
391.9261039182
21
371.1734693878
0
INSERT
5
267
100
AcDbEntity
8
0
100
AcDbBlockReference
62
2
6
CONTINUOUS
2
_FILLED
10
352.9280149182
20
371.1734693878
41
  3.500000
42
  3.500000
43
  3.500000
50
180.000000
0
INSERT
5
268
100
AcDbEntity
8
0
100
AcDbBlockReference
62
2
6
CONTINUOUS
2
_FILLED
10
430.9241929182
20
371.1734693878
41
  3.500000
42
  3.500000
43
  3.500000
0
ENDBLK
5
269
100
AcDbEntity
8
0
6
BYBLOCK
62
0
100
AcDbBlockEnd
0
BLOCK
5
26A
100
AcDbEntity
8
0
100
AcDbBlockBegin
62
2
6
CONTINUOUS
2
*D9
70
65
10
0.0000000000
20
0.0000000000
3
*D9
1

0
TEXT
5
26B
100
AcDbEntity
8
0
100
AcDbText
62
5
6
CONTINUOUS
10
436.0388853129
20
281.8501240014
7
STANDARD
40
3.5000000000
1
10.5
41
0.7143000000
72
0
100
AcDbText
0
LINE
5
26C
100
AcDbEntity
8
0
100
AcDbLine
62
2
6
CONTINUOUS
10
386.6763611682
20
267.7373849184
11
386.6763611682
21
282.4751240014
0
LINE
5
26D
100
AcDbEntity
8
0
100
AcDbLine
62
2
6
CONTINUOUS
10
397.1758466682
20
267.7373849184
11
397.1758466682
21
282.4751240014
0
LINE
5
26E
100
AcDbEntity
8
0
100
AcDbLine
62
2
6
CONTINUOUS
10
386.6763611682
20
280.9751240014
11
378.6763611682
21
280.9751240014
0
LINE
5
26F
100
AcDbEntity
8
0
100
AcDbLine
62
2
6
CONTINUOUS
10
378.6763611682
20
280.9751240014
11
391.9261039182
21
280.9751240014
0
LINE
5
270
100
AcDbEntity
8
0
100
AcDbLine
62
2
6
CONTINUOUS
10
397.1758466682
20
280.9751240014
11
446.0390853129
21
280.9751240014
0
LINE
5
271
100
AcDbEntity
8
0
100
AcDbLine
62
2
6
CONTINUOUS
10
446.0390853129
20
280.9751240014
11
391.9261039182
21
280.9751240014
0
INSERT
5
272
100
AcDbEntity
8
0
100
AcDbBlockReference
62
2
6
CONTINUOUS
2
_FILLED
10
386.6763611682
20
280.9751240014
41
  3.500000
42
  3.500000
43
  3.500000
0
INSERT
5
273
100
AcDbEntity
8
0
100
AcDbBlockReference
62
2
6
CONTINUOUS
2
_FILLED
10
397.1758466682
20
280.9751240014
41
  3.500000
42
  3.500000
43
  3.500000
50
180.000000
0
ENDBLK
5
274
100
AcDbEntity
8
0
6
BYBLOCK
62
0
100
AcDbBlockEnd
0
BLOCK
5
275
100
AcDbEntity
8
0
100
AcDbBlockBegin
62
2
6
CONTINUOUS
2
*D10
70
65
10
0.0000000000
20
0.0000000000
3
*D10
1

0
TEXT
5
276
100
AcDbEntity
8
0
100
AcDbText
62
5
6
CONTINUOUS
10
321.0537989182
20
247.7755927246
7
STANDARD
40
3.5000000000
1
35
50
90.0000000000
41
0.7143000000
72
0
100
AcDbText
0
LINE
5
277
100
AcDbEntity
8
0
100
AcDbLine
62
2
6
CONTINUOUS
10
388.4260039182
20
267.2373849184
11
320.4287989182
21
267.2373849184
0
LINE
5
278
100
AcDbEntity
8
0
100
AcDbLine
62
2
6
CONTINUOUS
10
388.4260039182
20
232.2390999184
11
320.4287989182
21
232.2390999184
0
LINE
5
279
100
AcDbEntity
8
0
100
AcDbLine
62
2
6
CONTINUOUS
10
321.9287989182
20
267.2373849184
11
321.9287989182
21
249.7382424184
0
LINE
5
27A
100
AcDbEntity
8
0
100
AcDbLine
62
2
6
CONTINUOUS
10
321.9287989182
20
232.2390999184
11
321.9287989182
21
249.7382424184
0
INSERT
5
27B
100
AcDbEntity
8
0
100
AcDbBlockReference
62
2
6
CONTINUOUS
2
_FILLED
10
321.9287989182
20
267.2373849184
41
  3.500000
42
  3.500000
43
  3.500000
50
 90.000000
0
INSERT
5
27C
100
AcDbEntity
8
0
100
AcDbBlockReference
62
2
6
CONTINUOUS
2
_FILLED
10
321.9287989182
20
232.2390999184
41
  3.500000
42
  3.500000
43
  3.500000
50
270.000000
0
ENDBLK
5
27D
100
AcDbEntity
8
0
6
BYBLOCK
62
0
100
AcDbBlockEnd
0
BLOCK
5
27E
100
AcDbEntity
8
0
100
AcDbBlockBegin
62
2
6
CONTINUOUS
2
*D11
70
65
10
0.0000000000
20
0.0000000000
3
*D11
1

0
TEXT
5
27F
100
AcDbEntity
8
0
100
AcDbText
62
5
6
CONTINUOUS
10
439.6891020787
20
330.6732800727
7
STANDARD
40
3.5000000000
1
10.5
50
90.0000000000
41
0.7143000000
72
0
100
AcDbText
0
LINE
5
280
100
AcDbEntity
8
0
100
AcDbLine
62
2
6
CONTINUOUS
10
392.4261039182
20
322.4846776684
11
442.0641020787
21
322.4846776684
0
LINE
5
281
100
AcDbEntity
8
0
100
AcDbLine
62
2
6
CONTINUOUS
10
392.4261039182
20
311.9851921684
11
442.0641020787
21
311.9851921684
0
LINE
5
282
100
AcDbEntity
8
0
100
AcDbLine
62
2
6
CONTINUOUS
10
440.5641020787
20
322.4846776684
11
440.5641020787
21
317.2349349184
0
LINE
5
283
100
AcDbEntity
8
0
100
AcDbLine
62
2
6
CONTINUOUS
10
440.5641020787
20
317.2349349184
11
440.5641020787
21
340.6734800727
0
LINE
5
284
100
AcDbEntity
8
0
100
AcDbLine
62
2
6
CONTINUOUS
10
440.5641020787
20
311.9851921684
11
440.5641020787
21
317.2349349184
0
INSERT
5
285
100
AcDbEntity
8
0
100
AcDbBlockReference
62
2
6
CONTINUOUS
2
_FILLED
10
440.5641020787
20
322.4846776684
41
  3.500000
42
  3.500000
43
  3.500000
50
 90.000000
0
INSERT
5
286
100
AcDbEntity
8
0
100
AcDbBlockReference
62
2
6
CONTINUOUS
2
_FILLED
10
440.5641020787
20
311.9851921684
41
  3.500000
42
  3.500000
43
  3.500000
50
270.000000
0
ENDBLK
5
287
100
AcDbEntity
8
0
6
BYBLOCK
62
0
100
AcDbBlockEnd
0
BLOCK
5
288
100
AcDbEntity
8
0
100
AcDbBlockBegin
2
_FILLED
70
64
10
0.0000000000
20
0.0000000000
3
_FILLED
1

0
SOLID
5
289
100
AcDbEntity
8
0
6
BYBLOCK
62
0
100
AcDbTrace
10
0.0000000000
20
0.0000000000
11
-1.0000000000
21
0.1857142857
12
-1.0000000000
22
-0.1857142857
13
-1.0000000000
23
-0.1857142857
0
ENDBLK
5
28A
100
AcDbEntity
8
0
6
BYBLOCK
62
0
100
AcDbBlockEnd
0
ENDSEC
0
SECTION
2
ENTITIES
0
TEXT
5
28B
100
AcDbEntity
8
0
100
AcDbText
62
7
6
CONTINUOUS
10
410.0662515306
20
350.8826530612
7
STANDARD
40
3.5000000000
1
A
41
0.7143000000
72
2
11
412.5663015306
21
350.8826530612
100
AcDbText
0
LINE
5
28C
100
AcDbEntity
8
0
100
AcDbLine
62
7
6
CONTINUOUS
10
391.9261039182
20
349.1326530612
11
413.8163265306
21
349.1326530612
0
SOLID
5
28D
100
AcDbEntity
8
0
100
AcDbTrace
62
7
6
CONTINUOUS
10
398.9261039182
20
350.1326530612
11
391.9261039182
21
349.1326530612
12
398.9261039182
22
348.1326530612
13
398.9261039182
23
348.1326530612
0
TEXT
5
28E
100
AcDbEntity
8
0
100
AcDbText
62
7
6
CONTINUOUS
10
407.8621698980
20
86.9952239965
7
STANDARD
40
3.5000000000
1
A
41
0.7143000000
72
0
100
AcDbText
0
LINE
5
28F
100
AcDbEntity
8
0
100
AcDbLine
62
7
6
CONTINUOUS
10
391.9261039182
20
92.2452239965
11
411.6122448980
21
92.2452239965
0
SOLID
5
290
100
AcDbEntity
8
0
100
AcDbTrace
62
7
6
CONTINUOUS
10
398.9261039182
20
93.2452239965
11
391.9261039182
21
92.2452239965
12
398.9261039182
22
91.2452239965
13
398.9261039182
23
91.2452239965
0
DIMENSION
5
291
100
AcDbEntity
8
0
100
AcDbDimension
62
2
6
CONTINUOUS
2
*D0
10
380.1167879629
20
316.2667491090
11
392.1953365461
21
364.2205514807
70
162
42
0.279253
3
DIMSTYLE_1
100
AcDb2LineAngularDimension
13
403.6993536424
23
316.0101245404
14
409.5289579640
24
357.4899146235
15
374.3232498724
25
357.4899146235
16
391.9261039182
26
357.2208260880
0
DIMENSION
5
292
100
AcDbEntity
8
0
100
AcDbDimension
62
2
6
CONTINUOUS
2
*D1
10
321.9287989182
20
317.2349349184
11
319.3037989182
21
292.5600696679
70
160
42
49.997550
3
DIMSTYLE_2
100
AcDbAlignedDimension
13
388.4260039182
23
267.2373849184
14
391.4261039182
24
317.2349349184
50
90.000000
100
AcDbRotatedDimension
0
DIMENSION
5
293
100
AcDbEntity
8
0
100
AcDbDimension
62
2
6
CONTINUOUS
2
*D2
10
321.9287989182
20
337.2339549184
11
319.3037989182
21
327.4497747151
70
160
42
19.999020
3
DIMSTYLE_3
100
AcDbAlignedDimension
13
391.4261039182
23
317.2349349184
14
391.4261039182
24
337.2339549184
50
90.000000
100
AcDbRotatedDimension
0
DIMENSION
5
294
100
AcDbEntity
8
0
100
AcDbDimension
62
2
6
CONTINUOUS
2
*D3
10
170.7548790714
20
92.0864033925
11
140.6755897164
21
94.7114033925
70
160
42
61.296996
1
60.3
3
DIMSTYLE_4
100
AcDbAlignedDimension
13
109.4578827714
23
106.7452249184
14
170.7548790714
24
106.7452249184
100
AcDbRotatedDimension
0
DIMENSION
5
295
100
AcDbEntity
8
0
100
AcDbDimension
62
2
6
CONTINUOUS
2
*D4
10
217.1033429214
20
107.2452249184
11
214.4783429214
21
146.3537919806
70
160
42
76.996227
3
DIMSTYLE_5
100
AcDbAlignedDimension
13
170.6680928401
23
184.2414519184
14
179.1327477188
24
107.2452249184
50
270.000000
100
AcDbRotatedDimension
0
DIMENSION
5
296
100
AcDbEntity
8
0
100
AcDbDimension
62
2
6
CONTINUOUS
2
*D5
10
217.1033429214
20
212.2400799184
11
214.4783429214
21
268.9980500549
70
160
42
124.993875
3
DIMSTYLE_3
100
AcDbAlignedDimension
13
202.6033429214
23
337.2339549184
14
202.6033429214
24
212.2400799184
50
270.000000
100
AcDbRotatedDimension
0
DIMENSION
5
297
100
AcDbEntity
8
0
100
AcDbDimension
62
2
6
CONTINUOUS
2
*D6
10
229.1033429214
20
107.2452249184
11
226.4783429214
21
220.5920639128
70
160
42
229.988730
3
DIMSTYLE_3
100
AcDbAlignedDimension
13
202.6033429214
23
337.2339549184
14
179.6044699214
24
107.2452249184
50
270.000000
100
AcDbRotatedDimension
0
DIMENSION
5
298
100
AcDbEntity
8
0
100
AcDbDimension
62
2
6
CONTINUOUS
2
*D7
10
202.1033429214
20
77.4210177578
11
166.3248267767
21
80.0460177578
70
160
42
61.996962
3
DIMSTYLE_5
100
AcDbAlignedDimension
13
140.1063809214
23
103.7452249184
14
202.1033429214
24
231.7390999184
100
AcDbRotatedDimension
0
DIMENSION
5
299
100
AcDbEntity
8
0
100
AcDbDimension
62
2
6
CONTINUOUS
2
*D8
10
430.9241929182
20
371.1734693878
11
391.2244897959
21
373.7984693878
70
160
42
77.996178
3
DIMSTYLE_5
100
AcDbAlignedDimension
13
352.9280149182
23
279.2108983055
14
430.9241929182
24
279.8695454471
100
AcDbRotatedDimension
0
DIMENSION
5
29A
100
AcDbEntity
8
0
100
AcDbDimension
62
2
6
CONTINUOUS
2
*D9
10
397.1758466682
20
280.9751240014
11
441.0389853129
21
283.6001240014
70
160
42
10.499485
3
DIMSTYLE_6
100
AcDbAlignedDimension
13
386.6763611682
23
267.7373849184
14
397.1758466682
24
267.7373849184
100
AcDbRotatedDimension
0
DIMENSION
5
29B
100
AcDbEntity
8
0
100
AcDbDimension
62
2
6
CONTINUOUS
2
*D10
10
321.9287989182
20
232.2390999184
11
319.3037989182
21
250.2756427246
70
160
42
34.998285
3
DIMSTYLE_5
100
AcDbAlignedDimension
13
388.4260039182
23
267.2373849184
14
388.4260039182
24
232.2390999184
50
270.000000
100
AcDbRotatedDimension
0
DIMENSION
5
29C
100
AcDbEntity
8
0
100
AcDbDimension
62
2
6
CONTINUOUS
2
*D11
10
440.5641020787
20
311.9851921684
11
437.9391020787
21
335.6733800727
70
160
42
10.499485
3
DIMSTYLE_6
100
AcDbAlignedDimension
13
392.4261039182
23
322.4846776684
14
392.4261039182
24
311.9851921684
50
270.000000
100
AcDbRotatedDimension
0
MTEXT
5
29D
100
AcDbEntity
8
0
100
AcDbMText
62
5
6
CONTINUOUS
7
STANDARD
71
1
72
1
10
125.3073433008
20
66.9003423184
30
0.0000000000
11
1.0000000000
21
0.0000000000
31
0.0000000000
1
SEZIONE A-A
40
3.5000000000
41
27.5005500000
0
TEXT
5
29E
100
AcDbEntity
8
0
100
AcDbText
62
5
6
CONTINUOUS
10
452.1232630343
20
156.2278974670
7
STANDARD
40
3.5000000000
1
M8
41
0.7143000000
72
0
100
AcDbText
0
LINE
5
29F
100
AcDbEntity
8
0
100
AcDbLine
62
2
6
CONTINUOUS
10
438.2069941627
20
132.4559252246
11
450.6232630343
21
157.9778974670
0
LINE
5
2A0
100
AcDbEntity
8
0
100
AcDbLine
62
2
6
CONTINUOUS
10
450.6232630343
20
157.9778974670
11
452.1232630343
21
157.9778974670
0
SOLID
5
2A1
100
AcDbEntity
8
0
100
AcDbTrace
62
2
6
CONTINUOUS
10
439.1536403185
20
135.8875955257
11
438.2069941627
21
132.4559252246
12
440.3226427938
22
135.3188836367
13
440.3226427938
23
135.3188836367
0
LINE
5
2A2
100
AcDbEntity
8
0
100
AcDbLine
62
7
6
CONTINUOUS
10
0.0000000000
20
0.0000000000
11
0.0000000000
21
420.0000000000
0
LINE
5
2A3
100
AcDbEntity
8
0
100
AcDbLine
62
7
6
CONTINUOUS
10
0.0000000000
20
0.0000000000
11
594.0000000000
21
0.0000000000
0
LINE
5
2A4
100
AcDbEntity
8
DEFAULT_1
100
AcDbLine
62
2
6
CENTER
10
202.1058174214
20
232.2395128757
11
202.1058174214
21
263.8974289299
0
LINE
5
2A5
100
AcDbEntity
8
DEFAULT_3
100
AcDbLine
62
2
6
PHANTOM
10
403.7552378438
20
316.4077612950
11
391.9261039182
21
232.2390999184
0
LINE
5
2A6
100
AcDbEntity
8
DEFAULT_3
100
AcDbLine
62
2
6
PHANTOM
10
380.0969699925
20
316.4077612950
11
391.9261039182
21
232.2390999184
0
LINE
5
2A7
100
AcDbEntity
8
0
100
AcDbLine
62
7
6
CONTINUOUS
10
320.1432652048
20
421.2972072566
11
319.9577511244
21
421.5462156262
0
LINE
5
2A8
100
AcDbEntity
8
0
100
AcDbLine
62
7
6
CONTINUOUS
10
0.0000000000
20
420.0000000000
11
594.0000000000
21
420.0000000000
0
LINE
5
2A9
100
AcDbEntity
8
0
100
AcDbLine
62
7
6
CONTINUOUS
10
594.0000000000
20
0.0000000000
11
594.0000000000
21
420.0000000000
0
LINE
5
2AA
100
AcDbEntity
8
0
100
AcDbLine
62
7
6
CONTINUOUS
10
179.1044699214
20
107.2452249184
11
101.1082919214
21
107.2452249184
0
LINE
5
2AB
100
AcDbEntity
8
0
100
AcDbLine
62
4
6
CONTINUOUS
10
101.7779812952
20
134.2339549184
11
101.1082919214
21
134.2339549184
0
LINE
5
2AC
100
AcDbEntity
8
0
100
AcDbLine
62
4
6
CONTINUOUS
10
101.1082919214
20
148.2339549184
11
101.7779812263
21
148.2339549184
0
LINE
5
2AD
100
AcDbEntity
8
0
100
AcDbLine
62
7
6
CONTINUOUS
10
101.1082919214
20
107.2452249184
11
101.1082919214
21
187.4861795462
0
LINE
5
2AE
100
AcDbEntity
8
0
100
AcDbLine
62
2
6
CONTINUOUS
10
184.6959044675
20
333.2308217622
11
180.1044209214
21
328.6393382161
0
LINE
5
2AF
100
AcDbEntity
8
0
100
AcDbLine
62
2
6
CONTINUOUS
10
189.0984129260
20
334.8049030959
11
180.1044209214
21
325.8109110913
0
LINE
5
2B0
100
AcDbEntity
8
0
100
AcDbLine
62
2
6
CONTINUOUS
10
193.2552295774
20
336.1332926226
11
180.1044209214
21
322.9824839666
0
LINE
5
2B1
100
AcDbEntity
8
0
100
AcDbLine
62
7
6
CONTINUOUS
10
109.4578827714
20
184.2414519184
11
109.4578827714
21
107.2452249184
0
LINE
5
2B2
100
AcDbEntity
8
0
100
AcDbLine
62
7
6
CONTINUOUS
10
106.4510581329
20
189.4307874159
11
106.4547884072
21
210.7402881302
0
LINE
5
2B3
100
AcDbEntity
8
0
100
AcDbLine
62
2
6
CONTINUOUS
10
197.1843189980
20
337.2339549184
11
182.4350417480
21
322.4846776684
0
LINE
5
2B4
100
AcDbEntity
8
0
100
AcDbLine
62
2
6
CONTINUOUS
10
200.0127461227
20
337.2339549184
11
185.2634688727
21
322.4846776684
0
LINE
5
2B5
100
AcDbEntity
8
0
100
AcDbLine
62
2
6
CONTINUOUS
10
202.1033429214
20
336.4961245923
11
188.0918959975
21
322.4846776684
0
LINE
5
2B6
100
AcDbEntity
8
0
100
AcDbLine
62
2
6
CONTINUOUS
10
202.1033429214
20
333.6676974676
11
190.9203231222
21
322.4846776684
0
LINE
5
2B7
100
AcDbEntity
8
0
100
AcDbLine
62
2
6
CONTINUOUS
10
180.4208376222
20
311.9851921684
11
180.1044209214
21
311.6687754676
0
LINE
5
2B8
100
AcDbEntity
8
0
100
AcDbLine
62
2
6
CONTINUOUS
10
202.1033429214
20
330.8392703428
11
193.7487502470
21
322.4846776684
0
LINE
5
2B9
100
AcDbEntity
8
0
100
AcDbLine
62
2
6
CONTINUOUS
10
183.2492647470
20
311.9851921684
11
180.1044209214
21
308.8403483428
0
LINE
5
2BA
100
AcDbEntity
8
0
100
AcDbLine
62
2
6
CONTINUOUS
10
202.1033429214
20
328.0108432181
11
196.5771773717
21
322.4846776684
0
LINE
5
2BB
100
AcDbEntity
8
0
100
AcDbLine
62
2
6
CONTINUOUS
10
186.0776918717
20
311.9851921684
11
180.1044209214
21
306.0119212181
0
LINE
5
2BC
100
AcDbEntity
8
0
100
AcDbLine
62
2
6
CONTINUOUS
10
202.1033429214
20
325.1824160933
11
199.4056044965
21
322.4846776684
0
LINE
5
2BD
100
AcDbEntity
8
0
100
AcDbLine
62
2
6
CONTINUOUS
10
188.9061189965
20
311.9851921684
11
180.1044209214
21
303.1834940933
0
LINE
5
2BE
100
AcDbEntity
8
0
100
AcDbLine
62
2
6
CONTINUOUS
10
191.7345461212
20
311.9851921684
11
180.1044209214
21
300.3550669686
0
LINE
5
2BF
100
AcDbEntity
8
0
100
AcDbLine
62
2
6
CONTINUOUS
10
194.5629732460
20
311.9851921684
11
180.1044209214
21
297.5266398439
0
LINE
5
2C0
100
AcDbEntity
8
0
100
AcDbLine
62
7
6
CONTINUOUS
10
109.4578827714
20
184.2414519184
11
170.7548790714
21
184.2414519184
0
LINE
5
2C1
100
AcDbEntity
8
0
100
AcDbLine
62
2
6
CONTINUOUS
10
197.3914003707
20
311.9851921684
11
180.1044209214
21
294.6982127191
0
LINE
5
2C2
100
AcDbEntity
8
0
100
AcDbLine
62
2
6
CONTINUOUS
10
200.2198274955
20
311.9851921684
11
180.1044209214
21
291.8697855944
0
LINE
5
2C3
100
AcDbEntity
8
0
100
AcDbLine
62
2
6
CONTINUOUS
10
202.1033429214
20
311.0402804696
11
180.1044209214
21
289.0413584696
0
LINE
5
2C4
100
AcDbEntity
8
0
100
AcDbLine
62
2
6
CONTINUOUS
10
202.1033429214
20
308.2118533449
11
180.1044209214
21
286.2129313449
0
LINE
5
2C5
100
AcDbEntity
8
0
100
AcDbLine
62
2
6
CONTINUOUS
10
202.1033429214
20
305.3834262201
11
180.1044209214
21
283.3845042201
0
LINE
5
2C6
100
AcDbEntity
8
0
100
AcDbLine
62
2
6
CONTINUOUS
10
202.1033429214
20
302.5549990954
11
180.1044209214
21
280.5560770954
0
LINE
5
2C7
100
AcDbEntity
8
0
100
AcDbLine
62
2
6
CONTINUOUS
10
202.1033429214
20
299.7265719706
11
180.1044209214
21
277.7276499706
0
LINE
5
2C8
100
AcDbEntity
8
0
100
AcDbLine
62
2
6
CONTINUOUS
10
202.1033429214
20
296.8981448459
11
180.1044209214
21
274.8992228459
0
LINE
5
2C9
100
AcDbEntity
8
DEFAULT_1
100
AcDbLine
62
2
6
CENTER
10
140.1063809214
20
104.2452249184
11
140.1063809214
21
202.0393649005
0
LINE
5
2CA
100
AcDbEntity
8
0
100
AcDbLine
62
2
6
CONTINUOUS
10
202.1033429214
20
294.0697177211
11
180.5207528687
21
272.4871276684
0
LINE
5
2CB
100
AcDbEntity
8
0
100
AcDbLine
62
2
6
CONTINUOUS
10
202.1033429214
20
291.2412905964
11
183.3491799934
21
272.4871276684
0
LINE
5
2CC
100
AcDbEntity
8
0
100
AcDbLine
62
2
6
CONTINUOUS
10
202.1033429214
20
288.4128634716
11
186.1776071182
21
272.4871276684
0
LINE
5
2CD
100
AcDbEntity
8
0
100
AcDbLine
62
2
6
CONTINUOUS
10
101.2157822910
20
187.5253028412
11
101.1082919214
21
187.4178124716
0
LINE
5
2CE
100
AcDbEntity
8
0
100
AcDbLine
62
2
6
CONTINUOUS
10
202.1033429214
20
285.5844363469
11
189.0060342429
21
272.4871276684
0
LINE
5
2CF
100
AcDbEntity
8
0
100
AcDbLine
62
2
6
CONTINUOUS
10
105.6627866249
20
189.1438800505
11
101.1082919214
21
184.5893853469
0
LINE
5
2D0
100
AcDbEntity
8
0
100
AcDbLine
62
7
6
CONTINUOUS
10
202.1033429214
20
212.2400799184
11
197.1035879214
21
212.2400799184
0
LINE
5
2D1
100
AcDbEntity
8
0
100
AcDbLine
62
2
6
CONTINUOUS
10
202.1033429214
20
282.7560092222
11
191.8344613677
21
272.4871276684
0
LINE
5
2D2
100
AcDbEntity
8
0
100
AcDbLine
62
2
6
CONTINUOUS
10
110.1097909589
20
190.7624572597
11
101.1082919214
21
181.7609582222
0
LINE
5
2D3
100
AcDbEntity
8
0
100
AcDbLine
62
2
6
CONTINUOUS
10
202.1033429214
20
279.9275820974
11
194.6628884924
21
272.4871276684
0
LINE
5
2D4
100
AcDbEntity
8
0
100
AcDbLine
62
2
6
CONTINUOUS
10
114.5567952929
20
192.3810344689
11
101.1082919214
21
178.9325310974
0
LINE
5
2D5
100
AcDbEntity
8
0
100
AcDbLine
62
2
6
CONTINUOUS
10
202.1033429214
20
277.0991549727
11
197.4913156172
21
272.4871276684
0
LINE
5
2D6
100
AcDbEntity
8
0
100
AcDbLine
62
2
6
CONTINUOUS
10
119.0037996268
20
193.9996116781
11
101.1082919214
21
176.1041039727
0
LINE
5
2D7
100
AcDbEntity
8
0
100
AcDbLine
62
2
6
CONTINUOUS
10
202.1033429214
20
274.2707278479
11
200.3197427419
21
272.4871276684
0
LINE
5
2D8
100
AcDbEntity
8
0
100
AcDbLine
62
2
6
CONTINUOUS
10
123.4508039608
20
195.6181888873
11
112.0740669919
21
184.2414519184
0
LINE
5
2D9
100
AcDbEntity
8
0
100
AcDbLine
62
2
6
CONTINUOUS
10
109.4578827714
20
181.6252676979
11
101.1082919214
21
173.2756768479
0
LINE
5
2DA
100
AcDbEntity
8
0
100
AcDbLine
62
2
6
CONTINUOUS
10
127.8978082948
20
197.2367660965
11
114.9024941167
21
184.2414519184
0
LINE
5
2DB
100
AcDbEntity
8
0
100
AcDbLine
62
2
6
CONTINUOUS
10
109.4578827714
20
178.7968405732
11
101.1082919214
21
170.4472497232
0
LINE
5
2DC
100
AcDbEntity
8
0
100
AcDbLine
62
2
6
CONTINUOUS
10
132.3448126287
20
198.8553433057
11
117.7309212414
21
184.2414519184
0
LINE
5
2DD
100
AcDbEntity
8
0
100
AcDbLine
62
2
6
CONTINUOUS
10
109.4578827714
20
175.9684134484
11
101.1082919214
21
167.6188225984
0
LINE
5
2DE
100
AcDbEntity
8
0
100
AcDbLine
62
2
6
CONTINUOUS
10
136.7918169627
20
200.4739205150
11
120.6850477834
21
184.3671513357
0
LINE
5
2DF
100
AcDbEntity
8
0
100
AcDbLine
62
2
6
CONTINUOUS
10
109.4578827714
20
173.1399863237
11
101.1082919214
21
164.7903954737
0
LINE
5
2E0
100
AcDbEntity
8
0
100
AcDbLine
62
2
6
CONTINUOUS
10
141.2388212966
20
202.0924977242
11
125.1320521174
21
185.9857285449
0
LINE
5
2E1
100
AcDbEntity
8
0
100
AcDbLine
62
2
6
CONTINUOUS
10
109.4578827714
20
170.3115591989
11
101.1082919214
21
161.9619683489
0
LINE
5
2E2
100
AcDbEntity
8
0
100
AcDbLine
62
2
6
CONTINUOUS
10
145.6858256306
20
203.7110749334
11
129.5790564514
21
187.6043057541
0
LINE
5
2E3
100
AcDbEntity
8
0
100
AcDbLine
62
2
6
CONTINUOUS
10
109.4578827714
20
167.4831320742
11
101.1082919214
21
159.1335412242
0
LINE
5
2E4
100
AcDbEntity
8
0
100
AcDbLine
62
7
6
CONTINUOUS
10
202.1033429214
20
226.9893571684
11
180.1044209214
21
226.9893571684
0
LINE
5
2E5
100
AcDbEntity
8
0
100
AcDbLine
62
7
6
CONTINUOUS
10
169.2549525714
20
199.1889949047
11
169.2549525714
21
184.2414519184
0
LINE
5
2E6
100
AcDbEntity
8
0
100
AcDbLine
62
2
6
CONTINUOUS
10
150.1328299646
20
205.3296521426
11
134.0260607853
21
189.2228829634
0
LINE
5
2E7
100
AcDbEntity
8
0
100
AcDbLine
62
2
6
CONTINUOUS
10
109.4578827714
20
164.6547049494
11
101.1082919214
21
156.3051140994
0
LINE
5
2E8
100
AcDbEntity
8
0
100
AcDbLine
62
2
6
CONTINUOUS
10
154.5798342985
20
206.9482293518
11
138.4730651193
21
190.8414601726
0
LINE
5
2E9
100
AcDbEntity
8
0
100
AcDbLine
62
2
6
CONTINUOUS
10
109.4578827714
20
161.8262778247
11
101.1082919214
21
153.4766869747
0
LINE
5
2EA
100
AcDbEntity
8
0
100
AcDbLine
62
2
6
CONTINUOUS
10
159.0268386325
20
208.5668065610
11
142.9200694532
21
192.4600373818
0
LINE
5
2EB
100
AcDbEntity
8
0
100
AcDbLine
62
2
6
CONTINUOUS
10
109.4578827714
20
158.9978506999
11
101.1082919214
21
150.6482598499
0
LINE
5
2EC
100
AcDbEntity
8
0
100
AcDbLine
62
2
6
CONTINUOUS
10
180.2778163646
20
226.9893571684
11
180.1044209214
21
226.8159617252
0
LINE
5
2ED
100
AcDbEntity
8
0
100
AcDbLine
62
2
6
CONTINUOUS
10
163.4738429664
20
210.1853837702
11
147.3670737872
21
194.0786145910
0
LINE
5
2EE
100
AcDbEntity
8
0
100
AcDbLine
62
2
6
CONTINUOUS
10
109.4578827714
20
156.1694235752
11
101.1082919214
21
147.8198327252
0
LINE
5
2EF
100
AcDbEntity
8
0
100
AcDbLine
62
7
6
CONTINUOUS
10
101.1082919214
20
187.4861795462
11
180.1044209214
21
216.2384191245
0
LINE
5
2F0
100
AcDbEntity
8
0
100
AcDbLine
62
7
6
CONTINUOUS
10
180.1044209214
20
232.2390999184
11
202.1033429214
21
232.2390999184
0
LINE
5
2F1
100
AcDbEntity
8
0
100
AcDbLine
62
7
6
CONTINUOUS
10
170.7548790714
20
184.2414519184
11
170.7548790714
21
107.2452249184
0
LINE
5
2F2
100
AcDbEntity
8
0
100
AcDbLine
62
2
6
CONTINUOUS
10
183.1062434894
20
226.9893571684
11
180.1044209214
21
223.9875346005
0
LINE
5
2F3
100
AcDbEntity
8
0
100
AcDbLine
62
2
6
CONTINUOUS
10
167.9208473004
20
211.8039609795
11
151.8140781212
21
195.6971918002
0
LINE
5
2F4
100
AcDbEntity
8
0
100
AcDbLine
62
2
6
CONTINUOUS
10
109.4578827714
20
153.3409964505
11
101.1082919214
21
144.9914056005
0
LINE
5
2F5
100
AcDbEntity
8
0
100
AcDbLine
62
2
6
CONTINUOUS
10
185.9346706141
20
226.9893571684
11
180.1044209214
21
221.1591074757
0
LINE
5
2F6
100
AcDbEntity
8
0
100
AcDbLine
62
2
6
CONTINUOUS
10
172.3678516344
20
213.4225381887
11
156.2610824551
21
197.3157690094
0
LINE
5
2F7
100
AcDbEntity
8
0
100
AcDbLine
62
2
6
CONTINUOUS
10
109.4578827714
20
150.5125693257
11
101.1082919214
21
142.1629784757
0
LINE
5
2F8
100
AcDbEntity
8
0
100
AcDbLine
62
2
6
CONTINUOUS
10
188.7630977389
20
226.9893571684
11
180.1044209214
21
218.3306803510
0
LINE
5
2F9
100
AcDbEntity
8
0
100
AcDbLine
62
2
6
CONTINUOUS
10
176.8148559683
20
215.0411153979
11
160.7080867891
21
198.9343462186
0
LINE
5
2FA
100
AcDbEntity
8
0
100
AcDbLine
62
2
6
CONTINUOUS
10
109.4578827714
20
147.6841422010
11
101.1082919214
21
139.3345513510
0
LINE
5
2FB
100
AcDbEntity
8
0
100
AcDbLine
62
2
6
CONTINUOUS
10
191.5915248636
20
226.9893571684
11
165.1550911230
21
200.5529234279
0
LINE
5
2FC
100
AcDbEntity
8
0
100
AcDbLine
62
2
6
CONTINUOUS
10
109.4578827714
20
144.8557150762
11
101.1082919214
21
136.5061242262
0
LINE
5
2FD
100
AcDbEntity
8
0
100
AcDbLine
62
7
6
CONTINUOUS
10
120.3396914728
20
184.2414519184
11
166.5710438027
21
201.0682880564
0
LINE
5
2FE
100
AcDbEntity
8
0
100
AcDbLine
62
7
6
CONTINUOUS
10
179.1044699214
20
107.2452249184
11
179.1044699214
21
167.2422849184
0
LINE
5
2FF
100
AcDbEntity
8
0
100
AcDbLine
62
7
6
CONTINUOUS
10
180.1044209214
20
216.2384191245
11
180.1044209214
21
311.9851921684
0
LINE
5
300
100
AcDbEntity
8
0
100
AcDbLine
62
7
6
CONTINUOUS
10
180.1044209214
20
312.2151303162
11
180.1044209214
21
331.3986084968
0
LINE
5
301
100
AcDbEntity
8
0
100
AcDbLine
62
2
6
CONTINUOUS
10
194.4199519884
20
226.9893571684
11
168.3110983509
21
200.8805035310
0
LINE
5
302
100
AcDbEntity
8
0
100
AcDbLine
62
2
6
CONTINUOUS
10
109.4578827714
20
142.0272879515
11
101.1082919214
21
133.6776971015
0
LINE
5
303
100
AcDbEntity
8
0
100
AcDbLine
62
2
6
CONTINUOUS
10
197.2483791131
20
226.9893571684
11
169.2549525714
21
198.9959306267
0
LINE
5
304
100
AcDbEntity
8
0
100
AcDbLine
62
2
6
CONTINUOUS
10
109.4578827714
20
139.1988608267
11
101.1082919214
21
130.8492699767
0
LINE
5
305
100
AcDbEntity
8
0
100
AcDbLine
62
2
6
CONTINUOUS
10
200.0768062379
20
226.9893571684
11
169.2549525714
21
196.1675035020
0
LINE
5
306
100
AcDbEntity
8
0
100
AcDbLine
62
2
6
CONTINUOUS
10
109.4578827714
20
136.3704337020
11
101.1082919214
21
128.0208428520
0
LINE
5
307
100
AcDbEntity
8
0
100
AcDbLine
62
2
6
CONTINUOUS
10
202.1033429214
20
226.1874667272
11
169.2549525714
21
193.3390763772
0
LINE
5
308
100
AcDbEntity
8
0
100
AcDbLine
62
2
6
CONTINUOUS
10
109.4578827714
20
133.5420065772
11
101.1082919214
21
125.1924157272
0
LINE
5
309
100
AcDbEntity
8
0
100
AcDbLine
62
2
6
CONTINUOUS
10
202.1033429214
20
223.3590396025
11
169.2549525714
21
190.5106492525
0
LINE
5
30A
100
AcDbEntity
8
0
100
AcDbLine
62
2
6
CONTINUOUS
10
109.4578827714
20
130.7135794525
11
101.1082919214
21
122.3639886025
0
LINE
5
30B
100
AcDbEntity
8
0
100
AcDbLine
62
2
6
CONTINUOUS
10
202.1033429214
20
220.5306124777
11
169.2549525714
21
187.6822221277
0
LINE
5
30C
100
AcDbEntity
8
0
100
AcDbLine
62
2
6
CONTINUOUS
10
109.4578827714
20
127.8851523277
11
101.1082919214
21
119.5355614777
0
LINE
5
30D
100
AcDbEntity
8
0
100
AcDbLine
62
2
6
CONTINUOUS
10
202.1033429214
20
217.7021853530
11
169.2549525714
21
184.8537950030
0
LINE
5
30E
100
AcDbEntity
8
0
100
AcDbLine
62
2
6
CONTINUOUS
10
109.4578827714
20
125.0567252030
11
101.1082919214
21
116.7071343530
0
LINE
5
30F
100
AcDbEntity
8
0
100
AcDbLine
62
2
6
CONTINUOUS
10
202.1033429214
20
214.8737582282
11
199.4696646116
21
212.2400799184
0
LINE
5
310
100
AcDbEntity
8
0
100
AcDbLine
62
2
6
CONTINUOUS
10
195.0892775954
20
207.8596929023
11
170.7548790714
21
183.5252943782
0
LINE
5
311
100
AcDbEntity
8
0
100
AcDbLine
62
2
6
CONTINUOUS
10
109.4578827714
20
122.2282980782
11
101.1082919214
21
113.8787072282
0
LINE
5
312
100
AcDbEntity
8
0
100
AcDbLine
62
2
6
CONTINUOUS
10
192.7790785066
20
202.7210666887
11
170.7548790714
21
180.6968672535
0
LINE
5
313
100
AcDbEntity
8
0
100
AcDbLine
62
2
6
CONTINUOUS
10
109.4578827714
20
119.3998709535
11
101.1082919214
21
111.0502801035
0
LINE
5
314
100
AcDbEntity
8
0
100
AcDbLine
62
7
6
CONTINUOUS
10
202.1033429214
20
212.2400799184
11
202.1033429214
21
337.2339549184
0
LINE
5
315
100
AcDbEntity
8
0
100
AcDbLine
62
2
6
CONTINUOUS
10
190.5961850358
20
197.7097460931
11
170.7548790714
21
177.8684401288
0
LINE
5
316
100
AcDbEntity
8
0
100
AcDbLine
62
2
6
CONTINUOUS
10
109.4578827714
20
116.5714438288
11
101.1082919214
21
108.2218529788
0
LINE
5
317
100
AcDbEntity
8
0
100
AcDbLine
62
2
6
CONTINUOUS
10
188.6074201796
20
192.8925541122
11
170.7548790714
21
175.0400130040
0
LINE
5
318
100
AcDbEntity
8
0
100
AcDbLine
62
2
6
CONTINUOUS
10
109.4578827714
20
113.7430167040
11
102.9600909858
21
107.2452249184
0
LINE
5
319
100
AcDbEntity
8
0
100
AcDbLine
62
2
6
CONTINUOUS
10
186.7014668608
20
188.1581736687
11
170.7548790714
21
172.2115858793
0
LINE
5
31A
100
AcDbEntity
8
0
100
AcDbLine
62
2
6
CONTINUOUS
10
109.4578827714
20
110.9145895793
11
105.7885181106
21
107.2452249184
0
LINE
5
31B
100
AcDbEntity
8
0
100
AcDbLine
62
2
6
CONTINUOUS
10
184.9057307391
20
183.5340104223
11
170.7548790714
21
169.3831587545
0
LINE
5
31C
100
AcDbEntity
8
0
100
AcDbLine
62
2
6
CONTINUOUS
10
109.4578827714
20
108.0861624545
11
108.6169452353
21
107.2452249184
0
LINE
5
31D
100
AcDbEntity
8
0
100
AcDbLine
62
7
6
CONTINUOUS
10
180.1044209214
20
267.2373849184
11
202.1033429214
21
267.2373849184
0
LINE
5
31E
100
AcDbEntity
8
0
100
AcDbLine
62
7
6
CONTINUOUS
10
202.1033429214
20
272.4871276684
11
180.1044209214
21
272.4871276684
0
LINE
5
31F
100
AcDbEntity
8
0
100
AcDbLine
62
2
6
CONTINUOUS
10
183.2397174515
20
179.0395700099
11
170.7548790714
21
166.5547316298
0
LINE
5
320
100
AcDbEntity
8
0
100
AcDbLine
62
2
6
CONTINUOUS
10
181.6226339589
20
174.5940593926
11
170.7548790714
21
163.7263045050
0
LINE
5
321
100
AcDbEntity
8
0
100
AcDbLine
62
2
6
CONTINUOUS
10
180.1491094452
20
170.2921077540
11
170.7548790714
21
160.8978773803
0
LINE
5
322
100
AcDbEntity
8
0
100
AcDbLine
62
2
6
CONTINUOUS
10
179.1044699214
20
166.4190411055
11
170.7548790714
21
158.0694502555
0
LINE
5
323
100
AcDbEntity
8
0
100
AcDbLine
62
2
6
CONTINUOUS
10
179.1044699214
20
163.5906139808
11
170.7548790714
21
155.2410231308
0
LINE
5
324
100
AcDbEntity
8
0
100
AcDbLine
62
2
6
CONTINUOUS
10
179.1044699214
20
160.7621868560
11
170.7548790714
21
152.4125960060
0
LINE
5
325
100
AcDbEntity
8
0
100
AcDbLine
62
2
6
CONTINUOUS
10
179.1044699214
20
157.9337597313
11
170.7548790714
21
149.5841688813
0
LINE
5
326
100
AcDbEntity
8
0
100
AcDbLine
62
2
6
CONTINUOUS
10
179.1044699214
20
155.1053326065
11
170.7548790714
21
146.7557417565
0
LINE
5
327
100
AcDbEntity
8
0
100
AcDbLine
62
2
6
CONTINUOUS
10
179.1044699214
20
152.2769054818
11
170.7548790714
21
143.9273146318
0
LINE
5
328
100
AcDbEntity
8
0
100
AcDbLine
62
2
6
CONTINUOUS
10
179.1044699214
20
149.4484783571
11
170.7548790714
21
141.0988875071
0
LINE
5
329
100
AcDbEntity
8
0
100
AcDbLine
62
2
6
CONTINUOUS
10
179.1044699214
20
146.6200512323
11
170.7548790714
21
138.2704603823
0
LINE
5
32A
100
AcDbEntity
8
0
100
AcDbLine
62
2
6
CONTINUOUS
10
179.1044699214
20
143.7916241076
11
170.7548790714
21
135.4420332576
0
LINE
5
32B
100
AcDbEntity
8
0
100
AcDbLine
62
2
6
CONTINUOUS
10
179.1044699214
20
140.9631969828
11
170.7548790714
21
132.6136061328
0
LINE
5
32C
100
AcDbEntity
8
0
100
AcDbLine
62
2
6
CONTINUOUS
10
179.1044699214
20
138.1347698581
11
170.7548790714
21
129.7851790081
0
LINE
5
32D
100
AcDbEntity
8
0
100
AcDbLine
62
2
6
CONTINUOUS
10
179.1044699214
20
135.3063427333
11
170.7548790714
21
126.9567518833
0
LINE
5
32E
100
AcDbEntity
8
0
100
AcDbLine
62
2
6
CONTINUOUS
10
179.1044699214
20
132.4779156086
11
170.7548790714
21
124.1283247586
0
LINE
5
32F
100
AcDbEntity
8
0
100
AcDbLine
62
2
6
CONTINUOUS
10
179.1044699214
20
129.6494884838
11
170.7548790714
21
121.2998976338
0
LINE
5
330
100
AcDbEntity
8
0
100
AcDbLine
62
2
6
CONTINUOUS
10
179.1044699214
20
126.8210613591
11
170.7548790714
21
118.4714705091
0
LINE
5
331
100
AcDbEntity
8
0
100
AcDbLine
62
2
6
CONTINUOUS
10
179.1044699214
20
123.9926342343
11
170.7548790714
21
115.6430433843
0
LINE
5
332
100
AcDbEntity
8
0
100
AcDbLine
62
2
6
CONTINUOUS
10
179.1044699214
20
121.1642071096
11
170.7548790714
21
112.8146162596
0
LINE
5
333
100
AcDbEntity
8
0
100
AcDbLine
62
2
6
CONTINUOUS
10
179.1044699214
20
118.3357799848
11
170.7548790714
21
109.9861891348
0
LINE
5
334
100
AcDbEntity
8
0
100
AcDbLine
62
7
6
CONTINUOUS
10
202.1033429214
20
311.9851921684
11
180.1044209214
21
311.9851921684
0
LINE
5
335
100
AcDbEntity
8
0
100
AcDbLine
62
2
6
CONTINUOUS
10
179.1044699214
20
115.5073528601
11
170.8423419797
21
107.2452249184
0
LINE
5
336
100
AcDbEntity
8
0
100
AcDbLine
62
2
6
CONTINUOUS
10
179.1044699214
20
112.6789257354
11
173.6707691045
21
107.2452249184
0
LINE
5
337
100
AcDbEntity
8
0
100
AcDbLine
62
2
6
CONTINUOUS
10
179.1044699214
20
109.8504986106
11
176.4991962292
21
107.2452249184
0
LINE
5
338
100
AcDbEntity
8
0
100
AcDbLine
62
7
6
CONTINUOUS
10
180.1044209214
20
321.6064139094
11
202.1033429214
21
321.6064139094
0
LINE
5
339
100
AcDbEntity
8
0
100
AcDbLine
62
7
6
CONTINUOUS
10
202.1033429214
20
322.4846776684
11
180.1044209214
21
322.4846776684
0
LINE
5
33A
100
AcDbEntity
8
0
100
AcDbLine
62
7
6
CONTINUOUS
10
202.1033429214
20
337.2339549184
11
197.1035879214
21
337.2339549184
0
LINE
5
33B
100
AcDbEntity
8
0
100
AcDbLine
62
7
6
CONTINUOUS
10
426.9807018527
20
117.0314289645
11
436.5121095479
21
119.5853619592
0
LINE
5
33C
100
AcDbEntity
8
0
100
AcDbLine
62
7
6
CONTINUOUS
10
352.9280149182
20
107.2452249184
11
430.8975228160
21
107.2452249184
0
LINE
5
33D
100
AcDbEntity
8
0
100
AcDbLine
62
7
6
CONTINUOUS
10
426.2651215373
20
118.9101407007
11
435.9944968219
21
121.5171189510
0
LINE
5
33E
100
AcDbEntity
8
DEFAULT_1
100
AcDbLine
62
2
6
CENTER
10
435.4239724182
20
129.2441469184
11
428.1741806682
21
129.2441469184
0
LINE
5
33F
100
AcDbEntity
8
DEFAULT_1
100
AcDbLine
62
2
6
CENTER
10
435.4239724182
20
129.2441469184
11
442.6737641682
21
129.2441469184
0
LINE
5
340
100
AcDbEntity
8
0
100
AcDbLine
62
4
6
CONTINUOUS
10
401.9261039182
20
134.2339549184
11
381.9261049431
21
134.2339549184
0
LINE
5
341
100
AcDbEntity
8
0
100
AcDbLine
62
4
6
CONTINUOUS
10
381.9261039182
20
148.2339549184
11
401.9261028932
21
148.2339549184
0
LINE
5
342
100
AcDbEntity
8
0
100
AcDbLine
62
7
6
CONTINUOUS
10
435.9944968219
20
136.9711748858
11
426.2397991030
21
139.5849382620
0
LINE
5
343
100
AcDbEntity
8
0
100
AcDbLine
62
7
6
CONTINUOUS
10
436.5121095479
20
138.9029318777
11
426.9807018527
21
141.4568648723
0
LINE
5
344
100
AcDbEntity
8
0
100
AcDbLine
62
7
6
CONTINUOUS
10
354.6624101488
20
167.2536458000
11
352.9280149182
21
167.2422849184
0
LINE
5
345
100
AcDbEntity
8
0
100
AcDbLine
62
7
6
CONTINUOUS
10
419.0069040414
20
167.2452238159
11
364.8511015420
21
167.2452233581
0
LINE
5
346
100
AcDbEntity
8
0
100
AcDbLine
62
7
6
CONTINUOUS
10
430.9241929182
20
167.2439566052
11
425.8636052457
21
167.2451421163
0
LINE
5
347
100
AcDbEntity
8
0
100
AcDbLine
62
7
6
CONTINUOUS
10
357.9886021209
20
167.2431277286
11
354.6624101488
21
167.2536458000
0
LINE
5
348
100
AcDbEntity
8
0
100
AcDbLine
62
7
6
CONTINUOUS
10
352.9280149182
20
107.2452249184
11
352.9280149182
21
279.3695454471
0
LINE
5
349
100
AcDbEntity
8
0
100
AcDbLine
62
7
6
CONTINUOUS
10
357.9856348116
20
167.2430382656
11
357.9883213800
21
107.2452249322
0
LINE
5
34A
100
AcDbEntity
8
0
100
AcDbLine
62
7
6
CONTINUOUS
10
364.1417781885
20
189.4307874159
11
364.1418433007
21
210.7402881302
0
LINE
5
34B
100
AcDbEntity
8
0
100
AcDbLine
62
7
6
CONTINUOUS
10
364.8427182815
20
166.5056159091
11
364.8453743725
21
107.2452249322
0
LINE
5
34C
100
AcDbEntity
8
0
100
AcDbLine
62
7
6
CONTINUOUS
10
365.4274024182
20
327.4839829840
11
365.4274024182
21
216.2384191245
0
LINE
5
34D
100
AcDbEntity
8
0
100
AcDbLine
62
7
6
CONTINUOUS
10
365.4274024182
20
216.2384191245
11
364.1417781885
21
189.4307874159
0
LINE
5
34E
100
AcDbEntity
8
DEFAULT_1
100
AcDbLine
62
2
6
CENTER
10
380.0969699925
20
316.4077612950
11
380.0969699925
21
313.4076612950
0
LINE
5
34F
100
AcDbEntity
8
DEFAULT_1
100
AcDbLine
62
2
6
CENTER
10
380.0969699925
20
316.4077612950
11
380.0969699925
21
319.4078612950
0
LINE
5
350
100
AcDbEntity
8
0
100
AcDbLine
62
4
6
CONTINUOUS
10
381.9261039182
20
134.2339549184
11
381.9261039182
21
148.2339549184
0
LINE
5
351
100
AcDbEntity
8
0
100
AcDbLine
62
7
6
CONTINUOUS
10
362.2126009898
20
210.5161758933
11
359.0692218041
21
210.5027623332
0
LINE
5
352
100
AcDbEntity
8
0
100
AcDbLine
62
7
6
CONTINUOUS
10
430.9241929182
20
212.2400799184
11
424.7856906996
21
212.2400799184
0
LINE
5
353
100
AcDbEntity
8
0
100
AcDbLine
62
7
6
CONTINUOUS
10
352.9280149182
20
212.2400799184
11
359.0665171367
21
212.2400799184
0
LINE
5
354
100
AcDbEntity
8
0
100
AcDbLine
62
7
6
CONTINUOUS
10
421.6396008424
20
210.5161758911
11
424.7829859417
21
210.5027623334
0
LINE
5
355
100
AcDbEntity
8
0
100
AcDbLine
62
7
6
CONTINUOUS
10
386.6763611682
20
267.2373849184
11
386.6763611682
21
232.2390999184
0
LINE
5
356
100
AcDbEntity
8
DEFAULT_1
100
AcDbLine
62
7
6
CENTER
10
391.9261039182
20
349.1326530612
11
391.9261039182
21
344.2537723831
0
LINE
5
357
100
AcDbEntity
8
DEFAULT_1
100
AcDbLine
62
9
6
CENTER
10
391.9261039182
20
104.2452249184
11
391.9261039182
21
97.1241046747
0
LINE
5
358
100
AcDbEntity
8
DEFAULT_1
100
AcDbLine
62
2
6
CENTER
10
391.9261039182
20
267.2373849184
11
391.9261039182
21
264.2372849184
0
LINE
5
359
100
AcDbEntity
8
DEFAULT_1
100
AcDbLine
62
2
6
CENTER
10
391.9261039182
20
232.2390999184
11
391.9261039182
21
229.2389999184
0
LINE
5
35A
100
AcDbEntity
8
DEFAULT_1
100
AcDbLine
62
7
6
CENTER
10
391.9261039182
20
97.1241046747
11
391.9261039182
21
92.2452239965
0
LINE
5
35B
100
AcDbEntity
8
DEFAULT_1
100
AcDbLine
62
2
6
CENTER
10
391.9261039182
20
232.2390999184
11
391.9261039182
21
235.2391999184
0
LINE
5
35C
100
AcDbEntity
8
DEFAULT_1
100
AcDbLine
62
2
6
CENTER
10
391.9261039182
20
267.2373849184
11
391.9261039182
21
270.2374849184
0
LINE
5
35D
100
AcDbEntity
8
DEFAULT_1
100
AcDbLine
62
2
6
CENTER
10
391.9261039182
20
104.2452249184
11
391.9261039182
21
229.2389999184
0
LINE
5
35E
100
AcDbEntity
8
DEFAULT_1
100
AcDbLine
62
2
6
CENTER
10
391.9261039182
20
270.2374849184
11
391.9261039182
21
344.2537723831
0
LINE
5
35F
100
AcDbEntity
8
DEFAULT_1
100
AcDbLine
62
2
6
CENTER
10
391.9261039182
20
235.2391999184
11
391.9261039182
21
264.2372849184
0
LINE
5
360
100
AcDbEntity
8
0
100
AcDbLine
62
7
6
CONTINUOUS
10
418.4248054182
20
216.2384191245
11
365.4274024182
21
216.2384191245
0
LINE
5
361
100
AcDbEntity
8
0
100
AcDbLine
62
7
6
CONTINUOUS
10
397.1758466682
20
232.2390999184
11
397.1758466682
21
267.2373849184
0
LINE
5
362
100
AcDbEntity
8
0
100
AcDbLine
62
4
6
CONTINUOUS
10
401.9261039182
20
148.2339549184
11
401.9261039182
21
134.2339549184
0
LINE
5
363
100
AcDbEntity
8
DEFAULT_1
100
AcDbLine
62
2
6
CENTER
10
403.7552378438
20
316.4077612950
11
403.7552378438
21
313.4076612950
0
LINE
5
364
100
AcDbEntity
8
DEFAULT_1
100
AcDbLine
62
2
6
CENTER
10
403.7552378438
20
316.4077612950
11
403.7552378438
21
319.4078612950
0
LINE
5
365
100
AcDbEntity
8
DEFAULT_1
100
AcDbLine
62
2
6
CENTER
10
391.9261039182
20
232.2390999184
11
388.9260039182
21
232.2390999184
0
LINE
5
366
100
AcDbEntity
8
DEFAULT_1
100
AcDbLine
62
2
6
CENTER
10
391.9261039182
20
232.2390999184
11
394.9262039182
21
232.2390999184
0
LINE
5
367
100
AcDbEntity
8
0
100
AcDbLine
62
7
6
CONTINUOUS
10
435.9944968219
20
121.5171189510
11
436.5121095479
21
119.5853619592
0
LINE
5
368
100
AcDbEntity
8
0
100
AcDbLine
62
7
6
CONTINUOUS
10
419.7104296478
20
189.4307874159
11
418.4248054182
21
216.2384191245
0
LINE
5
369
100
AcDbEntity
8
0
100
AcDbLine
62
7
6
CONTINUOUS
10
418.4248054182
20
327.4839829840
11
418.4248054182
21
216.2384191245
0
LINE
5
36A
100
AcDbEntity
8
0
100
AcDbLine
62
7
6
CONTINUOUS
10
419.7103645357
20
210.7402881302
11
419.7104296478
21
189.4307874159
0
LINE
5
36B
100
AcDbEntity
8
0
100
AcDbLine
62
7
6
CONTINUOUS
10
430.8975228160
20
107.2452249184
11
430.8975228160
21
118.0809379786
0
LINE
5
36C
100
AcDbEntity
8
0
100
AcDbLine
62
7
6
CONTINUOUS
10
430.8975228160
20
140.4073558583
11
430.8975228160
21
164.2424319184
0
LINE
5
36D
100
AcDbEntity
8
0
100
AcDbLine
62
7
6
CONTINUOUS
10
430.9241929182
20
166.2414042658
11
430.9241929182
21
279.3695454471
0
LINE
5
36E
100
AcDbEntity
8
DEFAULT_1
100
AcDbLine
62
2
6
CENTER
10
435.4239724182
20
129.2441469184
11
435.4239724182
21
121.9943551684
0
LINE
5
36F
100
AcDbEntity
8
DEFAULT_1
100
AcDbLine
62
2
6
CENTER
10
435.4239724182
20
129.2441469184
11
435.4239724182
21
136.4939386684
0
LINE
5
370
100
AcDbEntity
8
DEFAULT_1
100
AcDbLine
62
2
6
CENTER
10
391.9261039182
20
267.2373849184
11
388.9260039182
21
267.2373849184
0
LINE
5
371
100
AcDbEntity
8
DEFAULT_1
100
AcDbLine
62
2
6
CENTER
10
391.9261039182
20
267.2373849184
11
394.9262039182
21
267.2373849184
0
LINE
5
372
100
AcDbEntity
8
0
100
AcDbLine
62
7
6
CONTINUOUS
10
435.9944968219
20
136.9711748858
11
436.5121095479
21
138.9029318777
0
LINE
5
373
100
AcDbEntity
8
DEFAULT_1
100
AcDbLine
62
2
6
CENTER
10
403.7552378438
20
316.4077612950
11
400.7551378438
21
316.4077612950
0
LINE
5
374
100
AcDbEntity
8
DEFAULT_1
100
AcDbLine
62
2
6
CENTER
10
380.0969699925
20
316.4077612950
11
377.0968699925
21
316.4077612950
0
LINE
5
375
100
AcDbEntity
8
DEFAULT_1
100
AcDbLine
62
2
6
CENTER
10
380.0969699925
20
316.4077612950
11
383.0970699925
21
316.4077612950
0
LINE
5
376
100
AcDbEntity
8
DEFAULT_1
100
AcDbLine
62
2
6
CENTER
10
403.7552378438
20
316.4077612950
11
406.7553378438
21
316.4077612950
0
ARC
5
377
100
AcDbEntity
8
DEFAULT_3
100
AcDbCircle
62
2
6
PHANTOM
10
391.9261039182
20
232.2390999184
40
84.9958350000
100
AcDbArc
50
82.0004926768
51
98.0000000000
0
ARC
5
378
100
AcDbEntity
8
0
100
AcDbCircle
62
7
6
CONTINUOUS
10
167.2550505714
20
199.1889949047
40
1.9999020000
100
AcDbArc
50
0.0000000000
51
110.0000000000
0
ARC
5
379
100
AcDbEntity
8
0
100
AcDbCircle
62
7
6
CONTINUOUS
10
433.9240459182
20
129.2441469184
40
9.9995100000
100
AcDbArc
50
285.0000000000
51
75.0000000000
0
ARC
5
37A
100
AcDbEntity
8
0
100
AcDbCircle
62
7
6
CONTINUOUS
10
391.9261039182
20
232.2390999184
40
90.2455777500
100
AcDbArc
50
82.0000000000
51
98.0000000000
0
ARC
5
37B
100
AcDbEntity
8
0
100
AcDbCircle
62
7
6
CONTINUOUS
10
380.0969699925
20
316.4077612950
40
5.2497427500
100
AcDbArc
50
98.0000000000
51
278.0000000000
0
ARC
5
37C
100
AcDbEntity
8
0
100
AcDbCircle
62
7
6
CONTINUOUS
10
391.9261039182
20
232.2390999184
40
79.7460922500
100
AcDbArc
50
82.0000000000
51
98.0000000000
0
ARC
5
37D
100
AcDbEntity
8
0
100
AcDbCircle
62
7
6
CONTINUOUS
10
403.7552378438
20
316.4077612950
40
5.2497427500
100
AcDbArc
50
262.0000000000
51
82.0000000000
0
ARC
5
37E
100
AcDbEntity
8
0
100
AcDbCircle
62
7
6
CONTINUOUS
10
391.9261039182
20
232.2390999184
40
5.2497427500
100
AcDbArc
50
180.0000000000
51
360.0000000000
0
ARC
5
37F
100
AcDbEntity
8
0
100
AcDbCircle
62
7
6
CONTINUOUS
10
391.9261039182
20
267.2373849184
40
5.2497427500
100
AcDbArc
50
0.0000000000
51
180.0000000000
0
CIRCLE
5
380
100
AcDbEntity
8
0
100
AcDbCircle
62
7
6
CONTINUOUS
10
435.4239724182
20
129.2441469184
40
4.2497917500
0
ARC
5
381
100
AcDbEntity
8
0
100
AcDbCircle
62
7
6
CONTINUOUS
10
433.9240459182
20
129.2441469184
40
7.9995910139
100
AcDbArc
50
285.0000000000
51
75.0000000000
0
SPLINE
5
382
100
AcDbEntity
8
0
100
AcDbSpline
62
7
6
CONTINUOUS
70
0
71
3
72
8
73
4
74
2
42
0.0000001000
43
0.0000001000
44
0.0000000001
12
-17.3783299528
22
-4.6407381945
32
0.0000000000
13
-16.5670681121
23
-7.0061155764
33
0.0000000000
40
0.0000000000
40
0.0000000000
40
0.0000000000
40
0.0000000000
40
1.0000000000
40
1.0000000000
40
1.0000000000
40
1.0000000000
10
197.1035879214
20
337.2339549184
30
0.0000000000
10
191.3108112704
20
335.6870421869
30
0.0000000000
10
185.6267769588
20
333.7339803556
30
0.0000000000
10
180.1044209214
20
331.3986084968
30
0.0000000000
11
197.1035879214
21
337.2339549184
31
0.0000000000
11
180.1044209214
21
331.3986084968
31
0.0000000000
0
SPLINE
5
383
100
AcDbEntity
8
0
100
AcDbSpline
62
7
6
CONTINUOUS
70
0
71
3
72
16
73
12
74
10
42
0.0000001000
43
0.0000001000
44
0.0000000001
12
0.6213600127
22
143.8213686817
32
0.0000000000
13
130.6013659756
23
60.2350013121
33
0.0000000000
40
0.0000000000
40
0.0000000000
40
0.0000000000
40
0.0000000000
40
0.1109409854
40
0.2223963103
40
0.3341184671
40
0.4455386078
40
0.5566983988
40
0.6676550503
40
0.7785224637
40
0.8892856538
40
1.0000000000
40
1.0000000000
40
1.0000000000
40
1.0000000000
10
106.4593206696
20
212.7613307568
30
0.0000000000
10
106.4822987670
20
218.0798922127
30
0.0000000000
10
107.2035024149
20
228.7504508502
30
0.0000000000
10
110.2760319421
20
244.5118104937
30
0.0000000000
10
115.3202429618
20
259.7851631392
30
0.0000000000
10
122.2469785896
20
274.2843727228
30
0.0000000000
10
130.9119211256
20
287.7737766415
30
0.0000000000
10
141.1983075097
20
300.0367168029
30
0.0000000000
10
152.9230890296
20
310.9045264443
30
0.0000000000
10
165.9106413156
20
320.2039128866
30
0.0000000000
10
175.2846059705
20
325.2610233869
30
0.0000000000
10
180.1044209214
20
327.4839829840
30
0.0000000000
11
106.4593206696
21
212.7613307568
31
0.0000000000
11
107.5312895301
21
228.6811139948
31
0.0000000000
11
110.6008386390
21
244.4142821413
31
0.0000000000
11
115.6405325785
21
259.6716739459
31
0.0000000000
11
122.5456948677
21
274.1323530492
31
0.0000000000
11
131.1904877600
21
287.5808249497
31
0.0000000000
11
141.4431415295
21
299.8096275459
31
0.0000000000
11
153.1389124613
21
310.6475241053
31
0.0000000000
11
166.0923663397
21
319.9201336877
31
0.0000000000
11
180.1044209214
21
327.4839829840
31
0.0000000000
0
SPLINE
5
384
100
AcDbEntity
8
0
100
AcDbSpline
62
7
6
CONTINUOUS
70
0
71
3
72
8
73
4
74
2
42
0.0000001000
43
0.0000001000
44
0.0000000001
12
-20.7048412752
22
-43.8515514297
32
0.0000000000
13
-15.2492883384
23
-46.0337726044
33
0.0000000000
40
0.0000000000
40
0.0000000000
40
0.0000000000
40
0.0000000000
40
1.0000000000
40
1.0000000000
40
1.0000000000
40
1.0000000000
10
197.1035879214
20
212.2400799184
30
0.0000000000
10
190.2019741630
20
197.6228961085
30
0.0000000000
10
184.1875660342
20
182.5868757866
30
0.0000000000
10
179.1044699214
20
167.2422849184
30
0.0000000000
11
197.1035879214
21
212.2400799184
31
0.0000000000
11
179.1044699214
21
167.2422849184
31
0.0000000000
0
SPLINE
5
385
100
AcDbEntity
8
0
100
AcDbSpline
62
7
6
CONTINUOUS
70
0
71
3
72
8
73
4
74
2
42
0.0000001000
43
0.0000001000
44
0.0000000001
12
-0.0003521974
22
2.0210475415
32
0.0000000000
13
0.0081161201
23
2.0210312758
33
0.0000000000
40
0.0000000000
40
0.0000000000
40
0.0000000000
40
0.0000000000
40
1.0000000000
40
1.0000000000
40
1.0000000000
40
1.0000000000
10
106.4551211044
20
210.7402881881
30
0.0000000000
10
106.4550037052
20
211.4139707020
30
0.0000000000
10
106.4562977183
20
212.0876549402
30
0.0000000000
10
106.4590030916
20
212.7613320321
30
0.0000000000
11
106.4551211044
21
210.7402881881
31
0.0000000000
11
106.4590030916
21
212.7613320321
31
0.0000000000
0
SPLINE
5
386
100
AcDbEntity
8
0
100
AcDbSpline
62
7
6
CONTINUOUS
70
0
71
3
72
19
73
15
74
13
42
0.0000001000
43
0.0000001000
44
0.0000000001
12
44.0938844465
22
14.9479737265
32
0.0000000000
13
44.0938986178
23
14.9479319235
33
0.0000000000
40
0.0000000000
40
0.0000000000
40
0.0000000000
40
0.0000000000
40
0.1061377223
40
0.2202317486
40
0.3384957170
40
0.4568731651
40
0.5710831116
40
0.6770900022
40
0.7715356195
40
0.8517768777
40
0.9158394881
40
0.9623699026
40
0.9905622570
40
1.0000000000
40
1.0000000000
40
1.0000000000
40
1.0000000000
10
125.1609221096
20
184.2414519184
30
0.0000000000
10
126.7209302633
20
184.7702998797
30
0.0000000000
10
129.9580038072
20
185.8672977659
30
0.0000000000
10
134.9331654195
20
187.5540105560
30
0.0000000000
10
140.0882827273
20
189.3015425128
30
0.0000000000
10
145.2450882036
20
191.0496981467
30
0.0000000000
10
150.2217437005
20
192.7367689231
30
0.0000000000
10
154.8466484010
20
194.3046004949
30
0.0000000000
10
158.9722819929
20
195.7031795927
30
0.0000000000
10
162.4814186893
20
196.8927690626
30
0.0000000000
10
165.2862976995
20
197.8436190150
30
0.0000000000
10
167.3261621475
20
198.5351323298
30
0.0000000000
10
168.5631509958
20
198.9544727541
30
0.0000000000
10
169.1162369433
20
199.1419699913
30
0.0000000000
10
169.2549525714
20
199.1889949047
30
0.0000000000
11
125.1609221096
21
184.2414519184
31
0.0000000000
11
129.8410259321
21
185.8277616814
31
0.0000000000
11
134.8718854647
21
187.5332045644
31
0.0000000000
11
140.0866121666
21
189.3009848695
31
0.0000000000
11
145.3063428106
21
191.0704609390
31
0.0000000000
11
150.3423119515
21
192.7776417932
31
0.0000000000
11
155.0165758933
21
194.3622053526
31
0.0000000000
11
159.1810574120
21
195.7739541802
31
0.0000000000
11
162.7192120736
21
196.9733810146
31
0.0000000000
11
165.5439854357
21
197.9309753752
31
0.0000000000
11
167.5956943784
21
198.6265042270
31
0.0000000000
11
168.8388056524
21
199.0479202668
31
0.0000000000
11
169.2549525714
21
199.1889949047
31
0.0000000000
0
SPLINE
5
387
100
AcDbEntity
8
0
100
AcDbSpline
62
7
6
CONTINUOUS
70
0
71
3
72
9
73
5
74
3
42
0.0000001000
43
0.0000001000
44
0.0000000001
12
51.0687467523
22
13.1848142717
32
0.0000000000
13
51.0687467535
23
-13.1848142669
33
0.0000000000
40
0.0000000000
40
0.0000000000
40
0.0000000000
40
0.0000000000
40
0.5000000001
40
1.0000000000
40
1.0000000000
40
1.0000000000
40
1.0000000000
10
365.8349013665
20
333.9160531431
30
0.0000000000
10
374.3463591601
20
336.1135221888
30
0.0000000000
10
391.9261039149
20
338.3543876476
30
0.0000000000
10
409.5058486697
20
336.1135221897
30
0.0000000000
10
418.0173064604
20
333.9160531456
30
0.0000000000
11
365.8349013665
21
333.9160531431
31
0.0000000000
11
391.9261039182
21
337.2339549184
31
0.0000000000
11
418.0173064604
21
333.9160531456
31
0.0000000000
0
SPLINE
5
388
100
AcDbEntity
8
0
100
AcDbSpline
62
7
6
CONTINUOUS
70
0
71
3
72
9
73
5
74
3
42
0.0000001000
43
0.0000001000
44
0.0000000001
12
-0.0384998575
22
0.0099555019
32
0.0000000000
13
-0.0385084105
23
0.0099223879
33
0.0000000000
40
0.0000000000
40
0.0000000000
40
0.0000000000
40
0.0000000000
40
0.6663274386
40
1.0000000000
40
1.0000000000
40
1.0000000000
40
1.0000000000
10
418.0558515404
20
333.9060938070
30
0.0000000000
10
418.0473003700
20
333.9083050151
30
0.0000000000
10
418.0344670842
20
333.9116235183
30
0.0000000000
10
418.0216318986
20
333.9149346653
30
0.0000000000
10
418.0173488320
20
333.9160382748
30
0.0000000000
11
418.0558515404
21
333.9060938070
31
0.0000000000
11
418.0301971856
21
333.9127241685
31
0.0000000000
11
418.0173488320
21
333.9160382748
31
0.0000000000
0
SPLINE
5
389
100
AcDbEntity
8
0
100
AcDbSpline
62
7
6
CONTINUOUS
70
0
71
3
72
9
73
5
74
3
42
0.0000001000
43
0.0000001000
44
0.0000000001
12
0.0384998474
22
0.0099554993
32
0.0000000000
13
0.0385084004
23
0.0099223853
33
0.0000000000
40
0.0000000000
40
0.0000000000
40
0.0000000000
40
0.0000000000
40
0.6663274392
40
1.0000000000
40
1.0000000000
40
1.0000000000
40
1.0000000000
10
365.7963562959
20
333.9060938070
30
0.0000000000
10
365.8049074642
20
333.9083050145
30
0.0000000000
10
365.8177407466
20
333.9116235169
30
0.0000000000
10
365.8305759288
20
333.9149346630
30
0.0000000000
10
365.8348589943
20
333.9160382722
30
0.0000000000
11
365.7963562959
21
333.9060938070
31
0.0000000000
11
365.8220106441
21
333.9127241667
31
0.0000000000
11
365.8348589943
21
333.9160382722
31
0.0000000000
0
SPLINE
5
38A
100
AcDbEntity
8
0
100
AcDbSpline
62
7
6
CONTINUOUS
70
0
71
3
72
8
73
4
74
2
42
0.0000001000
43
0.0000001000
44
0.0000000001
12
0.0035134117
22
0.1365333120
32
0.0000000000
13
-0.0000006686
23
0.0000000239
33
0.0000000000
40
0.0000000000
40
0.0000000000
40
0.0000000000
40
0.0000000000
40
1.0000000000
40
1.0000000000
40
1.0000000000
40
1.0000000000
10
430.9216579035
20
166.1448680218
30
0.0000000000
10
430.9228290408
20
166.1903791258
30
0.0000000000
10
430.9241930246
20
166.2423294780
30
0.0000000000
10
430.9241928017
20
166.2423294860
30
0.0000000000
11
430.9216579035
21
166.1448680218
31
0.0000000000
11
430.9241928017
21
166.2423294860
31
0.0000000000
0
SPLINE
5
38B
100
AcDbEntity
8
0
100
AcDbSpline
62
7
6
CONTINUOUS
70
0
71
3
72
10
73
6
74
4
42
0.0000001000
43
0.0000001000
44
0.0000000001
12
0.0163710819
22
0.6361901848
32
0.0000000000
13
-0.0082465242
23
-0.3902276646
33
0.0000000000
40
0.0000000000
40
0.0000000000
40
0.0000000000
40
0.0000000000
40
0.2157438056
40
0.4270869918
40
1.0000000000
40
1.0000000000
40
1.0000000000
40
1.0000000000
10
430.9216579035
20
166.1448680218
30
0.0000000000
10
430.9228352234
20
166.1906193857
30
0.0000000000
10
430.9255516498
20
166.2940709989
30
0.0000000000
10
430.9191857081
20
166.0517112475
30
0.0000000000
10
430.9170180465
20
165.9569886496
30
0.0000000000
10
430.9154431995
20
165.8824664812
30
0.0000000000
11
430.9216579035
21
166.1448680218
31
0.0000000000
11
430.9241926839
21
166.2423251340
31
0.0000000000
11
430.9216925845
21
166.1462655723
31
0.0000000000
11
430.9154431995
21
165.8824664812
31
0.0000000000
0
SPLINE
5
38C
100
AcDbEntity
8
0
100
AcDbSpline
62
7
6
CONTINUOUS
70
0
71
3
72
9
73
5
74
3
42
0.0000001000
43
0.0000001000
44
0.0000000001
12
-11.2350546167
22
-46.5276110008
32
0.0000000000
13
-0.0000000000
23
-45.4022830068
33
0.0000000000
40
0.0000000000
40
0.0000000000
40
0.0000000000
40
0.0000000000
40
0.4364787100
40
1.0000000000
40
1.0000000000
40
1.0000000000
40
1.0000000000
10
358.5313946797
20
326.3740904671
30
0.0000000000
10
356.8967739643
20
319.6046532572
30
0.0000000000
10
353.9192868011
20
303.7275210301
30
0.0000000000
10
352.9280149182
20
287.8979298098
30
0.0000000000
10
352.9280149182
20
279.3695454471
30
0.0000000000
11
358.5313946797
21
326.3740904671
31
0.0000000000
11
354.6759556032
21
305.7536500821
31
0.0000000000
11
352.9280149182
21
279.3695454471
31
0.0000000000
0
SPLINE
5
38D
100
AcDbEntity
8
0
100
AcDbSpline
62
7
6
CONTINUOUS
70
0
71
3
72
9
73
5
74
3
42
0.0000001000
43
0.0000001000
44
0.0000000001
12
11.2350546256
22
-46.5276110177
32
0.0000000000
13
0.0000000000
23
-45.4022830253
33
0.0000000000
40
0.0000000000
40
0.0000000000
40
0.0000000000
40
0.0000000000
40
0.4364787102
40
1.0000000000
40
1.0000000000
40
1.0000000000
40
1.0000000000
10
425.3208131521
20
326.3740904861
30
0.0000000000
10
426.9554338696
20
319.6046532701
30
0.0000000000
10
429.9329210349
20
303.7275210365
30
0.0000000000
10
430.9241929182
20
287.8979298098
30
0.0000000000
10
430.9241929182
20
279.3695454471
30
0.0000000000
11
425.3208131521
21
326.3740904861
31
0.0000000000
11
429.1762522331
21
305.7536500821
31
0.0000000000
11
430.9241929182
21
279.3695454471
31
0.0000000000
0
SPLINE
5
38E
100
AcDbEntity
8
0
100
AcDbSpline
62
7
6
CONTINUOUS
70
0
71
3
72
12
73
8
74
6
42
0.0000001000
43
0.0000001000
44
0.0000000001
12
0.0000000000
22
1.9996113218
32
0.0000000000
13
-0.0000137024
23
0.0000004853
33
0.0000000000
40
0.0000000000
40
0.0000000000
40
0.0000000000
40
0.0000000000
40
0.3071258209
40
0.5866419891
40
0.8081474241
40
0.9504411493
40
1.0000000000
40
1.0000000000
40
1.0000000000
40
1.0000000000
10
430.8975228160
20
164.2424319184
30
0.0000000000
10
430.8975228160
20
164.4471426747
30
0.0000000000
10
430.8992270666
20
164.8420113406
30
0.0000000000
10
430.9052482052
20
165.3656881510
30
0.0000000000
10
430.9142433274
20
165.8327362629
30
0.0000000000
10
430.9187468951
20
166.0349019344
30
0.0000000000
10
430.9241930281
20
166.2423294779
30
0.0000000000
10
430.9241928017
20
166.2423294860
30
0.0000000000
11
430.8975228160
21
164.2424319184
31
0.0000000000
11
430.9000381390
21
164.8565590361
31
0.0000000000
11
430.9066990013
21
165.4154430394
31
0.0000000000
11
430.9149345154
21
165.8582912450
31
0.0000000000
11
430.9216032977
21
166.1427452279
31
0.0000000000
11
430.9241928017
21
166.2423294860
31
0.0000000000
0
SPLINE
5
38F
100
AcDbEntity
8
0
100
AcDbSpline
62
7
6
CONTINUOUS
70
0
71
3
72
10
73
6
74
4
42
0.0000001000
43
0.0000001000
44
0.0000000001
12
-0.0505260373
22
-0.2082662694
32
0.0000000000
13
-0.0503030096
23
-0.2083202502
33
0.0000000000
40
0.0000000000
40
0.0000000000
40
0.0000000000
40
0.0000000000
40
0.3386780771
40
0.6727198602
40
1.0000000000
40
1.0000000000
40
1.0000000000
40
1.0000000000
10
358.5817607851
20
326.5821832662
30
0.0000000000
10
358.5760567647
20
326.5586715263
30
0.0000000000
10
358.5647350758
20
326.5119679014
30
0.0000000000
10
358.5479315596
20
326.4425364825
30
0.0000000000
10
358.5368325366
20
326.3966166948
30
0.0000000000
10
358.5313448112
20
326.3738903346
30
0.0000000000
11
358.5817607851
21
326.5821832662
31
0.0000000000
11
358.5646615167
21
326.5116449442
31
0.0000000000
11
358.5478213873
21
326.4420661781
31
0.0000000000
11
358.5313448112
21
326.3738903346
31
0.0000000000
0
SPLINE
5
390
100
AcDbEntity
8
0
100
AcDbSpline
62
7
6
CONTINUOUS
70
0
71
3
72
13
73
9
74
7
42
0.0000001000
43
0.0000001000
44
0.0000000001
12
2.5418371535
22
10.4773492938
32
0.0000000000
13
10.4379425508
23
2.6990997841
33
0.0000000000
40
0.0000000000
40
0.0000000000
40
0.0000000000
40
0.0000000000
40
0.1199358134
40
0.2592142434
40
0.4152371696
40
0.5903102729
40
0.7845272022
40
1.0000000000
40
1.0000000000
40
1.0000000000
40
1.0000000000
10
358.5817607851
20
326.5821832662
30
0.0000000000
10
358.6833798872
20
327.0010530693
30
0.0000000000
10
358.9619210593
20
327.8931165346
30
0.0000000000
10
359.6033243619
20
329.2465670308
30
0.0000000000
10
360.5648970275
20
330.6465629734
30
0.0000000000
10
361.9015133320
20
331.9959463923
30
0.0000000000
10
363.6586342648
20
333.1749538107
30
0.0000000000
10
365.0466587343
20
333.7122329463
30
0.0000000000
10
365.7963562959
20
333.9060938070
30
0.0000000000
11
358.5817607851
21
326.5821832662
31
0.0000000000
11
358.9672239918
21
327.8164536180
31
0.0000000000
11
359.6102788485
21
329.1733906517
31
0.0000000000
11
360.5627256985
21
330.5598936414
31
0.0000000000
11
361.8910180650
21
331.9009137494
31
0.0000000000
11
363.6300400026
21
333.0672076871
31
0.0000000000
11
365.7963562959
21
333.9060938070
31
0.0000000000
0
SPLINE
5
391
100
AcDbEntity
8
0
100
AcDbSpline
62
7
6
CONTINUOUS
70
0
71
3
72
10
73
6
74
4
42
0.0000001000
43
0.0000001000
44
0.0000000001
12
0.0505260396
22
-0.2082662790
32
0.0000000000
13
0.0503030119
23
-0.2083202598
33
0.0000000000
40
0.0000000000
40
0.0000000000
40
0.0000000000
40
0.0000000000
40
0.3386808106
40
0.6727225831
40
1.0000000000
40
1.0000000000
40
1.0000000000
40
1.0000000000
10
425.2704470513
20
326.5821832662
30
0.0000000000
10
425.2761511179
20
326.5586713354
30
0.0000000000
10
425.2874728531
20
326.5119675193
30
0.0000000000
10
425.3042763699
20
326.4425360972
30
0.0000000000
10
425.3153753475
20
326.3966164972
30
0.0000000000
10
425.3208630275
20
326.3738903251
30
0.0000000000
11
425.2704470513
21
326.5821832662
31
0.0000000000
11
425.2875464584
21
326.5116443716
31
0.0000000000
11
425.3043865878
21
326.4420656045
31
0.0000000000
11
425.3208630275
21
326.3738903251
31
0.0000000000
0
SPLINE
5
392
100
AcDbEntity
8
0
100
AcDbSpline
62
7
6
CONTINUOUS
70
0
71
3
72
13
73
9
74
7
42
0.0000001000
43
0.0000001000
44
0.0000000001
12
-2.5418370769
22
10.4773489781
32
0.0000000000
13
-10.4379422363
23
2.6990997028
33
0.0000000000
40
0.0000000000
40
0.0000000000
40
0.0000000000
40
0.0000000000
40
0.1199245933
40
0.2592008977
40
0.4152275351
40
0.5903063902
40
0.7845276955
40
1.0000000000
40
1.0000000000
40
1.0000000000
40
1.0000000000
10
425.2704470513
20
326.5821832662
30
0.0000000000
10
425.1688374587
20
327.0010138713
30
0.0000000000
10
424.8903162226
20
327.8930324866
30
0.0000000000
10
424.2489458678
20
329.2464599662
30
0.0000000000
10
423.2873754153
20
330.6464899759
30
0.0000000000
10
421.9507332699
20
331.9959192197
30
0.0000000000
10
420.1935849596
20
333.1749496312
30
0.0000000000
10
418.8055473630
20
333.7122333960
30
0.0000000000
10
418.0558515404
20
333.9060938070
30
0.0000000000
11
425.2704470513
21
326.5821832662
31
0.0000000000
11
424.8850273989
21
327.8163404513
31
0.0000000000
11
424.2420003922
21
329.1732652723
31
0.0000000000
11
423.2895481417
21
330.5598130325
31
0.0000000000
11
421.9612219744
21
331.9008868636
31
0.0000000000
11
420.2221630361
21
333.0672102207
31
0.0000000000
11
418.0558515404
21
333.9060938070
31
0.0000000000
0
SPLINE
5
393
100
AcDbEntity
8
0
100
AcDbSpline
62
7
6
CONTINUOUS
70
0
71
3
72
9
73
5
74
3
42
0.0000001000
43
0.0000001000
44
0.0000000001
12
1.9282139572
22
0.2327748285
32
0.0000000000
13
1.9302171575
23
0.2155340122
33
0.0000000000
40
0.0000000000
40
0.0000000000
40
0.0000000000
40
0.0000000000
40
0.2492205969
40
1.0000000000
40
1.0000000000
40
1.0000000000
40
1.0000000000
10
362.2126069940
20
210.5161758911
30
0.0000000000
10
362.3727905385
20
210.5355133183
30
0.0000000000
10
363.0156160956
20
210.6123779516
30
0.0000000000
10
363.6587875389
20
210.6863486311
30
0.0000000000
10
364.1418433007
20
210.7402881302
30
0.0000000000
11
362.2126069940
21
210.5161758911
31
0.0000000000
11
362.6932227599
21
210.5736460718
31
0.0000000000
11
364.1418433007
21
210.7402881302
31
0.0000000000
0
SPLINE
5
394
100
AcDbEntity
8
0
100
AcDbSpline
62
7
6
CONTINUOUS
70
0
71
3
72
16
73
12
74
10
42
0.0000001000
43
0.0000001000
44
0.0000000001
12
4.3391306403
22
-114.6522183410
32
0.0000000000
13
0.0086523607
23
-114.7342980558
33
0.0000000000
40
0.0000000000
40
0.0000000000
40
0.0000000000
40
0.0000000000
40
0.0660028159
40
0.1467559538
40
0.2412706824
40
0.3482757498
40
0.4658007168
40
0.5919974626
40
0.7243269807
40
0.8611806410
40
1.0000000000
40
1.0000000000
40
1.0000000000
40
1.0000000000
10
418.4248054182
20
327.4839829840
30
0.0000000000
10
418.5202703651
20
324.9615265646
30
0.0000000000
10
418.6955249330
20
319.3515063639
30
0.0000000000
10
418.9155029571
20
310.1267487242
30
0.0000000000
10
419.1153764164
20
299.3330927927
30
0.0000000000
10
419.2915709270
20
287.1325473944
30
0.0000000000
10
419.4400878358
20
273.7198842085
30
0.0000000000
10
419.5586333323
20
259.3383647329
30
0.0000000000
10
419.6448893564
20
244.2173829365
30
0.0000000000
10
419.6975320153
20
228.6134975536
30
0.0000000000
10
419.7098850530
20
218.0704446598
30
0.0000000000
10
419.7102854247
20
212.7613307568
30
0.0000000000
11
418.4248054182
21
327.4839829840
31
0.0000000000
11
418.6695260793
21
319.9151514168
31
0.0000000000
11
418.8953783453
21
310.6527499510
31
0.0000000000
11
419.0996245285
21
299.8105925222
31
0.0000000000
11
419.2791929030
21
287.5347544586
31
0.0000000000
11
419.4302828863
21
274.0514563363
31
0.0000000000
11
419.5507199102
21
259.5728621567
31
0.0000000000
11
419.6381039257
21
244.3903792166
31
0.0000000000
11
419.6915569252
21
228.6886615001
31
0.0000000000
11
419.7102854247
21
212.7613307568
31
0.0000000000
0
SPLINE
5
395
100
AcDbEntity
8
0
100
AcDbSpline
62
7
6
CONTINUOUS
70
0
71
3
72
12
73
8
74
6
42
0.0000001000
43
0.0000001000
44
0.0000000001
12
51.4396241692
22
15.5333272594
32
0.0000000000
13
51.4396241692
23
-15.5333272594
33
0.0000000000
40
0.0000000000
40
0.0000000000
40
0.0000000000
40
0.0000000000
40
0.1996609272
40
0.3997656320
40
0.6002271941
40
0.8003329927
40
1.0000000000
40
1.0000000000
40
1.0000000000
40
1.0000000000
10
365.4274024182
20
327.4839829840
30
0.0000000000
10
368.8508967699
20
328.5177824915
30
0.0000000000
10
375.8340819908
20
330.1858470923
30
0.0000000000
10
386.5336945222
20
331.4510106939
30
0.0000000000
10
397.3181466026
20
331.4510335590
30
0.0000000000
10
408.0178920546
20
330.1858963081
30
0.0000000000
10
415.0012068134
20
328.5178139730
30
0.0000000000
10
418.4248054182
20
327.4839829840
30
0.0000000000
11
365.4274024182
21
327.4839829840
31
0.0000000000
11
375.8620036624
21
329.9780944202
31
0.0000000000
11
386.5401323699
21
331.2395590560
31
0.0000000000
11
397.3116899941
21
331.2395818195
31
0.0000000000
11
407.9898819692
21
329.9781517630
31
0.0000000000
11
418.4248054182
21
327.4839829840
31
0.0000000000
0
SPLINE
5
396
100
AcDbEntity
8
0
100
AcDbSpline
62
7
6
CONTINUOUS
70
0
71
3
72
16
73
12
74
10
42
0.0000001000
43
0.0000001000
44
0.0000000001
12
0.0086523607
22
114.7342980977
32
0.0000000000
13
4.3391306419
23
114.6522183828
33
0.0000000000
40
0.0000000000
40
0.0000000000
40
0.0000000000
40
0.0000000000
40
0.1387535763
40
0.2758813541
40
0.4088637805
40
0.5349043944
40
0.6521258234
40
0.7587209060
40
0.8531984885
40
0.9340406251
40
1.0000000000
40
1.0000000000
40
1.0000000000
40
1.0000000000
10
364.1419224116
20
212.7613307568
30
0.0000000000
10
364.1423225936
20
218.0679288197
30
0.0000000000
10
364.1546796507
20
228.6189494284
30
0.0000000000
10
364.2074503874
20
244.2557726838
30
0.0000000000
10
364.2940176957
20
259.4062360634
30
0.0000000000
10
364.4128626650
20
273.7951436751
30
0.0000000000
10
364.5612095742
20
287.1745468704
30
0.0000000000
10
364.7370848163
20
299.3463844878
30
0.0000000000
10
364.9366944313
20
310.1263461255
30
0.0000000000
10
365.1566700044
20
319.3514258277
30
0.0000000000
10
365.3320003033
20
324.9631867665
30
0.0000000000
10
365.4274024182
20
327.4839829840
30
0.0000000000
11
364.1419224116
21
212.7613307568
31
0.0000000000
11
364.1606336977
21
228.6811139948
31
0.0000000000
11
364.2142128767
21
244.4142821413
31
0.0000000000
11
364.3021810616
21
259.6716739459
31
0.0000000000
11
364.4227111177
21
274.1323530492
31
0.0000000000
11
364.5736065390
21
287.5808249497
31
0.0000000000
11
364.7525672762
21
299.8096275459
31
0.0000000000
11
364.9567177172
21
310.6475241053
31
0.0000000000
11
365.1828210957
21
319.9201336877
31
0.0000000000
11
365.4274024182
21
327.4839829840
31
0.0000000000
0
SPLINE
5
397
100
AcDbEntity
8
0
100
AcDbSpline
62
7
6
CONTINUOUS
70
0
71
3
72
13
73
9
74
7
42
0.0000001000
43
0.0000001000
44
0.0000000001
12
-55.1716037162
22
-7.9851209243
32
0.0000000000
13
-55.1716037162
23
7.9851209243
33
0.0000000000
40
0.0000000000
40
0.0000000000
40
0.0000000000
40
0.0000000000
40
0.1637768998
40
0.3309902521
40
0.5000017027
40
0.6690027694
40
0.8362249260
40
1.0000000000
40
1.0000000000
40
1.0000000000
40
1.0000000000
10
419.7104296478
20
189.4307874159
30
0.0000000000
10
416.6984849107
20
188.9948612995
30
0.0000000000
10
410.5872126609
20
188.2745825890
30
0.0000000000
10
401.3152559659
20
187.6308169360
30
0.0000000000
10
391.9262018618
20
187.4134763451
30
0.0000000000
10
382.5369846443
20
187.6308162018
30
0.0000000000
10
373.2650901176
20
188.2745705238
30
0.0000000000
10
367.1536893487
20
188.9948661591
30
0.0000000000
10
364.1417781885
20
189.4307874159
30
0.0000000000
11
419.7104296478
21
189.4307874159
31
0.0000000000
11
410.6441587689
21
188.3540718287
31
0.0000000000
11
401.3452712379
21
187.7044282090
31
0.0000000000
11
391.9260089730
21
187.4861795463
31
0.0000000000
11
382.5073253114
21
187.7044101768
31
0.0000000000
11
373.2079477017
21
188.3540813417
31
0.0000000000
11
364.1417781885
21
189.4307874159
31
0.0000000000
0
SPLINE
5
398
100
AcDbEntity
8
0
100
AcDbSpline
62
7
6
CONTINUOUS
70
0
71
3
72
9
73
5
74
3
42
0.0000001000
43
0.0000001000
44
0.0000000001
12
-0.3235098121
22
1.1589685217
32
0.0000000000
13
-0.0036899040
23
1.2032676416
33
0.0000000000
40
0.0000000000
40
0.0000000000
40
0.0000000000
40
0.0000000000
40
0.4627339280
40
1.0000000000
40
1.0000000000
40
1.0000000000
40
1.0000000000
10
426.4173410538
20
117.7191654686
30
0.0000000000
10
426.3674413984
20
117.8979301541
30
0.0000000000
10
426.2911781706
20
118.2932145419
30
0.0000000000
10
426.2657823573
20
118.6946490742
30
0.0000000000
10
426.2651215373
20
118.9101407007
30
0.0000000000
11
426.4173410538
21
117.7191654686
31
0.0000000000
11
426.3077541000
21
118.2650700345
31
0.0000000000
11
426.2651215373
21
118.9101407007
31
0.0000000000
0
SPLINE
5
399
100
AcDbEntity
8
0
100
AcDbSpline
62
7
6
CONTINUOUS
70
0
71
3
72
10
73
6
74
4
42
0.0000001000
43
0.0000001000
44
0.0000000001
12
-0.9252771824
22
-0.2479272738
32
0.0000000000
13
-0.2575438906
23
0.9226467047
33
0.0000000000
40
0.0000000000
40
0.0000000000
40
0.0000000000
40
0.0000000000
40
0.2307610781
40
0.5573454832
40
1.0000000000
40
1.0000000000
40
1.0000000000
40
1.0000000000
10
426.9807018527
20
117.0314289645
30
0.0000000000
10
426.9095291993
20
117.0123583095
30
0.0000000000
10
426.7144289324
20
117.0729789394
30
0.0000000000
10
426.5407544452
20
117.3535022707
30
0.0000000000
10
426.4553420426
20
117.5830275582
30
0.0000000000
10
426.4173410538
20
117.7191654686
30
0.0000000000
11
426.9807018527
21
117.0314289645
31
0.0000000000
11
426.7648239102
21
117.0789667623
31
0.0000000000
11
426.5695980299
21
117.3234177390
31
0.0000000000
11
426.4173410538
21
117.7191654686
31
0.0000000000
0
SPLINE
5
39A
100
AcDbEntity
8
0
100
AcDbSpline
62
7
6
CONTINUOUS
70
0
71
3
72
11
73
7
74
5
42
0.0000001000
43
0.0000001000
44
0.0000000001
12
-6.8774693039
22
0.5472063546
32
0.0000000000
13
-6.7564860825
23
1.3960353281
33
0.0000000000
40
0.0000000000
40
0.0000000000
40
0.0000000000
40
0.0000000000
40
0.3225522449
40
0.6045353758
40
0.8336104956
40
1.0000000000
40
1.0000000000
40
1.0000000000
40
1.0000000000
10
364.8427182815
20
166.5056159091
30
0.0000000000
10
364.1032705604
20
166.5644501218
30
0.0000000000
10
362.7177095538
20
166.6785735877
30
0.0000000000
10
360.8086520410
20
166.8557727788
30
0.0000000000
10
359.2607294358
20
167.0309973294
30
0.0000000000
10
358.3603709351
20
167.1656097235
30
0.0000000000
10
357.9856348116
20
167.2430382656
30
0.0000000000
11
364.8427182815
21
166.5056159091
31
0.0000000000
11
362.6250434559
21
166.6903263307
31
0.0000000000
11
360.6882921103
21
166.8741897146
31
0.0000000000
11
359.1185880470
21
167.0580570806
31
0.0000000000
11
357.9856348116
21
167.2430382656
31
0.0000000000
0
SPLINE
5
39B
100
AcDbEntity
8
0
100
AcDbSpline
62
7
6
CONTINUOUS
70
0
71
3
72
9
73
5
74
3
42
0.0000001000
43
0.0000001000
44
0.0000000001
12
-0.0032440197
22
-0.7397556585
32
0.0000000000
13
-0.0053658799
23
-0.7397433104
33
0.0000000000
40
0.0000000000
40
0.0000000000
40
0.0000000000
40
0.0000000000
40
0.4973132506
40
1.0000000000
40
1.0000000000
40
1.0000000000
40
1.0000000000
10
364.8511015420
20
167.2452233581
30
0.0000000000
10
364.8505637773
20
167.1225932610
30
0.0000000000
10
364.8518077944
20
166.8759886519
30
0.0000000000
10
364.8453250150
20
166.6294557822
30
0.0000000000
10
364.8444258960
20
166.5055027288
30
0.0000000000
11
364.8511015420
21
167.2452233581
31
0.0000000000
11
364.8498901147
21
166.8773315241
31
0.0000000000
11
364.8444258960
21
166.5055027288
31
0.0000000000
0
SPLINE
5
39C
100
AcDbEntity
8
0
100
AcDbSpline
62
7
6
CONTINUOUS
70
0
71
3
72
11
73
7
74
5
42
0.0000001000
43
0.0000001000
44
0.0000000001
12
-6.8621534426
22
0.0321018918
32
0.0000000000
13
-6.8607648633
23
0.1417247064
33
0.0000000000
40
0.0000000000
40
0.0000000000
40
0.0000000000
40
0.0000000000
40
0.3229896420
40
0.6055300541
40
0.8345824753
40
1.0000000000
40
1.0000000000
40
1.0000000000
40
1.0000000000
10
364.8510917259
20
167.2452235767
30
0.0000000000
10
364.1122902313
20
167.2486797695
30
0.0000000000
10
362.7272147960
20
167.2562340937
30
0.0000000000
10
360.8182371137
20
167.2709781144
30
0.0000000000
10
359.2697166075
20
167.2865452709
30
0.0000000000
10
358.3674857661
20
167.2996422743
30
0.0000000000
10
357.9891888523
20
167.3074568577
30
0.0000000000
11
364.8510917259
21
167.2452235767
31
0.0000000000
11
362.6346977292
21
167.2576330028
31
0.0000000000
11
360.6958998198
21
167.2727543760
31
0.0000000000
11
359.1241775434
21
167.2893661076
31
0.0000000000
11
357.9891888523
21
167.3074568577
31
0.0000000000
0
SPLINE
5
39D
100
AcDbEntity
8
0
100
AcDbSpline
62
7
6
CONTINUOUS
70
0
71
3
72
9
73
5
74
3
42
0.0000001000
43
0.0000001000
44
0.0000000001
12
-0.0003076925
22
-0.0643198596
32
0.0000000000
13
-0.0003018408
23
-0.0643198874
33
0.0000000000
40
0.0000000000
40
0.0000000000
40
0.0000000000
40
0.0000000000
40
0.5000740819
40
1.0000000000
40
1.0000000000
40
1.0000000000
40
1.0000000000
10
357.9891888523
20
167.3074568577
30
0.0000000000
10
357.9891375627
20
167.2967352927
30
0.0000000000
10
357.9885840449
20
167.2752982732
30
0.0000000000
10
357.9889343625
20
167.2538569716
30
0.0000000000
10
357.9888840631
20
167.2431385787
30
0.0000000000
11
357.9891888523
21
167.3074568577
31
0.0000000000
11
357.9888099887
21
167.2752940262
31
0.0000000000
11
357.9888840631
21
167.2431385787
31
0.0000000000
0
SPLINE
5
39E
100
AcDbEntity
8
0
100
AcDbSpline
62
7
6
CONTINUOUS
70
0
71
3
72
10
73
6
74
4
42
0.0000001000
43
0.0000001000
44
0.0000000001
12
0.0001524112
22
-2.0210426228
32
0.0000000000
13
0.0000057852
23
-2.0210426286
33
0.0000000000
40
0.0000000000
40
0.0000000000
40
0.0000000000
40
0.0000000000
40
0.3333902923
40
0.6667265441
40
1.0000000000
40
1.0000000000
40
1.0000000000
40
1.0000000000
10
419.7102854247
20
212.7613307568
30
0.0000000000
10
419.7103023622
20
212.5367320932
30
0.0000000000
10
419.7103308050
20
212.0875711716
30
0.0000000000
10
419.7103571753
20
211.4138902959
30
0.0000000000
10
419.7103638930
20
210.9648080840
30
0.0000000000
10
419.7103645357
20
210.7402881302
30
0.0000000000
11
419.7102854247
21
212.7613307568
31
0.0000000000
11
419.7103280916
21
212.0875347654
31
0.0000000000
11
419.7103544612
21
211.4138479915
31
0.0000000000
11
419.7103645357
21
210.7402881302
31
0.0000000000
0
SPLINE
5
39F
100
AcDbEntity
8
0
100
AcDbSpline
62
7
6
CONTINUOUS
70
0
71
3
72
9
73
5
74
3
42
0.0000001000
43
0.0000001000
44
0.0000000001
12
1.9327885615
22
-0.2257809197
32
0.0000000000
13
1.9305966388
23
-0.2438139972
33
0.0000000000
40
0.0000000000
40
0.0000000000
40
0.0000000000
40
0.0000000000
40
0.2507546671
40
1.0000000000
40
1.0000000000
40
1.0000000000
40
1.0000000000
10
419.7102854247
20
212.7613307568
30
0.0000000000
10
419.8718373422
20
212.7424588837
30
0.0000000000
10
420.5160131680
20
212.6664556149
30
0.0000000000
10
421.1598371133
20
212.5874685212
30
0.0000000000
10
421.6420006204
20
212.5265763547
30
0.0000000000
11
419.7102854247
21
212.7613307568
31
0.0000000000
11
420.1948754062
21
212.7041549183
31
0.0000000000
11
421.6420006204
21
212.5265763547
31
0.0000000000
0
SPLINE
5
3A0
100
AcDbEntity
8
0
100
AcDbSpline
62
7
6
CONTINUOUS
70
0
71
3
72
9
73
5
74
3
42
0.0000001000
43
0.0000001000
44
0.0000000001
12
1.9305966624
22
0.2438140002
32
0.0000000000
13
1.9327885850
23
0.2257809225
33
0.0000000000
40
0.0000000000
40
0.0000000000
40
0.0000000000
40
0.0000000000
40
0.2492373664
40
1.0000000000
40
1.0000000000
40
1.0000000000
40
1.0000000000
10
362.2102072160
20
212.5265763547
30
0.0000000000
10
362.3705994919
20
212.5468322078
30
0.0000000000
10
363.0142275067
20
212.6273433697
30
0.0000000000
10
363.6582339288
20
212.7048281301
30
0.0000000000
10
364.1419224116
20
212.7613307568
30
0.0000000000
11
362.2102072160
21
212.5265763547
31
0.0000000000
11
362.6914553009
21
212.5867769899
31
0.0000000000
11
364.1419224116
21
212.7613307568
31
0.0000000000
0
SPLINE
5
3A1
100
AcDbEntity
8
0
100
AcDbSpline
62
7
6
CONTINUOUS
70
0
71
3
72
10
73
6
74
4
42
0.0000001000
43
0.0000001000
44
0.0000000001
12
0.0000057852
22
2.0210426286
32
0.0000000000
13
0.0001524112
23
2.0210426228
33
0.0000000000
40
0.0000000000
40
0.0000000000
40
0.0000000000
40
0.0000000000
40
0.3332734559
40
0.6666097077
40
1.0000000000
40
1.0000000000
40
1.0000000000
40
1.0000000000
10
364.1418433007
20
210.7402881302
30
0.0000000000
10
364.1418439434
20
210.9648080840
30
0.0000000000
10
364.1418506611
20
211.4138902959
30
0.0000000000
10
364.1418770313
20
212.0875711716
30
0.0000000000
10
364.1419054742
20
212.5367320932
30
0.0000000000
10
364.1419224116
20
212.7613307568
30
0.0000000000
11
364.1418433007
21
210.7402881302
31
0.0000000000
11
364.1418533752
21
211.4138479915
31
0.0000000000
11
364.1418797447
21
212.0875347654
31
0.0000000000
11
364.1419224116
21
212.7613307568
31
0.0000000000
0
SPLINE
5
3A2
100
AcDbEntity
8
0
100
AcDbSpline
62
7
6
CONTINUOUS
70
0
71
3
72
19
73
15
74
13
42
0.0000001000
43
0.0000001000
44
0.0000000001
12
0.0273812102
22
-43.2138074096
32
0.0000000000
13
-0.1783135053
23
-43.2134481945
33
0.0000000000
40
0.0000000000
40
0.0000000000
40
0.0000000000
40
0.0000000000
40
0.0701229998
40
0.1386562897
40
0.2124046469
40
0.2964655312
40
0.3913737471
40
0.4972067756
40
0.6054224619
40
0.7016768211
40
0.7868281936
40
0.8615301067
40
0.9301623633
40
1.0000000000
40
1.0000000000
40
1.0000000000
40
1.0000000000
10
359.0692218041
20
210.5027623332
30
0.0000000000
10
359.0698618216
20
209.4926683973
30
0.0000000000
10
359.0653712583
20
207.4953550979
30
0.0000000000
10
359.0281430041
20
204.4359376459
30
0.0000000000
10
358.9650439831
20
201.1761498155
30
0.0000000000
10
358.8693304506
20
197.5370863717
30
0.0000000000
10
358.7380033550
20
193.4367105787
30
0.0000000000
10
358.5776911448
20
188.9891909270
30
0.0000000000
10
358.4109005655
20
184.5225117355
30
0.0000000000
10
358.2628316757
20
180.3532519089
30
0.0000000000
10
358.1475894062
20
176.6659055209
30
0.0000000000
10
358.0647184805
20
173.3756816979
30
0.0000000000
10
358.0094249805
20
170.3054915502
30
0.0000000000
10
357.9920978010
20
168.3109266301
30
0.0000000000
10
357.9879468030
20
167.3049515982
30
0.0000000000
11
359.0692218041
21
210.5027623332
31
0.0000000000
11
359.0602526041
21
207.4724931910
31
0.0000000000
11
359.0256402409
21
204.5111104705
31
0.0000000000
11
358.9644737798
21
201.3247495584
31
0.0000000000
11
358.8701861462
21
197.6933818367
31
0.0000000000
11
358.7404489627
21
193.5940881407
31
0.0000000000
11
358.5779527821
21
189.0235267962
31
0.0000000000
11
358.4059751740
21
184.3502773851
31
0.0000000000
11
358.2602847060
21
180.1933114546
31
0.0000000000
11
358.1468462881
21
176.5153446595
31
0.0000000000
11
358.0665392408
21
173.2881889866
31
0.0000000000
11
358.0143045250
21
170.3227872846
31
0.0000000000
11
357.9879468030
21
167.3049515982
31
0.0000000000
0
SPLINE
5
3A3
100
AcDbEntity
8
0
100
AcDbSpline
62
7
6
CONTINUOUS
70
0
71
3
72
19
73
15
74
13
42
0.0000001000
43
0.0000001000
44
0.0000000001
12
0.1653694493
22
-43.3692186562
32
0.0000000000
13
-0.2685532089
23
-43.3687024602
33
0.0000000000
40
0.0000000000
40
0.0000000000
40
0.0000000000
40
0.0000000000
40
0.0698880558
40
0.1382109155
40
0.2117752333
40
0.2957047539
40
0.3905809175
40
0.4965265922
40
0.6049840977
40
0.7014930571
40
0.7868296785
40
0.8616163913
40
0.9302440322
40
1.0000000000
40
1.0000000000
40
1.0000000000
40
1.0000000000
10
362.2126009898
20
210.5161758933
30
0.0000000000
10
362.2164534396
20
209.5058457690
30
0.0000000000
10
362.2368281507
20
207.5077464622
30
0.0000000000
10
362.3392133980
20
204.4477102919
30
0.0000000000
10
362.5044086093
20
201.1872308595
30
0.0000000000
10
362.7512233169
20
197.5470329551
30
0.0000000000
10
363.0889303240
20
193.4442918628
30
0.0000000000
10
363.5009625077
20
188.9921877299
30
0.0000000000
10
363.9260735045
20
184.5176380909
30
0.0000000000
10
364.2942413222
20
180.3369723111
30
0.0000000000
10
364.5676583437
20
176.6368759347
30
0.0000000000
10
364.7490836223
20
173.3346936856
30
0.0000000000
10
364.8515810740
20
170.2544203013
30
0.0000000000
10
364.8647810129
20
168.2536317272
30
0.0000000000
10
364.8585366166
20
167.2452231234
30
0.0000000000
11
362.2126009898
21
210.5161758933
31
0.0000000000
11
362.2489346134
21
207.4853812646
31
0.0000000000
11
362.3448411769
21
204.5238031761
31
0.0000000000
11
362.5052940799
21
201.3373902678
31
0.0000000000
11
362.7487113010
21
197.7055542378
31
0.0000000000
11
363.0823581175
21
193.6043685657
31
0.0000000000
11
363.4994521328
21
189.0285240356
31
0.0000000000
11
363.9367243552
21
184.3451416190
31
0.0000000000
11
364.2980222779
21
180.1752158635
31
0.0000000000
11
364.5665145717
21
176.4839581907
31
0.0000000000
11
364.7417894468
21
173.2452326486
31
0.0000000000
11
364.8379205478
21
170.2704366893
31
0.0000000000
11
364.8585366166
21
167.2452231234
31
0.0000000000
0
SPLINE
5
3A4
100
AcDbEntity
8
0
100
AcDbSpline
62
7
6
CONTINUOUS
70
0
71
3
72
10
73
6
74
4
42
0.0000001000
43
0.0000001000
44
0.0000000001
12
-3.1425447962
22
-0.0180323878
32
0.0000000000
13
-3.1423303853
23
-0.0408988133
33
0.0000000000
40
0.0000000000
40
0.0000000000
40
0.0000000000
40
0.0000000000
40
0.4141617566
40
0.7549025787
40
1.0000000000
40
1.0000000000
40
1.0000000000
40
1.0000000000
10
362.2090104788
20
212.2650001384
30
0.0000000000
10
361.7751698545
20
212.2625106966
30
0.0000000000
10
360.9844000627
20
212.2575733738
30
0.0000000000
10
359.9368995415
20
212.2494591748
30
0.0000000000
10
359.3232428282
20
212.2434213163
30
0.0000000000
10
359.0665171367
20
212.2400799184
30
0.0000000000
11
362.2090104788
21
212.2650001384
31
0.0000000000
11
360.9074934185
21
212.2567355623
31
0.0000000000
11
359.8367161253
21
212.2482486524
31
0.0000000000
11
359.0665171367
21
212.2400799184
31
0.0000000000
0
SPLINE
5
3A5
100
AcDbEntity
8
0
100
AcDbSpline
62
7
6
CONTINUOUS
70
0
71
3
72
10
73
6
74
4
42
0.0000001000
43
0.0000001000
44
0.0000000001
12
0.0037380374
22
-1.7373157599
32
0.0000000000
13
0.0016739511
23
-1.7373189748
33
0.0000000000
40
0.0000000000
40
0.0000000000
40
0.0000000000
40
0.0000000000
40
0.3332828507
40
0.6666165576
40
1.0000000000
40
1.0000000000
40
1.0000000000
40
1.0000000000
10
359.0665171367
20
212.2400799184
30
0.0000000000
10
359.0669324113
20
212.0470740687
30
0.0000000000
10
359.0676862880
20
211.6610327487
30
0.0000000000
10
359.0685876337
20
211.0819268427
30
0.0000000000
10
359.0690358722
20
210.6958267935
30
0.0000000000
10
359.0692218947
20
210.5027623334
30
0.0000000000
11
359.0665171367
21
212.2400799184
31
0.0000000000
11
359.0676479801
21
211.6610621334
31
0.0000000000
11
359.0685494185
21
211.0819555923
31
0.0000000000
11
359.0692218947
21
210.5027623334
31
0.0000000000
0
SPLINE
5
3A6
100
AcDbEntity
8
0
100
AcDbSpline
62
7
6
CONTINUOUS
70
0
71
3
72
10
73
6
74
4
42
0.0000001000
43
0.0000001000
44
0.0000000001
12
0.0008524826
22
-1.7488283941
32
0.0000000000
13
0.0063810367
23
-1.7488169604
33
0.0000000000
40
0.0000000000
40
0.0000000000
40
0.0000000000
40
0.0000000000
40
0.3332791612
40
0.6666119815
40
1.0000000000
40
1.0000000000
40
1.0000000000
40
1.0000000000
10
362.2090104788
20
212.2650001384
30
0.0000000000
10
362.2091051837
20
212.0707174517
30
0.0000000000
10
362.2094856500
20
211.6821208539
30
0.0000000000
10
362.2106868103
20
211.0991791216
30
0.0000000000
10
362.2118978736
20
210.7105207648
30
0.0000000000
10
362.2126069940
20
210.5161758911
30
0.0000000000
11
362.2090104788
21
212.2650001384
31
0.0000000000
11
362.2095906628
21
211.6821522977
31
0.0000000000
11
362.2107892832
21
211.0992115599
31
0.0000000000
11
362.2126069940
21
210.5161758911
31
0.0000000000
0
SPLINE
5
3A7
100
AcDbEntity
8
0
100
AcDbSpline
62
7
6
CONTINUOUS
70
0
71
3
72
10
73
6
74
4
42
0.0000001000
43
0.0000001000
44
0.0000000001
12
-3.1437823098
22
-0.0010033900
32
0.0000000000
13
-3.1437522256
23
-0.0137899311
33
0.0000000000
40
0.0000000000
40
0.0000000000
40
0.0000000000
40
0.0000000000
40
0.4145159876
40
0.7550512356
40
1.0000000000
40
1.0000000000
40
1.0000000000
40
1.0000000000
10
362.2102072160
20
212.5265763547
30
0.0000000000
10
361.7758245397
20
212.5264377143
30
0.0000000000
10
360.9845855910
20
212.5259612754
30
0.0000000000
10
359.9366592692
20
212.5244447873
30
0.0000000000
10
359.3231159488
20
212.5228412916
30
0.0000000000
10
359.0664298744
20
212.5217153494
30
0.0000000000
11
362.2102072160
21
212.5265763547
31
0.0000000000
11
360.9070594066
21
212.5257130875
31
0.0000000000
11
359.8364919433
21
212.5240577430
31
0.0000000000
11
359.0664298744
21
212.5217153494
31
0.0000000000
0
SPLINE
5
3A8
100
AcDbEntity
8
0
100
AcDbSpline
62
7
6
CONTINUOUS
70
0
71
3
72
10
73
6
74
4
42
0.0000001000
43
0.0000001000
44
0.0000000001
12
-0.0000305217
22
-0.2816354630
32
0.0000000000
13
0.0002515845
23
-0.2816353522
33
0.0000000000
40
0.0000000000
40
0.0000000000
40
0.0000000000
40
0.0000000000
40
0.3323277071
40
0.6656619730
40
1.0000000000
40
1.0000000000
40
1.0000000000
40
1.0000000000
10
359.0664298744
20
212.5217153494
30
0.0000000000
10
359.0664264933
20
212.4905169269
30
0.0000000000
10
359.0664308276
20
212.4280255859
30
0.0000000000
10
359.0664693670
20
212.3341471040
30
0.0000000000
10
359.0665155908
20
212.2714670543
30
0.0000000000
10
359.0665436288
20
212.2400799183
30
0.0000000000
11
359.0664298744
21
212.5217153494
31
0.0000000000
11
359.0664361349
21
212.4281200815
31
0.0000000000
11
359.0664744359
21
212.3342413384
31
0.0000000000
11
359.0665436288
21
212.2400799183
31
0.0000000000
0
SPLINE
5
3A9
100
AcDbEntity
8
0
100
AcDbSpline
62
7
6
CONTINUOUS
70
0
71
3
72
10
73
6
74
4
42
0.0000001000
43
0.0000001000
44
0.0000000001
12
-0.0014586969
22
-0.2783318007
32
0.0000000000
13
-0.0009831335
23
-0.2783338867
33
0.0000000000
40
0.0000000000
40
0.0000000000
40
0.0000000000
40
0.0000000000
40
0.3322751111
40
0.6656076213
40
1.0000000000
40
1.0000000000
40
1.0000000000
40
1.0000000000
10
362.2102072160
20
212.5265763547
30
0.0000000000
10
362.2100456531
20
212.4957487780
30
0.0000000000
10
362.2097388490
20
212.4339954326
30
0.0000000000
10
362.2093297817
20
212.3412177883
30
0.0000000000
10
362.2090945815
20
212.2792676896
30
0.0000000000
10
362.2089849974
20
212.2482434461
30
0.0000000000
11
362.2102072160
21
212.5265763547
31
0.0000000000
11
362.2097479404
21
212.4340934950
31
0.0000000000
11
362.2093396712
21
212.3413160814
31
0.0000000000
11
362.2089849974
21
212.2482434461
31
0.0000000000
0
SPLINE
5
3AA
100
AcDbEntity
8
0
100
AcDbSpline
62
7
6
CONTINUOUS
70
0
71
3
72
43
73
39
74
37
42
0.0000001000
43
0.0000001000
44
0.0000000001
12
2.6225611462
22
-113.8242683139
32
0.0000000000
13
-0.0120917487
23
-113.8544761436
33
0.0000000000
40
0.0000000000
40
0.0000000000
40
0.0000000000
40
0.0000000000
40
0.0105110117
40
0.0224682287
40
0.0358607368
40
0.0506888629
40
0.0668750390
40
0.0843374890
40
0.1030588180
40
0.1230103555
40
0.1442446501
40
0.1667943790
40
0.1905670963
40
0.2155293769
40
0.2416671970
40
0.2689629035
40
0.2973462247
40
0.3266275012
40
0.3566960471
40
0.3876514814
40
0.4196727434
40
0.4527474328
40
0.4867026102
40
0.5213369640
40
0.5566189707
40
0.5925294985
40
0.6290424222
40
0.6659321978
40
0.7032528698
40
0.7411400500
40
0.7796124568
40
0.8185843046
40
0.8575838051
40
0.8934586560
40
0.9250739396
40
0.9530010233
40
0.9778198765
40
1.0000000000
40
1.0000000000
40
1.0000000000
40
1.0000000000
10
358.5313448112
20
326.3738903346
30
0.0000000000
10
358.5405334015
20
325.9750875954
30
0.0000000000
10
358.5586357639
20
325.1225752098
30
0.0000000000
10
358.5834923617
20
323.7618322480
30
0.0000000000
10
358.6077214314
20
322.2372142113
30
0.0000000000
10
358.6315222314
20
320.5520771132
30
0.0000000000
10
358.6558540611
20
318.7124727806
30
0.0000000000
10
358.6803609691
20
316.7251055368
30
0.0000000000
10
358.7040411052
20
314.5948175612
30
0.0000000000
10
358.7265470158
20
312.3213622470
30
0.0000000000
10
358.7478079533
20
309.9025957397
30
0.0000000000
10
358.7689376366
20
307.3388036615
30
0.0000000000
10
358.7903792165
20
304.6335267652
30
0.0000000000
10
358.8111043957
20
301.7920669610
30
0.0000000000
10
358.8308969295
20
298.8168947344
30
0.0000000000
10
358.8498252443
20
295.7118808768
30
0.0000000000
10
358.8687425888
20
292.4875660556
30
0.0000000000
10
358.8882589593
20
289.1580195098
30
0.0000000000
10
358.9067826880
20
285.7308500947
30
0.0000000000
10
358.9233297369
20
282.1996827569
30
0.0000000000
10
358.9380681387
20
278.5544189853
30
0.0000000000
10
358.9520443231
20
274.7953068156
30
0.0000000000
10
358.9668316214
20
270.9370262710
30
0.0000000000
10
358.9813264986
20
266.9949730068
30
0.0000000000
10
358.9946011368
20
262.9787064876
30
0.0000000000
10
359.0063723830
20
258.8911404760
30
0.0000000000
10
359.0171829884
20
254.7425544741
30
0.0000000000
10
359.0280243485
20
250.5404512388
30
0.0000000000
10
359.0369965936
20
246.2861882523
30
0.0000000000
10
359.0439809645
20
241.9718582733
30
0.0000000000
10
359.0492792716
20
237.5948613874
30
0.0000000000
10
359.0546844686
20
233.1756504285
30
0.0000000000
10
359.0594570600
20
228.8550198980
30
0.0000000000
10
359.0629143383
20
224.8135807405
30
0.0000000000
10
359.0646231258
20
221.1923552506
30
0.0000000000
10
359.0652535357
20
217.9907210869
30
0.0000000000
10
359.0658711803
20
215.1471653828
30
0.0000000000
10
359.0665273294
20
213.3634841170
30
0.0000000000
10
359.0664379305
20
212.5217153370
30
0.0000000000
11
358.5313448112
21
326.3738903346
31
0.0000000000
11
358.5569171672
21
325.1774378493
31
0.0000000000
11
358.5819893443
21
323.8162860587
31
0.0000000000
11
358.6064293952
21
322.2916849322
31
0.0000000000
11
358.6305530024
21
320.6036087636
31
0.0000000000
11
358.6549489660
21
318.7609016369
31
0.0000000000
11
358.6793832172
21
316.7728736716
31
0.0000000000
11
358.7031038065
21
314.6414985436
31
0.0000000000
11
358.7256582167
21
312.3700386657
31
0.0000000000
11
358.7471548347
21
309.9525147339
31
0.0000000000
11
358.7684235992
21
307.3852152384
31
0.0000000000
11
358.7897433010
21
304.6786689248
31
0.0000000000
11
358.8104822489
21
301.8366771875
31
0.0000000000
11
358.8303345716
21
298.8608355788
31
0.0000000000
11
358.8494573568
21
295.7531560333
31
0.0000000000
11
358.8685397228
21
292.5216441885
31
0.0000000000
11
358.8878335018
21
289.1878956079
31
0.0000000000
11
358.9061965219
21
285.7645062858
31
0.0000000000
11
358.9227689897
21
282.2401304764
31
0.0000000000
11
358.9377120895
21
278.5943970728
31
0.0000000000
11
358.9519911046
21
274.8287226867
31
0.0000000000
11
358.9666335544
21
270.9628014575
31
0.0000000000
11
358.9809940581
21
267.0195513800
31
0.0000000000
11
358.9942399762
21
263.0025588023
31
0.0000000000
11
359.0061214467
21
258.9140017112
31
0.0000000000
11
359.0171278881
21
254.7568564658
31
0.0000000000
11
359.0276543814
21
250.5568035538
31
0.0000000000
11
359.0366067673
21
246.3076874001
31
0.0000000000
11
359.0436536544
21
241.9940680783
31
0.0000000000
11
359.0492654843
21
237.6138159210
31
0.0000000000
11
359.0545955770
21
233.1766997840
31
0.0000000000
11
359.0593959747
21
228.7364346509
31
0.0000000000
11
359.0627750284
21
224.6519236779
31
0.0000000000
11
359.0645139918
21
221.0523825272
31
0.0000000000
11
359.0652881577
21
217.8727591132
31
0.0000000000
11
359.0659678672
21
215.0470216477
31
0.0000000000
11
359.0664379305
21
212.5217153370
31
0.0000000000
0
SPLINE
5
3AB
100
AcDbEntity
8
0
100
AcDbSpline
62
7
6
CONTINUOUS
70
0
71
3
72
8
73
4
74
2
42
0.0000001000
43
0.0000001000
44
0.0000000001
12
-0.0026676075
22
-0.0157743015
32
0.0000000000
13
-0.0026627238
23
-0.0157751314
33
0.0000000000
40
0.0000000000
40
0.0000000000
40
0.0000000000
40
0.0000000000
40
1.0000000000
40
1.0000000000
40
1.0000000000
40
1.0000000000
10
365.8348624638
20
333.9160426492
30
0.0000000000
10
365.8339732613
20
333.9107845488
30
0.0000000000
10
365.8330848741
20
333.9055263096
30
0.0000000000
10
365.8321972995
20
333.9002679325
30
0.0000000000
11
365.8348624638
21
333.9160426492
31
0.0000000000
11
365.8321972995
21
333.9002679325
31
0.0000000000
0
SPLINE
5
3AC
100
AcDbEntity
8
0
100
AcDbSpline
62
7
6
CONTINUOUS
70
0
71
3
72
43
73
39
74
37
42
0.0000001000
43
0.0000001000
44
0.0000000001
12
-20.2204452980
22
-119.7946929286
32
0.0000000000
13
-0.1167753598
23
-121.4891453982
33
0.0000000000
40
0.0000000000
40
0.0000000000
40
0.0000000000
40
0.0000000000
40
0.0117945750
40
0.0250859561
40
0.0397252595
40
0.0557025603
40
0.0729985893
40
0.0914789003
40
0.1111177659
40
0.1319018296
40
0.1538084290
40
0.1769507285
40
0.2012233526
40
0.2265804405
40
0.2530121816
40
0.2804906530
40
0.3089916614
40
0.3383384424
40
0.3683854261
40
0.3991737555
40
0.4309022756
40
0.4635972450
40
0.4971248925
40
0.5312703256
40
0.5659952682
40
0.6012699294
40
0.6371029719
40
0.6732668106
40
0.7097963768
40
0.7468247943
40
0.7843801781
40
0.8223909368
40
0.8605595344
40
0.8957726628
40
0.9267864121
40
0.9541201869
40
0.9783585680
40
1.0000000000
40
1.0000000000
40
1.0000000000
40
1.0000000000
10
365.8321972995
20
333.9002679325
30
0.0000000000
10
365.7527001133
20
333.4292921023
30
0.0000000000
10
365.5974806776
20
332.4252161800
30
0.0000000000
10
365.3837585031
20
330.8306705299
30
0.0000000000
10
365.1762896422
20
329.0646319686
30
0.0000000000
10
364.9759807067
20
327.1346611047
30
0.0000000000
10
364.7838661339
20
325.0476059993
30
0.0000000000
10
364.6011736036
20
322.8109054394
30
0.0000000000
10
364.4270957549
20
320.4318734388
30
0.0000000000
10
364.2606488366
20
317.9132277812
30
0.0000000000
10
364.1011326828
20
315.2519919764
30
0.0000000000
10
363.9483519745
20
312.4488666757
30
0.0000000000
10
363.8036516278
20
309.5054044524
30
0.0000000000
10
363.6662661679
20
306.4282461454
30
0.0000000000
10
363.5355088344
20
303.2208628453
30
0.0000000000
10
363.4112171663
20
299.8858141442
30
0.0000000000
10
363.2938964688
20
296.4323933798
30
0.0000000000
10
363.1851008591
20
292.8746284714
30
0.0000000000
10
363.0837773231
20
289.2239804553
30
0.0000000000
10
362.9880470079
20
285.4766984674
30
0.0000000000
10
362.8969843290
20
281.6220357818
30
0.0000000000
10
362.8110487409
20
277.6562951836
30
0.0000000000
10
362.7323621105
20
273.5925086891
30
0.0000000000
10
362.6605530330
20
269.4463768583
30
0.0000000000
10
362.5944825575
20
265.2293936579
30
0.0000000000
10
362.5335714423
20
260.9439839125
30
0.0000000000
10
362.4781411580
20
256.6002242952
30
0.0000000000
10
362.4294582058
20
252.2055618112
30
0.0000000000
10
362.3855588706
20
247.7624390466
30
0.0000000000
10
362.3456191936
20
243.2629241911
30
0.0000000000
10
362.3098390938
20
238.7033890179
30
0.0000000000
10
362.2801484036
20
234.0976356153
30
0.0000000000
10
362.2568263093
20
229.5867001890
30
0.0000000000
10
362.2393766452
20
225.3590946672
30
0.0000000000
10
362.2266444824
20
221.5702460847
30
0.0000000000
10
362.2178679362
20
218.2258253818
30
0.0000000000
10
362.2126287548
20
215.2609427594
30
0.0000000000
10
362.2110497969
20
213.4029760484
30
0.0000000000
10
362.2102074015
20
212.5265763537
30
0.0000000000
11
365.8321972995
21
333.9002679325
31
0.0000000000
11
365.6112200712
21
332.4844947452
31
0.0000000000
11
365.3951527127
21
330.8842565027
31
0.0000000000
11
365.1864222581
21
329.1180302108
31
0.0000000000
11
364.9850891573
21
327.1874303445
31
0.0000000000
11
364.7917349661
21
325.0950644675
31
0.0000000000
11
364.6080525083
21
322.8574326388
31
0.0000000000
11
364.4331983309
21
320.4779383545
31
0.0000000000
11
364.2661497846
21
317.9584308109
31
0.0000000000
11
364.1064608829
21
315.3018106532
31
0.0000000000
11
363.9532776991
21
312.4944472611
31
0.0000000000
11
363.8079704697
21
309.5491677758
31
0.0000000000
11
363.6701523598
21
306.4716397593
31
0.0000000000
11
363.5390677539
21
303.2631452775
31
0.0000000000
11
363.4145562900
21
299.9271305267
31
0.0000000000
11
363.2969855677
21
296.4665623863
31
0.0000000000
11
363.1876242370
21
292.9029230500
31
0.0000000000
11
363.0859360290
21
289.2539556271
31
0.0000000000
11
362.9901988128
21
285.5147314774
31
0.0000000000
11
362.8991445569
21
281.6611344873
31
0.0000000000
11
362.8132861301
21
277.6899767980
31
0.0000000000
11
362.7342202676
21
273.6174971198
31
0.0000000000
11
362.6620914024
21
269.4698228443
31
0.0000000000
11
362.5958453444
21
265.2516374558
31
0.0000000000
11
362.5349219753
21
260.9665801024
31
0.0000000000
11
362.4795274414
21
256.6136048267
31
0.0000000000
11
362.4304945518
21
252.2203625615
31
0.0000000000
11
362.3864958308
21
247.7826328475
31
0.0000000000
11
362.3465746765
21
243.2842571102
31
0.0000000000
11
362.3110425692
21
238.7218218767
31
0.0000000000
11
362.2811698357
21
234.1040217741
31
0.0000000000
11
362.2570456979
21
229.4670120771
31
0.0000000000
11
362.2392563505
21
225.1890342171
31
0.0000000000
11
362.2266351565
21
221.4212197114
31
0.0000000000
11
362.2180418550
21
218.1004723535
31
0.0000000000
11
362.2129185666
21
215.1557752546
31
0.0000000000
11
362.2102074015
21
212.5265763537
31
0.0000000000
0
SPLINE
5
3AD
100
AcDbEntity
8
0
100
AcDbSpline
62
7
6
CONTINUOUS
70
0
71
3
72
11
73
7
74
5
42
0.0000001000
43
0.0000001000
44
0.0000000001
12
6.8987104604
22
-0.4252763714
32
0.0000000000
13
6.5904731645
23
2.0829617077
33
0.0000000000
40
0.0000000000
40
0.0000000000
40
0.0000000000
40
0.0000000000
40
0.3226692433
40
0.6041040065
40
0.8325183275
40
1.0000000000
40
1.0000000000
40
1.0000000000
40
1.0000000000
10
418.9820143317
20
166.9630984276
30
0.0000000000
10
419.7240148931
20
166.9173572260
30
0.0000000000
10
421.1147870631
20
166.8567778462
30
0.0000000000
10
423.0344543541
20
166.8627996300
30
0.0000000000
10
424.5910103313
20
166.9723951930
30
0.0000000000
10
425.4953984938
20
167.1288491034
30
0.0000000000
10
425.8633263164
20
167.2451350736
30
0.0000000000
11
418.9820143317
21
166.9630984276
31
0.0000000000
11
421.2103463127
21
166.8711723827
31
0.0000000000
11
423.1555028775
21
166.8871960215
31
0.0000000000
11
424.7292371806
21
167.0130109302
31
0.0000000000
11
425.8633263164
21
167.2451350736
31
0.0000000000
0
SPLINE
5
3AE
100
AcDbEntity
8
0
100
AcDbSpline
62
7
6
CONTINUOUS
70
0
71
3
72
9
73
5
74
3
42
0.0000001000
43
0.0000001000
44
0.0000000001
12
-0.0025414391
22
0.0622139254
32
0.0000000000
13
-0.0025408164
23
0.0622139508
33
0.0000000000
40
0.0000000000
40
0.0000000000
40
0.0000000000
40
0.0000000000
40
0.4998802721
40
1.0000000000
40
1.0000000000
40
1.0000000000
40
1.0000000000
10
425.8633263164
20
167.2451350736
30
0.0000000000
10
425.8629028447
20
167.2555015783
30
0.0000000000
10
425.8620546606
20
167.2762395110
30
0.0000000000
10
425.8612088416
20
167.2969775403
30
0.0000000000
10
425.8607852708
20
167.3073490150
30
0.0000000000
11
425.8633263164
21
167.2451350736
31
0.0000000000
11
425.8620554547
21
167.2762345693
31
0.0000000000
11
425.8607852708
21
167.3073490150
31
0.0000000000
0
SPLINE
5
3AF
100
AcDbEntity
8
0
100
AcDbSpline
62
7
6
CONTINUOUS
70
0
71
3
72
9
73
5
74
3
42
0.0000001000
43
0.0000001000
44
0.0000000001
12
0.0249503284
22
0.2821067659
32
0.0000000000
13
0.0249770583
23
0.2821044005
33
0.0000000000
40
0.0000000000
40
0.0000000000
40
0.0000000000
40
0.0000000000
40
0.4994495511
40
1.0000000000
40
1.0000000000
40
1.0000000000
40
1.0000000000
10
418.9811217547
20
166.9631929854
30
0.0000000000
10
418.9852755648
20
167.0101590179
30
0.0000000000
10
418.9948013239
20
167.1040841493
30
0.0000000000
10
419.0027366155
20
167.1981546545
30
0.0000000000
10
419.0069040414
20
167.2452238159
30
0.0000000000
11
418.9811217547
21
166.9631929854
31
0.0000000000
11
418.9943940951
21
167.1040170108
31
0.0000000000
11
419.0069040414
21
167.2452238159
31
0.0000000000
0
SPLINE
5
3B0
100
AcDbEntity
8
0
100
AcDbSpline
62
7
6
CONTINUOUS
70
0
71
3
72
11
73
7
74
5
42
0.0000001000
43
0.0000001000
44
0.0000000001
12
6.8580480031
22
-0.5877907541
32
0.0000000000
13
6.6722502064
23
1.6909753299
33
0.0000000000
40
0.0000000000
40
0.0000000000
40
0.0000000000
40
0.0000000000
40
0.3231053214
40
0.6047439052
40
0.8332847910
40
1.0000000000
40
1.0000000000
40
1.0000000000
40
1.0000000000
10
418.9993797005
20
167.2452237244
30
0.0000000000
10
419.7380036353
20
167.1819176175
30
0.0000000000
10
421.1225415392
20
167.0872750952
30
0.0000000000
10
423.0351792415
20
167.0391355485
30
0.0000000000
10
424.5870974635
20
167.0959216743
30
0.0000000000
10
425.4912727426
20
167.2108787179
30
0.0000000000
10
425.8620612718
20
167.3048491530
30
0.0000000000
11
418.9993797005
21
167.2452237244
31
0.0000000000
11
421.2184857545
21
167.0978292086
31
0.0000000000
11
423.1566506715
21
167.0580931344
31
0.0000000000
11
424.7281668693
21
167.1284556495
31
0.0000000000
11
425.8620612718
21
167.3048491530
31
0.0000000000
0
SPLINE
5
3B1
100
AcDbEntity
8
0
100
AcDbSpline
62
7
6
CONTINUOUS
70
0
71
3
72
15
73
11
74
9
42
0.0000001000
43
0.0000001000
44
0.0000000001
12
-1.7593180728
22
43.1788121013
32
0.0000000000
13
0.0334371385
23
43.2146259560
33
0.0000000000
40
0.0000000000
40
0.0000000000
40
0.0000000000
40
0.0000000000
40
0.1816190772
40
0.3423154103
40
0.4850295800
40
0.6111028414
40
0.7232013083
40
0.8237441456
40
0.9142774714
40
1.0000000000
40
1.0000000000
40
1.0000000000
40
1.0000000000
10
425.8620612718
20
167.3048491530
30
0.0000000000
10
425.7555526968
20
169.9188811559
30
0.0000000000
10
425.5583186428
20
174.8459548947
30
0.0000000000
10
425.3067168434
20
181.8282408321
30
0.0000000000
10
425.1151369183
20
188.0119652711
30
0.0000000000
10
424.9753032728
20
193.4968266542
30
0.0000000000
10
424.8786134672
20
198.3750391896
30
0.0000000000
10
424.8178963750
20
202.7418343923
30
0.0000000000
10
424.7854125792
20
206.7289812157
30
0.0000000000
10
424.7820305443
20
209.2679399964
30
0.0000000000
10
424.7829859830
20
210.5027623333
30
0.0000000000
11
425.8620612718
21
167.3048491530
31
0.0000000000
11
425.5517985032
21
175.1473171008
31
0.0000000000
11
425.3035733714
21
182.0873133523
31
0.0000000000
11
425.1136957889
21
188.2517310287
31
0.0000000000
11
424.9756227745
21
193.6981916360
31
0.0000000000
11
424.8803490999
21
198.5415494266
31
0.0000000000
11
424.8202784059
21
202.8860565634
31
0.0000000000
11
424.7894129915
21
206.7982997889
31
0.0000000000
11
424.7829859830
21
210.5027623333
31
0.0000000000
0
SPLINE
5
3B2
100
AcDbEntity
8
0
100
AcDbSpline
62
7
6
CONTINUOUS
70
0
71
3
72
15
73
11
74
9
42
0.0000001000
43
0.0000001000
44
0.0000000001
12
3.8284114216
22
43.1969485557
32
0.0000000000
13
0.1491962642
23
43.3660101809
33
0.0000000000
40
0.0000000000
40
0.0000000000
40
0.0000000000
40
0.0000000000
40
0.1822237193
40
0.3433196911
40
0.4861585882
40
0.6121403437
40
0.7240253916
40
0.8243004987
40
0.9145554758
40
1.0000000000
40
1.0000000000
40
1.0000000000
40
1.0000000000
10
418.9993797005
20
167.2452237244
30
0.0000000000
10
419.2319221566
20
169.8690599336
30
0.0000000000
10
419.6761706821
20
174.8119672765
30
0.0000000000
10
420.2749524181
20
181.8140889183
30
0.0000000000
10
420.7496159213
20
188.0106783996
30
0.0000000000
10
421.1051301229
20
193.5025901021
30
0.0000000000
10
421.3563546115
20
198.3842722875
30
0.0000000000
10
421.5196967815
20
202.7528886848
30
0.0000000000
10
421.6148394782
20
206.7412323521
30
0.0000000000
10
421.6353537007
20
209.2810465235
30
0.0000000000
10
421.6396030353
20
210.5161758917
30
0.0000000000
11
418.9993797005
21
167.2452237244
31
0.0000000000
11
419.6974820401
21
175.1166902425
31
0.0000000000
11
420.2865456046
21
182.0779422151
31
0.0000000000
11
420.7553057202
21
188.2545697781
31
0.0000000000
11
421.1055582057
21
193.7066894063
31
0.0000000000
11
421.3530125273
21
198.5524120452
31
0.0000000000
11
421.5147981783
21
202.8979584812
31
0.0000000000
11
421.6059273882
21
206.8109188874
31
0.0000000000
11
421.6396030353
21
210.5161758917
31
0.0000000000
0
SPLINE
5
3B3
100
AcDbEntity
8
0
100
AcDbSpline
62
7
6
CONTINUOUS
70
0
71
3
72
10
73
6
74
4
42
0.0000001000
43
0.0000001000
44
0.0000000001
12
0.0016739511
22
1.7373189748
32
0.0000000000
13
0.0037380374
23
1.7373157599
33
0.0000000000
40
0.0000000000
40
0.0000000000
40
0.0000000000
40
0.0000000000
40
0.3332380814
40
0.6665688585
40
1.0000000000
40
1.0000000000
40
1.0000000000
40
1.0000000000
10
424.7829859417
20
210.5027623334
30
0.0000000000
10
424.7831718831
20
210.6957426141
30
0.0000000000
10
424.7836199886
20
211.0817567871
30
0.0000000000
10
424.7845212333
20
211.6608626932
30
0.0000000000
10
424.7852752403
20
212.0469881928
30
0.0000000000
10
424.7856906996
20
212.2400799184
30
0.0000000000
11
424.7829859417
21
210.5027623334
31
0.0000000000
11
424.7836580747
21
211.0817030539
31
0.0000000000
11
424.7845594042
21
211.6608045052
31
0.0000000000
11
424.7856906996
21
212.2400799184
31
0.0000000000
0
SPLINE
5
3B4
100
AcDbEntity
8
0
100
AcDbSpline
62
7
6
CONTINUOUS
70
0
71
3
72
10
73
6
74
4
42
0.0000001000
43
0.0000001000
44
0.0000000001
12
0.0063810367
22
1.7488169604
32
0.0000000000
13
0.0008524561
23
1.7488283941
33
0.0000000000
40
0.0000000000
40
0.0000000000
40
0.0000000000
40
0.0000000000
40
0.3332426569
40
0.6665725492
40
1.0000000000
40
1.0000000000
40
1.0000000000
40
1.0000000000
10
421.6396008424
20
210.5161758911
30
0.0000000000
10
421.6403096536
20
210.7104360279
30
0.0000000000
10
421.6415205382
20
211.0990079403
30
0.0000000000
10
421.6427219687
20
211.6819496721
30
0.0000000000
10
421.6431026135
20
212.0706310073
30
0.0000000000
10
421.6431973576
20
212.2650001384
30
0.0000000000
11
421.6396008424
21
210.5161758911
31
0.0000000000
11
421.6414178955
21
211.0989573482
31
0.0000000000
11
421.6426167778
21
211.6818929649
31
0.0000000000
11
421.6431973576
21
212.2650001384
31
0.0000000000
0
SPLINE
5
3B5
100
AcDbEntity
8
0
100
AcDbSpline
62
7
6
CONTINUOUS
70
0
71
3
72
10
73
6
74
4
42
0.0000001000
43
0.0000001000
44
0.0000000001
12
3.1424507399
22
-0.0041343275
32
0.0000000000
13
3.1424050358
23
-0.0174452452
33
0.0000000000
40
0.0000000000
40
0.0000000000
40
0.0000000000
40
0.0000000000
40
0.4141379701
40
0.7549047754
40
1.0000000000
40
1.0000000000
40
1.0000000000
40
1.0000000000
10
421.6432228390
20
212.2482434461
30
0.0000000000
10
422.0770255625
20
212.2476727188
30
0.0000000000
10
422.8677757377
20
212.2463990790
30
0.0000000000
10
423.9152568774
20
212.2437811089
30
0.0000000000
10
424.5289347182
20
212.2415051670
30
0.0000000000
10
424.7856642075
20
212.2400799183
30
0.0000000000
11
421.6432228390
21
212.2482434461
31
0.0000000000
11
422.9446303106
21
212.2460638140
31
0.0000000000
11
424.0154705173
21
212.2432795539
31
0.0000000000
11
424.7856642075
21
212.2400799183
31
0.0000000000
0
SPLINE
5
3B6
100
AcDbEntity
8
0
100
AcDbSpline
62
7
6
CONTINUOUS
70
0
71
3
72
10
73
6
74
4
42
0.0000001000
43
0.0000001000
44
0.0000000001
12
0.0002508347
22
0.2816353529
32
0.0000000000
13
-0.0000305218
23
0.2816354629
33
0.0000000000
40
0.0000000000
40
0.0000000000
40
0.0000000000
40
0.0000000000
40
0.3343346392
40
0.6676689031
40
1.0000000000
40
1.0000000000
40
1.0000000000
40
1.0000000000
10
424.7856642075
20
212.2400799183
30
0.0000000000
10
424.7856921618
20
212.2714667363
30
0.0000000000
10
424.7857383301
20
212.3341464678
30
0.0000000000
10
424.7857769534
20
212.4280249496
30
0.0000000000
10
424.7857813431
20
212.4905166087
30
0.0000000000
10
424.7857779620
20
212.5217153494
30
0.0000000000
11
424.7856642075
21
212.2400799183
31
0.0000000000
11
424.7857332888
21
212.3342403844
31
0.0000000000
11
424.7857716460
21
212.4281191268
31
0.0000000000
11
424.7857779620
21
212.5217153494
31
0.0000000000
0
SPLINE
5
3B7
100
AcDbEntity
8
0
100
AcDbSpline
62
7
6
CONTINUOUS
70
0
71
3
72
10
73
6
74
4
42
0.0000001000
43
0.0000001000
44
0.0000000001
12
-0.0009814055
22
0.2783338930
32
0.0000000000
13
-0.0014586970
23
0.2783318009
33
0.0000000000
40
0.0000000000
40
0.0000000000
40
0.0000000000
40
0.0000000000
40
0.3343889812
40
0.6677214946
40
1.0000000000
40
1.0000000000
40
1.0000000000
40
1.0000000000
10
421.6432228390
20
212.2482434461
30
0.0000000000
10
421.6431134486
20
212.2792673751
30
0.0000000000
10
421.6428783781
20
212.3412171595
30
0.0000000000
10
421.6424691181
20
212.4339948030
30
0.0000000000
10
421.6421621849
20
212.4957484631
30
0.0000000000
10
421.6420006204
20
212.5265763547
30
0.0000000000
11
421.6432228390
21
212.2482434461
31
0.0000000000
11
421.6428684256
21
212.3413151368
31
0.0000000000
11
421.6424600280
21
212.4340925508
31
0.0000000000
11
421.6420006204
21
212.5265763547
31
0.0000000000
0
SPLINE
5
3B8
100
AcDbEntity
8
0
100
AcDbSpline
62
7
6
CONTINUOUS
70
0
71
3
72
9
73
5
74
3
42
0.0000001000
43
0.0000001000
44
0.0000000001
12
0.2377078553
22
0.3422400621
32
0.0000000000
13
0.4024947950
23
-0.1078481553
33
0.0000000000
40
0.0000000000
40
0.0000000000
40
0.0000000000
40
0.0000000000
40
0.5626169622
40
1.0000000000
40
1.0000000000
40
1.0000000000
40
1.0000000000
10
426.6323157090
20
141.2681270383
30
0.0000000000
10
426.6768951995
20
141.3323103930
30
0.0000000000
10
426.7697416527
20
141.4441990132
30
0.0000000000
10
426.9220203873
20
141.4725885236
30
0.0000000000
10
426.9807018527
20
141.4568648723
30
0.0000000000
11
426.6323157090
21
141.2681270383
31
0.0000000000
11
426.8001817447
21
141.4317806358
31
0.0000000000
11
426.9807018527
21
141.4568648723
31
0.0000000000
0
SPLINE
5
3B9
100
AcDbEntity
8
0
100
AcDbSpline
62
7
6
CONTINUOUS
70
0
71
3
72
43
73
39
74
37
42
0.0000001000
43
0.0000001000
44
0.0000000001
12
-0.1168091973
22
121.4891506849
32
0.0000000000
13
-20.2204580496
23
119.7946961565
33
0.0000000000
40
0.0000000000
40
0.0000000000
40
0.0000000000
40
0.0000000000
40
0.0216366807
40
0.0458683293
40
0.0731922406
40
0.1041963856
40
0.1394010382
40
0.1775692501
40
0.2155817373
40
0.2531390114
40
0.2901692209
40
0.3267005158
40
0.3628658266
40
0.3987007640
40
0.4339773166
40
0.4687039066
40
0.5028509846
40
0.5363802610
40
0.5690770365
40
0.6008073883
40
0.6315979796
40
0.6616463918
40
0.6909945406
40
0.7194970184
40
0.7469768945
40
0.7734099814
40
0.7987683192
40
0.8230414732
40
0.8461849459
40
0.8680926364
40
0.8888777043
40
0.9085175166
40
0.9269985414
40
0.9442947947
40
0.9602729980
40
0.9749130095
40
0.9882049364
40
1.0000000000
40
1.0000000000
40
1.0000000000
40
1.0000000000
10
421.6420004413
20
212.5265763537
30
0.0000000000
10
421.6411579868
20
213.4027836763
30
0.0000000000
10
421.6395800640
20
215.2602854192
30
0.0000000000
10
421.6343428330
20
218.2243036866
30
0.0000000000
10
421.6255710126
20
221.5676635272
30
0.0000000000
10
421.6128446873
20
225.3553806721
30
0.0000000000
10
421.5954020228
20
229.5822386006
30
0.0000000000
10
421.5720868341
20
234.0928853936
30
0.0000000000
10
421.5424019893
20
238.6987699638
30
0.0000000000
10
421.5066256721
20
243.2585244914
30
0.0000000000
10
421.4666881767
20
247.7582586997
30
0.0000000000
10
421.4227910861
20
252.2015838836
30
0.0000000000
10
421.3741115508
20
256.5964529650
30
0.0000000000
10
421.3186846782
20
260.9404257788
30
0.0000000000
10
421.2577751165
20
265.2260558003
30
0.0000000000
10
421.1917063569
20
269.4432491621
30
0.0000000000
10
421.1198992447
20
273.5895805274
30
0.0000000000
10
421.0412152322
20
277.6535730051
30
0.0000000000
10
420.9552804758
20
281.6195271256
30
0.0000000000
10
420.8642167405
20
285.4744289378
30
0.0000000000
10
420.7684849939
20
289.2219347564
30
0.0000000000
10
420.6671605380
20
292.8727878262
30
0.0000000000
10
420.5583653536
20
296.4307257316
30
0.0000000000
10
420.4410440731
20
299.8843185077
30
0.0000000000
10
420.3167507619
20
303.2195383026
30
0.0000000000
10
420.1859913770
20
306.4270837956
30
0.0000000000
10
420.0486047262
20
309.5043688849
30
0.0000000000
10
419.9039034080
20
312.4479509196
30
0.0000000000
10
419.7511212077
20
315.2511895888
30
0.0000000000
10
419.5916013186
20
317.9125578893
30
0.0000000000
10
419.4251502612
20
320.4313268423
30
0.0000000000
10
419.2510682762
20
322.8104668464
30
0.0000000000
10
419.0683732143
20
325.0472438819
30
0.0000000000
10
418.8762553805
20
327.1343736360
30
0.0000000000
10
418.6759420660
20
329.0644188414
30
0.0000000000
10
418.4684654702
20
330.8305445062
30
0.0000000000
10
418.2547355505
20
332.4251603892
30
0.0000000000
10
418.0995101691
20
333.4292778342
30
0.0000000000
10
418.0200096398
20
333.9002731856
30
0.0000000000
11
421.6420004413
21
212.5265763537
31
0.0000000000
11
421.6392901359
21
215.1551981393
31
0.0000000000
11
421.6341689667
21
218.0990774501
31
0.0000000000
11
421.6255804051
21
221.4186266521
31
0.0000000000
11
421.6129654289
21
225.1852745146
31
0.0000000000
11
421.5951843201
21
229.4622228698
31
0.0000000000
11
421.5710660852
21
234.0991859390
31
0.0000000000
11
421.5411983459
21
238.7171962723
31
0.0000000000
11
421.5056699216
21
243.2798613869
31
0.0000000000
11
421.4657512036
21
247.7784550665
31
0.0000000000
11
421.4217548614
21
252.2163950307
31
0.0000000000
11
421.3727255148
21
256.6098163808
31
0.0000000000
11
421.3173338866
21
260.9630221041
31
0.0000000000
11
421.2564122221
21
265.2483094840
31
0.0000000000
11
421.1901680434
21
269.4666952501
31
0.0000000000
11
421.1180412623
21
273.6145696165
31
0.0000000000
11
421.0389777935
21
277.6872474443
31
0.0000000000
11
420.9531201288
21
281.6586247928
31
0.0000000000
11
420.8620652986
21
285.5124445336
31
0.0000000000
11
420.7663254431
21
289.2519436657
31
0.0000000000
11
420.6646372292
21
292.9010848760
31
0.0000000000
11
420.5552762947
21
296.4648906263
31
0.0000000000
11
420.4377047619
21
299.9256375085
31
0.0000000000
11
420.3131917132
21
303.2618231233
31
0.0000000000
11
420.1821049954
21
306.4704812926
31
0.0000000000
11
420.0442846130
21
309.5481613425
31
0.0000000000
11
419.8989790175
21
312.4935054948
31
0.0000000000
11
419.7457927321
21
315.3010115847
31
0.0000000000
11
419.5861000948
21
317.9577644358
31
0.0000000000
11
419.4190474526
21
320.4773940857
31
0.0000000000
11
419.2441886048
21
322.8570034459
31
0.0000000000
11
419.0605026688
21
325.0947221124
31
0.0000000000
11
418.8671495692
21
327.1871155467
31
0.0000000000
11
418.6658083483
21
329.1178248923
31
0.0000000000
11
418.4570701943
21
330.8841369779
31
0.0000000000
11
418.2409955166
21
332.4844412128
31
0.0000000000
11
418.0200096398
21
333.9002731856
31
0.0000000000
0
SPLINE
5
3BA
100
AcDbEntity
8
0
100
AcDbSpline
62
7
6
CONTINUOUS
70
0
71
3
72
8
73
4
74
2
42
0.0000001000
43
0.0000001000
44
0.0000000001
12
-0.0026618391
22
0.0157698803
32
0.0000000000
13
-0.0026667195
23
0.0157690510
33
0.0000000000
40
0.0000000000
40
0.0000000000
40
0.0000000000
40
0.0000000000
40
1.0000000000
40
1.0000000000
40
1.0000000000
40
1.0000000000
10
418.0200096398
20
333.9002731856
30
0.0000000000
10
418.0191223601
20
333.9055298124
30
0.0000000000
10
418.0182342685
20
333.9107863013
30
0.0000000000
10
418.0173453620
20
333.9160426516
30
0.0000000000
11
418.0200096398
21
333.9002731856
31
0.0000000000
11
418.0173453620
21
333.9160426516
31
0.0000000000
0
SPLINE
5
3BB
100
AcDbEntity
8
0
100
AcDbSpline
62
7
6
CONTINUOUS
70
0
71
3
72
10
73
6
74
4
42
0.0000001000
43
0.0000001000
44
0.0000000001
12
3.1437744312
22
-0.0008289082
32
0.0000000000
13
3.1437424235
23
-0.0142104305
33
0.0000000000
40
0.0000000000
40
0.0000000000
40
0.0000000000
40
0.0000000000
40
0.4145160991
40
0.7550511932
40
1.0000000000
40
1.0000000000
40
1.0000000000
40
1.0000000000
10
421.6420004413
20
212.5265763537
30
0.0000000000
10
422.0763821459
20
212.5264618218
30
0.0000000000
10
422.8676190880
20
212.5260197723
30
0.0000000000
10
423.9155427671
20
212.5245089827
30
0.0000000000
10
424.5290844054
20
212.5228756127
30
0.0000000000
10
424.7857697239
20
212.5217153367
30
0.0000000000
11
421.6420004413
21
212.5265763537
31
0.0000000000
11
422.9451453483
21
212.5257658857
31
0.0000000000
11
424.0157096286
21
212.5241112485
31
0.0000000000
11
424.7857697239
21
212.5217153367
31
0.0000000000
0
SPLINE
5
3BC
100
AcDbEntity
8
0
100
AcDbSpline
62
7
6
CONTINUOUS
70
0
71
3
72
43
73
39
74
37
42
0.0000001000
43
0.0000001000
44
0.0000000001
12
-0.0121041667
22
113.8544761330
32
0.0000000000
13
2.6225611535
23
113.8242683043
33
0.0000000000
40
0.0000000000
40
0.0000000000
40
0.0000000000
40
0.0000000000
40
0.0221752237
40
0.0469872543
40
0.0749042795
40
0.1065097034
40
0.1423756217
40
0.1813743276
40
0.2203479138
40
0.2588223360
40
0.2967114339
40
0.3340339552
40
0.3709252994
40
0.4074401687
40
0.4433527172
40
0.4786365062
40
0.5132725915
40
0.5472294835
40
0.5803060370
40
0.6123291979
40
0.6432869134
40
0.6733571796
40
0.7026398497
40
0.7310246643
40
0.7583218448
40
0.7844610622
40
0.8094246763
40
0.8331981749
40
0.8557488023
40
0.8769842671
40
0.8969368192
40
0.9156590940
40
0.9331223434
40
0.9493089204
40
0.9641375436
40
0.9775308451
40
0.9894885874
40
1.0000000000
40
1.0000000000
40
1.0000000000
40
1.0000000000
10
424.7857697239
20
212.5217153367
30
0.0000000000
10
424.7856802530
20
213.3632981619
30
0.0000000000
10
424.7863366785
20
215.1465345435
30
0.0000000000
10
424.7869539296
20
217.9892636294
30
0.0000000000
10
424.7875841667
20
221.1898829377
30
0.0000000000
10
424.7892911081
20
224.8100135013
30
0.0000000000
10
424.7927465338
20
228.8507093075
30
0.0000000000
10
424.7975178017
20
233.1710366555
30
0.0000000000
10
424.8029232576
20
237.5903599182
30
0.0000000000
10
424.8082210060
20
241.9675720483
30
0.0000000000
10
424.8152036318
20
246.2821214792
30
0.0000000000
10
424.8241742816
20
250.5365869599
30
0.0000000000
10
424.8350151421
20
254.7388937482
30
0.0000000000
10
424.8458262287
20
258.8876898086
30
0.0000000000
10
424.8575966566
20
262.9754739935
30
0.0000000000
10
424.8708707396
20
266.9919505600
30
0.0000000000
10
424.8853653767
20
270.9342022507
30
0.0000000000
10
424.9001537403
20
274.7926843215
30
0.0000000000
10
424.9141304754
20
278.5520043717
30
0.0000000000
10
424.9288686135
20
282.1974975326
30
0.0000000000
10
424.9454151764
20
285.7288888012
30
0.0000000000
10
424.9639388055
20
289.1562629701
30
0.0000000000
10
424.9834559508
20
292.4859843677
30
0.0000000000
10
425.0023742127
20
295.7104646942
30
0.0000000000
10
425.0213029477
20
298.8156442025
30
0.0000000000
10
425.0410958246
20
301.7909760086
30
0.0000000000
10
425.0618212750
20
304.6325691068
30
0.0000000000
10
425.0832633618
20
307.3379603568
30
0.0000000000
10
425.1043936846
20
309.9018605918
30
0.0000000000
10
425.1256550477
20
312.3207441165
30
0.0000000000
10
425.1481614503
20
314.5943182470
30
0.0000000000
10
425.1718421995
20
316.7247109627
30
0.0000000000
10
425.1963497458
20
318.7121596462
30
0.0000000000
10
425.2206822215
20
320.5518283938
30
0.0000000000
10
425.2444836294
20
322.2370296808
30
0.0000000000
10
425.2687134596
20
323.7617166303
30
0.0000000000
10
425.2935710369
20
325.1225248457
30
0.0000000000
10
425.3116740867
20
325.9750723758
30
0.0000000000
10
425.3208630275
20
326.3738903251
30
0.0000000000
11
424.7857697239
21
212.5217153367
31
0.0000000000
11
424.7862398773
21
215.0464637830
31
0.0000000000
11
424.7869193822
21
217.8714244604
31
0.0000000000
11
424.7876930586
21
221.0499026723
31
0.0000000000
11
424.7894304235
21
224.6483212476
31
0.0000000000
11
424.7928073780
21
228.7318152196
31
0.0000000000
11
424.7976067720
21
233.1719898742
31
0.0000000000
11
424.8029368724
21
237.6093039419
31
0.0000000000
11
424.8085481120
21
241.9897855609
31
0.0000000000
11
424.8155934783
21
246.3036232247
31
0.0000000000
11
424.8245444460
21
250.5529499284
31
0.0000000000
11
424.8350703630
21
254.7531814276
31
0.0000000000
11
424.8460769310
21
258.9105481944
31
0.0000000000
11
424.8579578816
21
262.9993353590
31
0.0000000000
11
424.8712032356
21
267.0165308584
31
0.0000000000
11
424.8855636586
21
270.9599780804
31
0.0000000000
11
424.9002068478
21
274.8260945191
31
0.0000000000
11
424.9144863580
21
278.5919811372
31
0.0000000000
11
424.9294292428
21
282.2379307438
31
0.0000000000
11
424.9460015121
21
285.7625662838
31
0.0000000000
11
424.9643644959
21
289.1861514600
31
0.0000000000
11
424.9836588251
21
292.5200587125
31
0.0000000000
11
425.0027420152
21
295.7517405914
31
0.0000000000
11
425.0218653036
21
298.8595879524
31
0.0000000000
11
425.0417179915
21
301.8355886615
31
0.0000000000
11
425.0624573997
21
304.6777322198
31
0.0000000000
11
425.0837773843
21
307.3843674916
31
0.0000000000
11
425.1050466546
21
309.9517692703
31
0.0000000000
11
425.1265438913
21
312.3694264357
31
0.0000000000
11
425.1490988016
21
314.6410018467
31
0.0000000000
11
425.1728200518
21
316.7724846537
31
0.0000000000
11
425.1972550605
21
318.7606036256
31
0.0000000000
11
425.2216513813
21
320.6033563868
31
0.0000000000
11
425.2457754959
21
322.2914891633
31
0.0000000000
11
425.2702166860
21
323.8161806119
31
0.0000000000
11
425.2952897657
21
325.1773922063
31
0.0000000000
11
425.3208630275
21
326.3738903251
31
0.0000000000
0
SPLINE
5
3BD
100
AcDbEntity
8
0
100
AcDbSpline
62
7
6
CONTINUOUS
70
0
71
3
72
21
73
17
74
15
42
0.0000001000
43
0.0000001000
44
0.0000000001
12
-10.3468477405
22
59.0370693483
32
0.0000000000
13
5.7538217319
23
59.6600901012
33
0.0000000000
40
0.0000000000
40
0.0000000000
40
0.0000000000
40
0.0000000000
40
0.0513475425
40
0.1026465145
40
0.1544397213
40
0.2072239627
40
0.2614950449
40
0.3178421525
40
0.3769937028
40
0.4398990599
40
0.5078785803
40
0.5829380833
40
0.6676774069
40
0.7636351901
40
0.8739327032
40
1.0000000000
40
1.0000000000
40
1.0000000000
40
1.0000000000
10
419.0072642412
20
107.2452249184
30
0.0000000000
10
418.8301691732
20
108.2556943938
30
0.0000000000
10
418.4945141149
20
110.2789535930
30
0.0000000000
10
418.0485715244
20
113.3323049913
30
0.0000000000
10
417.6625433660
20
116.4227770648
30
0.0000000000
10
417.3378971115
20
119.5800209228
30
0.0000000000
10
417.0777173838
20
122.8345382929
30
0.0000000000
10
416.8863234309
20
126.2212713264
30
0.0000000000
10
416.7694857712
20
129.7840179080
30
0.0000000000
10
416.7349298859
20
133.5809423388
30
0.0000000000
10
416.7933468448
20
137.6954431000
30
0.0000000000
10
416.9600475404
20
142.2435240808
30
0.0000000000
10
417.2539241487
20
147.3451503270
30
0.0000000000
10
417.6930487943
20
153.1425657517
30
0.0000000000
10
418.2853525589
20
159.7556748728
30
0.0000000000
10
418.7393321707
20
164.4561308903
30
0.0000000000
10
418.9811217547
20
166.9631929854
30
0.0000000000
11
419.0072642412
21
107.2452249184
31
0.0000000000
11
418.5041807426
21
110.2814409858
31
0.0000000000
11
418.0604896390
21
113.3239611300
31
0.0000000000
11
417.6760983208
21
116.4043952956
31
0.0000000000
11
417.3526859629
21
119.5515455979
31
0.0000000000
11
417.0934012451
21
122.7940361139
31
0.0000000000
11
416.9024730040
21
126.1659062422
31
0.0000000000
11
416.7855051741
21
129.7093371890
31
0.0000000000
11
416.7499259381
21
133.4795218511
31
0.0000000000
11
416.8058187707
21
137.5536206575
31
0.0000000000
11
416.9676720359
21
142.0495426883
31
0.0000000000
11
417.2553396761
21
147.1204025700
31
0.0000000000
11
417.6836090375
21
152.8558479425
31
0.0000000000
11
418.2643670098
21
159.4411809141
31
0.0000000000
11
418.9811217547
21
166.9631929854
31
0.0000000000
0
SPLINE
5
3BE
100
AcDbEntity
8
0
100
AcDbSpline
62
7
6
CONTINUOUS
70
0
71
3
72
11
73
7
74
5
42
0.0000001000
43
0.0000001000
44
0.0000000001
12
0.0036747115
22
1.7487494987
32
0.0000000000
13
0.9975980813
23
1.4362925820
33
0.0000000000
40
0.0000000000
40
0.0000000000
40
0.0000000000
40
0.0000000000
40
0.2997693894
40
0.5724116865
40
0.8092439482
40
1.0000000000
40
1.0000000000
40
1.0000000000
40
1.0000000000
10
426.2397991030
20
139.5849382620
30
0.0000000000
10
426.2401662916
20
139.7596787852
30
0.0000000000
10
426.2585163791
20
140.0936170834
30
0.0000000000
10
426.3380710483
20
140.5598434712
30
0.0000000000
10
426.4579102813
20
140.9509409778
30
0.0000000000
10
426.5688830853
20
141.1767998709
30
0.0000000000
10
426.6323157090
20
141.2681270383
30
0.0000000000
11
426.2397991030
21
139.5849382620
31
0.0000000000
11
426.2697864362
21
140.1083025971
31
0.0000000000
11
426.3522182962
21
140.5779067899
31
0.0000000000
11
426.4773904845
21
140.9726996900
31
0.0000000000
11
426.6323157090
21
141.2681270383
31
0.0000000000
0
SPLINE
5
3BF
100
AcDbEntity
8
0
100
AcDbSpline
62
7
6
CONTINUOUS
70
0
71
3
72
10
73
6
74
4
42
0.0000001000
43
0.0000001000
44
0.0000000001
12
-0.3983294561
22
-10.4813274036
32
0.0000000000
13
-0.7102103846
23
-10.4648216281
33
0.0000000000
40
0.0000000000
40
0.0000000000
40
0.0000000000
40
0.0000000000
40
0.3255599445
40
0.6585207469
40
1.0000000000
40
1.0000000000
40
1.0000000000
40
1.0000000000
10
426.4173405758
20
117.7191654686
30
0.0000000000
10
426.3741138706
20
116.5817320126
30
0.0000000000
10
426.2758357959
20
114.2814037461
30
0.0000000000
10
426.0923657231
20
110.7898707630
30
0.0000000000
10
425.9448191653
20
108.4363980762
30
0.0000000000
10
425.8639784614
20
107.2452249184
30
0.0000000000
11
426.4173405758
21
117.7191654686
31
0.0000000000
11
426.2714310629
21
114.3075205358
31
0.0000000000
11
426.0881262525
21
110.8199439519
31
0.0000000000
11
425.8639784614
21
107.2452249184
31
0.0000000000
0
SPLINE
5
3C0
100
AcDbEntity
8
0
100
AcDbSpline
62
7
6
CONTINUOUS
70
0
71
3
72
14
73
10
74
8
42
0.0000001000
43
0.0000001000
44
0.0000000001
12
-0.0434447215
22
-20.6748023418
32
0.0000000000
13
0.0634005623
23
-20.6747507768
33
0.0000000000
40
0.0000000000
40
0.0000000000
40
0.0000000000
40
0.0000000000
40
0.1605772975
40
0.3110130975
40
0.4542125493
40
0.5928334559
40
0.7292085133
40
0.8647468125
40
1.0000000000
40
1.0000000000
40
1.0000000000
40
1.0000000000
10
426.2397991030
20
139.5849382620
30
0.0000000000
10
426.2374736910
20
138.4783036330
30
0.0000000000
10
426.2338114027
20
136.3349235449
30
0.0000000000
10
426.2318579227
20
133.2046649962
30
0.0000000000
10
426.2335647120
20
130.2257213077
30
0.0000000000
10
426.2385784717
20
127.3436828729
30
0.0000000000
10
426.2463118183
20
124.5144486057
30
0.0000000000
10
426.2558042276
20
121.7084291670
30
0.0000000000
10
426.2622631612
20
119.8422493487
30
0.0000000000
10
426.2651215373
20
118.9101407007
30
0.0000000000
11
426.2397991030
21
139.5849382620
31
0.0000000000
11
426.2343116728
21
136.2650315802
31
0.0000000000
11
426.2324625922
21
133.1547948344
31
0.0000000000
11
426.2341678395
21
130.1941684266
31
0.0000000000
11
426.2390839283
21
127.3282064719
31
0.0000000000
11
426.2466337312
21
124.5086829994
31
0.0000000000
11
426.2558474217
21
121.7064644140
31
0.0000000000
11
426.2651215373
21
118.9101407007
31
0.0000000000
0
SPLINE
5
3C1
100
AcDbEntity
8
0
100
AcDbSpline
62
7
6
CONTINUOUS
70
0
71
3
72
10
73
6
74
4
42
0.0000001000
43
0.0000001000
44
0.0000000001
12
0.9695168587
22
-25.9707787805
32
0.0000000000
13
0.3953090366
23
-25.9858623904
33
0.0000000000
40
0.0000000000
40
0.0000000000
40
0.0000000000
40
0.0000000000
40
0.3488756544
40
0.6827492642
40
1.0000000000
40
1.0000000000
40
1.0000000000
40
1.0000000000
10
425.8636052457
20
167.2451421163
30
0.0000000000
10
425.9763521885
20
164.2249513024
30
0.0000000000
10
426.1938609966
20
158.3143143801
30
0.0000000000
10
426.4668315760
20
149.6555956406
30
0.0000000000
10
426.5905112533
20
144.0161383595
30
0.0000000000
10
426.6323152809
20
141.2681270383
30
0.0000000000
11
425.8636052457
21
167.2451421163
31
0.0000000000
11
426.1905098697
21
158.1841535833
31
0.0000000000
11
426.4571557572
21
149.5112540739
31
0.0000000000
11
426.6323152809
21
141.2681270383
31
0.0000000000
0
SPLINE
5
3C2
100
AcDbEntity
8
0
100
AcDbSpline
62
7
6
CONTINUOUS
70
0
71
3
72
9
73
5
74
3
42
0.0000001000
43
0.0000001000
44
0.0000000001
12
1.9302171356
22
-0.2155340098
32
0.0000000000
13
1.9282139353
23
-0.2327748258
33
0.0000000000
40
0.0000000000
40
0.0000000000
40
0.0000000000
40
0.0000000000
40
0.2507711777
40
1.0000000000
40
1.0000000000
40
1.0000000000
40
1.0000000000
10
419.7103645357
20
210.7402881302
30
0.0000000000
10
419.8717121438
20
210.7222715577
30
0.0000000000
10
420.5150383423
20
210.6497167567
30
0.0000000000
10
421.1580430237
20
210.5743097606
30
0.0000000000
10
421.6396008424
20
210.5161758911
30
0.0000000000
11
419.7103645357
21
210.7402881302
31
0.0000000000
11
420.1943472617
21
210.6857028882
31
0.0000000000
11
421.6396008424
21
210.5161758911
31
0.0000000000
0
ENDSEC
0
SECTION
2
OBJECTS
0
DICTIONARY
5
C
100
AcDbDictionary
280
0
281
1
3
ACAD_GROUP
350
D
3
ACAD_MLINESTYLE
350
17
3
ACAD_LAYOUT
350
1A
3
ACAD_PLOTSETTINGS
350
19
3
ACAD_PLOTSTYLENAME
350
E
0
DICTIONARY
5
D
102
{ACAD_REACTORS
330
C
102
}
100
AcDbDictionary
280
0
281
1
0
ACDBDICTIONARYWDFLT
5
E
102
{ACAD_REACTORS
330
C
102
}
100
AcDbDictionary
281
1
3
Normal
350
F
100
AcDbDictionaryWithDefault
340
F
0
DICTIONARY
5
17
102
{ACAD_REACTORS
330
C
102
}
100
AcDbDictionary
280
0
281
1
3
Standard
350
18
0
DICTIONARY
5
19
102
{ACAD_REACTORS
330
C
102
}
100
AcDbDictionary
281
1
0
DICTIONARY
5
1A
102
{ACAD_REACTORS
330
C
102
}
100
AcDbDictionary
281
1
3
Layout1
350
1E
3
Model
350
22
0
ACDBPLACEHOLDER
5
F
102
{ACAD_REACTORS
330
E
102
}
0
MLINESTYLE
5
18
102
{ACAD_REACTORS
330
17
102
}
100
AcDbMlineStyle
2
STANDARD
70
0
3

62
256
51
90.0
52
90.0
71
2
49
0.5
62
256
6
BYLAYER
49
-0.5
62
256
6
BYLAYER
0
LAYOUT
5
1E
102
{ACAD_REACTORS
330
1A
102
}
100
AcDbPlotSettings
1

2

4

6

40
0.0
41
0.0
42
0.0
43
0.0
44
0.0
45
0.0
46
0.0
47
0.0
48
0.0
49
0.0
140
0.0
141
0.0
142
1.0
143
1.0
70
0
72
0
73
0
74
0
7

75
0
147
1.0
148
0.0
149
0.0
100
AcDbLayout
1
Layout1
70
0
71
0
10
0.0
20
0.0
11
0.0
21
0.0
12
0.0
22
0.0
32
0.0
14
0.0
24
0.0
34
0.0
15
0.0
25
0.0
35
0.0
146
0.0
13
0.0
23
0.0
33
0.0
16
0.0
26
0.0
36
0.0
17
0.0
27
0.0
37
0.0
76
0
330
1B
331
0
345
0
346
0
0
LAYOUT
5
22
102
{ACAD_REACTORS
330
1A
102
}
100
AcDbPlotSettings
1

2

4

6

40
0.0
41
0.0
42
0.0
43
0.0
44
0.0
45
0.0
46
0.0
47
0.0
48
0.0
49
0.0
140
0.0
141
0.0
142
1.0
143
1.0
70
0
72
0
73
0
74
0
7

75
0
147
1.0
148
0.0
149
0.0
100
AcDbLayout
1
Model
70
0
71
0
10
0.0
20
0.0
11
0.0
21
0.0
12
0.0
22
0.0
32
0.0
14
0.0
24
0.0
34
0.0
15
0.0
25
0.0
35
0.0
146
0.0
13
0.0
23
0.0
33
0.0
16
0.0
26
0.0
36
0.0
17
0.0
27
0.0
37
0.0
76
0
330
1F
331
0
345
0
346
0
0
ENDSEC
0
EOF
