999
DXF file: s0704684892.dxf
999
Pro/ENGINEER 2005310 by Parametric Technology Corporation
0
SECTION
2
HEADER
9
$ACADVER
1
AC1015
9
$DWGCODEPAGE
3
ANSI_1252
9
$EXTMAX
10
297.0000000000
20
210.0000000000
30
0.0000000000
9
$EXTMIN
10
0.0000000000
20
0.0000000000
30
0.0000000000
9
$LIMMIN
10
0.0000000000
20
0.0000000000
9
$LIMMAX
10
297.0000000000
20
210.0000000000
9
$VIEWCTR
10
148.5000000000
20
105.0000000000
9
$VIEWSIZE
40
210.0000000000
9
$CLAYER
8
0
9
$LTSCALE
40
16.3350000000
9
$CELTYPE
6
BYLAYER
9
$DIMSCALE
40
1
9
$DIMASZ
40
3.5000000000
9
$DIMEXO
40
1.8562500000
9
$DIMDLI
40
11.2860000000
9
$DIMEXE
40
5.3460000000
9
$DIMCEN
40
2.6730000000
9
$DIMLFAC
40
1.0000000000
9
$DIMBLK
1
_FILLED
9
$DIMTXT
40
3.5000000000
9
$DIMTOL
70
1
9
$DIMLIM
70
0
9
$DIMTFAC
40
1.0000000000
9
$DIMTP
40
0.0010000000
9
$DIMTM
40
0.0010000000
9
$PDMODE
70
3
9
$PDSIZE
40
0.3125000000
9
$HANDSEED
5
351
9
$MEASUREMENT
70
1
9
$INSUNITS
70
4
0
ENDSEC
0
SECTION
2
CLASSES
0
CLASS
1
ACDBDICTIONARYWDFLT
2
AcDbDictionaryWithDefault
3
AutoCAD 2000
90
0
280
0
281
0
0
CLASS
1
ACDBPLACEHOLDER
2
AcDbPlaceHolder
3
AutoCAD 2000
90
0
280
0
281
0
0
CLASS
1
LAYOUT
2
AcDbLayout
3
AutoCAD 2000
90
0
280
0
281
0
0
ENDSEC
0
SECTION
2
TABLES
0
TABLE
2
VPORT
5
8
100
AcDbSymbolTable
70
2
0
VPORT
5
1F4
100
AcDbSymbolTableRecord
100
AcDbViewportTableRecord
2
*ACTIVE
70
0
10
0.0
20
0.0
11
1.0
21
1.0
12
148.5000000000
22
105.0000000000
13
0.0
23
0.0
14
1.0
24
1.0
15
0.0
25
0.0
16
0.0
26
0.0
36
1.0
17
0.0
27
0.0
37
0.0
40
210.0000000000
41
1.4142857143
42
50.0
43
0.0
44
0.0
50
0.0
51
0.0
71
0
72
100
73
1
74
1
75
0
76
0
77
0
78
0
0
ENDTAB
0
TABLE
2
LTYPE
5
5
100
AcDbSymbolTable
70
6
0
LTYPE
5
14
100
AcDbSymbolTableRecord
100
AcDbLinetypeTableRecord
2
BYBLOCK
70
0
3

72
65
73
0
40
0.0
0
LTYPE
5
15
100
AcDbSymbolTableRecord
100
AcDbLinetypeTableRecord
2
BYLAYER
70
0
3

72
65
73
0
40
0.0
0
LTYPE
5
16
100
AcDbSymbolTableRecord
100
AcDbLinetypeTableRecord
2
CONTINUOUS
70
64
3
Solid line
72
65
73
0
40
0
0
LTYPE
5
1F5
100
AcDbSymbolTableRecord
100
AcDbLinetypeTableRecord
2
CENTER
70
64
3
____ _ ____ _ ____ _ ____ _ ____ _ ____ _ ____
72
65
73
4
40
0.6
49
0.375
74
0
49
-0.075
74
0
49
0.075
74
0
49
-0.075
74
0
0
LTYPE
5
1F6
100
AcDbSymbolTableRecord
100
AcDbLinetypeTableRecord
2
HIDDEN
70
64
3
- - - - - - - - - - - - - - - - - - - -
72
65
73
2
40
0.2
49
0.1
74
0
49
-0.1
74
0
0
LTYPE
5
1F7
100
AcDbSymbolTableRecord
100
AcDbLinetypeTableRecord
2
PHANTOM
70
64
3
_____ _ _ _____ _ _ _____ _ _ _____
72
65
73
6
40
0.8
49
0.45
74
0
49
-0.05
74
0
49
0.1
74
0
49
-0.05
74
0
49
0.1
74
0
49
-0.05
74
0
0
LTYPE
5
1F8
100
AcDbSymbolTableRecord
100
AcDbLinetypeTableRecord
2
DOT
70
64
3
. . . . . . . . . . . . . . . . . . . .
72
65
73
2
40
0.2
49
0.1
74
0
49
-0.1
74
0
0
LTYPE
5
1F9
100
AcDbSymbolTableRecord
100
AcDbLinetypeTableRecord
2
DASHED
70
64
3
- - - - - - - - - - - - - - - - - - - -
72
65
73
2
40
0.2
49
0.1
74
0
49
-0.1
74
0
0
ENDTAB
0
TABLE
2
LAYER
5
2
100
AcDbSymbolTable
70
36
0
LAYER
5
10
100
AcDbSymbolTableRecord
100
AcDbLayerTableRecord
2
0
70
0
62
7
6
CONTINUOUS
370
-3
390
F
0
LAYER
5
1FA
100
AcDbSymbolTableRecord
100
AcDbLayerTableRecord
2
DEFAULT_1
70
0
62
7
6
CENTER
370
-3
390
F
0
LAYER
5
1FB
100
AcDbSymbolTableRecord
100
AcDbLayerTableRecord
2
DEFAULT_2
70
0
62
8
6
HIDDEN
370
-3
390
F
0
LAYER
5
1FC
100
AcDbSymbolTableRecord
100
AcDbLayerTableRecord
2
DEFAULT_3
70
0
62
7
6
PHANTOM
370
-3
390
F
0
LAYER
5
1FD
100
AcDbSymbolTableRecord
100
AcDbLayerTableRecord
2
_2D_DELETED_OBJS
70
0
62
7
6
CONTINUOUS
370
-3
390
F
0
LAYER
5
1FE
100
AcDbSymbolTableRecord
100
AcDbLayerTableRecord
2
ASSI
70
0
62
7
6
CONTINUOUS
370
-3
390
F
0
LAYER
5
1FF
100
AcDbSymbolTableRecord
100
AcDbLayerTableRecord
2
PIANI
70
0
62
7
6
CONTINUOUS
370
-3
390
F
0
LAYER
5
200
100
AcDbSymbolTableRecord
100
AcDbLayerTableRecord
2
PUNTI
70
0
62
7
6
CONTINUOUS
370
-3
390
F
0
ENDTAB
0
TABLE
2
STYLE
5
3
100
AcDbSymbolTable
70
1
0
STYLE
5
11
100
AcDbSymbolTableRecord
100
AcDbTextStyleTableRecord
2
STANDARD
70
0
40
0.0
41
0.7143000000
50
0.0
71
0
42
0.2
3
txt
4

0
ENDTAB
0
TABLE
2
VIEW
5
6
100
AcDbSymbolTable
70
0
0
ENDTAB
0
TABLE
2
UCS
5
7
100
AcDbSymbolTable
70
0
0
ENDTAB
0
TABLE
2
APPID
5
9
100
AcDbSymbolTable
70
1
0
APPID
5
201
100
AcDbSymbolTableRecord
100
AcDbRegAppTableRecord
2
ACAD
70
0
0
ENDTAB
0
TABLE
2
BLOCK_RECORD
5
1
100
AcDbSymbolTable
70
0
0
BLOCK_RECORD
5
1F
100
AcDbSymbolTableRecord
100
AcDbBlockTableRecord
2
*MODEL_SPACE
0
BLOCK_RECORD
5
1B
100
AcDbSymbolTableRecord
100
AcDbBlockTableRecord
2
*PAPER_SPACE
0
BLOCK_RECORD
5
202
100
AcDbSymbolTableRecord
100
AcDbBlockTableRecord
2
_FILLED
0
BLOCK_RECORD
5
203
100
AcDbSymbolTableRecord
100
AcDbBlockTableRecord
2
*D0
0
BLOCK_RECORD
5
204
100
AcDbSymbolTableRecord
100
AcDbBlockTableRecord
2
*D1
0
BLOCK_RECORD
5
205
100
AcDbSymbolTableRecord
100
AcDbBlockTableRecord
2
*D2
0
BLOCK_RECORD
5
206
100
AcDbSymbolTableRecord
100
AcDbBlockTableRecord
2
*D3
0
BLOCK_RECORD
5
207
100
AcDbSymbolTableRecord
100
AcDbBlockTableRecord
2
*D4
0
BLOCK_RECORD
5
208
100
AcDbSymbolTableRecord
100
AcDbBlockTableRecord
2
*D5
0
BLOCK_RECORD
5
209
100
AcDbSymbolTableRecord
100
AcDbBlockTableRecord
2
*D6
0
BLOCK_RECORD
5
20A
100
AcDbSymbolTableRecord
100
AcDbBlockTableRecord
2
*D7
0
BLOCK_RECORD
5
20B
100
AcDbSymbolTableRecord
100
AcDbBlockTableRecord
2
*D8
0
BLOCK_RECORD
5
20C
100
AcDbSymbolTableRecord
100
AcDbBlockTableRecord
2
*D9
0
BLOCK_RECORD
5
20D
100
AcDbSymbolTableRecord
100
AcDbBlockTableRecord
2
*D10
0
BLOCK_RECORD
5
20E
100
AcDbSymbolTableRecord
100
AcDbBlockTableRecord
2
*D11
0
BLOCK_RECORD
5
20F
100
AcDbSymbolTableRecord
100
AcDbBlockTableRecord
2
*D12
0
BLOCK_RECORD
5
210
100
AcDbSymbolTableRecord
100
AcDbBlockTableRecord
2
*D13
0
BLOCK_RECORD
5
211
100
AcDbSymbolTableRecord
100
AcDbBlockTableRecord
2
*D14
0
ENDTAB
0
TABLE
2
DIMSTYLE
5
A
100
AcDbSymbolTable
70
1
100
AcDbDimStyleTable
71
0
0
DIMSTYLE
105
212
100
AcDbSymbolTableRecord
100
AcDbDimStyleTableRecord
2
STANDARD
70
0
3

4

40
1.0
41
3.5000000000
42
0.0625
43
0.38
44
0.18
45
0.0
46
0.0
47
0.0010000000
48
0.0010000000
140
3.5000000000
141
0.09
142
0.0
143
25.4
144
1.0000000000
145
0.0
146
1.0000000000
147
0.09
71
1
72
0
73
0
74
0
75
0
76
0
77
1
78
8
170
0
171
2
172
0
173
0
174
0
175
0
176
0
177
0
178
5
270
2
271
3
272
3
273
2
274
2
275
0
280
0
281
0
282
0
283
1
284
8
285
0
286
0
287
3
288
0
340
11
341
202
342
202
343
202
344
202
0
ENDTAB
0
ENDSEC
0
SECTION
2
BLOCKS
0
BLOCK
5
20
100
AcDbEntity
8
0
100
AcDbBlockBegin
2
*MODEL_SPACE
70
0
10
0.0
20
0.0
30
0.0
3
*MODEL_SPACE
1

0
ENDBLK
5
21
100
AcDbEntity
8
0
100
AcDbBlockEnd
0
BLOCK
5
1C
100
AcDbEntity
8
0
100
AcDbBlockBegin
2
*PAPER_SPACE
70
0
10
0.0
20
0.0
30
0.0
3
*PAPER_SPACE
1

0
ENDBLK
5
1D
100
AcDbEntity
8
0
100
AcDbBlockEnd
0
BLOCK
5
213
100
AcDbEntity
8
0
100
AcDbBlockBegin
62
2
6
CONTINUOUS
2
*D0
70
65
10
0.0000000000
20
0.0000000000
3
*D0
1

0
TEXT
5
214
100
AcDbEntity
8
0
100
AcDbText
62
5
6
CONTINUOUS
10
147.5967262951
20
150.4460815029
7
STANDARD
40
3.5000000000
1
50
50
90.0000000000
41
0.7143000000
72
0
100
AcDbText
0
LINE
5
215
100
AcDbEntity
8
0
100
AcDbLine
62
2
6
CONTINUOUS
10
167.2570437295
20
126.5910764432
11
146.9717262951
21
126.5910764432
0
LINE
5
216
100
AcDbEntity
8
0
100
AcDbLine
62
2
6
CONTINUOUS
10
167.2570437295
20
176.5910764432
11
146.9717262951
21
176.5910764432
0
LINE
5
217
100
AcDbEntity
8
0
100
AcDbLine
62
2
6
CONTINUOUS
10
148.4717262951
20
126.5910764432
11
148.4717262951
21
151.5910764432
0
LINE
5
218
100
AcDbEntity
8
0
100
AcDbLine
62
2
6
CONTINUOUS
10
148.4717262951
20
176.5910764432
11
148.4717262951
21
151.5910764432
0
INSERT
5
219
100
AcDbEntity
8
0
100
AcDbBlockReference
62
2
6
CONTINUOUS
2
_FILLED
10
148.4717262951
20
126.5910764432
41
  3.500000
42
  3.500000
43
  3.500000
50
270.000000
0
INSERT
5
21A
100
AcDbEntity
8
0
100
AcDbBlockReference
62
2
6
CONTINUOUS
2
_FILLED
10
148.4717262951
20
176.5910764432
41
  3.500000
42
  3.500000
43
  3.500000
50
 90.000000
0
ENDBLK
5
21B
100
AcDbEntity
8
0
6
BYBLOCK
62
0
100
AcDbBlockEnd
0
BLOCK
5
21C
100
AcDbEntity
8
0
100
AcDbBlockBegin
62
2
6
CONTINUOUS
2
*D1
70
65
10
0.0000000000
20
0.0000000000
3
*D1
1

0
TEXT
5
21D
100
AcDbEntity
8
0
100
AcDbText
62
5
6
CONTINUOUS
10
98.0959331752
20
129.4455483723
7
STANDARD
40
3.5000000000
1
17.25
50
90.0000000000
41
0.7143000000
72
0
100
AcDbText
0
LINE
5
21E
100
AcDbEntity
8
0
100
AcDbLine
62
2
6
CONTINUOUS
10
81.8582606867
20
126.5910764432
11
100.4709331752
21
126.5910764432
0
LINE
5
21F
100
AcDbEntity
8
0
100
AcDbLine
62
2
6
CONTINUOUS
10
70.8583606867
20
143.8410764432
11
100.4709331752
21
143.8410764432
0
LINE
5
220
100
AcDbEntity
8
0
100
AcDbLine
62
2
6
CONTINUOUS
10
98.9709331752
20
126.5910764432
11
98.9709331752
21
135.2160764432
0
LINE
5
221
100
AcDbEntity
8
0
100
AcDbLine
62
2
6
CONTINUOUS
10
98.9709331752
20
143.8410764432
11
98.9709331752
21
135.2160764432
0
INSERT
5
222
100
AcDbEntity
8
0
100
AcDbBlockReference
62
2
6
CONTINUOUS
2
_FILLED
10
98.9709331752
20
126.5910764432
41
  3.500000
42
  3.500000
43
  3.500000
50
270.000000
0
INSERT
5
223
100
AcDbEntity
8
0
100
AcDbBlockReference
62
2
6
CONTINUOUS
2
_FILLED
10
98.9709331752
20
143.8410764432
41
  3.500000
42
  3.500000
43
  3.500000
50
 90.000000
0
ENDBLK
5
224
100
AcDbEntity
8
0
6
BYBLOCK
62
0
100
AcDbBlockEnd
0
BLOCK
5
225
100
AcDbEntity
8
0
100
AcDbBlockBegin
62
2
6
CONTINUOUS
2
*D2
70
65
10
0.0000000000
20
0.0000000000
3
*D2
1

0
TEXT
5
226
100
AcDbEntity
8
0
100
AcDbText
62
5
6
CONTINUOUS
10
98.0959331752
20
150.4970848083
7
STANDARD
40
3.5000000000
1
17
50
90.0000000000
41
0.7143000000
72
0
100
AcDbText
0
LINE
5
227
100
AcDbEntity
8
0
100
AcDbLine
62
2
6
CONTINUOUS
10
70.8583606867
20
160.8410764432
11
100.4709331752
21
160.8410764432
0
LINE
5
228
100
AcDbEntity
8
0
100
AcDbLine
62
2
6
CONTINUOUS
10
70.8583606867
20
143.8410764432
11
100.4709331752
21
143.8410764432
0
LINE
5
229
100
AcDbEntity
8
0
100
AcDbLine
62
2
6
CONTINUOUS
10
98.9709331752
20
160.8410764432
11
98.9709331752
21
152.3410764432
0
LINE
5
22A
100
AcDbEntity
8
0
100
AcDbLine
62
2
6
CONTINUOUS
10
98.9709331752
20
143.8410764432
11
98.9709331752
21
152.3410764432
0
INSERT
5
22B
100
AcDbEntity
8
0
100
AcDbBlockReference
62
2
6
CONTINUOUS
2
_FILLED
10
98.9709331752
20
160.8410764432
41
  3.500000
42
  3.500000
43
  3.500000
50
 90.000000
0
INSERT
5
22C
100
AcDbEntity
8
0
100
AcDbBlockReference
62
2
6
CONTINUOUS
2
_FILLED
10
98.9709331752
20
143.8410764432
41
  3.500000
42
  3.500000
43
  3.500000
50
270.000000
0
ENDBLK
5
22D
100
AcDbEntity
8
0
6
BYBLOCK
62
0
100
AcDbBlockEnd
0
BLOCK
5
22E
100
AcDbEntity
8
0
100
AcDbBlockBegin
62
2
6
CONTINUOUS
2
*D3
70
65
10
0.0000000000
20
0.0000000000
3
*D3
1

0
TEXT
5
22F
100
AcDbEntity
8
0
100
AcDbText
62
5
6
CONTINUOUS
10
110.4924513032
20
160.8226598663
7
STANDARD
40
3.5000000000
1
70
50
90.0000000000
41
0.7143000000
72
0
100
AcDbText
0
LINE
5
230
100
AcDbEntity
8
0
100
AcDbLine
62
2
6
CONTINUOUS
10
81.8582606867
20
196.5910764432
11
112.8674513032
21
196.5910764432
0
LINE
5
231
100
AcDbEntity
8
0
100
AcDbLine
62
2
6
CONTINUOUS
10
81.8582606867
20
126.5910764432
11
112.8674513032
21
126.5910764432
0
LINE
5
232
100
AcDbEntity
8
0
100
AcDbLine
62
2
6
CONTINUOUS
10
111.3674513032
20
196.5910764432
11
111.3674513032
21
161.5910764432
0
LINE
5
233
100
AcDbEntity
8
0
100
AcDbLine
62
2
6
CONTINUOUS
10
111.3674513032
20
126.5910764432
11
111.3674513032
21
161.5910764432
0
INSERT
5
234
100
AcDbEntity
8
0
100
AcDbBlockReference
62
2
6
CONTINUOUS
2
_FILLED
10
111.3674513032
20
196.5910764432
41
  3.500000
42
  3.500000
43
  3.500000
50
 90.000000
0
INSERT
5
235
100
AcDbEntity
8
0
100
AcDbBlockReference
62
2
6
CONTINUOUS
2
_FILLED
10
111.3674513032
20
126.5910764432
41
  3.500000
42
  3.500000
43
  3.500000
50
270.000000
0
ENDBLK
5
236
100
AcDbEntity
8
0
6
BYBLOCK
62
0
100
AcDbBlockEnd
0
BLOCK
5
237
100
AcDbEntity
8
0
100
AcDbBlockBegin
62
2
6
CONTINUOUS
2
*D4
70
65
10
0.0000000000
20
0.0000000000
3
*D4
1

0
TEXT
5
238
100
AcDbEntity
8
0
100
AcDbText
62
5
6
CONTINUOUS
10
34.9123540852
20
156.1322736097
7
STANDARD
40
3.5000000000
1
10.5
41
0.7143000000
72
0
100
AcDbText
0
LINE
5
239
100
AcDbEntity
8
0
100
AcDbLine
62
2
6
CONTINUOUS
10
62.1082606867
20
160.3410764432
11
62.1082606867
21
153.7572736097
0
LINE
5
23A
100
AcDbEntity
8
0
100
AcDbLine
62
2
6
CONTINUOUS
10
72.6082606867
20
160.3410764432
11
72.6082606867
21
153.7572736097
0
LINE
5
23B
100
AcDbEntity
8
0
100
AcDbLine
62
2
6
CONTINUOUS
10
62.1082606867
20
155.2572736097
11
67.3582606867
21
155.2572736097
0
LINE
5
23C
100
AcDbEntity
8
0
100
AcDbLine
62
2
6
CONTINUOUS
10
67.3582606867
20
155.2572736097
11
34.9123540852
21
155.2572736097
0
LINE
5
23D
100
AcDbEntity
8
0
100
AcDbLine
62
2
6
CONTINUOUS
10
72.6082606867
20
155.2572736097
11
67.3582606867
21
155.2572736097
0
INSERT
5
23E
100
AcDbEntity
8
0
100
AcDbBlockReference
62
2
6
CONTINUOUS
2
_FILLED
10
62.1082606867
20
155.2572736097
41
  3.500000
42
  3.500000
43
  3.500000
50
180.000000
0
INSERT
5
23F
100
AcDbEntity
8
0
100
AcDbBlockReference
62
2
6
CONTINUOUS
2
_FILLED
10
72.6082606867
20
155.2572736097
41
  3.500000
42
  3.500000
43
  3.500000
0
ENDBLK
5
240
100
AcDbEntity
8
0
6
BYBLOCK
62
0
100
AcDbBlockEnd
0
BLOCK
5
241
100
AcDbEntity
8
0
100
AcDbBlockBegin
62
2
6
CONTINUOUS
2
*D5
70
65
10
0.0000000000
20
0.0000000000
3
*D5
1

0
TEXT
5
242
100
AcDbEntity
8
0
100
AcDbText
62
5
6
CONTINUOUS
10
110.4924513032
20
35.0314066158
7
STANDARD
40
3.5000000000
1
19.5
50
90.0000000000
41
0.7143000000
72
0
100
AcDbText
0
LINE
5
243
100
AcDbEntity
8
0
100
AcDbLine
62
2
6
CONTINUOUS
10
70.8583606867
20
30.4949799029
11
112.8674513032
21
30.4949799029
0
LINE
5
244
100
AcDbEntity
8
0
100
AcDbLine
62
2
6
CONTINUOUS
10
70.8583606867
20
49.9949799029
11
112.8674513032
21
49.9949799029
0
LINE
5
245
100
AcDbEntity
8
0
100
AcDbLine
62
2
6
CONTINUOUS
10
111.3674513032
20
30.4949799029
11
111.3674513032
21
40.2449799029
0
LINE
5
246
100
AcDbEntity
8
0
100
AcDbLine
62
2
6
CONTINUOUS
10
111.3674513032
20
49.9949799029
11
111.3674513032
21
40.2449799029
0
INSERT
5
247
100
AcDbEntity
8
0
100
AcDbBlockReference
62
2
6
CONTINUOUS
2
_FILLED
10
111.3674513032
20
30.4949799029
41
  3.500000
42
  3.500000
43
  3.500000
50
270.000000
0
INSERT
5
248
100
AcDbEntity
8
0
100
AcDbBlockReference
62
2
6
CONTINUOUS
2
_FILLED
10
111.3674513032
20
49.9949799029
41
  3.500000
42
  3.500000
43
  3.500000
50
 90.000000
0
ENDBLK
5
249
100
AcDbEntity
8
0
6
BYBLOCK
62
0
100
AcDbBlockEnd
0
BLOCK
5
24A
100
AcDbEntity
8
0
100
AcDbBlockBegin
62
2
6
CONTINUOUS
2
*D6
70
65
10
0.0000000000
20
0.0000000000
3
*D6
1

0
TEXT
5
24B
100
AcDbEntity
8
0
100
AcDbText
62
5
6
CONTINUOUS
10
32.1670349137
20
40.0585346044
7
STANDARD
40
3.5000000000
1
10.5
41
0.7143000000
72
0
100
AcDbText
0
LINE
5
24C
100
AcDbEntity
8
0
100
AcDbLine
62
2
6
CONTINUOUS
10
62.1082606867
20
30.9949799029
11
62.1082606867
21
40.6835346044
0
LINE
5
24D
100
AcDbEntity
8
0
100
AcDbLine
62
2
6
CONTINUOUS
10
72.6082606867
20
30.9949799029
11
72.6082606867
21
40.6835346044
0
LINE
5
24E
100
AcDbEntity
8
0
100
AcDbLine
62
2
6
CONTINUOUS
10
62.1082606867
20
39.1835346044
11
32.1670349137
21
39.1835346044
0
LINE
5
24F
100
AcDbEntity
8
0
100
AcDbLine
62
2
6
CONTINUOUS
10
32.1670349137
20
39.1835346044
11
67.3582606867
21
39.1835346044
0
LINE
5
250
100
AcDbEntity
8
0
100
AcDbLine
62
2
6
CONTINUOUS
10
72.6082606867
20
39.1835346044
11
80.6082606867
21
39.1835346044
0
LINE
5
251
100
AcDbEntity
8
0
100
AcDbLine
62
2
6
CONTINUOUS
10
80.6082606867
20
39.1835346044
11
67.3582606867
21
39.1835346044
0
INSERT
5
252
100
AcDbEntity
8
0
100
AcDbBlockReference
62
2
6
CONTINUOUS
2
_FILLED
10
62.1082606867
20
39.1835346044
41
  3.500000
42
  3.500000
43
  3.500000
0
INSERT
5
253
100
AcDbEntity
8
0
100
AcDbBlockReference
62
2
6
CONTINUOUS
2
_FILLED
10
72.6082606867
20
39.1835346044
41
  3.500000
42
  3.500000
43
  3.500000
50
180.000000
0
ENDBLK
5
254
100
AcDbEntity
8
0
6
BYBLOCK
62
0
100
AcDbBlockEnd
0
BLOCK
5
255
100
AcDbEntity
8
0
100
AcDbBlockBegin
62
2
6
CONTINUOUS
2
*D7
70
65
10
0.0000000000
20
0.0000000000
3
*D7
1

0
TEXT
5
256
100
AcDbEntity
8
0
100
AcDbText
62
5
6
CONTINUOUS
10
39.2405140393
20
108.9337443212
7
STANDARD
40
3.5000000000
1
3
41
0.7143000000
72
0
100
AcDbText
0
LINE
5
257
100
AcDbEntity
8
0
100
AcDbLine
62
2
6
CONTINUOUS
10
47.3582606867
20
130.0910764432
11
47.3582606867
21
106.5587443212
0
LINE
5
258
100
AcDbEntity
8
0
100
AcDbLine
62
2
6
CONTINUOUS
10
50.3582606867
20
130.0910764432
11
50.3582606867
21
106.5587443212
0
LINE
5
259
100
AcDbEntity
8
0
100
AcDbLine
62
2
6
CONTINUOUS
10
47.3582606867
20
108.0587443212
11
39.2405140393
21
108.0587443212
0
LINE
5
25A
100
AcDbEntity
8
0
100
AcDbLine
62
2
6
CONTINUOUS
10
39.2405140393
20
108.0587443212
11
48.8582606867
21
108.0587443212
0
LINE
5
25B
100
AcDbEntity
8
0
100
AcDbLine
62
2
6
CONTINUOUS
10
50.3582606867
20
108.0587443212
11
58.3582606867
21
108.0587443212
0
LINE
5
25C
100
AcDbEntity
8
0
100
AcDbLine
62
2
6
CONTINUOUS
10
58.3582606867
20
108.0587443212
11
48.8582606867
21
108.0587443212
0
INSERT
5
25D
100
AcDbEntity
8
0
100
AcDbBlockReference
62
2
6
CONTINUOUS
2
_FILLED
10
47.3582606867
20
108.0587443212
41
  3.500000
42
  3.500000
43
  3.500000
0
INSERT
5
25E
100
AcDbEntity
8
0
100
AcDbBlockReference
62
2
6
CONTINUOUS
2
_FILLED
10
50.3582606867
20
108.0587443212
41
  3.500000
42
  3.500000
43
  3.500000
50
180.000000
0
ENDBLK
5
25F
100
AcDbEntity
8
0
6
BYBLOCK
62
0
100
AcDbBlockEnd
0
BLOCK
5
260
100
AcDbEntity
8
0
100
AcDbBlockBegin
62
2
6
CONTINUOUS
2
*D8
70
65
10
0.0000000000
20
0.0000000000
3
*D8
1

0
TEXT
5
261
100
AcDbEntity
8
0
100
AcDbText
62
5
6
CONTINUOUS
10
93.4313318756
20
108.9337443212
7
STANDARD
40
3.5000000000
1
3
41
0.7143000000
72
0
100
AcDbText
0
LINE
5
262
100
AcDbEntity
8
0
100
AcDbLine
62
2
6
CONTINUOUS
10
84.3582606867
20
130.0910764432
11
84.3582606867
21
106.5587443212
0
LINE
5
263
100
AcDbEntity
8
0
100
AcDbLine
62
2
6
CONTINUOUS
10
87.3582606867
20
130.0910764432
11
87.3582606867
21
106.5587443212
0
LINE
5
264
100
AcDbEntity
8
0
100
AcDbLine
62
2
6
CONTINUOUS
10
84.3582606867
20
108.0587443212
11
76.3582606867
21
108.0587443212
0
LINE
5
265
100
AcDbEntity
8
0
100
AcDbLine
62
2
6
CONTINUOUS
10
76.3582606867
20
108.0587443212
11
85.8582606867
21
108.0587443212
0
LINE
5
266
100
AcDbEntity
8
0
100
AcDbLine
62
2
6
CONTINUOUS
10
87.3582606867
20
108.0587443212
11
95.9313818756
21
108.0587443212
0
LINE
5
267
100
AcDbEntity
8
0
100
AcDbLine
62
2
6
CONTINUOUS
10
95.9313818756
20
108.0587443212
11
85.8582606867
21
108.0587443212
0
INSERT
5
268
100
AcDbEntity
8
0
100
AcDbBlockReference
62
2
6
CONTINUOUS
2
_FILLED
10
84.3582606867
20
108.0587443212
41
  3.500000
42
  3.500000
43
  3.500000
0
INSERT
5
269
100
AcDbEntity
8
0
100
AcDbBlockReference
62
2
6
CONTINUOUS
2
_FILLED
10
87.3582606867
20
108.0587443212
41
  3.500000
42
  3.500000
43
  3.500000
50
180.000000
0
ENDBLK
5
26A
100
AcDbEntity
8
0
6
BYBLOCK
62
0
100
AcDbBlockEnd
0
BLOCK
5
26B
100
AcDbEntity
8
0
100
AcDbBlockBegin
62
2
6
CONTINUOUS
2
*D9
70
65
10
0.0000000000
20
0.0000000000
3
*D9
1

0
TEXT
5
26C
100
AcDbEntity
8
0
100
AcDbText
62
5
6
CONTINUOUS
10
63.8586689003
20
97.7758140454
7
STANDARD
40
3.5000000000
1
40
41
0.7143000000
72
0
100
AcDbText
0
LINE
5
26D
100
AcDbEntity
8
0
100
AcDbLine
62
2
6
CONTINUOUS
10
47.3582606867
20
130.0910764432
11
47.3582606867
21
95.4008140454
0
LINE
5
26E
100
AcDbEntity
8
0
100
AcDbLine
62
2
6
CONTINUOUS
10
87.3582606867
20
130.0910764432
11
87.3582606867
21
95.4008140454
0
LINE
5
26F
100
AcDbEntity
8
0
100
AcDbLine
62
2
6
CONTINUOUS
10
47.3582606867
20
96.9008140454
11
67.3582606867
21
96.9008140454
0
LINE
5
270
100
AcDbEntity
8
0
100
AcDbLine
62
2
6
CONTINUOUS
10
87.3582606867
20
96.9008140454
11
67.3582606867
21
96.9008140454
0
INSERT
5
271
100
AcDbEntity
8
0
100
AcDbBlockReference
62
2
6
CONTINUOUS
2
_FILLED
10
47.3582606867
20
96.9008140454
41
  3.500000
42
  3.500000
43
  3.500000
50
180.000000
0
INSERT
5
272
100
AcDbEntity
8
0
100
AcDbBlockReference
62
2
6
CONTINUOUS
2
_FILLED
10
87.3582606867
20
96.9008140454
41
  3.500000
42
  3.500000
43
  3.500000
0
ENDBLK
5
273
100
AcDbEntity
8
0
6
BYBLOCK
62
0
100
AcDbBlockEnd
0
BLOCK
5
274
100
AcDbEntity
8
0
100
AcDbBlockBegin
62
2
6
CONTINUOUS
2
*D10
70
65
10
0.0000000000
20
0.0000000000
3
*D10
1

0
TEXT
5
275
100
AcDbEntity
8
0
100
AcDbText
62
5
6
CONTINUOUS
10
158.0662632867
20
112.8625504817
7
STANDARD
40
3.5000000000
1
3
41
0.7143000000
72
0
100
AcDbText
0
LINE
5
276
100
AcDbEntity
8
0
100
AcDbLine
62
2
6
CONTINUOUS
10
167.7570437295
20
143.3410764432
11
167.7570437295
21
110.4875504817
0
LINE
5
277
100
AcDbEntity
8
0
100
AcDbLine
62
2
6
CONTINUOUS
10
170.7570437295
20
138.0910764432
11
170.7570437295
21
110.4875504817
0
LINE
5
278
100
AcDbEntity
8
0
100
AcDbLine
62
2
6
CONTINUOUS
10
167.7570437295
20
111.9875504817
11
158.0662632867
21
111.9875504817
0
LINE
5
279
100
AcDbEntity
8
0
100
AcDbLine
62
2
6
CONTINUOUS
10
158.0662632867
20
111.9875504817
11
169.2570437295
21
111.9875504817
0
LINE
5
27A
100
AcDbEntity
8
0
100
AcDbLine
62
2
6
CONTINUOUS
10
170.7570437295
20
111.9875504817
11
178.7570437295
21
111.9875504817
0
LINE
5
27B
100
AcDbEntity
8
0
100
AcDbLine
62
2
6
CONTINUOUS
10
178.7570437295
20
111.9875504817
11
169.2570437295
21
111.9875504817
0
INSERT
5
27C
100
AcDbEntity
8
0
100
AcDbBlockReference
62
2
6
CONTINUOUS
2
_FILLED
10
167.7570437295
20
111.9875504817
41
  3.500000
42
  3.500000
43
  3.500000
0
INSERT
5
27D
100
AcDbEntity
8
0
100
AcDbBlockReference
62
2
6
CONTINUOUS
2
_FILLED
10
170.7570437295
20
111.9875504817
41
  3.500000
42
  3.500000
43
  3.500000
50
180.000000
0
ENDBLK
5
27E
100
AcDbEntity
8
0
6
BYBLOCK
62
0
100
AcDbBlockEnd
0
BLOCK
5
27F
100
AcDbEntity
8
0
100
AcDbBlockBegin
62
2
6
CONTINUOUS
2
*D11
70
65
10
0.0000000000
20
0.0000000000
3
*D11
1

0
TEXT
5
280
100
AcDbEntity
8
0
100
AcDbText
62
5
6
CONTINUOUS
10
172.5177869255
20
100.3014500495
7
STANDARD
40
3.5000000000
1
14
41
0.7143000000
72
0
100
AcDbText
0
LINE
5
281
100
AcDbEntity
8
0
100
AcDbLine
62
2
6
CONTINUOUS
10
167.7570437295
20
143.3410764432
11
167.7570437295
21
97.9264500495
0
LINE
5
282
100
AcDbEntity
8
0
100
AcDbLine
62
2
6
CONTINUOUS
10
181.7570437295
20
130.0910764432
11
181.7570437295
21
97.9264500495
0
LINE
5
283
100
AcDbEntity
8
0
100
AcDbLine
62
2
6
CONTINUOUS
10
167.7570437295
20
99.4264500495
11
174.7570437295
21
99.4264500495
0
LINE
5
284
100
AcDbEntity
8
0
100
AcDbLine
62
2
6
CONTINUOUS
10
181.7570437295
20
99.4264500495
11
174.7570437295
21
99.4264500495
0
INSERT
5
285
100
AcDbEntity
8
0
100
AcDbBlockReference
62
2
6
CONTINUOUS
2
_FILLED
10
167.7570437295
20
99.4264500495
41
  3.500000
42
  3.500000
43
  3.500000
50
180.000000
0
INSERT
5
286
100
AcDbEntity
8
0
100
AcDbBlockReference
62
2
6
CONTINUOUS
2
_FILLED
10
181.7570437295
20
99.4264500495
41
  3.500000
42
  3.500000
43
  3.500000
0
ENDBLK
5
287
100
AcDbEntity
8
0
6
BYBLOCK
62
0
100
AcDbBlockEnd
0
BLOCK
5
288
100
AcDbEntity
8
0
100
AcDbBlockBegin
62
2
6
CONTINUOUS
2
*D12
70
65
10
0.0000000000
20
0.0000000000
3
*D12
1

0
TEXT
5
289
100
AcDbEntity
8
0
100
AcDbText
62
5
6
CONTINUOUS
10
110.4924513032
20
15.9496642100
7
STANDARD
40
3.5000000000
1
17.25
50
90.0000000000
41
0.7143000000
72
0
100
AcDbText
0
LINE
5
28A
100
AcDbEntity
8
0
100
AcDbLine
62
2
6
CONTINUOUS
10
81.8582606867
20
13.2449799029
11
112.8674513032
21
13.2449799029
0
LINE
5
28B
100
AcDbEntity
8
0
100
AcDbLine
62
2
6
CONTINUOUS
10
70.8583606867
20
30.4949799029
11
112.8674513032
21
30.4949799029
0
LINE
5
28C
100
AcDbEntity
8
0
100
AcDbLine
62
2
6
CONTINUOUS
10
111.3674513032
20
13.2449799029
11
111.3674513032
21
21.8699799029
0
LINE
5
28D
100
AcDbEntity
8
0
100
AcDbLine
62
2
6
CONTINUOUS
10
111.3674513032
20
30.4949799029
11
111.3674513032
21
21.8699799029
0
INSERT
5
28E
100
AcDbEntity
8
0
100
AcDbBlockReference
62
2
6
CONTINUOUS
2
_FILLED
10
111.3674513032
20
13.2449799029
41
  3.500000
42
  3.500000
43
  3.500000
50
270.000000
0
INSERT
5
28F
100
AcDbEntity
8
0
100
AcDbBlockReference
62
2
6
CONTINUOUS
2
_FILLED
10
111.3674513032
20
30.4949799029
41
  3.500000
42
  3.500000
43
  3.500000
50
 90.000000
0
ENDBLK
5
290
100
AcDbEntity
8
0
6
BYBLOCK
62
0
100
AcDbBlockEnd
0
BLOCK
5
291
100
AcDbEntity
8
0
100
AcDbBlockBegin
62
2
6
CONTINUOUS
2
*D13
70
65
10
0.0000000000
20
0.0000000000
3
*D13
1

0
TEXT
5
292
100
AcDbEntity
8
0
100
AcDbText
62
5
6
CONTINUOUS
10
262.0082073415
20
187.4400211869
7
STANDARD
40
3.5000000000
1
14
50
90.0000000000
41
0.7143000000
72
0
100
AcDbText
0
LINE
5
293
100
AcDbEntity
8
0
100
AcDbLine
62
2
6
CONTINUOUS
10
238.2570437295
20
196.5910764432
11
264.3832073415
21
196.5910764432
0
LINE
5
294
100
AcDbEntity
8
0
100
AcDbLine
62
2
6
CONTINUOUS
10
234.2570437295
20
182.5910764432
11
264.3832073415
21
182.5910764432
0
LINE
5
295
100
AcDbEntity
8
0
100
AcDbLine
62
2
6
CONTINUOUS
10
262.8832073415
20
196.5910764432
11
262.8832073415
21
189.5910764432
0
LINE
5
296
100
AcDbEntity
8
0
100
AcDbLine
62
2
6
CONTINUOUS
10
262.8832073415
20
182.5910764432
11
262.8832073415
21
189.5910764432
0
INSERT
5
297
100
AcDbEntity
8
0
100
AcDbBlockReference
62
2
6
CONTINUOUS
2
_FILLED
10
262.8832073415
20
196.5910764432
41
  3.500000
42
  3.500000
43
  3.500000
50
 90.000000
0
INSERT
5
298
100
AcDbEntity
8
0
100
AcDbBlockReference
62
2
6
CONTINUOUS
2
_FILLED
10
262.8832073415
20
182.5910764432
41
  3.500000
42
  3.500000
43
  3.500000
50
270.000000
0
ENDBLK
5
299
100
AcDbEntity
8
0
6
BYBLOCK
62
0
100
AcDbBlockEnd
0
BLOCK
5
29A
100
AcDbEntity
8
0
100
AcDbBlockBegin
62
2
6
CONTINUOUS
2
*D14
70
65
10
0.0000000000
20
0.0000000000
3
*D14
1

0
TEXT
5
29B
100
AcDbEntity
8
0
100
AcDbText
62
5
6
CONTINUOUS
10
122.4675950058
20
43.8990043370
7
STANDARD
40
3.5000000000
1
70
50
90.0000000000
41
0.7143000000
72
0
100
AcDbText
0
LINE
5
29C
100
AcDbEntity
8
0
100
AcDbLine
62
2
6
CONTINUOUS
10
81.8582606867
20
13.2449799029
11
124.8425950058
21
13.2449799029
0
LINE
5
29D
100
AcDbEntity
8
0
100
AcDbLine
62
2
6
CONTINUOUS
10
81.8582606867
20
83.2449799029
11
124.8425950058
21
83.2449799029
0
LINE
5
29E
100
AcDbEntity
8
0
100
AcDbLine
62
2
6
CONTINUOUS
10
123.3425950058
20
13.2449799029
11
123.3425950058
21
48.2449799029
0
LINE
5
29F
100
AcDbEntity
8
0
100
AcDbLine
62
2
6
CONTINUOUS
10
123.3425950058
20
83.2449799029
11
123.3425950058
21
48.2449799029
0
INSERT
5
2A0
100
AcDbEntity
8
0
100
AcDbBlockReference
62
2
6
CONTINUOUS
2
_FILLED
10
123.3425950058
20
13.2449799029
41
  3.500000
42
  3.500000
43
  3.500000
50
270.000000
0
INSERT
5
2A1
100
AcDbEntity
8
0
100
AcDbBlockReference
62
2
6
CONTINUOUS
2
_FILLED
10
123.3425950058
20
83.2449799029
41
  3.500000
42
  3.500000
43
  3.500000
50
 90.000000
0
ENDBLK
5
2A2
100
AcDbEntity
8
0
6
BYBLOCK
62
0
100
AcDbBlockEnd
0
BLOCK
5
2A3
100
AcDbEntity
8
0
100
AcDbBlockBegin
2
_FILLED
70
64
10
0.0000000000
20
0.0000000000
3
_FILLED
1

0
SOLID
5
2A4
100
AcDbEntity
8
0
6
BYBLOCK
62
0
100
AcDbTrace
10
0.0000000000
20
0.0000000000
11
-1.0000000000
21
0.1857142857
12
-1.0000000000
22
-0.1857142857
13
-1.0000000000
23
-0.1857142857
0
ENDBLK
5
2A5
100
AcDbEntity
8
0
6
BYBLOCK
62
0
100
AcDbBlockEnd
0
ENDSEC
0
SECTION
2
ENTITIES
0
TEXT
5
2A6
100
AcDbEntity
8
0
100
AcDbText
62
7
6
CONTINUOUS
10
54.3307605022
20
207.3547314348
7
STANDARD
40
3.5000000000
1
A
41
0.7143000000
72
0
100
AcDbText
0
LINE
5
2A7
100
AcDbEntity
8
0
100
AcDbLine
62
7
6
CONTINUOUS
10
67.3582606867
20
205.6047314348
11
53.0807355022
21
205.6047314348
0
SOLID
5
2A8
100
AcDbEntity
8
0
100
AcDbTrace
62
7
6
CONTINUOUS
10
60.3582606867
20
204.6047314348
11
67.3582606867
21
205.6047314348
12
60.3582606867
22
206.6047314348
13
60.3582606867
23
206.6047314348
0
TEXT
5
2A9
100
AcDbEntity
8
0
100
AcDbText
62
7
6
CONTINUOUS
10
53.4321963157
20
114.7278003433
7
STANDARD
40
3.5000000000
1
A
41
0.7143000000
72
0
100
AcDbText
0
LINE
5
2AA
100
AcDbEntity
8
0
100
AcDbLine
62
7
6
CONTINUOUS
10
67.3582606867
20
119.9778003433
11
52.1821713157
21
119.9778003433
0
SOLID
5
2AB
100
AcDbEntity
8
0
100
AcDbTrace
62
7
6
CONTINUOUS
10
60.3582606867
20
118.9778003433
11
67.3582606867
21
119.9778003433
12
60.3582606867
22
120.9778003433
13
60.3582606867
23
120.9778003433
0
DIMENSION
5
2AC
100
AcDbEntity
8
0
100
AcDbDimension
62
2
6
CONTINUOUS
2
*D0
10
148.4717262951
20
176.5910764432
11
145.8467262951
21
152.9461315029
70
160
3
STANDARD
100
AcDbAlignedDimension
13
167.2570437295
23
126.5910764432
14
167.2570437295
24
176.5910764432
50
90.000000
100
AcDbRotatedDimension
0
DIMENSION
5
2AD
100
AcDbEntity
8
0
100
AcDbDimension
62
2
6
CONTINUOUS
2
*D1
10
98.9709331752
20
143.8410764432
11
96.3459331752
21
135.6956733723
70
160
3
STANDARD
100
AcDbAlignedDimension
13
81.8582606867
23
126.5910764432
14
70.8583606867
24
143.8410764432
50
90.000000
100
AcDbRotatedDimension
0
DIMENSION
5
2AE
100
AcDbEntity
8
0
100
AcDbDimension
62
2
6
CONTINUOUS
2
*D2
10
98.9709331752
20
143.8410764432
11
96.3459331752
21
152.9971348083
70
160
3
STANDARD
100
AcDbAlignedDimension
13
70.8583606867
23
160.8410764432
14
70.8583606867
24
143.8410764432
50
270.000000
100
AcDbRotatedDimension
0
DIMENSION
5
2AF
100
AcDbEntity
8
0
100
AcDbDimension
62
2
6
CONTINUOUS
2
*D3
10
111.3674513032
20
126.5910764432
11
108.7424513032
21
163.3227098663
70
160
3
STANDARD
100
AcDbAlignedDimension
13
81.8582606867
23
196.5910764432
14
81.8582606867
24
126.5910764432
50
270.000000
100
AcDbRotatedDimension
0
DIMENSION
5
2B0
100
AcDbEntity
8
0
100
AcDbDimension
62
2
6
CONTINUOUS
2
*D4
10
72.6082606867
20
155.2572736097
11
39.9124540852
21
157.8822736097
70
160
3
STANDARD
100
AcDbAlignedDimension
13
62.1082606867
23
160.3410764432
14
72.6082606867
24
160.3410764432
100
AcDbRotatedDimension
0
DIMENSION
5
2B1
100
AcDbEntity
8
0
100
AcDbDimension
62
2
6
CONTINUOUS
2
*D5
10
111.3674513032
20
49.9949799029
11
108.7424513032
21
40.0315066158
70
160
3
STANDARD
100
AcDbAlignedDimension
13
70.8583606867
23
30.4949799029
14
70.8583606867
24
49.9949799029
50
90.000000
100
AcDbRotatedDimension
0
DIMENSION
5
2B2
100
AcDbEntity
8
0
100
AcDbDimension
62
2
6
CONTINUOUS
2
*D6
10
72.6082606867
20
39.1835346044
11
37.1671349137
21
41.8085346044
70
160
3
STANDARD
100
AcDbAlignedDimension
13
62.1082606867
23
30.9949799029
14
72.6082606867
24
30.9949799029
100
AcDbRotatedDimension
0
DIMENSION
5
2B3
100
AcDbEntity
8
0
100
AcDbDimension
62
2
6
CONTINUOUS
2
*D7
10
50.3582606867
20
108.0587443212
11
40.4905390393
21
110.6837443212
70
160
3
STANDARD
100
AcDbAlignedDimension
13
47.3582606867
23
130.0910764432
14
50.3582606867
24
130.0910764432
100
AcDbRotatedDimension
0
DIMENSION
5
2B4
100
AcDbEntity
8
0
100
AcDbDimension
62
2
6
CONTINUOUS
2
*D8
10
87.3582606867
20
108.0587443212
11
94.6813568756
21
110.6837443212
70
160
3
STANDARD
100
AcDbAlignedDimension
13
84.3582606867
23
130.0910764432
14
87.3582606867
24
130.0910764432
100
AcDbRotatedDimension
0
DIMENSION
5
2B5
100
AcDbEntity
8
0
100
AcDbDimension
62
2
6
CONTINUOUS
2
*D9
10
87.3582606867
20
96.9008140454
11
66.3587189003
21
99.5258140454
70
160
3
STANDARD
100
AcDbAlignedDimension
13
47.3582606867
23
130.0910764432
14
87.3582606867
24
130.0910764432
100
AcDbRotatedDimension
0
DIMENSION
5
2B6
100
AcDbEntity
8
0
100
AcDbDimension
62
2
6
CONTINUOUS
2
*D10
10
170.7570437295
20
111.9875504817
11
159.3162882867
21
114.6125504817
70
160
3
STANDARD
100
AcDbAlignedDimension
13
167.7570437295
23
143.3410764432
14
170.7570437295
24
138.0910764432
100
AcDbRotatedDimension
0
DIMENSION
5
2B7
100
AcDbEntity
8
0
100
AcDbDimension
62
2
6
CONTINUOUS
2
*D11
10
181.7570437295
20
99.4264500495
11
175.0178369255
21
102.0514500495
70
160
3
STANDARD
100
AcDbAlignedDimension
13
167.7570437295
23
143.3410764432
14
181.7570437295
24
130.0910764432
100
AcDbRotatedDimension
0
DIMENSION
5
2B8
100
AcDbEntity
8
0
100
AcDbDimension
62
2
6
CONTINUOUS
2
*D12
10
111.3674513032
20
30.4949799029
11
108.7424513032
21
22.1997892100
70
160
3
STANDARD
100
AcDbAlignedDimension
13
81.8582606867
23
13.2449799029
14
70.8583606867
24
30.4949799029
50
90.000000
100
AcDbRotatedDimension
0
DIMENSION
5
2B9
100
AcDbEntity
8
0
100
AcDbDimension
62
2
6
CONTINUOUS
2
*D13
10
262.8832073415
20
182.5910764432
11
260.2582073415
21
189.9400711869
70
160
3
STANDARD
100
AcDbAlignedDimension
13
238.2570437295
23
196.5910764432
14
234.2570437295
24
182.5910764432
50
270.000000
100
AcDbRotatedDimension
0
DIMENSION
5
2BA
100
AcDbEntity
8
0
100
AcDbDimension
62
2
6
CONTINUOUS
2
*D14
10
123.3425950058
20
83.2449799029
11
120.7175950058
21
46.3990543370
70
160
3
STANDARD
100
AcDbAlignedDimension
13
81.8582606867
23
13.2449799029
14
81.8582606867
24
83.2449799029
50
90.000000
100
AcDbRotatedDimension
0
MTEXT
5
2BB
100
AcDbEntity
8
0
100
AcDbMText
62
5
6
CONTINUOUS
7
STANDARD
71
1
72
1
10
201.5293487090
20
140.9080164421
30
0.0000000000
11
1.0000000000
21
0.0000000000
31
0.0000000000
1
SEZIONE A-A
40
3.5000000000
41
27.5005500000
0
LINE
5
2BC
100
AcDbEntity
8
0
100
AcDbLine
62
7
6
CONTINUOUS
10
0.0000000000
20
0.0000000000
11
0.0000000000
21
210.0000000000
0
LINE
5
2BD
100
AcDbEntity
8
0
100
AcDbLine
62
7
6
CONTINUOUS
10
0.0000000000
20
0.0000000000
11
297.0000000000
21
0.0000000000
0
LINE
5
2BE
100
AcDbEntity
8
0
100
AcDbLine
62
7
6
CONTINUOUS
10
0.0000000000
20
210.0000000000
11
297.0000000000
21
210.0000000000
0
LINE
5
2BF
100
AcDbEntity
8
0
100
AcDbLine
62
7
6
CONTINUOUS
10
297.0000000000
20
0.0000000000
11
297.0000000000
21
210.0000000000
0
LINE
5
2C0
100
AcDbEntity
8
0
100
AcDbLine
62
7
6
CONTINUOUS
10
87.3582606867
20
13.2449799029
11
47.3582606867
21
13.2449799029
0
LINE
5
2C1
100
AcDbEntity
8
0
100
AcDbLine
62
7
6
CONTINUOUS
10
47.3582606867
20
77.2449799029
11
47.3582606867
21
13.2449799029
0
LINE
5
2C2
100
AcDbEntity
8
DEFAULT_1
100
AcDbLine
62
2
6
CENTER
10
67.3582606867
20
30.4949799029
11
64.3581606867
21
30.4949799029
0
LINE
5
2C3
100
AcDbEntity
8
DEFAULT_1
100
AcDbLine
62
2
6
CENTER
10
67.3582606867
20
30.4949799029
11
70.3583606867
21
30.4949799029
0
LINE
5
2C4
100
AcDbEntity
8
0
100
AcDbLine
62
9
6
CONTINUOUS
10
53.3582606867
20
83.2449799029
11
53.3582606867
21
13.2449799029
0
LINE
5
2C5
100
AcDbEntity
8
0
100
AcDbLine
62
7
6
CONTINUOUS
10
62.1082606867
20
49.9949799029
11
62.1082606867
21
30.4949799029
0
LINE
5
2C6
100
AcDbEntity
8
DEFAULT_1
100
AcDbLine
62
2
6
CENTER
10
67.3582606867
20
86.2449799029
11
67.3582606867
21
52.9950799029
0
LINE
5
2C7
100
AcDbEntity
8
DEFAULT_1
100
AcDbLine
62
2
6
CENTER
10
67.3582606867
20
46.9948799029
11
67.3582606867
21
33.4950799029
0
LINE
5
2C8
100
AcDbEntity
8
DEFAULT_1
100
AcDbLine
62
2
6
CENTER
10
67.3582606867
20
27.4948799029
11
67.3582606867
21
7.9906077682
0
LINE
5
2C9
100
AcDbEntity
8
DEFAULT_1
100
AcDbLine
62
2
6
CENTER
10
67.3582606867
20
49.9949799029
11
67.3582606867
21
46.9948799029
0
LINE
5
2CA
100
AcDbEntity
8
DEFAULT_1
100
AcDbLine
62
2
6
CENTER
10
67.3582606867
20
30.4949799029
11
67.3582606867
21
27.4948799029
0
LINE
5
2CB
100
AcDbEntity
8
DEFAULT_1
100
AcDbLine
62
2
6
CENTER
10
67.3582606867
20
30.4949799029
11
67.3582606867
21
33.4950799029
0
LINE
5
2CC
100
AcDbEntity
8
DEFAULT_1
100
AcDbLine
62
2
6
CENTER
10
67.3582606867
20
49.9949799029
11
67.3582606867
21
52.9950799029
0
LINE
5
2CD
100
AcDbEntity
8
DEFAULT_1
100
AcDbLine
62
2
6
CENTER
10
67.3582606867
20
49.9949799029
11
64.3581606867
21
49.9949799029
0
LINE
5
2CE
100
AcDbEntity
8
DEFAULT_1
100
AcDbLine
62
2
6
CENTER
10
67.3582606867
20
49.9949799029
11
70.3583606867
21
49.9949799029
0
LINE
5
2CF
100
AcDbEntity
8
0
100
AcDbLine
62
7
6
CONTINUOUS
10
72.6082606867
20
30.4949799029
11
72.6082606867
21
49.9949799029
0
LINE
5
2D0
100
AcDbEntity
8
0
100
AcDbLine
62
9
6
CONTINUOUS
10
81.3582606867
20
83.2449799029
11
81.3582606867
21
13.2449799029
0
LINE
5
2D1
100
AcDbEntity
8
0
100
AcDbLine
62
9
6
CONTINUOUS
10
87.3582606867
20
63.2449799029
11
47.3582606867
21
63.2449799029
0
LINE
5
2D2
100
AcDbEntity
8
0
100
AcDbLine
62
7
6
CONTINUOUS
10
87.3582606867
20
77.2449799029
11
87.3582606867
21
13.2449799029
0
LINE
5
2D3
100
AcDbEntity
8
0
100
AcDbLine
62
9
6
CONTINUOUS
10
81.3582606867
20
73.1444748395
11
53.3582606867
21
73.1444748395
0
LINE
5
2D4
100
AcDbEntity
8
0
100
AcDbLine
62
9
6
CONTINUOUS
10
81.3582606867
20
79.1444748395
11
53.3582606867
21
79.1444748395
0
LINE
5
2D5
100
AcDbEntity
8
0
100
AcDbLine
62
7
6
CONTINUOUS
10
81.3582606867
20
83.2449799029
11
53.3582606867
21
83.2449799029
0
LINE
5
2D6
100
AcDbEntity
8
0
100
AcDbLine
62
7
6
CONTINUOUS
10
47.3582606867
20
126.5910764432
11
87.3582606867
21
126.5910764432
0
LINE
5
2D7
100
AcDbEntity
8
0
100
AcDbLine
62
9
6
CONTINUOUS
10
87.3582606867
20
130.5910764432
11
84.3582606867
21
130.5910764432
0
LINE
5
2D8
100
AcDbEntity
8
0
100
AcDbLine
62
9
6
CONTINUOUS
10
50.3582606867
20
130.5910764432
11
47.3582606867
21
130.5910764432
0
LINE
5
2D9
100
AcDbEntity
8
0
100
AcDbLine
62
7
6
CONTINUOUS
10
47.3582606867
20
126.5910764432
11
47.3582606867
21
190.5910764432
0
LINE
5
2DA
100
AcDbEntity
8
0
100
AcDbLine
62
7
6
CONTINUOUS
10
50.3582606867
20
126.5910764432
11
50.3582606867
21
190.5910764432
0
LINE
5
2DB
100
AcDbEntity
8
DEFAULT_1
100
AcDbLine
62
2
6
CENTER
10
67.3582606867
20
143.8410764432
11
64.3581606867
21
143.8410764432
0
LINE
5
2DC
100
AcDbEntity
8
DEFAULT_1
100
AcDbLine
62
2
6
CENTER
10
67.3582606867
20
143.8410764432
11
70.3583606867
21
143.8410764432
0
LINE
5
2DD
100
AcDbEntity
8
0
100
AcDbLine
62
9
6
CONTINUOUS
10
53.3582606867
20
126.5910764432
11
53.3582606867
21
193.5910764432
0
LINE
5
2DE
100
AcDbEntity
8
0
100
AcDbLine
62
7
6
CONTINUOUS
10
62.1082606867
20
143.8410764432
11
62.1082606867
21
160.8410764432
0
LINE
5
2DF
100
AcDbEntity
8
DEFAULT_1
100
AcDbLine
62
7
6
CENTER
10
67.3582606867
20
205.6047314348
11
67.3582606867
21
200.6047314348
0
LINE
5
2E0
100
AcDbEntity
8
DEFAULT_1
100
AcDbLine
62
9
6
CENTER
10
67.3582606867
20
200.6047314348
11
67.3582606867
21
199.5910764432
0
LINE
5
2E1
100
AcDbEntity
8
DEFAULT_1
100
AcDbLine
62
2
6
CENTER
10
67.3582606867
20
199.5910764432
11
67.3582606867
21
163.8411764432
0
LINE
5
2E2
100
AcDbEntity
8
DEFAULT_1
100
AcDbLine
62
2
6
CENTER
10
67.3582606867
20
157.8409764432
11
67.3582606867
21
146.8411764432
0
LINE
5
2E3
100
AcDbEntity
8
DEFAULT_1
100
AcDbLine
62
2
6
CENTER
10
67.3582606867
20
140.8409764432
11
67.3582606867
21
124.9778003433
0
LINE
5
2E4
100
AcDbEntity
8
DEFAULT_1
100
AcDbLine
62
2
6
CENTER
10
67.3582606867
20
160.8410764432
11
67.3582606867
21
157.8409764432
0
LINE
5
2E5
100
AcDbEntity
8
DEFAULT_1
100
AcDbLine
62
2
6
CENTER
10
67.3582606867
20
143.8410764432
11
67.3582606867
21
140.8409764432
0
LINE
5
2E6
100
AcDbEntity
8
DEFAULT_1
100
AcDbLine
62
7
6
CENTER
10
67.3582606867
20
124.9778003433
11
67.3582606867
21
119.9778003433
0
LINE
5
2E7
100
AcDbEntity
8
DEFAULT_1
100
AcDbLine
62
2
6
CENTER
10
67.3582606867
20
143.8410764432
11
67.3582606867
21
146.8411764432
0
LINE
5
2E8
100
AcDbEntity
8
DEFAULT_1
100
AcDbLine
62
2
6
CENTER
10
67.3582606867
20
160.8410764432
11
67.3582606867
21
163.8411764432
0
LINE
5
2E9
100
AcDbEntity
8
DEFAULT_1
100
AcDbLine
62
2
6
CENTER
10
67.3582606867
20
160.8410764432
11
64.3581606867
21
160.8410764432
0
LINE
5
2EA
100
AcDbEntity
8
DEFAULT_1
100
AcDbLine
62
2
6
CENTER
10
67.3582606867
20
160.8410764432
11
70.3583606867
21
160.8410764432
0
LINE
5
2EB
100
AcDbEntity
8
0
100
AcDbLine
62
7
6
CONTINUOUS
10
72.6082606867
20
160.8410764432
11
72.6082606867
21
143.8410764432
0
LINE
5
2EC
100
AcDbEntity
8
0
100
AcDbLine
62
9
6
CONTINUOUS
10
87.3582606867
20
172.4489408195
11
84.3582606867
21
172.4489408195
0
LINE
5
2ED
100
AcDbEntity
8
0
100
AcDbLine
62
9
6
CONTINUOUS
10
50.3582606867
20
172.4489408195
11
47.3582606867
21
172.4489408195
0
LINE
5
2EE
100
AcDbEntity
8
0
100
AcDbLine
62
9
6
CONTINUOUS
10
81.3582606867
20
126.5910764432
11
81.3582606867
21
193.5910764432
0
LINE
5
2EF
100
AcDbEntity
8
0
100
AcDbLine
62
9
6
CONTINUOUS
10
50.3582606867
20
176.5910764432
11
84.3582606867
21
176.5910764432
0
LINE
5
2F0
100
AcDbEntity
8
0
100
AcDbLine
62
7
6
CONTINUOUS
10
84.3582606867
20
126.5910764432
11
84.3582606867
21
190.5910764432
0
LINE
5
2F1
100
AcDbEntity
8
0
100
AcDbLine
62
9
6
CONTINUOUS
10
87.3582606867
20
179.5200086314
11
84.3582606867
21
179.5200086314
0
LINE
5
2F2
100
AcDbEntity
8
0
100
AcDbLine
62
9
6
CONTINUOUS
10
50.3582606867
20
179.5200086314
11
47.3582606867
21
179.5200086314
0
LINE
5
2F3
100
AcDbEntity
8
0
100
AcDbLine
62
9
6
CONTINUOUS
10
87.3582606867
20
179.6621442551
11
84.3582606867
21
179.6621442551
0
LINE
5
2F4
100
AcDbEntity
8
0
100
AcDbLine
62
9
6
CONTINUOUS
10
50.3582606867
20
179.6621442551
11
47.3582606867
21
179.6621442551
0
LINE
5
2F5
100
AcDbEntity
8
0
100
AcDbLine
62
7
6
CONTINUOUS
10
87.3582606867
20
126.5910764432
11
87.3582606867
21
190.5910764432
0
LINE
5
2F6
100
AcDbEntity
8
0
100
AcDbLine
62
7
6
CONTINUOUS
10
87.3582606867
20
182.5910764432
11
84.3582606867
21
182.5910764432
0
LINE
5
2F7
100
AcDbEntity
8
0
100
AcDbLine
62
7
6
CONTINUOUS
10
50.3582606867
20
182.5910764432
11
47.3582606867
21
182.5910764432
0
LINE
5
2F8
100
AcDbEntity
8
0
100
AcDbLine
62
9
6
CONTINUOUS
10
53.3582606867
20
184.3692510363
11
81.3582606867
21
184.3692510363
0
LINE
5
2F9
100
AcDbEntity
8
0
100
AcDbLine
62
9
6
CONTINUOUS
10
87.3582606867
20
186.5910764432
11
84.3582606867
21
186.5910764432
0
LINE
5
2FA
100
AcDbEntity
8
0
100
AcDbLine
62
9
6
CONTINUOUS
10
50.3582606867
20
186.5910764432
11
47.3582606867
21
186.5910764432
0
LINE
5
2FB
100
AcDbEntity
8
0
100
AcDbLine
62
9
6
CONTINUOUS
10
53.3582606867
20
190.3692510363
11
81.3582606867
21
190.3692510363
0
LINE
5
2FC
100
AcDbEntity
8
0
100
AcDbLine
62
7
6
CONTINUOUS
10
53.3582606867
20
193.5910764432
11
81.3582606867
21
193.5910764432
0
LINE
5
2FD
100
AcDbEntity
8
0
100
AcDbLine
62
7
6
CONTINUOUS
10
81.3582606867
20
196.5910764432
11
53.3582606867
21
196.5910764432
0
LINE
5
2FE
100
AcDbEntity
8
0
100
AcDbLine
62
7
6
CONTINUOUS
10
171.8575487929
20
186.4905713799
11
177.8575487929
21
192.4905713799
0
LINE
5
2FF
100
AcDbEntity
8
0
100
AcDbLine
62
2
6
CONTINUOUS
10
168.7791660130
20
181.8300490129
11
182.5180711598
21
195.5689541598
0
LINE
5
300
100
AcDbEntity
8
0
100
AcDbLine
62
2
6
CONTINUOUS
10
167.9487504206
20
178.8783130770
11
185.4698070958
21
196.3993697522
0
LINE
5
301
100
AcDbEntity
8
0
100
AcDbLine
62
7
6
CONTINUOUS
10
173.9788691365
20
184.3692510363
11
179.9788691365
21
190.3692510363
0
LINE
5
302
100
AcDbEntity
8
0
100
AcDbLine
62
7
6
CONTINUOUS
10
167.7570437295
20
126.5910764432
11
167.7570437295
21
176.5910764432
0
LINE
5
303
100
AcDbEntity
8
0
100
AcDbLine
62
2
6
CONTINUOUS
10
167.7570437295
20
176.5652860424
11
171.3617730759
21
180.1700153887
0
LINE
5
304
100
AcDbEntity
8
0
100
AcDbLine
62
2
6
CONTINUOUS
10
184.1781047841
20
192.9863470969
11
187.7828341304
21
196.5910764432
0
LINE
5
305
100
AcDbEntity
8
0
100
AcDbLine
62
2
6
CONTINUOUS
10
167.7570437295
20
174.4439656988
11
170.7941991776
21
177.4811211469
0
LINE
5
306
100
AcDbEntity
8
0
100
AcDbLine
62
2
6
CONTINUOUS
10
186.8669990259
20
193.5539209952
11
189.9041544740
21
196.5910764432
0
LINE
5
307
100
AcDbEntity
8
0
100
AcDbLine
62
9
6
CONTINUOUS
10
176.1001894800
20
182.2479306927
11
182.1001894800
21
188.2479306927
0
LINE
5
308
100
AcDbEntity
8
0
100
AcDbLine
62
7
6
CONTINUOUS
10
167.7570437295
20
126.5910764432
11
177.7570437295
21
126.5910764432
0
LINE
5
309
100
AcDbEntity
8
0
100
AcDbLine
62
7
6
CONTINUOUS
10
170.7570437295
20
126.5910764432
11
170.7570437295
21
176.5910764432
0
LINE
5
30A
100
AcDbEntity
8
0
100
AcDbLine
62
2
6
CONTINUOUS
10
167.7570437295
20
172.3226453552
11
170.7570437295
21
175.3226453552
0
LINE
5
30B
100
AcDbEntity
8
0
100
AcDbLine
62
2
6
CONTINUOUS
10
189.0254748175
20
193.5910764432
11
192.0254748175
21
196.5910764432
0
LINE
5
30C
100
AcDbEntity
8
0
100
AcDbLine
62
2
6
CONTINUOUS
10
167.7570437295
20
170.2013250117
11
170.7570437295
21
173.2013250117
0
LINE
5
30D
100
AcDbEntity
8
0
100
AcDbLine
62
2
6
CONTINUOUS
10
191.1467951611
20
193.5910764432
11
194.1467951611
21
196.5910764432
0
LINE
5
30E
100
AcDbEntity
8
0
100
AcDbLine
62
2
6
CONTINUOUS
10
167.7570437295
20
168.0800046681
11
170.7570437295
21
171.0800046681
0
LINE
5
30F
100
AcDbEntity
8
0
100
AcDbLine
62
2
6
CONTINUOUS
10
193.2681155046
20
193.5910764432
11
195.7570437295
21
196.0800046681
0
LINE
5
310
100
AcDbEntity
8
0
100
AcDbLine
62
9
6
CONTINUOUS
10
173.7570437295
20
126.5910764432
11
173.7570437295
21
176.5910764432
0
LINE
5
311
100
AcDbEntity
8
0
100
AcDbLine
62
2
6
CONTINUOUS
10
167.8894358482
20
166.0910764432
11
170.7570437295
21
168.9586843246
0
LINE
5
312
100
AcDbEntity
8
0
100
AcDbLine
62
2
6
CONTINUOUS
10
195.3894358482
20
193.5910764432
11
195.7570437295
21
193.9586843246
0
LINE
5
313
100
AcDbEntity
8
0
100
AcDbLine
62
2
6
CONTINUOUS
10
170.0107561918
20
166.0910764432
11
170.7570437295
21
166.8373639810
0
LINE
5
314
100
AcDbEntity
8
0
100
AcDbLine
62
7
6
CONTINUOUS
10
184.6859759177
20
179.5200086314
11
184.8281115414
21
179.6621442551
0
LINE
5
315
100
AcDbEntity
8
0
100
AcDbLine
62
7
6
CONTINUOUS
10
170.7570437295
20
138.5910764432
11
167.7570437295
21
138.5910764432
0
LINE
5
316
100
AcDbEntity
8
0
100
AcDbLine
62
7
6
CONTINUOUS
10
181.7570437295
20
130.5910764432
11
181.7570437295
21
172.4489408195
0
LINE
5
317
100
AcDbEntity
8
DEFAULT_1
100
AcDbLine
62
2
6
CENTER
10
164.7570437295
20
143.8410764432
11
173.7570437295
21
143.8410764432
0
LINE
5
318
100
AcDbEntity
8
0
100
AcDbLine
62
9
6
CONTINUOUS
10
187.7570437295
20
193.5910764432
11
187.7570437295
21
190.5910764432
0
LINE
5
319
100
AcDbEntity
8
0
100
AcDbLine
62
7
6
CONTINUOUS
10
195.7570437295
20
193.5910764432
11
195.7570437295
21
196.5910764432
0
LINE
5
31A
100
AcDbEntity
8
0
100
AcDbLine
62
2
6
CONTINUOUS
10
167.7570437295
20
138.3815198583
11
167.9666003145
21
138.5910764432
0
LINE
5
31B
100
AcDbEntity
8
0
100
AcDbLine
62
2
6
CONTINUOUS
10
225.7570437295
20
196.3815198583
11
225.9666003145
21
196.5910764432
0
LINE
5
31C
100
AcDbEntity
8
0
100
AcDbLine
62
2
6
CONTINUOUS
10
167.7570437295
20
136.2601995147
11
170.0879206580
21
138.5910764432
0
LINE
5
31D
100
AcDbEntity
8
0
100
AcDbLine
62
2
6
CONTINUOUS
10
225.7570437295
20
194.2601995147
11
228.0879206580
21
196.5910764432
0
LINE
5
31E
100
AcDbEntity
8
0
100
AcDbLine
62
2
6
CONTINUOUS
10
167.7570437295
20
134.1388791712
11
170.7570437295
21
137.1388791712
0
LINE
5
31F
100
AcDbEntity
8
0
100
AcDbLine
62
2
6
CONTINUOUS
10
227.2092410016
20
193.5910764432
11
230.2092410016
21
196.5910764432
0
LINE
5
320
100
AcDbEntity
8
0
100
AcDbLine
62
2
6
CONTINUOUS
10
167.7570437295
20
132.0175588276
11
170.7570437295
21
135.0175588276
0
LINE
5
321
100
AcDbEntity
8
0
100
AcDbLine
62
2
6
CONTINUOUS
10
229.3305613452
20
193.5910764432
11
232.3305613452
21
196.5910764432
0
LINE
5
322
100
AcDbEntity
8
0
100
AcDbLine
62
9
6
CONTINUOUS
10
173.9788691365
20
184.3692510363
11
176.1001894800
21
182.2479306927
0
LINE
5
323
100
AcDbEntity
8
DEFAULT_1
100
AcDbLine
62
2
6
CENTER
10
201.0070437295
20
199.5910764432
11
201.0070437295
21
190.5910764432
0
LINE
5
324
100
AcDbEntity
8
0
100
AcDbLine
62
2
6
CONTINUOUS
10
167.7570437295
20
129.8962384841
11
170.7570437295
21
132.8962384841
0
LINE
5
325
100
AcDbEntity
8
0
100
AcDbLine
62
2
6
CONTINUOUS
10
231.4518816887
20
193.5910764432
11
234.4518816887
21
196.5910764432
0
LINE
5
326
100
AcDbEntity
8
0
100
AcDbLine
62
2
6
CONTINUOUS
10
167.7570437295
20
127.7749181405
11
170.7570437295
21
130.7749181405
0
LINE
5
327
100
AcDbEntity
8
0
100
AcDbLine
62
2
6
CONTINUOUS
10
233.5732020323
20
193.5910764432
11
236.5732020323
21
196.5910764432
0
LINE
5
328
100
AcDbEntity
8
DEFAULT_1
100
AcDbLine
62
2
6
CENTER
10
164.7570437295
20
160.8410764432
11
173.7570437295
21
160.8410764432
0
LINE
5
329
100
AcDbEntity
8
0
100
AcDbLine
62
2
6
CONTINUOUS
10
168.6945223758
20
126.5910764432
11
170.7570437295
21
128.6535977969
0
LINE
5
32A
100
AcDbEntity
8
0
100
AcDbLine
62
2
6
CONTINUOUS
10
235.6945223758
20
193.5910764432
11
237.7570437295
21
195.6535977969
0
LINE
5
32B
100
AcDbEntity
8
0
100
AcDbLine
62
7
6
CONTINUOUS
10
170.7570437295
20
166.0910764432
11
167.7570437295
21
166.0910764432
0
LINE
5
32C
100
AcDbEntity
8
0
100
AcDbLine
62
9
6
CONTINUOUS
10
179.9788691365
20
190.3692510363
11
182.1001894800
21
188.2479306927
0
LINE
5
32D
100
AcDbEntity
8
0
100
AcDbLine
62
9
6
CONTINUOUS
10
170.7570437295
20
176.5910764432
11
173.7570437295
21
176.5910764432
0
LINE
5
32E
100
AcDbEntity
8
DEFAULT_1
100
AcDbLine
62
2
6
CENTER
10
220.5070437295
20
199.5910764432
11
220.5070437295
21
190.5910764432
0
LINE
5
32F
100
AcDbEntity
8
0
100
AcDbLine
62
7
6
CONTINUOUS
10
225.7570437295
20
193.5910764432
11
225.7570437295
21
196.5910764432
0
LINE
5
330
100
AcDbEntity
8
0
100
AcDbLine
62
7
6
CONTINUOUS
10
191.8991793533
20
182.5910764432
11
233.7570437295
21
182.5910764432
0
LINE
5
331
100
AcDbEntity
8
0
100
AcDbLine
62
9
6
CONTINUOUS
10
187.7570437295
20
190.5910764432
11
237.7570437295
21
190.5910764432
0
LINE
5
332
100
AcDbEntity
8
0
100
AcDbLine
62
7
6
CONTINUOUS
10
187.7570437295
20
193.5910764432
11
237.7570437295
21
193.5910764432
0
LINE
5
333
100
AcDbEntity
8
0
100
AcDbLine
62
7
6
CONTINUOUS
10
237.7570437295
20
186.5910764432
11
237.7570437295
21
196.5910764432
0
LINE
5
334
100
AcDbEntity
8
0
100
AcDbLine
62
7
6
CONTINUOUS
10
187.7570437295
20
196.5910764432
11
237.7570437295
21
196.5910764432
0
ARC
5
335
100
AcDbEntity
8
0
100
AcDbCircle
62
7
6
CONTINUOUS
10
81.3582606867
20
77.2449799029
40
6.0000000000
100
AcDbArc
50
0.0000000000
51
90.0000000000
0
ARC
5
336
100
AcDbEntity
8
0
100
AcDbCircle
62
7
6
CONTINUOUS
10
67.3582606867
20
30.4949799029
40
5.2500000000
100
AcDbArc
50
180.0000000000
51
360.0000000000
0
ARC
5
337
100
AcDbEntity
8
0
100
AcDbCircle
62
7
6
CONTINUOUS
10
67.3582606867
20
49.9949799029
40
5.2500000000
100
AcDbArc
50
0.0000000000
51
180.0000000000
0
ARC
5
338
100
AcDbEntity
8
0
100
AcDbCircle
62
7
6
CONTINUOUS
10
53.3582606867
20
77.2449799029
40
6.0000000000
100
AcDbArc
50
90.0000000000
51
180.0000000000
0
ARC
5
339
100
AcDbEntity
8
0
100
AcDbCircle
62
7
6
CONTINUOUS
10
67.3582606867
20
143.8410764432
40
5.2500000000
100
AcDbArc
50
180.0000000000
51
360.0000000000
0
ARC
5
33A
100
AcDbEntity
8
0
100
AcDbCircle
62
7
6
CONTINUOUS
10
67.3582606867
20
160.8410764432
40
5.2500000000
100
AcDbArc
50
0.0000000000
51
180.0000000000
0
ARC
5
33B
100
AcDbEntity
8
0
100
AcDbCircle
62
7
6
CONTINUOUS
10
53.3582606867
20
190.5910764432
40
3.0000000000
100
AcDbArc
50
90.0000000000
51
180.0000000000
0
ARC
5
33C
100
AcDbEntity
8
0
100
AcDbCircle
62
7
6
CONTINUOUS
10
81.3582606867
20
190.5910764432
40
3.0000000000
100
AcDbArc
50
0.0000000000
51
90.0000000000
0
ARC
5
33D
100
AcDbEntity
8
0
100
AcDbCircle
62
7
6
CONTINUOUS
10
81.3582606867
20
190.5910764432
40
6.0000000000
100
AcDbArc
50
0.0000000000
51
90.0000000000
0
ARC
5
33E
100
AcDbEntity
8
0
100
AcDbCircle
62
7
6
CONTINUOUS
10
53.3582606867
20
190.5910764432
40
6.0000000000
100
AcDbArc
50
90.0000000000
51
180.0000000000
0
ARC
5
33F
100
AcDbEntity
8
0
100
AcDbCircle
62
7
6
CONTINUOUS
10
181.7570437295
20
176.5910764432
40
11.0000000000
100
AcDbArc
50
135.0000000000
51
180.0000000000
0
ARC
5
340
100
AcDbEntity
8
0
100
AcDbCircle
62
7
6
CONTINUOUS
10
187.7570437295
20
182.5910764432
40
11.0000000000
100
AcDbArc
50
90.0000000000
51
135.0000000000
0
ARC
5
341
100
AcDbEntity
8
0
100
AcDbCircle
62
7
6
CONTINUOUS
10
187.7570437295
20
182.5910764432
40
14.0000000000
100
AcDbArc
50
90.0000000000
51
135.0000000000
0
ARC
5
342
100
AcDbEntity
8
0
100
AcDbCircle
62
7
6
CONTINUOUS
10
181.7570437295
20
176.5910764432
40
14.0000000000
100
AcDbArc
50
135.0000000000
51
180.0000000000
0
ARC
5
343
100
AcDbEntity
8
0
100
AcDbCircle
62
7
6
CONTINUOUS
10
233.7570437295
20
186.5910764432
40
4.0000000000
100
AcDbArc
50
270.0000000000
51
360.0000000000
0
ARC
5
344
100
AcDbEntity
8
0
100
AcDbCircle
62
7
6
CONTINUOUS
10
191.8991793533
20
172.5910764432
40
10.0000000000
100
AcDbArc
50
90.0000000000
51
135.0000000000
0
ARC
5
345
100
AcDbEntity
8
0
100
AcDbCircle
62
7
6
CONTINUOUS
10
191.7570437295
20
172.4489408195
40
10.0000000000
100
AcDbArc
50
135.0000000000
51
180.0000000000
0
ARC
5
346
100
AcDbEntity
8
0
100
AcDbCircle
62
7
6
CONTINUOUS
10
177.7570437295
20
130.5910764432
40
4.0000000000
100
AcDbArc
50
270.0000000000
51
360.0000000000
0
ARC
5
347
100
AcDbEntity
8
0
100
AcDbCircle
62
9
6
CONTINUOUS
10
181.7570437295
20
176.5910764432
40
8.0000000000
100
AcDbArc
50
135.0000000000
51
180.0000000000
0
ARC
5
348
100
AcDbEntity
8
0
100
AcDbCircle
62
9
6
CONTINUOUS
10
187.7570437295
20
182.5910764432
40
8.0000000000
100
AcDbArc
50
90.0000000000
51
135.0000000000
0
SPLINE
5
349
100
AcDbEntity
8
0
100
AcDbSpline
62
9
6
CONTINUOUS
70
0
71
3
72
13
73
9
74
7
42
0.0000001000
43
0.0000001000
44
0.0000000001
12
0.0000000000
22
8.0807401876
32
0.0000000000
13
-8.0807401876
23
0.0000000000
33
0.0000000000
40
0.0000000000
40
0.0000000000
40
0.0000000000
40
0.0000000000
40
0.1382232717
40
0.2849771849
40
0.4454371260
40
0.6203927463
40
0.8069943293
40
1.0000000000
40
1.0000000000
40
1.0000000000
40
1.0000000000
10
87.3582606867
20
68.9018341524
30
0.0000000000
10
87.3582606867
20
69.2741496013
30
0.0000000000
10
87.2094269956
20
70.0480408267
30
0.0000000000
10
86.5777039221
20
71.0918156513
30
0.0000000000
10
85.5999985109
20
71.9703123058
30
0.0000000000
10
84.3477473167
20
72.6353340117
30
0.0000000000
10
82.9032893315
20
73.0507872392
30
0.0000000000
10
81.8781369134
20
73.1444748395
30
0.0000000000
10
81.3582606867
20
73.1444748395
30
0.0000000000
11
87.3582606867
21
68.9018341524
31
0.0000000000
11
87.1538156445
21
69.9999103638
31
0.0000000000
11
86.5544131094
21
71.0231544960
31
0.0000000000
11
85.6009013738
21
71.9018341524
31
0.0000000000
11
84.3582606867
21
72.5760687666
31
0.0000000000
11
82.9111749573
21
72.9999103638
31
0.0000000000
11
81.3582606867
21
73.1444748395
31
0.0000000000
0
SPLINE
5
34A
100
AcDbEntity
8
0
100
AcDbSpline
62
9
6
CONTINUOUS
70
0
71
3
72
13
73
9
74
7
42
0.0000001000
43
0.0000001000
44
0.0000000001
12
0.0000000000
22
8.0807401876
32
0.0000000000
13
-8.0807401876
23
-0.0000000000
33
0.0000000000
40
0.0000000000
40
0.0000000000
40
0.0000000000
40
0.0000000000
40
0.1382232717
40
0.2849771849
40
0.4454371260
40
0.6203927463
40
0.8069943293
40
1.0000000000
40
1.0000000000
40
1.0000000000
40
1.0000000000
10
87.3582606867
20
74.9018341524
30
0.0000000000
10
87.3582606867
20
75.2741496013
30
0.0000000000
10
87.2094269956
20
76.0480408267
30
0.0000000000
10
86.5777039221
20
77.0918156513
30
0.0000000000
10
85.5999985109
20
77.9703123058
30
0.0000000000
10
84.3477473167
20
78.6353340117
30
0.0000000000
10
82.9032893315
20
79.0507872392
30
0.0000000000
10
81.8781369134
20
79.1444748395
30
0.0000000000
10
81.3582606867
20
79.1444748395
30
0.0000000000
11
87.3582606867
21
74.9018341524
31
0.0000000000
11
87.1538156445
21
75.9999103638
31
0.0000000000
11
86.5544131094
21
77.0231544960
31
0.0000000000
11
85.6009013738
21
77.9018341524
31
0.0000000000
11
84.3582606867
21
78.5760687666
31
0.0000000000
11
82.9111749573
21
78.9999103638
31
0.0000000000
11
81.3582606867
21
79.1444748395
31
0.0000000000
0
SPLINE
5
34B
100
AcDbEntity
8
0
100
AcDbSpline
62
9
6
CONTINUOUS
70
0
71
3
72
13
73
9
74
7
42
0.0000001000
43
0.0000001000
44
0.0000000001
12
-8.0807401876
22
0.0000000000
32
0.0000000000
13
0.0000000000
23
-8.0807401876
33
0.0000000000
40
0.0000000000
40
0.0000000000
40
0.0000000000
40
0.0000000000
40
0.1930056707
40
0.3796072537
40
0.5545628740
40
0.7150228151
40
0.8617767283
40
1.0000000000
40
1.0000000000
40
1.0000000000
40
1.0000000000
10
53.3582606867
20
73.1444748395
30
0.0000000000
10
52.8383844600
20
73.1444748395
30
0.0000000000
10
51.8132320419
20
73.0507872392
30
0.0000000000
10
50.3687740568
20
72.6353340117
30
0.0000000000
10
49.1165228626
20
71.9703123058
30
0.0000000000
10
48.1388174513
20
71.0918156513
30
0.0000000000
10
47.5070943778
20
70.0480408267
30
0.0000000000
10
47.3582606867
20
69.2741496013
30
0.0000000000
10
47.3582606867
20
68.9018341524
30
0.0000000000
11
53.3582606867
21
73.1444748395
31
0.0000000000
11
51.8053464161
21
72.9999103638
31
0.0000000000
11
50.3582606867
21
72.5760687666
31
0.0000000000
11
49.1156199996
21
71.9018341524
31
0.0000000000
11
48.1621082640
21
71.0231544960
31
0.0000000000
11
47.5627057290
21
69.9999103638
31
0.0000000000
11
47.3582606867
21
68.9018341524
31
0.0000000000
0
SPLINE
5
34C
100
AcDbEntity
8
0
100
AcDbSpline
62
9
6
CONTINUOUS
70
0
71
3
72
13
73
9
74
7
42
0.0000001000
43
0.0000001000
44
0.0000000001
12
-8.0807401876
22
0.0000000000
32
0.0000000000
13
0.0000000000
23
-8.0807401876
33
0.0000000000
40
0.0000000000
40
0.0000000000
40
0.0000000000
40
0.0000000000
40
0.1930056707
40
0.3796072537
40
0.5545628740
40
0.7150228151
40
0.8617767283
40
1.0000000000
40
1.0000000000
40
1.0000000000
40
1.0000000000
10
53.3582606867
20
79.1444748395
30
0.0000000000
10
52.8383844600
20
79.1444748395
30
0.0000000000
10
51.8132320419
20
79.0507872392
30
0.0000000000
10
50.3687740568
20
78.6353340117
30
0.0000000000
10
49.1165228626
20
77.9703123058
30
0.0000000000
10
48.1388174513
20
77.0918156513
30
0.0000000000
10
47.5070943778
20
76.0480408267
30
0.0000000000
10
47.3582606867
20
75.2741496013
30
0.0000000000
10
47.3582606867
20
74.9018341524
30
0.0000000000
11
53.3582606867
21
79.1444748395
31
0.0000000000
11
51.8053464161
21
78.9999103638
31
0.0000000000
11
50.3582606867
21
78.5760687666
31
0.0000000000
11
49.1156199996
21
77.9018341524
31
0.0000000000
11
48.1621082640
21
77.0231544960
31
0.0000000000
11
47.5627057290
21
75.9999103638
31
0.0000000000
11
47.3582606867
21
74.9018341524
31
0.0000000000
0
SPLINE
5
34D
100
AcDbEntity
8
0
100
AcDbSpline
62
9
6
CONTINUOUS
70
0
71
3
72
12
73
8
74
6
42
0.0000001000
43
0.0000001000
44
0.0000000001
12
4.0352892887
22
0.0000000000
32
0.0000000000
13
0.0000000000
23
-4.0352892887
33
0.0000000000
40
0.0000000000
40
0.0000000000
40
0.0000000000
40
0.0000000000
40
0.2311722193
40
0.4514609303
40
0.6528981177
40
0.8335269214
40
1.0000000000
40
1.0000000000
40
1.0000000000
40
1.0000000000
10
81.3582606867
20
190.3692510363
30
0.0000000000
10
81.6692096136
20
190.3692510363
30
0.0000000000
10
82.2787720982
20
190.3027596691
30
0.0000000000
10
83.1153332930
20
190.0095246290
30
0.0000000000
10
83.7935802760
20
189.5456018763
30
0.0000000000
10
84.2475088838
20
188.9435717565
30
0.0000000000
10
84.3582606867
20
188.4718530364
30
0.0000000000
10
84.3582606867
20
188.2479306927
30
0.0000000000
11
81.3582606867
21
190.3692510363
31
0.0000000000
11
82.2853116698
21
190.2654262286
31
0.0000000000
11
83.1216164436
21
189.9641149012
31
0.0000000000
11
83.7853116698
21
189.4948115061
31
0.0000000000
11
84.2114302356
21
188.9034547294
31
0.0000000000
11
84.3582606867
21
188.2479306927
31
0.0000000000
0
SPLINE
5
34E
100
AcDbEntity
8
0
100
AcDbSpline
62
9
6
CONTINUOUS
70
0
71
3
72
12
73
8
74
6
42
0.0000001000
43
0.0000001000
44
0.0000000001
12
0.0000000000
22
4.0352892887
32
0.0000000000
13
4.0352892887
23
0.0000000000
33
0.0000000000
40
0.0000000000
40
0.0000000000
40
0.0000000000
40
0.0000000000
40
0.1664730786
40
0.3471018823
40
0.5485390697
40
0.7688277807
40
1.0000000000
40
1.0000000000
40
1.0000000000
40
1.0000000000
10
50.3582606867
20
188.2479306927
30
0.0000000000
10
50.3582606867
20
188.4718530364
30
0.0000000000
10
50.4690124897
20
188.9435717565
30
0.0000000000
10
50.9229410974
20
189.5456018763
30
0.0000000000
10
51.6011880804
20
190.0095246290
30
0.0000000000
10
52.4377492753
20
190.3027596691
30
0.0000000000
10
53.0473117599
20
190.3692510363
30
0.0000000000
10
53.3582606867
20
190.3692510363
30
0.0000000000
11
50.3582606867
21
188.2479306927
31
0.0000000000
11
50.5050911378
21
188.9034547294
31
0.0000000000
11
50.9312097036
21
189.4948115061
31
0.0000000000
11
51.5949049298
21
189.9641149012
31
0.0000000000
11
52.4312097036
21
190.2654262286
31
0.0000000000
11
53.3582606867
21
190.3692510363
31
0.0000000000
0
SPLINE
5
34F
100
AcDbEntity
8
0
100
AcDbSpline
62
9
6
CONTINUOUS
70
0
71
3
72
12
73
8
74
6
42
0.0000001000
43
0.0000001000
44
0.0000000001
12
0.8194329102
22
3.6463083001
32
0.0000000000
13
3.7024750574
23
0.0000000000
33
0.0000000000
40
0.0000000000
40
0.0000000000
40
0.0000000000
40
0.0000000000
40
0.0915476254
40
0.2884130912
40
0.5079573993
40
0.7480477880
40
1.0000000000
40
1.0000000000
40
1.0000000000
40
1.0000000000
10
50.3958513340
20
182.5796309577
30
0.0000000000
10
50.4208570464
20
182.6909012465
30
0.0000000000
10
50.5372632042
20
183.0340903648
30
0.0000000000
10
50.9229410974
20
183.5456018763
30
0.0000000000
10
51.6011880804
20
184.0095246290
30
0.0000000000
10
52.4377492753
20
184.3027596691
30
0.0000000000
10
53.0473117599
20
184.3692510363
30
0.0000000000
10
53.3582606867
20
184.3692510363
30
0.0000000000
11
50.3958513340
21
182.5796309577
31
0.0000000000
11
50.5050911378
21
182.9034547294
31
0.0000000000
11
50.9312097036
21
183.4948115061
31
0.0000000000
11
51.5949049298
21
183.9641149012
31
0.0000000000
11
52.4312097036
21
184.2654262286
31
0.0000000000
11
53.3582606867
21
184.3692510363
31
0.0000000000
0
SPLINE
5
350
100
AcDbEntity
8
0
100
AcDbSpline
62
9
6
CONTINUOUS
70
0
71
3
72
12
73
8
74
6
42
0.0000001000
43
0.0000001000
44
0.0000000001
12
3.7024750574
22
0.0000000000
32
0.0000000000
13
0.8194329102
23
-3.6463083001
33
0.0000000000
40
0.0000000000
40
0.0000000000
40
0.0000000000
40
0.0000000000
40
0.2519522120
40
0.4920426007
40
0.7115869088
40
0.9084523746
40
1.0000000000
40
1.0000000000
40
1.0000000000
40
1.0000000000
10
81.3582606867
20
184.3692510363
30
0.0000000000
10
81.6692096136
20
184.3692510363
30
0.0000000000
10
82.2787720982
20
184.3027596691
30
0.0000000000
10
83.1153332930
20
184.0095246290
30
0.0000000000
10
83.7935802760
20
183.5456018763
30
0.0000000000
10
84.1792581692
20
183.0340903648
30
0.0000000000
10
84.2956643271
20
182.6909012465
30
0.0000000000
10
84.3206700395
20
182.5796309577
30
0.0000000000
11
81.3582606867
21
184.3692510363
31
0.0000000000
11
82.2853116698
21
184.2654262286
31
0.0000000000
11
83.1216164436
21
183.9641149012
31
0.0000000000
11
83.7853116698
21
183.4948115061
31
0.0000000000
11
84.2114302356
21
182.9034547294
31
0.0000000000
11
84.3206700395
21
182.5796309577
31
0.0000000000
0
ENDSEC
0
SECTION
2
OBJECTS
0
DICTIONARY
5
C
100
AcDbDictionary
280
0
281
1
3
ACAD_GROUP
350
D
3
ACAD_MLINESTYLE
350
17
3
ACAD_LAYOUT
350
1A
3
ACAD_PLOTSETTINGS
350
19
3
ACAD_PLOTSTYLENAME
350
E
0
DICTIONARY
5
D
102
{ACAD_REACTORS
330
C
102
}
100
AcDbDictionary
280
0
281
1
0
ACDBDICTIONARYWDFLT
5
E
102
{ACAD_REACTORS
330
C
102
}
100
AcDbDictionary
281
1
3
Normal
350
F
100
AcDbDictionaryWithDefault
340
F
0
DICTIONARY
5
17
102
{ACAD_REACTORS
330
C
102
}
100
AcDbDictionary
280
0
281
1
3
Standard
350
18
0
DICTIONARY
5
19
102
{ACAD_REACTORS
330
C
102
}
100
AcDbDictionary
281
1
0
DICTIONARY
5
1A
102
{ACAD_REACTORS
330
C
102
}
100
AcDbDictionary
281
1
3
Layout1
350
1E
3
Model
350
22
0
ACDBPLACEHOLDER
5
F
102
{ACAD_REACTORS
330
E
102
}
0
MLINESTYLE
5
18
102
{ACAD_REACTORS
330
17
102
}
100
AcDbMlineStyle
2
STANDARD
70
0
3

62
256
51
90.0
52
90.0
71
2
49
0.5
62
256
6
BYLAYER
49
-0.5
62
256
6
BYLAYER
0
LAYOUT
5
1E
102
{ACAD_REACTORS
330
1A
102
}
100
AcDbPlotSettings
1

2

4

6

40
0.0
41
0.0
42
0.0
43
0.0
44
0.0
45
0.0
46
0.0
47
0.0
48
0.0
49
0.0
140
0.0
141
0.0
142
1.0
143
1.0
70
0
72
0
73
0
74
0
7

75
0
147
1.0
148
0.0
149
0.0
100
AcDbLayout
1
Layout1
70
0
71
0
10
0.0
20
0.0
11
0.0
21
0.0
12
0.0
22
0.0
32
0.0
14
0.0
24
0.0
34
0.0
15
0.0
25
0.0
35
0.0
146
0.0
13
0.0
23
0.0
33
0.0
16
0.0
26
0.0
36
0.0
17
0.0
27
0.0
37
0.0
76
0
330
1B
331
0
345
0
346
0
0
LAYOUT
5
22
102
{ACAD_REACTORS
330
1A
102
}
100
AcDbPlotSettings
1

2

4

6

40
0.0
41
0.0
42
0.0
43
0.0
44
0.0
45
0.0
46
0.0
47
0.0
48
0.0
49
0.0
140
0.0
141
0.0
142
1.0
143
1.0
70
0
72
0
73
0
74
0
7

75
0
147
1.0
148
0.0
149
0.0
100
AcDbLayout
1
Model
70
0
71
0
10
0.0
20
0.0
11
0.0
21
0.0
12
0.0
22
0.0
32
0.0
14
0.0
24
0.0
34
0.0
15
0.0
25
0.0
35
0.0
146
0.0
13
0.0
23
0.0
33
0.0
16
0.0
26
0.0
36
0.0
17
0.0
27
0.0
37
0.0
76
0
330
1F
331
0
345
0
346
0
0
ENDSEC
0
EOF
