999
DXF file: s0704684882.dxf
999
Pro/ENGINEER 2005310 by Parametric Technology Corporation
0
SECTION
2
HEADER
9
$ACADVER
1
AC1015
9
$DWGCODEPAGE
3
ANSI_1252
9
$EXTMAX
10
297.0000000000
20
210.0000000000
30
0.0000000000
9
$EXTMIN
10
0.0000000000
20
0.0000000000
30
0.0000000000
9
$LIMMIN
10
0.0000000000
20
0.0000000000
9
$LIMMAX
10
297.0000000000
20
210.0000000000
9
$VIEWCTR
10
148.5000000000
20
105.0000000000
9
$VIEWSIZE
40
210.0000000000
9
$CLAYER
8
0
9
$LTSCALE
40
16.3350000000
9
$CELTYPE
6
BYLAYER
9
$DIMSCALE
40
1
9
$DIMASZ
40
3.5000000000
9
$DIMEXO
40
1.8562500000
9
$DIMDLI
40
11.2860000000
9
$DIMEXE
40
5.3460000000
9
$DIMCEN
40
2.6730000000
9
$DIMLFAC
40
1.0000000000
9
$DIMBLK
1
_FILLED
9
$DIMTXT
40
3.5000000000
9
$DIMTOL
70
1
9
$DIMLIM
70
0
9
$DIMTFAC
40
1.0000000000
9
$DIMTP
40
0.0010000000
9
$DIMTM
40
0.0010000000
9
$PDMODE
70
3
9
$PDSIZE
40
0.3125000000
9
$HANDSEED
5
38A
9
$MEASUREMENT
70
1
9
$INSUNITS
70
4
0
ENDSEC
0
SECTION
2
CLASSES
0
CLASS
1
ACDBDICTIONARYWDFLT
2
AcDbDictionaryWithDefault
3
AutoCAD 2000
90
0
280
0
281
0
0
CLASS
1
ACDBPLACEHOLDER
2
AcDbPlaceHolder
3
AutoCAD 2000
90
0
280
0
281
0
0
CLASS
1
LAYOUT
2
AcDbLayout
3
AutoCAD 2000
90
0
280
0
281
0
0
ENDSEC
0
SECTION
2
TABLES
0
TABLE
2
VPORT
5
8
100
AcDbSymbolTable
70
2
0
VPORT
5
1F4
100
AcDbSymbolTableRecord
100
AcDbViewportTableRecord
2
*ACTIVE
70
0
10
0.0
20
0.0
11
1.0
21
1.0
12
148.5000000000
22
105.0000000000
13
0.0
23
0.0
14
1.0
24
1.0
15
0.0
25
0.0
16
0.0
26
0.0
36
1.0
17
0.0
27
0.0
37
0.0
40
210.0000000000
41
1.4142857143
42
50.0
43
0.0
44
0.0
50
0.0
51
0.0
71
0
72
100
73
1
74
1
75
0
76
0
77
0
78
0
0
ENDTAB
0
TABLE
2
LTYPE
5
5
100
AcDbSymbolTable
70
6
0
LTYPE
5
14
100
AcDbSymbolTableRecord
100
AcDbLinetypeTableRecord
2
BYBLOCK
70
0
3

72
65
73
0
40
0.0
0
LTYPE
5
15
100
AcDbSymbolTableRecord
100
AcDbLinetypeTableRecord
2
BYLAYER
70
0
3

72
65
73
0
40
0.0
0
LTYPE
5
16
100
AcDbSymbolTableRecord
100
AcDbLinetypeTableRecord
2
CONTINUOUS
70
64
3
Solid line
72
65
73
0
40
0
0
LTYPE
5
1F5
100
AcDbSymbolTableRecord
100
AcDbLinetypeTableRecord
2
CENTER
70
64
3
____ _ ____ _ ____ _ ____ _ ____ _ ____ _ ____
72
65
73
4
40
0.6
49
0.375
74
0
49
-0.075
74
0
49
0.075
74
0
49
-0.075
74
0
0
LTYPE
5
1F6
100
AcDbSymbolTableRecord
100
AcDbLinetypeTableRecord
2
HIDDEN
70
64
3
- - - - - - - - - - - - - - - - - - - -
72
65
73
2
40
0.2
49
0.1
74
0
49
-0.1
74
0
0
LTYPE
5
1F7
100
AcDbSymbolTableRecord
100
AcDbLinetypeTableRecord
2
PHANTOM
70
64
3
_____ _ _ _____ _ _ _____ _ _ _____
72
65
73
6
40
0.8
49
0.45
74
0
49
-0.05
74
0
49
0.1
74
0
49
-0.05
74
0
49
0.1
74
0
49
-0.05
74
0
0
LTYPE
5
1F8
100
AcDbSymbolTableRecord
100
AcDbLinetypeTableRecord
2
DOT
70
64
3
. . . . . . . . . . . . . . . . . . . .
72
65
73
2
40
0.2
49
0.1
74
0
49
-0.1
74
0
0
LTYPE
5
1F9
100
AcDbSymbolTableRecord
100
AcDbLinetypeTableRecord
2
DASHED
70
64
3
- - - - - - - - - - - - - - - - - - - -
72
65
73
2
40
0.2
49
0.1
74
0
49
-0.1
74
0
0
ENDTAB
0
TABLE
2
LAYER
5
2
100
AcDbSymbolTable
70
36
0
LAYER
5
10
100
AcDbSymbolTableRecord
100
AcDbLayerTableRecord
2
0
70
0
62
7
6
CONTINUOUS
370
-3
390
F
0
LAYER
5
1FA
100
AcDbSymbolTableRecord
100
AcDbLayerTableRecord
2
DEFAULT_1
70
0
62
7
6
CENTER
370
-3
390
F
0
LAYER
5
1FB
100
AcDbSymbolTableRecord
100
AcDbLayerTableRecord
2
DEFAULT_2
70
0
62
8
6
HIDDEN
370
-3
390
F
0
LAYER
5
1FC
100
AcDbSymbolTableRecord
100
AcDbLayerTableRecord
2
DEFAULT_3
70
0
62
7
6
PHANTOM
370
-3
390
F
0
LAYER
5
1FD
100
AcDbSymbolTableRecord
100
AcDbLayerTableRecord
2
ASSI
70
0
62
7
6
CONTINUOUS
370
-3
390
F
0
LAYER
5
1FE
100
AcDbSymbolTableRecord
100
AcDbLayerTableRecord
2
PIANI
70
0
62
7
6
CONTINUOUS
370
-3
390
F
0
LAYER
5
1FF
100
AcDbSymbolTableRecord
100
AcDbLayerTableRecord
2
PUNTI
70
0
62
7
6
CONTINUOUS
370
-3
390
F
0
ENDTAB
0
TABLE
2
STYLE
5
3
100
AcDbSymbolTable
70
1
0
STYLE
5
11
100
AcDbSymbolTableRecord
100
AcDbTextStyleTableRecord
2
STANDARD
70
0
40
0.0
41
0.7143000000
50
0.0
71
0
42
0.2
3
txt
4

0
ENDTAB
0
TABLE
2
VIEW
5
6
100
AcDbSymbolTable
70
0
0
ENDTAB
0
TABLE
2
UCS
5
7
100
AcDbSymbolTable
70
0
0
ENDTAB
0
TABLE
2
APPID
5
9
100
AcDbSymbolTable
70
1
0
APPID
5
200
100
AcDbSymbolTableRecord
100
AcDbRegAppTableRecord
2
ACAD
70
0
0
ENDTAB
0
TABLE
2
BLOCK_RECORD
5
1
100
AcDbSymbolTable
70
0
0
BLOCK_RECORD
5
1F
100
AcDbSymbolTableRecord
100
AcDbBlockTableRecord
2
*MODEL_SPACE
0
BLOCK_RECORD
5
1B
100
AcDbSymbolTableRecord
100
AcDbBlockTableRecord
2
*PAPER_SPACE
0
BLOCK_RECORD
5
201
100
AcDbSymbolTableRecord
100
AcDbBlockTableRecord
2
_FILLED
0
BLOCK_RECORD
5
202
100
AcDbSymbolTableRecord
100
AcDbBlockTableRecord
2
*D0
0
BLOCK_RECORD
5
203
100
AcDbSymbolTableRecord
100
AcDbBlockTableRecord
2
*D1
0
BLOCK_RECORD
5
204
100
AcDbSymbolTableRecord
100
AcDbBlockTableRecord
2
*D2
0
BLOCK_RECORD
5
205
100
AcDbSymbolTableRecord
100
AcDbBlockTableRecord
2
*D3
0
BLOCK_RECORD
5
206
100
AcDbSymbolTableRecord
100
AcDbBlockTableRecord
2
*D4
0
BLOCK_RECORD
5
207
100
AcDbSymbolTableRecord
100
AcDbBlockTableRecord
2
*D5
0
BLOCK_RECORD
5
208
100
AcDbSymbolTableRecord
100
AcDbBlockTableRecord
2
*D6
0
BLOCK_RECORD
5
209
100
AcDbSymbolTableRecord
100
AcDbBlockTableRecord
2
*D7
0
BLOCK_RECORD
5
20A
100
AcDbSymbolTableRecord
100
AcDbBlockTableRecord
2
*D8
0
BLOCK_RECORD
5
20B
100
AcDbSymbolTableRecord
100
AcDbBlockTableRecord
2
*D9
0
BLOCK_RECORD
5
20C
100
AcDbSymbolTableRecord
100
AcDbBlockTableRecord
2
*D10
0
BLOCK_RECORD
5
20D
100
AcDbSymbolTableRecord
100
AcDbBlockTableRecord
2
*D11
0
BLOCK_RECORD
5
20E
100
AcDbSymbolTableRecord
100
AcDbBlockTableRecord
2
*D12
0
BLOCK_RECORD
5
20F
100
AcDbSymbolTableRecord
100
AcDbBlockTableRecord
2
*D13
0
BLOCK_RECORD
5
210
100
AcDbSymbolTableRecord
100
AcDbBlockTableRecord
2
*D14
0
BLOCK_RECORD
5
211
100
AcDbSymbolTableRecord
100
AcDbBlockTableRecord
2
*D15
0
BLOCK_RECORD
5
212
100
AcDbSymbolTableRecord
100
AcDbBlockTableRecord
2
*D16
0
ENDTAB
0
TABLE
2
DIMSTYLE
5
A
100
AcDbSymbolTable
70
1
100
AcDbDimStyleTable
71
0
0
DIMSTYLE
105
213
100
AcDbSymbolTableRecord
100
AcDbDimStyleTableRecord
2
STANDARD
70
0
3

4

40
1.0
41
3.5000000000
42
0.0625
43
0.38
44
0.18
45
0.0
46
0.0
47
0.0010000000
48
0.0010000000
140
3.5000000000
141
0.09
142
0.0
143
25.4
144
1.0000000000
145
0.0
146
1.0000000000
147
0.09
71
1
72
0
73
0
74
0
75
0
76
0
77
1
78
8
170
0
171
2
172
0
173
0
174
0
175
0
176
0
177
0
178
5
270
2
271
3
272
3
273
2
274
2
275
0
280
0
281
0
282
0
283
1
284
8
285
0
286
0
287
3
288
0
340
11
341
201
342
201
343
201
344
201
0
DIMSTYLE
105
214
100
AcDbSymbolTableRecord
100
AcDbDimStyleTableRecord
2
DIMSTYLE_1
70
0
3

4

40
1.0
41
3.5000000000
42
0.0625
43
0.38
44
0.18
45
0.0
46
0.0
47
0.1500000000
48
0.1500000000
140
3.5000000000
141
0.09
142
0.0
143
25.4
144
1.0000000000
145
0.0
146
1.0000000000
147
0.09
71
0
72
0
73
0
74
0
75
0
76
0
77
1
78
8
170
0
171
2
172
0
173
0
174
0
175
0
176
0
177
0
178
5
270
2
271
2
272
2
273
2
274
2
275
0
280
0
281
0
282
0
283
1
284
8
285
0
286
0
287
3
288
0
340
11
341
201
342
201
343
201
344
201
0
DIMSTYLE
105
215
100
AcDbSymbolTableRecord
100
AcDbDimStyleTableRecord
2
DIMSTYLE_2
70
0
3

4

40
1.0
41
3.5000000000
42
0.0625
43
0.38
44
0.18
45
0.0
46
0.0
47
0.1000000000
48
0.1000000000
140
3.5000000000
141
0.09
142
0.0
143
25.4
144
1.0000000000
145
0.0
146
1.0000000000
147
0.09
71
0
72
0
73
0
74
0
75
0
76
0
77
1
78
8
170
0
171
2
172
0
173
0
174
0
175
0
176
0
177
0
178
5
270
2
271
3
272
3
273
2
274
2
275
0
280
0
281
0
282
0
283
1
284
8
285
0
286
0
287
3
288
0
340
11
341
201
342
201
343
201
344
201
0
DIMSTYLE
105
216
100
AcDbSymbolTableRecord
100
AcDbDimStyleTableRecord
2
DIMSTYLE_3
70
0
3

4

40
1.0
41
3.5000000000
42
0.0625
43
0.38
44
0.18
45
0.0
46
0.0
47
0.1500000000
48
0.1500000000
140
3.5000000000
141
0.09
142
0.0
143
25.4
144
1.0000000000
145
0.0
146
1.0000000000
147
0.09
71
0
72
0
73
0
74
0
75
0
76
0
77
1
78
8
170
0
171
2
172
0
173
0
174
0
175
0
176
0
177
0
178
5
270
2
271
3
272
3
273
2
274
2
275
0
280
0
281
0
282
0
283
1
284
8
285
0
286
0
287
3
288
0
340
11
341
201
342
201
343
201
344
201
0
DIMSTYLE
105
217
100
AcDbSymbolTableRecord
100
AcDbDimStyleTableRecord
2
DIMSTYLE_4
70
0
3

4

40
1.0
41
3.5000000000
42
0.0625
43
0.38
44
0.18
45
0.0
46
0.0
47
0.0500000000
48
0.0500000000
140
3.5000000000
141
0.09
142
0.0
143
25.4
144
1.0000000000
145
0.0
146
1.0000000000
147
0.09
71
0
72
0
73
0
74
0
75
0
76
0
77
1
78
8
170
0
171
2
172
0
173
0
174
0
175
0
176
0
177
0
178
5
270
2
271
3
272
3
273
2
274
2
275
0
280
0
281
0
282
0
283
1
284
8
285
0
286
0
287
3
288
0
340
11
341
201
342
201
343
201
344
201
0
ENDTAB
0
ENDSEC
0
SECTION
2
BLOCKS
0
BLOCK
5
20
100
AcDbEntity
8
0
100
AcDbBlockBegin
2
*MODEL_SPACE
70
0
10
0.0
20
0.0
30
0.0
3
*MODEL_SPACE
1

0
ENDBLK
5
21
100
AcDbEntity
8
0
100
AcDbBlockEnd
0
BLOCK
5
1C
100
AcDbEntity
8
0
100
AcDbBlockBegin
2
*PAPER_SPACE
70
0
10
0.0
20
0.0
30
0.0
3
*PAPER_SPACE
1

0
ENDBLK
5
1D
100
AcDbEntity
8
0
100
AcDbBlockEnd
0
BLOCK
5
218
100
AcDbEntity
8
0
100
AcDbBlockBegin
62
2
6
CONTINUOUS
2
*D0
70
65
10
0.0000000000
20
0.0000000000
3
*D0
1

0
TEXT
5
219
100
AcDbEntity
8
0
100
AcDbText
62
5
6
CONTINUOUS
10
141.8969147965
20
146.2472125114
7
STANDARD
40
3.5000000000
1
50
50
90.0000000000
41
0.7143000000
72
0
100
AcDbText
0
LINE
5
21A
100
AcDbEntity
8
0
100
AcDbLine
62
2
6
CONTINUOUS
10
155.8814546626
20
123.7918304489
11
141.2719147965
21
123.7918304489
0
LINE
5
21B
100
AcDbEntity
8
0
100
AcDbLine
62
2
6
CONTINUOUS
10
155.8814546626
20
173.7918304489
11
141.2719147965
21
173.7918304489
0
LINE
5
21C
100
AcDbEntity
8
0
100
AcDbLine
62
2
6
CONTINUOUS
10
142.7719147965
20
123.7918304489
11
142.7719147965
21
148.7918304489
0
LINE
5
21D
100
AcDbEntity
8
0
100
AcDbLine
62
2
6
CONTINUOUS
10
142.7719147965
20
173.7918304489
11
142.7719147965
21
148.7918304489
0
INSERT
5
21E
100
AcDbEntity
8
0
100
AcDbBlockReference
62
2
6
CONTINUOUS
2
_FILLED
10
142.7719147965
20
123.7918304489
41
  3.500000
42
  3.500000
43
  3.500000
50
270.000000
0
INSERT
5
21F
100
AcDbEntity
8
0
100
AcDbBlockReference
62
2
6
CONTINUOUS
2
_FILLED
10
142.7719147965
20
173.7918304489
41
  3.500000
42
  3.500000
43
  3.500000
50
 90.000000
0
ENDBLK
5
220
100
AcDbEntity
8
0
6
BYBLOCK
62
0
100
AcDbBlockEnd
0
BLOCK
5
221
100
AcDbEntity
8
0
100
AcDbBlockBegin
62
2
6
CONTINUOUS
2
*D1
70
65
10
0.0000000000
20
0.0000000000
3
*D1
1

0
TEXT
5
222
100
AcDbEntity
8
0
100
AcDbText
62
5
6
CONTINUOUS
10
95.4935091648
20
126.6463023779
7
STANDARD
40
3.5000000000
1
17.25
50
90.0000000000
41
0.7143000000
72
0
100
AcDbText
0
LINE
5
223
100
AcDbEntity
8
0
100
AcDbLine
62
2
6
CONTINUOUS
10
79.2558366764
20
123.7918304489
11
97.8685091648
21
123.7918304489
0
LINE
5
224
100
AcDbEntity
8
0
100
AcDbLine
62
2
6
CONTINUOUS
10
68.2559366764
20
141.0418304489
11
97.8685091648
21
141.0418304489
0
LINE
5
225
100
AcDbEntity
8
0
100
AcDbLine
62
2
6
CONTINUOUS
10
96.3685091648
20
123.7918304489
11
96.3685091648
21
132.4168304489
0
LINE
5
226
100
AcDbEntity
8
0
100
AcDbLine
62
2
6
CONTINUOUS
10
96.3685091648
20
141.0418304489
11
96.3685091648
21
132.4168304489
0
INSERT
5
227
100
AcDbEntity
8
0
100
AcDbBlockReference
62
2
6
CONTINUOUS
2
_FILLED
10
96.3685091648
20
123.7918304489
41
  3.500000
42
  3.500000
43
  3.500000
50
270.000000
0
INSERT
5
228
100
AcDbEntity
8
0
100
AcDbBlockReference
62
2
6
CONTINUOUS
2
_FILLED
10
96.3685091648
20
141.0418304489
41
  3.500000
42
  3.500000
43
  3.500000
50
 90.000000
0
ENDBLK
5
229
100
AcDbEntity
8
0
6
BYBLOCK
62
0
100
AcDbBlockEnd
0
BLOCK
5
22A
100
AcDbEntity
8
0
100
AcDbBlockBegin
62
2
6
CONTINUOUS
2
*D2
70
65
10
0.0000000000
20
0.0000000000
3
*D2
1

0
TEXT
5
22B
100
AcDbEntity
8
0
100
AcDbText
62
5
6
CONTINUOUS
10
95.4935091648
20
147.6978388140
7
STANDARD
40
3.5000000000
1
17
50
90.0000000000
41
0.7143000000
72
0
100
AcDbText
0
LINE
5
22C
100
AcDbEntity
8
0
100
AcDbLine
62
2
6
CONTINUOUS
10
68.2559366764
20
158.0418304489
11
97.8685091648
21
158.0418304489
0
LINE
5
22D
100
AcDbEntity
8
0
100
AcDbLine
62
2
6
CONTINUOUS
10
68.2559366764
20
141.0418304489
11
97.8685091648
21
141.0418304489
0
LINE
5
22E
100
AcDbEntity
8
0
100
AcDbLine
62
2
6
CONTINUOUS
10
96.3685091648
20
158.0418304489
11
96.3685091648
21
149.5418304489
0
LINE
5
22F
100
AcDbEntity
8
0
100
AcDbLine
62
2
6
CONTINUOUS
10
96.3685091648
20
141.0418304489
11
96.3685091648
21
149.5418304489
0
INSERT
5
230
100
AcDbEntity
8
0
100
AcDbBlockReference
62
2
6
CONTINUOUS
2
_FILLED
10
96.3685091648
20
158.0418304489
41
  3.500000
42
  3.500000
43
  3.500000
50
 90.000000
0
INSERT
5
231
100
AcDbEntity
8
0
100
AcDbBlockReference
62
2
6
CONTINUOUS
2
_FILLED
10
96.3685091648
20
141.0418304489
41
  3.500000
42
  3.500000
43
  3.500000
50
270.000000
0
ENDBLK
5
232
100
AcDbEntity
8
0
6
BYBLOCK
62
0
100
AcDbBlockEnd
0
BLOCK
5
233
100
AcDbEntity
8
0
100
AcDbBlockBegin
62
2
6
CONTINUOUS
2
*D3
70
65
10
0.0000000000
20
0.0000000000
3
*D3
1

0
TEXT
5
234
100
AcDbEntity
8
0
100
AcDbText
62
5
6
CONTINUOUS
10
107.8900272928
20
158.0234138720
7
STANDARD
40
3.5000000000
1
70
50
90.0000000000
41
0.7143000000
72
0
100
AcDbText
0
LINE
5
235
100
AcDbEntity
8
0
100
AcDbLine
62
2
6
CONTINUOUS
10
79.2558366764
20
193.7918304489
11
110.2650272928
21
193.7918304489
0
LINE
5
236
100
AcDbEntity
8
0
100
AcDbLine
62
2
6
CONTINUOUS
10
79.2558366764
20
123.7918304489
11
110.2650272928
21
123.7918304489
0
LINE
5
237
100
AcDbEntity
8
0
100
AcDbLine
62
2
6
CONTINUOUS
10
108.7650272928
20
193.7918304489
11
108.7650272928
21
158.7918304489
0
LINE
5
238
100
AcDbEntity
8
0
100
AcDbLine
62
2
6
CONTINUOUS
10
108.7650272928
20
123.7918304489
11
108.7650272928
21
158.7918304489
0
INSERT
5
239
100
AcDbEntity
8
0
100
AcDbBlockReference
62
2
6
CONTINUOUS
2
_FILLED
10
108.7650272928
20
193.7918304489
41
  3.500000
42
  3.500000
43
  3.500000
50
 90.000000
0
INSERT
5
23A
100
AcDbEntity
8
0
100
AcDbBlockReference
62
2
6
CONTINUOUS
2
_FILLED
10
108.7650272928
20
123.7918304489
41
  3.500000
42
  3.500000
43
  3.500000
50
270.000000
0
ENDBLK
5
23B
100
AcDbEntity
8
0
6
BYBLOCK
62
0
100
AcDbBlockEnd
0
BLOCK
5
23C
100
AcDbEntity
8
0
100
AcDbBlockBegin
62
2
6
CONTINUOUS
2
*D4
70
65
10
0.0000000000
20
0.0000000000
3
*D4
1

0
TEXT
5
23D
100
AcDbEntity
8
0
100
AcDbText
62
5
6
CONTINUOUS
10
31.2015417619
20
152.7731784165
7
STANDARD
40
3.5000000000
1
10.5
41
0.7143000000
72
0
100
AcDbText
0
LINE
5
23E
100
AcDbEntity
8
0
100
AcDbLine
62
2
6
CONTINUOUS
10
59.5058366764
20
157.5418304489
11
59.5058366764
21
150.3981784165
0
LINE
5
23F
100
AcDbEntity
8
0
100
AcDbLine
62
2
6
CONTINUOUS
10
70.0058366764
20
157.5418304489
11
70.0058366764
21
150.3981784165
0
LINE
5
240
100
AcDbEntity
8
0
100
AcDbLine
62
2
6
CONTINUOUS
10
59.5058366764
20
151.8981784165
11
64.7558366764
21
151.8981784165
0
LINE
5
241
100
AcDbEntity
8
0
100
AcDbLine
62
2
6
CONTINUOUS
10
64.7558366764
20
151.8981784165
11
31.2015417619
21
151.8981784165
0
LINE
5
242
100
AcDbEntity
8
0
100
AcDbLine
62
2
6
CONTINUOUS
10
70.0058366764
20
151.8981784165
11
64.7558366764
21
151.8981784165
0
INSERT
5
243
100
AcDbEntity
8
0
100
AcDbBlockReference
62
2
6
CONTINUOUS
2
_FILLED
10
59.5058366764
20
151.8981784165
41
  3.500000
42
  3.500000
43
  3.500000
50
180.000000
0
INSERT
5
244
100
AcDbEntity
8
0
100
AcDbBlockReference
62
2
6
CONTINUOUS
2
_FILLED
10
70.0058366764
20
151.8981784165
41
  3.500000
42
  3.500000
43
  3.500000
0
ENDBLK
5
245
100
AcDbEntity
8
0
6
BYBLOCK
62
0
100
AcDbBlockEnd
0
BLOCK
5
246
100
AcDbEntity
8
0
100
AcDbBlockBegin
62
2
6
CONTINUOUS
2
*D5
70
65
10
0.0000000000
20
0.0000000000
3
*D5
1

0
TEXT
5
247
100
AcDbEntity
8
0
100
AcDbText
62
5
6
CONTINUOUS
10
107.8900272928
20
29.4409406639
7
STANDARD
40
3.5000000000
1
19.5
50
90.0000000000
41
0.7143000000
72
0
100
AcDbText
0
LINE
5
248
100
AcDbEntity
8
0
100
AcDbLine
62
2
6
CONTINUOUS
10
68.2559366764
20
24.9045139510
11
110.2650272928
21
24.9045139510
0
LINE
5
249
100
AcDbEntity
8
0
100
AcDbLine
62
2
6
CONTINUOUS
10
68.2559366764
20
44.4045139510
11
110.2650272928
21
44.4045139510
0
LINE
5
24A
100
AcDbEntity
8
0
100
AcDbLine
62
2
6
CONTINUOUS
10
108.7650272928
20
24.9045139510
11
108.7650272928
21
34.6545139510
0
LINE
5
24B
100
AcDbEntity
8
0
100
AcDbLine
62
2
6
CONTINUOUS
10
108.7650272928
20
44.4045139510
11
108.7650272928
21
34.6545139510
0
INSERT
5
24C
100
AcDbEntity
8
0
100
AcDbBlockReference
62
2
6
CONTINUOUS
2
_FILLED
10
108.7650272928
20
24.9045139510
41
  3.500000
42
  3.500000
43
  3.500000
50
270.000000
0
INSERT
5
24D
100
AcDbEntity
8
0
100
AcDbBlockReference
62
2
6
CONTINUOUS
2
_FILLED
10
108.7650272928
20
44.4045139510
41
  3.500000
42
  3.500000
43
  3.500000
50
 90.000000
0
ENDBLK
5
24E
100
AcDbEntity
8
0
6
BYBLOCK
62
0
100
AcDbBlockEnd
0
BLOCK
5
24F
100
AcDbEntity
8
0
100
AcDbBlockBegin
62
2
6
CONTINUOUS
2
*D6
70
65
10
0.0000000000
20
0.0000000000
3
*D6
1

0
TEXT
5
250
100
AcDbEntity
8
0
100
AcDbText
62
5
6
CONTINUOUS
10
46.3600868694
20
36.1741150424
7
STANDARD
40
3.5000000000
1
10.5
41
0.7143000000
72
0
100
AcDbText
0
LINE
5
251
100
AcDbEntity
8
0
100
AcDbLine
62
2
6
CONTINUOUS
10
59.5058366764
20
25.4045139510
11
59.5058366764
21
36.7991150424
0
LINE
5
252
100
AcDbEntity
8
0
100
AcDbLine
62
2
6
CONTINUOUS
10
70.0058366764
20
25.4045139510
11
70.0058366764
21
36.7991150424
0
LINE
5
253
100
AcDbEntity
8
0
100
AcDbLine
62
2
6
CONTINUOUS
10
59.5058366764
20
35.2991150424
11
46.3600868694
21
35.2991150424
0
LINE
5
254
100
AcDbEntity
8
0
100
AcDbLine
62
2
6
CONTINUOUS
10
46.3600868694
20
35.2991150424
11
64.7558366764
21
35.2991150424
0
LINE
5
255
100
AcDbEntity
8
0
100
AcDbLine
62
2
6
CONTINUOUS
10
70.0058366764
20
35.2991150424
11
78.0058366764
21
35.2991150424
0
LINE
5
256
100
AcDbEntity
8
0
100
AcDbLine
62
2
6
CONTINUOUS
10
78.0058366764
20
35.2991150424
11
64.7558366764
21
35.2991150424
0
INSERT
5
257
100
AcDbEntity
8
0
100
AcDbBlockReference
62
2
6
CONTINUOUS
2
_FILLED
10
59.5058366764
20
35.2991150424
41
  3.500000
42
  3.500000
43
  3.500000
0
INSERT
5
258
100
AcDbEntity
8
0
100
AcDbBlockReference
62
2
6
CONTINUOUS
2
_FILLED
10
70.0058366764
20
35.2991150424
41
  3.500000
42
  3.500000
43
  3.500000
50
180.000000
0
ENDBLK
5
259
100
AcDbEntity
8
0
6
BYBLOCK
62
0
100
AcDbBlockEnd
0
BLOCK
5
25A
100
AcDbEntity
8
0
100
AcDbBlockBegin
62
2
6
CONTINUOUS
2
*D7
70
65
10
0.0000000000
20
0.0000000000
3
*D7
1

0
TEXT
5
25B
100
AcDbEntity
8
0
100
AcDbText
62
5
6
CONTINUOUS
10
36.8620297085
20
110.3893522383
7
STANDARD
40
3.5000000000
1
3
41
0.7143000000
72
0
100
AcDbText
0
LINE
5
25C
100
AcDbEntity
8
0
100
AcDbLine
62
2
6
CONTINUOUS
10
44.7558366764
20
127.2918304489
11
44.7558366764
21
108.0143522383
0
LINE
5
25D
100
AcDbEntity
8
0
100
AcDbLine
62
2
6
CONTINUOUS
10
47.7558366764
20
127.2918304489
11
47.7558366764
21
108.0143522383
0
LINE
5
25E
100
AcDbEntity
8
0
100
AcDbLine
62
2
6
CONTINUOUS
10
44.7558366764
20
109.5143522383
11
36.8620297085
21
109.5143522383
0
LINE
5
25F
100
AcDbEntity
8
0
100
AcDbLine
62
2
6
CONTINUOUS
10
36.8620297085
20
109.5143522383
11
46.2558366764
21
109.5143522383
0
LINE
5
260
100
AcDbEntity
8
0
100
AcDbLine
62
2
6
CONTINUOUS
10
47.7558366764
20
109.5143522383
11
55.7558366764
21
109.5143522383
0
LINE
5
261
100
AcDbEntity
8
0
100
AcDbLine
62
2
6
CONTINUOUS
10
55.7558366764
20
109.5143522383
11
46.2558366764
21
109.5143522383
0
INSERT
5
262
100
AcDbEntity
8
0
100
AcDbBlockReference
62
2
6
CONTINUOUS
2
_FILLED
10
44.7558366764
20
109.5143522383
41
  3.500000
42
  3.500000
43
  3.500000
0
INSERT
5
263
100
AcDbEntity
8
0
100
AcDbBlockReference
62
2
6
CONTINUOUS
2
_FILLED
10
47.7558366764
20
109.5143522383
41
  3.500000
42
  3.500000
43
  3.500000
50
180.000000
0
ENDBLK
5
264
100
AcDbEntity
8
0
6
BYBLOCK
62
0
100
AcDbBlockEnd
0
BLOCK
5
265
100
AcDbEntity
8
0
100
AcDbBlockBegin
62
2
6
CONTINUOUS
2
*D8
70
65
10
0.0000000000
20
0.0000000000
3
*D8
1

0
TEXT
5
266
100
AcDbEntity
8
0
100
AcDbText
62
5
6
CONTINUOUS
10
90.3810285061
20
111.2851109564
7
STANDARD
40
3.5000000000
1
3
41
0.7143000000
72
0
100
AcDbText
0
LINE
5
267
100
AcDbEntity
8
0
100
AcDbLine
62
2
6
CONTINUOUS
10
81.7558366764
20
127.2918304489
11
81.7558366764
21
108.9101109564
0
LINE
5
268
100
AcDbEntity
8
0
100
AcDbLine
62
2
6
CONTINUOUS
10
84.7558366764
20
127.2918304489
11
84.7558366764
21
108.9101109564
0
LINE
5
269
100
AcDbEntity
8
0
100
AcDbLine
62
2
6
CONTINUOUS
10
81.7558366764
20
110.4101109564
11
73.7558366764
21
110.4101109564
0
LINE
5
26A
100
AcDbEntity
8
0
100
AcDbLine
62
2
6
CONTINUOUS
10
73.7558366764
20
110.4101109564
11
83.2558366764
21
110.4101109564
0
LINE
5
26B
100
AcDbEntity
8
0
100
AcDbLine
62
2
6
CONTINUOUS
10
84.7558366764
20
110.4101109564
11
92.8810785061
21
110.4101109564
0
LINE
5
26C
100
AcDbEntity
8
0
100
AcDbLine
62
2
6
CONTINUOUS
10
92.8810785061
20
110.4101109564
11
83.2558366764
21
110.4101109564
0
INSERT
5
26D
100
AcDbEntity
8
0
100
AcDbBlockReference
62
2
6
CONTINUOUS
2
_FILLED
10
81.7558366764
20
110.4101109564
41
  3.500000
42
  3.500000
43
  3.500000
0
INSERT
5
26E
100
AcDbEntity
8
0
100
AcDbBlockReference
62
2
6
CONTINUOUS
2
_FILLED
10
84.7558366764
20
110.4101109564
41
  3.500000
42
  3.500000
43
  3.500000
50
180.000000
0
ENDBLK
5
26F
100
AcDbEntity
8
0
6
BYBLOCK
62
0
100
AcDbBlockEnd
0
BLOCK
5
270
100
AcDbEntity
8
0
100
AcDbBlockBegin
62
2
6
CONTINUOUS
2
*D9
70
65
10
0.0000000000
20
0.0000000000
3
*D9
1

0
TEXT
5
271
100
AcDbEntity
8
0
100
AcDbText
62
5
6
CONTINUOUS
10
61.2842373499
20
104.6619591915
7
STANDARD
40
3.5000000000
1
40
41
0.7143000000
72
0
100
AcDbText
0
LINE
5
272
100
AcDbEntity
8
0
100
AcDbLine
62
2
6
CONTINUOUS
10
44.7558366764
20
127.2918304489
11
44.7558366764
21
102.2869591915
0
LINE
5
273
100
AcDbEntity
8
0
100
AcDbLine
62
2
6
CONTINUOUS
10
84.7558366764
20
127.2918304489
11
84.7558366764
21
102.2869591915
0
LINE
5
274
100
AcDbEntity
8
0
100
AcDbLine
62
2
6
CONTINUOUS
10
44.7558366764
20
103.7869591915
11
64.7558366764
21
103.7869591915
0
LINE
5
275
100
AcDbEntity
8
0
100
AcDbLine
62
2
6
CONTINUOUS
10
84.7558366764
20
103.7869591915
11
64.7558366764
21
103.7869591915
0
INSERT
5
276
100
AcDbEntity
8
0
100
AcDbBlockReference
62
2
6
CONTINUOUS
2
_FILLED
10
44.7558366764
20
103.7869591915
41
  3.500000
42
  3.500000
43
  3.500000
50
180.000000
0
INSERT
5
277
100
AcDbEntity
8
0
100
AcDbBlockReference
62
2
6
CONTINUOUS
2
_FILLED
10
84.7558366764
20
103.7869591915
41
  3.500000
42
  3.500000
43
  3.500000
0
ENDBLK
5
278
100
AcDbEntity
8
0
6
BYBLOCK
62
0
100
AcDbBlockEnd
0
BLOCK
5
279
100
AcDbEntity
8
0
100
AcDbBlockBegin
62
2
6
CONTINUOUS
2
*D10
70
65
10
0.0000000000
20
0.0000000000
3
*D10
1

0
TEXT
5
27A
100
AcDbEntity
8
0
100
AcDbText
62
5
6
CONTINUOUS
10
146.6906742198
20
110.0633044873
7
STANDARD
40
3.5000000000
1
3
41
0.7143000000
72
0
100
AcDbText
0
LINE
5
27B
100
AcDbEntity
8
0
100
AcDbLine
62
2
6
CONTINUOUS
10
156.3814546626
20
140.5418304489
11
156.3814546626
21
107.6883044873
0
LINE
5
27C
100
AcDbEntity
8
0
100
AcDbLine
62
2
6
CONTINUOUS
10
159.3814546626
20
135.2918304489
11
159.3814546626
21
107.6883044873
0
LINE
5
27D
100
AcDbEntity
8
0
100
AcDbLine
62
2
6
CONTINUOUS
10
156.3814546626
20
109.1883044873
11
146.6906742198
21
109.1883044873
0
LINE
5
27E
100
AcDbEntity
8
0
100
AcDbLine
62
2
6
CONTINUOUS
10
146.6906742198
20
109.1883044873
11
157.8814546626
21
109.1883044873
0
LINE
5
27F
100
AcDbEntity
8
0
100
AcDbLine
62
2
6
CONTINUOUS
10
159.3814546626
20
109.1883044873
11
167.3814546626
21
109.1883044873
0
LINE
5
280
100
AcDbEntity
8
0
100
AcDbLine
62
2
6
CONTINUOUS
10
167.3814546626
20
109.1883044873
11
157.8814546626
21
109.1883044873
0
INSERT
5
281
100
AcDbEntity
8
0
100
AcDbBlockReference
62
2
6
CONTINUOUS
2
_FILLED
10
156.3814546626
20
109.1883044873
41
  3.500000
42
  3.500000
43
  3.500000
0
INSERT
5
282
100
AcDbEntity
8
0
100
AcDbBlockReference
62
2
6
CONTINUOUS
2
_FILLED
10
159.3814546626
20
109.1883044873
41
  3.500000
42
  3.500000
43
  3.500000
50
180.000000
0
ENDBLK
5
283
100
AcDbEntity
8
0
6
BYBLOCK
62
0
100
AcDbBlockEnd
0
BLOCK
5
284
100
AcDbEntity
8
0
100
AcDbBlockBegin
62
2
6
CONTINUOUS
2
*D11
70
65
10
0.0000000000
20
0.0000000000
3
*D11
1

0
TEXT
5
285
100
AcDbEntity
8
0
100
AcDbText
62
5
6
CONTINUOUS
10
161.1421978586
20
97.5022040552
7
STANDARD
40
3.5000000000
1
14
41
0.7143000000
72
0
100
AcDbText
0
LINE
5
286
100
AcDbEntity
8
0
100
AcDbLine
62
2
6
CONTINUOUS
10
156.3814546626
20
140.5418304489
11
156.3814546626
21
95.1272040552
0
LINE
5
287
100
AcDbEntity
8
0
100
AcDbLine
62
2
6
CONTINUOUS
10
170.3814546626
20
127.2918304489
11
170.3814546626
21
95.1272040552
0
LINE
5
288
100
AcDbEntity
8
0
100
AcDbLine
62
2
6
CONTINUOUS
10
156.3814546626
20
96.6272040552
11
163.3814546626
21
96.6272040552
0
LINE
5
289
100
AcDbEntity
8
0
100
AcDbLine
62
2
6
CONTINUOUS
10
170.3814546626
20
96.6272040552
11
163.3814546626
21
96.6272040552
0
INSERT
5
28A
100
AcDbEntity
8
0
100
AcDbBlockReference
62
2
6
CONTINUOUS
2
_FILLED
10
156.3814546626
20
96.6272040552
41
  3.500000
42
  3.500000
43
  3.500000
50
180.000000
0
INSERT
5
28B
100
AcDbEntity
8
0
100
AcDbBlockReference
62
2
6
CONTINUOUS
2
_FILLED
10
170.3814546626
20
96.6272040552
41
  3.500000
42
  3.500000
43
  3.500000
0
ENDBLK
5
28C
100
AcDbEntity
8
0
6
BYBLOCK
62
0
100
AcDbBlockEnd
0
BLOCK
5
28D
100
AcDbEntity
8
0
100
AcDbBlockBegin
62
2
6
CONTINUOUS
2
*D12
70
65
10
0.0000000000
20
0.0000000000
3
*D12
1

0
TEXT
5
28E
100
AcDbEntity
8
0
100
AcDbText
62
5
6
CONTINUOUS
10
119.8558528150
20
79.9072311344
7
STANDARD
40
3.5000000000
1
10
50
90.0000000000
41
0.7143000000
72
0
100
AcDbText
0
LINE
5
28F
100
AcDbEntity
8
0
100
AcDbLine
62
2
6
CONTINUOUS
10
73.2558366764
20
87.6545139510
11
122.2308528150
21
87.6545139510
0
LINE
5
290
100
AcDbEntity
8
0
100
AcDbLine
62
2
6
CONTINUOUS
10
79.2558366764
20
77.6545139510
11
122.2308528150
21
77.6545139510
0
LINE
5
291
100
AcDbEntity
8
0
100
AcDbLine
62
2
6
CONTINUOUS
10
120.7308528150
20
87.6545139510
11
120.7308528150
21
95.6545139510
0
LINE
5
292
100
AcDbEntity
8
0
100
AcDbLine
62
2
6
CONTINUOUS
10
120.7308528150
20
95.6545139510
11
120.7308528150
21
82.6545139510
0
LINE
5
293
100
AcDbEntity
8
0
100
AcDbLine
62
2
6
CONTINUOUS
10
120.7308528150
20
77.6545139510
11
120.7308528150
21
69.6545139510
0
LINE
5
294
100
AcDbEntity
8
0
100
AcDbLine
62
2
6
CONTINUOUS
10
120.7308528150
20
69.6545139510
11
120.7308528150
21
82.6545139510
0
INSERT
5
295
100
AcDbEntity
8
0
100
AcDbBlockReference
62
2
6
CONTINUOUS
2
_FILLED
10
120.7308528150
20
87.6545139510
41
  3.500000
42
  3.500000
43
  3.500000
50
270.000000
0
INSERT
5
296
100
AcDbEntity
8
0
100
AcDbBlockReference
62
2
6
CONTINUOUS
2
_FILLED
10
120.7308528150
20
77.6545139510
41
  3.500000
42
  3.500000
43
  3.500000
50
 90.000000
0
ENDBLK
5
297
100
AcDbEntity
8
0
6
BYBLOCK
62
0
100
AcDbBlockEnd
0
BLOCK
5
298
100
AcDbEntity
8
0
100
AcDbBlockBegin
62
2
6
CONTINUOUS
2
*D13
70
65
10
0.0000000000
20
0.0000000000
3
*D13
1

0
TEXT
5
299
100
AcDbEntity
8
0
100
AcDbText
62
5
6
CONTINUOUS
10
61.7973619570
20
93.8356580898
7
STANDARD
40
3.5000000000
1
18
41
0.7143000000
72
0
100
AcDbText
0
LINE
5
29A
100
AcDbEntity
8
0
100
AcDbLine
62
2
6
CONTINUOUS
10
55.7558366764
20
87.1545139510
11
55.7558366764
21
94.4606580898
0
LINE
5
29B
100
AcDbEntity
8
0
100
AcDbLine
62
2
6
CONTINUOUS
10
73.7558366764
20
87.1545139510
11
73.7558366764
21
94.4606580898
0
LINE
5
29C
100
AcDbEntity
8
0
100
AcDbLine
62
2
6
CONTINUOUS
10
55.7558366764
20
92.9606580898
11
64.7558366764
21
92.9606580898
0
LINE
5
29D
100
AcDbEntity
8
0
100
AcDbLine
62
2
6
CONTINUOUS
10
73.7558366764
20
92.9606580898
11
64.7558366764
21
92.9606580898
0
INSERT
5
29E
100
AcDbEntity
8
0
100
AcDbBlockReference
62
2
6
CONTINUOUS
2
_FILLED
10
55.7558366764
20
92.9606580898
41
  3.500000
42
  3.500000
43
  3.500000
50
180.000000
0
INSERT
5
29F
100
AcDbEntity
8
0
100
AcDbBlockReference
62
2
6
CONTINUOUS
2
_FILLED
10
73.7558366764
20
92.9606580898
41
  3.500000
42
  3.500000
43
  3.500000
0
ENDBLK
5
2A0
100
AcDbEntity
8
0
6
BYBLOCK
62
0
100
AcDbBlockEnd
0
BLOCK
5
2A1
100
AcDbEntity
8
0
100
AcDbBlockBegin
62
2
6
CONTINUOUS
2
*D14
70
65
10
0.0000000000
20
0.0000000000
3
*D14
1

0
TEXT
5
2A2
100
AcDbEntity
8
0
100
AcDbText
62
5
6
CONTINUOUS
10
107.8900272928
20
10.3591982581
7
STANDARD
40
3.5000000000
1
17.25
50
90.0000000000
41
0.7143000000
72
0
100
AcDbText
0
LINE
5
2A3
100
AcDbEntity
8
0
100
AcDbLine
62
2
6
CONTINUOUS
10
79.2558366764
20
7.6545139510
11
110.2650272928
21
7.6545139510
0
LINE
5
2A4
100
AcDbEntity
8
0
100
AcDbLine
62
2
6
CONTINUOUS
10
68.2559366764
20
24.9045139510
11
110.2650272928
21
24.9045139510
0
LINE
5
2A5
100
AcDbEntity
8
0
100
AcDbLine
62
2
6
CONTINUOUS
10
108.7650272928
20
7.6545139510
11
108.7650272928
21
16.2795139510
0
LINE
5
2A6
100
AcDbEntity
8
0
100
AcDbLine
62
2
6
CONTINUOUS
10
108.7650272928
20
24.9045139510
11
108.7650272928
21
16.2795139510
0
INSERT
5
2A7
100
AcDbEntity
8
0
100
AcDbBlockReference
62
2
6
CONTINUOUS
2
_FILLED
10
108.7650272928
20
7.6545139510
41
  3.500000
42
  3.500000
43
  3.500000
50
270.000000
0
INSERT
5
2A8
100
AcDbEntity
8
0
100
AcDbBlockReference
62
2
6
CONTINUOUS
2
_FILLED
10
108.7650272928
20
24.9045139510
41
  3.500000
42
  3.500000
43
  3.500000
50
 90.000000
0
ENDBLK
5
2A9
100
AcDbEntity
8
0
6
BYBLOCK
62
0
100
AcDbBlockEnd
0
BLOCK
5
2AA
100
AcDbEntity
8
0
100
AcDbBlockBegin
62
2
6
CONTINUOUS
2
*D15
70
65
10
0.0000000000
20
0.0000000000
3
*D15
1

0
TEXT
5
2AB
100
AcDbEntity
8
0
100
AcDbText
62
5
6
CONTINUOUS
10
119.8558528150
20
41.6343666376
7
STANDARD
40
3.5000000000
1
70
50
90.0000000000
41
0.7143000000
72
0
100
AcDbText
0
LINE
5
2AC
100
AcDbEntity
8
0
100
AcDbLine
62
2
6
CONTINUOUS
10
79.2558366764
20
7.6545139510
11
122.2308528150
21
7.6545139510
0
LINE
5
2AD
100
AcDbEntity
8
0
100
AcDbLine
62
2
6
CONTINUOUS
10
79.2558366764
20
77.6545139510
11
122.2308528150
21
77.6545139510
0
LINE
5
2AE
100
AcDbEntity
8
0
100
AcDbLine
62
2
6
CONTINUOUS
10
120.7308528150
20
7.6545139510
11
120.7308528150
21
42.6545139510
0
LINE
5
2AF
100
AcDbEntity
8
0
100
AcDbLine
62
2
6
CONTINUOUS
10
120.7308528150
20
77.6545139510
11
120.7308528150
21
42.6545139510
0
INSERT
5
2B0
100
AcDbEntity
8
0
100
AcDbBlockReference
62
2
6
CONTINUOUS
2
_FILLED
10
120.7308528150
20
7.6545139510
41
  3.500000
42
  3.500000
43
  3.500000
50
270.000000
0
INSERT
5
2B1
100
AcDbEntity
8
0
100
AcDbBlockReference
62
2
6
CONTINUOUS
2
_FILLED
10
120.7308528150
20
77.6545139510
41
  3.500000
42
  3.500000
43
  3.500000
50
 90.000000
0
ENDBLK
5
2B2
100
AcDbEntity
8
0
6
BYBLOCK
62
0
100
AcDbBlockEnd
0
BLOCK
5
2B3
100
AcDbEntity
8
0
100
AcDbBlockBegin
62
2
6
CONTINUOUS
2
*D16
70
65
10
0.0000000000
20
0.0000000000
3
*D16
1

0
TEXT
5
2B4
100
AcDbEntity
8
0
100
AcDbText
62
5
6
CONTINUOUS
10
250.6326182745
20
184.6407751926
7
STANDARD
40
3.5000000000
1
14
50
90.0000000000
41
0.7143000000
72
0
100
AcDbText
0
LINE
5
2B5
100
AcDbEntity
8
0
100
AcDbLine
62
2
6
CONTINUOUS
10
226.8814546626
20
193.7918304489
11
253.0076182745
21
193.7918304489
0
LINE
5
2B6
100
AcDbEntity
8
0
100
AcDbLine
62
2
6
CONTINUOUS
10
222.8814546626
20
179.7918304489
11
253.0076182745
21
179.7918304489
0
LINE
5
2B7
100
AcDbEntity
8
0
100
AcDbLine
62
2
6
CONTINUOUS
10
251.5076182745
20
193.7918304489
11
251.5076182745
21
186.7918304489
0
LINE
5
2B8
100
AcDbEntity
8
0
100
AcDbLine
62
2
6
CONTINUOUS
10
251.5076182745
20
179.7918304489
11
251.5076182745
21
186.7918304489
0
INSERT
5
2B9
100
AcDbEntity
8
0
100
AcDbBlockReference
62
2
6
CONTINUOUS
2
_FILLED
10
251.5076182745
20
193.7918304489
41
  3.500000
42
  3.500000
43
  3.500000
50
 90.000000
0
INSERT
5
2BA
100
AcDbEntity
8
0
100
AcDbBlockReference
62
2
6
CONTINUOUS
2
_FILLED
10
251.5076182745
20
179.7918304489
41
  3.500000
42
  3.500000
43
  3.500000
50
270.000000
0
ENDBLK
5
2BB
100
AcDbEntity
8
0
6
BYBLOCK
62
0
100
AcDbBlockEnd
0
BLOCK
5
2BC
100
AcDbEntity
8
0
100
AcDbBlockBegin
2
_FILLED
70
64
10
0.0000000000
20
0.0000000000
3
_FILLED
1

0
SOLID
5
2BD
100
AcDbEntity
8
0
6
BYBLOCK
62
0
100
AcDbTrace
10
0.0000000000
20
0.0000000000
11
-1.0000000000
21
0.1857142857
12
-1.0000000000
22
-0.1857142857
13
-1.0000000000
23
-0.1857142857
0
ENDBLK
5
2BE
100
AcDbEntity
8
0
6
BYBLOCK
62
0
100
AcDbBlockEnd
0
ENDSEC
0
SECTION
2
ENTITIES
0
TEXT
5
2BF
100
AcDbEntity
8
0
100
AcDbText
62
7
6
CONTINUOUS
10
51.7283364918
20
204.5895223624
7
STANDARD
40
3.5000000000
1
A
41
0.7143000000
72
0
100
AcDbText
0
LINE
5
2C0
100
AcDbEntity
8
0
100
AcDbLine
62
7
6
CONTINUOUS
10
64.7558366764
20
202.8395223624
11
50.4783114918
21
202.8395223624
0
SOLID
5
2C1
100
AcDbEntity
8
0
100
AcDbTrace
62
7
6
CONTINUOUS
10
57.7558366764
20
201.8395223624
11
64.7558366764
21
202.8395223624
12
57.7558366764
22
203.8395223624
13
57.7558366764
23
203.8395223624
0
TEXT
5
2C2
100
AcDbEntity
8
0
100
AcDbText
62
7
6
CONTINUOUS
10
50.8297723053
20
111.8945174270
7
STANDARD
40
3.5000000000
1
A
41
0.7143000000
72
0
100
AcDbText
0
LINE
5
2C3
100
AcDbEntity
8
0
100
AcDbLine
62
7
6
CONTINUOUS
10
64.7558366764
20
117.1445174270
11
49.5797473053
21
117.1445174270
0
SOLID
5
2C4
100
AcDbEntity
8
0
100
AcDbTrace
62
7
6
CONTINUOUS
10
57.7558366764
20
116.1445174270
11
64.7558366764
21
117.1445174270
12
57.7558366764
22
118.1445174270
13
57.7558366764
23
118.1445174270
0
DIMENSION
5
2C5
100
AcDbEntity
8
0
100
AcDbDimension
62
2
6
CONTINUOUS
2
*D0
10
142.7719147965
20
173.7918304489
11
140.1469147965
21
148.7472625114
70
160
42
50.000000
3
DIMSTYLE_1
100
AcDbAlignedDimension
13
155.8814546626
23
123.7918304489
14
155.8814546626
24
173.7918304489
50
90.000000
100
AcDbRotatedDimension
0
DIMENSION
5
2C6
100
AcDbEntity
8
0
100
AcDbDimension
62
2
6
CONTINUOUS
2
*D1
10
96.3685091648
20
141.0418304489
11
93.7435091648
21
132.8964273779
70
160
42
17.250000
3
DIMSTYLE_2
100
AcDbAlignedDimension
13
79.2558366764
23
123.7918304489
14
68.2559366764
24
141.0418304489
50
90.000000
100
AcDbRotatedDimension
0
DIMENSION
5
2C7
100
AcDbEntity
8
0
100
AcDbDimension
62
2
6
CONTINUOUS
2
*D2
10
96.3685091648
20
141.0418304489
11
93.7435091648
21
150.1978888140
70
160
42
17.000000
3
DIMSTYLE_2
100
AcDbAlignedDimension
13
68.2559366764
23
158.0418304489
14
68.2559366764
24
141.0418304489
50
270.000000
100
AcDbRotatedDimension
0
DIMENSION
5
2C8
100
AcDbEntity
8
0
100
AcDbDimension
62
2
6
CONTINUOUS
2
*D3
10
108.7650272928
20
123.7918304489
11
106.1400272928
21
160.5234638720
70
160
42
70.000000
3
DIMSTYLE_3
100
AcDbAlignedDimension
13
79.2558366764
23
193.7918304489
14
79.2558366764
24
123.7918304489
50
270.000000
100
AcDbRotatedDimension
0
DIMENSION
5
2C9
100
AcDbEntity
8
0
100
AcDbDimension
62
2
6
CONTINUOUS
2
*D4
10
70.0058366764
20
151.8981784165
11
36.2016417619
21
154.5231784165
70
160
42
10.500000
3
DIMSTYLE_2
100
AcDbAlignedDimension
13
59.5058366764
23
157.5418304489
14
70.0058366764
24
157.5418304489
100
AcDbRotatedDimension
0
DIMENSION
5
2CA
100
AcDbEntity
8
0
100
AcDbDimension
62
2
6
CONTINUOUS
2
*D5
10
108.7650272928
20
44.4045139510
11
106.1400272928
21
34.4410406639
70
160
42
19.500000
3
DIMSTYLE_2
100
AcDbAlignedDimension
13
68.2559366764
23
24.9045139510
14
68.2559366764
24
44.4045139510
50
90.000000
100
AcDbRotatedDimension
0
DIMENSION
5
2CB
100
AcDbEntity
8
0
100
AcDbDimension
62
2
6
CONTINUOUS
2
*D6
10
70.0058366764
20
35.2991150424
11
51.3601868694
21
37.9241150424
70
160
42
10.500000
3
DIMSTYLE_2
100
AcDbAlignedDimension
13
59.5058366764
23
25.4045139510
14
70.0058366764
24
25.4045139510
100
AcDbRotatedDimension
0
DIMENSION
5
2CC
100
AcDbEntity
8
0
100
AcDbDimension
62
2
6
CONTINUOUS
2
*D7
10
47.7558366764
20
109.5143522383
11
38.1120547085
21
112.1393522383
70
160
42
3.000000
3
DIMSTYLE_4
100
AcDbAlignedDimension
13
44.7558366764
23
127.2918304489
14
47.7558366764
24
127.2918304489
100
AcDbRotatedDimension
0
DIMENSION
5
2CD
100
AcDbEntity
8
0
100
AcDbDimension
62
2
6
CONTINUOUS
2
*D8
10
84.7558366764
20
110.4101109564
11
91.6310535061
21
113.0351109564
70
160
42
3.000000
3
DIMSTYLE_4
100
AcDbAlignedDimension
13
81.7558366764
23
127.2918304489
14
84.7558366764
24
127.2918304489
100
AcDbRotatedDimension
0
DIMENSION
5
2CE
100
AcDbEntity
8
0
100
AcDbDimension
62
2
6
CONTINUOUS
2
*D9
10
84.7558366764
20
103.7869591915
11
63.7842873499
21
106.4119591915
70
160
42
40.000000
3
DIMSTYLE_3
100
AcDbAlignedDimension
13
44.7558366764
23
127.2918304489
14
84.7558366764
24
127.2918304489
100
AcDbRotatedDimension
0
DIMENSION
5
2CF
100
AcDbEntity
8
0
100
AcDbDimension
62
2
6
CONTINUOUS
2
*D10
10
159.3814546626
20
109.1883044873
11
147.9406992198
21
111.8133044873
70
160
42
3.000000
3
DIMSTYLE_4
100
AcDbAlignedDimension
13
156.3814546626
23
140.5418304489
14
159.3814546626
24
135.2918304489
100
AcDbRotatedDimension
0
DIMENSION
5
2D0
100
AcDbEntity
8
0
100
AcDbDimension
62
2
6
CONTINUOUS
2
*D11
10
170.3814546626
20
96.6272040552
11
163.6422478586
21
99.2522040552
70
160
42
14.000000
3
DIMSTYLE_2
100
AcDbAlignedDimension
13
156.3814546626
23
140.5418304489
14
170.3814546626
24
127.2918304489
100
AcDbRotatedDimension
0
DIMENSION
5
2D1
100
AcDbEntity
8
0
100
AcDbDimension
62
2
6
CONTINUOUS
2
*D12
10
120.7308528150
20
77.6545139510
11
118.1058528150
21
82.4072811344
70
160
42
10.000000
3
DIMSTYLE_2
100
AcDbAlignedDimension
13
73.2558366764
23
87.6545139510
14
79.2558366764
24
77.6545139510
50
270.000000
100
AcDbRotatedDimension
0
DIMENSION
5
2D2
100
AcDbEntity
8
0
100
AcDbDimension
62
2
6
CONTINUOUS
2
*D13
10
73.7558366764
20
92.9606580898
11
64.2974119570
21
95.5856580898
70
160
42
18.000000
3
DIMSTYLE_2
100
AcDbAlignedDimension
13
55.7558366764
23
87.1545139510
14
73.7558366764
24
87.1545139510
100
AcDbRotatedDimension
0
DIMENSION
5
2D3
100
AcDbEntity
8
0
100
AcDbDimension
62
2
6
CONTINUOUS
2
*D14
10
108.7650272928
20
24.9045139510
11
106.1400272928
21
16.6093232581
70
160
42
17.250000
3
DIMSTYLE_2
100
AcDbAlignedDimension
13
79.2558366764
23
7.6545139510
14
68.2559366764
24
24.9045139510
50
90.000000
100
AcDbRotatedDimension
0
DIMENSION
5
2D4
100
AcDbEntity
8
0
100
AcDbDimension
62
2
6
CONTINUOUS
2
*D15
10
120.7308528150
20
77.6545139510
11
118.1058528150
21
44.1344166376
70
160
42
70.000000
3
DIMSTYLE_3
100
AcDbAlignedDimension
13
79.2558366764
23
7.6545139510
14
79.2558366764
24
77.6545139510
50
90.000000
100
AcDbRotatedDimension
0
DIMENSION
5
2D5
100
AcDbEntity
8
0
100
AcDbDimension
62
2
6
CONTINUOUS
2
*D16
10
251.5076182745
20
179.7918304489
11
248.8826182745
21
187.1408251926
70
160
42
14.000000
3
DIMSTYLE_2
100
AcDbAlignedDimension
13
226.8814546626
23
193.7918304489
14
222.8814546626
24
179.7918304489
50
270.000000
100
AcDbRotatedDimension
0
MTEXT
5
2D6
100
AcDbEntity
8
0
100
AcDbMText
62
5
6
CONTINUOUS
7
STANDARD
71
1
72
1
10
230.4629019607
20
157.4235678087
30
0.0000000000
11
1.0000000000
21
0.0000000000
31
0.0000000000
1
SEZIONE A-A
40
3.5000000000
41
27.5005500000
0
LINE
5
2D7
100
AcDbEntity
8
0
100
AcDbLine
62
7
6
CONTINUOUS
10
0.0000000000
20
0.0000000000
11
0.0000000000
21
210.0000000000
0
LINE
5
2D8
100
AcDbEntity
8
0
100
AcDbLine
62
7
6
CONTINUOUS
10
0.0000000000
20
0.0000000000
11
297.0000000000
21
0.0000000000
0
LINE
5
2D9
100
AcDbEntity
8
0
100
AcDbLine
62
7
6
CONTINUOUS
10
0.0000000000
20
210.0000000000
11
297.0000000000
21
210.0000000000
0
LINE
5
2DA
100
AcDbEntity
8
0
100
AcDbLine
62
7
6
CONTINUOUS
10
297.0000000000
20
0.0000000000
11
297.0000000000
21
210.0000000000
0
LINE
5
2DB
100
AcDbEntity
8
0
100
AcDbLine
62
7
6
CONTINUOUS
10
84.7558366764
20
7.6545139510
11
44.7558366764
21
7.6545139510
0
LINE
5
2DC
100
AcDbEntity
8
DEFAULT_1
100
AcDbLine
62
2
6
CENTER
10
64.7558366764
20
24.9045139510
11
61.7557366764
21
24.9045139510
0
LINE
5
2DD
100
AcDbEntity
8
DEFAULT_1
100
AcDbLine
62
2
6
CENTER
10
64.7558366764
20
24.9045139510
11
67.7559366764
21
24.9045139510
0
LINE
5
2DE
100
AcDbEntity
8
0
100
AcDbLine
62
7
6
CONTINUOUS
10
44.7558366764
20
71.6545139510
11
44.7558366764
21
7.6545139510
0
LINE
5
2DF
100
AcDbEntity
8
0
100
AcDbLine
62
9
6
CONTINUOUS
10
50.7558366764
20
77.6545139510
11
50.7558366764
21
7.6545139510
0
LINE
5
2E0
100
AcDbEntity
8
0
100
AcDbLine
62
7
6
CONTINUOUS
10
55.7558366764
20
72.5748241678
11
55.7558366764
21
86.6545139510
0
LINE
5
2E1
100
AcDbEntity
8
0
100
AcDbLine
62
7
6
CONTINUOUS
10
59.5058366764
20
44.4045139510
11
59.5058366764
21
24.9045139510
0
LINE
5
2E2
100
AcDbEntity
8
DEFAULT_1
100
AcDbLine
62
2
6
CENTER
10
64.7558366764
20
44.4045139510
11
61.7557366764
21
44.4045139510
0
LINE
5
2E3
100
AcDbEntity
8
DEFAULT_1
100
AcDbLine
62
2
6
CENTER
10
64.7558366764
20
44.4045139510
11
67.7559366764
21
44.4045139510
0
LINE
5
2E4
100
AcDbEntity
8
DEFAULT_1
100
AcDbLine
62
2
6
CENTER
10
64.7558366764
20
80.6545139510
11
64.7558366764
21
47.4046139510
0
LINE
5
2E5
100
AcDbEntity
8
DEFAULT_1
100
AcDbLine
62
2
6
CENTER
10
64.7558366764
20
41.4044139510
11
64.7558366764
21
27.9046139510
0
LINE
5
2E6
100
AcDbEntity
8
DEFAULT_1
100
AcDbLine
62
2
6
CENTER
10
64.7558366764
20
21.9044139510
11
64.7558366764
21
2.4001418163
0
LINE
5
2E7
100
AcDbEntity
8
DEFAULT_1
100
AcDbLine
62
2
6
CENTER
10
64.7558366764
20
44.4045139510
11
64.7558366764
21
41.4044139510
0
LINE
5
2E8
100
AcDbEntity
8
DEFAULT_1
100
AcDbLine
62
2
6
CENTER
10
64.7558366764
20
24.9045139510
11
64.7558366764
21
21.9044139510
0
LINE
5
2E9
100
AcDbEntity
8
DEFAULT_1
100
AcDbLine
62
2
6
CENTER
10
64.7558366764
20
24.9045139510
11
64.7558366764
21
27.9046139510
0
LINE
5
2EA
100
AcDbEntity
8
DEFAULT_1
100
AcDbLine
62
2
6
CENTER
10
64.7558366764
20
44.4045139510
11
64.7558366764
21
47.4046139510
0
LINE
5
2EB
100
AcDbEntity
8
0
100
AcDbLine
62
7
6
CONTINUOUS
10
70.0058366764
20
24.9045139510
11
70.0058366764
21
44.4045139510
0
LINE
5
2EC
100
AcDbEntity
8
0
100
AcDbLine
62
7
6
CONTINUOUS
10
73.7558366764
20
72.5748241678
11
73.7558366764
21
86.6545139510
0
LINE
5
2ED
100
AcDbEntity
8
0
100
AcDbLine
62
9
6
CONTINUOUS
10
84.7558366764
20
57.6545139510
11
44.7558366764
21
57.6545139510
0
LINE
5
2EE
100
AcDbEntity
8
0
100
AcDbLine
62
9
6
CONTINUOUS
10
78.7558366764
20
77.6545139510
11
78.7558366764
21
7.6545139510
0
LINE
5
2EF
100
AcDbEntity
8
0
100
AcDbLine
62
7
6
CONTINUOUS
10
84.7558366764
20
71.6545139510
11
84.7558366764
21
7.6545139510
0
LINE
5
2F0
100
AcDbEntity
8
0
100
AcDbLine
62
9
6
CONTINUOUS
10
78.7558366764
20
67.5540088876
11
50.7558366764
21
67.5540088876
0
LINE
5
2F1
100
AcDbEntity
8
0
100
AcDbLine
62
9
6
CONTINUOUS
10
73.7558366764
20
72.5748241678
11
55.7558366764
21
72.5748241678
0
LINE
5
2F2
100
AcDbEntity
8
0
100
AcDbLine
62
9
6
CONTINUOUS
10
78.7558366764
20
73.5540088876
11
73.7558366764
21
73.5540088876
0
LINE
5
2F3
100
AcDbEntity
8
0
100
AcDbLine
62
9
6
CONTINUOUS
10
55.7558366764
20
73.5540088876
11
50.7558366764
21
73.5540088876
0
LINE
5
2F4
100
AcDbEntity
8
0
100
AcDbLine
62
9
6
CONTINUOUS
10
73.7558366764
20
74.6961445113
11
55.7558366764
21
74.6961445113
0
LINE
5
2F5
100
AcDbEntity
8
0
100
AcDbLine
62
7
6
CONTINUOUS
10
78.7558366764
20
77.6545139510
11
73.7558366764
21
77.6545139510
0
LINE
5
2F6
100
AcDbEntity
8
0
100
AcDbLine
62
7
6
CONTINUOUS
10
55.7558366764
20
77.6545139510
11
50.7558366764
21
77.6545139510
0
LINE
5
2F7
100
AcDbEntity
8
0
100
AcDbLine
62
7
6
CONTINUOUS
10
72.7558366764
20
87.6545139510
11
56.7558366764
21
87.6545139510
0
LINE
5
2F8
100
AcDbEntity
8
0
100
AcDbLine
62
7
6
CONTINUOUS
10
44.7558366764
20
123.7918304489
11
84.7558366764
21
123.7918304489
0
LINE
5
2F9
100
AcDbEntity
8
0
100
AcDbLine
62
9
6
CONTINUOUS
10
84.7558366764
20
127.7918304489
11
81.7558366764
21
127.7918304489
0
LINE
5
2FA
100
AcDbEntity
8
0
100
AcDbLine
62
9
6
CONTINUOUS
10
47.7558366764
20
127.7918304489
11
44.7558366764
21
127.7918304489
0
LINE
5
2FB
100
AcDbEntity
8
0
100
AcDbLine
62
7
6
CONTINUOUS
10
44.7558366764
20
123.7918304489
11
44.7558366764
21
187.7918304489
0
LINE
5
2FC
100
AcDbEntity
8
0
100
AcDbLine
62
7
6
CONTINUOUS
10
47.7558366764
20
123.7918304489
11
47.7558366764
21
187.7918304489
0
LINE
5
2FD
100
AcDbEntity
8
DEFAULT_1
100
AcDbLine
62
2
6
CENTER
10
64.7558366764
20
141.0418304489
11
61.7557366764
21
141.0418304489
0
LINE
5
2FE
100
AcDbEntity
8
DEFAULT_1
100
AcDbLine
62
2
6
CENTER
10
64.7558366764
20
141.0418304489
11
67.7559366764
21
141.0418304489
0
LINE
5
2FF
100
AcDbEntity
8
0
100
AcDbLine
62
9
6
CONTINUOUS
10
50.7558366764
20
123.7918304489
11
50.7558366764
21
190.7918304489
0
LINE
5
300
100
AcDbEntity
8
0
100
AcDbLine
62
7
6
CONTINUOUS
10
55.7558366764
20
170.7918304489
11
55.7558366764
21
182.2562965430
0
LINE
5
301
100
AcDbEntity
8
0
100
AcDbLine
62
7
6
CONTINUOUS
10
59.5058366764
20
141.0418304489
11
59.5058366764
21
158.0418304489
0
LINE
5
302
100
AcDbEntity
8
DEFAULT_1
100
AcDbLine
62
7
6
CENTER
10
64.7558366764
20
202.8395223624
11
64.7558366764
21
197.8395223624
0
LINE
5
303
100
AcDbEntity
8
DEFAULT_1
100
AcDbLine
62
9
6
CENTER
10
64.7558366764
20
197.8395223624
11
64.7558366764
21
196.7918304489
0
LINE
5
304
100
AcDbEntity
8
DEFAULT_1
100
AcDbLine
62
2
6
CENTER
10
64.7558366764
20
196.7918304489
11
64.7558366764
21
161.0419304489
0
LINE
5
305
100
AcDbEntity
8
DEFAULT_1
100
AcDbLine
62
2
6
CENTER
10
64.7558366764
20
155.0417304489
11
64.7558366764
21
144.0419304489
0
LINE
5
306
100
AcDbEntity
8
DEFAULT_1
100
AcDbLine
62
2
6
CENTER
10
64.7558366764
20
138.0417304489
11
64.7558366764
21
122.1445174270
0
LINE
5
307
100
AcDbEntity
8
DEFAULT_1
100
AcDbLine
62
2
6
CENTER
10
64.7558366764
20
158.0418304489
11
64.7558366764
21
155.0417304489
0
LINE
5
308
100
AcDbEntity
8
DEFAULT_1
100
AcDbLine
62
2
6
CENTER
10
64.7558366764
20
141.0418304489
11
64.7558366764
21
138.0417304489
0
LINE
5
309
100
AcDbEntity
8
DEFAULT_1
100
AcDbLine
62
7
6
CENTER
10
64.7558366764
20
122.1445174270
11
64.7558366764
21
117.1445174270
0
LINE
5
30A
100
AcDbEntity
8
DEFAULT_1
100
AcDbLine
62
2
6
CENTER
10
64.7558366764
20
141.0418304489
11
64.7558366764
21
144.0419304489
0
LINE
5
30B
100
AcDbEntity
8
DEFAULT_1
100
AcDbLine
62
2
6
CENTER
10
64.7558366764
20
158.0418304489
11
64.7558366764
21
161.0419304489
0
LINE
5
30C
100
AcDbEntity
8
DEFAULT_1
100
AcDbLine
62
2
6
CENTER
10
64.7558366764
20
158.0418304489
11
61.7557366764
21
158.0418304489
0
LINE
5
30D
100
AcDbEntity
8
DEFAULT_1
100
AcDbLine
62
2
6
CENTER
10
64.7558366764
20
158.0418304489
11
67.7559366764
21
158.0418304489
0
LINE
5
30E
100
AcDbEntity
8
0
100
AcDbLine
62
7
6
CONTINUOUS
10
70.0058366764
20
158.0418304489
11
70.0058366764
21
141.0418304489
0
LINE
5
30F
100
AcDbEntity
8
0
100
AcDbLine
62
7
6
CONTINUOUS
10
73.7558366764
20
170.7918304489
11
73.7558366764
21
182.2562965430
0
LINE
5
310
100
AcDbEntity
8
0
100
AcDbLine
62
9
6
CONTINUOUS
10
84.7558366764
20
169.6496948252
11
81.7558366764
21
169.6496948252
0
LINE
5
311
100
AcDbEntity
8
0
100
AcDbLine
62
9
6
CONTINUOUS
10
47.7558366764
20
169.6496948252
11
44.7558366764
21
169.6496948252
0
LINE
5
312
100
AcDbEntity
8
0
100
AcDbLine
62
7
6
CONTINUOUS
10
72.7558366764
20
169.7918304489
11
56.7558366764
21
169.7918304489
0
LINE
5
313
100
AcDbEntity
8
0
100
AcDbLine
62
9
6
CONTINUOUS
10
78.7558366764
20
123.7918304489
11
78.7558366764
21
190.7918304489
0
LINE
5
314
100
AcDbEntity
8
0
100
AcDbLine
62
9
6
CONTINUOUS
10
47.7558366764
20
173.7918304489
11
55.7558366764
21
173.7918304489
0
LINE
5
315
100
AcDbEntity
8
0
100
AcDbLine
62
9
6
CONTINUOUS
10
73.7558366764
20
173.7918304489
11
81.7558366764
21
173.7918304489
0
LINE
5
316
100
AcDbEntity
8
0
100
AcDbLine
62
7
6
CONTINUOUS
10
81.7558366764
20
123.7918304489
11
81.7558366764
21
187.7918304489
0
LINE
5
317
100
AcDbEntity
8
0
100
AcDbLine
62
9
6
CONTINUOUS
10
84.7558366764
20
176.7207626370
11
81.7558366764
21
176.7207626370
0
LINE
5
318
100
AcDbEntity
8
0
100
AcDbLine
62
9
6
CONTINUOUS
10
47.7558366764
20
176.7207626370
11
44.7558366764
21
176.7207626370
0
LINE
5
319
100
AcDbEntity
8
0
100
AcDbLine
62
9
6
CONTINUOUS
10
84.7558366764
20
176.8628982608
11
81.7558366764
21
176.8628982608
0
LINE
5
31A
100
AcDbEntity
8
0
100
AcDbLine
62
9
6
CONTINUOUS
10
47.7558366764
20
176.8628982608
11
44.7558366764
21
176.8628982608
0
LINE
5
31B
100
AcDbEntity
8
0
100
AcDbLine
62
7
6
CONTINUOUS
10
84.7558366764
20
123.7918304489
11
84.7558366764
21
187.7918304489
0
LINE
5
31C
100
AcDbEntity
8
0
100
AcDbLine
62
7
6
CONTINUOUS
10
84.7558366764
20
179.7918304489
11
81.7558366764
21
179.7918304489
0
LINE
5
31D
100
AcDbEntity
8
0
100
AcDbLine
62
7
6
CONTINUOUS
10
47.7558366764
20
179.7918304489
11
44.7558366764
21
179.7918304489
0
LINE
5
31E
100
AcDbEntity
8
0
100
AcDbLine
62
7
6
CONTINUOUS
10
73.7558366764
20
180.7918304489
11
55.7558366764
21
180.7918304489
0
LINE
5
31F
100
AcDbEntity
8
0
100
AcDbLine
62
9
6
CONTINUOUS
10
50.7558366764
20
181.5700050420
11
55.7558366764
21
181.5700050420
0
LINE
5
320
100
AcDbEntity
8
0
100
AcDbLine
62
9
6
CONTINUOUS
10
73.7558366764
20
181.5700050420
11
78.7558366764
21
181.5700050420
0
LINE
5
321
100
AcDbEntity
8
0
100
AcDbLine
62
9
6
CONTINUOUS
10
73.7558366764
20
182.2562965430
11
55.7558366764
21
182.2562965430
0
LINE
5
322
100
AcDbEntity
8
0
100
AcDbLine
62
9
6
CONTINUOUS
10
84.7558366764
20
183.7918304489
11
81.7558366764
21
183.7918304489
0
LINE
5
323
100
AcDbEntity
8
0
100
AcDbLine
62
9
6
CONTINUOUS
10
47.7558366764
20
183.7918304489
11
44.7558366764
21
183.7918304489
0
LINE
5
324
100
AcDbEntity
8
0
100
AcDbLine
62
9
6
CONTINUOUS
10
50.7558366764
20
187.5700050420
11
78.7558366764
21
187.5700050420
0
LINE
5
325
100
AcDbEntity
8
0
100
AcDbLine
62
7
6
CONTINUOUS
10
50.7558366764
20
190.7918304489
11
78.7558366764
21
190.7918304489
0
LINE
5
326
100
AcDbEntity
8
0
100
AcDbLine
62
7
6
CONTINUOUS
10
78.7558366764
20
193.7918304489
11
50.7558366764
21
193.7918304489
0
LINE
5
327
100
AcDbEntity
8
0
100
AcDbLine
62
2
6
CONTINUOUS
10
146.3814546626
20
182.8437221299
11
147.3295629816
21
183.7918304489
0
LINE
5
328
100
AcDbEntity
8
0
100
AcDbLine
62
2
6
CONTINUOUS
10
146.4508833251
20
180.7918304489
11
149.4508833251
21
183.7918304489
0
LINE
5
329
100
AcDbEntity
8
0
100
AcDbLine
62
2
6
CONTINUOUS
10
148.5722036687
20
180.7918304489
11
151.5722036687
21
183.7918304489
0
LINE
5
32A
100
AcDbEntity
8
0
100
AcDbLine
62
7
6
CONTINUOUS
10
146.3814546626
20
183.7918304489
11
146.3814546626
21
180.7918304489
0
LINE
5
32B
100
AcDbEntity
8
0
100
AcDbLine
62
2
6
CONTINUOUS
10
150.6935240123
20
180.7918304489
11
153.6935240123
21
183.7918304489
0
LINE
5
32C
100
AcDbEntity
8
0
100
AcDbLine
62
2
6
CONTINUOUS
10
152.8148443558
20
180.7918304489
11
155.8148443558
21
183.7918304489
0
LINE
5
32D
100
AcDbEntity
8
0
100
AcDbLine
62
2
6
CONTINUOUS
10
154.9361646994
20
180.7918304489
11
157.9361646994
21
183.7918304489
0
LINE
5
32E
100
AcDbEntity
8
0
100
AcDbLine
62
2
6
CONTINUOUS
10
157.0574850429
20
180.7918304489
11
160.1821171978
21
183.9164626037
0
LINE
5
32F
100
AcDbEntity
8
0
100
AcDbLine
62
7
6
CONTINUOUS
10
161.4611444458
20
184.6705101053
11
166.4819597260
21
189.6913253855
0
LINE
5
330
100
AcDbEntity
8
0
100
AcDbLine
62
7
6
CONTINUOUS
10
156.3814546626
20
123.7918304489
11
166.3814546626
21
123.7918304489
0
LINE
5
331
100
AcDbEntity
8
0
100
AcDbLine
62
2
6
CONTINUOUS
10
159.1788053865
20
180.7918304489
11
171.1649921280
21
192.7780171904
0
LINE
5
332
100
AcDbEntity
8
0
100
AcDbLine
62
2
6
CONTINUOUS
10
161.6926602456
20
181.1843649645
11
174.1119493605
21
193.6036540794
0
LINE
5
333
100
AcDbEntity
8
0
100
AcDbLine
62
7
6
CONTINUOUS
10
163.2895715706
20
182.2562965430
11
168.6032800696
21
187.5700050420
0
LINE
5
334
100
AcDbEntity
8
0
100
AcDbLine
62
2
6
CONTINUOUS
10
172.8250257522
20
190.1954101275
11
176.4214460736
21
193.7918304489
0
LINE
5
335
100
AcDbEntity
8
0
100
AcDbLine
62
7
6
CONTINUOUS
10
156.3814546626
20
123.7918304489
11
156.3814546626
21
173.7918304489
0
LINE
5
336
100
AcDbEntity
8
0
100
AcDbLine
62
2
6
CONTINUOUS
10
175.5075162882
20
190.7565803199
11
178.5427664172
21
193.7918304489
0
LINE
5
337
100
AcDbEntity
8
0
100
AcDbLine
62
9
6
CONTINUOUS
10
164.7246004131
20
179.4486846984
11
170.7246004131
21
185.4486846984
0
LINE
5
338
100
AcDbEntity
8
0
100
AcDbLine
62
2
6
CONTINUOUS
10
156.3814546626
20
169.5091983508
11
156.6640867607
21
169.7918304489
0
LINE
5
339
100
AcDbEntity
8
0
100
AcDbLine
62
2
6
CONTINUOUS
10
177.6640867607
20
190.7918304489
11
180.6640867607
21
193.7918304489
0
LINE
5
33A
100
AcDbEntity
8
0
100
AcDbLine
62
7
6
CONTINUOUS
10
159.3814546626
20
123.7918304489
11
159.3814546626
21
173.7918304489
0
LINE
5
33B
100
AcDbEntity
8
0
100
AcDbLine
62
2
6
CONTINUOUS
10
156.3814546626
20
167.3878780072
11
158.7854071043
21
169.7918304489
0
LINE
5
33C
100
AcDbEntity
8
0
100
AcDbLine
62
2
6
CONTINUOUS
10
179.7854071043
20
190.7918304489
11
182.7854071043
21
193.7918304489
0
LINE
5
33D
100
AcDbEntity
8
0
100
AcDbLine
62
2
6
CONTINUOUS
10
156.3814546626
20
165.2665576637
11
159.3814546626
21
168.2665576637
0
LINE
5
33E
100
AcDbEntity
8
0
100
AcDbLine
62
2
6
CONTINUOUS
10
181.9067274479
20
190.7918304489
11
184.3814546626
21
193.2665576637
0
LINE
5
33F
100
AcDbEntity
8
0
100
AcDbLine
62
9
6
CONTINUOUS
10
162.3814546626
20
123.7918304489
11
162.3814546626
21
173.7918304489
0
LINE
5
340
100
AcDbEntity
8
0
100
AcDbLine
62
2
6
CONTINUOUS
10
156.5280477914
20
163.2918304489
11
159.3814546626
21
166.1452373201
0
LINE
5
341
100
AcDbEntity
8
0
100
AcDbLine
62
2
6
CONTINUOUS
10
184.0280477914
20
190.7918304489
11
184.3814546626
21
191.1452373201
0
LINE
5
342
100
AcDbEntity
8
0
100
AcDbLine
62
2
6
CONTINUOUS
10
158.6493681350
20
163.2918304489
11
159.3814546626
21
164.0239169765
0
LINE
5
343
100
AcDbEntity
8
0
100
AcDbLine
62
7
6
CONTINUOUS
10
173.3103868507
20
176.7207626370
11
173.4525224745
21
176.8628982608
0
LINE
5
344
100
AcDbEntity
8
0
100
AcDbLine
62
7
6
CONTINUOUS
10
159.3814546626
20
135.7918304489
11
156.3814546626
21
135.7918304489
0
LINE
5
345
100
AcDbEntity
8
DEFAULT_1
100
AcDbLine
62
2
6
CENTER
10
153.3814546626
20
141.0418304489
11
162.3814546626
21
141.0418304489
0
LINE
5
346
100
AcDbEntity
8
0
100
AcDbLine
62
7
6
CONTINUOUS
10
170.3814546626
20
127.7918304489
11
170.3814546626
21
169.6496948252
0
LINE
5
347
100
AcDbEntity
8
0
100
AcDbLine
62
9
6
CONTINUOUS
10
176.3814546626
20
190.7918304489
11
176.3814546626
21
187.7918304489
0
LINE
5
348
100
AcDbEntity
8
0
100
AcDbLine
62
2
6
CONTINUOUS
10
156.3814546626
20
135.5680728538
11
156.6052122577
21
135.7918304489
0
LINE
5
349
100
AcDbEntity
8
0
100
AcDbLine
62
2
6
CONTINUOUS
10
214.3814546626
20
193.5680728538
11
214.6052122577
21
193.7918304489
0
LINE
5
34A
100
AcDbEntity
8
0
100
AcDbLine
62
2
6
CONTINUOUS
10
156.3814546626
20
133.4467525103
11
158.7265326013
21
135.7918304489
0
LINE
5
34B
100
AcDbEntity
8
0
100
AcDbLine
62
2
6
CONTINUOUS
10
214.3814546626
20
191.4467525103
11
216.7265326013
21
193.7918304489
0
LINE
5
34C
100
AcDbEntity
8
0
100
AcDbLine
62
7
6
CONTINUOUS
10
184.3814546626
20
190.7918304489
11
184.3814546626
21
193.7918304489
0
LINE
5
34D
100
AcDbEntity
8
0
100
AcDbLine
62
2
6
CONTINUOUS
10
156.3814546626
20
131.3254321667
11
159.3814546626
21
134.3254321667
0
LINE
5
34E
100
AcDbEntity
8
0
100
AcDbLine
62
2
6
CONTINUOUS
10
215.8478529448
20
190.7918304489
11
218.8478529448
21
193.7918304489
0
LINE
5
34F
100
AcDbEntity
8
0
100
AcDbLine
62
2
6
CONTINUOUS
10
156.3814546626
20
129.2041118231
11
159.3814546626
21
132.2041118231
0
LINE
5
350
100
AcDbEntity
8
0
100
AcDbLine
62
2
6
CONTINUOUS
10
217.9691732884
20
190.7918304489
11
220.9691732884
21
193.7918304489
0
LINE
5
351
100
AcDbEntity
8
DEFAULT_1
100
AcDbLine
62
2
6
CENTER
10
153.3814546626
20
158.0418304489
11
162.3814546626
21
158.0418304489
0
LINE
5
352
100
AcDbEntity
8
0
100
AcDbLine
62
9
6
CONTINUOUS
10
162.6032800696
20
181.5700050420
11
164.7246004131
21
179.4486846984
0
LINE
5
353
100
AcDbEntity
8
DEFAULT_1
100
AcDbLine
62
2
6
CENTER
10
189.6314546626
20
196.7918304489
11
189.6314546626
21
187.7918304489
0
LINE
5
354
100
AcDbEntity
8
0
100
AcDbLine
62
2
6
CONTINUOUS
10
156.3814546626
20
127.0827914796
11
159.3814546626
21
130.0827914796
0
LINE
5
355
100
AcDbEntity
8
0
100
AcDbLine
62
2
6
CONTINUOUS
10
220.0904936319
20
190.7918304489
11
223.0904936319
21
193.7918304489
0
LINE
5
356
100
AcDbEntity
8
0
100
AcDbLine
62
2
6
CONTINUOUS
10
156.3814546626
20
124.9614711360
11
159.3814546626
21
127.9614711360
0
LINE
5
357
100
AcDbEntity
8
0
100
AcDbLine
62
2
6
CONTINUOUS
10
222.2118139755
20
190.7918304489
11
225.2118139755
21
193.7918304489
0
LINE
5
358
100
AcDbEntity
8
0
100
AcDbLine
62
2
6
CONTINUOUS
10
157.3331343190
20
123.7918304489
11
159.3814546626
21
125.8401507925
0
LINE
5
359
100
AcDbEntity
8
0
100
AcDbLine
62
2
6
CONTINUOUS
10
224.3331343190
20
190.7918304489
11
226.3814546626
21
192.8401507925
0
LINE
5
35A
100
AcDbEntity
8
0
100
AcDbLine
62
7
6
CONTINUOUS
10
159.3814546626
20
163.2918304489
11
156.3814546626
21
163.2918304489
0
LINE
5
35B
100
AcDbEntity
8
0
100
AcDbLine
62
7
6
CONTINUOUS
10
159.3814546626
20
169.7918304489
11
156.3814546626
21
169.7918304489
0
LINE
5
35C
100
AcDbEntity
8
0
100
AcDbLine
62
9
6
CONTINUOUS
10
168.6032800696
20
187.5700050420
11
170.7246004131
21
185.4486846984
0
LINE
5
35D
100
AcDbEntity
8
0
100
AcDbLine
62
9
6
CONTINUOUS
10
156.3814546626
20
170.7918304489
11
159.3814546626
21
170.7918304489
0
LINE
5
35E
100
AcDbEntity
8
0
100
AcDbLine
62
9
6
CONTINUOUS
10
159.3814546626
20
173.7918304489
11
162.3814546626
21
173.7918304489
0
LINE
5
35F
100
AcDbEntity
8
0
100
AcDbLine
62
7
6
CONTINUOUS
10
180.5235902863
20
179.7918304489
11
222.3814546626
21
179.7918304489
0
LINE
5
360
100
AcDbEntity
8
DEFAULT_1
100
AcDbLine
62
2
6
CENTER
10
209.1314546626
20
196.7918304489
11
209.1314546626
21
187.7918304489
0
LINE
5
361
100
AcDbEntity
8
0
100
AcDbLine
62
7
6
CONTINUOUS
10
159.7540376646
20
180.7918304489
11
146.3814546626
21
180.7918304489
0
LINE
5
362
100
AcDbEntity
8
0
100
AcDbLine
62
7
6
CONTINUOUS
10
159.3398241023
20
183.7918304489
11
146.3814546626
21
183.7918304489
0
LINE
5
363
100
AcDbEntity
8
0
100
AcDbLine
62
7
6
CONTINUOUS
10
214.3814546626
20
190.7918304489
11
214.3814546626
21
193.7918304489
0
LINE
5
364
100
AcDbEntity
8
0
100
AcDbLine
62
9
6
CONTINUOUS
10
176.3814546626
20
187.7918304489
11
226.3814546626
21
187.7918304489
0
LINE
5
365
100
AcDbEntity
8
0
100
AcDbLine
62
7
6
CONTINUOUS
10
176.3814546626
20
190.7918304489
11
226.3814546626
21
190.7918304489
0
LINE
5
366
100
AcDbEntity
8
0
100
AcDbLine
62
7
6
CONTINUOUS
10
176.3814546626
20
193.7918304489
11
226.3814546626
21
193.7918304489
0
LINE
5
367
100
AcDbEntity
8
0
100
AcDbLine
62
7
6
CONTINUOUS
10
226.3814546626
20
183.7918304489
11
226.3814546626
21
193.7918304489
0
ARC
5
368
100
AcDbEntity
8
0
100
AcDbCircle
62
7
6
CONTINUOUS
10
78.7558366764
20
71.6545139510
40
6.0000000000
100
AcDbArc
50
0.0000000000
51
90.0000000000
0
ARC
5
369
100
AcDbEntity
8
0
100
AcDbCircle
62
7
6
CONTINUOUS
10
56.7558366764
20
86.6545139510
40
1.0000000000
100
AcDbArc
50
90.0000000000
51
180.0000000000
0
ARC
5
36A
100
AcDbEntity
8
0
100
AcDbCircle
62
7
6
CONTINUOUS
10
72.7558366764
20
86.6545139510
40
1.0000000000
100
AcDbArc
50
0.0000000000
51
90.0000000000
0
ARC
5
36B
100
AcDbEntity
8
0
100
AcDbCircle
62
7
6
CONTINUOUS
10
50.7558366764
20
71.6545139510
40
6.0000000000
100
AcDbArc
50
90.0000000000
51
180.0000000000
0
ARC
5
36C
100
AcDbEntity
8
0
100
AcDbCircle
62
7
6
CONTINUOUS
10
64.7558366764
20
24.9045139510
40
5.2500000000
100
AcDbArc
50
180.0000000000
51
360.0000000000
0
ARC
5
36D
100
AcDbEntity
8
0
100
AcDbCircle
62
7
6
CONTINUOUS
10
64.7558366764
20
44.4045139510
40
5.2500000000
100
AcDbArc
50
0.0000000000
51
180.0000000000
0
ARC
5
36E
100
AcDbEntity
8
0
100
AcDbCircle
62
7
6
CONTINUOUS
10
64.7558366764
20
141.0418304489
40
5.2500000000
100
AcDbArc
50
180.0000000000
51
360.0000000000
0
ARC
5
36F
100
AcDbEntity
8
0
100
AcDbCircle
62
7
6
CONTINUOUS
10
64.7558366764
20
158.0418304489
40
5.2500000000
100
AcDbArc
50
0.0000000000
51
180.0000000000
0
ARC
5
370
100
AcDbEntity
8
0
100
AcDbCircle
62
7
6
CONTINUOUS
10
50.7558366764
20
187.7918304489
40
3.0000000000
100
AcDbArc
50
90.0000000000
51
180.0000000000
0
ARC
5
371
100
AcDbEntity
8
0
100
AcDbCircle
62
7
6
CONTINUOUS
10
78.7558366764
20
187.7918304489
40
3.0000000000
100
AcDbArc
50
0.0000000000
51
90.0000000000
0
ARC
5
372
100
AcDbEntity
8
0
100
AcDbCircle
62
7
6
CONTINUOUS
10
78.7558366764
20
187.7918304489
40
6.0000000000
100
AcDbArc
50
0.0000000000
51
90.0000000000
0
ARC
5
373
100
AcDbEntity
8
0
100
AcDbCircle
62
7
6
CONTINUOUS
10
50.7558366764
20
187.7918304489
40
6.0000000000
100
AcDbArc
50
90.0000000000
51
180.0000000000
0
ARC
5
374
100
AcDbEntity
8
0
100
AcDbCircle
62
7
6
CONTINUOUS
10
56.7558366764
20
170.7918304489
40
1.0000000000
100
AcDbArc
50
180.0000000000
51
270.0000000000
0
ARC
5
375
100
AcDbEntity
8
0
100
AcDbCircle
62
7
6
CONTINUOUS
10
72.7558366764
20
170.7918304489
40
1.0000000000
100
AcDbArc
50
270.0000000000
51
360.0000000000
0
ARC
5
376
100
AcDbEntity
8
0
100
AcDbCircle
62
7
6
CONTINUOUS
10
159.3398241023
20
186.7918304489
40
3.0000000000
100
AcDbArc
50
270.0000000000
51
315.0000000000
0
ARC
5
377
100
AcDbEntity
8
0
100
AcDbCircle
62
7
6
CONTINUOUS
10
159.7540376646
20
185.7918304489
40
5.0000000000
100
AcDbArc
50
270.0000000000
51
315.0000000000
0
ARC
5
378
100
AcDbEntity
8
0
100
AcDbCircle
62
7
6
CONTINUOUS
10
176.3814546626
20
179.7918304489
40
11.0000000000
100
AcDbArc
50
90.0000000000
51
135.0000000000
0
ARC
5
379
100
AcDbEntity
8
0
100
AcDbCircle
62
7
6
CONTINUOUS
10
176.3814546626
20
179.7918304489
40
14.0000000000
100
AcDbArc
50
90.0000000000
51
135.0000000000
0
ARC
5
37A
100
AcDbEntity
8
0
100
AcDbCircle
62
7
6
CONTINUOUS
10
222.3814546626
20
183.7918304489
40
4.0000000000
100
AcDbArc
50
270.0000000000
51
360.0000000000
0
ARC
5
37B
100
AcDbEntity
8
0
100
AcDbCircle
62
7
6
CONTINUOUS
10
180.5235902863
20
169.7918304489
40
10.0000000000
100
AcDbArc
50
90.0000000000
51
135.0000000000
0
ARC
5
37C
100
AcDbEntity
8
0
100
AcDbCircle
62
7
6
CONTINUOUS
10
180.3814546626
20
169.6496948252
40
10.0000000000
100
AcDbArc
50
135.0000000000
51
180.0000000000
0
ARC
5
37D
100
AcDbEntity
8
0
100
AcDbCircle
62
7
6
CONTINUOUS
10
170.3814546626
20
173.7918304489
40
11.0000000000
100
AcDbArc
50
135.0000000000
51
180.0000000000
0
ARC
5
37E
100
AcDbEntity
8
0
100
AcDbCircle
62
7
6
CONTINUOUS
10
170.3814546626
20
173.7918304489
40
14.0000000000
100
AcDbArc
50
150.0000000000
51
180.0000000000
0
ARC
5
37F
100
AcDbEntity
8
0
100
AcDbCircle
62
7
6
CONTINUOUS
10
166.3814546626
20
127.7918304489
40
4.0000000000
100
AcDbArc
50
270.0000000000
51
360.0000000000
0
ARC
5
380
100
AcDbEntity
8
0
100
AcDbCircle
62
9
6
CONTINUOUS
10
176.3814546626
20
179.7918304489
40
8.0000000000
100
AcDbArc
50
90.0000000000
51
135.0000000000
0
ARC
5
381
100
AcDbEntity
8
0
100
AcDbCircle
62
9
6
CONTINUOUS
10
170.3814546626
20
173.7918304489
40
8.0000000000
100
AcDbArc
50
135.0000000000
51
180.0000000000
0
SPLINE
5
382
100
AcDbEntity
8
0
100
AcDbSpline
62
9
6
CONTINUOUS
70
0
71
3
72
13
73
9
74
7
42
0.0000001000
43
0.0000001000
44
0.0000000001
12
-8.0807401876
22
0.0000000000
32
0.0000000000
13
0.0000000000
23
-8.0807401876
33
0.0000000000
40
0.0000000000
40
0.0000000000
40
0.0000000000
40
0.0000000000
40
0.1930056707
40
0.3796072537
40
0.5545628740
40
0.7150228151
40
0.8617767283
40
1.0000000000
40
1.0000000000
40
1.0000000000
40
1.0000000000
10
50.7558366764
20
73.5540088876
30
0.0000000000
10
50.2359604497
20
73.5540088876
30
0.0000000000
10
49.2108080315
20
73.4603212873
30
0.0000000000
10
47.7663500464
20
73.0448680598
30
0.0000000000
10
46.5140988522
20
72.3798463538
30
0.0000000000
10
45.5363934409
20
71.5013496994
30
0.0000000000
10
44.9046703675
20
70.4575748748
30
0.0000000000
10
44.7558366764
20
69.6836836494
30
0.0000000000
10
44.7558366764
20
69.3113682005
30
0.0000000000
11
50.7558366764
21
73.5540088876
31
0.0000000000
11
49.2029224057
21
73.4094444118
31
0.0000000000
11
47.7558366764
21
72.9856028147
31
0.0000000000
11
46.5131959892
21
72.3113682005
31
0.0000000000
11
45.5596842536
21
71.4326885440
31
0.0000000000
11
44.9602817186
21
70.4094444118
31
0.0000000000
11
44.7558366764
21
69.3113682005
31
0.0000000000
0
SPLINE
5
383
100
AcDbEntity
8
0
100
AcDbSpline
62
9
6
CONTINUOUS
70
0
71
3
72
13
73
9
74
7
42
0.0000001000
43
0.0000001000
44
0.0000000001
12
0.0000000000
22
8.0807401876
32
0.0000000000
13
-8.0807401876
23
-0.0000000000
33
0.0000000000
40
0.0000000000
40
0.0000000000
40
0.0000000000
40
0.0000000000
40
0.1382232717
40
0.2849771849
40
0.4454371260
40
0.6203927463
40
0.8069943293
40
1.0000000000
40
1.0000000000
40
1.0000000000
40
1.0000000000
10
84.7558366764
20
69.3113682005
30
0.0000000000
10
84.7558366764
20
69.6836836494
30
0.0000000000
10
84.6070029852
20
70.4575748748
30
0.0000000000
10
83.9752799118
20
71.5013496994
30
0.0000000000
10
82.9975745005
20
72.3798463538
30
0.0000000000
10
81.7453233063
20
73.0448680598
30
0.0000000000
10
80.3008653212
20
73.4603212873
30
0.0000000000
10
79.2757129030
20
73.5540088876
30
0.0000000000
10
78.7558366764
20
73.5540088876
30
0.0000000000
11
84.7558366764
21
69.3113682005
31
0.0000000000
11
84.5513916341
21
70.4094444118
31
0.0000000000
11
83.9519890991
21
71.4326885440
31
0.0000000000
11
82.9984773635
21
72.3113682005
31
0.0000000000
11
81.7558366764
21
72.9856028147
31
0.0000000000
11
80.3087509470
21
73.4094444118
31
0.0000000000
11
78.7558366764
21
73.5540088876
31
0.0000000000
0
SPLINE
5
384
100
AcDbEntity
8
0
100
AcDbSpline
62
9
6
CONTINUOUS
70
0
71
3
72
13
73
9
74
7
42
0.0000001000
43
0.0000001000
44
0.0000000001
12
0.0000000000
22
8.0807401876
32
0.0000000000
13
-8.0807401876
23
0.0000000000
33
0.0000000000
40
0.0000000000
40
0.0000000000
40
0.0000000000
40
0.0000000000
40
0.1382232717
40
0.2849771849
40
0.4454371260
40
0.6203927463
40
0.8069943293
40
1.0000000000
40
1.0000000000
40
1.0000000000
40
1.0000000000
10
84.7558366764
20
63.3113682005
30
0.0000000000
10
84.7558366764
20
63.6836836494
30
0.0000000000
10
84.6070029852
20
64.4575748748
30
0.0000000000
10
83.9752799118
20
65.5013496994
30
0.0000000000
10
82.9975745005
20
66.3798463538
30
0.0000000000
10
81.7453233063
20
67.0448680598
30
0.0000000000
10
80.3008653212
20
67.4603212873
30
0.0000000000
10
79.2757129030
20
67.5540088876
30
0.0000000000
10
78.7558366764
20
67.5540088876
30
0.0000000000
11
84.7558366764
21
63.3113682005
31
0.0000000000
11
84.5513916341
21
64.4094444118
31
0.0000000000
11
83.9519890991
21
65.4326885440
31
0.0000000000
11
82.9984773635
21
66.3113682005
31
0.0000000000
11
81.7558366764
21
66.9856028147
31
0.0000000000
11
80.3087509470
21
67.4094444118
31
0.0000000000
11
78.7558366764
21
67.5540088876
31
0.0000000000
0
SPLINE
5
385
100
AcDbEntity
8
0
100
AcDbSpline
62
9
6
CONTINUOUS
70
0
71
3
72
13
73
9
74
7
42
0.0000001000
43
0.0000001000
44
0.0000000001
12
-8.0807401876
22
0.0000000000
32
0.0000000000
13
0.0000000000
23
-8.0807401876
33
0.0000000000
40
0.0000000000
40
0.0000000000
40
0.0000000000
40
0.0000000000
40
0.1930056707
40
0.3796072537
40
0.5545628740
40
0.7150228151
40
0.8617767283
40
1.0000000000
40
1.0000000000
40
1.0000000000
40
1.0000000000
10
50.7558366764
20
67.5540088876
30
0.0000000000
10
50.2359604497
20
67.5540088876
30
0.0000000000
10
49.2108080315
20
67.4603212873
30
0.0000000000
10
47.7663500464
20
67.0448680598
30
0.0000000000
10
46.5140988522
20
66.3798463538
30
0.0000000000
10
45.5363934409
20
65.5013496994
30
0.0000000000
10
44.9046703675
20
64.4575748748
30
0.0000000000
10
44.7558366764
20
63.6836836494
30
0.0000000000
10
44.7558366764
20
63.3113682005
30
0.0000000000
11
50.7558366764
21
67.5540088876
31
0.0000000000
11
49.2029224057
21
67.4094444118
31
0.0000000000
11
47.7558366764
21
66.9856028147
31
0.0000000000
11
46.5131959892
21
66.3113682005
31
0.0000000000
11
45.5596842536
21
65.4326885440
31
0.0000000000
11
44.9602817186
21
64.4094444118
31
0.0000000000
11
44.7558366764
21
63.3113682005
31
0.0000000000
0
SPLINE
5
386
100
AcDbEntity
8
0
100
AcDbSpline
62
9
6
CONTINUOUS
70
0
71
3
72
12
73
8
74
6
42
0.0000001000
43
0.0000001000
44
0.0000000001
12
0.0000000000
22
4.0352892887
32
0.0000000000
13
4.0352892887
23
0.0000000000
33
0.0000000000
40
0.0000000000
40
0.0000000000
40
0.0000000000
40
0.0000000000
40
0.1664730786
40
0.3471018823
40
0.5485390697
40
0.7688277807
40
1.0000000000
40
1.0000000000
40
1.0000000000
40
1.0000000000
10
47.7558366764
20
185.4486846984
30
0.0000000000
10
47.7558366764
20
185.6726070421
30
0.0000000000
10
47.8665884793
20
186.1443257621
30
0.0000000000
10
48.3205170871
20
186.7463558819
30
0.0000000000
10
48.9987640700
20
187.2102786346
30
0.0000000000
10
49.8353252649
20
187.5035136748
30
0.0000000000
10
50.4448877495
20
187.5700050420
30
0.0000000000
10
50.7558366764
20
187.5700050420
30
0.0000000000
11
47.7558366764
21
185.4486846984
31
0.0000000000
11
47.9026671275
21
186.1042087351
31
0.0000000000
11
48.3287856932
21
186.6955655117
31
0.0000000000
11
48.9924809195
21
187.1648689068
31
0.0000000000
11
49.8287856932
21
187.4661802343
31
0.0000000000
11
50.7558366764
21
187.5700050420
31
0.0000000000
0
SPLINE
5
387
100
AcDbEntity
8
0
100
AcDbSpline
62
9
6
CONTINUOUS
70
0
71
3
72
12
73
8
74
6
42
0.0000001000
43
0.0000001000
44
0.0000000001
12
4.0352892887
22
0.0000000000
32
0.0000000000
13
0.0000000000
23
-4.0352892887
33
0.0000000000
40
0.0000000000
40
0.0000000000
40
0.0000000000
40
0.0000000000
40
0.2311722193
40
0.4514609303
40
0.6528981177
40
0.8335269214
40
1.0000000000
40
1.0000000000
40
1.0000000000
40
1.0000000000
10
78.7558366764
20
187.5700050420
30
0.0000000000
10
79.0667856032
20
187.5700050420
30
0.0000000000
10
79.6763480878
20
187.5035136748
30
0.0000000000
10
80.5129092827
20
187.2102786346
30
0.0000000000
10
81.1911562656
20
186.7463558819
30
0.0000000000
10
81.6450848734
20
186.1443257621
30
0.0000000000
10
81.7558366764
20
185.6726070421
30
0.0000000000
10
81.7558366764
20
185.4486846984
30
0.0000000000
11
78.7558366764
21
187.5700050420
31
0.0000000000
11
79.6828876595
21
187.4661802343
31
0.0000000000
11
80.5191924332
21
187.1648689068
31
0.0000000000
11
81.1828876595
21
186.6955655117
31
0.0000000000
11
81.6090062252
21
186.1042087351
31
0.0000000000
11
81.7558366764
21
185.4486846984
31
0.0000000000
0
SPLINE
5
388
100
AcDbEntity
8
0
100
AcDbSpline
62
9
6
CONTINUOUS
70
0
71
3
72
12
73
8
74
6
42
0.0000001000
43
0.0000001000
44
0.0000000001
12
0.8194329102
22
3.6463083001
32
0.0000000000
13
3.7024750574
23
0.0000000000
33
0.0000000000
40
0.0000000000
40
0.0000000000
40
0.0000000000
40
0.0000000000
40
0.0915476254
40
0.2884130912
40
0.5079573993
40
0.7480477880
40
1.0000000000
40
1.0000000000
40
1.0000000000
40
1.0000000000
10
47.7934273236
20
179.7803849634
30
0.0000000000
10
47.8184330360
20
179.8916552522
30
0.0000000000
10
47.9348391938
20
180.2348443705
30
0.0000000000
10
48.3205170871
20
180.7463558819
30
0.0000000000
10
48.9987640700
20
181.2102786346
30
0.0000000000
10
49.8353252649
20
181.5035136748
30
0.0000000000
10
50.4448877495
20
181.5700050420
30
0.0000000000
10
50.7558366764
20
181.5700050420
30
0.0000000000
11
47.7934273236
21
179.7803849634
31
0.0000000000
11
47.9026671275
21
180.1042087351
31
0.0000000000
11
48.3287856932
21
180.6955655117
31
0.0000000000
11
48.9924809195
21
181.1648689068
31
0.0000000000
11
49.8287856932
21
181.4661802343
31
0.0000000000
11
50.7558366764
21
181.5700050420
31
0.0000000000
0
SPLINE
5
389
100
AcDbEntity
8
0
100
AcDbSpline
62
9
6
CONTINUOUS
70
0
71
3
72
12
73
8
74
6
42
0.0000001000
43
0.0000001000
44
0.0000000001
12
3.7024750574
22
0.0000000000
32
0.0000000000
13
0.8194329102
23
-3.6463083001
33
0.0000000000
40
0.0000000000
40
0.0000000000
40
0.0000000000
40
0.0000000000
40
0.2519522120
40
0.4920426007
40
0.7115869088
40
0.9084523746
40
1.0000000000
40
1.0000000000
40
1.0000000000
40
1.0000000000
10
78.7558366764
20
181.5700050420
30
0.0000000000
10
79.0667856032
20
181.5700050420
30
0.0000000000
10
79.6763480878
20
181.5035136748
30
0.0000000000
10
80.5129092827
20
181.2102786346
30
0.0000000000
10
81.1911562656
20
180.7463558819
30
0.0000000000
10
81.5768341589
20
180.2348443705
30
0.0000000000
10
81.6932403167
20
179.8916552522
30
0.0000000000
10
81.7182460291
20
179.7803849634
30
0.0000000000
11
78.7558366764
21
181.5700050420
31
0.0000000000
11
79.6828876595
21
181.4661802343
31
0.0000000000
11
80.5191924332
21
181.1648689068
31
0.0000000000
11
81.1828876595
21
180.6955655117
31
0.0000000000
11
81.6090062252
21
180.1042087351
31
0.0000000000
11
81.7182460291
21
179.7803849634
31
0.0000000000
0
ENDSEC
0
SECTION
2
OBJECTS
0
DICTIONARY
5
C
100
AcDbDictionary
280
0
281
1
3
ACAD_GROUP
350
D
3
ACAD_MLINESTYLE
350
17
3
ACAD_LAYOUT
350
1A
3
ACAD_PLOTSETTINGS
350
19
3
ACAD_PLOTSTYLENAME
350
E
0
DICTIONARY
5
D
102
{ACAD_REACTORS
330
C
102
}
100
AcDbDictionary
280
0
281
1
0
ACDBDICTIONARYWDFLT
5
E
102
{ACAD_REACTORS
330
C
102
}
100
AcDbDictionary
281
1
3
Normal
350
F
100
AcDbDictionaryWithDefault
340
F
0
DICTIONARY
5
17
102
{ACAD_REACTORS
330
C
102
}
100
AcDbDictionary
280
0
281
1
3
Standard
350
18
0
DICTIONARY
5
19
102
{ACAD_REACTORS
330
C
102
}
100
AcDbDictionary
281
1
0
DICTIONARY
5
1A
102
{ACAD_REACTORS
330
C
102
}
100
AcDbDictionary
281
1
3
Layout1
350
1E
3
Model
350
22
0
ACDBPLACEHOLDER
5
F
102
{ACAD_REACTORS
330
E
102
}
0
MLINESTYLE
5
18
102
{ACAD_REACTORS
330
17
102
}
100
AcDbMlineStyle
2
STANDARD
70
0
3

62
256
51
90.0
52
90.0
71
2
49
0.5
62
256
6
BYLAYER
49
-0.5
62
256
6
BYLAYER
0
LAYOUT
5
1E
102
{ACAD_REACTORS
330
1A
102
}
100
AcDbPlotSettings
1

2

4

6

40
0.0
41
0.0
42
0.0
43
0.0
44
0.0
45
0.0
46
0.0
47
0.0
48
0.0
49
0.0
140
0.0
141
0.0
142
1.0
143
1.0
70
0
72
0
73
0
74
0
7

75
0
147
1.0
148
0.0
149
0.0
100
AcDbLayout
1
Layout1
70
0
71
0
10
0.0
20
0.0
11
0.0
21
0.0
12
0.0
22
0.0
32
0.0
14
0.0
24
0.0
34
0.0
15
0.0
25
0.0
35
0.0
146
0.0
13
0.0
23
0.0
33
0.0
16
0.0
26
0.0
36
0.0
17
0.0
27
0.0
37
0.0
76
0
330
1B
331
0
345
0
346
0
0
LAYOUT
5
22
102
{ACAD_REACTORS
330
1A
102
}
100
AcDbPlotSettings
1

2

4

6

40
0.0
41
0.0
42
0.0
43
0.0
44
0.0
45
0.0
46
0.0
47
0.0
48
0.0
49
0.0
140
0.0
141
0.0
142
1.0
143
1.0
70
0
72
0
73
0
74
0
7

75
0
147
1.0
148
0.0
149
0.0
100
AcDbLayout
1
Model
70
0
71
0
10
0.0
20
0.0
11
0.0
21
0.0
12
0.0
22
0.0
32
0.0
14
0.0
24
0.0
34
0.0
15
0.0
25
0.0
35
0.0
146
0.0
13
0.0
23
0.0
33
0.0
16
0.0
26
0.0
36
0.0
17
0.0
27
0.0
37
0.0
76
0
330
1F
331
0
345
0
346
0
0
ENDSEC
0
EOF
