0
SECTION
2
HEADER
9
$ACADVER
1
AC1015
9
$DWGCODEPAGE
3
ANSI_1252
9
$EXTMAX
10
210.0000000000
20
297.0000000000
30
0.0000000000
9
$EXTMIN
10
0.0000000000
20
0.0000000000
30
0.0000000000
9
$LIMMIN
10
0.0000000000
20
0.0000000000
9
$LIMMAX
10
210.0000000000
20
297.0000000000
9
$VIEWCTR
10
105.0000000000
20
148.5000000000
9
$VIEWSIZE
40
297.0000000000
9
$CLAYER
8
0
9
$LTSCALE
40
19.3600000000
9
$CELTYPE
6
BYLAYER
9
$DIMSCALE
40
1
9
$DIMASZ
40
3.5000000000
9
$DIMEXO
40
2.2000000000
9
$DIMDLI
40
13.3760000000
9
$DIMEXE
40
6.3360000000
9
$DIMCEN
40
3.1680000000
9
$DIMLFAC
40
1.0000000000
9
$DIMBLK
1
_FILLED
9
$DIMTXT
40
3.5000000000
9
$DIMTOL
70
1
9
$DIMLIM
70
0
9
$DIMTFAC
40
1.0000000000
9
$DIMTP
40
0.0010000000
9
$DIMTM
40
0.0010000000
9
$PDMODE
70
3
9
$PDSIZE
40
0.3125000000
9
$HANDSEED
5
335
9
$MEASUREMENT
70
1
9
$INSUNITS
70
4
0
ENDSEC
0
SECTION
2
CLASSES
0
CLASS
1
ACDBDICTIONARYWDFLT
2
AcDbDictionaryWithDefault
3
AutoCAD 2000
90
0
280
0
281
0
0
CLASS
1
ACDBPLACEHOLDER
2
AcDbPlaceHolder
3
AutoCAD 2000
90
0
280
0
281
0
0
CLASS
1
LAYOUT
2
AcDbLayout
3
AutoCAD 2000
90
0
280
0
281
0
0
ENDSEC
0
SECTION
2
TABLES
0
TABLE
2
VPORT
5
8
100
AcDbSymbolTable
70
2
0
VPORT
5
1F4
100
AcDbSymbolTableRecord
100
AcDbViewportTableRecord
2
*ACTIVE
70
0
10
0.0
20
0.0
11
1.0
21
1.0
12
105.0000000000
22
148.5000000000
13
0.0
23
0.0
14
1.0
24
1.0
15
0.0
25
0.0
16
0.0
26
0.0
36
1.0
17
0.0
27
0.0
37
0.0
40
297.0000000000
41
0.7070707071
42
50.0
43
0.0
44
0.0
50
0.0
51
0.0
71
0
72
100
73
1
74
1
75
0
76
0
77
0
78
0
0
ENDTAB
0
TABLE
2
LTYPE
5
5
100
AcDbSymbolTable
70
6
0
LTYPE
5
14
100
AcDbSymbolTableRecord
100
AcDbLinetypeTableRecord
2
BYBLOCK
70
0
3

72
65
73
0
40
0.0
0
LTYPE
5
15
100
AcDbSymbolTableRecord
100
AcDbLinetypeTableRecord
2
BYLAYER
70
0
3

72
65
73
0
40
0.0
0
LTYPE
5
16
100
AcDbSymbolTableRecord
100
AcDbLinetypeTableRecord
2
CONTINUOUS
70
64
3
Solid line
72
65
73
0
40
0
0
LTYPE
5
1F5
100
AcDbSymbolTableRecord
100
AcDbLinetypeTableRecord
2
CENTER
70
64
3
____ _ ____ _ ____ _ ____ _ ____ _ ____ _ ____
72
65
73
4
40
0.6
49
0.375
74
0
49
-0.075
74
0
49
0.075
74
0
49
-0.075
74
0
0
LTYPE
5
1F6
100
AcDbSymbolTableRecord
100
AcDbLinetypeTableRecord
2
HIDDEN
70
64
3
- - - - - - - - - - - - - - - - - - - -
72
65
73
2
40
0.2
49
0.1
74
0
49
-0.1
74
0
0
LTYPE
5
1F7
100
AcDbSymbolTableRecord
100
AcDbLinetypeTableRecord
2
PHANTOM
70
64
3
_____ _ _ _____ _ _ _____ _ _ _____
72
65
73
6
40
0.8
49
0.45
74
0
49
-0.05
74
0
49
0.1
74
0
49
-0.05
74
0
49
0.1
74
0
49
-0.05
74
0
0
LTYPE
5
1F8
100
AcDbSymbolTableRecord
100
AcDbLinetypeTableRecord
2
DOT
70
64
3
. . . . . . . . . . . . . . . . . . . .
72
65
73
2
40
0.2
49
0.1
74
0
49
-0.1
74
0
0
LTYPE
5
1F9
100
AcDbSymbolTableRecord
100
AcDbLinetypeTableRecord
2
DASHED
70
64
3
- - - - - - - - - - - - - - - - - - - -
72
65
73
2
40
0.2
49
0.1
74
0
49
-0.1
74
0
0
ENDTAB
0
TABLE
2
LAYER
5
2
100
AcDbSymbolTable
70
36
0
LAYER
5
10
100
AcDbSymbolTableRecord
100
AcDbLayerTableRecord
2
0
70
0
62
7
6
CONTINUOUS
370
-3
390
F
0
LAYER
5
1FA
100
AcDbSymbolTableRecord
100
AcDbLayerTableRecord
2
DEFAULT_1
70
0
62
7
6
CENTER
370
-3
390
F
0
LAYER
5
1FB
100
AcDbSymbolTableRecord
100
AcDbLayerTableRecord
2
DEFAULT_2
70
0
62
8
6
HIDDEN
370
-3
390
F
0
LAYER
5
1FC
100
AcDbSymbolTableRecord
100
AcDbLayerTableRecord
2
DEFAULT_3
70
0
62
7
6
PHANTOM
370
-3
390
F
0
LAYER
5
1FD
100
AcDbSymbolTableRecord
100
AcDbLayerTableRecord
2
_BLACK_HOLE
70
0
62
7
6
CONTINUOUS
370
-3
390
F
0
LAYER
5
1FE
100
AcDbSymbolTableRecord
100
AcDbLayerTableRecord
2
ASSI
70
0
62
7
6
CONTINUOUS
370
-3
390
F
0
LAYER
5
1FF
100
AcDbSymbolTableRecord
100
AcDbLayerTableRecord
2
PIANI
70
0
62
7
6
CONTINUOUS
370
-3
390
F
0
LAYER
5
200
100
AcDbSymbolTableRecord
100
AcDbLayerTableRecord
2
PUNTI
70
0
62
7
6
CONTINUOUS
370
-3
390
F
0
LAYER
5
201
100
AcDbSymbolTableRecord
100
AcDbLayerTableRecord
2
SURF_FILETTI
70
0
62
7
6
CONTINUOUS
370
-3
390
F
0
ENDTAB
0
TABLE
2
STYLE
5
3
100
AcDbSymbolTable
70
1
0
STYLE
5
11
100
AcDbSymbolTableRecord
100
AcDbTextStyleTableRecord
2
STANDARD
70
0
40
0.0
41
0.7143000000
50
0.0
71
0
42
0.2
3
txt
4

0
ENDTAB
0
TABLE
2
VIEW
5
6
100
AcDbSymbolTable
70
0
0
ENDTAB
0
TABLE
2
UCS
5
7
100
AcDbSymbolTable
70
0
0
ENDTAB
0
TABLE
2
APPID
5
9
100
AcDbSymbolTable
70
1
0
APPID
5
202
100
AcDbSymbolTableRecord
100
AcDbRegAppTableRecord
2
ACAD
70
0
0
ENDTAB
0
TABLE
2
BLOCK_RECORD
5
1
100
AcDbSymbolTable
70
0
0
BLOCK_RECORD
5
1F
100
AcDbSymbolTableRecord
100
AcDbBlockTableRecord
2
*MODEL_SPACE
0
BLOCK_RECORD
5
1B
100
AcDbSymbolTableRecord
100
AcDbBlockTableRecord
2
*PAPER_SPACE
0
BLOCK_RECORD
5
203
100
AcDbSymbolTableRecord
100
AcDbBlockTableRecord
2
_FILLED
0
BLOCK_RECORD
5
204
100
AcDbSymbolTableRecord
100
AcDbBlockTableRecord
2
*D0
0
BLOCK_RECORD
5
205
100
AcDbSymbolTableRecord
100
AcDbBlockTableRecord
2
*D1
0
BLOCK_RECORD
5
206
100
AcDbSymbolTableRecord
100
AcDbBlockTableRecord
2
*D2
0
BLOCK_RECORD
5
207
100
AcDbSymbolTableRecord
100
AcDbBlockTableRecord
2
*D3
0
BLOCK_RECORD
5
208
100
AcDbSymbolTableRecord
100
AcDbBlockTableRecord
2
*D4
0
BLOCK_RECORD
5
209
100
AcDbSymbolTableRecord
100
AcDbBlockTableRecord
2
*D5
0
BLOCK_RECORD
5
20A
100
AcDbSymbolTableRecord
100
AcDbBlockTableRecord
2
*D6
0
BLOCK_RECORD
5
20B
100
AcDbSymbolTableRecord
100
AcDbBlockTableRecord
2
*D7
0
BLOCK_RECORD
5
20C
100
AcDbSymbolTableRecord
100
AcDbBlockTableRecord
2
*D8
0
BLOCK_RECORD
5
20D
100
AcDbSymbolTableRecord
100
AcDbBlockTableRecord
2
*D9
0
BLOCK_RECORD
5
20E
100
AcDbSymbolTableRecord
100
AcDbBlockTableRecord
2
*D10
0
BLOCK_RECORD
5
20F
100
AcDbSymbolTableRecord
100
AcDbBlockTableRecord
2
*D11
0
BLOCK_RECORD
5
210
100
AcDbSymbolTableRecord
100
AcDbBlockTableRecord
2
*D12
0
ENDTAB
0
TABLE
2
DIMSTYLE
5
A
100
AcDbSymbolTable
70
1
100
AcDbDimStyleTable
71
0
0
DIMSTYLE
105
211
100
AcDbSymbolTableRecord
100
AcDbDimStyleTableRecord
2
STANDARD
70
0
3

4

40
1.0
41
3.5000000000
42
0.0625
43
0.38
44
0.18
45
0.0
46
0.0
47
0.0010000000
48
0.0010000000
140
3.5000000000
141
0.09
142
0.0
143
25.4
144
1.0000000000
145
0.0
146
1.0000000000
147
0.09
71
1
72
0
73
0
74
0
75
0
76
0
77
1
78
8
170
0
171
2
172
0
173
0
174
0
175
0
176
0
177
0
178
0
270
2
271
3
272
3
273
2
274
2
275
0
280
0
281
0
282
0
283
1
284
8
285
0
286
0
287
3
288
0
340
11
341
203
342
203
343
203
344
203
0
DIMSTYLE
105
212
100
AcDbSymbolTableRecord
100
AcDbDimStyleTableRecord
2
DIMSTYLE_1
70
0
3

4

40
1.0
41
3.5000000000
42
0.0625
43
0.38
44
0.18
45
0.0
46
0.0
47
0.1500000000
48
0.1500000000
140
3.5000000000
141
0.09
142
0.0
143
25.4
144
1.0000000000
145
0.0
146
1.0000000000
147
0.09
71
0
72
0
73
0
74
0
75
0
76
0
77
1
78
8
170
0
171
2
172
0
173
0
174
0
175
0
176
0
177
0
178
0
270
2
271
3
272
3
273
2
274
2
275
0
280
0
281
0
282
0
283
1
284
8
285
0
286
0
287
3
288
0
340
11
341
203
342
203
343
203
344
203
0
DIMSTYLE
105
213
100
AcDbSymbolTableRecord
100
AcDbDimStyleTableRecord
2
DIMSTYLE_2
70
0
3

4

40
1.0
41
3.5000000000
42
0.0625
43
0.38
44
0.18
45
0.0
46
0.0
47
0.1000000000
48
0.1000000000
140
3.5000000000
141
0.09
142
0.0
143
25.4
144
1.0000000000
145
0.0
146
1.0000000000
147
0.09
71
0
72
0
73
0
74
0
75
0
76
0
77
1
78
8
170
0
171
2
172
0
173
0
174
0
175
0
176
0
177
0
178
0
270
2
271
3
272
3
273
2
274
2
275
0
280
0
281
0
282
0
283
1
284
8
285
0
286
0
287
3
288
0
340
11
341
203
342
203
343
203
344
203
0
DIMSTYLE
105
214
100
AcDbSymbolTableRecord
100
AcDbDimStyleTableRecord
2
DIMSTYLE_3
70
0
3

4

40
1.0
41
3.5000000000
42
0.0625
43
0.38
44
0.18
45
0.0
46
0.0
47
0.1000000000
48
0.1000000000
140
3.5000000000
141
0.09
142
0.0
143
25.4
144
1.0000000000
145
0.0
146
1.0000000000
147
0.09
71
0
72
0
73
0
74
0
75
0
76
0
77
1
78
8
170
0
171
2
172
0
173
0
174
0
175
0
176
0
177
0
178
0
270
2
271
3
272
3
273
2
274
2
275
0
280
0
281
0
282
0
283
1
284
8
285
0
286
0
287
3
288
0
340
11
341
203
342
203
343
203
344
203
0
DIMSTYLE
105
215
100
AcDbSymbolTableRecord
100
AcDbDimStyleTableRecord
2
DIMSTYLE_4
70
0
3

4

40
1.0
41
3.5000000000
42
0.0625
43
0.38
44
0.18
45
0.0
46
0.0
47
0.1500000000
48
0.1500000000
140
3.5000000000
141
0.09
142
0.0
143
25.4
144
1.0000000000
145
0.0
146
1.0000000000
147
0.09
71
0
72
0
73
0
74
0
75
0
76
0
77
1
78
8
170
0
171
2
172
0
173
0
174
0
175
0
176
0
177
0
178
0
270
2
271
2
272
2
273
2
274
2
275
0
280
0
281
0
282
0
283
1
284
8
285
0
286
0
287
3
288
0
340
11
341
203
342
203
343
203
344
203
0
ENDTAB
0
ENDSEC
0
SECTION
2
BLOCKS
0
BLOCK
5
20
100
AcDbEntity
8
0
100
AcDbBlockBegin
2
*MODEL_SPACE
70
0
10
0.0
20
0.0
30
0.0
3
*MODEL_SPACE
1

0
ENDBLK
5
21
100
AcDbEntity
8
0
100
AcDbBlockEnd
0
BLOCK
5
1C
100
AcDbEntity
8
0
100
AcDbBlockBegin
2
*PAPER_SPACE
70
0
10
0.0
20
0.0
30
0.0
3
*PAPER_SPACE
1

0
ENDBLK
5
1D
100
AcDbEntity
8
0
100
AcDbBlockEnd
0
BLOCK
5
216
100
AcDbEntity
8
0
100
AcDbBlockBegin
62
2
6
CONTINUOUS
2
*D0
70
65
10
0.0000000000
20
0.0000000000
3
*D0
1

0
TEXT
5
217
100
AcDbEntity
8
0
100
AcDbText
62
2
6
CONTINUOUS
10
91.8598122526
20
199.7816140204
7
STANDARD
40
3.5000000000
1
57
50
90.0000000000
41
0.7143000000
72
0
100
AcDbText
0
LINE
5
218
100
AcDbEntity
8
0
100
AcDbLine
62
2
6
CONTINUOUS
10
110.3006175101
20
228.1988282268
11
91.2348122526
21
228.1988282268
0
LINE
5
219
100
AcDbEntity
8
0
100
AcDbLine
62
2
6
CONTINUOUS
10
110.3006175101
20
171.1988282268
11
91.2348122526
21
171.1988282268
0
LINE
5
21A
100
AcDbEntity
8
0
100
AcDbLine
62
2
6
CONTINUOUS
10
92.7348122526
20
228.1988282268
11
92.7348122526
21
199.6988282268
0
LINE
5
21B
100
AcDbEntity
8
0
100
AcDbLine
62
2
6
CONTINUOUS
10
92.7348122526
20
171.1988282268
11
92.7348122526
21
199.6988282268
0
INSERT
5
21C
100
AcDbEntity
8
0
100
AcDbBlockReference
62
2
6
CONTINUOUS
2
_FILLED
10
92.7348122526
20
228.1988282268
41
  3.500000
42
  3.500000
43
  3.500000
50
 90.000000
0
INSERT
5
21D
100
AcDbEntity
8
0
100
AcDbBlockReference
62
2
6
CONTINUOUS
2
_FILLED
10
92.7348122526
20
171.1988282268
41
  3.500000
42
  3.500000
43
  3.500000
50
270.000000
0
ENDBLK
5
21E
100
AcDbEntity
8
0
6
BYBLOCK
62
0
100
AcDbBlockEnd
0
BLOCK
5
21F
100
AcDbEntity
8
0
100
AcDbBlockBegin
62
2
6
CONTINUOUS
2
*D1
70
65
10
0.0000000000
20
0.0000000000
3
*D1
1

0
TEXT
5
220
100
AcDbEntity
8
0
100
AcDbText
62
2
6
CONTINUOUS
10
91.7903036190
20
144.3589336080
7
STANDARD
40
3.5000000000
1
45
50
90.0000000000
41
0.7143000000
72
0
100
AcDbText
0
LINE
5
221
100
AcDbEntity
8
0
100
AcDbLine
62
2
6
CONTINUOUS
10
110.3006175101
20
171.1988282268
11
91.1653036190
21
171.1988282268
0
LINE
5
222
100
AcDbEntity
8
0
100
AcDbLine
62
2
6
CONTINUOUS
10
102.3006175101
20
126.1988282268
11
91.1653036190
21
126.1988282268
0
LINE
5
223
100
AcDbEntity
8
0
100
AcDbLine
62
2
6
CONTINUOUS
10
92.6653036190
20
171.1988282268
11
92.6653036190
21
148.6988282268
0
LINE
5
224
100
AcDbEntity
8
0
100
AcDbLine
62
2
6
CONTINUOUS
10
92.6653036190
20
126.1988282268
11
92.6653036190
21
148.6988282268
0
INSERT
5
225
100
AcDbEntity
8
0
100
AcDbBlockReference
62
2
6
CONTINUOUS
2
_FILLED
10
92.6653036190
20
171.1988282268
41
  3.500000
42
  3.500000
43
  3.500000
50
 90.000000
0
INSERT
5
226
100
AcDbEntity
8
0
100
AcDbBlockReference
62
2
6
CONTINUOUS
2
_FILLED
10
92.6653036190
20
126.1988282268
41
  3.500000
42
  3.500000
43
  3.500000
50
270.000000
0
ENDBLK
5
227
100
AcDbEntity
8
0
6
BYBLOCK
62
0
100
AcDbBlockEnd
0
BLOCK
5
228
100
AcDbEntity
8
0
100
AcDbBlockBegin
62
2
6
CONTINUOUS
2
*D2
70
65
10
0.0000000000
20
0.0000000000
3
*D2
1

0
TEXT
5
229
100
AcDbEntity
8
0
100
AcDbText
62
2
6
CONTINUOUS
10
145.7961793785
20
287.5625208671
7
STANDARD
40
3.5000000000
1
88
41
0.7143000000
72
0
100
AcDbText
0
LINE
5
22A
100
AcDbEntity
8
0
100
AcDbLine
62
2
6
CONTINUOUS
10
102.8006175101
20
273.6988282268
11
102.8006175101
21
288.1875208671
0
LINE
5
22B
100
AcDbEntity
8
0
100
AcDbLine
62
2
6
CONTINUOUS
10
190.8006175101
20
223.6988282268
11
190.8006175101
21
288.1875208671
0
LINE
5
22C
100
AcDbEntity
8
0
100
AcDbLine
62
2
6
CONTINUOUS
10
102.8006175101
20
286.6875208671
11
146.8006175101
21
286.6875208671
0
LINE
5
22D
100
AcDbEntity
8
0
100
AcDbLine
62
2
6
CONTINUOUS
10
190.8006175101
20
286.6875208671
11
146.8006175101
21
286.6875208671
0
INSERT
5
22E
100
AcDbEntity
8
0
100
AcDbBlockReference
62
2
6
CONTINUOUS
2
_FILLED
10
102.8006175101
20
286.6875208671
41
  3.500000
42
  3.500000
43
  3.500000
50
180.000000
0
INSERT
5
22F
100
AcDbEntity
8
0
100
AcDbBlockReference
62
2
6
CONTINUOUS
2
_FILLED
10
190.8006175101
20
286.6875208671
41
  3.500000
42
  3.500000
43
  3.500000
0
ENDBLK
5
230
100
AcDbEntity
8
0
6
BYBLOCK
62
0
100
AcDbBlockEnd
0
BLOCK
5
231
100
AcDbEntity
8
0
100
AcDbBlockBegin
62
2
6
CONTINUOUS
2
*D3
70
65
10
0.0000000000
20
0.0000000000
3
*D3
1

0
TEXT
5
232
100
AcDbEntity
8
0
100
AcDbText
62
2
6
CONTINUOUS
10
201.3560585932
20
198.4018046610
7
STANDARD
40
3.5000000000
1
63
50
90.0000000000
41
0.7143000000
72
0
100
AcDbText
0
LINE
5
233
100
AcDbEntity
8
0
100
AcDbLine
62
2
6
CONTINUOUS
10
165.3006175101
20
231.1988282268
11
203.7310585932
21
231.1988282268
0
LINE
5
234
100
AcDbEntity
8
0
100
AcDbLine
62
2
6
CONTINUOUS
10
165.3006175101
20
168.1988282268
11
203.7310585932
21
168.1988282268
0
LINE
5
235
100
AcDbEntity
8
0
100
AcDbLine
62
2
6
CONTINUOUS
10
202.2310585932
20
231.1988282268
11
202.2310585932
21
199.6988282268
0
LINE
5
236
100
AcDbEntity
8
0
100
AcDbLine
62
2
6
CONTINUOUS
10
202.2310585932
20
168.1988282268
11
202.2310585932
21
199.6988282268
0
INSERT
5
237
100
AcDbEntity
8
0
100
AcDbBlockReference
62
2
6
CONTINUOUS
2
_FILLED
10
202.2310585932
20
231.1988282268
41
  3.500000
42
  3.500000
43
  3.500000
50
 90.000000
0
INSERT
5
238
100
AcDbEntity
8
0
100
AcDbBlockReference
62
2
6
CONTINUOUS
2
_FILLED
10
202.2310585932
20
168.1988282268
41
  3.500000
42
  3.500000
43
  3.500000
50
270.000000
0
ENDBLK
5
239
100
AcDbEntity
8
0
6
BYBLOCK
62
0
100
AcDbBlockEnd
0
BLOCK
5
23A
100
AcDbEntity
8
0
100
AcDbBlockBegin
62
2
6
CONTINUOUS
2
*D4
70
65
10
0.0000000000
20
0.0000000000
3
*D4
1

0
TEXT
5
23B
100
AcDbEntity
8
0
100
AcDbText
62
2
6
CONTINUOUS
10
201.0268164957
20
50.5879552325
7
STANDARD
40
3.5000000000
1
43
50
90.0000000000
41
0.7143000000
72
0
100
AcDbText
0
LINE
5
23C
100
AcDbEntity
8
0
100
AcDbLine
62
2
6
CONTINUOUS
10
183.3006175101
20
75.1223350254
11
203.4018164957
21
75.1223350254
0
LINE
5
23D
100
AcDbEntity
8
0
100
AcDbLine
62
2
6
CONTINUOUS
10
183.3006175101
20
32.1223350254
11
203.4018164957
21
32.1223350254
0
LINE
5
23E
100
AcDbEntity
8
0
100
AcDbLine
62
2
6
CONTINUOUS
10
201.9018164957
20
75.1223350254
11
201.9018164957
21
53.6223350254
0
LINE
5
23F
100
AcDbEntity
8
0
100
AcDbLine
62
2
6
CONTINUOUS
10
201.9018164957
20
32.1223350254
11
201.9018164957
21
53.6223350254
0
INSERT
5
240
100
AcDbEntity
8
0
100
AcDbBlockReference
62
2
6
CONTINUOUS
2
_FILLED
10
201.9018164957
20
75.1223350254
41
  3.500000
42
  3.500000
43
  3.500000
50
 90.000000
0
INSERT
5
241
100
AcDbEntity
8
0
100
AcDbBlockReference
62
2
6
CONTINUOUS
2
_FILLED
10
201.9018164957
20
32.1223350254
41
  3.500000
42
  3.500000
43
  3.500000
50
270.000000
0
ENDBLK
5
242
100
AcDbEntity
8
0
6
BYBLOCK
62
0
100
AcDbBlockEnd
0
BLOCK
5
243
100
AcDbEntity
8
0
100
AcDbBlockBegin
62
2
6
CONTINUOUS
2
*D5
70
65
10
0.0000000000
20
0.0000000000
3
*D5
1

0
TEXT
5
244
100
AcDbEntity
8
0
100
AcDbText
62
2
6
CONTINUOUS
10
132.7961695717
20
94.0615767262
7
STANDARD
40
3.5000000000
1
53
41
0.7143000000
72
0
100
AcDbText
0
LINE
5
245
100
AcDbEntity
8
0
100
AcDbLine
62
2
6
CONTINUOUS
10
102.8006175101
20
75.1223350254
11
102.8006175101
21
94.6865767262
0
LINE
5
246
100
AcDbEntity
8
0
100
AcDbLine
62
2
6
CONTINUOUS
10
155.8006175101
20
54.1223350254
11
155.8006175101
21
94.6865767262
0
LINE
5
247
100
AcDbEntity
8
0
100
AcDbLine
62
2
6
CONTINUOUS
10
102.8006175101
20
93.1865767262
11
129.3006175101
21
93.1865767262
0
LINE
5
248
100
AcDbEntity
8
0
100
AcDbLine
62
2
6
CONTINUOUS
10
155.8006175101
20
93.1865767262
11
129.3006175101
21
93.1865767262
0
INSERT
5
249
100
AcDbEntity
8
0
100
AcDbBlockReference
62
2
6
CONTINUOUS
2
_FILLED
10
102.8006175101
20
93.1865767262
41
  3.500000
42
  3.500000
43
  3.500000
50
180.000000
0
INSERT
5
24A
100
AcDbEntity
8
0
100
AcDbBlockReference
62
2
6
CONTINUOUS
2
_FILLED
10
155.8006175101
20
93.1865767262
41
  3.500000
42
  3.500000
43
  3.500000
0
ENDBLK
5
24B
100
AcDbEntity
8
0
6
BYBLOCK
62
0
100
AcDbBlockEnd
0
BLOCK
5
24C
100
AcDbEntity
8
0
100
AcDbBlockBegin
62
2
6
CONTINUOUS
2
*D6
70
65
10
0.0000000000
20
0.0000000000
3
*D6
1

0
TEXT
5
24D
100
AcDbEntity
8
0
100
AcDbText
62
2
6
CONTINUOUS
10
91.7269015043
20
51.2043203629
7
STANDARD
40
3.5000000000
1
42
50
90.0000000000
41
0.7143000000
72
0
100
AcDbText
0
LINE
5
24E
100
AcDbEntity
8
0
100
AcDbLine
62
2
6
CONTINUOUS
10
110.3006175101
20
74.6223350254
11
91.1019015043
21
74.6223350254
0
LINE
5
24F
100
AcDbEntity
8
0
100
AcDbLine
62
2
6
CONTINUOUS
10
110.3006175101
20
32.6223350254
11
91.1019015043
21
32.6223350254
0
LINE
5
250
100
AcDbEntity
8
0
100
AcDbLine
62
2
6
CONTINUOUS
10
92.6019015043
20
74.6223350254
11
92.6019015043
21
53.6223350254
0
LINE
5
251
100
AcDbEntity
8
0
100
AcDbLine
62
2
6
CONTINUOUS
10
92.6019015043
20
32.6223350254
11
92.6019015043
21
53.6223350254
0
INSERT
5
252
100
AcDbEntity
8
0
100
AcDbBlockReference
62
2
6
CONTINUOUS
2
_FILLED
10
92.6019015043
20
74.6223350254
41
  3.500000
42
  3.500000
43
  3.500000
50
 90.000000
0
INSERT
5
253
100
AcDbEntity
8
0
100
AcDbBlockReference
62
2
6
CONTINUOUS
2
_FILLED
10
92.6019015043
20
32.6223350254
41
  3.500000
42
  3.500000
43
  3.500000
50
270.000000
0
ENDBLK
5
254
100
AcDbEntity
8
0
6
BYBLOCK
62
0
100
AcDbBlockEnd
0
BLOCK
5
255
100
AcDbEntity
8
0
100
AcDbBlockBegin
62
2
6
CONTINUOUS
2
*D7
70
65
10
0.0000000000
20
0.0000000000
3
*D7
1

0
TEXT
5
256
100
AcDbEntity
8
0
100
AcDbText
62
2
6
CONTINUOUS
10
148.8958614221
20
15.1240324557
7
STANDARD
40
3.5000000000
1
%%c
50
81.1138691836
41
1.3333333333
72
0
100
AcDbText
0
TEXT
5
257
100
AcDbEntity
8
0
100
AcDbText
62
2
6
CONTINUOUS
10
149.6167271776
20
19.7346864592
7
STANDARD
40
3.5000000000
1
16.2
50
81.1138691836
41
0.7143000000
72
0
100
AcDbText
0
LINE
5
258
100
AcDbEntity
8
0
100
AcDbLine
62
2
6
CONTINUOUS
10
154.5494005201
20
45.6195570043
11
155.8006175101
21
53.6223350254
0
LINE
5
259
100
AcDbEntity
8
0
100
AcDbLine
62
2
6
CONTINUOUS
10
155.8006175101
20
53.6223350254
11
149.7603590477
21
14.9888701265
0
LINE
5
25A
100
AcDbEntity
8
0
100
AcDbLine
62
2
6
CONTINUOUS
10
157.0518345001
20
61.6251130465
11
155.8006175101
21
53.6223350254
0
LINE
5
25B
100
AcDbEntity
8
0
100
AcDbLine
62
2
6
CONTINUOUS
10
155.8006175101
20
53.6223350254
11
158.2876043665
21
69.5290913376
0
INSERT
5
25C
100
AcDbEntity
8
0
100
AcDbBlockReference
62
2
6
CONTINUOUS
2
_FILLED
10
154.5494005202
20
45.6195570050
41
  3.500000
42
  3.500000
43
  3.500000
50
 81.114288
0
INSERT
5
25D
100
AcDbEntity
8
0
100
AcDbBlockReference
62
2
6
CONTINUOUS
2
_FILLED
10
157.0518345000
20
61.6251130458
41
  3.500000
42
  3.500000
43
  3.500000
50
261.114377
0
ENDBLK
5
25E
100
AcDbEntity
8
0
6
BYBLOCK
62
0
100
AcDbBlockEnd
0
BLOCK
5
25F
100
AcDbEntity
8
0
100
AcDbBlockBegin
62
2
6
CONTINUOUS
2
*D8
70
65
10
0.0000000000
20
0.0000000000
3
*D8
1

0
TEXT
5
260
100
AcDbEntity
8
0
100
AcDbText
62
2
6
CONTINUOUS
10
64.5876288660
20
284.1378865979
7
STANDARD
40
3.5000000000
1
11
41
0.7143000000
72
0
100
AcDbText
0
LINE
5
261
100
AcDbEntity
8
0
100
AcDbLine
62
2
6
CONTINUOUS
10
40.7525773196
20
263.1988282268
11
40.7525773196
21
284.7628865979
0
LINE
5
262
100
AcDbEntity
8
0
100
AcDbLine
62
2
6
CONTINUOUS
10
51.7525773196
20
263.1988282268
11
51.7525773196
21
284.7628865979
0
LINE
5
263
100
AcDbEntity
8
0
100
AcDbLine
62
2
6
CONTINUOUS
10
40.7525773196
20
283.2628865979
11
46.2525773196
21
283.2628865979
0
LINE
5
264
100
AcDbEntity
8
0
100
AcDbLine
62
2
6
CONTINUOUS
10
51.7525773196
20
283.2628865979
11
46.2525773196
21
283.2628865979
0
LINE
5
265
100
AcDbEntity
8
0
100
AcDbLine
62
2
6
CONTINUOUS
10
46.2525773196
20
283.2628865979
11
69.5877288660
21
283.2628865979
0
INSERT
5
266
100
AcDbEntity
8
0
100
AcDbBlockReference
62
2
6
CONTINUOUS
2
_FILLED
10
40.7525773196
20
283.2628865979
41
  3.500000
42
  3.500000
43
  3.500000
50
180.000000
0
INSERT
5
267
100
AcDbEntity
8
0
100
AcDbBlockReference
62
2
6
CONTINUOUS
2
_FILLED
10
51.7525773196
20
283.2628865979
41
  3.500000
42
  3.500000
43
  3.500000
0
ENDBLK
5
268
100
AcDbEntity
8
0
6
BYBLOCK
62
0
100
AcDbBlockEnd
0
BLOCK
5
269
100
AcDbEntity
8
0
100
AcDbBlockBegin
62
2
6
CONTINUOUS
2
*D9
70
65
10
0.0000000000
20
0.0000000000
3
*D9
1

0
TEXT
5
26A
100
AcDbEntity
8
0
100
AcDbText
62
2
6
CONTINUOUS
10
10.2693298969
20
249.9622326916
7
STANDARD
40
3.5000000000
1
20
50
90.0000000000
41
0.7143000000
72
0
100
AcDbText
0
LINE
5
26B
100
AcDbEntity
8
0
100
AcDbLine
62
2
6
CONTINUOUS
10
45.7525773196
20
262.6988282268
11
9.6443298969
21
262.6988282268
0
LINE
5
26C
100
AcDbEntity
8
0
100
AcDbLine
62
2
6
CONTINUOUS
10
45.7525773196
20
242.6988282268
11
9.6443298969
21
242.6988282268
0
LINE
5
26D
100
AcDbEntity
8
0
100
AcDbLine
62
2
6
CONTINUOUS
10
11.1443298969
20
262.6988282268
11
11.1443298969
21
252.6988282268
0
LINE
5
26E
100
AcDbEntity
8
0
100
AcDbLine
62
2
6
CONTINUOUS
10
11.1443298969
20
242.6988282268
11
11.1443298969
21
252.6988282268
0
INSERT
5
26F
100
AcDbEntity
8
0
100
AcDbBlockReference
62
2
6
CONTINUOUS
2
_FILLED
10
11.1443298969
20
262.6988282268
41
  3.500000
42
  3.500000
43
  3.500000
50
 90.000000
0
INSERT
5
270
100
AcDbEntity
8
0
100
AcDbBlockReference
62
2
6
CONTINUOUS
2
_FILLED
10
11.1443298969
20
242.6988282268
41
  3.500000
42
  3.500000
43
  3.500000
50
270.000000
0
ENDBLK
5
271
100
AcDbEntity
8
0
6
BYBLOCK
62
0
100
AcDbBlockEnd
0
BLOCK
5
272
100
AcDbEntity
8
0
100
AcDbBlockBegin
62
2
6
CONTINUOUS
2
*D10
70
65
10
0.0000000000
20
0.0000000000
3
*D10
1

0
TEXT
5
273
100
AcDbEntity
8
0
100
AcDbText
62
2
6
CONTINUOUS
10
10.2693298969
20
199.9380943299
7
STANDARD
40
3.5000000000
1
86
50
90.0000000000
41
0.7143000000
72
0
100
AcDbText
0
LINE
5
274
100
AcDbEntity
8
0
100
AcDbLine
62
2
6
CONTINUOUS
10
45.7525773196
20
242.6988282268
11
9.6443298969
21
242.6988282268
0
LINE
5
275
100
AcDbEntity
8
0
100
AcDbLine
62
2
6
CONTINUOUS
10
45.7525773196
20
156.6988282268
11
9.6443298969
21
156.6988282268
0
LINE
5
276
100
AcDbEntity
8
0
100
AcDbLine
62
2
6
CONTINUOUS
10
11.1443298969
20
242.6988282268
11
11.1443298969
21
199.6988282268
0
LINE
5
277
100
AcDbEntity
8
0
100
AcDbLine
62
2
6
CONTINUOUS
10
11.1443298969
20
156.6988282268
11
11.1443298969
21
199.6988282268
0
INSERT
5
278
100
AcDbEntity
8
0
100
AcDbBlockReference
62
2
6
CONTINUOUS
2
_FILLED
10
11.1443298969
20
242.6988282268
41
  3.500000
42
  3.500000
43
  3.500000
50
 90.000000
0
INSERT
5
279
100
AcDbEntity
8
0
100
AcDbBlockReference
62
2
6
CONTINUOUS
2
_FILLED
10
11.1443298969
20
156.6988282268
41
  3.500000
42
  3.500000
43
  3.500000
50
270.000000
0
ENDBLK
5
27A
100
AcDbEntity
8
0
6
BYBLOCK
62
0
100
AcDbBlockEnd
0
BLOCK
5
27B
100
AcDbEntity
8
0
100
AcDbBlockBegin
62
2
6
CONTINUOUS
2
*D11
70
65
10
0.0000000000
20
0.0000000000
3
*D11
1

0
TEXT
5
27C
100
AcDbEntity
8
0
100
AcDbText
62
2
6
CONTINUOUS
10
10.2693298969
20
143.8971878692
7
STANDARD
40
3.5000000000
1
20
50
90.0000000000
41
0.7143000000
72
0
100
AcDbText
0
LINE
5
27D
100
AcDbEntity
8
0
100
AcDbLine
62
2
6
CONTINUOUS
10
45.7525773196
20
156.6988282268
11
9.6443298969
21
156.6988282268
0
LINE
5
27E
100
AcDbEntity
8
0
100
AcDbLine
62
2
6
CONTINUOUS
10
45.7525773196
20
136.6988282268
11
9.6443298969
21
136.6988282268
0
LINE
5
27F
100
AcDbEntity
8
0
100
AcDbLine
62
2
6
CONTINUOUS
10
11.1443298969
20
156.6988282268
11
11.1443298969
21
146.6988282268
0
LINE
5
280
100
AcDbEntity
8
0
100
AcDbLine
62
2
6
CONTINUOUS
10
11.1443298969
20
136.6988282268
11
11.1443298969
21
146.6988282268
0
INSERT
5
281
100
AcDbEntity
8
0
100
AcDbBlockReference
62
2
6
CONTINUOUS
2
_FILLED
10
11.1443298969
20
156.6988282268
41
  3.500000
42
  3.500000
43
  3.500000
50
 90.000000
0
INSERT
5
282
100
AcDbEntity
8
0
100
AcDbBlockReference
62
2
6
CONTINUOUS
2
_FILLED
10
11.1443298969
20
136.6988282268
41
  3.500000
42
  3.500000
43
  3.500000
50
270.000000
0
ENDBLK
5
283
100
AcDbEntity
8
0
6
BYBLOCK
62
0
100
AcDbBlockEnd
0
BLOCK
5
284
100
AcDbEntity
8
0
100
AcDbBlockBegin
62
2
6
CONTINUOUS
2
*D12
70
65
10
0.0000000000
20
0.0000000000
3
*D12
1

0
TEXT
5
285
100
AcDbEntity
8
0
100
AcDbText
62
2
6
CONTINUOUS
10
91.6997408904
20
250.5024664662
7
STANDARD
40
3.5000000000
1
45
50
90.0000000000
41
0.7143000000
72
0
100
AcDbText
0
LINE
5
286
100
AcDbEntity
8
0
100
AcDbLine
62
2
6
CONTINUOUS
10
110.3006175101
20
228.1988282268
11
91.0747408904
21
228.1988282268
0
LINE
5
287
100
AcDbEntity
8
0
100
AcDbLine
62
2
6
CONTINUOUS
10
102.3006175101
20
273.1988282268
11
91.0747408904
21
273.1988282268
0
LINE
5
288
100
AcDbEntity
8
0
100
AcDbLine
62
2
6
CONTINUOUS
10
92.5747408904
20
228.1988282268
11
92.5747408904
21
250.6988282268
0
LINE
5
289
100
AcDbEntity
8
0
100
AcDbLine
62
2
6
CONTINUOUS
10
92.5747408904
20
273.1988282268
11
92.5747408904
21
250.6988282268
0
INSERT
5
28A
100
AcDbEntity
8
0
100
AcDbBlockReference
62
2
6
CONTINUOUS
2
_FILLED
10
92.5747408904
20
228.1988282268
41
  3.500000
42
  3.500000
43
  3.500000
50
270.000000
0
INSERT
5
28B
100
AcDbEntity
8
0
100
AcDbBlockReference
62
2
6
CONTINUOUS
2
_FILLED
10
92.5747408904
20
273.1988282268
41
  3.500000
42
  3.500000
43
  3.500000
50
 90.000000
0
ENDBLK
5
28C
100
AcDbEntity
8
0
6
BYBLOCK
62
0
100
AcDbBlockEnd
0
BLOCK
5
28D
100
AcDbEntity
8
0
100
AcDbBlockBegin
2
_FILLED
70
64
10
0.0000000000
20
0.0000000000
3
_FILLED
1

0
SOLID
5
28E
100
AcDbEntity
8
0
6
BYBLOCK
62
0
100
AcDbTrace
10
0.0000000000
20
0.0000000000
11
-1.0000000000
21
0.1857142857
12
-1.0000000000
22
-0.1857142857
13
-1.0000000000
23
-0.1857142857
0
ENDBLK
5
28F
100
AcDbEntity
8
0
6
BYBLOCK
62
0
100
AcDbBlockEnd
0
ENDSEC
0
SECTION
2
ENTITIES
0
DIMENSION
5
290
100
AcDbEntity
8
0
100
AcDbDimension
62
2
6
CONTINUOUS
2
*D0
10
92.7348122526
20
171.1988282268
11
90.1098122526
21
202.2816640204
70
160
42
57.000000
3
DIMSTYLE_1
100
AcDbAlignedDimension
13
110.3006175101
23
228.1988282268
14
110.3006175101
24
171.1988282268
50
270.000000
100
AcDbRotatedDimension
0
DIMENSION
5
291
100
AcDbEntity
8
0
100
AcDbDimension
62
2
6
CONTINUOUS
2
*D1
10
92.6653036190
20
126.1988282268
11
90.0403036190
21
146.8589836080
70
160
42
45.000000
3
DIMSTYLE_1
100
AcDbAlignedDimension
13
110.3006175101
23
171.1988282268
14
102.3006175101
24
126.1988282268
50
270.000000
100
AcDbRotatedDimension
0
DIMENSION
5
292
100
AcDbEntity
8
0
100
AcDbDimension
62
2
6
CONTINUOUS
2
*D2
10
190.8006175101
20
286.6875208671
11
148.2962293785
21
289.3125208671
70
160
42
88.000000
3
DIMSTYLE_1
100
AcDbAlignedDimension
13
102.8006175101
23
273.6988282268
14
190.8006175101
24
223.6988282268
100
AcDbRotatedDimension
0
DIMENSION
5
293
100
AcDbEntity
8
0
100
AcDbDimension
62
2
6
CONTINUOUS
2
*D3
10
202.2310585932
20
168.1988282268
11
199.6060585932
21
200.9018546610
70
160
42
63.000000
3
DIMSTYLE_1
100
AcDbAlignedDimension
13
165.3006175101
23
231.1988282268
14
165.3006175101
24
168.1988282268
50
270.000000
100
AcDbRotatedDimension
0
DIMENSION
5
294
100
AcDbEntity
8
0
100
AcDbDimension
62
2
6
CONTINUOUS
2
*D4
10
201.9018164957
20
32.1223350254
11
199.2768164957
21
53.0880052325
70
160
42
43.000000
3
DIMSTYLE_1
100
AcDbAlignedDimension
13
183.3006175101
23
75.1223350254
14
183.3006175101
24
32.1223350254
50
270.000000
100
AcDbRotatedDimension
0
DIMENSION
5
295
100
AcDbEntity
8
0
100
AcDbDimension
62
2
6
CONTINUOUS
2
*D5
10
155.8006175101
20
93.1865767262
11
135.2962195717
21
95.8115767262
70
160
42
53.000000
3
DIMSTYLE_1
100
AcDbAlignedDimension
13
102.8006175101
23
75.1223350254
14
155.8006175101
24
54.1223350254
100
AcDbRotatedDimension
0
DIMENSION
5
296
100
AcDbEntity
8
0
100
AcDbDimension
62
2
6
CONTINUOUS
2
*D6
10
92.6019015043
20
32.6223350254
11
89.9769015043
21
53.7043703629
70
160
42
42.000000
3
DIMSTYLE_1
100
AcDbAlignedDimension
13
110.3006175101
23
74.6223350254
14
110.3006175101
24
32.6223350254
50
270.000000
100
AcDbRotatedDimension
0
DIMENSION
5
297
100
AcDbEntity
8
0
100
AcDbDimension
62
2
6
CONTINUOUS
2
*D7
10
154.5494005202
20
45.6195570050
11
148.2996706622
21
22.6397693478
70
163
42
16.200000
1
<>
3
DIMSTYLE_2
100
AcDbDiametricDimension
15
157.0518345000
25
61.6251130458
0
DIMENSION
5
298
100
AcDbEntity
8
0
100
AcDbDimension
62
2
6
CONTINUOUS
2
*D8
10
51.7525773196
20
283.2628865979
11
67.0876788660
21
285.8878865979
70
160
42
11.000000
3
DIMSTYLE_3
100
AcDbAlignedDimension
13
40.7525773196
23
263.1988282268
14
51.7525773196
24
263.1988282268
100
AcDbRotatedDimension
0
DIMENSION
5
299
100
AcDbEntity
8
0
100
AcDbDimension
62
2
6
CONTINUOUS
2
*D9
10
11.1443298969
20
242.6988282268
11
8.5193298969
21
252.4622826916
70
160
42
20.000000
3
DIMSTYLE_3
100
AcDbAlignedDimension
13
45.7525773196
23
262.6988282268
14
45.7525773196
24
242.6988282268
50
270.000000
100
AcDbRotatedDimension
0
DIMENSION
5
29A
100
AcDbEntity
8
0
100
AcDbDimension
62
2
6
CONTINUOUS
2
*D10
10
11.1443298969
20
156.6988282268
11
8.5193298969
21
202.4381443299
70
160
42
86.000000
3
DIMSTYLE_1
100
AcDbAlignedDimension
13
45.7525773196
23
242.6988282268
14
45.7525773196
24
156.6988282268
50
270.000000
100
AcDbRotatedDimension
0
DIMENSION
5
29B
100
AcDbEntity
8
0
100
AcDbDimension
62
2
6
CONTINUOUS
2
*D11
10
11.1443298969
20
136.6988282268
11
8.5193298969
21
146.3972378692
70
160
42
20.000000
3
DIMSTYLE_3
100
AcDbAlignedDimension
13
45.7525773196
23
156.6988282268
14
45.7525773196
24
136.6988282268
50
270.000000
100
AcDbRotatedDimension
0
DIMENSION
5
29C
100
AcDbEntity
8
0
100
AcDbDimension
62
2
6
CONTINUOUS
2
*D12
10
92.5747408904
20
273.1988282268
11
89.9497408904
21
253.0025164662
70
160
42
45.000000
3
DIMSTYLE_4
100
AcDbAlignedDimension
13
110.3006175101
23
228.1988282268
14
102.3006175101
24
273.1988282268
50
90.000000
100
AcDbRotatedDimension
0
LINE
5
29D
100
AcDbEntity
8
0
100
AcDbLine
62
7
6
CONTINUOUS
10
0.0000000000
20
0.0000000000
11
210.0000000000
21
0.0000000000
0
LINE
5
29E
100
AcDbEntity
8
0
100
AcDbLine
62
7
6
CONTINUOUS
10
0.0000000000
20
0.0000000000
11
0.0000000000
21
297.0000000000
0
LINE
5
29F
100
AcDbEntity
8
0
100
AcDbLine
62
7
6
CONTINUOUS
10
210.0000000000
20
0.0000000000
11
210.0000000000
21
297.0000000000
0
LINE
5
2A0
100
AcDbEntity
8
0
100
AcDbLine
62
7
6
CONTINUOUS
10
0.0000000000
20
297.0000000000
11
210.0000000000
21
297.0000000000
0
LINE
5
2A1
100
AcDbEntity
8
0
100
AcDbLine
62
7
6
CONTINUOUS
10
105.8006175101
20
126.1988282268
11
102.8006175101
21
126.1988282268
0
LINE
5
2A2
100
AcDbEntity
8
0
100
AcDbLine
62
7
6
CONTINUOUS
10
105.8006175101
20
147.1988282268
11
102.8006175101
21
147.1988282268
0
LINE
5
2A3
100
AcDbEntity
8
0
100
AcDbLine
62
7
6
CONTINUOUS
10
102.8006175101
20
126.1988488795
11
102.8006175101
21
163.1988282268
0
LINE
5
2A4
100
AcDbEntity
8
0
100
AcDbLine
62
7
6
CONTINUOUS
10
102.8006175101
20
236.1988282268
11
102.8006175101
21
273.1988046812
0
LINE
5
2A5
100
AcDbEntity
8
0
100
AcDbLine
62
7
6
CONTINUOUS
10
105.8006175101
20
126.1988517695
11
105.8006175101
21
163.1988282268
0
LINE
5
2A6
100
AcDbEntity
8
0
100
AcDbLine
62
7
6
CONTINUOUS
10
105.8006175101
20
236.1988282268
11
105.8006175101
21
273.1988075709
0
LINE
5
2A7
100
AcDbEntity
8
0
100
AcDbLine
62
7
6
CONTINUOUS
10
110.8006175101
20
168.1988282268
11
182.8006175101
21
168.1988282268
0
LINE
5
2A8
100
AcDbEntity
8
0
100
AcDbLine
62
7
6
CONTINUOUS
10
164.8006175101
20
171.1988282268
11
110.8006175101
21
171.1988282268
0
LINE
5
2A9
100
AcDbEntity
8
0
100
AcDbLine
62
7
6
CONTINUOUS
10
180.7080947982
20
191.1988282268
11
170.8931402220
21
191.1988282268
0
LINE
5
2AA
100
AcDbEntity
8
0
100
AcDbLine
62
7
6
CONTINUOUS
10
170.8931402220
20
208.1988282268
11
180.7080947982
21
208.1988282268
0
LINE
5
2AB
100
AcDbEntity
8
0
100
AcDbLine
62
7
6
CONTINUOUS
10
165.9856629339
20
199.6988282268
11
170.8931402220
21
208.1988282268
0
LINE
5
2AC
100
AcDbEntity
8
0
100
AcDbLine
62
7
6
CONTINUOUS
10
170.8931402220
20
191.1988282268
11
165.9856629339
21
199.6988282268
0
LINE
5
2AD
100
AcDbEntity
8
0
100
AcDbLine
62
7
6
CONTINUOUS
10
164.8006175101
20
231.1988282268
11
164.8006175101
21
168.1988282268
0
LINE
5
2AE
100
AcDbEntity
8
0
100
AcDbLine
62
7
6
CONTINUOUS
10
110.8006175101
20
228.1988282268
11
164.8006175101
21
228.1988282268
0
LINE
5
2AF
100
AcDbEntity
8
0
100
AcDbLine
62
7
6
CONTINUOUS
10
185.6155720863
20
199.6988282268
11
180.7080947982
21
191.1988282268
0
LINE
5
2B0
100
AcDbEntity
8
0
100
AcDbLine
62
7
6
CONTINUOUS
10
182.8006175101
20
231.1988282268
11
110.8006175101
21
231.1988282268
0
LINE
5
2B1
100
AcDbEntity
8
0
100
AcDbLine
62
7
6
CONTINUOUS
10
180.7080947982
20
208.1988282268
11
185.6155720863
21
199.6988282268
0
LINE
5
2B2
100
AcDbEntity
8
0
100
AcDbLine
62
7
6
CONTINUOUS
10
190.8006175101
20
176.1988282268
11
190.8006175101
21
223.1988282268
0
LINE
5
2B3
100
AcDbEntity
8
0
100
AcDbLine
62
7
6
CONTINUOUS
10
102.8006175101
20
252.1988282268
11
105.8006175101
21
252.1988282268
0
LINE
5
2B4
100
AcDbEntity
8
0
100
AcDbLine
62
7
6
CONTINUOUS
10
102.8006175101
20
273.1988282268
11
105.8006175101
21
273.1988282268
0
LINE
5
2B5
100
AcDbEntity
8
0
100
AcDbLine
62
7
6
CONTINUOUS
10
102.8006175101
20
32.6223350254
11
102.8006175101
21
74.6223350254
0
LINE
5
2B6
100
AcDbEntity
8
0
100
AcDbLine
62
7
6
CONTINUOUS
10
105.8006175101
20
74.6223350254
11
105.8006175101
21
32.6223350254
0
LINE
5
2B7
100
AcDbEntity
8
0
100
AcDbLine
62
7
6
CONTINUOUS
10
110.8006175101
20
74.6223350254
11
110.8006175101
21
32.6223350254
0
LINE
5
2B8
100
AcDbEntity
8
0
100
AcDbLine
62
7
6
CONTINUOUS
10
168.8456532834
20
25.1223350254
11
182.7555817367
21
25.1223350254
0
LINE
5
2B9
100
AcDbEntity
8
0
100
AcDbLine
62
7
6
CONTINUOUS
10
190.8006175101
20
32.1223350254
11
164.8006175101
21
32.1223350254
0
LINE
5
2BA
100
AcDbEntity
8
0
100
AcDbLine
62
7
6
CONTINUOUS
10
102.8006175101
20
32.6223350254
11
164.8006175101
21
32.6223350254
0
LINE
5
2BB
100
AcDbEntity
8
0
100
AcDbLine
62
7
6
CONTINUOUS
10
190.8006175101
20
49.1223350254
11
162.5356008063
21
49.1223350254
0
LINE
5
2BC
100
AcDbEntity
8
0
100
AcDbLine
62
7
6
CONTINUOUS
10
140.8006175101
20
49.1223350254
11
149.0656342139
21
49.1223350254
0
LINE
5
2BD
100
AcDbEntity
8
0
100
AcDbLine
62
7
6
CONTINUOUS
10
140.8006175101
20
58.1223350254
11
140.8006175101
21
49.1223350254
0
LINE
5
2BE
100
AcDbEntity
8
0
100
AcDbLine
62
7
6
CONTINUOUS
10
171.8006382794
20
87.1223142582
11
170.8006434717
21
86.1223090664
0
LINE
5
2BF
100
AcDbEntity
8
0
100
AcDbLine
62
7
6
CONTINUOUS
10
190.8006175101
20
58.1223350254
11
162.5356008063
21
58.1223350254
0
LINE
5
2C0
100
AcDbEntity
8
0
100
AcDbLine
62
7
6
CONTINUOUS
10
149.0656342139
20
58.1223350254
11
140.8006175101
21
58.1223350254
0
LINE
5
2C1
100
AcDbEntity
8
0
100
AcDbLine
62
7
6
CONTINUOUS
10
164.8006175101
20
32.6223350254
11
164.8006175101
21
32.1223350254
0
LINE
5
2C2
100
AcDbEntity
8
0
100
AcDbLine
62
7
6
CONTINUOUS
10
164.8006175101
20
74.6223350254
11
164.8006175101
21
75.1223350254
0
LINE
5
2C3
100
AcDbEntity
8
0
100
AcDbLine
62
7
6
CONTINUOUS
10
165.9856629339
20
82.2518493010
11
165.9856629339
21
75.9928207498
0
LINE
5
2C4
100
AcDbEntity
8
0
100
AcDbLine
62
7
6
CONTINUOUS
10
165.9856629339
20
26.0210601991
11
165.9856629339
21
32.1223350254
0
LINE
5
2C5
100
AcDbEntity
8
0
100
AcDbLine
62
7
6
CONTINUOUS
10
102.8006175101
20
74.6223350254
11
164.8006175101
21
74.6223350254
0
LINE
5
2C6
100
AcDbEntity
8
0
100
AcDbLine
62
7
6
CONTINUOUS
10
164.8006175101
20
75.1223350254
11
190.8006175101
21
75.1223350254
0
LINE
5
2C7
100
AcDbEntity
8
0
100
AcDbLine
62
7
6
CONTINUOUS
10
170.8006175101
20
49.1223350254
11
170.8006175101
21
58.1223350254
0
LINE
5
2C8
100
AcDbEntity
8
0
100
AcDbLine
62
7
6
CONTINUOUS
10
170.8006175101
20
83.1223350254
11
170.8006175101
21
86.1223350254
0
LINE
5
2C9
100
AcDbEntity
8
0
100
AcDbLine
62
7
6
CONTINUOUS
10
170.8931402220
20
82.2518493010
11
170.8931402220
21
75.9928207498
0
LINE
5
2CA
100
AcDbEntity
8
0
100
AcDbLine
62
7
6
CONTINUOUS
10
170.8931402220
20
26.0210601991
11
170.8931402220
21
32.1223350254
0
LINE
5
2CB
100
AcDbEntity
8
0
100
AcDbLine
62
2
6
CONTINUOUS
10
171.6306175101
20
87.1223350254
11
171.6306175101
21
83.1223350254
0
LINE
5
2CC
100
AcDbEntity
8
0
100
AcDbLine
62
2
6
CONTINUOUS
10
171.6306175101
20
58.1223350254
11
171.6306175101
21
49.1223350254
0
LINE
5
2CD
100
AcDbEntity
8
0
100
AcDbLine
62
7
6
CONTINUOUS
10
182.7965098579
20
83.1223350254
11
168.8047251622
21
83.1223350254
0
LINE
5
2CE
100
AcDbEntity
8
0
100
AcDbLine
62
7
6
CONTINUOUS
10
170.8006175101
20
86.1223350254
11
180.8006175101
21
86.1223350254
0
LINE
5
2CF
100
AcDbEntity
8
0
100
AcDbLine
62
7
6
CONTINUOUS
10
179.9706175101
20
87.1223350254
11
171.6306175101
21
87.1223350254
0
LINE
5
2D0
100
AcDbEntity
8
0
100
AcDbLine
62
2
6
CONTINUOUS
10
179.9706175101
20
87.1223350254
11
179.9706175101
21
83.1223350254
0
LINE
5
2D1
100
AcDbEntity
8
0
100
AcDbLine
62
2
6
CONTINUOUS
10
179.9706175101
20
58.1223350254
11
179.9706175101
21
49.1223350254
0
LINE
5
2D2
100
AcDbEntity
8
0
100
AcDbLine
62
7
6
CONTINUOUS
10
180.7080947982
20
82.2518493010
11
180.7080947982
21
75.9928207498
0
LINE
5
2D3
100
AcDbEntity
8
0
100
AcDbLine
62
7
6
CONTINUOUS
10
180.7080947982
20
26.0210601991
11
180.7080947982
21
32.1223350254
0
LINE
5
2D4
100
AcDbEntity
8
0
100
AcDbLine
62
7
6
CONTINUOUS
10
180.8006175101
20
49.1223350254
11
180.8006175101
21
58.1223350254
0
LINE
5
2D5
100
AcDbEntity
8
0
100
AcDbLine
62
7
6
CONTINUOUS
10
180.8006175101
20
83.1223350254
11
180.8006175101
21
86.1223350254
0
LINE
5
2D6
100
AcDbEntity
8
0
100
AcDbLine
62
7
6
CONTINUOUS
10
182.8006175101
20
75.1223350254
11
182.8006175101
21
58.1223350254
0
LINE
5
2D7
100
AcDbEntity
8
0
100
AcDbLine
62
7
6
CONTINUOUS
10
182.8006175101
20
49.1223350254
11
182.8006175101
21
32.1223350254
0
LINE
5
2D8
100
AcDbEntity
8
0
100
AcDbLine
62
7
6
CONTINUOUS
10
185.6155720863
20
82.2518493010
11
185.6155720863
21
75.9928207498
0
LINE
5
2D9
100
AcDbEntity
8
0
100
AcDbLine
62
7
6
CONTINUOUS
10
185.6155720863
20
26.0210601991
11
185.6155720863
21
32.1223350254
0
LINE
5
2DA
100
AcDbEntity
8
0
100
AcDbLine
62
7
6
CONTINUOUS
10
190.8006175101
20
75.1223350254
11
190.8006175101
21
58.1223350254
0
LINE
5
2DB
100
AcDbEntity
8
0
100
AcDbLine
62
7
6
CONTINUOUS
10
190.8006175101
20
49.1223350254
11
190.8006175101
21
32.1223350254
0
LINE
5
2DC
100
AcDbEntity
8
0
100
AcDbLine
62
7
6
CONTINUOUS
10
179.8005967402
20
87.1223142587
11
180.8005915477
21
86.1223090671
0
LINE
5
2DD
100
AcDbEntity
8
0
100
AcDbLine
62
7
6
CONTINUOUS
10
67.2525773196
20
163.1988282268
11
25.2525773196
21
163.1988282268
0
LINE
5
2DE
100
AcDbEntity
8
0
100
AcDbLine
62
7
6
CONTINUOUS
10
67.7525773196
20
168.1988282268
11
24.7525773196
21
168.1988282268
0
LINE
5
2DF
100
AcDbEntity
8
0
100
AcDbLine
62
7
6
CONTINUOUS
10
17.7525773196
20
206.6536028815
11
17.7525773196
21
192.7440535720
0
LINE
5
2E0
100
AcDbEntity
8
0
100
AcDbLine
62
7
6
CONTINUOUS
10
50.7525773196
20
171.1988282268
11
41.7525773196
21
171.1988282268
0
LINE
5
2E1
100
AcDbEntity
8
0
100
AcDbLine
62
7
6
CONTINUOUS
10
24.7525773196
20
168.1988282268
11
24.7525773196
21
231.1988282268
0
LINE
5
2E2
100
AcDbEntity
8
0
100
AcDbLine
62
7
6
CONTINUOUS
10
25.2525773196
20
147.1988282268
11
25.2525773196
21
168.1988282268
0
LINE
5
2E3
100
AcDbEntity
8
0
100
AcDbLine
62
7
6
CONTINUOUS
10
25.2525773196
20
231.1988282268
11
25.2525773196
21
252.1988282268
0
LINE
5
2E4
100
AcDbEntity
8
0
100
AcDbLine
62
7
6
CONTINUOUS
10
41.7525773196
20
176.1988282268
11
24.7525773196
21
176.1988282268
0
LINE
5
2E5
100
AcDbEntity
8
0
100
AcDbLine
62
7
6
CONTINUOUS
10
50.7525773196
20
176.1988282268
11
67.7525773196
21
176.1988282268
0
LINE
5
2E6
100
AcDbEntity
8
0
100
AcDbLine
62
7
6
CONTINUOUS
10
40.7525773196
20
262.6988282268
11
40.7525773196
21
242.6988282268
0
LINE
5
2E7
100
AcDbEntity
8
0
100
AcDbLine
62
7
6
CONTINUOUS
10
40.7525773196
20
136.6988282268
11
40.7525773196
21
156.6988282268
0
LINE
5
2E8
100
AcDbEntity
8
0
100
AcDbLine
62
7
6
CONTINUOUS
10
41.7525773196
20
168.1988282268
11
41.7525773196
21
231.1988282268
0
LINE
5
2E9
100
AcDbEntity
8
0
100
AcDbLine
62
7
6
CONTINUOUS
10
75.5209796738
20
191.1988282268
11
67.9841749557
21
191.1988282268
0
LINE
5
2EA
100
AcDbEntity
8
0
100
AcDbLine
62
7
6
CONTINUOUS
10
17.9972787536
20
191.1988282268
11
24.7525773196
21
191.1988282268
0
LINE
5
2EB
100
AcDbEntity
8
0
100
AcDbLine
62
7
6
CONTINUOUS
10
41.7525773196
20
194.6988282268
11
50.7525773196
21
194.6988282268
0
LINE
5
2EC
100
AcDbEntity
8
0
100
AcDbLine
62
7
6
CONTINUOUS
10
75.7525773196
20
194.6988282268
11
78.7525771635
21
194.6988282268
0
LINE
5
2ED
100
AcDbEntity
8
0
100
AcDbLine
62
2
6
CONTINUOUS
10
79.7525773196
20
195.5288282268
11
75.7525773196
21
195.5288282268
0
LINE
5
2EE
100
AcDbEntity
8
0
100
AcDbLine
62
2
6
CONTINUOUS
10
50.7525773196
20
195.5288282268
11
41.7525773196
21
195.5288282268
0
LINE
5
2EF
100
AcDbEntity
8
0
100
AcDbLine
62
7
6
CONTINUOUS
10
74.8820915952
20
199.6988282268
11
68.6230630440
21
199.6988282268
0
LINE
5
2F0
100
AcDbEntity
8
0
100
AcDbLine
62
7
6
CONTINUOUS
10
18.6513024933
20
199.6988282268
11
24.7525773196
21
199.6988282268
0
LINE
5
2F1
100
AcDbEntity
8
0
100
AcDbLine
62
7
6
CONTINUOUS
10
50.7525773196
20
168.1988282268
11
50.7525773196
21
231.1988282268
0
LINE
5
2F2
100
AcDbEntity
8
0
100
AcDbLine
62
7
6
CONTINUOUS
10
51.7525773196
20
156.6988282268
11
51.7525773196
21
136.6988282268
0
LINE
5
2F3
100
AcDbEntity
8
0
100
AcDbLine
62
7
6
CONTINUOUS
10
51.7525773196
20
242.6988282268
11
51.7525773196
21
262.6988282268
0
LINE
5
2F4
100
AcDbEntity
8
0
100
AcDbLine
62
2
6
CONTINUOUS
10
79.7525773196
20
203.8688282268
11
75.7525773196
21
203.8688282268
0
LINE
5
2F5
100
AcDbEntity
8
0
100
AcDbLine
62
2
6
CONTINUOUS
10
50.7525773196
20
203.8688282268
11
41.7525773196
21
203.8688282268
0
LINE
5
2F6
100
AcDbEntity
8
0
100
AcDbLine
62
7
6
CONTINUOUS
10
41.7525773196
20
204.6988282268
11
50.7525773196
21
204.6988282268
0
LINE
5
2F7
100
AcDbEntity
8
0
100
AcDbLine
62
7
6
CONTINUOUS
10
75.7525773196
20
204.6988282268
11
78.7525771635
21
204.6988282268
0
LINE
5
2F8
100
AcDbEntity
8
0
100
AcDbLine
62
7
6
CONTINUOUS
10
17.9972787536
20
208.1988282268
11
24.7525773196
21
208.1988282268
0
LINE
5
2F9
100
AcDbEntity
8
0
100
AcDbLine
62
7
6
CONTINUOUS
10
67.9841749557
20
208.1988282268
11
75.5209796738
21
208.1988282268
0
LINE
5
2FA
100
AcDbEntity
8
0
100
AcDbLine
62
7
6
CONTINUOUS
10
67.2525773196
20
147.1988282268
11
67.2525773196
21
168.1988282268
0
LINE
5
2FB
100
AcDbEntity
8
0
100
AcDbLine
62
7
6
CONTINUOUS
10
67.2525773196
20
231.1988282268
11
67.2525773196
21
252.1988282268
0
LINE
5
2FC
100
AcDbEntity
8
0
100
AcDbLine
62
7
6
CONTINUOUS
10
67.7525773196
20
231.1988282268
11
67.7525773196
21
168.1988282268
0
LINE
5
2FD
100
AcDbEntity
8
0
100
AcDbLine
62
7
6
CONTINUOUS
10
75.7525773196
20
192.7029358789
11
75.7525773196
21
206.6947205746
0
LINE
5
2FE
100
AcDbEntity
8
0
100
AcDbLine
62
7
6
CONTINUOUS
10
79.7525566131
20
195.6988490568
11
78.7525512814
21
194.6988541092
0
LINE
5
2FF
100
AcDbEntity
8
0
100
AcDbLine
62
7
6
CONTINUOUS
10
24.7525773196
20
223.1988282268
11
41.7525773196
21
223.1988282268
0
LINE
5
300
100
AcDbEntity
8
0
100
AcDbLine
62
7
6
CONTINUOUS
10
50.7525773196
20
223.1988282268
11
67.7525773196
21
223.1988282268
0
LINE
5
301
100
AcDbEntity
8
0
100
AcDbLine
62
7
6
CONTINUOUS
10
79.7525566131
20
203.6988073967
11
78.7525512814
21
204.6988023443
0
LINE
5
302
100
AcDbEntity
8
0
100
AcDbLine
62
7
6
CONTINUOUS
10
78.7525771635
20
204.6988282268
11
78.7525771635
21
194.6988282268
0
LINE
5
303
100
AcDbEntity
8
0
100
AcDbLine
62
7
6
CONTINUOUS
10
79.7525773196
20
195.5288282268
11
79.7525773196
21
203.8688282268
0
LINE
5
304
100
AcDbEntity
8
0
100
AcDbLine
62
7
6
CONTINUOUS
10
50.7525773196
20
228.1988282268
11
41.7525773196
21
228.1988282268
0
LINE
5
305
100
AcDbEntity
8
0
100
AcDbLine
62
7
6
CONTINUOUS
10
67.7525773196
20
231.1988282268
11
24.7525773196
21
231.1988282268
0
LINE
5
306
100
AcDbEntity
8
0
100
AcDbLine
62
7
6
CONTINUOUS
10
67.2525773196
20
236.1988282268
11
25.2525773196
21
236.1988282268
0
CIRCLE
5
307
100
AcDbEntity
8
0
100
AcDbCircle
62
7
6
CONTINUOUS
10
175.8006175101
20
199.6988282268
40
6.9549642267
0
ARC
5
308
100
AcDbEntity
8
0
100
AcDbCircle
62
7
6
CONTINUOUS
10
110.8006175101
20
236.1988282268
40
8.0000000000
100
AcDbArc
50
180.0000000000
51
270.0000000000
0
ARC
5
309
100
AcDbEntity
8
0
100
AcDbCircle
62
7
6
CONTINUOUS
10
110.8006175101
20
236.1988282268
40
5.0000000000
100
AcDbArc
50
180.0000000000
51
270.0000000000
0
ARC
5
30A
100
AcDbEntity
8
0
100
AcDbCircle
62
7
6
CONTINUOUS
10
110.8006175101
20
163.1988282268
40
5.0000000000
100
AcDbArc
50
90.0000000000
51
180.0000000000
0
ARC
5
30B
100
AcDbEntity
8
0
100
AcDbCircle
62
7
6
CONTINUOUS
10
110.8006175101
20
163.1988282268
40
8.0000000000
100
AcDbArc
50
90.0000000000
51
180.0000000000
0
ARC
5
30C
100
AcDbEntity
8
0
100
AcDbCircle
62
7
6
CONTINUOUS
10
182.8006175101
20
176.1988282268
40
8.0000000000
100
AcDbArc
50
270.0000000000
51
360.0000000000
0
ARC
5
30D
100
AcDbEntity
8
0
100
AcDbCircle
62
7
6
CONTINUOUS
10
182.8006175101
20
223.1988282268
40
8.0000000000
100
AcDbArc
50
0.0000000000
51
90.0000000000
0
ARC
5
30E
100
AcDbEntity
8
0
100
AcDbCircle
62
7
6
CONTINUOUS
10
182.7965098579
20
78.1223350254
40
5.0000000000
100
AcDbArc
50
55.6801340041
51
90.0000000000
0
ARC
5
30F
100
AcDbEntity
8
0
100
AcDbCircle
62
7
6
CONTINUOUS
10
168.8047251622
20
78.1223350254
40
5.0000000000
100
AcDbArc
50
90.0000000000
51
124.3198659959
0
ARC
5
310
100
AcDbEntity
8
0
100
AcDbCircle
62
7
6
CONTINUOUS
10
168.8047251622
20
80.1223350254
40
5.0000000000
100
AcDbArc
50
235.6801340041
51
270.0000000000
0
ARC
5
311
100
AcDbEntity
8
0
100
AcDbCircle
62
7
6
CONTINUOUS
10
182.7965098579
20
80.1223350254
40
5.0000000000
100
AcDbArc
50
270.0470482339
51
304.3198659959
0
ARC
5
312
100
AcDbEntity
8
0
100
AcDbCircle
62
7
6
CONTINUOUS
10
168.8456532834
20
30.1223350254
40
5.0000000000
100
AcDbArc
50
235.1103249003
51
270.0000000000
0
ARC
5
313
100
AcDbEntity
8
0
100
AcDbCircle
62
7
6
CONTINUOUS
10
182.7555817367
20
30.1223350254
40
5.0000000000
100
AcDbArc
50
270.0000000000
51
304.8896750997
0
ARC
5
314
100
AcDbEntity
8
0
100
AcDbCircle
62
7
6
CONTINUOUS
10
155.8006175101
20
53.6223350254
40
8.1000000000
100
AcDbArc
50
33.7489885959
51
146.2510114041
0
ARC
5
315
100
AcDbEntity
8
0
100
AcDbCircle
62
7
6
CONTINUOUS
10
155.8006175101
20
53.6223350254
40
8.1000000000
100
AcDbArc
50
213.7489885959
51
326.2510114041
0
ARC
5
316
100
AcDbEntity
8
0
100
AcDbCircle
62
7
6
CONTINUOUS
10
72.7525773196
20
206.6947205746
40
5.0000000000
100
AcDbArc
50
162.4895175819
51
180.0000000000
0
ARC
5
317
100
AcDbEntity
8
0
100
AcDbCircle
62
7
6
CONTINUOUS
10
70.7525773196
20
206.6947205746
40
5.0000000000
100
AcDbArc
50
0.0000000000
51
17.5103163535
0
ARC
5
318
100
AcDbEntity
8
0
100
AcDbCircle
62
7
6
CONTINUOUS
10
70.7525773196
20
192.7029358789
40
5.0000000000
100
AcDbArc
50
342.4896836465
51
360.0000000000
0
ARC
5
319
100
AcDbEntity
8
0
100
AcDbCircle
62
7
6
CONTINUOUS
10
72.7525773196
20
192.7029358789
40
5.0000000000
100
AcDbArc
50
180.0000000000
51
197.5104824181
0
ARC
5
31A
100
AcDbEntity
8
0
100
AcDbCircle
62
7
6
CONTINUOUS
10
22.7525773196
20
192.7438640001
40
5.0000000000
100
AcDbArc
50
180.0000000000
51
197.9995892166
0
ARC
5
31B
100
AcDbEntity
8
0
100
AcDbCircle
62
7
6
CONTINUOUS
10
22.7525773196
20
206.6537924534
40
5.0000000000
100
AcDbArc
50
162.0004107834
51
180.0000000000
0
ARC
5
31C
100
AcDbEntity
8
0
100
AcDbCircle
62
7
6
CONTINUOUS
10
46.2525773196
20
136.6988282268
40
5.5000000000
100
AcDbArc
50
180.0000000000
51
360.0000000000
0
ARC
5
31D
100
AcDbEntity
8
0
100
AcDbCircle
62
7
6
CONTINUOUS
10
46.2525773196
20
156.6988282268
40
5.5000000000
100
AcDbArc
50
0.0000000000
51
180.0000000000
0
ARC
5
31E
100
AcDbEntity
8
0
100
AcDbCircle
62
7
6
CONTINUOUS
10
46.2525773196
20
262.6988282268
40
5.5000000000
100
AcDbArc
50
0.0000000000
51
180.0000000000
0
ARC
5
31F
100
AcDbEntity
8
0
100
AcDbCircle
62
7
6
CONTINUOUS
10
46.2525773196
20
242.6988282268
40
5.5000000000
100
AcDbArc
50
180.0000000000
51
360.0000000000
0
ARC
5
320
100
AcDbEntity
8
0
100
AcDbCircle
62
7
6
CONTINUOUS
10
46.2525773196
20
147.1988282268
40
21.0000000000
100
AcDbArc
50
180.0000000000
51
360.0000000000
0
ARC
5
321
100
AcDbEntity
8
0
100
AcDbCircle
62
7
6
CONTINUOUS
10
46.2525773196
20
252.1988282268
40
21.0000000000
100
AcDbArc
50
0.0000000000
51
180.0000000000
0
SPLINE
5
322
100
AcDbEntity
8
0
100
AcDbSpline
62
7
6
CONTINUOUS
70
0
71
3
72
9
73
5
74
3
42
0.0000001000
43
0.0000001000
44
0.0000000001
12
0.1873869335
22
-0.1279219276
32
0.0000000000
13
0.1961219345
23
-0.1141475802
33
0.0000000000
40
0.0000000000
40
0.0000000000
40
0.0000000000
40
0.0000000000
40
0.8227289793
40
1.0000000000
40
1.0000000000
40
1.0000000000
40
1.0000000000
10
165.9856629339
20
75.9928207498
30
0.0000000000
10
166.0370524874
20
75.9577390574
30
0.0000000000
10
166.1007967429
20
75.9169420000
30
0.0000000000
10
166.1659303898
20
75.8784781512
30
0.0000000000
10
166.1775193016
20
75.8717331319
30
0.0000000000
11
165.9856629339
21
75.9928207498
31
0.0000000000
11
166.1428814353
21
75.8921885238
31
0.0000000000
11
166.1775193016
21
75.8717331319
31
0.0000000000
0
SPLINE
5
323
100
AcDbEntity
8
0
100
AcDbSpline
62
7
6
CONTINUOUS
70
0
71
3
72
24
73
20
74
18
42
0.0000001000
43
0.0000001000
44
0.0000000001
12
4.2530764695
22
-2.4753905713
32
0.0000000000
13
4.0636502971
23
2.7740993970
33
0.0000000000
40
0.0000000000
40
0.0000000000
40
0.0000000000
40
0.0000000000
40
0.0289445818
40
0.0652873730
40
0.1009153157
40
0.1362291328
40
0.1723408445
40
0.2103881425
40
0.2514715532
40
0.2966731967
40
0.3470836493
40
0.4037310964
40
0.4676356282
40
0.5396328409
40
0.6193777375
40
0.7062486518
40
0.7990803733
40
0.8960490106
40
1.0000000000
40
1.0000000000
40
1.0000000000
40
1.0000000000
10
166.1775193016
20
75.8717331319
30
0.0000000000
10
166.2185538083
20
75.8478500836
30
0.0000000000
10
166.3123160276
20
75.7960582406
30
0.0000000000
10
166.4610764812
20
75.7233153032
30
0.0000000000
10
166.6231061819
20
75.6545101175
30
0.0000000000
10
166.7880202575
20
75.5940548679
30
0.0000000000
10
166.9594175076
20
75.5403635229
30
0.0000000000
10
167.1422715177
20
75.4922687071
30
0.0000000000
10
167.3417086691
20
75.4494342331
30
0.0000000000
10
167.5628823506
20
75.4123087791
30
0.0000000000
10
167.8108510193
20
75.3820951805
30
0.0000000000
10
168.0905272600
20
75.3607625167
30
0.0000000000
10
168.4062979459
20
75.3512624611
30
0.0000000000
10
168.7600716442
20
75.3580652890
30
0.0000000000
10
169.1505384428
20
75.3878915933
30
0.0000000000
10
169.5718650592
20
75.4506995283
30
0.0000000000
10
170.0131996070
20
75.5600592424
30
0.0000000000
10
170.4643724403
20
75.7329740036
30
0.0000000000
10
170.7523333990
20
75.8966972908
30
0.0000000000
10
170.8931402220
20
75.9928207498
30
0.0000000000
11
166.1775193016
21
75.8717331319
31
0.0000000000
11
166.3021783017
21
75.8028569844
31
0.0000000000
11
166.4627940012
21
75.7242589541
31
0.0000000000
11
166.6241210228
21
75.6556794914
31
0.0000000000
11
166.7872306963
21
75.5958021231
31
0.0000000000
11
166.9567568392
21
75.5425985809
31
0.0000000000
11
167.1377719959
21
75.4948679391
31
0.0000000000
11
167.3353753974
21
75.4522795085
31
0.0000000000
11
167.5546807746
21
75.4152867956
31
0.0000000000
11
167.8008668028
21
75.3850811530
31
0.0000000000
11
168.0787633889
21
75.3636762069
31
0.0000000000
11
168.3930437027
21
75.3540922853
31
0.0000000000
11
168.7472205283
21
75.3610132696
31
0.0000000000
11
169.1384016906
21
75.3914696399
31
0.0000000000
11
169.5609765106
21
75.4556895188
31
0.0000000000
11
170.0039100059
21
75.5672040235
31
0.0000000000
11
170.4488426101
21
75.7394511408
31
0.0000000000
11
170.8931402220
21
75.9928207498
31
0.0000000000
0
SPLINE
5
324
100
AcDbEntity
8
0
100
AcDbSpline
62
7
6
CONTINUOUS
70
0
71
3
72
24
73
20
74
18
42
0.0000001000
43
0.0000001000
44
0.0000000001
12
4.0636648999
22
-2.7741093658
32
0.0000000000
13
4.2530880450
23
2.4754129015
33
0.0000000000
40
0.0000000000
40
0.0000000000
40
0.0000000000
40
0.0000000000
40
0.1035212270
40
0.2000814645
40
0.2927309356
40
0.3796028837
40
0.4594627977
40
0.5315884659
40
0.5955810964
40
0.6522900129
40
0.7027515541
40
0.7480103741
40
0.7891594201
40
0.8272767593
40
0.8634585488
40
0.8988383200
40
0.9345260044
40
0.9709267566
40
1.0000000000
40
1.0000000000
40
1.0000000000
40
1.0000000000
10
180.7080947982
20
75.9928207498
30
0.0000000000
10
180.8483199904
20
75.8970943479
30
0.0000000000
10
181.1350122268
20
75.7339612334
30
0.0000000000
10
181.5844517551
20
75.5612354910
30
0.0000000000
10
182.0247268883
20
75.4516204324
30
0.0000000000
10
182.4458889652
20
75.3884197589
30
0.0000000000
10
182.8367361001
20
75.3582654162
30
0.0000000000
10
183.1910514973
20
75.3512361207
30
0.0000000000
10
183.5072845143
20
75.3605795316
30
0.0000000000
10
183.7873011590
20
75.3817904980
30
0.0000000000
10
184.0355632170
20
75.4119052213
30
0.0000000000
10
184.2570392363
20
75.4489576311
30
0.0000000000
10
184.4568094215
20
75.4917519405
30
0.0000000000
10
184.6400148538
20
75.5398408318
30
0.0000000000
10
184.8117597134
20
75.5935562116
30
0.0000000000
10
184.9769994333
20
75.6540587730
30
0.0000000000
10
185.1393288367
20
75.7229313215
30
0.0000000000
10
185.2884704049
20
75.7958170543
30
0.0000000000
10
185.3825062701
20
75.8477481102
30
0.0000000000
10
185.4237232914
20
75.8717375375
30
0.0000000000
11
180.7080947982
21
75.9928207498
31
0.0000000000
11
181.1504741424
21
75.7403522316
31
0.0000000000
11
181.5933829391
21
75.5684391428
31
0.0000000000
11
182.0353266311
21
75.4566604538
31
0.0000000000
11
182.4578448996
21
75.3920257434
31
0.0000000000
11
182.8495678435
21
75.3612207499
31
0.0000000000
11
183.2043734827
21
75.3540670883
31
0.0000000000
11
183.5190933737
21
75.3634928655
31
0.0000000000
11
183.7973037648
21
75.3847745098
31
0.0000000000
11
184.0437563202
21
75.4148790021
31
0.0000000000
11
184.2633599636
21
75.4517994455
31
0.0000000000
11
184.4613024582
21
75.4943506619
31
0.0000000000
11
184.6426753715
21
75.5420787072
31
0.0000000000
11
184.8125549441
21
75.5953096671
31
0.0000000000
11
184.9759927593
21
75.6552366038
31
0.0000000000
11
185.1376122253
21
75.7238810713
31
0.0000000000
11
185.2985031042
21
75.8025670325
31
0.0000000000
11
185.4237232914
21
75.8717375375
31
0.0000000000
0
SPLINE
5
325
100
AcDbEntity
8
0
100
AcDbSpline
62
7
6
CONTINUOUS
70
0
71
3
72
9
73
5
74
3
42
0.0000001000
43
0.0000001000
44
0.0000000001
12
0.1961140914
22
0.1141437343
32
0.0000000000
13
0.1873796030
23
0.1279169234
33
0.0000000000
40
0.0000000000
40
0.0000000000
40
0.0000000000
40
0.0000000000
40
0.1758049012
40
1.0000000000
40
1.0000000000
40
1.0000000000
40
1.0000000000
10
185.4237232914
20
75.8717375375
30
0.0000000000
10
185.4352158976
20
75.8784265468
30
0.0000000000
10
185.5003489371
20
75.9168856596
30
0.0000000000
10
185.5640929695
20
75.9576779160
30
0.0000000000
10
185.6155720863
20
75.9928207498
30
0.0000000000
11
185.4237232914
21
75.8717375375
31
0.0000000000
11
185.4580743822
21
75.8920212592
31
0.0000000000
11
185.6155720863
21
75.9928207498
31
0.0000000000
0
SPLINE
5
326
100
AcDbEntity
8
0
100
AcDbSpline
62
7
6
CONTINUOUS
70
0
71
3
72
17
73
13
74
11
42
0.0000001000
43
0.0000001000
44
0.0000000001
12
-9.4057824539
22
3.2104848505
32
0.0000000000
13
-9.4057824539
23
-3.2104848505
33
0.0000000000
40
0.0000000000
40
0.0000000000
40
0.0000000000
40
0.0000000000
40
0.0961349732
40
0.1949955846
40
0.2977832460
40
0.3997128795
40
0.5004787246
40
0.6012573061
40
0.7031239097
40
0.8056752598
40
0.9041748165
40
1.0000000000
40
1.0000000000
40
1.0000000000
40
1.0000000000
10
180.7080947982
20
82.2518493010
30
0.0000000000
10
180.4066865835
20
82.3547292593
30
0.0000000000
10
179.7831468456
20
82.5286432950
30
0.0000000000
10
178.8119872718
20
82.7072248739
30
0.0000000000
10
177.8118674458
20
82.8192365803
30
0.0000000000
10
176.8012517124
20
82.8786545937
30
0.0000000000
10
175.7958135711
20
82.8968323794
30
0.0000000000
10
174.7905902420
20
82.8783008984
30
0.0000000000
10
173.7809463982
20
82.8185129788
30
0.0000000000
10
172.7830558909
20
82.7062637040
30
0.0000000000
10
171.8149327349
20
82.5278248956
30
0.0000000000
10
171.1935771652
20
82.3543977343
30
0.0000000000
10
170.8931402220
20
82.2518493010
30
0.0000000000
11
180.7080947982
21
82.2518493010
31
0.0000000000
11
179.7888490121
21
82.5123641065
31
0.0000000000
11
178.8231880781
21
82.6936867986
31
0.0000000000
11
177.8083279142
21
82.8105490692
31
0.0000000000
11
176.7971534955
21
82.8719813945
31
0.0000000000
11
175.7958567623
21
82.8907368709
31
0.0000000000
11
174.7944404453
21
82.8716102130
31
0.0000000000
11
173.7839178259
21
82.8097808686
31
0.0000000000
11
172.7714464612
21
82.6927053346
31
0.0000000000
11
171.8093830638
21
82.5116682712
31
0.0000000000
11
170.8931402220
21
82.2518493010
31
0.0000000000
0
SPLINE
5
327
100
AcDbEntity
8
0
100
AcDbSpline
62
7
6
CONTINUOUS
70
0
71
3
72
9
73
5
74
3
42
0.0000001000
43
0.0000001000
44
0.0000000001
12
-0.1875924204
22
0.1280622057
32
0.0000000000
13
-0.1963441446
23
0.1142565244
33
0.0000000000
40
0.0000000000
40
0.0000000000
40
0.0000000000
40
0.0000000000
40
0.8047403855
40
1.0000000000
40
1.0000000000
40
1.0000000000
40
1.0000000000
10
185.6155720863
20
82.2518493010
30
0.0000000000
10
185.5652510207
20
82.2862015773
30
0.0000000000
10
185.5014639594
20
82.3270816573
30
0.0000000000
10
185.4362811952
20
82.3656248108
30
0.0000000000
10
185.4235018345
20
82.3730613724
30
0.0000000000
11
185.6155720863
21
82.2518493010
31
0.0000000000
11
185.4616831050
21
82.3504838698
31
0.0000000000
11
185.4235018345
21
82.3730613724
31
0.0000000000
0
SPLINE
5
328
100
AcDbEntity
8
0
100
AcDbSpline
62
7
6
CONTINUOUS
70
0
71
3
72
24
73
20
74
18
42
0.0000001000
43
0.0000001000
44
0.0000000001
12
-4.2529625204
22
2.4748826451
32
0.0000000000
13
-4.0633935617
23
-2.7739241335
33
0.0000000000
40
0.0000000000
40
0.0000000000
40
0.0000000000
40
0.0000000000
40
0.0273391938
40
0.0629402302
40
0.0978602294
40
0.1325706561
40
0.1681805157
40
0.2057921132
40
0.2464731034
40
0.2912731743
40
0.3412548845
40
0.3974279424
40
0.4607877135
40
0.5322532510
40
0.6118573049
40
0.6993063672
40
0.7937815798
40
0.8933592708
40
1.0000000000
40
1.0000000000
40
1.0000000000
40
1.0000000000
10
185.4235018345
20
82.3730613724
30
0.0000000000
10
185.3847443123
20
82.3956151379
30
0.0000000000
10
185.2944199504
20
82.4456461185
30
0.0000000000
10
185.1503812683
20
82.5166015639
30
0.0000000000
10
184.9917269469
20
82.5846990524
30
0.0000000000
10
184.8298924643
20
82.6448699539
30
0.0000000000
10
184.6611883883
20
82.6986533774
30
0.0000000000
10
184.4807244368
20
82.7471347152
30
0.0000000000
10
184.2835148170
20
82.7905813890
30
0.0000000000
10
184.0645424297
20
82.8285038515
30
0.0000000000
10
183.8188664601
20
82.8596868315
30
0.0000000000
10
183.5416816844
20
82.8821818714
30
0.0000000000
10
183.2285238978
20
82.8931201364
30
0.0000000000
10
182.8767425567
20
82.8881647869
30
0.0000000000
10
182.4862943724
20
82.8606382138
30
0.0000000000
10
182.0612051337
20
82.8002295711
30
0.0000000000
10
181.6113934403
20
82.6922265218
30
0.0000000000
10
181.1485142645
20
82.5178896098
30
0.0000000000
10
180.8525358823
20
82.3504537318
30
0.0000000000
10
180.7080947982
20
82.2518493010
30
0.0000000000
11
185.4235018345
21
82.3730613724
31
0.0000000000
11
185.3058393563
21
82.4382495886
31
0.0000000000
11
185.1487356596
21
82.5156944437
31
0.0000000000
11
184.9908839982
21
82.5835146944
31
0.0000000000
11
184.8308421262
21
82.6430974603
31
0.0000000000
11
184.6639481360
21
82.6963973846
31
0.0000000000
11
184.4852667752
21
82.7445150401
31
0.0000000000
11
184.2898362097
21
82.7877139919
31
0.0000000000
11
184.0726854257
21
82.8254994972
31
0.0000000000
11
183.8287618247
21
82.8566694973
31
0.0000000000
11
183.5533166108
21
82.8792368825
31
0.0000000000
11
183.2417853082
21
82.8902626402
31
0.0000000000
11
182.8902150420
21
82.8852325131
31
0.0000000000
11
182.4995751988
21
82.8571594173
31
0.0000000000
11
182.0737816736
21
82.7954342965
31
0.0000000000
11
181.6222386906
21
82.6851637437
31
0.0000000000
11
181.1643926394
21
82.5108219348
31
0.0000000000
11
180.7080947982
21
82.2518493010
31
0.0000000000
0
SPLINE
5
329
100
AcDbEntity
8
0
100
AcDbSpline
62
7
6
CONTINUOUS
70
0
71
3
72
17
73
13
74
11
42
0.0000001000
43
0.0000001000
44
0.0000000001
12
9.4057828893
22
-3.2104849992
32
0.0000000000
13
9.4057828893
23
3.2104849992
33
0.0000000000
40
0.0000000000
40
0.0000000000
40
0.0000000000
40
0.0000000000
40
0.0959822521
40
0.1940801251
40
0.2966678500
40
0.3986624747
40
0.4994978030
40
0.6003198065
40
0.7023813225
40
0.8052170814
40
0.9036933487
40
1.0000000000
40
1.0000000000
40
1.0000000000
40
1.0000000000
10
170.8931402220
20
75.9928207498
30
0.0000000000
10
171.1940696301
20
75.8901042229
30
0.0000000000
10
171.8146635839
20
75.7169512029
30
0.0000000000
10
172.7820870226
20
75.5385836407
30
0.0000000000
10
173.7791840773
20
75.4262887896
30
0.0000000000
10
174.7895566130
20
75.3663959874
30
0.0000000000
10
175.7955781520
20
75.3478309564
30
0.0000000000
10
176.8018275977
20
75.3660247065
30
0.0000000000
10
177.8132228316
20
75.4255294170
30
0.0000000000
10
178.8126602836
20
75.5375761048
30
0.0000000000
10
179.7832661639
20
75.7160940002
30
0.0000000000
10
180.4061483139
20
75.8897570633
30
0.0000000000
10
180.7080947982
20
75.9928207498
30
0.0000000000
11
170.8931402220
21
75.9928207498
31
0.0000000000
11
171.8109056228
21
75.7326488619
31
0.0000000000
11
172.7690406962
21
75.5523232354
31
0.0000000000
11
173.7818550198
21
75.4350660699
31
0.0000000000
11
174.7936434806
21
75.3730906920
31
0.0000000000
11
175.7956233425
21
75.3539332221
31
0.0000000000
11
176.7974781242
21
75.3727010923
31
0.0000000000
11
177.8099580457
21
75.4342599700
31
0.0000000000
11
178.8252796631
21
75.5512939177
31
0.0000000000
11
179.7871847136
21
75.7319206887
31
0.0000000000
11
180.7080947982
21
75.9928207498
31
0.0000000000
0
SPLINE
5
32A
100
AcDbEntity
8
0
100
AcDbSpline
62
7
6
CONTINUOUS
70
0
71
3
72
24
73
20
74
18
42
0.0000001000
43
0.0000001000
44
0.0000000001
12
-4.0633626681
22
2.7739030436
32
0.0000000000
13
-4.2529489923
23
-2.4748248020
33
0.0000000000
40
0.0000000000
40
0.0000000000
40
0.0000000000
40
0.0000000000
40
0.1070821776
40
0.2070562012
40
0.3016941648
40
0.3891305899
40
0.4686210895
40
0.5399671441
40
0.6032454371
40
0.6593618716
40
0.7092956185
40
0.7540405207
40
0.7946576859
40
0.8322007218
40
0.8677415164
40
0.9023865066
40
0.9372470638
40
0.9727910799
40
1.0000000000
40
1.0000000000
40
1.0000000000
40
1.0000000000
10
170.8931402220
20
82.2518493010
30
0.0000000000
10
170.7481023143
20
82.3508611605
30
0.0000000000
10
170.4508507153
20
82.5188778233
30
0.0000000000
10
169.9862651191
20
82.6933676434
30
0.0000000000
10
169.5354686953
20
82.8010940976
30
0.0000000000
10
169.1102700850
20
82.8611174710
30
0.0000000000
10
168.7202086951
20
82.8883328127
30
0.0000000000
10
168.3689437471
20
82.8930743560
30
0.0000000000
10
168.0562166077
20
82.8819859392
30
0.0000000000
10
167.7793498482
20
82.8593720912
30
0.0000000000
10
167.5339522877
20
82.8280917516
30
0.0000000000
10
167.3152720233
20
82.7900976378
30
0.0000000000
10
167.1183876277
20
82.7466124413
30
0.0000000000
10
166.9382686109
20
82.6981270018
30
0.0000000000
10
166.7699074552
20
82.6443697525
30
0.0000000000
10
166.6083955747
20
82.5842485705
30
0.0000000000
10
166.4500379265
20
82.5162204197
30
0.0000000000
10
166.3063801492
20
82.4454111535
30
0.0000000000
10
166.2163300890
20
82.3955212155
30
0.0000000000
10
166.1777573726
20
82.3730754454
30
0.0000000000
11
170.8931402220
21
82.2518493010
31
0.0000000000
11
170.4348693667
21
82.5117375652
31
0.0000000000
11
169.9750501492
21
82.6863660048
31
0.0000000000
11
169.5226155816
21
82.7963448253
31
0.0000000000
11
169.0968292547
21
82.8576621198
31
0.0000000000
11
168.7067289594
21
82.8854059518
31
0.0000000000
11
168.3557462085
21
82.8902176258
31
0.0000000000
11
168.0446237997
21
82.8790403436
31
0.0000000000
11
167.7694701221
21
82.8563524244
31
0.0000000000
11
167.5257990716
21
82.8250827524
31
0.0000000000
11
167.3089378205
21
82.7872265803
31
0.0000000000
11
167.1138383101
21
82.7439920034
31
0.0000000000
11
166.9355079916
21
82.6958735029
31
0.0000000000
11
166.7689626907
21
82.6426030995
31
0.0000000000
11
166.6092463440
21
82.5830724471
31
0.0000000000
11
166.4516854071
21
82.5153197063
31
0.0000000000
11
166.2948523823
21
82.4379632674
31
0.0000000000
11
166.1777573726
21
82.3730754454
31
0.0000000000
0
SPLINE
5
32B
100
AcDbEntity
8
0
100
AcDbSpline
62
7
6
CONTINUOUS
70
0
71
3
72
9
73
5
74
3
42
0.0000001000
43
0.0000001000
44
0.0000000001
12
-0.1963692962
22
-0.1142688533
32
0.0000000000
13
-0.1876156212
23
-0.1280780441
33
0.0000000000
40
0.0000000000
40
0.0000000000
40
0.0000000000
40
0.0000000000
40
0.1967651609
40
1.0000000000
40
1.0000000000
40
1.0000000000
40
1.0000000000
10
166.1777573726
20
82.3730754454
30
0.0000000000
10
166.1648778272
20
82.3655807357
30
0.0000000000
10
166.0996887885
20
82.3270298367
30
0.0000000000
10
166.0358960683
20
82.2861415500
30
0.0000000000
10
165.9856629339
20
82.2518493010
30
0.0000000000
11
166.1777573726
21
82.3730754454
31
0.0000000000
11
166.1392780244
21
82.3503192925
31
0.0000000000
11
165.9856629339
21
82.2518493010
31
0.0000000000
0
SPLINE
5
32C
100
AcDbEntity
8
0
100
AcDbSpline
62
7
6
CONTINUOUS
70
0
71
3
72
18
73
14
74
12
42
0.0000001000
43
0.0000001000
44
0.0000000001
12
4.2292520119
22
-2.9492341899
32
0.0000000000
13
4.2292520119
23
2.9492341899
33
0.0000000000
40
0.0000000000
40
0.0000000000
40
0.0000000000
40
0.0000000000
40
0.1238899940
40
0.2363252426
40
0.3376183497
40
0.4271783425
40
0.5087200926
40
0.5872892185
40
0.6667835425
40
0.7475702909
40
0.8296880375
40
0.9135520711
40
1.0000000000
40
1.0000000000
40
1.0000000000
40
1.0000000000
10
165.9856629339
20
26.0210601991
30
0.0000000000
10
166.1603169360
20
25.8992666637
30
0.0000000000
10
166.5185193714
20
25.7008394216
30
0.0000000000
10
167.0709331469
20
25.5160866369
30
0.0000000000
10
167.5840051986
20
25.4180625957
30
0.0000000000
10
168.0505093680
20
25.3735370791
30
0.0000000000
10
168.4797710222
20
25.3628593991
30
0.0000000000
10
168.8915480997
20
25.3783575688
30
0.0000000000
10
169.3001803599
20
25.4210700221
30
0.0000000000
10
169.7102945935
20
25.4973027267
30
0.0000000000
10
170.1184403337
20
25.6156759653
30
0.0000000000
10
170.5188538254
20
25.7855761489
30
0.0000000000
10
170.7712701962
20
25.9360751366
30
0.0000000000
10
170.8931402220
20
26.0210601991
30
0.0000000000
11
165.9856629339
21
26.0210601991
31
0.0000000000
11
166.5437070421
21
25.7102130584
31
0.0000000000
11
167.0924461142
21
25.5232397910
31
0.0000000000
11
167.6049779606
21
25.4228583030
31
0.0000000000
11
168.0645558643
21
25.3778843015
31
0.0000000000
11
168.4848509359
21
25.3671943980
31
0.0000000000
11
168.8896560333
21
25.3827555428
31
0.0000000000
11
169.2972228114
21
25.4261878248
31
0.0000000000
11
169.7065228059
21
25.5035026228
31
0.0000000000
11
170.1128006136
21
25.6226941416
31
0.0000000000
11
170.5104539795
21
25.7925342354
31
0.0000000000
11
170.8931402220
21
26.0210601991
31
0.0000000000
0
SPLINE
5
32D
100
AcDbEntity
8
0
100
AcDbSpline
62
7
6
CONTINUOUS
70
0
71
3
72
15
73
11
74
9
42
0.0000001000
43
0.0000001000
44
0.0000000001
12
9.3888280653
22
-3.2736111085
32
0.0000000000
13
9.3888280653
23
3.2736111085
33
0.0000000000
40
0.0000000000
40
0.0000000000
40
0.0000000000
40
0.0000000000
40
0.1172925657
40
0.2401089975
40
0.3685906263
40
0.5000196542
40
0.6314244658
40
0.7598997057
40
0.8827136010
40
1.0000000000
40
1.0000000000
40
1.0000000000
40
1.0000000000
10
170.8931402220
20
26.0210601991
30
0.0000000000
10
171.2602201327
20
25.8930701172
30
0.0000000000
10
172.0305674046
20
25.6839311055
30
0.0000000000
10
173.2383015472
20
25.4904989851
30
0.0000000000
10
174.5036137295
20
25.3879046934
30
0.0000000000
10
175.8007328621
20
25.3564810000
30
0.0000000000
10
177.0978302524
20
25.3879180187
30
0.0000000000
10
178.3630321852
20
25.4905115916
30
0.0000000000
10
179.5707158227
20
25.6839426448
30
0.0000000000
10
180.3410341867
20
25.8930768463
30
0.0000000000
10
180.7080947982
20
26.0210601991
30
0.0000000000
11
170.8931402220
21
26.0210601991
31
0.0000000000
11
172.0167586865
21
25.7085803695
31
0.0000000000
11
173.2215044411
21
25.5088817734
31
0.0000000000
11
174.4944235117
21
25.4006197556
31
0.0000000000
11
175.8008130391
21
25.3670364593
31
0.0000000000
11
177.1069614947
21
25.4006276919
31
0.0000000000
11
178.3798165978
21
25.5088922096
31
0.0000000000
11
179.5845363634
21
25.7085933635
31
0.0000000000
11
180.7080947982
21
26.0210601991
31
0.0000000000
0
SPLINE
5
32E
100
AcDbEntity
8
0
100
AcDbSpline
62
7
6
CONTINUOUS
70
0
71
3
72
18
73
14
74
12
42
0.0000001000
43
0.0000001000
44
0.0000000001
12
4.2292775728
22
-2.9492520146
32
0.0000000000
13
4.2292775728
23
2.9492520146
33
0.0000000000
40
0.0000000000
40
0.0000000000
40
0.0000000000
40
0.0000000000
40
0.0868911704
40
0.1711969210
40
0.2537478568
40
0.3349561677
40
0.4149095475
40
0.4939554502
40
0.5757971449
40
0.6653281838
40
0.7661326505
40
0.8776001488
40
1.0000000000
40
1.0000000000
40
1.0000000000
40
1.0000000000
10
180.7080947982
20
26.0210601991
30
0.0000000000
10
180.8305904243
20
25.9356388793
30
0.0000000000
10
181.0843864206
20
25.7844450977
30
0.0000000000
10
181.4870800500
20
25.6140717999
30
0.0000000000
10
181.8975540830
20
25.4956853727
30
0.0000000000
10
182.3100245681
20
25.4197392990
30
0.0000000000
10
182.7210592560
20
25.3775232116
30
0.0000000000
10
183.1349941068
20
25.3627504190
30
0.0000000000
10
183.5655224073
20
25.3744141232
30
0.0000000000
10
184.0315439665
20
25.4201305684
30
0.0000000000
10
184.5418120828
20
25.5192302380
30
0.0000000000
10
185.0888587232
20
25.7039497783
30
0.0000000000
10
185.4430177710
20
25.9007308632
30
0.0000000000
10
185.6155720863
20
26.0210601991
30
0.0000000000
11
180.7080947982
21
26.0210601991
31
0.0000000000
11
181.0928280340
21
25.7914994012
31
0.0000000000
11
181.4927495338
21
25.6211652378
31
0.0000000000
11
181.9013463429
21
25.5019366314
31
0.0000000000
11
182.3129144313
21
25.4249082066
31
0.0000000000
11
182.7229153094
21
25.3819635605
31
0.0000000000
11
183.1302094751
21
25.3671129188
31
0.0000000000
11
183.5520276557
21
25.3788004354
31
0.0000000000
11
184.0113375624
21
25.4249918264
31
0.0000000000
11
184.5210955392
21
25.5264319676
31
0.0000000000
11
185.0646019809
21
25.7132953373
31
0.0000000000
11
185.6155720863
21
26.0210601991
31
0.0000000000
0
SPLINE
5
32F
100
AcDbEntity
8
0
100
AcDbSpline
62
7
6
CONTINUOUS
70
0
71
3
72
25
73
21
74
19
42
0.0000001000
43
0.0000001000
44
0.0000000001
12
3.1693133640
22
8.0411861957
32
0.0000000000
13
-3.1693133640
23
8.0411861957
33
0.0000000000
40
0.0000000000
40
0.0000000000
40
0.0000000000
40
0.0000000000
40
0.0966320165
40
0.1909661342
40
0.2825199295
40
0.3681394541
40
0.4463791633
40
0.5167162736
40
0.5790768094
40
0.6342784559
40
0.6832425596
40
0.7269204503
40
0.7663359542
40
0.8025033595
40
0.8364423811
40
0.8691813052
40
0.9017141128
40
0.9343920542
40
0.9671758773
40
1.0000000000
40
1.0000000000
40
1.0000000000
40
1.0000000000
10
74.8820915952
20
191.1988282268
30
0.0000000000
10
74.9841773090
20
191.4578402393
30
0.0000000000
10
75.1536389490
20
191.9828050284
30
0.0000000000
10
75.3251988506
20
192.7794112302
30
0.0000000000
10
75.4317750067
20
193.5549258964
30
0.0000000000
10
75.4914499697
20
194.2886288323
30
0.0000000000
10
75.5185812449
20
194.9629648257
30
0.0000000000
10
75.5233145718
20
195.5707616451
30
0.0000000000
10
75.5122417751
20
196.1120662967
30
0.0000000000
10
75.4896553536
20
196.5913641613
30
0.0000000000
10
75.4584105244
20
197.0162143152
30
0.0000000000
10
75.4204578648
20
197.3948289754
30
0.0000000000
10
75.3770198647
20
197.7357132649
30
0.0000000000
10
75.3285902690
20
198.0475556847
30
0.0000000000
10
75.2749050978
20
198.3389974605
30
0.0000000000
10
75.2148859365
20
198.6185026191
30
0.0000000000
10
75.1470015246
20
198.8924672837
30
0.0000000000
10
75.0697871345
20
199.1640958038
30
0.0000000000
10
74.9823112802
20
199.4334835557
30
0.0000000000
10
74.9167682388
20
199.6108465993
30
0.0000000000
10
74.8820915952
20
199.6988282268
30
0.0000000000
11
74.8820915952
21
191.1988282268
31
0.0000000000
11
75.1419798594
21
191.9925766317
31
0.0000000000
11
75.3166082990
21
192.7890068787
31
0.0000000000
11
75.4265871195
21
193.5726465370
31
0.0000000000
11
75.4879044140
21
194.3101300883
31
0.0000000000
11
75.5156482460
21
194.9858036197
31
0.0000000000
11
75.5204599200
21
195.5937235769
31
0.0000000000
11
75.5092826378
21
196.1326033963
31
0.0000000000
11
75.4865947186
21
196.6091835458
31
0.0000000000
11
75.4553250466
21
197.0312341856
31
0.0000000000
11
75.4174688745
21
197.4068488907
31
0.0000000000
11
75.3742342976
21
197.7447711553
31
0.0000000000
11
75.3261157971
21
198.0536483274
31
0.0000000000
11
75.2728453937
21
198.3421132503
31
0.0000000000
11
75.2133147413
21
198.6187500777
31
0.0000000000
11
75.1455620005
21
198.8916536257
31
0.0000000000
11
75.0682055616
21
199.1632963928
31
0.0000000000
11
74.9805615867
21
199.4327590851
31
0.0000000000
11
74.8820915952
21
199.6988282268
31
0.0000000000
0
SPLINE
5
330
100
AcDbEntity
8
0
100
AcDbSpline
62
7
6
CONTINUOUS
70
0
71
3
72
25
73
21
74
19
42
0.0000001000
43
0.0000001000
44
0.0000000001
12
3.1693157504
22
8.0411922504
32
0.0000000000
13
-3.1693157504
23
8.0411922504
33
0.0000000000
40
0.0000000000
40
0.0000000000
40
0.0000000000
40
0.0000000000
40
0.0328821809
40
0.0657216733
40
0.0984545592
40
0.1310457680
40
0.1638497101
40
0.1978580412
40
0.2340949142
40
0.2735756724
40
0.3173104408
40
0.3663241293
40
0.4215834296
40
0.4840254802
40
0.5544804726
40
0.6328297241
40
0.7184545443
40
0.8098360459
40
0.9037767692
40
1.0000000000
40
1.0000000000
40
1.0000000000
40
1.0000000000
10
74.8820915952
20
199.6988282268
30
0.0000000000
10
74.9168295999
20
199.7869655396
30
0.0000000000
10
74.9824796347
20
199.9646388690
30
0.0000000000
10
75.0700781544
20
200.2344982699
30
0.0000000000
10
75.1473836952
20
200.5066076105
30
0.0000000000
10
75.2153370042
20
200.7810850610
30
0.0000000000
10
75.2754055448
20
201.0611479524
30
0.0000000000
10
75.3291165786
20
201.3531823814
30
0.0000000000
10
75.3775418193
20
201.6656207192
30
0.0000000000
10
75.4209411440
20
202.0070667514
30
0.0000000000
10
75.4588221307
20
202.3861861150
30
0.0000000000
10
75.4899696972
20
202.8115178381
30
0.0000000000
10
75.5124374518
20
203.2913660883
30
0.0000000000
10
75.5233602707
20
203.8334150915
30
0.0000000000
10
75.5184135792
20
204.4421012500
30
0.0000000000
10
75.4909725983
20
205.1170972778
30
0.0000000000
10
75.4309158399
20
205.8506050057
30
0.0000000000
10
75.3240633601
20
206.6244523370
30
0.0000000000
10
75.1526317799
20
207.4182073195
30
0.0000000000
10
74.9837455288
20
207.9409117276
30
0.0000000000
10
74.8820915952
20
208.1988282268
30
0.0000000000
11
74.8820915952
21
199.6988282268
31
0.0000000000
11
74.9807261640
21
199.9653717612
31
0.0000000000
11
75.0684918828
21
200.2353010518
31
0.0000000000
11
75.1459367379
21
200.5074126366
31
0.0000000000
11
75.2137569886
21
200.7808197343
31
0.0000000000
11
75.2733397545
21
201.0580203878
31
0.0000000000
11
75.3266396788
21
201.3470892584
31
0.0000000000
11
75.3747573343
21
201.6565744536
31
0.0000000000
11
75.4179562861
21
201.9950701224
31
0.0000000000
11
75.4557417914
21
202.3711863132
31
0.0000000000
11
75.4869117915
21
202.7936743833
31
0.0000000000
11
75.5094791768
21
203.2707594886
31
0.0000000000
11
75.5205049344
21
203.8103475328
31
0.0000000000
11
75.5154748073
21
204.4192850962
31
0.0000000000
11
75.4874017115
21
205.0958931521
31
0.0000000000
11
75.4256765907
21
205.8333891714
31
0.0000000000
11
75.3154060380
21
206.6154845596
31
0.0000000000
11
75.1410642290
21
207.4084971824
31
0.0000000000
11
74.8820915952
21
208.1988282268
31
0.0000000000
0
SPLINE
5
331
100
AcDbEntity
8
0
100
AcDbSpline
62
7
6
CONTINUOUS
70
0
71
3
72
25
73
21
74
19
42
0.0000001000
43
0.0000001000
44
0.0000000001
12
-3.1693313377
22
-8.0412317985
32
0.0000000000
13
3.1693313377
23
-8.0412317985
33
0.0000000000
40
0.0000000000
40
0.0000000000
40
0.0000000000
40
0.0000000000
40
0.0335879769
40
0.0671414199
40
0.1005876281
40
0.1338758788
40
0.1672879985
40
0.2018130260
40
0.2385051499
40
0.2784088864
40
0.3225640788
40
0.3720216742
40
0.4277652601
40
0.4907546150
40
0.5617337105
40
0.6402028589
40
0.7252092580
40
0.8149028385
40
0.9062642118
40
1.0000000000
40
1.0000000000
40
1.0000000000
40
1.0000000000
10
68.6230630440
20
199.6988282268
30
0.0000000000
10
68.5875792347
20
199.6087986575
30
0.0000000000
10
68.5205935081
20
199.4272526963
30
0.0000000000
10
68.4314443007
20
199.1514299613
30
0.0000000000
10
68.3530052798
20
198.8732755867
30
0.0000000000
10
68.2843523729
20
198.5929770236
30
0.0000000000
10
68.2240050488
20
198.3076035358
30
0.0000000000
10
68.1703890832
20
198.0109217550
30
0.0000000000
10
68.1223515928
20
197.6943559316
30
0.0000000000
10
68.0795645558
20
197.3490602300
30
0.0000000000
10
68.0424799115
20
196.9661338552
30
0.0000000000
10
68.0123006049
20
196.5368350992
30
0.0000000000
10
67.9909938574
20
196.0526761830
30
0.0000000000
10
67.9815074715
20
195.5061138432
30
0.0000000000
10
67.9882977528
20
194.8940075754
30
0.0000000000
10
68.0180280170
20
194.2190270008
30
0.0000000000
10
68.0804646761
20
193.4920315715
30
0.0000000000
10
68.1886830318
20
192.7325966803
30
0.0000000000
10
68.3588418759
20
191.9585293114
30
0.0000000000
10
68.5240364537
20
191.4500786269
30
0.0000000000
10
68.6230630440
20
191.1988282268
30
0.0000000000
11
68.6230630440
21
199.6988282268
31
0.0000000000
11
68.5224308180
21
199.4265177943
31
0.0000000000
11
68.4330992786
21
199.1506075283
31
0.0000000000
11
68.3545012484
21
198.8724129762
31
0.0000000000
11
68.2859217856
21
198.5929863781
31
0.0000000000
11
68.2260444173
21
198.3104721366
31
0.0000000000
11
68.1728408752
21
198.0168442437
31
0.0000000000
11
68.1251102333
21
197.7033167954
31
0.0000000000
11
68.0825218027
21
197.3610576643
31
0.0000000000
11
68.0455290899
21
196.9812096085
31
0.0000000000
11
68.0153234472
21
196.5548028997
31
0.0000000000
11
67.9939185011
21
196.0734718932
31
0.0000000000
11
67.9843345796
21
195.5291224219
31
0.0000000000
11
67.9912555638
21
194.9156701652
31
0.0000000000
11
68.0217119341
21
194.2381245171
31
0.0000000000
11
68.0859318130
21
193.5062034589
31
0.0000000000
11
68.1974463177
21
192.7390201406
31
0.0000000000
11
68.3696934350
21
191.9683742643
31
0.0000000000
11
68.6230630440
21
191.1988282268
31
0.0000000000
0
SPLINE
5
332
100
AcDbEntity
8
0
100
AcDbSpline
62
7
6
CONTINUOUS
70
0
71
3
72
25
73
21
74
19
42
0.0000001000
43
0.0000001000
44
0.0000000001
12
-3.1693335959
22
-8.0412375280
32
0.0000000000
13
3.1693335959
23
-8.0412375280
33
0.0000000000
40
0.0000000000
40
0.0000000000
40
0.0000000000
40
0.0000000000
40
0.0933379945
40
0.1842950962
40
0.2737967418
40
0.3587960003
40
0.4373753716
40
0.5084807266
40
0.5715577922
40
0.6273635293
40
0.6768735417
40
0.7210873834
40
0.7610579937
40
0.7978209232
40
0.8324161830
40
0.8658937972
40
0.8992407321
40
0.9327427497
40
0.9663528576
40
1.0000000000
40
1.0000000000
40
1.0000000000
40
1.0000000000
10
68.6230630440
20
208.1988282268
30
0.0000000000
10
68.5244566301
20
207.9486438988
30
0.0000000000
10
68.3598492173
20
207.4424485042
30
0.0000000000
10
68.1898545582
20
206.6712845462
30
0.0000000000
10
68.0813799285
20
205.9136421019
30
0.0000000000
10
68.0185540192
20
205.1869351572
30
0.0000000000
10
67.9884974231
20
204.5113060290
30
0.0000000000
10
67.9814811859
20
203.8982672407
30
0.0000000000
10
67.9908111113
20
203.3509059780
30
0.0000000000
10
68.0119963004
20
202.8661579883
30
0.0000000000
10
68.0420768311
20
202.4363517009
30
0.0000000000
10
68.0790884197
20
202.0529028906
30
0.0000000000
10
68.1218351519
20
201.7070318999
30
0.0000000000
10
68.1698664779
20
201.3898589141
30
0.0000000000
10
68.2235061780
20
201.0925763618
30
0.0000000000
10
68.2839004791
20
200.8066398962
30
0.0000000000
10
68.3526202917
20
200.5258233939
30
0.0000000000
10
68.4311495693
20
200.2471816151
30
0.0000000000
10
68.5204223249
20
199.9708785576
30
0.0000000000
10
68.5875167044
20
199.7890164481
30
0.0000000000
10
68.6230630440
20
199.6988282268
30
0.0000000000
11
68.6230630440
21
208.1988282268
31
0.0000000000
11
68.3705945258
21
207.4326047264
31
0.0000000000
11
68.1986814370
21
206.6654641874
31
0.0000000000
11
68.0869027480
21
205.8999952587
31
0.0000000000
11
68.0222680376
21
205.1681721506
31
0.0000000000
11
67.9914630441
21
204.4896881093
31
0.0000000000
11
67.9843093825
21
203.8751467153
31
0.0000000000
11
67.9937351597
21
203.3300358739
31
0.0000000000
11
68.0150168040
21
202.8481613414
31
0.0000000000
11
68.0451212963
21
202.4212929937
31
0.0000000000
11
68.0820417398
21
202.0409283259
31
0.0000000000
11
68.1245929561
21
201.6980818683
31
0.0000000000
11
68.1723210014
21
201.3839347673
31
0.0000000000
11
68.2255519613
21
201.0896947165
31
0.0000000000
11
68.2854788981
21
200.8066121166
31
0.0000000000
11
68.3541233655
21
200.5266789901
31
0.0000000000
11
68.4328093267
21
200.2480078133
31
0.0000000000
11
68.5222635534
21
199.9716222523
31
0.0000000000
11
68.6230630440
21
199.6988282268
31
0.0000000000
0
SPLINE
5
333
100
AcDbEntity
8
0
100
AcDbSpline
62
7
6
CONTINUOUS
70
0
71
3
72
18
73
14
74
12
42
0.0000001000
43
0.0000001000
44
0.0000000001
12
-3.2300672143
22
-8.0228097129
32
0.0000000000
13
3.2300672143
23
-8.0228097129
33
0.0000000000
40
0.0000000000
40
0.0000000000
40
0.0000000000
40
0.0000000000
40
0.1173961042
40
0.2293976822
40
0.3326959512
40
0.4248818483
40
0.5090629103
40
0.5901527030
40
0.6719299501
40
0.7543859930
40
0.8369096644
40
0.9189327359
40
1.0000000000
40
1.0000000000
40
1.0000000000
40
1.0000000000
10
18.6513024933
20
199.6988282268
30
0.0000000000
10
18.5249033909
20
199.3848793584
30
0.0000000000
10
18.3255480789
20
198.7516518179
30
0.0000000000
10
18.1449355944
20
197.8083978443
30
0.0000000000
10
18.0480471605
20
196.9265984596
30
0.0000000000
10
18.0037558635
20
196.1213113393
30
0.0000000000
10
17.9931086809
20
195.3790023869
30
0.0000000000
10
18.0085651321
20
194.6668083642
30
0.0000000000
10
18.0511094485
20
193.9606473567
30
0.0000000000
10
18.1268585333
20
193.2530071178
30
0.0000000000
10
18.2440817083
20
192.5501090147
30
0.0000000000
10
18.4117844216
20
191.8614393151
30
0.0000000000
10
18.5640182560
20
191.4156239714
30
0.0000000000
10
18.6513024933
20
191.1988282268
30
0.0000000000
11
18.6513024933
21
199.6988282268
31
0.0000000000
11
18.3404553527
21
198.7322674783
31
0.0000000000
11
18.1534820852
21
197.7818235254
31
0.0000000000
11
18.0531005972
21
196.8940923269
31
0.0000000000
11
18.0081265957
21
196.0980800477
31
0.0000000000
11
17.9974366922
21
195.3701076295
31
0.0000000000
11
18.0129978370
21
194.6689646337
31
0.0000000000
11
18.0564301190
21
193.9630382665
31
0.0000000000
11
18.1337449170
21
193.2541098805
31
0.0000000000
11
18.2529364358
21
192.5504160756
31
0.0000000000
11
18.4227765296
21
191.8616602421
31
0.0000000000
11
18.6513024933
21
191.1988282268
31
0.0000000000
0
SPLINE
5
334
100
AcDbEntity
8
0
100
AcDbSpline
62
7
6
CONTINUOUS
70
0
71
3
72
18
73
14
74
12
42
0.0000001000
43
0.0000001000
44
0.0000000001
12
-3.2300754485
22
-8.0228301650
32
0.0000000000
13
3.2300754485
23
-8.0228301650
33
0.0000000000
40
0.0000000000
40
0.0000000000
40
0.0000000000
40
0.0000000000
40
0.0814936203
40
0.1639712017
40
0.2469533116
40
0.3298571451
40
0.4121173195
40
0.4937034946
40
0.5781911059
40
0.6703312342
40
0.7730911581
40
0.8840619373
40
1.0000000000
40
1.0000000000
40
1.0000000000
40
1.0000000000
10
18.6513024933
20
208.1988282268
30
0.0000000000
10
18.5635589793
20
207.9808917350
30
0.0000000000
10
18.4106262993
20
207.5326156270
30
0.0000000000
10
18.2424758032
20
206.8400698393
30
0.0000000000
10
18.1252463043
20
206.1331887076
30
0.0000000000
10
18.0497827566
20
205.4214864947
30
0.0000000000
10
18.0077328463
20
204.7111709370
30
0.0000000000
10
17.9930000409
20
203.9952500772
30
0.0000000000
10
18.0046299006
20
203.2507685838
30
0.0000000000
10
18.0501030081
20
202.4463432514
30
0.0000000000
10
18.1480536142
20
201.5693437035
30
0.0000000000
10
18.3286926153
20
200.6349943701
30
0.0000000000
10
18.5264729300
20
200.0088786890
30
0.0000000000
10
18.6513024933
20
199.6988282268
30
0.0000000000
11
18.6513024933
21
208.1988282268
31
0.0000000000
11
18.4217416954
21
207.5324507150
31
0.0000000000
11
18.2514075320
21
206.8397663582
31
0.0000000000
11
18.1321789256
21
206.1320559251
31
0.0000000000
11
18.0551505008
21
205.4191990853
31
0.0000000000
11
18.0122058547
21
204.7090567331
31
0.0000000000
11
17.9973552130
21
204.0036025446
31
0.0000000000
11
18.0090427296
21
203.2729920243
31
0.0000000000
11
18.0552341206
21
202.4774439294
31
0.0000000000
11
18.1566742618
21
201.5945172141
31
0.0000000000
11
18.3435376315
21
200.6531364427
31
0.0000000000
11
18.6513024933
21
199.6988282268
31
0.0000000000
0
ENDSEC
0
SECTION
2
OBJECTS
0
DICTIONARY
5
C
100
AcDbDictionary
280
0
281
1
3
ACAD_GROUP
350
D
3
ACAD_MLINESTYLE
350
17
3
ACAD_LAYOUT
350
1A
3
ACAD_PLOTSETTINGS
350
19
3
ACAD_PLOTSTYLENAME
350
E
0
DICTIONARY
5
D
102
{ACAD_REACTORS
330
C
102
}
100
AcDbDictionary
280
0
281
1
0
ACDBDICTIONARYWDFLT
5
E
102
{ACAD_REACTORS
330
C
102
}
100
AcDbDictionary
281
1
3
Normal
350
F
100
AcDbDictionaryWithDefault
340
F
0
DICTIONARY
5
17
102
{ACAD_REACTORS
330
C
102
}
100
AcDbDictionary
280
0
281
1
3
Standard
350
18
0
DICTIONARY
5
19
102
{ACAD_REACTORS
330
C
102
}
100
AcDbDictionary
281
1
0
DICTIONARY
5
1A
102
{ACAD_REACTORS
330
C
102
}
100
AcDbDictionary
281
1
3
Layout1
350
1E
3
Model
350
22
0
ACDBPLACEHOLDER
5
F
102
{ACAD_REACTORS
330
E
102
}
0
MLINESTYLE
5
18
102
{ACAD_REACTORS
330
17
102
}
100
AcDbMlineStyle
2
STANDARD
70
0
3

62
256
51
90.0
52
90.0
71
2
49
0.5
62
256
6
BYLAYER
49
-0.5
62
256
6
BYLAYER
0
LAYOUT
5
1E
102
{ACAD_REACTORS
330
1A
102
}
100
AcDbPlotSettings
1

2

4

6

40
0.0
41
0.0
42
0.0
43
0.0
44
0.0
45
0.0
46
0.0
47
0.0
48
0.0
49
0.0
140
0.0
141
0.0
142
1.0
143
1.0
70
0
72
0
73
0
74
0
7

75
0
147
1.0
148
0.0
149
0.0
100
AcDbLayout
1
Layout1
70
0
71
0
10
0.0
20
0.0
11
0.0
21
0.0
12
0.0
22
0.0
32
0.0
14
0.0
24
0.0
34
0.0
15
0.0
25
0.0
35
0.0
146
0.0
13
0.0
23
0.0
33
0.0
16
0.0
26
0.0
36
0.0
17
0.0
27
0.0
37
0.0
76
0
330
1B
331
0
345
0
346
0
0
LAYOUT
5
22
102
{ACAD_REACTORS
330
1A
102
}
100
AcDbPlotSettings
1

2

4

6

40
0.0
41
0.0
42
0.0
43
0.0
44
0.0
45
0.0
46
0.0
47
0.0
48
0.0
49
0.0
140
0.0
141
0.0
142
1.0
143
1.0
70
0
72
0
73
0
74
0
7

75
0
147
1.0
148
0.0
149
0.0
100
AcDbLayout
1
Model
70
0
71
0
10
0.0
20
0.0
11
0.0
21
0.0
12
0.0
22
0.0
32
0.0
14
0.0
24
0.0
34
0.0
15
0.0
25
0.0
35
0.0
146
0.0
13
0.0
23
0.0
33
0.0
16
0.0
26
0.0
36
0.0
17
0.0
27
0.0
37
0.0
76
0
330
1F
331
0
345
0
346
0
0
ENDSEC
0
EOF
