0
SECTION
2
HEADER
9
$EXTMAX
10
210.0000000000
20
297.0000000000
30
0.0000000000
9
$EXTMIN
10
0.0000000000
20
0.0000000000
30
0.0000000000
9
$LIMMIN
10
0.0000000000
20
0.0000000000
9
$LIMMAX
10
210.0000000000
20
297.0000000000
9
$VIEWCTR
10
105.0000000000
20
148.5000000000
9
$VIEWSIZE
40
297.0000000000
9
$CLAYER
8
0
9
$LTSCALE
40
19.3600000000
9
$CELTYPE
6
BYLAYER
9
$DIMSCALE
40
1
9
$DIMASZ
40
3.5000000000
9
$DIMEXO
40
2.2000000000
9
$DIMDLI
40
13.3760000000
9
$DIMEXE
40
6.3360000000
9
$DIMCEN
40
3.1680000000
9
$DIMLFAC
40
1.0000000000
9
$DIMBLK
1
_FILLED
9
$DIMTXT
40
3.5000000000
9
$PDMODE
70
3
9
$PDSIZE
40
0.3125000000
0
ENDSEC
0
SECTION
2
TABLES
0
TABLE
2
LTYPE
70
6
0
LTYPE
2
BYBLOCK
70
0
3

72
65
73
0
40
0.0
0
LTYPE
2
BYLAYER
70
0
3

72
65
73
0
40
0.0
0
LTYPE
2
CONTINUOUS
70
64
3
Solid line
72
65
73
0
40
0
0
LTYPE
2
CENTER
70
64
3
____ _ ____ _ ____ _ ____ _ ____ _ ____ _ ____
72
65
73
4
40
0.6
49
0.375
49
-0.075
49
0.075
49
-0.075
0
LTYPE
2
HIDDEN
70
64
3
- - - - - - - - - - - - - - - - - - - -
72
65
73
2
40
0.2
49
0.1
49
-0.1
0
LTYPE
2
PHANTOM
70
64
3
_____ _ _ _____ _ _ _____ _ _ _____
72
65
73
6
40
0.8
49
0.45
49
-0.05
49
0.1
49
-0.05
49
0.1
49
-0.05
0
LTYPE
2
DOT
70
64
3
. . . . . . . . . . . . . . . . . . . .
72
65
73
2
40
0.2
49
0.1
49
-0.1
0
LTYPE
2
DASHED
70
64
3
- - - - - - - - - - - - - - - - - - - -
72
65
73
2
40
0.2
49
0.1
49
-0.1
0
ENDTAB
0
TABLE
2
LAYER
70
36
0
LAYER
2
0
70
0
62
7
6
CONTINUOUS
0
LAYER
2
DEFAULT_1
70
0
62
7
6
CENTER
0
LAYER
2
DEFAULT_2
70
0
62
8
6
HIDDEN
0
LAYER
2
DEFAULT_3
70
0
62
7
6
PHANTOM
0
LAYER
2
_2D_DELETED_OBJS
70
0
62
7
6
CONTINUOUS
0
LAYER
2
_BLACK_HOLE
70
0
62
7
6
CONTINUOUS
0
LAYER
2
ASSI
70
0
62
7
6
CONTINUOUS
0
LAYER
2
PIANI
70
0
62
7
6
CONTINUOUS
0
LAYER
2
PUNTI
70
0
62
7
6
CONTINUOUS
0
LAYER
2
SURF_FILETTI
70
0
62
7
6
CONTINUOUS
0
ENDTAB
0
TABLE
2
STYLE
70
1
0
STYLE
2
STANDARD
70
0
40
0.0
41
0.7143000000
50
0.0
71
0
42
0.2
3
txt
4

0
ENDTAB
0
ENDSEC
0
SECTION
2
BLOCKS
0
BLOCK
8
0
62
2
6
CONTINUOUS
2
*D0
70
65
10
0.0000000000
20
0.0000000000
0
TEXT
8
0
62
2
6
CONTINUOUS
10
139.3061872723
20
90.2331124177
7
STANDARD
40
3.5000000000
1
%%c
50
-64.4981673567
41
1.3333333333
72
0
0
TEXT
8
0
62
2
6
CONTINUOUS
10
141.3153737821
20
86.0211120204
7
STANDARD
40
3.5000000000
1
20.3
50
-64.4981673567
41
0.7143000000
72
0
0
LINE
8
0
62
2
6
CONTINUOUS
10
151.4306368514
20
62.7834358895
11
155.8006175101
21
53.6223350254
0
LINE
8
0
62
2
6
CONTINUOUS
10
155.8006175101
20
53.6223350254
11
138.5164371979
21
89.8563899472
0
LINE
8
0
62
2
6
CONTINUOUS
10
160.1705981688
20
44.4612341613
11
155.8006175101
21
53.6223350254
0
INSERT
8
0
62
2
6
CONTINUOUS
2
_FILLED
10
151.4306368514
20
62.7834358895
41
  3.500000
42
  3.500000
43
  3.500000
50
115.501833
0
INSERT
8
0
62
2
6
CONTINUOUS
2
_FILLED
10
160.1705981688
20
44.4612341613
41
  3.500000
42
  3.500000
43
  3.500000
50
295.501833
0
ENDBLK
8
0
6
BYBLOCK
62
0
0
BLOCK
8
0
62
2
6
CONTINUOUS
2
*D1
70
65
10
0.0000000000
20
0.0000000000
0
TEXT
8
0
62
2
6
CONTINUOUS
10
89.1146907216
20
51.1545891753
7
STANDARD
40
3.5000000000
1
42
50
90.0000000000
41
0.7143000000
72
0
0
LINE
8
0
62
2
6
CONTINUOUS
10
110.3006175101
20
74.6223350254
11
88.4896907216
21
74.6223350254
0
LINE
8
0
62
2
6
CONTINUOUS
10
110.3006175101
20
32.6223350254
11
88.4896907216
21
32.6223350254
0
LINE
8
0
62
2
6
CONTINUOUS
10
89.9896907216
20
74.6223350254
11
89.9896907216
21
53.6223350254
0
LINE
8
0
62
2
6
CONTINUOUS
10
89.9896907216
20
32.6223350254
11
89.9896907216
21
53.6223350254
0
INSERT
8
0
62
2
6
CONTINUOUS
2
_FILLED
10
89.9896907216
20
74.6223350254
41
  3.500000
42
  3.500000
43
  3.500000
50
 90.000000
0
INSERT
8
0
62
2
6
CONTINUOUS
2
_FILLED
10
89.9896907216
20
32.6223350254
41
  3.500000
42
  3.500000
43
  3.500000
50
270.000000
0
ENDBLK
8
0
6
BYBLOCK
62
0
0
BLOCK
8
0
62
2
6
CONTINUOUS
2
*D2
70
65
10
0.0000000000
20
0.0000000000
0
TEXT
8
0
62
2
6
CONTINUOUS
10
201.9450612423
20
51.7227621367
7
STANDARD
40
3.5000000000
1
43
50
90.0000000000
41
0.7143000000
72
0
0
LINE
8
0
62
2
6
CONTINUOUS
10
183.3006175101
20
75.1223350254
11
204.3200612423
21
75.1223350254
0
LINE
8
0
62
2
6
CONTINUOUS
10
183.3006175101
20
32.1223350254
11
204.3200612423
21
32.1223350254
0
LINE
8
0
62
2
6
CONTINUOUS
10
202.8200612423
20
75.1223350254
11
202.8200612423
21
53.6223350254
0
LINE
8
0
62
2
6
CONTINUOUS
10
202.8200612423
20
32.1223350254
11
202.8200612423
21
53.6223350254
0
INSERT
8
0
62
2
6
CONTINUOUS
2
_FILLED
10
202.8200612423
20
75.1223350254
41
  3.500000
42
  3.500000
43
  3.500000
50
 90.000000
0
INSERT
8
0
62
2
6
CONTINUOUS
2
_FILLED
10
202.8200612423
20
32.1223350254
41
  3.500000
42
  3.500000
43
  3.500000
50
270.000000
0
ENDBLK
8
0
6
BYBLOCK
62
0
0
BLOCK
8
0
62
2
6
CONTINUOUS
2
*D3
70
65
10
0.0000000000
20
0.0000000000
0
TEXT
8
0
62
2
6
CONTINUOUS
10
128.0057423265
20
20.3075500729
7
STANDARD
40
3.5000000000
1
53
41
0.7143000000
72
0
0
LINE
8
0
62
2
6
CONTINUOUS
10
102.8006175101
20
33.5686480063
11
102.8006175101
21
17.9325500729
0
LINE
8
0
62
2
6
CONTINUOUS
10
155.8006175101
20
53.1223350254
11
155.8006175101
21
17.9325500729
0
LINE
8
0
62
2
6
CONTINUOUS
10
102.8006175101
20
19.4325500729
11
129.3006175101
21
19.4325500729
0
LINE
8
0
62
2
6
CONTINUOUS
10
155.8006175101
20
19.4325500729
11
129.3006175101
21
19.4325500729
0
INSERT
8
0
62
2
6
CONTINUOUS
2
_FILLED
10
102.8006175101
20
19.4325500729
41
  3.500000
42
  3.500000
43
  3.500000
50
180.000000
0
INSERT
8
0
62
2
6
CONTINUOUS
2
_FILLED
10
155.8006175101
20
19.4325500729
41
  3.500000
42
  3.500000
43
  3.500000
0
ENDBLK
8
0
6
BYBLOCK
62
0
0
BLOCK
8
0
62
2
6
CONTINUOUS
2
*D4
70
65
10
0.0000000000
20
0.0000000000
0
TEXT
8
0
62
2
6
CONTINUOUS
10
202.9291237113
20
173.2164448454
7
STANDARD
40
3.5000000000
1
63
50
90.0000000000
41
0.7143000000
72
0
0
LINE
8
0
62
2
6
CONTINUOUS
10
165.3006175101
20
210.1989115720
11
205.3041237113
21
210.1989115720
0
LINE
8
0
62
2
6
CONTINUOUS
10
165.3006175101
20
147.1989115720
11
205.3041237113
21
147.1989115720
0
LINE
8
0
62
2
6
CONTINUOUS
10
203.8041237113
20
210.1989115720
11
203.8041237113
21
178.6989115720
0
LINE
8
0
62
2
6
CONTINUOUS
10
203.8041237113
20
147.1989115720
11
203.8041237113
21
178.6989115720
0
INSERT
8
0
62
2
6
CONTINUOUS
2
_FILLED
10
203.8041237113
20
210.1989115720
41
  3.500000
42
  3.500000
43
  3.500000
50
 90.000000
0
INSERT
8
0
62
2
6
CONTINUOUS
2
_FILLED
10
203.8041237113
20
147.1989115720
41
  3.500000
42
  3.500000
43
  3.500000
50
270.000000
0
ENDBLK
8
0
6
BYBLOCK
62
0
0
BLOCK
8
0
62
2
6
CONTINUOUS
2
*D5
70
65
10
0.0000000000
20
0.0000000000
0
TEXT
8
0
62
2
6
CONTINUOUS
10
142.7384064102
20
258.0602626595
7
STANDARD
40
3.5000000000
1
88
41
0.7143000000
72
0
0
LINE
8
0
62
2
6
CONTINUOUS
10
102.8006175101
20
252.6989115720
11
102.8006175101
21
258.6852626595
0
LINE
8
0
62
2
6
CONTINUOUS
10
190.8006175101
20
202.6989115720
11
190.8006175101
21
258.6852626595
0
LINE
8
0
62
2
6
CONTINUOUS
10
102.8006175101
20
257.1852626595
11
146.8006175101
21
257.1852626595
0
LINE
8
0
62
2
6
CONTINUOUS
10
190.8006175101
20
257.1852626595
11
146.8006175101
21
257.1852626595
0
INSERT
8
0
62
2
6
CONTINUOUS
2
_FILLED
10
102.8006175101
20
257.1852626595
41
  3.500000
42
  3.500000
43
  3.500000
50
180.000000
0
INSERT
8
0
62
2
6
CONTINUOUS
2
_FILLED
10
190.8006175101
20
257.1852626595
41
  3.500000
42
  3.500000
43
  3.500000
0
ENDBLK
8
0
6
BYBLOCK
62
0
0
BLOCK
8
0
62
2
6
CONTINUOUS
2
*D6
70
65
10
0.0000000000
20
0.0000000000
0
TEXT
8
0
62
2
6
CONTINUOUS
10
89.8466574381
20
227.3755762891
7
STANDARD
40
3.5000000000
1
45
50
90.0000000000
41
0.7143000000
72
0
0
LINE
8
0
62
2
6
CONTINUOUS
10
102.3006175101
20
252.1989115720
11
89.2216574381
21
252.1989115720
0
LINE
8
0
62
2
6
CONTINUOUS
10
110.3006175101
20
207.1989115720
11
89.2216574381
21
207.1989115720
0
LINE
8
0
62
2
6
CONTINUOUS
10
90.7216574381
20
252.1989115720
11
90.7216574381
21
229.6989115720
0
LINE
8
0
62
2
6
CONTINUOUS
10
90.7216574381
20
207.1989115720
11
90.7216574381
21
229.6989115720
0
INSERT
8
0
62
2
6
CONTINUOUS
2
_FILLED
10
90.7216574381
20
252.1989115720
41
  3.500000
42
  3.500000
43
  3.500000
50
 90.000000
0
INSERT
8
0
62
2
6
CONTINUOUS
2
_FILLED
10
90.7216574381
20
207.1989115720
41
  3.500000
42
  3.500000
43
  3.500000
50
270.000000
0
ENDBLK
8
0
6
BYBLOCK
62
0
0
BLOCK
8
0
62
2
6
CONTINUOUS
2
*D7
70
65
10
0.0000000000
20
0.0000000000
0
TEXT
8
0
62
2
6
CONTINUOUS
10
89.8466574381
20
197.7798909156
7
STANDARD
40
3.5000000000
1
15
50
90.0000000000
41
0.7143000000
72
0
0
LINE
8
0
62
2
6
CONTINUOUS
10
110.3006175101
20
207.1989115720
11
89.2216574381
21
207.1989115720
0
LINE
8
0
62
2
6
CONTINUOUS
10
102.3006175101
20
192.1989115720
11
89.2216574381
21
192.1989115720
0
LINE
8
0
62
2
6
CONTINUOUS
10
90.7216574381
20
207.1989115720
11
90.7216574381
21
199.6989115720
0
LINE
8
0
62
2
6
CONTINUOUS
10
90.7216574381
20
192.1989115720
11
90.7216574381
21
199.6989115720
0
INSERT
8
0
62
2
6
CONTINUOUS
2
_FILLED
10
90.7216574381
20
207.1989115720
41
  3.500000
42
  3.500000
43
  3.500000
50
 90.000000
0
INSERT
8
0
62
2
6
CONTINUOUS
2
_FILLED
10
90.7216574381
20
192.1989115720
41
  3.500000
42
  3.500000
43
  3.500000
50
270.000000
0
ENDBLK
8
0
6
BYBLOCK
62
0
0
BLOCK
8
0
62
2
6
CONTINUOUS
2
*D8
70
65
10
0.0000000000
20
0.0000000000
0
TEXT
8
0
62
2
6
CONTINUOUS
10
89.8466574381
20
168.9863226973
7
STANDARD
40
3.5000000000
1
45
50
90.0000000000
41
0.7143000000
72
0
0
LINE
8
0
62
2
6
CONTINUOUS
10
102.3006175101
20
192.1989115720
11
89.2216574381
21
192.1989115720
0
LINE
8
0
62
2
6
CONTINUOUS
10
110.3006175101
20
147.1989115720
11
89.2216574381
21
147.1989115720
0
LINE
8
0
62
2
6
CONTINUOUS
10
90.7216574381
20
192.1989115720
11
90.7216574381
21
169.6989115720
0
LINE
8
0
62
2
6
CONTINUOUS
10
90.7216574381
20
147.1989115720
11
90.7216574381
21
169.6989115720
0
INSERT
8
0
62
2
6
CONTINUOUS
2
_FILLED
10
90.7216574381
20
192.1989115720
41
  3.500000
42
  3.500000
43
  3.500000
50
 90.000000
0
INSERT
8
0
62
2
6
CONTINUOUS
2
_FILLED
10
90.7216574381
20
147.1989115720
41
  3.500000
42
  3.500000
43
  3.500000
50
270.000000
0
ENDBLK
8
0
6
BYBLOCK
62
0
0
BLOCK
8
0
62
2
6
CONTINUOUS
2
*D9
70
65
10
0.0000000000
20
0.0000000000
0
TEXT
8
0
62
2
6
CONTINUOUS
10
123.7538659794
20
223.5515463918
7
STANDARD
40
3.5000000000
1
3
50
90.0000000000
41
0.7143000000
72
0
0
LINE
8
0
62
2
6
CONTINUOUS
10
124.2989690722
20
210.1989115720
11
126.1288659794
21
210.1989115720
0
LINE
8
0
62
2
6
CONTINUOUS
10
123.9690721649
20
207.1989115720
11
126.1288659794
21
207.1989115720
0
LINE
8
0
62
2
6
CONTINUOUS
10
124.6288659794
20
210.1989115720
11
124.6288659794
21
226.0515963918
0
LINE
8
0
62
2
6
CONTINUOUS
10
124.6288659794
20
226.0515963918
11
124.6288659794
21
208.6989115720
0
LINE
8
0
62
2
6
CONTINUOUS
10
124.6288659794
20
207.1989115720
11
124.6288659794
21
199.1989115720
0
LINE
8
0
62
2
6
CONTINUOUS
10
124.6288659794
20
199.1989115720
11
124.6288659794
21
208.6989115720
0
INSERT
8
0
62
2
6
CONTINUOUS
2
_FILLED
10
124.6288659794
20
210.1989115720
41
  3.500000
42
  3.500000
43
  3.500000
50
270.000000
0
INSERT
8
0
62
2
6
CONTINUOUS
2
_FILLED
10
124.6288659794
20
207.1989115720
41
  3.500000
42
  3.500000
43
  3.500000
50
 90.000000
0
ENDBLK
8
0
6
BYBLOCK
62
0
0
BLOCK
8
0
62
2
6
CONTINUOUS
2
*D10
70
65
10
0.0000000000
20
0.0000000000
0
TEXT
8
0
62
2
6
CONTINUOUS
10
58.5489832967
20
265.5552228900
7
STANDARD
40
3.5000000000
1
11
41
0.7143000000
72
0
0
LINE
8
0
62
2
6
CONTINUOUS
10
40.7525773196
20
242.1989115720
11
40.7525773196
21
266.1802228900
0
LINE
8
0
62
2
6
CONTINUOUS
10
51.7525773196
20
242.1989115720
11
51.7525773196
21
266.1802228900
0
LINE
8
0
62
2
6
CONTINUOUS
10
40.7525773196
20
264.6802228900
11
32.7525773196
21
264.6802228900
0
LINE
8
0
62
2
6
CONTINUOUS
10
32.7525773196
20
264.6802228900
11
46.2525773196
21
264.6802228900
0
LINE
8
0
62
2
6
CONTINUOUS
10
51.7525773196
20
264.6802228900
11
63.5490832967
21
264.6802228900
0
LINE
8
0
62
2
6
CONTINUOUS
10
63.5490832967
20
264.6802228900
11
46.2525773196
21
264.6802228900
0
INSERT
8
0
62
2
6
CONTINUOUS
2
_FILLED
10
40.7525773196
20
264.6802228900
41
  3.500000
42
  3.500000
43
  3.500000
0
INSERT
8
0
62
2
6
CONTINUOUS
2
_FILLED
10
51.7525773196
20
264.6802228900
41
  3.500000
42
  3.500000
43
  3.500000
50
180.000000
0
ENDBLK
8
0
6
BYBLOCK
62
0
0
BLOCK
8
0
62
2
6
CONTINUOUS
2
*D11
70
65
10
0.0000000000
20
0.0000000000
0
TEXT
8
0
62
2
6
CONTINUOUS
10
8.4582737067
20
228.6980358287
7
STANDARD
40
3.5000000000
1
20
50
90.0000000000
41
0.7143000000
72
0
0
LINE
8
0
62
2
6
CONTINUOUS
10
45.7525773196
20
241.6989115720
11
7.8332737067
21
241.6989115720
0
LINE
8
0
62
2
6
CONTINUOUS
10
45.7525773196
20
221.6989115720
11
7.8332737067
21
221.6989115720
0
LINE
8
0
62
2
6
CONTINUOUS
10
9.3332737067
20
241.6989115720
11
9.3332737067
21
231.6989115720
0
LINE
8
0
62
2
6
CONTINUOUS
10
9.3332737067
20
221.6989115720
11
9.3332737067
21
231.6989115720
0
INSERT
8
0
62
2
6
CONTINUOUS
2
_FILLED
10
9.3332737067
20
241.6989115720
41
  3.500000
42
  3.500000
43
  3.500000
50
 90.000000
0
INSERT
8
0
62
2
6
CONTINUOUS
2
_FILLED
10
9.3332737067
20
221.6989115720
41
  3.500000
42
  3.500000
43
  3.500000
50
270.000000
0
ENDBLK
8
0
6
BYBLOCK
62
0
0
BLOCK
8
0
62
2
6
CONTINUOUS
2
*D12
70
65
10
0.0000000000
20
0.0000000000
0
TEXT
8
0
62
2
6
CONTINUOUS
10
8.4582737067
20
169.6304921452
7
STANDARD
40
3.5000000000
1
20
50
90.0000000000
41
0.7143000000
72
0
0
LINE
8
0
62
2
6
CONTINUOUS
10
45.7525773196
20
181.6989115720
11
7.8332737067
21
181.6989115720
0
LINE
8
0
62
2
6
CONTINUOUS
10
45.7525773196
20
161.6989115720
11
7.8332737067
21
161.6989115720
0
LINE
8
0
62
2
6
CONTINUOUS
10
9.3332737067
20
181.6989115720
11
9.3332737067
21
171.6989115720
0
LINE
8
0
62
2
6
CONTINUOUS
10
9.3332737067
20
161.6989115720
11
9.3332737067
21
171.6989115720
0
INSERT
8
0
62
2
6
CONTINUOUS
2
_FILLED
10
9.3332737067
20
181.6989115720
41
  3.500000
42
  3.500000
43
  3.500000
50
 90.000000
0
INSERT
8
0
62
2
6
CONTINUOUS
2
_FILLED
10
9.3332737067
20
161.6989115720
41
  3.500000
42
  3.500000
43
  3.500000
50
270.000000
0
ENDBLK
8
0
6
BYBLOCK
62
0
0
BLOCK
8
0
62
2
6
CONTINUOUS
2
*D13
70
65
10
0.0000000000
20
0.0000000000
0
TEXT
8
0
62
2
6
CONTINUOUS
10
8.4582737067
20
197.9007871167
7
STANDARD
40
3.5000000000
1
40
50
90.0000000000
41
0.7143000000
72
0
0
LINE
8
0
62
2
6
CONTINUOUS
10
45.7525773196
20
221.6989115720
11
7.8332737067
21
221.6989115720
0
LINE
8
0
62
2
6
CONTINUOUS
10
45.7525773196
20
181.6989115720
11
7.8332737067
21
181.6989115720
0
LINE
8
0
62
2
6
CONTINUOUS
10
9.3332737067
20
221.6989115720
11
9.3332737067
21
201.6989115720
0
LINE
8
0
62
2
6
CONTINUOUS
10
9.3332737067
20
181.6989115720
11
9.3332737067
21
201.6989115720
0
INSERT
8
0
62
2
6
CONTINUOUS
2
_FILLED
10
9.3332737067
20
221.6989115720
41
  3.500000
42
  3.500000
43
  3.500000
50
 90.000000
0
INSERT
8
0
62
2
6
CONTINUOUS
2
_FILLED
10
9.3332737067
20
181.6989115720
41
  3.500000
42
  3.500000
43
  3.500000
50
270.000000
0
ENDBLK
8
0
6
BYBLOCK
62
0
0
BLOCK
8
0
2
_FILLED
70
64
10
0.0000000000
20
0.0000000000
0
SOLID
8
0
6
BYBLOCK
62
0
10
0.0000000000
20
0.0000000000
11
-1.0000000000
21
0.1857142857
12
-1.0000000000
22
-0.1857142857
13
-1.0000000000
23
-0.1857142857
0
ENDBLK
8
0
6
BYBLOCK
62
0
0
ENDSEC
0
SECTION
2
ENTITIES
0
DIMENSION
8
0
62
2
6
CONTINUOUS
2
*D0
10
151.4306368514
20
62.7834358895
11
144.0430235621
21
84.3676093346
70
131
15
160.1705981688
25
44.4612341613
0
DIMENSION
8
0
62
2
6
CONTINUOUS
2
*D1
10
89.9896907216
20
32.6223350254
11
87.3646907216
21
53.6546391753
70
128
13
110.3006175101
23
74.6223350254
14
110.3006175101
24
32.6223350254
50
270.000000
0
DIMENSION
8
0
62
2
6
CONTINUOUS
2
*D2
10
202.8200612423
20
32.1223350254
11
200.1950612423
21
54.2228121367
70
128
13
183.3006175101
23
75.1223350254
14
183.3006175101
24
32.1223350254
50
270.000000
0
DIMENSION
8
0
62
2
6
CONTINUOUS
2
*D3
10
155.8006175101
20
19.4325500729
11
130.5057923265
21
22.0575500729
70
128
13
102.8006175101
23
33.5686480063
14
155.8006175101
24
53.1223350254
0
DIMENSION
8
0
62
2
6
CONTINUOUS
2
*D4
10
203.8041237113
20
147.1989115720
11
201.1791237113
21
175.7164948454
70
128
13
165.3006175101
23
210.1989115720
14
165.3006175101
24
147.1989115720
50
270.000000
0
DIMENSION
8
0
62
2
6
CONTINUOUS
2
*D5
10
190.8006175101
20
257.1852626595
11
145.2384564102
21
259.8102626595
70
128
13
102.8006175101
23
252.6989115720
14
190.8006175101
24
202.6989115720
0
DIMENSION
8
0
62
2
6
CONTINUOUS
2
*D6
10
90.7216574381
20
207.1989115720
11
88.0966574381
21
229.8756262891
70
128
13
102.3006175101
23
252.1989115720
14
110.3006175101
24
207.1989115720
50
270.000000
0
DIMENSION
8
0
62
2
6
CONTINUOUS
2
*D7
10
90.7216574381
20
192.1989115720
11
88.0966574381
21
200.2799409156
70
128
13
110.3006175101
23
207.1989115720
14
102.3006175101
24
192.1989115720
50
270.000000
0
DIMENSION
8
0
62
2
6
CONTINUOUS
2
*D8
10
90.7216574381
20
147.1989115720
11
88.0966574381
21
171.4863726973
70
128
13
102.3006175101
23
192.1989115720
14
110.3006175101
24
147.1989115720
50
270.000000
0
DIMENSION
8
0
62
2
6
CONTINUOUS
2
*D9
10
124.6288659794
20
207.1989115720
11
122.0038659794
21
224.8015713918
70
128
13
126.1288659794
23
210.1989115720
14
126.1288659794
24
207.1989115720
50
270.000000
0
DIMENSION
8
0
62
2
6
CONTINUOUS
2
*D10
10
51.7525773196
20
264.6802228900
11
61.0490332967
21
267.3052228900
70
128
13
40.7525773196
23
242.1989115720
14
51.7525773196
24
242.1989115720
0
DIMENSION
8
0
62
2
6
CONTINUOUS
2
*D11
10
9.3332737067
20
221.6989115720
11
6.7082737067
21
231.1980858287
70
128
13
45.7525773196
23
241.6989115720
14
45.7525773196
24
221.6989115720
50
270.000000
0
DIMENSION
8
0
62
2
6
CONTINUOUS
2
*D12
10
9.3332737067
20
161.6989115720
11
6.7082737067
21
172.1305421452
70
128
13
45.7525773196
23
181.6989115720
14
45.7525773196
24
161.6989115720
50
270.000000
0
DIMENSION
8
0
62
2
6
CONTINUOUS
2
*D13
10
9.3332737067
20
181.6989115720
11
6.7082737067
21
200.4008371167
70
128
13
45.7525773196
23
221.6989115720
14
45.7525773196
24
181.6989115720
50
270.000000
0
LINE
8
0
62
7
6
CONTINUOUS
10
0.0000000000
20
0.0000000000
11
210.0000000000
21
0.0000000000
0
LINE
8
0
62
7
6
CONTINUOUS
10
0.0000000000
20
0.0000000000
11
0.0000000000
21
297.0000000000
0
LINE
8
0
62
7
6
CONTINUOUS
10
210.0000000000
20
0.0000000000
11
210.0000000000
21
297.0000000000
0
LINE
8
0
62
7
6
CONTINUOUS
10
0.0000000000
20
297.0000000000
11
210.0000000000
21
297.0000000000
0
LINE
8
0
62
7
6
CONTINUOUS
10
110.8006175101
20
147.1989115720
11
182.8006175101
21
147.1989115720
0
LINE
8
0
62
7
6
CONTINUOUS
10
164.8006175101
20
150.1989115720
11
110.8006175101
21
150.1989115720
0
LINE
8
0
62
7
6
CONTINUOUS
10
102.8006175101
20
155.1989115720
11
102.8006175101
21
192.1989096710
0
LINE
8
0
62
7
6
CONTINUOUS
10
102.8006175101
20
215.1989115720
11
102.8006175101
21
252.1989096710
0
LINE
8
0
62
7
6
CONTINUOUS
10
105.8006175101
20
155.1989115720
11
105.8006175101
21
192.1989092713
0
LINE
8
0
62
7
6
CONTINUOUS
10
105.8006175101
20
215.1989115720
11
105.8006175101
21
252.1989092713
0
LINE
8
0
62
7
6
CONTINUOUS
10
180.7080947982
20
170.1989115720
11
170.8931402220
21
170.1989115720
0
LINE
8
0
62
7
6
CONTINUOUS
10
102.8006175101
20
171.1989115720
11
105.8006175101
21
171.1989115720
0
LINE
8
0
62
7
6
CONTINUOUS
10
170.8931402220
20
187.1989115720
11
180.7080947982
21
187.1989115720
0
LINE
8
0
62
7
6
CONTINUOUS
10
102.8006175101
20
192.1989115720
11
105.8006175101
21
192.1989115720
0
LINE
8
0
62
7
6
CONTINUOUS
10
110.8006175101
20
207.1989115720
11
164.8006175101
21
207.1989115720
0
LINE
8
0
62
7
6
CONTINUOUS
10
170.8931402220
20
170.1989115720
11
165.9856629339
21
178.6989115720
0
LINE
8
0
62
7
6
CONTINUOUS
10
182.8006175101
20
210.1989115720
11
110.8006175101
21
210.1989115720
0
LINE
8
0
62
7
6
CONTINUOUS
10
164.8006175101
20
210.1989115720
11
164.8006175101
21
147.1989115720
0
LINE
8
0
62
7
6
CONTINUOUS
10
180.7080947982
20
187.1989115720
11
185.6155720863
21
178.6989115720
0
LINE
8
0
62
7
6
CONTINUOUS
10
165.9856629339
20
178.6989115720
11
170.8931402220
21
187.1989115720
0
LINE
8
0
62
7
6
CONTINUOUS
10
102.8006175101
20
231.1989115720
11
105.8006175101
21
231.1989115720
0
LINE
8
0
62
7
6
CONTINUOUS
10
190.8006175101
20
155.1989115720
11
190.8006175101
21
202.1989115720
0
LINE
8
0
62
7
6
CONTINUOUS
10
185.6155720863
20
178.6989115720
11
180.7080947982
21
170.1989115720
0
LINE
8
0
62
7
6
CONTINUOUS
10
102.8006175101
20
252.1989115720
11
105.8006175101
21
252.1989115720
0
LINE
8
0
62
7
6
CONTINUOUS
10
102.8006175101
20
32.6223350254
11
102.8006175101
21
74.6223350254
0
LINE
8
0
62
7
6
CONTINUOUS
10
105.8006175101
20
74.6223350254
11
105.8006175101
21
32.6223350254
0
LINE
8
0
62
7
6
CONTINUOUS
10
110.8006175101
20
74.6223350254
11
110.8006175101
21
32.6223350254
0
LINE
8
0
62
7
6
CONTINUOUS
10
168.8456532834
20
25.1223350254
11
182.7555817367
21
25.1223350254
0
LINE
8
0
62
7
6
CONTINUOUS
10
190.8006175101
20
32.1223350254
11
164.8006175101
21
32.1223350254
0
LINE
8
0
62
7
6
CONTINUOUS
10
102.8006175101
20
32.6223350254
11
164.8006175101
21
32.6223350254
0
POLYLINE
8
0
62
7
6
CONTINUOUS
66
1
70
0
0
VERTEX
8
0
62
7
6
CONTINUOUS
10
170.8931402220
20
26.0210601991
0
VERTEX
8
0
62
7
6
CONTINUOUS
10
171.4448085430
20
25.8507226301
0
VERTEX
8
0
62
7
6
CONTINUOUS
10
172.0167586865
20
25.7085803695
0
VERTEX
8
0
62
7
6
CONTINUOUS
10
172.6098002759
20
25.5959674582
0
VERTEX
8
0
62
7
6
CONTINUOUS
10
173.2215044411
20
25.5088817734
0
VERTEX
8
0
62
7
6
CONTINUOUS
10
173.8516112406
20
25.4443685582
0
VERTEX
8
0
62
7
6
CONTINUOUS
10
174.4944235117
20
25.4006197556
0
VERTEX
8
0
62
7
6
CONTINUOUS
10
175.1455414388
20
25.3749622793
0
VERTEX
8
0
62
7
6
CONTINUOUS
10
175.8008130391
20
25.3670364593
0
VERTEX
8
0
62
7
6
CONTINUOUS
10
176.4559831684
20
25.3749665872
0
VERTEX
8
0
62
7
6
CONTINUOUS
10
177.1069614947
20
25.4006276919
0
VERTEX
8
0
62
7
6
CONTINUOUS
10
177.7497283394
20
25.4443780807
0
VERTEX
8
0
62
7
6
CONTINUOUS
10
178.3798165978
20
25.5088922096
0
VERTEX
8
0
62
7
6
CONTINUOUS
10
178.9915075224
20
25.5959801417
0
VERTEX
8
0
62
7
6
CONTINUOUS
10
179.5845363634
20
25.7085933635
0
VERTEX
8
0
62
7
6
CONTINUOUS
10
180.1564607471
20
25.8507310711
0
VERTEX
8
0
62
7
6
CONTINUOUS
10
180.7080947982
20
26.0210601991
0
SEQEND
0
POLYLINE
8
0
62
7
6
CONTINUOUS
66
1
70
0
0
VERTEX
8
0
62
7
6
CONTINUOUS
10
165.9856629339
20
26.0210601991
0
VERTEX
8
0
62
7
6
CONTINUOUS
10
166.2658481175
20
25.8501523946
0
VERTEX
8
0
62
7
6
CONTINUOUS
10
166.5437070421
20
25.7102130584
0
VERTEX
8
0
62
7
6
CONTINUOUS
10
166.8209210945
20
25.6035723214
0
VERTEX
8
0
62
7
6
CONTINUOUS
10
167.0924461142
20
25.5232397910
0
VERTEX
8
0
62
7
6
CONTINUOUS
10
167.3542846104
20
25.4641740929
0
VERTEX
8
0
62
7
6
CONTINUOUS
10
167.6049779606
20
25.4228583030
0
VERTEX
8
0
62
7
6
CONTINUOUS
10
167.8405317109
20
25.3947655782
0
VERTEX
8
0
62
7
6
CONTINUOUS
10
168.0645558643
20
25.3778843015
0
VERTEX
8
0
62
7
6
CONTINUOUS
10
168.2781267005
20
25.3687559031
0
VERTEX
8
0
62
7
6
CONTINUOUS
10
168.4848509359
20
25.3671943980
0
VERTEX
8
0
62
7
6
CONTINUOUS
10
168.6880490030
20
25.3715923338
0
VERTEX
8
0
62
7
6
CONTINUOUS
10
168.8896560333
20
25.3827555428
0
VERTEX
8
0
62
7
6
CONTINUOUS
10
169.0931584913
20
25.4006120805
0
VERTEX
8
0
62
7
6
CONTINUOUS
10
169.2972228114
20
25.4261878248
0
VERTEX
8
0
62
7
6
CONTINUOUS
10
169.5019533693
20
25.4601102715
0
VERTEX
8
0
62
7
6
CONTINUOUS
10
169.7065228059
20
25.5035026228
0
VERTEX
8
0
62
7
6
CONTINUOUS
10
169.9103896240
20
25.5573155512
0
VERTEX
8
0
62
7
6
CONTINUOUS
10
170.1128006136
20
25.6226941416
0
VERTEX
8
0
62
7
6
CONTINUOUS
10
170.3131017694
20
25.7007807857
0
VERTEX
8
0
62
7
6
CONTINUOUS
10
170.5104539795
20
25.7925342354
0
VERTEX
8
0
62
7
6
CONTINUOUS
10
170.7036679911
20
25.8994614835
0
VERTEX
8
0
62
7
6
CONTINUOUS
10
170.8931402220
20
26.0210601991
0
SEQEND
0
POLYLINE
8
0
62
7
6
CONTINUOUS
66
1
70
0
0
VERTEX
8
0
62
7
6
CONTINUOUS
10
166.2168640825
20
82.3954608770
0
VERTEX
8
0
62
7
6
CONTINUOUS
10
166.1392780244
20
82.3503192925
0
VERTEX
8
0
62
7
6
CONTINUOUS
10
166.0622255707
20
82.3024375488
0
VERTEX
8
0
62
7
6
CONTINUOUS
10
165.9856629339
20
82.2518493010
0
SEQEND
0
LINE
8
0
62
7
6
CONTINUOUS
10
190.8006175101
20
49.1223350254
11
164.8985568372
21
49.1223350254
0
LINE
8
0
62
7
6
CONTINUOUS
10
140.8006175101
20
49.1223350254
11
146.7026781830
21
49.1223350254
0
POLYLINE
8
0
62
7
6
CONTINUOUS
66
1
70
0
0
VERTEX
8
0
62
7
6
CONTINUOUS
10
180.7080947982
20
26.0210601991
0
VERTEX
8
0
62
7
6
CONTINUOUS
10
180.8985628831
20
25.8988764708
0
VERTEX
8
0
62
7
6
CONTINUOUS
10
181.0928280340
20
25.7914994012
0
VERTEX
8
0
62
7
6
CONTINUOUS
10
181.2912973106
20
25.6994365575
0
VERTEX
8
0
62
7
6
CONTINUOUS
10
181.4927495338
20
25.6211652378
0
VERTEX
8
0
62
7
6
CONTINUOUS
10
181.6963200266
20
25.5557193260
0
VERTEX
8
0
62
7
6
CONTINUOUS
10
181.9013463429
20
25.5019366314
0
VERTEX
8
0
62
7
6
CONTINUOUS
10
182.1070426328
20
25.4586546715
0
VERTEX
8
0
62
7
6
CONTINUOUS
10
182.3129144313
20
25.4249082066
0
VERTEX
8
0
62
7
6
CONTINUOUS
10
182.5181819905
20
25.3995497721
0
VERTEX
8
0
62
7
6
CONTINUOUS
10
182.7229153094
20
25.3819635605
0
VERTEX
8
0
62
7
6
CONTINUOUS
10
182.9258238109
20
25.3711237295
0
VERTEX
8
0
62
7
6
CONTINUOUS
10
183.1302094751
20
25.3671129188
0
VERTEX
8
0
62
7
6
CONTINUOUS
10
183.3378675816
20
25.3691415500
0
VERTEX
8
0
62
7
6
CONTINUOUS
10
183.5520276557
20
25.3788004354
0
VERTEX
8
0
62
7
6
CONTINUOUS
10
183.7761863718
20
25.3962865918
0
VERTEX
8
0
62
7
6
CONTINUOUS
10
184.0113375624
20
25.4249918264
0
VERTEX
8
0
62
7
6
CONTINUOUS
10
184.2609542674
20
25.4669198983
0
VERTEX
8
0
62
7
6
CONTINUOUS
10
184.5210955392
20
25.5264319676
0
VERTEX
8
0
62
7
6
CONTINUOUS
10
184.7902730020
20
25.6069683574
0
VERTEX
8
0
62
7
6
CONTINUOUS
10
185.0646019809
20
25.7132953373
0
VERTEX
8
0
62
7
6
CONTINUOUS
10
185.3391540757
20
25.8520650817
0
VERTEX
8
0
62
7
6
CONTINUOUS
10
185.6155720863
20
26.0210601991
0
SEQEND
0
LINE
8
0
62
7
6
CONTINUOUS
10
140.8006175101
20
58.1223350254
11
140.8006175101
21
49.1223350254
0
LINE
8
0
62
7
6
CONTINUOUS
10
171.8006382794
20
87.1223142582
11
170.8006434717
21
86.1223090664
0
POLYLINE
8
0
62
7
6
CONTINUOUS
66
1
70
0
0
VERTEX
8
0
62
7
6
CONTINUOUS
10
185.3785008166
20
75.8459120502
0
VERTEX
8
0
62
7
6
CONTINUOUS
10
185.4580743822
20
75.8920212592
0
VERTEX
8
0
62
7
6
CONTINUOUS
10
185.5370824310
20
75.9410028465
0
VERTEX
8
0
62
7
6
CONTINUOUS
10
185.6155720863
20
75.9928207498
0
SEQEND
0
LINE
8
0
62
7
6
CONTINUOUS
10
190.8006175101
20
58.1223350254
11
164.8985568372
21
58.1223350254
0
LINE
8
0
62
7
6
CONTINUOUS
10
146.7026781830
20
58.1223350254
11
140.8006175101
21
58.1223350254
0
LINE
8
0
62
7
6
CONTINUOUS
10
164.8006175101
20
32.6223350254
11
164.8006175101
21
32.1223350254
0
LINE
8
0
62
7
6
CONTINUOUS
10
164.8006175101
20
74.6223350254
11
164.8006175101
21
75.1223350254
0
LINE
8
0
62
7
6
CONTINUOUS
10
165.9856629339
20
82.2518493010
11
165.9856629339
21
75.9928207498
0
LINE
8
0
62
7
6
CONTINUOUS
10
165.9856629339
20
26.0210601991
11
165.9856629339
21
32.1223350254
0
LINE
8
0
62
7
6
CONTINUOUS
10
102.8006175101
20
74.6223350254
11
164.8006175101
21
74.6223350254
0
LINE
8
0
62
7
6
CONTINUOUS
10
164.8006175101
20
75.1223350254
11
190.8006175101
21
75.1223350254
0
LINE
8
0
62
7
6
CONTINUOUS
10
170.8006175101
20
49.1223350254
11
170.8006175101
21
58.1223350254
0
LINE
8
0
62
7
6
CONTINUOUS
10
170.8006175101
20
83.1223350254
11
170.8006175101
21
86.1223350254
0
LINE
8
0
62
7
6
CONTINUOUS
10
170.8931402220
20
82.2518493010
11
170.8931402220
21
75.9928207498
0
LINE
8
0
62
7
6
CONTINUOUS
10
170.8931402220
20
26.0210601991
11
170.8931402220
21
32.1223350254
0
LINE
8
0
62
2
6
CONTINUOUS
10
171.6306175101
20
87.1223350254
11
171.6306175101
21
83.1223350254
0
LINE
8
0
62
2
6
CONTINUOUS
10
171.6306175101
20
58.1223350254
11
171.6306175101
21
49.1223350254
0
LINE
8
0
62
7
6
CONTINUOUS
10
182.7965098579
20
83.1223350254
11
168.8047251622
21
83.1223350254
0
POLYLINE
8
0
62
7
6
CONTINUOUS
66
1
70
0
0
VERTEX
8
0
62
7
6
CONTINUOUS
10
170.8931402220
20
75.9928207498
0
VERTEX
8
0
62
7
6
CONTINUOUS
10
171.3469767133
20
75.8527540232
0
VERTEX
8
0
62
7
6
CONTINUOUS
10
171.8109056228
20
75.7326488619
0
VERTEX
8
0
62
7
6
CONTINUOUS
10
172.2840326019
20
75.6335538785
0
VERTEX
8
0
62
7
6
CONTINUOUS
10
172.7690406962
20
75.5523232354
0
VERTEX
8
0
62
7
6
CONTINUOUS
10
173.2720945213
20
75.4862977621
0
VERTEX
8
0
62
7
6
CONTINUOUS
10
173.7818550198
20
75.4350660699
0
VERTEX
8
0
62
7
6
CONTINUOUS
10
174.2884264041
20
75.3979471500
0
VERTEX
8
0
62
7
6
CONTINUOUS
10
174.7936434806
20
75.3730906920
0
VERTEX
8
0
62
7
6
CONTINUOUS
10
175.2952542665
20
75.3584655040
0
VERTEX
8
0
62
7
6
CONTINUOUS
10
175.7956233425
20
75.3539332221
0
VERTEX
8
0
62
7
6
CONTINUOUS
10
176.2958944796
20
75.3582723855
0
VERTEX
8
0
62
7
6
CONTINUOUS
10
176.7974781242
20
75.3727010923
0
VERTEX
8
0
62
7
6
CONTINUOUS
10
177.3028764077
20
75.3973389013
0
VERTEX
8
0
62
7
6
CONTINUOUS
10
177.8099580457
20
75.4342599700
0
VERTEX
8
0
62
7
6
CONTINUOUS
10
178.3207797839
20
75.4853352005
0
VERTEX
8
0
62
7
6
CONTINUOUS
10
178.8252796631
20
75.5512939177
0
VERTEX
8
0
62
7
6
CONTINUOUS
10
179.3121329092
20
75.6326156711
0
VERTEX
8
0
62
7
6
CONTINUOUS
10
179.7871847136
20
75.7319206887
0
VERTEX
8
0
62
7
6
CONTINUOUS
10
180.2527641266
20
75.8523365580
0
VERTEX
8
0
62
7
6
CONTINUOUS
10
180.7080947982
20
75.9928207498
0
SEQEND
0
POLYLINE
8
0
62
7
6
CONTINUOUS
66
1
70
0
0
VERTEX
8
0
62
7
6
CONTINUOUS
10
166.1428814353
20
75.8921885238
0
VERTEX
8
0
62
7
6
CONTINUOUS
10
166.2223175436
20
75.8461456169
0
VERTEX
8
0
62
7
6
CONTINUOUS
10
166.3021783017
20
75.8028569844
0
VERTEX
8
0
62
7
6
CONTINUOUS
10
166.3823592668
20
75.7622609645
0
VERTEX
8
0
62
7
6
CONTINUOUS
10
166.4627940012
20
75.7242589541
0
VERTEX
8
0
62
7
6
CONTINUOUS
10
166.5433016387
20
75.6887991814
0
VERTEX
8
0
62
7
6
CONTINUOUS
10
166.6241210228
20
75.6556794914
0
VERTEX
8
0
62
7
6
CONTINUOUS
10
166.7051634145
20
75.6247798122
0
VERTEX
8
0
62
7
6
CONTINUOUS
10
166.7872306963
20
75.5958021231
0
VERTEX
8
0
62
7
6
CONTINUOUS
10
166.8708746751
20
75.5684411816
0
VERTEX
8
0
62
7
6
CONTINUOUS
10
166.9567568393
20
75.5425985809
0
VERTEX
8
0
62
7
6
CONTINUOUS
10
167.0455095889
20
75.5180698155
0
VERTEX
8
0
62
7
6
CONTINUOUS
10
167.1377719959
20
75.4948679391
0
VERTEX
8
0
62
7
6
CONTINUOUS
10
167.2341805579
20
75.4729026032
0
VERTEX
8
0
62
7
6
CONTINUOUS
10
167.3353753974
20
75.4522795085
0
VERTEX
8
0
62
7
6
CONTINUOUS
10
167.4419916718
20
75.4330092278
0
VERTEX
8
0
62
7
6
CONTINUOUS
10
167.5546807746
20
75.4152867956
0
VERTEX
8
0
62
7
6
CONTINUOUS
10
167.6741118382
20
75.3992097389
0
VERTEX
8
0
62
7
6
CONTINUOUS
10
167.8008668028
20
75.3850811530
0
VERTEX
8
0
62
7
6
CONTINUOUS
10
167.9355592030
20
75.3730898224
0
VERTEX
8
0
62
7
6
CONTINUOUS
10
168.0787633889
20
75.3636762069
0
VERTEX
8
0
62
7
6
CONTINUOUS
10
168.2311360309
20
75.3571138755
0
VERTEX
8
0
62
7
6
CONTINUOUS
10
168.3930437027
20
75.3540922853
0
VERTEX
8
0
62
7
6
CONTINUOUS
10
168.5653258125
20
75.3550502592
0
VERTEX
8
0
62
7
6
CONTINUOUS
10
168.7472205283
20
75.3610132696
0
VERTEX
8
0
62
7
6
CONTINUOUS
10
168.9385362348
20
75.3726602738
0
VERTEX
8
0
62
7
6
CONTINUOUS
10
169.1384016906
20
75.3914696399
0
VERTEX
8
0
62
7
6
CONTINUOUS
10
169.3464545798
20
75.4185134459
0
VERTEX
8
0
62
7
6
CONTINUOUS
10
169.5609765106
20
75.4556895188
0
VERTEX
8
0
62
7
6
CONTINUOUS
10
169.7810458967
20
75.5046950687
0
VERTEX
8
0
62
7
6
CONTINUOUS
10
170.0039100059
20
75.5672040235
0
VERTEX
8
0
62
7
6
CONTINUOUS
10
170.2262910507
20
75.6444616381
0
VERTEX
8
0
62
7
6
CONTINUOUS
10
170.4488426101
20
75.7394511408
0
VERTEX
8
0
62
7
6
CONTINUOUS
10
170.6710707900
20
75.8559956338
0
VERTEX
8
0
62
7
6
CONTINUOUS
10
170.8931402220
20
75.9928207498
0
SEQEND
0
POLYLINE
8
0
62
7
6
CONTINUOUS
66
1
70
0
0
VERTEX
8
0
62
7
6
CONTINUOUS
10
165.9856629339
20
75.9928207498
0
VERTEX
8
0
62
7
6
CONTINUOUS
10
166.0640123890
20
75.9410920510
0
VERTEX
8
0
62
7
6
CONTINUOUS
10
166.1428814353
20
75.8921885238
0
SEQEND
0
LINE
8
0
62
7
6
CONTINUOUS
10
179.9706175101
20
87.1223350254
11
171.6306175101
21
87.1223350254
0
LINE
8
0
62
7
6
CONTINUOUS
10
170.8006175101
20
86.1223350254
11
180.8006175101
21
86.1223350254
0
LINE
8
0
62
2
6
CONTINUOUS
10
179.9706175101
20
87.1223350254
11
179.9706175101
21
83.1223350254
0
LINE
8
0
62
2
6
CONTINUOUS
10
179.9706175101
20
58.1223350254
11
179.9706175101
21
49.1223350254
0
LINE
8
0
62
7
6
CONTINUOUS
10
180.7080947982
20
82.2518493010
11
180.7080947982
21
75.9928207498
0
LINE
8
0
62
7
6
CONTINUOUS
10
180.7080947982
20
26.0210601991
11
180.7080947982
21
32.1223350254
0
LINE
8
0
62
7
6
CONTINUOUS
10
180.8006175101
20
49.1223350254
11
180.8006175101
21
58.1223350254
0
LINE
8
0
62
7
6
CONTINUOUS
10
180.8006175101
20
83.1223350254
11
180.8006175101
21
86.1223350254
0
LINE
8
0
62
7
6
CONTINUOUS
10
182.8006175101
20
75.1223350254
11
182.8006175101
21
58.1223350254
0
LINE
8
0
62
7
6
CONTINUOUS
10
182.8006175101
20
49.1223350254
11
182.8006175101
21
32.1223350254
0
POLYLINE
8
0
62
7
6
CONTINUOUS
66
1
70
0
0
VERTEX
8
0
62
7
6
CONTINUOUS
10
180.7080947982
20
82.2518493010
0
VERTEX
8
0
62
7
6
CONTINUOUS
10
180.2542737986
20
82.3920057180
0
VERTEX
8
0
62
7
6
CONTINUOUS
10
179.7888490121
20
82.5123641065
0
VERTEX
8
0
62
7
6
CONTINUOUS
10
179.3119944437
20
82.6120037360
0
VERTEX
8
0
62
7
6
CONTINUOUS
10
178.8231880781
20
82.6936867986
0
VERTEX
8
0
62
7
6
CONTINUOUS
10
178.3186025889
20
82.7596110819
0
VERTEX
8
0
62
7
6
CONTINUOUS
10
177.8083279142
20
82.8105490692
0
VERTEX
8
0
62
7
6
CONTINUOUS
10
177.3018929904
20
82.8473969065
0
VERTEX
8
0
62
7
6
CONTINUOUS
10
176.7971534955
20
82.8719813945
0
VERTEX
8
0
62
7
6
CONTINUOUS
10
176.2958952475
20
82.8863940691
0
VERTEX
8
0
62
7
6
CONTINUOUS
10
175.7958567623
20
82.8907368709
0
VERTEX
8
0
62
7
6
CONTINUOUS
10
175.2957252217
20
82.8862100932
0
VERTEX
8
0
62
7
6
CONTINUOUS
10
174.7944404453
20
82.8716102130
0
VERTEX
8
0
62
7
6
CONTINUOUS
10
174.2898700760
20
82.8468173455
0
VERTEX
8
0
62
7
6
CONTINUOUS
10
173.7839178259
20
82.8097808686
0
VERTEX
8
0
62
7
6
CONTINUOUS
10
173.2746534421
20
82.7586935840
0
VERTEX
8
0
62
7
6
CONTINUOUS
10
172.7714464612
20
82.6927053346
0
VERTEX
8
0
62
7
6
CONTINUOUS
10
172.2844004798
20
82.6111082676
0
VERTEX
8
0
62
7
6
CONTINUOUS
10
171.8093830638
20
82.5116682712
0
VERTEX
8
0
62
7
6
CONTINUOUS
10
171.3455340734
20
82.3916065244
0
VERTEX
8
0
62
7
6
CONTINUOUS
10
170.8931402220
20
82.2518493010
0
SEQEND
0
POLYLINE
8
0
62
7
6
CONTINUOUS
66
1
70
0
0
VERTEX
8
0
62
7
6
CONTINUOUS
10
170.8931402220
20
82.2518493010
0
VERTEX
8
0
62
7
6
CONTINUOUS
10
170.6641983396
20
82.3924509111
0
VERTEX
8
0
62
7
6
CONTINUOUS
10
170.4348693667
20
82.5117375652
0
VERTEX
8
0
62
7
6
CONTINUOUS
10
170.2045949900
20
82.6084211252
0
VERTEX
8
0
62
7
6
CONTINUOUS
10
169.9750501492
20
82.6863660048
0
VERTEX
8
0
62
7
6
CONTINUOUS
10
169.7467058097
20
82.7484373616
0
VERTEX
8
0
62
7
6
CONTINUOUS
10
169.5226155816
20
82.7963448253
0
VERTEX
8
0
62
7
6
CONTINUOUS
10
169.3058265261
20
82.8321431593
0
VERTEX
8
0
62
7
6
CONTINUOUS
10
169.0968292547
20
82.8576621198
0
VERTEX
8
0
62
7
6
CONTINUOUS
10
168.8971038836
20
82.8750656371
0
VERTEX
8
0
62
7
6
CONTINUOUS
10
168.7067289594
20
82.8854059518
0
VERTEX
8
0
62
7
6
CONTINUOUS
10
168.5263014661
20
82.8902443585
0
VERTEX
8
0
62
7
6
CONTINUOUS
10
168.3557462085
20
82.8902176258
0
VERTEX
8
0
62
7
6
CONTINUOUS
10
168.1954456870
20
82.8863477092
0
VERTEX
8
0
62
7
6
CONTINUOUS
10
168.0446237997
20
82.8790403436
0
VERTEX
8
0
62
7
6
CONTINUOUS
10
167.9028312510
20
82.8689521583
0
VERTEX
8
0
62
7
6
CONTINUOUS
10
167.7694701221
20
82.8563524244
0
VERTEX
8
0
62
7
6
CONTINUOUS
10
167.6439913202
20
82.8416656042
0
VERTEX
8
0
62
7
6
CONTINUOUS
10
167.5257990716
20
82.8250827524
0
VERTEX
8
0
62
7
6
CONTINUOUS
10
167.4143327248
20
82.8069024729
0
VERTEX
8
0
62
7
6
CONTINUOUS
10
167.3089378205
20
82.7872265803
0
VERTEX
8
0
62
7
6
CONTINUOUS
10
167.2089798820
20
82.7662506874
0
VERTEX
8
0
62
7
6
CONTINUOUS
10
167.1138383101
20
82.7439920034
0
VERTEX
8
0
62
7
6
CONTINUOUS
10
167.0228885127
20
82.7205599923
0
VERTEX
8
0
62
7
6
CONTINUOUS
10
166.9355079916
20
82.6958735029
0
VERTEX
8
0
62
7
6
CONTINUOUS
10
166.8510719679
20
82.6699515607
0
VERTEX
8
0
62
7
6
CONTINUOUS
10
166.7689626907
20
82.6426030995
0
VERTEX
8
0
62
7
6
CONTINUOUS
10
166.6885429946
20
82.6137429194
0
VERTEX
8
0
62
7
6
CONTINUOUS
10
166.6092463440
20
82.5830724471
0
VERTEX
8
0
62
7
6
CONTINUOUS
10
166.5302856679
20
82.5503101883
0
VERTEX
8
0
62
7
6
CONTINUOUS
10
166.4516854071
20
82.5153197063
0
VERTEX
8
0
62
7
6
CONTINUOUS
10
166.3731447335
20
82.4778846890
0
VERTEX
8
0
62
7
6
CONTINUOUS
10
166.2948523823
20
82.4379632674
0
VERTEX
8
0
62
7
6
CONTINUOUS
10
166.2168640825
20
82.3954608770
0
SEQEND
0
POLYLINE
8
0
62
7
6
CONTINUOUS
66
1
70
0
0
VERTEX
8
0
62
7
6
CONTINUOUS
10
180.7080947982
20
75.9928207498
0
VERTEX
8
0
62
7
6
CONTINUOUS
10
180.9292182887
20
75.8565170620
0
VERTEX
8
0
62
7
6
CONTINUOUS
10
181.1504741424
20
75.7403522316
0
VERTEX
8
0
62
7
6
CONTINUOUS
10
181.3719557690
20
75.6456025729
0
VERTEX
8
0
62
7
6
CONTINUOUS
10
181.5933829391
20
75.5684391428
0
VERTEX
8
0
62
7
6
CONTINUOUS
10
181.8156291931
20
75.5058448997
0
VERTEX
8
0
62
7
6
CONTINUOUS
10
182.0353266311
20
75.4566604538
0
VERTEX
8
0
62
7
6
CONTINUOUS
10
182.2497245621
20
75.4192822426
0
VERTEX
8
0
62
7
6
CONTINUOUS
10
182.4578448996
20
75.3920257434
0
VERTEX
8
0
62
7
6
CONTINUOUS
10
182.6579384108
20
75.3730306811
0
VERTEX
8
0
62
7
6
CONTINUOUS
10
182.8495678435
20
75.3612207499
0
VERTEX
8
0
62
7
6
CONTINUOUS
10
183.0317833539
20
75.3551294959
0
VERTEX
8
0
62
7
6
CONTINUOUS
10
183.2043734827
20
75.3540670883
0
VERTEX
8
0
62
7
6
CONTINUOUS
10
183.3665206312
20
75.3570027703
0
VERTEX
8
0
62
7
6
CONTINUOUS
10
183.5190933737
20
75.3634928655
0
VERTEX
8
0
62
7
6
CONTINUOUS
10
183.6624652777
20
75.3728412680
0
VERTEX
8
0
62
7
6
CONTINUOUS
10
183.7973037648
20
75.3847745098
0
VERTEX
8
0
62
7
6
CONTINUOUS
10
183.9241929643
20
75.3988493310
0
VERTEX
8
0
62
7
6
CONTINUOUS
10
184.0437563202
20
75.4148790021
0
VERTEX
8
0
62
7
6
CONTINUOUS
10
184.1565900207
20
75.4325613036
0
VERTEX
8
0
62
7
6
CONTINUOUS
10
184.2633599636
20
75.4517994455
0
VERTEX
8
0
62
7
6
CONTINUOUS
10
184.3647206315
20
75.4723995786
0
VERTEX
8
0
62
7
6
CONTINUOUS
10
184.4613024582
20
75.4943506619
0
VERTEX
8
0
62
7
6
CONTINUOUS
10
184.5537428475
20
75.5175472006
0
VERTEX
8
0
62
7
6
CONTINUOUS
10
184.6426753715
20
75.5420787072
0
VERTEX
8
0
62
7
6
CONTINUOUS
10
184.7287361014
20
75.5679317565
0
VERTEX
8
0
62
7
6
CONTINUOUS
10
184.8125549441
20
75.5953096671
0
VERTEX
8
0
62
7
6
CONTINUOUS
10
184.8947901084
20
75.6243097913
0
VERTEX
8
0
62
7
6
CONTINUOUS
10
184.9759927593
20
75.6552366038
0
VERTEX
8
0
62
7
6
CONTINUOUS
10
185.0569616758
20
75.6883863985
0
VERTEX
8
0
62
7
6
CONTINUOUS
10
185.1376122253
20
75.7238810713
0
VERTEX
8
0
62
7
6
CONTINUOUS
10
185.2181856765
20
75.7619234419
0
VERTEX
8
0
62
7
6
CONTINUOUS
10
185.2985031042
20
75.8025670325
0
VERTEX
8
0
62
7
6
CONTINUOUS
10
185.3785008166
20
75.8459120502
0
SEQEND
0
LINE
8
0
62
7
6
CONTINUOUS
10
185.6155720863
20
82.2518493010
11
185.6155720863
21
75.9928207498
0
LINE
8
0
62
7
6
CONTINUOUS
10
185.6155720863
20
26.0210601991
11
185.6155720863
21
32.1223350254
0
POLYLINE
8
0
62
7
6
CONTINUOUS
66
1
70
0
0
VERTEX
8
0
62
7
6
CONTINUOUS
10
185.4616831050
20
82.3504838698
0
VERTEX
8
0
62
7
6
CONTINUOUS
10
185.3839621504
20
82.3956910863
0
VERTEX
8
0
62
7
6
CONTINUOUS
10
185.3058393563
20
82.4382495886
0
VERTEX
8
0
62
7
6
CONTINUOUS
10
185.2274130025
20
82.4782186079
0
VERTEX
8
0
62
7
6
CONTINUOUS
10
185.1487356596
20
82.5156944437
0
VERTEX
8
0
62
7
6
CONTINUOUS
10
185.0699934648
20
82.5507209496
0
VERTEX
8
0
62
7
6
CONTINUOUS
10
184.9908839982
20
82.5835146944
0
VERTEX
8
0
62
7
6
CONTINUOUS
10
184.9114282077
20
82.6142135977
0
VERTEX
8
0
62
7
6
CONTINUOUS
10
184.8308421262
20
82.6430974603
0
VERTEX
8
0
62
7
6
CONTINUOUS
10
184.7485600992
20
82.6704639919
0
VERTEX
8
0
62
7
6
CONTINUOUS
10
184.6639481360
20
82.6963973846
0
VERTEX
8
0
62
7
6
CONTINUOUS
10
184.5763909916
20
82.7210875232
0
VERTEX
8
0
62
7
6
CONTINUOUS
10
184.4852667752
20
82.7445150401
0
VERTEX
8
0
62
7
6
CONTINUOUS
10
184.3899558314
20
82.7667602754
0
VERTEX
8
0
62
7
6
CONTINUOUS
10
184.2898362097
20
82.7877139919
0
VERTEX
8
0
62
7
6
CONTINUOUS
10
184.1842916324
20
82.8073585540
0
VERTEX
8
0
62
7
6
CONTINUOUS
10
184.0726854257
20
82.8254994972
0
VERTEX
8
0
62
7
6
CONTINUOUS
10
183.9543670271
20
82.8420356298
0
VERTEX
8
0
62
7
6
CONTINUOUS
10
183.8287618247
20
82.8566694973
0
VERTEX
8
0
62
7
6
CONTINUOUS
10
183.6952646991
20
82.8692122051
0
VERTEX
8
0
62
7
6
CONTINUOUS
10
183.5533166108
20
82.8792368825
0
VERTEX
8
0
62
7
6
CONTINUOUS
10
183.4023087752
20
82.8864746059
0
VERTEX
8
0
62
7
6
CONTINUOUS
10
183.2417853082
20
82.8902626402
0
VERTEX
8
0
62
7
6
CONTINUOUS
10
183.0709444589
20
82.8901912550
0
VERTEX
8
0
62
7
6
CONTINUOUS
10
182.8902150420
20
82.8852325131
0
VERTEX
8
0
62
7
6
CONTINUOUS
10
182.6995340741
20
82.8747394023
0
VERTEX
8
0
62
7
6
CONTINUOUS
10
182.4995751988
20
82.8571594173
0
VERTEX
8
0
62
7
6
CONTINUOUS
10
182.2904848824
20
82.8314341980
0
VERTEX
8
0
62
7
6
CONTINUOUS
10
182.0737816736
20
82.7954342965
0
VERTEX
8
0
62
7
6
CONTINUOUS
10
181.8500134650
20
82.7473375631
0
VERTEX
8
0
62
7
6
CONTINUOUS
10
181.6222386906
20
82.6851637437
0
VERTEX
8
0
62
7
6
CONTINUOUS
10
181.3936128437
20
82.6072867193
0
VERTEX
8
0
62
7
6
CONTINUOUS
10
181.1643926394
20
82.5108219348
0
VERTEX
8
0
62
7
6
CONTINUOUS
10
180.9360501926
20
82.3919144710
0
VERTEX
8
0
62
7
6
CONTINUOUS
10
180.7080947982
20
82.2518493010
0
SEQEND
0
POLYLINE
8
0
62
7
6
CONTINUOUS
66
1
70
0
0
VERTEX
8
0
62
7
6
CONTINUOUS
10
185.6155720863
20
82.2518493010
0
VERTEX
8
0
62
7
6
CONTINUOUS
10
185.5388719415
20
82.3025251916
0
VERTEX
8
0
62
7
6
CONTINUOUS
10
185.4616831050
20
82.3504838698
0
SEQEND
0
LINE
8
0
62
7
6
CONTINUOUS
10
190.8006175101
20
75.1223350254
11
190.8006175101
21
58.1223350254
0
LINE
8
0
62
7
6
CONTINUOUS
10
190.8006175101
20
49.1223350254
11
190.8006175101
21
32.1223350254
0
LINE
8
0
62
7
6
CONTINUOUS
10
179.8005967402
20
87.1223142587
11
180.8005915477
21
86.1223090671
0
LINE
8
0
62
7
6
CONTINUOUS
10
67.7525773196
20
147.1989115720
11
24.7525773196
21
147.1989115720
0
LINE
8
0
62
7
6
CONTINUOUS
10
50.7525773196
20
150.1989115720
11
41.7525773196
21
150.1989115720
0
LINE
8
0
62
7
6
CONTINUOUS
10
24.7525773196
20
155.1989115720
11
67.7525773196
21
155.1989115720
0
LINE
8
0
62
7
6
CONTINUOUS
10
17.7525773196
20
185.6536862268
11
17.7525773196
21
171.7441369173
0
LINE
8
0
62
7
6
CONTINUOUS
10
75.5209796738
20
170.1989115720
11
67.9841749557
21
170.1989115720
0
LINE
8
0
62
7
6
CONTINUOUS
10
17.9972787536
20
170.1989115720
11
24.7525773196
21
170.1989115720
0
LINE
8
0
62
7
6
CONTINUOUS
10
24.7525773196
20
147.1989115720
11
24.7525773196
21
210.1989115720
0
POLYLINE
8
0
62
7
6
CONTINUOUS
66
1
70
0
0
VERTEX
8
0
62
7
6
CONTINUOUS
10
18.6513024933
20
187.1989115720
0
VERTEX
8
0
62
7
6
CONTINUOUS
10
18.5291187651
20
186.8690111718
0
VERTEX
8
0
62
7
6
CONTINUOUS
10
18.4217416954
20
186.5325340602
0
VERTEX
8
0
62
7
6
CONTINUOUS
10
18.3296788517
20
186.1887751895
0
VERTEX
8
0
62
7
6
CONTINUOUS
10
18.2514075320
20
185.8398497035
0
VERTEX
8
0
62
7
6
CONTINUOUS
10
18.1859616202
20
185.4872552671
0
VERTEX
8
0
62
7
6
CONTINUOUS
10
18.1321789256
20
185.1321392703
0
VERTEX
8
0
62
7
6
CONTINUOUS
10
18.0888969657
20
184.7758628454
0
VERTEX
8
0
62
7
6
CONTINUOUS
10
18.0551505008
20
184.4192824305
0
VERTEX
8
0
62
7
6
CONTINUOUS
10
18.0297920663
20
184.0637485888
0
VERTEX
8
0
62
7
6
CONTINUOUS
10
18.0122058547
20
183.7091400784
0
VERTEX
8
0
62
7
6
CONTINUOUS
10
18.0013660237
20
183.3576922446
0
VERTEX
8
0
62
7
6
CONTINUOUS
10
17.9973552130
20
183.0036858899
0
VERTEX
8
0
62
7
6
CONTINUOUS
10
17.9993838442
20
182.6440114989
0
VERTEX
8
0
62
7
6
CONTINUOUS
10
18.0090427296
20
182.2730753696
0
VERTEX
8
0
62
7
6
CONTINUOUS
10
18.0265288860
20
181.8848210843
0
VERTEX
8
0
62
7
6
CONTINUOUS
10
18.0552341206
20
181.4775272746
0
VERTEX
8
0
62
7
6
CONTINUOUS
10
18.0971621925
20
181.0451784593
0
VERTEX
8
0
62
7
6
CONTINUOUS
10
18.1566742618
20
180.5946005594
0
VERTEX
8
0
62
7
6
CONTINUOUS
10
18.2372106516
20
180.1283715175
0
VERTEX
8
0
62
7
6
CONTINUOUS
10
18.3435376315
20
179.6532197880
0
VERTEX
8
0
62
7
6
CONTINUOUS
10
18.4823073759
20
179.1776816106
0
VERTEX
8
0
62
7
6
CONTINUOUS
10
18.6513024933
20
178.6989115720
0
SEQEND
0
LINE
8
0
62
7
6
CONTINUOUS
10
41.7525773196
20
173.6989115720
11
50.7525773196
21
173.6989115720
0
LINE
8
0
62
7
6
CONTINUOUS
10
75.7525773196
20
173.6989115720
11
78.7525771635
21
173.6989115720
0
LINE
8
0
62
2
6
CONTINUOUS
10
79.7525773196
20
174.5289115720
11
75.7525773196
21
174.5289115720
0
LINE
8
0
62
2
6
CONTINUOUS
10
50.7525773196
20
174.5289115720
11
41.7525773196
21
174.5289115720
0
LINE
8
0
62
7
6
CONTINUOUS
10
25.2525773196
20
210.1989115720
11
25.2525773196
21
231.1989115720
0
POLYLINE
8
0
62
7
6
CONTINUOUS
66
1
70
0
0
VERTEX
8
0
62
7
6
CONTINUOUS
10
18.6513024933
20
178.6989115720
0
VERTEX
8
0
62
7
6
CONTINUOUS
10
18.4803946888
20
178.2136165984
0
VERTEX
8
0
62
7
6
CONTINUOUS
10
18.3404553527
20
177.7323508236
0
VERTEX
8
0
62
7
6
CONTINUOUS
10
18.2338146156
20
177.2522020003
0
VERTEX
8
0
62
7
6
CONTINUOUS
10
18.1534820852
20
176.7819068707
0
VERTEX
8
0
62
7
6
CONTINUOUS
10
18.0944163871
20
176.3283892918
0
VERTEX
8
0
62
7
6
CONTINUOUS
10
18.0531005972
20
175.8941756722
0
VERTEX
8
0
62
7
6
CONTINUOUS
10
18.0250078724
20
175.4861846088
0
VERTEX
8
0
62
7
6
CONTINUOUS
10
18.0081265957
20
175.0981633930
0
VERTEX
8
0
62
7
6
CONTINUOUS
10
17.9989981973
20
174.7282478537
0
VERTEX
8
0
62
7
6
CONTINUOUS
10
17.9974366922
20
174.3701909747
0
VERTEX
8
0
62
7
6
CONTINUOUS
10
18.0018346280
20
174.0182415986
0
VERTEX
8
0
62
7
6
CONTINUOUS
10
18.0129978370
20
173.6690479789
0
VERTEX
8
0
62
7
6
CONTINUOUS
10
18.0308543747
20
173.3165713822
0
VERTEX
8
0
62
7
6
CONTINUOUS
10
18.0564301190
20
172.9631216118
0
VERTEX
8
0
62
7
6
CONTINUOUS
10
18.0903525657
20
172.6085178837
0
VERTEX
8
0
62
7
6
CONTINUOUS
10
18.1337449170
20
172.2541932258
0
VERTEX
8
0
62
7
6
CONTINUOUS
10
18.1875578454
20
171.9010855388
0
VERTEX
8
0
62
7
6
CONTINUOUS
10
18.2529364358
20
171.5504994209
0
VERTEX
8
0
62
7
6
CONTINUOUS
10
18.3310230799
20
171.2035676423
0
VERTEX
8
0
62
7
6
CONTINUOUS
10
18.4227765296
20
170.8617435874
0
VERTEX
8
0
62
7
6
CONTINUOUS
10
18.5297037777
20
170.5270871024
0
VERTEX
8
0
62
7
6
CONTINUOUS
10
18.6513024933
20
170.1989115720
0
SEQEND
0
LINE
8
0
62
7
6
CONTINUOUS
10
74.8820915952
20
178.6989115720
11
68.6230630440
21
178.6989115720
0
LINE
8
0
62
7
6
CONTINUOUS
10
18.6513024933
20
178.6989115720
11
24.7525773196
21
178.6989115720
0
LINE
8
0
62
2
6
CONTINUOUS
10
79.7525773196
20
182.8689115720
11
75.7525773196
21
182.8689115720
0
LINE
8
0
62
2
6
CONTINUOUS
10
50.7525773196
20
182.8689115720
11
41.7525773196
21
182.8689115720
0
LINE
8
0
62
7
6
CONTINUOUS
10
41.7525773196
20
183.6989115720
11
50.7525773196
21
183.6989115720
0
LINE
8
0
62
7
6
CONTINUOUS
10
75.7525773196
20
183.6989115720
11
78.7525771635
21
183.6989115720
0
LINE
8
0
62
7
6
CONTINUOUS
10
17.9972787536
20
187.1989115720
11
24.7525773196
21
187.1989115720
0
LINE
8
0
62
7
6
CONTINUOUS
10
67.9841749557
20
187.1989115720
11
75.5209796738
21
187.1989115720
0
LINE
8
0
62
7
6
CONTINUOUS
10
40.7525773196
20
241.6989115720
11
40.7525773196
21
221.6989115720
0
LINE
8
0
62
7
6
CONTINUOUS
10
41.7525773196
20
147.1989115720
11
41.7525773196
21
210.1989115720
0
LINE
8
0
62
7
6
CONTINUOUS
10
50.7525773196
20
147.1989115720
11
50.7525773196
21
210.1989115720
0
LINE
8
0
62
7
6
CONTINUOUS
10
51.7525773196
20
221.6989115720
11
51.7525773196
21
241.6989115720
0
LINE
8
0
62
7
6
CONTINUOUS
10
24.7525773196
20
202.1989115720
11
41.7525773196
21
202.1989115720
0
LINE
8
0
62
7
6
CONTINUOUS
10
50.7525773196
20
202.1989115720
11
67.7525773196
21
202.1989115720
0
LINE
8
0
62
7
6
CONTINUOUS
10
50.7525773196
20
207.1989115720
11
41.7525773196
21
207.1989115720
0
LINE
8
0
62
7
6
CONTINUOUS
10
67.7525773196
20
210.1989115720
11
24.7525773196
21
210.1989115720
0
LINE
8
0
62
7
6
CONTINUOUS
10
79.7525566131
20
182.6988907420
11
78.7525512814
21
183.6988856896
0
LINE
8
0
62
7
6
CONTINUOUS
10
67.2525773196
20
215.1989115720
11
25.2525773196
21
215.1989115720
0
LINE
8
0
62
7
6
CONTINUOUS
10
67.2525773196
20
210.1989115720
11
67.2525773196
21
231.1989115720
0
LINE
8
0
62
7
6
CONTINUOUS
10
67.7525773196
20
210.1989115720
11
67.7525773196
21
147.1989115720
0
POLYLINE
8
0
62
7
6
CONTINUOUS
66
1
70
0
0
VERTEX
8
0
62
7
6
CONTINUOUS
10
68.6230630440
20
187.1989115720
0
VERTEX
8
0
62
7
6
CONTINUOUS
10
68.4867593562
20
186.8159144516
0
VERTEX
8
0
62
7
6
CONTINUOUS
10
68.3705945258
20
186.4326880716
0
VERTEX
8
0
62
7
6
CONTINUOUS
10
68.2758448671
20
186.0490706414
0
VERTEX
8
0
62
7
6
CONTINUOUS
10
68.1986814370
20
185.6655475327
0
VERTEX
8
0
62
7
6
CONTINUOUS
10
68.1360871939
20
185.2806057289
0
VERTEX
8
0
62
7
6
CONTINUOUS
10
68.0869027480
20
184.9000786040
0
VERTEX
8
0
62
7
6
CONTINUOUS
10
68.0495245368
20
184.5287304945
0
VERTEX
8
0
62
7
6
CONTINUOUS
10
68.0222680376
20
184.1682554959
0
VERTEX
8
0
62
7
6
CONTINUOUS
10
68.0032729753
20
183.8216833681
0
VERTEX
8
0
62
7
6
CONTINUOUS
10
67.9914630441
20
183.4897714546
0
VERTEX
8
0
62
7
6
CONTINUOUS
10
67.9853717901
20
183.1741649326
0
VERTEX
8
0
62
7
6
CONTINUOUS
10
67.9843093825
20
182.8752300606
0
VERTEX
8
0
62
7
6
CONTINUOUS
10
67.9872450645
20
182.5943829610
0
VERTEX
8
0
62
7
6
CONTINUOUS
10
67.9937351597
20
182.3301192192
0
VERTEX
8
0
62
7
6
CONTINUOUS
10
68.0030835622
20
182.0817917970
0
VERTEX
8
0
62
7
6
CONTINUOUS
10
68.0150168040
20
181.8482446866
0
VERTEX
8
0
62
7
6
CONTINUOUS
10
68.0290916252
20
181.6284661463
0
VERTEX
8
0
62
7
6
CONTINUOUS
10
68.0451212963
20
181.4213763390
0
VERTEX
8
0
62
7
6
CONTINUOUS
10
68.0628035978
20
181.2259426369
0
VERTEX
8
0
62
7
6
CONTINUOUS
10
68.0820417398
20
181.0410116712
0
VERTEX
8
0
62
7
6
CONTINUOUS
10
68.1026418728
20
180.8654498444
0
VERTEX
8
0
62
7
6
CONTINUOUS
10
68.1245929561
20
180.6981652136
0
VERTEX
8
0
62
7
6
CONTINUOUS
10
68.1477894948
20
180.5380537626
0
VERTEX
8
0
62
7
6
CONTINUOUS
10
68.1723210014
20
180.3840181126
0
VERTEX
8
0
62
7
6
CONTINUOUS
10
68.1981740507
20
180.2349565558
0
VERTEX
8
0
62
7
6
CONTINUOUS
10
68.2255519613
20
180.0897780617
0
VERTEX
8
0
62
7
6
CONTINUOUS
10
68.2545520855
20
179.9473425790
0
VERTEX
8
0
62
7
6
CONTINUOUS
10
68.2854788981
20
179.8066954618
0
VERTEX
8
0
62
7
6
CONTINUOUS
10
68.3186286927
20
179.6664531846
0
VERTEX
8
0
62
7
6
CONTINUOUS
10
68.3541233655
20
179.5267623353
0
VERTEX
8
0
62
7
6
CONTINUOUS
10
68.3921657361
20
179.3872050241
0
VERTEX
8
0
62
7
6
CONTINUOUS
10
68.4328093267
20
179.2480911585
0
VERTEX
8
0
62
7
6
CONTINUOUS
10
68.4761543444
20
179.1095310561
0
VERTEX
8
0
62
7
6
CONTINUOUS
10
68.5222635534
20
178.9717055976
0
VERTEX
8
0
62
7
6
CONTINUOUS
10
68.5712451407
20
178.8348596429
0
VERTEX
8
0
62
7
6
CONTINUOUS
10
68.6230630440
20
178.6989115720
0
SEQEND
0
LINE
8
0
62
7
6
CONTINUOUS
10
75.7525773196
20
171.7030192242
11
75.7525773196
21
185.6948039199
0
POLYLINE
8
0
62
7
6
CONTINUOUS
66
1
70
0
0
VERTEX
8
0
62
7
6
CONTINUOUS
10
68.6230630440
20
178.6989115720
0
VERTEX
8
0
62
7
6
CONTINUOUS
10
68.5713343452
20
178.5632063350
0
VERTEX
8
0
62
7
6
CONTINUOUS
10
68.5224308180
20
178.4266011396
0
VERTEX
8
0
62
7
6
CONTINUOUS
10
68.4763879111
20
178.2890137640
0
VERTEX
8
0
62
7
6
CONTINUOUS
10
68.4330992786
20
178.1506908735
0
VERTEX
8
0
62
7
6
CONTINUOUS
10
68.3925032587
20
178.0118133682
0
VERTEX
8
0
62
7
6
CONTINUOUS
10
68.3545012484
20
177.8724963215
0
VERTEX
8
0
62
7
6
CONTINUOUS
10
68.3190414756
20
177.7330530030
0
VERTEX
8
0
62
7
6
CONTINUOUS
10
68.2859217856
20
177.5930697234
0
VERTEX
8
0
62
7
6
CONTINUOUS
10
68.2550221064
20
177.4527001835
0
VERTEX
8
0
62
7
6
CONTINUOUS
10
68.2260444173
20
177.3105554818
0
VERTEX
8
0
62
7
6
CONTINUOUS
10
68.1986834758
20
177.1656798608
0
VERTEX
8
0
62
7
6
CONTINUOUS
10
68.1728408752
20
177.0169275890
0
VERTEX
8
0
62
7
6
CONTINUOUS
10
68.1483121098
20
176.8632033172
0
VERTEX
8
0
62
7
6
CONTINUOUS
10
68.1251102333
20
176.7034001407
0
VERTEX
8
0
62
7
6
CONTINUOUS
10
68.1031448974
20
176.5364156131
0
VERTEX
8
0
62
7
6
CONTINUOUS
10
68.0825218027
20
176.3611410096
0
VERTEX
8
0
62
7
6
CONTINUOUS
10
68.0632515220
20
176.1764762053
0
VERTEX
8
0
62
7
6
CONTINUOUS
10
68.0455290899
20
175.9812929538
0
VERTEX
8
0
62
7
6
CONTINUOUS
10
68.0294520331
20
175.7744322838
0
VERTEX
8
0
62
7
6
CONTINUOUS
10
68.0153234472
20
175.5548862449
0
VERTEX
8
0
62
7
6
CONTINUOUS
10
68.0033321166
20
175.3215921644
0
VERTEX
8
0
62
7
6
CONTINUOUS
10
67.9939185011
20
175.0735552385
0
VERTEX
8
0
62
7
6
CONTINUOUS
10
67.9873561697
20
174.8096380809
0
VERTEX
8
0
62
7
6
CONTINUOUS
10
67.9843345796
20
174.5292057671
0
VERTEX
8
0
62
7
6
CONTINUOUS
10
67.9852925534
20
174.2308043999
0
VERTEX
8
0
62
7
6
CONTINUOUS
10
67.9912555638
20
173.9157535105
0
VERTEX
8
0
62
7
6
CONTINUOUS
10
68.0029025680
20
173.5843849865
0
VERTEX
8
0
62
7
6
CONTINUOUS
10
68.0217119341
20
173.2382078624
0
VERTEX
8
0
62
7
6
CONTINUOUS
10
68.0487557401
20
172.8778496877
0
VERTEX
8
0
62
7
6
CONTINUOUS
10
68.0859318130
20
172.5062868042
0
VERTEX
8
0
62
7
6
CONTINUOUS
10
68.1349373629
20
172.1251154461
0
VERTEX
8
0
62
7
6
CONTINUOUS
10
68.1974463177
20
171.7391034858
0
VERTEX
8
0
62
7
6
CONTINUOUS
10
68.2747039323
20
171.3539282176
0
VERTEX
8
0
62
7
6
CONTINUOUS
10
68.3696934350
20
170.9684576095
0
VERTEX
8
0
62
7
6
CONTINUOUS
10
68.4862379280
20
170.5835471109
0
VERTEX
8
0
62
7
6
CONTINUOUS
10
68.6230630440
20
170.1989115720
0
SEQEND
0
LINE
8
0
62
7
6
CONTINUOUS
10
79.7525773196
20
174.5289115720
11
79.7525773196
21
182.8689115720
0
LINE
8
0
62
7
6
CONTINUOUS
10
78.7525771635
20
183.6989115720
11
78.7525771635
21
173.6989115720
0
POLYLINE
8
0
62
7
6
CONTINUOUS
66
1
70
0
0
VERTEX
8
0
62
7
6
CONTINUOUS
10
74.8820915952
20
178.6989115720
0
VERTEX
8
0
62
7
6
CONTINUOUS
10
74.9327674859
20
178.8317601197
0
VERTEX
8
0
62
7
6
CONTINUOUS
10
74.9807261640
20
178.9654551064
0
VERTEX
8
0
62
7
6
CONTINUOUS
10
75.0259333805
20
179.1000717486
0
VERTEX
8
0
62
7
6
CONTINUOUS
10
75.0684918828
20
179.2353843971
0
VERTEX
8
0
62
7
6
CONTINUOUS
10
75.1084609021
20
179.3712228266
0
VERTEX
8
0
62
7
6
CONTINUOUS
10
75.1459367379
20
179.5074959819
0
VERTEX
8
0
62
7
6
CONTINUOUS
10
75.1809632438
20
179.6438814639
0
VERTEX
8
0
62
7
6
CONTINUOUS
10
75.2137569886
20
179.7809030796
0
VERTEX
8
0
62
7
6
CONTINUOUS
10
75.2444558919
20
179.9185245455
0
VERTEX
8
0
62
7
6
CONTINUOUS
10
75.2733397545
20
180.0581037331
0
VERTEX
8
0
62
7
6
CONTINUOUS
10
75.3007062861
20
180.2006203845
0
VERTEX
8
0
62
7
6
CONTINUOUS
10
75.3266396788
20
180.3471726037
0
VERTEX
8
0
62
7
6
CONTINUOUS
10
75.3513298174
20
180.4988260264
0
VERTEX
8
0
62
7
6
CONTINUOUS
10
75.3747573343
20
180.6566577989
0
VERTEX
8
0
62
7
6
CONTINUOUS
10
75.3970025696
20
180.8217411961
0
VERTEX
8
0
62
7
6
CONTINUOUS
10
75.4179562861
20
180.9951534677
0
VERTEX
8
0
62
7
6
CONTINUOUS
10
75.4376008482
20
181.1779620380
0
VERTEX
8
0
62
7
6
CONTINUOUS
10
75.4557417914
20
181.3712696585
0
VERTEX
8
0
62
7
6
CONTINUOUS
10
75.4722779240
20
181.5762031363
0
VERTEX
8
0
62
7
6
CONTINUOUS
10
75.4869117915
20
181.7937577285
0
VERTEX
8
0
62
7
6
CONTINUOUS
10
75.4994544993
20
182.0249815328
0
VERTEX
8
0
62
7
6
CONTINUOUS
10
75.5094791768
20
182.2708428338
0
VERTEX
8
0
62
7
6
CONTINUOUS
10
75.5167169001
20
182.5323960773
0
VERTEX
8
0
62
7
6
CONTINUOUS
10
75.5205049344
20
182.8104308780
0
VERTEX
8
0
62
7
6
CONTINUOUS
10
75.5204335492
20
183.1063359090
0
VERTEX
8
0
62
7
6
CONTINUOUS
10
75.5154748073
20
183.4193684415
0
VERTEX
8
0
62
7
6
CONTINUOUS
10
75.5049816965
20
183.7496375659
0
VERTEX
8
0
62
7
6
CONTINUOUS
10
75.4874017115
20
184.0959764974
0
VERTEX
8
0
62
7
6
CONTINUOUS
10
75.4616764922
20
184.4581315487
0
VERTEX
8
0
62
7
6
CONTINUOUS
10
75.4256765907
20
184.8334725166
0
VERTEX
8
0
62
7
6
CONTINUOUS
10
75.3775798573
20
185.2210504230
0
VERTEX
8
0
62
7
6
CONTINUOUS
10
75.3154060380
20
185.6155679049
0
VERTEX
8
0
62
7
6
CONTINUOUS
10
75.2375290135
20
186.0115594877
0
VERTEX
8
0
62
7
6
CONTINUOUS
10
75.1410642290
20
186.4085805276
0
VERTEX
8
0
62
7
6
CONTINUOUS
10
75.0221567652
20
186.8040812471
0
VERTEX
8
0
62
7
6
CONTINUOUS
10
74.8820915952
20
187.1989115720
0
SEQEND
0
POLYLINE
8
0
62
7
6
CONTINUOUS
66
1
70
0
0
VERTEX
8
0
62
7
6
CONTINUOUS
10
74.8820915952
20
170.1989115720
0
VERTEX
8
0
62
7
6
CONTINUOUS
10
75.0226932054
20
170.5954505443
0
VERTEX
8
0
62
7
6
CONTINUOUS
10
75.1419798594
20
170.9926599770
0
VERTEX
8
0
62
7
6
CONTINUOUS
10
75.2386634194
20
171.3915068971
0
VERTEX
8
0
62
7
6
CONTINUOUS
10
75.3166082990
20
171.7890902239
0
VERTEX
8
0
62
7
6
CONTINUOUS
10
75.3786796558
20
172.1845942216
0
VERTEX
8
0
62
7
6
CONTINUOUS
10
75.4265871195
20
172.5727298822
0
VERTEX
8
0
62
7
6
CONTINUOUS
10
75.4623854535
20
172.9482195408
0
VERTEX
8
0
62
7
6
CONTINUOUS
10
75.4879044140
20
173.3102134336
0
VERTEX
8
0
62
7
6
CONTINUOUS
10
75.5053079313
20
173.6561479239
0
VERTEX
8
0
62
7
6
CONTINUOUS
10
75.5156482460
20
173.9858869649
0
VERTEX
8
0
62
7
6
CONTINUOUS
10
75.5204866527
20
174.2983965505
0
VERTEX
8
0
62
7
6
CONTINUOUS
10
75.5204599200
20
174.5938069221
0
VERTEX
8
0
62
7
6
CONTINUOUS
10
75.5165900035
20
174.8714555698
0
VERTEX
8
0
62
7
6
CONTINUOUS
10
75.5092826378
20
175.1326867415
0
VERTEX
8
0
62
7
6
CONTINUOUS
10
75.4991944525
20
175.3782786400
0
VERTEX
8
0
62
7
6
CONTINUOUS
10
75.4865947186
20
175.6092668911
0
VERTEX
8
0
62
7
6
CONTINUOUS
10
75.4719078984
20
175.8266025512
0
VERTEX
8
0
62
7
6
CONTINUOUS
10
75.4553250466
20
176.0313175309
0
VERTEX
8
0
62
7
6
CONTINUOUS
10
75.4371447672
20
176.2243829069
0
VERTEX
8
0
62
7
6
CONTINUOUS
10
75.4174688745
20
176.4069322360
0
VERTEX
8
0
62
7
6
CONTINUOUS
10
75.3964929816
20
176.5800644641
0
VERTEX
8
0
62
7
6
CONTINUOUS
10
75.3742342976
20
176.7448545006
0
VERTEX
8
0
62
7
6
CONTINUOUS
10
75.3508022865
20
176.9023841705
0
VERTEX
8
0
62
7
6
CONTINUOUS
10
75.3261157971
20
177.0537316727
0
VERTEX
8
0
62
7
6
CONTINUOUS
10
75.3001938549
20
177.1999791557
0
VERTEX
8
0
62
7
6
CONTINUOUS
10
75.2728453937
20
177.3421965956
0
VERTEX
8
0
62
7
6
CONTINUOUS
10
75.2439852136
20
177.4814875952
0
VERTEX
8
0
62
7
6
CONTINUOUS
10
75.2133147413
20
177.6188334229
0
VERTEX
8
0
62
7
6
CONTINUOUS
10
75.1805524825
20
177.7555973257
0
VERTEX
8
0
62
7
6
CONTINUOUS
10
75.1455620005
20
177.8917369709
0
VERTEX
8
0
62
7
6
CONTINUOUS
10
75.1081269832
20
178.0277734080
0
VERTEX
8
0
62
7
6
CONTINUOUS
10
75.0682055616
20
178.1633797381
0
VERTEX
8
0
62
7
6
CONTINUOUS
10
75.0257031712
20
178.2984594358
0
VERTEX
8
0
62
7
6
CONTINUOUS
10
74.9805615867
20
178.4328424303
0
VERTEX
8
0
62
7
6
CONTINUOUS
10
74.9326798430
20
178.5663011950
0
VERTEX
8
0
62
7
6
CONTINUOUS
10
74.8820915952
20
178.6989115720
0
SEQEND
0
LINE
8
0
62
7
6
CONTINUOUS
10
79.7525566131
20
174.6989324020
11
78.7525512814
21
173.6989374545
0
CIRCLE
8
0
62
7
6
CONTINUOUS
10
175.8006175101
20
178.6989115720
40
6.9549642267
0
ARC
8
0
62
7
6
CONTINUOUS
10
182.8006175101
20
155.1989115720
40
8.0000000000
50
270.0000000000
51
360.0000000000
0
ARC
8
0
62
7
6
CONTINUOUS
10
182.8006175101
20
202.1989115720
40
8.0000000000
50
0.0000000000
51
90.0000000000
0
ARC
8
0
62
7
6
CONTINUOUS
10
110.8006175101
20
155.1989115720
40
8.0000000000
50
180.0000000000
51
270.0000000000
0
ARC
8
0
62
7
6
CONTINUOUS
10
110.8006175101
20
155.1989115720
40
5.0000000000
50
180.0000000000
51
270.0000000000
0
ARC
8
0
62
7
6
CONTINUOUS
10
110.8006175101
20
215.1989115720
40
8.0000000000
50
180.0000000000
51
270.0000000000
0
ARC
8
0
62
7
6
CONTINUOUS
10
110.8006175101
20
215.1989115720
40
5.0000000000
50
180.0000000000
51
270.0000000000
0
ARC
8
0
62
7
6
CONTINUOUS
10
182.7965098579
20
78.1223350254
40
5.0000000000
50
55.6801340041
51
90.0000000000
0
ARC
8
0
62
7
6
CONTINUOUS
10
168.8047251622
20
78.1223350254
40
5.0000000000
50
90.0000000000
51
124.3198659959
0
ARC
8
0
62
7
6
CONTINUOUS
10
168.8047251622
20
80.1223350254
40
5.0000000000
50
235.6801340041
51
270.0000000000
0
ARC
8
0
62
7
6
CONTINUOUS
10
182.7965098579
20
80.1223350254
40
5.0000000000
50
270.0470482339
51
304.3198659959
0
ARC
8
0
62
7
6
CONTINUOUS
10
168.8456532834
20
30.1223350254
40
5.0000000000
50
235.1103249003
51
270.0000000000
0
ARC
8
0
62
7
6
CONTINUOUS
10
182.7555817367
20
30.1223350254
40
5.0000000000
50
270.0000000000
51
304.8896750997
0
ARC
8
0
62
7
6
CONTINUOUS
10
155.8006175101
20
53.6223350254
40
10.1500000000
50
26.3178047344
51
153.6821952656
0
ARC
8
0
62
7
6
CONTINUOUS
10
155.8006175101
20
53.6223350254
40
10.1500000000
50
206.3178047344
51
333.6821952656
0
ARC
8
0
62
7
6
CONTINUOUS
10
72.7525773196
20
185.6948039199
40
5.0000000000
50
162.4895175819
51
180.0000000000
0
ARC
8
0
62
7
6
CONTINUOUS
10
70.7525773196
20
185.6948039199
40
5.0000000000
50
0.0000000000
51
17.5103163535
0
ARC
8
0
62
7
6
CONTINUOUS
10
70.7525773196
20
171.7030192242
40
5.0000000000
50
342.4896836465
51
360.0000000000
0
ARC
8
0
62
7
6
CONTINUOUS
10
72.7525773196
20
171.7030192242
40
5.0000000000
50
180.0000000000
51
197.5104824181
0
ARC
8
0
62
7
6
CONTINUOUS
10
22.7525773196
20
171.7439473454
40
5.0000000000
50
180.0000000000
51
197.9995892166
0
ARC
8
0
62
7
6
CONTINUOUS
10
22.7525773196
20
185.6538757987
40
5.0000000000
50
162.0004107834
51
180.0000000000
0
ARC
8
0
62
7
6
CONTINUOUS
10
46.2525773196
20
171.1989115720
40
21.0000000000
50
77.6209179370
51
102.3777109501
0
ARC
8
0
62
7
6
CONTINUOUS
10
46.2525773196
20
231.1989115720
40
21.0000000000
50
0.0000000000
51
180.0000000000
0
ARC
8
0
62
7
6
CONTINUOUS
10
46.2525773196
20
181.6989115720
40
5.5000000000
50
34.9772131603
51
145.0227868397
0
ARC
8
0
62
7
6
CONTINUOUS
10
46.2525773196
20
161.6989115720
40
5.5000000000
50
214.9772131603
51
325.0227868397
0
ARC
8
0
62
7
6
CONTINUOUS
10
46.2525773196
20
241.6989115720
40
5.5000000000
50
0.0000000000
51
180.0000000000
0
ARC
8
0
62
7
6
CONTINUOUS
10
46.2525773196
20
221.6989115720
40
5.5000000000
50
180.0000000000
51
360.0000000000
0
ENDSEC
0
EOF
