0
SECTION
2
HEADER
9
$ACADVER
1
AC1015
9
$DWGCODEPAGE
3
ANSI_1252
9
$EXTMAX
10
594.0000000000
20
420.0000000000
30
0.0000000000
9
$EXTMIN
10
0.0000000000
20
0.0000000000
30
0.0000000000
9
$LIMMIN
10
0.0000000000
20
0.0000000000
9
$LIMMAX
10
594.0000000000
20
420.0000000000
9
$VIEWCTR
10
297.0000000000
20
210.0000000000
9
$VIEWSIZE
40
420.0000000000
9
$CLAYER
8
0
9
$LTSCALE
40
32.6700000000
9
$CELTYPE
6
BYLAYER
9
$DIMSCALE
40
1
9
$DIMASZ
40
3.5000000000
9
$DIMEXO
40
3.7125000000
9
$DIMDLI
40
22.5720000000
9
$DIMEXE
40
10.6920000000
9
$DIMCEN
40
5.3460000000
9
$DIMLFAC
40
1.0000000000
9
$DIMBLK
1
_FILLED
9
$DIMTXT
40
3.5000000000
9
$DIMTOL
70
1
9
$DIMLIM
70
0
9
$DIMTFAC
40
1.0000000000
9
$DIMTP
40
0.0010000000
9
$DIMTM
40
0.0010000000
9
$PDMODE
70
3
9
$PDSIZE
40
0.3125000000
9
$HANDSEED
5
321
9
$MEASUREMENT
70
1
9
$INSUNITS
70
4
0
ENDSEC
0
SECTION
2
CLASSES
0
CLASS
1
ACDBDICTIONARYWDFLT
2
AcDbDictionaryWithDefault
3
AutoCAD 2000
90
0
280
0
281
0
0
CLASS
1
ACDBPLACEHOLDER
2
AcDbPlaceHolder
3
AutoCAD 2000
90
0
280
0
281
0
0
CLASS
1
LAYOUT
2
AcDbLayout
3
AutoCAD 2000
90
0
280
0
281
0
0
ENDSEC
0
SECTION
2
TABLES
0
TABLE
2
VPORT
5
8
100
AcDbSymbolTable
70
2
0
VPORT
5
1F4
100
AcDbSymbolTableRecord
100
AcDbViewportTableRecord
2
*ACTIVE
70
0
10
0.0
20
0.0
11
1.0
21
1.0
12
297.0000000000
22
210.0000000000
13
0.0
23
0.0
14
1.0
24
1.0
15
0.0
25
0.0
16
0.0
26
0.0
36
1.0
17
0.0
27
0.0
37
0.0
40
420.0000000000
41
1.4142857143
42
50.0
43
0.0
44
0.0
50
0.0
51
0.0
71
0
72
100
73
1
74
1
75
0
76
0
77
0
78
0
0
ENDTAB
0
TABLE
2
LTYPE
5
5
100
AcDbSymbolTable
70
6
0
LTYPE
5
14
100
AcDbSymbolTableRecord
100
AcDbLinetypeTableRecord
2
BYBLOCK
70
0
3

72
65
73
0
40
0.0
0
LTYPE
5
15
100
AcDbSymbolTableRecord
100
AcDbLinetypeTableRecord
2
BYLAYER
70
0
3

72
65
73
0
40
0.0
0
LTYPE
5
16
100
AcDbSymbolTableRecord
100
AcDbLinetypeTableRecord
2
CONTINUOUS
70
64
3
Solid line
72
65
73
0
40
0
0
LTYPE
5
1F5
100
AcDbSymbolTableRecord
100
AcDbLinetypeTableRecord
2
CENTER
70
64
3
____ _ ____ _ ____ _ ____ _ ____ _ ____ _ ____
72
65
73
4
40
0.6
49
0.375
74
0
49
-0.075
74
0
49
0.075
74
0
49
-0.075
74
0
0
LTYPE
5
1F6
100
AcDbSymbolTableRecord
100
AcDbLinetypeTableRecord
2
HIDDEN
70
64
3
- - - - - - - - - - - - - - - - - - - -
72
65
73
2
40
0.2
49
0.1
74
0
49
-0.1
74
0
0
LTYPE
5
1F7
100
AcDbSymbolTableRecord
100
AcDbLinetypeTableRecord
2
PHANTOM
70
64
3
_____ _ _ _____ _ _ _____ _ _ _____
72
65
73
6
40
0.8
49
0.45
74
0
49
-0.05
74
0
49
0.1
74
0
49
-0.05
74
0
49
0.1
74
0
49
-0.05
74
0
0
LTYPE
5
1F8
100
AcDbSymbolTableRecord
100
AcDbLinetypeTableRecord
2
DOT
70
64
3
. . . . . . . . . . . . . . . . . . . .
72
65
73
2
40
0.2
49
0.1
74
0
49
-0.1
74
0
0
LTYPE
5
1F9
100
AcDbSymbolTableRecord
100
AcDbLinetypeTableRecord
2
DASHED
70
64
3
- - - - - - - - - - - - - - - - - - - -
72
65
73
2
40
0.2
49
0.1
74
0
49
-0.1
74
0
0
ENDTAB
0
TABLE
2
LAYER
5
2
100
AcDbSymbolTable
70
36
0
LAYER
5
10
100
AcDbSymbolTableRecord
100
AcDbLayerTableRecord
2
0
70
0
62
7
6
CONTINUOUS
370
-3
390
F
0
LAYER
5
1FA
100
AcDbSymbolTableRecord
100
AcDbLayerTableRecord
2
DEFAULT_1
70
0
62
7
6
CENTER
370
-3
390
F
0
LAYER
5
1FB
100
AcDbSymbolTableRecord
100
AcDbLayerTableRecord
2
DEFAULT_2
70
0
62
8
6
HIDDEN
370
-3
390
F
0
LAYER
5
1FC
100
AcDbSymbolTableRecord
100
AcDbLayerTableRecord
2
DEFAULT_3
70
0
62
7
6
PHANTOM
370
-3
390
F
0
LAYER
5
1FD
100
AcDbSymbolTableRecord
100
AcDbLayerTableRecord
2
_2D_DELETED_OBJS
70
0
62
7
6
CONTINUOUS
370
-3
390
F
0
LAYER
5
1FE
100
AcDbSymbolTableRecord
100
AcDbLayerTableRecord
2
ASSI
70
0
62
7
6
CONTINUOUS
370
-3
390
F
0
LAYER
5
1FF
100
AcDbSymbolTableRecord
100
AcDbLayerTableRecord
2
CURVE
70
0
62
7
6
CONTINUOUS
370
-3
390
F
0
LAYER
5
200
100
AcDbSymbolTableRecord
100
AcDbLayerTableRecord
2
PIANI
70
0
62
7
6
CONTINUOUS
370
-3
390
F
0
ENDTAB
0
TABLE
2
STYLE
5
3
100
AcDbSymbolTable
70
1
0
STYLE
5
11
100
AcDbSymbolTableRecord
100
AcDbTextStyleTableRecord
2
STANDARD
70
0
40
0.0
41
0.7143000000
50
0.0
71
0
42
0.2
3
txt
4

0
ENDTAB
0
TABLE
2
VIEW
5
6
100
AcDbSymbolTable
70
0
0
ENDTAB
0
TABLE
2
UCS
5
7
100
AcDbSymbolTable
70
0
0
ENDTAB
0
TABLE
2
APPID
5
9
100
AcDbSymbolTable
70
1
0
APPID
5
201
100
AcDbSymbolTableRecord
100
AcDbRegAppTableRecord
2
ACAD
70
0
0
ENDTAB
0
TABLE
2
BLOCK_RECORD
5
1
100
AcDbSymbolTable
70
0
0
BLOCK_RECORD
5
1F
100
AcDbSymbolTableRecord
100
AcDbBlockTableRecord
2
*MODEL_SPACE
0
BLOCK_RECORD
5
1B
100
AcDbSymbolTableRecord
100
AcDbBlockTableRecord
2
*PAPER_SPACE
0
BLOCK_RECORD
5
202
100
AcDbSymbolTableRecord
100
AcDbBlockTableRecord
2
_FILLED
0
BLOCK_RECORD
5
203
100
AcDbSymbolTableRecord
100
AcDbBlockTableRecord
2
*D0
0
BLOCK_RECORD
5
204
100
AcDbSymbolTableRecord
100
AcDbBlockTableRecord
2
*D1
0
BLOCK_RECORD
5
205
100
AcDbSymbolTableRecord
100
AcDbBlockTableRecord
2
*D2
0
BLOCK_RECORD
5
206
100
AcDbSymbolTableRecord
100
AcDbBlockTableRecord
2
*D3
0
BLOCK_RECORD
5
207
100
AcDbSymbolTableRecord
100
AcDbBlockTableRecord
2
*D4
0
BLOCK_RECORD
5
208
100
AcDbSymbolTableRecord
100
AcDbBlockTableRecord
2
*D5
0
BLOCK_RECORD
5
209
100
AcDbSymbolTableRecord
100
AcDbBlockTableRecord
2
*D6
0
BLOCK_RECORD
5
20A
100
AcDbSymbolTableRecord
100
AcDbBlockTableRecord
2
*D7
0
BLOCK_RECORD
5
20B
100
AcDbSymbolTableRecord
100
AcDbBlockTableRecord
2
*D8
0
BLOCK_RECORD
5
20C
100
AcDbSymbolTableRecord
100
AcDbBlockTableRecord
2
*D9
0
BLOCK_RECORD
5
20D
100
AcDbSymbolTableRecord
100
AcDbBlockTableRecord
2
*D10
0
ENDTAB
0
TABLE
2
DIMSTYLE
5
A
100
AcDbSymbolTable
70
1
100
AcDbDimStyleTable
71
0
0
DIMSTYLE
105
20E
100
AcDbSymbolTableRecord
100
AcDbDimStyleTableRecord
2
STANDARD
70
0
3

4

40
1.0
41
3.5000000000
42
0.0625
43
0.38
44
0.18
45
0.0
46
0.0
47
0.0010000000
48
0.0010000000
140
3.5000000000
141
0.09
142
0.0
143
25.4
144
1.0000000000
145
0.0
146
1.0000000000
147
0.09
71
1
72
0
73
0
74
0
75
0
76
0
77
1
78
8
170
0
171
2
172
0
173
0
174
0
175
0
176
0
177
0
178
5
270
2
271
3
272
3
273
2
274
2
275
0
280
0
281
0
282
0
283
1
284
8
285
0
286
0
287
3
288
0
340
11
341
202
342
202
343
202
344
202
0
DIMSTYLE
105
20F
100
AcDbSymbolTableRecord
100
AcDbDimStyleTableRecord
2
DIMSTYLE_1
70
0
3

4

40
1.0
41
3.5000000000
42
0.0625
43
0.38
44
0.18
45
0.0
46
0.0
47
0.2000000000
48
0.2000000000
140
3.5000000000
141
0.09
142
0.0
143
25.4
144
1.0000000000
145
0.0
146
1.0000000000
147
0.09
71
0
72
0
73
0
74
0
75
0
76
0
77
1
78
8
170
0
171
2
172
0
173
0
174
0
175
0
176
0
177
0
178
5
270
2
271
3
272
3
273
2
274
2
275
0
280
0
281
0
282
0
283
1
284
8
285
0
286
0
287
3
288
0
340
11
341
202
342
202
343
202
344
202
0
DIMSTYLE
105
210
100
AcDbSymbolTableRecord
100
AcDbDimStyleTableRecord
2
DIMSTYLE_2
70
0
3

4

40
1.0
41
3.5000000000
42
0.0625
43
0.38
44
0.18
45
0.0
46
0.0
47
0.1000000000
48
0.1000000000
140
3.5000000000
141
0.09
142
0.0
143
25.4
144
1.0000000000
145
0.0
146
1.0000000000
147
0.09
71
0
72
0
73
0
74
0
75
0
76
0
77
1
78
8
170
0
171
2
172
0
173
0
174
0
175
0
176
0
177
0
178
5
270
2
271
3
272
3
273
2
274
2
275
0
280
0
281
0
282
0
283
1
284
8
285
0
286
0
287
3
288
0
340
11
341
202
342
202
343
202
344
202
0
DIMSTYLE
105
211
100
AcDbSymbolTableRecord
100
AcDbDimStyleTableRecord
2
DIMSTYLE_3
70
0
3

4

40
1.0
41
3.5000000000
42
0.0625
43
0.38
44
0.18
45
0.0
46
0.0
47
0.0500000000
48
0.0500000000
140
3.5000000000
141
0.09
142
0.0
143
25.4
144
1.0000000000
145
0.0
146
1.0000000000
147
0.09
71
0
72
0
73
0
74
0
75
0
76
0
77
1
78
8
170
0
171
2
172
0
173
0
174
0
175
0
176
0
177
0
178
5
270
2
271
3
272
3
273
2
274
2
275
0
280
0
281
0
282
0
283
1
284
8
285
0
286
0
287
3
288
0
340
11
341
202
342
202
343
202
344
202
0
DIMSTYLE
105
212
100
AcDbSymbolTableRecord
100
AcDbDimStyleTableRecord
2
DIMSTYLE_4
70
0
3

4

40
1.0
41
3.5000000000
42
0.0625
43
0.38
44
0.18
45
0.0
46
0.0
47
0.1500000000
48
0.1500000000
140
3.5000000000
141
0.09
142
0.0
143
25.4
144
1.0000000000
145
0.0
146
1.0000000000
147
0.09
71
0
72
0
73
0
74
0
75
0
76
0
77
1
78
8
170
0
171
2
172
0
173
0
174
0
175
0
176
0
177
0
178
5
270
2
271
3
272
3
273
2
274
2
275
0
280
0
281
0
282
0
283
1
284
8
285
0
286
0
287
3
288
0
340
11
341
202
342
202
343
202
344
202
0
DIMSTYLE
105
213
100
AcDbSymbolTableRecord
100
AcDbDimStyleTableRecord
2
DIMSTYLE_5
70
0
3

4

40
1.0
41
3.5000000000
42
0.0625
43
0.38
44
0.18
45
0.0
46
0.0
47
1.0000000000
48
1.0000000000
140
3.5000000000
141
0.09
142
0.0
143
25.4
144
1.0000000000
145
0.0
146
1.0000000000
147
0.09
71
1
72
0
73
0
74
0
75
0
76
0
77
1
78
8
170
0
171
2
172
0
173
0
174
0
175
0
176
0
177
0
178
5
270
2
271
2
272
2
273
2
274
2
275
0
280
0
281
0
282
0
283
1
284
8
285
0
286
0
287
3
288
0
340
11
341
202
342
202
343
202
344
202
0
ENDTAB
0
ENDSEC
0
SECTION
2
BLOCKS
0
BLOCK
5
20
100
AcDbEntity
8
0
100
AcDbBlockBegin
2
*MODEL_SPACE
70
0
10
0.0
20
0.0
30
0.0
3
*MODEL_SPACE
1

0
ENDBLK
5
21
100
AcDbEntity
8
0
100
AcDbBlockEnd
0
BLOCK
5
1C
100
AcDbEntity
8
0
100
AcDbBlockBegin
2
*PAPER_SPACE
70
0
10
0.0
20
0.0
30
0.0
3
*PAPER_SPACE
1

0
ENDBLK
5
1D
100
AcDbEntity
8
0
100
AcDbBlockEnd
0
BLOCK
5
214
100
AcDbEntity
8
0
100
AcDbBlockBegin
62
2
6
CONTINUOUS
2
*D0
70
65
10
0.0000000000
20
0.0000000000
3
*D0
1

0
TEXT
5
215
100
AcDbEntity
8
0
100
AcDbText
62
5
6
CONTINUOUS
10
111.8363746222
20
182.5276985158
7
STANDARD
40
3.5000000000
1
145
41
0.7143000000
72
0
100
AcDbText
0
LINE
5
216
100
AcDbEntity
8
0
100
AcDbLine
62
2
6
CONTINUOUS
10
44.2442498743
20
228.3057307663
11
44.2442498743
21
180.1526985158
0
LINE
5
217
100
AcDbEntity
8
0
100
AcDbLine
62
2
6
CONTINUOUS
10
189.2442498743
20
218.0710651138
11
189.2442498743
21
180.1526985158
0
LINE
5
218
100
AcDbEntity
8
0
100
AcDbLine
62
2
6
CONTINUOUS
10
44.2442498743
20
181.6526985158
11
116.7442498743
21
181.6526985158
0
LINE
5
219
100
AcDbEntity
8
0
100
AcDbLine
62
2
6
CONTINUOUS
10
189.2442498743
20
181.6526985158
11
116.7442498743
21
181.6526985158
0
INSERT
5
21A
100
AcDbEntity
8
0
100
AcDbBlockReference
62
2
6
CONTINUOUS
2
_FILLED
10
44.2442498743
20
181.6526985158
41
  3.500000
42
  3.500000
43
  3.500000
50
180.000000
0
INSERT
5
21B
100
AcDbEntity
8
0
100
AcDbBlockReference
62
2
6
CONTINUOUS
2
_FILLED
10
189.2442498743
20
181.6526985158
41
  3.500000
42
  3.500000
43
  3.500000
0
ENDBLK
5
21C
100
AcDbEntity
8
0
6
BYBLOCK
62
0
100
AcDbBlockEnd
0
BLOCK
5
21D
100
AcDbEntity
8
0
100
AcDbBlockBegin
62
2
6
CONTINUOUS
2
*D1
70
65
10
0.0000000000
20
0.0000000000
3
*D1
1

0
TEXT
5
21E
100
AcDbEntity
8
0
100
AcDbText
62
5
6
CONTINUOUS
10
204.7896535436
20
240.6627971697
7
STANDARD
40
3.5000000000
1
%%c
50
90.0000000000
41
1.3333333333
72
0
100
AcDbText
0
TEXT
5
21F
100
AcDbEntity
8
0
100
AcDbText
62
5
6
CONTINUOUS
10
204.7896535436
20
245.3294638364
7
STANDARD
40
3.5000000000
1
10.5
50
90.0000000000
41
0.7143000000
72
0
100
AcDbText
0
LINE
5
220
100
AcDbEntity
8
0
100
AcDbLine
62
2
6
CONTINUOUS
10
175.7442498743
20
225.3210651138
11
207.1646535436
21
225.3210651138
0
LINE
5
221
100
AcDbEntity
8
0
100
AcDbLine
62
2
6
CONTINUOUS
10
175.7442498743
20
235.8210651138
11
207.1646535436
21
235.8210651138
0
LINE
5
222
100
AcDbEntity
8
0
100
AcDbLine
62
2
6
CONTINUOUS
10
205.6646535436
20
225.3210651138
11
205.6646535436
21
230.5710651138
0
LINE
5
223
100
AcDbEntity
8
0
100
AcDbLine
62
2
6
CONTINUOUS
10
205.6646535436
20
235.8210651138
11
205.6646535436
21
230.5710651138
0
LINE
5
224
100
AcDbEntity
8
0
100
AcDbLine
62
2
6
CONTINUOUS
10
205.6646535436
20
230.5710651138
11
205.6646535436
21
255.3296638364
0
INSERT
5
225
100
AcDbEntity
8
0
100
AcDbBlockReference
62
2
6
CONTINUOUS
2
_FILLED
10
205.6646535436
20
225.3210651138
41
  3.500000
42
  3.500000
43
  3.500000
50
270.000000
0
INSERT
5
226
100
AcDbEntity
8
0
100
AcDbBlockReference
62
2
6
CONTINUOUS
2
_FILLED
10
205.6646535436
20
235.8210651138
41
  3.500000
42
  3.500000
43
  3.500000
50
 90.000000
0
ENDBLK
5
227
100
AcDbEntity
8
0
6
BYBLOCK
62
0
100
AcDbBlockEnd
0
BLOCK
5
228
100
AcDbEntity
8
0
100
AcDbBlockBegin
62
2
6
CONTINUOUS
2
*D2
70
65
10
0.0000000000
20
0.0000000000
3
*D2
1

0
TEXT
5
229
100
AcDbEntity
8
0
100
AcDbText
62
5
6
CONTINUOUS
10
58.7175191544
20
254.4885324778
7
STANDARD
40
3.5000000000
1
3
50
90.0000000000
41
0.7143000000
72
0
100
AcDbText
0
LINE
5
22A
100
AcDbEntity
8
0
100
AcDbLine
62
2
6
CONTINUOUS
10
49.7442498743
20
245.0710651138
11
61.0925191544
21
245.0710651138
0
LINE
5
22B
100
AcDbEntity
8
0
100
AcDbLine
62
2
6
CONTINUOUS
10
49.7442498743
20
248.0710651138
11
61.0925191544
21
248.0710651138
0
LINE
5
22C
100
AcDbEntity
8
0
100
AcDbLine
62
2
6
CONTINUOUS
10
59.5925191544
20
245.0710651138
11
59.5925191544
21
237.0710651138
0
LINE
5
22D
100
AcDbEntity
8
0
100
AcDbLine
62
2
6
CONTINUOUS
10
59.5925191544
20
237.0710651138
11
59.5925191544
21
246.5710651138
0
LINE
5
22E
100
AcDbEntity
8
0
100
AcDbLine
62
2
6
CONTINUOUS
10
59.5925191544
20
248.0710651138
11
59.5925191544
21
256.9885824778
0
LINE
5
22F
100
AcDbEntity
8
0
100
AcDbLine
62
2
6
CONTINUOUS
10
59.5925191544
20
256.9885824778
11
59.5925191544
21
246.5710651138
0
INSERT
5
230
100
AcDbEntity
8
0
100
AcDbBlockReference
62
2
6
CONTINUOUS
2
_FILLED
10
59.5925191544
20
245.0710651138
41
  3.500000
42
  3.500000
43
  3.500000
50
 90.000000
0
INSERT
5
231
100
AcDbEntity
8
0
100
AcDbBlockReference
62
2
6
CONTINUOUS
2
_FILLED
10
59.5925191544
20
248.0710651138
41
  3.500000
42
  3.500000
43
  3.500000
50
270.000000
0
ENDBLK
5
232
100
AcDbEntity
8
0
6
BYBLOCK
62
0
100
AcDbBlockEnd
0
BLOCK
5
233
100
AcDbEntity
8
0
100
AcDbBlockBegin
62
2
6
CONTINUOUS
2
*D3
70
65
10
0.0000000000
20
0.0000000000
3
*D3
1

0
TEXT
5
234
100
AcDbEntity
8
0
100
AcDbText
62
5
6
CONTINUOUS
10
71.0835882112
20
130.6504129815
7
STANDARD
40
3.5000000000
1
%%c
41
1.3333333333
72
0
100
AcDbText
0
TEXT
5
235
100
AcDbEntity
8
0
100
AcDbText
62
5
6
CONTINUOUS
10
75.7502548779
20
130.6504129815
7
STANDARD
40
3.5000000000
1
10.5
41
0.7143000000
72
0
100
AcDbText
0
LINE
5
236
100
AcDbEntity
8
0
100
AcDbLine
62
2
6
CONTINUOUS
10
64.4942498743
20
95.8367401118
11
64.4942498743
21
131.2754129815
0
LINE
5
237
100
AcDbEntity
8
0
100
AcDbLine
62
2
6
CONTINUOUS
10
53.9942498743
20
95.8367401118
11
53.9942498743
21
131.2754129815
0
LINE
5
238
100
AcDbEntity
8
0
100
AcDbLine
62
2
6
CONTINUOUS
10
64.4942498743
20
129.7754129815
11
85.7504548779
21
129.7754129815
0
LINE
5
239
100
AcDbEntity
8
0
100
AcDbLine
62
2
6
CONTINUOUS
10
85.7504548779
20
129.7754129815
11
59.2442498743
21
129.7754129815
0
LINE
5
23A
100
AcDbEntity
8
0
100
AcDbLine
62
2
6
CONTINUOUS
10
53.9942498743
20
129.7754129815
11
45.9942498743
21
129.7754129815
0
LINE
5
23B
100
AcDbEntity
8
0
100
AcDbLine
62
2
6
CONTINUOUS
10
45.9942498743
20
129.7754129815
11
59.2442498743
21
129.7754129815
0
INSERT
5
23C
100
AcDbEntity
8
0
100
AcDbBlockReference
62
2
6
CONTINUOUS
2
_FILLED
10
64.4942498743
20
129.7754129815
41
  3.500000
42
  3.500000
43
  3.500000
50
180.000000
0
INSERT
5
23D
100
AcDbEntity
8
0
100
AcDbBlockReference
62
2
6
CONTINUOUS
2
_FILLED
10
53.9942498743
20
129.7754129815
41
  3.500000
42
  3.500000
43
  3.500000
0
ENDBLK
5
23E
100
AcDbEntity
8
0
6
BYBLOCK
62
0
100
AcDbBlockEnd
0
BLOCK
5
23F
100
AcDbEntity
8
0
100
AcDbBlockBegin
62
2
6
CONTINUOUS
2
*D4
70
65
10
0.0000000000
20
0.0000000000
3
*D4
1

0
TEXT
5
240
100
AcDbEntity
8
0
100
AcDbText
62
5
6
CONTINUOUS
10
106.4795331939
20
131.0611360977
7
STANDARD
40
3.5000000000
1
%%c
41
1.3333333333
72
0
100
AcDbText
0
TEXT
5
241
100
AcDbEntity
8
0
100
AcDbText
62
5
6
CONTINUOUS
10
111.1461998606
20
131.0611360977
7
STANDARD
40
3.5000000000
1
10.5
41
0.7143000000
72
0
100
AcDbText
0
LINE
5
242
100
AcDbEntity
8
0
100
AcDbLine
62
2
6
CONTINUOUS
10
134.4942498743
20
95.8367401118
11
134.4942498743
21
131.6861360977
0
LINE
5
243
100
AcDbEntity
8
0
100
AcDbLine
62
2
6
CONTINUOUS
10
123.9942498743
20
95.8367401118
11
123.9942498743
21
131.6861360977
0
LINE
5
244
100
AcDbEntity
8
0
100
AcDbLine
62
2
6
CONTINUOUS
10
134.4942498743
20
130.1861360977
11
129.2442498743
21
130.1861360977
0
LINE
5
245
100
AcDbEntity
8
0
100
AcDbLine
62
2
6
CONTINUOUS
10
123.9942498743
20
130.1861360977
11
129.2442498743
21
130.1861360977
0
LINE
5
246
100
AcDbEntity
8
0
100
AcDbLine
62
2
6
CONTINUOUS
10
129.2442498743
20
130.1861360977
11
106.4795331939
21
130.1861360977
0
INSERT
5
247
100
AcDbEntity
8
0
100
AcDbBlockReference
62
2
6
CONTINUOUS
2
_FILLED
10
134.4942498743
20
130.1861360977
41
  3.500000
42
  3.500000
43
  3.500000
0
INSERT
5
248
100
AcDbEntity
8
0
100
AcDbBlockReference
62
2
6
CONTINUOUS
2
_FILLED
10
123.9942498743
20
130.1861360977
41
  3.500000
42
  3.500000
43
  3.500000
50
180.000000
0
ENDBLK
5
249
100
AcDbEntity
8
0
6
BYBLOCK
62
0
100
AcDbBlockEnd
0
BLOCK
5
24A
100
AcDbEntity
8
0
100
AcDbBlockBegin
62
2
6
CONTINUOUS
2
*D5
70
65
10
0.0000000000
20
0.0000000000
3
*D5
1

0
TEXT
5
24B
100
AcDbEntity
8
0
100
AcDbText
62
5
6
CONTINUOUS
10
31.9548738404
20
92.6471939036
7
STANDARD
40
3.5000000000
1
48
50
90.0000000000
41
0.7143000000
72
0
100
AcDbText
0
LINE
5
24C
100
AcDbEntity
8
0
100
AcDbLine
62
2
6
CONTINUOUS
10
48.7442498743
20
71.3367401118
11
31.3298738404
21
71.3367401118
0
LINE
5
24D
100
AcDbEntity
8
0
100
AcDbLine
62
2
6
CONTINUOUS
10
48.7442498743
20
119.3367401118
11
31.3298738404
21
119.3367401118
0
LINE
5
24E
100
AcDbEntity
8
0
100
AcDbLine
62
2
6
CONTINUOUS
10
32.8298738404
20
71.3367401118
11
32.8298738404
21
95.3367401118
0
LINE
5
24F
100
AcDbEntity
8
0
100
AcDbLine
62
2
6
CONTINUOUS
10
32.8298738404
20
119.3367401118
11
32.8298738404
21
95.3367401118
0
INSERT
5
250
100
AcDbEntity
8
0
100
AcDbBlockReference
62
2
6
CONTINUOUS
2
_FILLED
10
32.8298738404
20
71.3367401118
41
  3.500000
42
  3.500000
43
  3.500000
50
270.000000
0
INSERT
5
251
100
AcDbEntity
8
0
100
AcDbBlockReference
62
2
6
CONTINUOUS
2
_FILLED
10
32.8298738404
20
119.3367401118
41
  3.500000
42
  3.500000
43
  3.500000
50
 90.000000
0
ENDBLK
5
252
100
AcDbEntity
8
0
6
BYBLOCK
62
0
100
AcDbBlockEnd
0
BLOCK
5
253
100
AcDbEntity
8
0
100
AcDbBlockBegin
62
2
6
CONTINUOUS
2
*D6
70
65
10
0.0000000000
20
0.0000000000
3
*D6
1

0
TEXT
5
254
100
AcDbEntity
8
0
100
AcDbText
62
5
6
CONTINUOUS
10
311.5100000284
20
186.2125215201
7
STANDARD
40
3.5000000000
1
48
41
0.7143000000
72
0
100
AcDbText
0
LINE
5
255
100
AcDbEntity
8
0
100
AcDbLine
62
2
6
CONTINUOUS
10
289.7009602640
20
217.5710651138
11
289.7009602640
21
183.8375215201
0
LINE
5
256
100
AcDbEntity
8
0
100
AcDbLine
62
2
6
CONTINUOUS
10
337.7009602640
20
217.5710651138
11
337.7009602640
21
183.8375215201
0
LINE
5
257
100
AcDbEntity
8
0
100
AcDbLine
62
2
6
CONTINUOUS
10
289.7009602640
20
185.3375215201
11
313.7009602640
21
185.3375215201
0
LINE
5
258
100
AcDbEntity
8
0
100
AcDbLine
62
2
6
CONTINUOUS
10
337.7009602640
20
185.3375215201
11
313.7009602640
21
185.3375215201
0
INSERT
5
259
100
AcDbEntity
8
0
100
AcDbBlockReference
62
2
6
CONTINUOUS
2
_FILLED
10
289.7009602640
20
185.3375215201
41
  3.500000
42
  3.500000
43
  3.500000
50
180.000000
0
INSERT
5
25A
100
AcDbEntity
8
0
100
AcDbBlockReference
62
2
6
CONTINUOUS
2
_FILLED
10
337.7009602640
20
185.3375215201
41
  3.500000
42
  3.500000
43
  3.500000
0
ENDBLK
5
25B
100
AcDbEntity
8
0
6
BYBLOCK
62
0
100
AcDbBlockEnd
0
BLOCK
5
25C
100
AcDbEntity
8
0
100
AcDbBlockBegin
62
2
6
CONTINUOUS
2
*D7
70
65
10
0.0000000000
20
0.0000000000
3
*D7
1

0
TEXT
5
25D
100
AcDbEntity
8
0
100
AcDbText
62
5
6
CONTINUOUS
10
355.3558198630
20
219.9744261472
7
STANDARD
40
3.5000000000
1
62.16
50
90.0000000000
41
0.7143000000
72
0
100
AcDbText
0
TEXT
5
25E
100
AcDbEntity
8
0
100
AcDbText
62
5
6
CONTINUOUS
10
355.3558198630
20
232.4746761472
7
STANDARD
40
3.5000000000
1
%%p
50
90.0000000000
41
1.1666666667
72
0
100
AcDbText
0
TEXT
5
25F
100
AcDbEntity
8
0
100
AcDbText
62
5
6
CONTINUOUS
10
355.3558198630
20
236.5580094805
7
STANDARD
40
3.5000000000
1
1
50
90.0000000000
41
0.7143000000
72
0
100
AcDbText
0
LINE
5
260
100
AcDbEntity
8
0
100
AcDbLine
62
2
6
CONTINUOUS
10
338.2009602640
20
199.4888753943
11
357.7308198630
21
199.4888753943
0
LINE
5
261
100
AcDbEntity
8
0
100
AcDbLine
62
2
6
CONTINUOUS
10
338.2009602640
20
261.6532548332
11
357.7308198630
21
261.6532548332
0
LINE
5
262
100
AcDbEntity
8
0
100
AcDbLine
62
2
6
CONTINUOUS
10
356.2308198630
20
199.4888753943
11
356.2308198630
21
230.5710651138
0
LINE
5
263
100
AcDbEntity
8
0
100
AcDbLine
62
2
6
CONTINUOUS
10
356.2308198630
20
261.6532548332
11
356.2308198630
21
230.5710651138
0
INSERT
5
264
100
AcDbEntity
8
0
100
AcDbBlockReference
62
2
6
CONTINUOUS
2
_FILLED
10
356.2308198630
20
199.4888753943
41
  3.500000
42
  3.500000
43
  3.500000
50
270.000000
0
INSERT
5
265
100
AcDbEntity
8
0
100
AcDbBlockReference
62
2
6
CONTINUOUS
2
_FILLED
10
356.2308198630
20
261.6532548332
41
  3.500000
42
  3.500000
43
  3.500000
50
 90.000000
0
ENDBLK
5
266
100
AcDbEntity
8
0
6
BYBLOCK
62
0
100
AcDbBlockEnd
0
BLOCK
5
267
100
AcDbEntity
8
0
100
AcDbBlockBegin
62
2
6
CONTINUOUS
2
*D8
70
65
10
0.0000000000
20
0.0000000000
3
*D8
1

0
TEXT
5
268
100
AcDbEntity
8
0
100
AcDbText
62
5
6
CONTINUOUS
10
170.5114224925
20
59.9279892848
7
STANDARD
40
3.5000000000
1
35
41
0.7143000000
72
0
100
AcDbText
0
LINE
5
269
100
AcDbEntity
8
0
100
AcDbLine
62
2
6
CONTINUOUS
10
189.2442498743
20
77.3367401118
11
189.2442498743
21
57.5529892848
0
LINE
5
26A
100
AcDbEntity
8
0
100
AcDbLine
62
2
6
CONTINUOUS
10
154.2442498743
20
84.2867401118
11
154.2442498743
21
57.5529892848
0
LINE
5
26B
100
AcDbEntity
8
0
100
AcDbLine
62
2
6
CONTINUOUS
10
189.2442498743
20
59.0529892848
11
171.7442498743
21
59.0529892848
0
LINE
5
26C
100
AcDbEntity
8
0
100
AcDbLine
62
2
6
CONTINUOUS
10
154.2442498743
20
59.0529892848
11
171.7442498743
21
59.0529892848
0
INSERT
5
26D
100
AcDbEntity
8
0
100
AcDbBlockReference
62
2
6
CONTINUOUS
2
_FILLED
10
189.2442498743
20
59.0529892848
41
  3.500000
42
  3.500000
43
  3.500000
0
INSERT
5
26E
100
AcDbEntity
8
0
100
AcDbBlockReference
62
2
6
CONTINUOUS
2
_FILLED
10
154.2442498743
20
59.0529892848
41
  3.500000
42
  3.500000
43
  3.500000
50
180.000000
0
ENDBLK
5
26F
100
AcDbEntity
8
0
6
BYBLOCK
62
0
100
AcDbBlockEnd
0
BLOCK
5
270
100
AcDbEntity
8
0
100
AcDbBlockBegin
62
2
6
CONTINUOUS
2
*D9
70
65
10
0.0000000000
20
0.0000000000
3
*D9
1

0
TEXT
5
271
100
AcDbEntity
8
0
100
AcDbText
62
5
6
CONTINUOUS
10
123.2486910549
20
59.6711266139
7
STANDARD
40
3.5000000000
1
60
41
0.7143000000
72
0
100
AcDbText
0
LINE
5
272
100
AcDbEntity
8
0
100
AcDbLine
62
2
6
CONTINUOUS
10
154.2442498743
20
84.2867401118
11
154.2442498743
21
57.2961266139
0
LINE
5
273
100
AcDbEntity
8
0
100
AcDbLine
62
2
6
CONTINUOUS
10
94.2442498743
20
71.9934707458
11
94.2442498743
21
57.2961266139
0
LINE
5
274
100
AcDbEntity
8
0
100
AcDbLine
62
2
6
CONTINUOUS
10
154.2442498743
20
58.7961266139
11
124.2442498743
21
58.7961266139
0
LINE
5
275
100
AcDbEntity
8
0
100
AcDbLine
62
2
6
CONTINUOUS
10
94.2442498743
20
58.7961266139
11
124.2442498743
21
58.7961266139
0
INSERT
5
276
100
AcDbEntity
8
0
100
AcDbBlockReference
62
2
6
CONTINUOUS
2
_FILLED
10
154.2442498743
20
58.7961266139
41
  3.500000
42
  3.500000
43
  3.500000
0
INSERT
5
277
100
AcDbEntity
8
0
100
AcDbBlockReference
62
2
6
CONTINUOUS
2
_FILLED
10
94.2442498743
20
58.7961266139
41
  3.500000
42
  3.500000
43
  3.500000
50
180.000000
0
ENDBLK
5
278
100
AcDbEntity
8
0
6
BYBLOCK
62
0
100
AcDbBlockEnd
0
BLOCK
5
279
100
AcDbEntity
8
0
100
AcDbBlockBegin
62
2
6
CONTINUOUS
2
*D10
70
65
10
0.0000000000
20
0.0000000000
3
*D10
1

0
TEXT
5
27A
100
AcDbEntity
8
0
100
AcDbText
62
5
6
CONTINUOUS
10
211.1795984628
20
91.7431251922
7
STANDARD
40
3.5000000000
1
43
50
90.0000000000
41
0.7143000000
72
0
100
AcDbText
0
LINE
5
27B
100
AcDbEntity
8
0
100
AcDbLine
62
2
6
CONTINUOUS
10
180.7442498743
20
116.8367401118
11
213.5545984628
21
116.8367401118
0
LINE
5
27C
100
AcDbEntity
8
0
100
AcDbLine
62
2
6
CONTINUOUS
10
180.7442498743
20
73.8367401118
11
213.5545984628
21
73.8367401118
0
LINE
5
27D
100
AcDbEntity
8
0
100
AcDbLine
62
2
6
CONTINUOUS
10
212.0545984628
20
116.8367401118
11
212.0545984628
21
95.3367401118
0
LINE
5
27E
100
AcDbEntity
8
0
100
AcDbLine
62
2
6
CONTINUOUS
10
212.0545984628
20
73.8367401118
11
212.0545984628
21
95.3367401118
0
INSERT
5
27F
100
AcDbEntity
8
0
100
AcDbBlockReference
62
2
6
CONTINUOUS
2
_FILLED
10
212.0545984628
20
116.8367401118
41
  3.500000
42
  3.500000
43
  3.500000
50
 90.000000
0
INSERT
5
280
100
AcDbEntity
8
0
100
AcDbBlockReference
62
2
6
CONTINUOUS
2
_FILLED
10
212.0545984628
20
73.8367401118
41
  3.500000
42
  3.500000
43
  3.500000
50
270.000000
0
ENDBLK
5
281
100
AcDbEntity
8
0
6
BYBLOCK
62
0
100
AcDbBlockEnd
0
BLOCK
5
282
100
AcDbEntity
8
0
100
AcDbBlockBegin
2
_FILLED
70
64
10
0.0000000000
20
0.0000000000
3
_FILLED
1

0
SOLID
5
283
100
AcDbEntity
8
0
6
BYBLOCK
62
0
100
AcDbTrace
10
0.0000000000
20
0.0000000000
11
-1.0000000000
21
0.1857142857
12
-1.0000000000
22
-0.1857142857
13
-1.0000000000
23
-0.1857142857
0
ENDBLK
5
284
100
AcDbEntity
8
0
6
BYBLOCK
62
0
100
AcDbBlockEnd
0
ENDSEC
0
SECTION
2
ENTITIES
0
DIMENSION
5
285
100
AcDbEntity
8
0
100
AcDbDimension
62
2
6
CONTINUOUS
2
*D0
10
189.2442498743
20
181.6526985158
11
115.5864496222
21
184.2776985158
70
160
42
145.000000
3
DIMSTYLE_1
100
AcDbAlignedDimension
13
44.2442498743
23
228.3057307663
14
189.2442498743
24
218.0710651138
100
AcDbRotatedDimension
0
DIMENSION
5
286
100
AcDbEntity
8
0
100
AcDbDimension
62
2
6
CONTINUOUS
2
*D1
10
205.6646535436
20
235.8210651138
11
203.0396535436
21
247.9962305030
70
160
42
10.500000
1
%%c<>
3
DIMSTYLE_2
100
AcDbAlignedDimension
13
175.7442498743
23
225.3210651138
14
175.7442498743
24
235.8210651138
50
90.000000
100
AcDbRotatedDimension
0
DIMENSION
5
287
100
AcDbEntity
8
0
100
AcDbDimension
62
2
6
CONTINUOUS
2
*D2
10
59.5925191544
20
248.0710651138
11
56.9675191544
21
255.7385574778
70
160
42
3.000000
3
DIMSTYLE_3
100
AcDbAlignedDimension
13
49.7442498743
23
245.0710651138
14
49.7442498743
24
248.0710651138
50
90.000000
100
AcDbRotatedDimension
0
DIMENSION
5
288
100
AcDbEntity
8
0
100
AcDbDimension
62
2
6
CONTINUOUS
2
*D3
10
53.9942498743
20
129.7754129815
11
78.4170215446
21
132.4004129815
70
160
42
10.500000
1
%%c<>
3
DIMSTYLE_2
100
AcDbAlignedDimension
13
64.4942498743
23
95.8367401118
14
53.9942498743
24
95.8367401118
50
180.000000
100
AcDbRotatedDimension
0
DIMENSION
5
289
100
AcDbEntity
8
0
100
AcDbDimension
62
2
6
CONTINUOUS
2
*D4
10
123.9942498743
20
130.1861360977
11
113.8129665272
21
132.8111360977
70
160
42
10.500000
1
%%c<>
3
DIMSTYLE_2
100
AcDbAlignedDimension
13
134.4942498743
23
95.8367401118
14
123.9942498743
24
95.8367401118
50
180.000000
100
AcDbRotatedDimension
0
DIMENSION
5
28A
100
AcDbEntity
8
0
100
AcDbDimension
62
2
6
CONTINUOUS
2
*D5
10
32.8298738404
20
119.3367401118
11
30.2048738404
21
95.1472439036
70
160
42
48.000000
3
DIMSTYLE_4
100
AcDbAlignedDimension
13
48.7442498743
23
71.3367401118
14
48.7442498743
24
119.3367401118
50
90.000000
100
AcDbRotatedDimension
0
DIMENSION
5
28B
100
AcDbEntity
8
0
100
AcDbDimension
62
2
6
CONTINUOUS
2
*D6
10
337.7009602640
20
185.3375215201
11
314.0100500284
21
187.9625215201
70
160
42
48.000000
3
DIMSTYLE_4
100
AcDbAlignedDimension
13
289.7009602640
23
217.5710651138
14
337.7009602640
24
217.5710651138
100
AcDbRotatedDimension
0
DIMENSION
5
28C
100
AcDbEntity
8
0
100
AcDbDimension
62
2
6
CONTINUOUS
2
*D7
10
356.2308198630
20
261.6532548332
11
353.6058198630
21
229.5162428138
70
160
42
62.164379
3
DIMSTYLE_5
100
AcDbAlignedDimension
13
338.2009602640
23
199.4888753943
14
338.2009602640
24
261.6532548332
50
90.000000
100
AcDbRotatedDimension
0
DIMENSION
5
28D
100
AcDbEntity
8
0
100
AcDbDimension
62
2
6
CONTINUOUS
2
*D8
10
154.2442498743
20
59.0529892848
11
173.0114724925
21
61.6779892848
70
160
42
35.000000
3
DIMSTYLE_4
100
AcDbAlignedDimension
13
189.2442498743
23
77.3367401118
14
154.2442498743
24
84.2867401118
50
180.000000
100
AcDbRotatedDimension
0
DIMENSION
5
28E
100
AcDbEntity
8
0
100
AcDbDimension
62
2
6
CONTINUOUS
2
*D9
10
94.2442498743
20
58.7961266139
11
125.7487410549
21
61.4211266139
70
160
42
60.000000
3
DIMSTYLE_4
100
AcDbAlignedDimension
13
154.2442498743
23
84.2867401118
14
94.2442498743
24
71.9934707458
50
180.000000
100
AcDbRotatedDimension
0
DIMENSION
5
28F
100
AcDbEntity
8
0
100
AcDbDimension
62
2
6
CONTINUOUS
2
*D10
10
212.0545984628
20
73.8367401118
11
209.4295984628
21
94.2431751922
70
160
42
43.000000
3
DIMSTYLE_4
100
AcDbAlignedDimension
13
180.7442498743
23
116.8367401118
14
180.7442498743
24
73.8367401118
50
270.000000
100
AcDbRotatedDimension
0
LINE
5
290
100
AcDbEntity
8
0
100
AcDbLine
62
7
6
CONTINUOUS
10
337.7009602640
20
199.4888753943
11
289.7009602640
21
199.4888753943
0
LINE
5
291
100
AcDbEntity
8
0
100
AcDbLine
62
7
6
CONTINUOUS
10
337.7009602640
20
200.6604482696
11
289.7009602640
21
200.6604482696
0
LINE
5
292
100
AcDbEntity
8
0
100
AcDbLine
62
7
6
CONTINUOUS
10
289.7009602640
20
199.4897811238
11
289.7009602640
21
229.0710651138
0
LINE
5
293
100
AcDbEntity
8
0
100
AcDbLine
62
7
6
CONTINUOUS
10
289.7009602640
20
232.0710651138
11
289.7009602640
21
261.6523491038
0
LINE
5
294
100
AcDbEntity
8
0
100
AcDbLine
62
7
6
CONTINUOUS
10
292.2009602640
20
229.0710651138
11
292.2009602640
21
232.0710651138
0
LINE
5
295
100
AcDbEntity
8
0
100
AcDbLine
62
7
6
CONTINUOUS
10
295.2009602640
20
229.0710651138
11
295.2009602640
21
232.0710651138
0
LINE
5
296
100
AcDbEntity
8
0
100
AcDbLine
62
7
6
CONTINUOUS
10
337.7009602640
20
211.8994922385
11
289.7009602640
21
211.8994922385
0
LINE
5
297
100
AcDbEntity
8
0
100
AcDbLine
62
7
6
CONTINUOUS
10
296.2009602640
20
229.0710651138
11
296.2009602640
21
232.0710651138
0
LINE
5
298
100
AcDbEntity
8
0
100
AcDbLine
62
7
6
CONTINUOUS
10
337.7009602640
20
213.0710651138
11
289.7009602640
21
213.0710651138
0
LINE
5
299
100
AcDbEntity
8
0
100
AcDbLine
62
7
6
CONTINUOUS
10
337.7009602640
20
218.0710651138
11
289.7009602640
21
218.0710651138
0
LINE
5
29A
100
AcDbEntity
8
0
100
AcDbLine
62
7
6
CONTINUOUS
10
309.2009602640
20
229.0710651138
11
309.2009602640
21
232.0710651138
0
LINE
5
29B
100
AcDbEntity
8
DEFAULT_1
100
AcDbLine
62
2
6
CENTER
10
313.7009602640
20
264.6668513763
11
313.7009602640
21
196.4752788513
0
LINE
5
29C
100
AcDbEntity
8
CURVE
100
AcDbLine
62
40
6
CONTINUOUS
10
313.7009602640
20
232.0710651138
11
313.7009602640
21
229.0710651138
0
LINE
5
29D
100
AcDbEntity
8
0
100
AcDbLine
62
7
6
CONTINUOUS
10
337.7009602640
20
229.0710651138
11
289.7009602640
21
229.0710651138
0
LINE
5
29E
100
AcDbEntity
8
DEFAULT_1
100
AcDbLine
62
2
6
CENTER
10
289.2009602640
20
230.5710651138
11
338.2009602640
21
230.5710651138
0
LINE
5
29F
100
AcDbEntity
8
0
100
AcDbLine
62
7
6
CONTINUOUS
10
289.7009602640
20
232.0710651138
11
337.7009602640
21
232.0710651138
0
LINE
5
2A0
100
AcDbEntity
8
0
100
AcDbLine
62
7
6
CONTINUOUS
10
318.2009602640
20
229.0710651138
11
318.2009602640
21
232.0710651138
0
LINE
5
2A1
100
AcDbEntity
8
0
100
AcDbLine
62
7
6
CONTINUOUS
10
337.7009602640
20
243.0710651138
11
289.7009602640
21
243.0710651138
0
LINE
5
2A2
100
AcDbEntity
8
0
100
AcDbLine
62
7
6
CONTINUOUS
10
331.2009602640
20
232.0710651138
11
331.2009602640
21
229.0710651138
0
LINE
5
2A3
100
AcDbEntity
8
0
100
AcDbLine
62
7
6
CONTINUOUS
10
332.2009602640
20
229.0710651138
11
332.2009602640
21
232.0710651138
0
LINE
5
2A4
100
AcDbEntity
8
0
100
AcDbLine
62
7
6
CONTINUOUS
10
337.7009602640
20
248.0710651138
11
289.7009602640
21
248.0710651138
0
LINE
5
2A5
100
AcDbEntity
8
0
100
AcDbLine
62
7
6
CONTINUOUS
10
337.7009602640
20
249.2426379890
11
289.7009602640
21
249.2426379890
0
LINE
5
2A6
100
AcDbEntity
8
0
100
AcDbLine
62
7
6
CONTINUOUS
10
335.2009602640
20
229.0710651138
11
335.2009602640
21
232.0710651138
0
LINE
5
2A7
100
AcDbEntity
8
0
100
AcDbLine
62
7
6
CONTINUOUS
10
337.7009602640
20
199.4897811238
11
337.7009602640
21
229.0710651138
0
LINE
5
2A8
100
AcDbEntity
8
0
100
AcDbLine
62
7
6
CONTINUOUS
10
337.7009602640
20
232.0710651138
11
337.7009602640
21
261.6523491038
0
LINE
5
2A9
100
AcDbEntity
8
0
100
AcDbLine
62
7
6
CONTINUOUS
10
337.7009602640
20
260.4816819580
11
289.7009602640
21
260.4816819580
0
LINE
5
2AA
100
AcDbEntity
8
0
100
AcDbLine
62
7
6
CONTINUOUS
10
337.7009602640
20
261.6532548332
11
289.7009602640
21
261.6532548332
0
LINE
5
2AB
100
AcDbEntity
8
0
100
AcDbLine
62
7
6
CONTINUOUS
10
44.2442498743
20
218.0710651138
11
44.2442498743
21
229.0710651138
0
LINE
5
2AC
100
AcDbEntity
8
0
100
AcDbLine
62
7
6
CONTINUOUS
10
44.2442498743
20
232.0710651138
11
44.2442498743
21
243.0710651138
0
LINE
5
2AD
100
AcDbEntity
8
0
100
AcDbLine
62
7
6
CONTINUOUS
10
47.2442498743
20
243.0710651138
11
47.2442498743
21
232.0710651138
0
LINE
5
2AE
100
AcDbEntity
8
0
100
AcDbLine
62
7
6
CONTINUOUS
10
47.2442498743
20
229.0710651138
11
47.2442498743
21
218.0710651138
0
LINE
5
2AF
100
AcDbEntity
8
0
100
AcDbLine
62
7
6
CONTINUOUS
10
80.1767787806
20
249.2426379890
11
91.4158227495
21
260.4816819580
0
LINE
5
2B0
100
AcDbEntity
8
0
100
AcDbLine
62
7
6
CONTINUOUS
10
91.4158227495
20
200.6604482696
11
80.1767787806
21
211.8994922385
0
LINE
5
2B1
100
AcDbEntity
8
0
100
AcDbLine
62
7
6
CONTINUOUS
10
93.5371430931
20
258.3603616144
11
82.2980991242
21
247.1213176455
0
LINE
5
2B2
100
AcDbEntity
8
CURVE
100
AcDbLine
62
40
6
CONTINUOUS
10
65.9599786268
20
230.5710651138
11
94.0108891914
21
258.6219756783
0
LINE
5
2B3
100
AcDbEntity
8
0
100
AcDbLine
62
7
6
CONTINUOUS
10
82.2980991242
20
214.0208125821
11
93.5371430931
21
202.7817686132
0
LINE
5
2B4
100
AcDbEntity
8
CURVE
100
AcDbLine
62
40
6
CONTINUOUS
10
94.0108891914
20
202.5201545492
11
65.9599786268
21
230.5710651138
0
LINE
5
2B5
100
AcDbEntity
8
DEFAULT_1
100
AcDbLine
62
2
6
CENTER
10
94.2442498743
20
264.6668513763
11
94.2442498743
21
196.4752788513
0
LINE
5
2B6
100
AcDbEntity
8
0
100
AcDbLine
62
7
6
CONTINUOUS
10
184.2442498743
20
213.0710651138
11
111.1401480927
21
213.0710651138
0
LINE
5
2B7
100
AcDbEntity
8
0
100
AcDbLine
62
7
6
CONTINUOUS
10
77.3483516558
20
213.0710651138
11
49.2442498743
21
213.0710651138
0
LINE
5
2B8
100
AcDbEntity
8
0
100
AcDbLine
62
7
6
CONTINUOUS
10
49.2442498743
20
216.0710651138
11
77.3483516558
21
216.0710651138
0
LINE
5
2B9
100
AcDbEntity
8
0
100
AcDbLine
62
7
6
CONTINUOUS
10
111.1401480927
20
216.0710651138
11
163.2442498743
21
216.0710651138
0
LINE
5
2BA
100
AcDbEntity
8
0
100
AcDbLine
62
7
6
CONTINUOUS
10
184.8191651730
20
216.0710651138
11
186.2442498743
21
216.0710651138
0
LINE
5
2BB
100
AcDbEntity
8
0
100
AcDbLine
62
7
6
CONTINUOUS
10
189.2442498743
20
218.5710651138
11
185.2442498743
21
218.5710651138
0
LINE
5
2BC
100
AcDbEntity
8
0
100
AcDbLine
62
7
6
CONTINUOUS
10
44.2442498743
20
229.0710651138
11
47.2442498743
21
229.0710651138
0
LINE
5
2BD
100
AcDbEntity
8
DEFAULT_1
100
AcDbLine
62
2
6
CENTER
10
175.2442498743
20
230.5710651138
11
42.2268455547
21
230.5710651138
0
LINE
5
2BE
100
AcDbEntity
8
DEFAULT_1
100
AcDbLine
62
2
6
CENTER
10
175.2442498743
20
230.5710651138
11
191.2167121881
21
230.5710651138
0
LINE
5
2BF
100
AcDbEntity
8
CURVE
100
AcDbLine
62
40
6
CONTINUOUS
10
122.5285211217
20
230.5710651138
11
94.4776105572
21
202.5201545492
0
LINE
5
2C0
100
AcDbEntity
8
0
100
AcDbLine
62
7
6
CONTINUOUS
10
94.9513566555
20
202.7817686132
11
106.1904006244
21
214.0208125821
0
LINE
5
2C1
100
AcDbEntity
8
0
100
AcDbLine
62
7
6
CONTINUOUS
10
44.2442498743
20
232.0710651138
11
47.2442498743
21
232.0710651138
0
LINE
5
2C2
100
AcDbEntity
8
CURVE
100
AcDbLine
62
40
6
CONTINUOUS
10
94.4776105572
20
258.6219756783
11
122.5285211217
21
230.5710651138
0
LINE
5
2C3
100
AcDbEntity
8
0
100
AcDbLine
62
7
6
CONTINUOUS
10
106.1904006244
20
247.1213176455
11
94.9513566555
21
258.3603616144
0
LINE
5
2C4
100
AcDbEntity
8
0
100
AcDbLine
62
7
6
CONTINUOUS
10
108.3117209680
20
211.8994922385
11
97.0726769990
21
200.6604482696
0
LINE
5
2C5
100
AcDbEntity
8
0
100
AcDbLine
62
7
6
CONTINUOUS
10
97.0726769990
20
260.4816819580
11
108.3117209680
21
249.2426379890
0
LINE
5
2C6
100
AcDbEntity
8
0
100
AcDbLine
62
7
6
CONTINUOUS
10
189.2442498743
20
242.5710651138
11
185.2442498743
21
242.5710651138
0
LINE
5
2C7
100
AcDbEntity
8
0
100
AcDbLine
62
7
6
CONTINUOUS
10
186.2442498743
20
245.0710651138
11
184.8191651725
21
245.0710651138
0
LINE
5
2C8
100
AcDbEntity
8
0
100
AcDbLine
62
7
6
CONTINUOUS
10
163.2442498743
20
245.0710651138
11
111.1401480927
21
245.0710651138
0
LINE
5
2C9
100
AcDbEntity
8
0
100
AcDbLine
62
7
6
CONTINUOUS
10
77.3483516558
20
245.0710651138
11
49.2442498743
21
245.0710651138
0
LINE
5
2CA
100
AcDbEntity
8
0
100
AcDbLine
62
7
6
CONTINUOUS
10
49.2442498743
20
248.0710651138
11
77.3483516558
21
248.0710651138
0
LINE
5
2CB
100
AcDbEntity
8
0
100
AcDbLine
62
7
6
CONTINUOUS
10
111.1401480927
20
248.0710651138
11
184.2442498743
21
248.0710651138
0
LINE
5
2CC
100
AcDbEntity
8
0
100
AcDbLine
62
7
6
CONTINUOUS
10
163.2442498743
20
213.0710651138
11
163.2442498743
21
248.0710651138
0
LINE
5
2CD
100
AcDbEntity
8
DEFAULT_1
100
AcDbLine
62
2
6
CENTER
10
175.2442498743
20
230.5710651138
11
175.2442498743
21
222.3210651138
0
LINE
5
2CE
100
AcDbEntity
8
DEFAULT_1
100
AcDbLine
62
2
6
CENTER
10
175.2442498743
20
230.5710651138
11
175.2442498743
21
238.8210651138
0
LINE
5
2CF
100
AcDbEntity
8
0
100
AcDbLine
62
7
6
CONTINUOUS
10
185.2442498743
20
243.0710651138
11
185.2442498743
21
218.0710651138
0
LINE
5
2D0
100
AcDbEntity
8
0
100
AcDbLine
62
7
6
CONTINUOUS
10
186.2442498743
20
218.5710651138
11
186.2442498743
21
216.0710651138
0
LINE
5
2D1
100
AcDbEntity
8
0
100
AcDbLine
62
7
6
CONTINUOUS
10
186.2442498743
20
242.5710651138
11
186.2442498743
21
245.0710651138
0
LINE
5
2D2
100
AcDbEntity
8
0
100
AcDbLine
62
7
6
CONTINUOUS
10
189.2442498743
20
243.0710651138
11
189.2442498743
21
218.0710651138
0
LINE
5
2D3
100
AcDbEntity
8
0
100
AcDbLine
62
7
6
CONTINUOUS
10
44.2442498743
20
71.3367401118
11
44.2442498743
21
119.3367401118
0
LINE
5
2D4
100
AcDbEntity
8
0
100
AcDbLine
62
7
6
CONTINUOUS
10
49.2442498743
20
71.3367401118
11
49.2442498743
21
119.3367401118
0
LINE
5
2D5
100
AcDbEntity
8
DEFAULT_1
100
AcDbLine
62
2
6
CENTER
10
59.2442498743
20
95.3367401118
11
59.2442498743
21
87.0867401118
0
LINE
5
2D6
100
AcDbEntity
8
DEFAULT_1
100
AcDbLine
62
2
6
CENTER
10
59.2442498743
20
95.3367401118
11
59.2442498743
21
103.5867401118
0
LINE
5
2D7
100
AcDbEntity
8
0
100
AcDbLine
62
7
6
CONTINUOUS
10
77.3483516558
20
71.3367401118
11
77.3483516558
21
119.3367401118
0
LINE
5
2D8
100
AcDbEntity
8
0
100
AcDbLine
62
7
6
CONTINUOUS
10
80.1767787806
20
71.3367401118
11
80.1767787806
21
119.3367401118
0
LINE
5
2D9
100
AcDbEntity
8
0
100
AcDbLine
62
7
6
CONTINUOUS
10
91.4158227495
20
71.3367401118
11
91.4158227495
21
119.3367401118
0
LINE
5
2DA
100
AcDbEntity
8
DEFAULT_1
100
AcDbLine
62
2
6
CENTER
10
94.2442498743
20
95.3367401118
11
94.2442498743
21
72.4934707458
0
LINE
5
2DB
100
AcDbEntity
8
DEFAULT_1
100
AcDbLine
62
2
6
CENTER
10
94.2442498743
20
95.3367401118
11
94.2442498743
21
119.2530412753
0
LINE
5
2DC
100
AcDbEntity
8
0
100
AcDbLine
62
7
6
CONTINUOUS
10
44.2442498743
20
71.3367401118
11
163.2442498743
21
71.3367401118
0
LINE
5
2DD
100
AcDbEntity
8
0
100
AcDbLine
62
7
6
CONTINUOUS
10
163.2442498743
20
73.8367401118
11
185.2442498743
21
73.8367401118
0
LINE
5
2DE
100
AcDbEntity
8
0
100
AcDbLine
62
7
6
CONTINUOUS
10
97.0726769990
20
71.3367401118
11
97.0726769990
21
119.3367401118
0
LINE
5
2DF
100
AcDbEntity
8
0
100
AcDbLine
62
7
6
CONTINUOUS
10
163.2442498743
20
76.8367401118
11
185.2442498743
21
76.8367401118
0
LINE
5
2E0
100
AcDbEntity
8
0
100
AcDbLine
62
7
6
CONTINUOUS
10
163.2442498743
20
77.8367401118
11
189.2442498743
21
77.8367401118
0
LINE
5
2E1
100
AcDbEntity
8
0
100
AcDbLine
62
7
6
CONTINUOUS
10
108.3117209680
20
71.3367401118
11
108.3117209680
21
119.3367401118
0
LINE
5
2E2
100
AcDbEntity
8
0
100
AcDbLine
62
7
6
CONTINUOUS
10
111.1401480927
20
71.3367401118
11
111.1401480927
21
119.3367401118
0
LINE
5
2E3
100
AcDbEntity
8
0
100
AcDbLine
62
7
6
CONTINUOUS
10
148.1818658548
20
90.8367401118
11
141.2442498743
21
90.8367401118
0
LINE
5
2E4
100
AcDbEntity
8
0
100
AcDbLine
62
7
6
CONTINUOUS
10
160.3066338938
20
90.8367401118
11
189.2442498743
21
90.8367401118
0
LINE
5
2E5
100
AcDbEntity
8
DEFAULT_1
100
AcDbLine
62
2
6
CENTER
10
154.2442498743
20
95.3367401118
11
143.6942498743
21
95.3367401118
0
LINE
5
2E6
100
AcDbEntity
8
DEFAULT_1
100
AcDbLine
62
2
6
CENTER
10
129.2442498743
20
95.3367401118
11
120.9942498743
21
95.3367401118
0
LINE
5
2E7
100
AcDbEntity
8
DEFAULT_1
100
AcDbLine
62
2
6
CENTER
10
94.2442498743
20
95.3367401118
11
57.0751381315
21
95.3367401118
0
LINE
5
2E8
100
AcDbEntity
8
DEFAULT_1
100
AcDbLine
62
2
6
CENTER
10
57.0751381315
20
95.3367401118
11
39.7805024562
21
95.3367401118
0
LINE
5
2E9
100
AcDbEntity
8
DEFAULT_1
100
AcDbLine
62
2
6
CENTER
10
94.2442498743
20
95.3367401118
11
120.9942498743
21
95.3367401118
0
LINE
5
2EA
100
AcDbEntity
8
DEFAULT_1
100
AcDbLine
62
2
6
CENTER
10
154.2442498743
20
95.3367401118
11
191.9092421929
21
95.3367401118
0
LINE
5
2EB
100
AcDbEntity
8
DEFAULT_1
100
AcDbLine
62
2
6
CENTER
10
129.2442498743
20
95.3367401118
11
143.6942498743
21
95.3367401118
0
LINE
5
2EC
100
AcDbEntity
8
0
100
AcDbLine
62
7
6
CONTINUOUS
10
189.2442498743
20
99.8367401118
11
160.3066338938
21
99.8367401118
0
LINE
5
2ED
100
AcDbEntity
8
0
100
AcDbLine
62
7
6
CONTINUOUS
10
148.1818658548
20
99.8367401118
11
141.2442498743
21
99.8367401118
0
LINE
5
2EE
100
AcDbEntity
8
DEFAULT_1
100
AcDbLine
62
2
6
CENTER
10
129.2442498743
20
95.3367401118
11
129.2442498743
21
87.0867401118
0
LINE
5
2EF
100
AcDbEntity
8
DEFAULT_1
100
AcDbLine
62
2
6
CENTER
10
129.2442498743
20
95.3367401118
11
129.2442498743
21
103.5867401118
0
LINE
5
2F0
100
AcDbEntity
8
0
100
AcDbLine
62
7
6
CONTINUOUS
10
163.2442498743
20
112.8367401118
11
189.2442498743
21
112.8367401118
0
LINE
5
2F1
100
AcDbEntity
8
0
100
AcDbLine
62
7
6
CONTINUOUS
10
163.2442498743
20
113.8367401118
11
185.2442498743
21
113.8367401118
0
LINE
5
2F2
100
AcDbEntity
8
0
100
AcDbLine
62
7
6
CONTINUOUS
10
141.2442498743
20
99.8367401118
11
141.2442498743
21
90.8367401118
0
LINE
5
2F3
100
AcDbEntity
8
0
100
AcDbLine
62
7
6
CONTINUOUS
10
163.2442498743
20
116.8367401118
11
185.2442498743
21
116.8367401118
0
LINE
5
2F4
100
AcDbEntity
8
0
100
AcDbLine
62
7
6
CONTINUOUS
10
44.2442498743
20
119.3367401118
11
163.2442498743
21
119.3367401118
0
LINE
5
2F5
100
AcDbEntity
8
DEFAULT_1
100
AcDbLine
62
2
6
CENTER
10
154.2442498743
20
95.3367401118
11
154.2442498743
21
84.7867401118
0
LINE
5
2F6
100
AcDbEntity
8
DEFAULT_1
100
AcDbLine
62
2
6
CENTER
10
154.2442498743
20
95.3367401118
11
154.2442498743
21
105.8867401118
0
LINE
5
2F7
100
AcDbEntity
8
0
100
AcDbLine
62
7
6
CONTINUOUS
10
163.2442498743
20
77.8367401118
11
163.2442498743
21
76.8367401118
0
LINE
5
2F8
100
AcDbEntity
8
0
100
AcDbLine
62
7
6
CONTINUOUS
10
163.2442498743
20
73.8367401118
11
163.2442498743
21
71.3367401118
0
LINE
5
2F9
100
AcDbEntity
8
0
100
AcDbLine
62
7
6
CONTINUOUS
10
163.2442498743
20
112.8367401118
11
163.2442498743
21
113.8367401118
0
LINE
5
2FA
100
AcDbEntity
8
0
100
AcDbLine
62
7
6
CONTINUOUS
10
163.2442498743
20
116.8367401118
11
163.2442498743
21
119.3367401118
0
LINE
5
2FB
100
AcDbEntity
8
0
100
AcDbLine
62
7
6
CONTINUOUS
10
180.2442498743
20
73.8367401118
11
180.2442498743
21
76.8367401118
0
LINE
5
2FC
100
AcDbEntity
8
0
100
AcDbLine
62
7
6
CONTINUOUS
10
180.2442498743
20
113.8367401118
11
180.2442498743
21
116.8367401118
0
LINE
5
2FD
100
AcDbEntity
8
0
100
AcDbLine
62
7
6
CONTINUOUS
10
184.2442498743
20
112.8367401118
11
184.2442498743
21
99.8367401118
0
LINE
5
2FE
100
AcDbEntity
8
0
100
AcDbLine
62
7
6
CONTINUOUS
10
184.2442498743
20
90.8367401118
11
184.2442498743
21
77.8367401118
0
LINE
5
2FF
100
AcDbEntity
8
0
100
AcDbLine
62
7
6
CONTINUOUS
10
185.2442498743
20
116.8367401118
11
185.2442498743
21
113.8367401118
0
LINE
5
300
100
AcDbEntity
8
0
100
AcDbLine
62
7
6
CONTINUOUS
10
185.2442498743
20
73.8367401118
11
185.2442498743
21
76.8367401118
0
LINE
5
301
100
AcDbEntity
8
0
100
AcDbLine
62
7
6
CONTINUOUS
10
189.2442498743
20
112.8367401118
11
189.2442498743
21
99.8367401118
0
LINE
5
302
100
AcDbEntity
8
0
100
AcDbLine
62
7
6
CONTINUOUS
10
189.2442498743
20
90.8367401118
11
189.2442498743
21
77.8367401118
0
ARC
5
303
100
AcDbEntity
8
0
100
AcDbCircle
62
7
6
CONTINUOUS
10
49.2442498743
20
218.0710651138
40
5.0000000000
100
AcDbArc
50
180.0000000000
51
270.0000000000
0
ARC
5
304
100
AcDbEntity
8
0
100
AcDbCircle
62
7
6
CONTINUOUS
10
77.3483516558
20
209.0710651138
40
4.0000000000
100
AcDbArc
50
45.0000000000
51
90.0000000000
0
ARC
5
305
100
AcDbEntity
8
0
100
AcDbCircle
62
7
6
CONTINUOUS
10
94.2442498743
20
203.4888753943
40
4.0000000000
100
AcDbArc
50
225.0000000000
51
315.0000000000
0
ARC
5
306
100
AcDbEntity
8
0
100
AcDbCircle
62
7
6
CONTINUOUS
10
111.1401480927
20
209.0710651138
40
4.0000000000
100
AcDbArc
50
90.0000000000
51
135.0000000000
0
ARC
5
307
100
AcDbEntity
8
0
100
AcDbCircle
62
7
6
CONTINUOUS
10
111.1401480927
20
209.0710651138
40
7.0000000000
100
AcDbArc
50
90.0000000000
51
135.0000000000
0
ARC
5
308
100
AcDbEntity
8
0
100
AcDbCircle
62
7
6
CONTINUOUS
10
94.2442498743
20
203.4888753943
40
1.0000000000
100
AcDbArc
50
225.0000000000
51
315.0000000000
0
ARC
5
309
100
AcDbEntity
8
0
100
AcDbCircle
62
7
6
CONTINUOUS
10
77.3483516558
20
209.0710651138
40
7.0000000000
100
AcDbArc
50
45.0000000000
51
90.0000000000
0
ARC
5
30A
100
AcDbEntity
8
0
100
AcDbCircle
62
7
6
CONTINUOUS
10
49.2442498743
20
218.0710651138
40
2.0000000000
100
AcDbArc
50
180.0000000000
51
270.0000000000
0
ARC
5
30B
100
AcDbEntity
8
0
100
AcDbCircle
62
7
6
CONTINUOUS
10
49.2442498743
20
243.0710651138
40
2.0000000000
100
AcDbArc
50
90.0000000000
51
180.0000000000
0
ARC
5
30C
100
AcDbEntity
8
0
100
AcDbCircle
62
7
6
CONTINUOUS
10
77.3483516558
20
252.0710651138
40
7.0000000000
100
AcDbArc
50
270.0000000000
51
315.0000000000
0
ARC
5
30D
100
AcDbEntity
8
0
100
AcDbCircle
62
7
6
CONTINUOUS
10
94.2442498743
20
257.6532548332
40
1.0000000000
100
AcDbArc
50
45.0000000000
51
135.0000000000
0
ARC
5
30E
100
AcDbEntity
8
0
100
AcDbCircle
62
7
6
CONTINUOUS
10
111.1401480927
20
252.0710651138
40
7.0000000000
100
AcDbArc
50
225.0000000000
51
270.0000000000
0
ARC
5
30F
100
AcDbEntity
8
0
100
AcDbCircle
62
7
6
CONTINUOUS
10
111.1401480927
20
252.0710651138
40
4.0000000000
100
AcDbArc
50
225.0000000000
51
270.0000000000
0
ARC
5
310
100
AcDbEntity
8
0
100
AcDbCircle
62
7
6
CONTINUOUS
10
94.2442498743
20
257.6532548332
40
4.0000000000
100
AcDbArc
50
45.0000000000
51
135.0000000000
0
ARC
5
311
100
AcDbEntity
8
0
100
AcDbCircle
62
7
6
CONTINUOUS
10
77.3483516558
20
252.0710651138
40
4.0000000000
100
AcDbArc
50
270.0000000000
51
315.0000000000
0
ARC
5
312
100
AcDbEntity
8
0
100
AcDbCircle
62
7
6
CONTINUOUS
10
49.2442498743
20
243.0710651138
40
5.0000000000
100
AcDbArc
50
90.0000000000
51
180.0000000000
0
ARC
5
313
100
AcDbEntity
8
0
100
AcDbCircle
62
7
6
CONTINUOUS
10
180.2442498743
20
218.0710651138
40
5.0000000000
100
AcDbArc
50
270.0000018276
51
360.0000000000
0
ARC
5
314
100
AcDbEntity
8
0
100
AcDbCircle
62
7
6
CONTINUOUS
10
180.2442498743
20
243.0710651138
40
5.0000000000
100
AcDbArc
50
0.0000000000
51
90.0000000000
0
CIRCLE
5
315
100
AcDbEntity
8
0
100
AcDbCircle
62
7
6
CONTINUOUS
10
175.2442498743
20
230.5710651138
40
5.2500000000
0
ARC
5
316
100
AcDbEntity
8
0
100
AcDbCircle
62
7
6
CONTINUOUS
10
184.2442498743
20
218.0710651138
40
5.0000000000
100
AcDbArc
50
270.0000000000
51
360.0000000000
0
ARC
5
317
100
AcDbEntity
8
0
100
AcDbCircle
62
7
6
CONTINUOUS
10
184.2442498743
20
243.0710651138
40
5.0000000000
100
AcDbArc
50
0.0000000000
51
90.0000000000
0
CIRCLE
5
318
100
AcDbEntity
8
0
100
AcDbCircle
62
7
6
CONTINUOUS
10
59.2442498743
20
95.3367401118
40
5.2500000000
0
CIRCLE
5
319
100
AcDbEntity
8
0
100
AcDbCircle
62
7
6
CONTINUOUS
10
129.2442498743
20
95.3367401118
40
5.2500000000
0
ARC
5
31A
100
AcDbEntity
8
0
100
AcDbCircle
62
7
6
CONTINUOUS
10
154.2442498743
20
95.3367401118
40
7.5500000000
100
AcDbArc
50
36.5858428907
51
143.4141571093
0
ARC
5
31B
100
AcDbEntity
8
0
100
AcDbCircle
62
7
6
CONTINUOUS
10
154.2442498743
20
95.3367401118
40
7.5500000000
100
AcDbArc
50
216.5858428907
51
323.4141571093
0
ARC
5
31C
100
AcDbEntity
8
0
100
AcDbCircle
62
7
6
CONTINUOUS
10
185.2442498743
20
77.8367401118
40
1.0000000000
100
AcDbArc
50
270.0000000000
51
360.0000000000
0
ARC
5
31D
100
AcDbEntity
8
0
100
AcDbCircle
62
7
6
CONTINUOUS
10
185.2442498743
20
77.8367401118
40
4.0000000000
100
AcDbArc
50
270.0000000000
51
360.0000000000
0
ARC
5
31E
100
AcDbEntity
8
0
100
AcDbCircle
62
7
6
CONTINUOUS
10
185.2442498743
20
112.8367401118
40
1.0000000000
100
AcDbArc
50
0.0000000000
51
90.0000000000
0
ARC
5
31F
100
AcDbEntity
8
0
100
AcDbCircle
62
7
6
CONTINUOUS
10
185.2442498743
20
112.8367401118
40
4.0000000000
100
AcDbArc
50
0.0000000000
51
90.0000000000
0
CIRCLE
5
320
100
AcDbEntity
8
CURVE
100
AcDbCircle
62
40
6
CONTINUOUS
10
154.2442498743
20
95.3367401118
40
12.5000000000
0
ENDSEC
0
SECTION
2
OBJECTS
0
DICTIONARY
5
C
100
AcDbDictionary
280
0
281
1
3
ACAD_GROUP
350
D
3
ACAD_MLINESTYLE
350
17
3
ACAD_LAYOUT
350
1A
3
ACAD_PLOTSETTINGS
350
19
3
ACAD_PLOTSTYLENAME
350
E
0
DICTIONARY
5
D
102
{ACAD_REACTORS
330
C
102
}
100
AcDbDictionary
280
0
281
1
0
ACDBDICTIONARYWDFLT
5
E
102
{ACAD_REACTORS
330
C
102
}
100
AcDbDictionary
281
1
3
Normal
350
F
100
AcDbDictionaryWithDefault
340
F
0
DICTIONARY
5
17
102
{ACAD_REACTORS
330
C
102
}
100
AcDbDictionary
280
0
281
1
3
Standard
350
18
0
DICTIONARY
5
19
102
{ACAD_REACTORS
330
C
102
}
100
AcDbDictionary
281
1
0
DICTIONARY
5
1A
102
{ACAD_REACTORS
330
C
102
}
100
AcDbDictionary
281
1
3
Layout1
350
1E
3
Model
350
22
0
ACDBPLACEHOLDER
5
F
102
{ACAD_REACTORS
330
E
102
}
0
MLINESTYLE
5
18
102
{ACAD_REACTORS
330
17
102
}
100
AcDbMlineStyle
2
STANDARD
70
0
3

62
256
51
90.0
52
90.0
71
2
49
0.5
62
256
6
BYLAYER
49
-0.5
62
256
6
BYLAYER
0
LAYOUT
5
1E
102
{ACAD_REACTORS
330
1A
102
}
100
AcDbPlotSettings
1

2

4

6

40
0.0
41
0.0
42
0.0
43
0.0
44
0.0
45
0.0
46
0.0
47
0.0
48
0.0
49
0.0
140
0.0
141
0.0
142
1.0
143
1.0
70
0
72
0
73
0
74
0
7

75
0
147
1.0
148
0.0
149
0.0
100
AcDbLayout
1
Layout1
70
0
71
0
10
0.0
20
0.0
11
0.0
21
0.0
12
0.0
22
0.0
32
0.0
14
0.0
24
0.0
34
0.0
15
0.0
25
0.0
35
0.0
146
0.0
13
0.0
23
0.0
33
0.0
16
0.0
26
0.0
36
0.0
17
0.0
27
0.0
37
0.0
76
0
330
1B
331
0
345
0
346
0
0
LAYOUT
5
22
102
{ACAD_REACTORS
330
1A
102
}
100
AcDbPlotSettings
1

2

4

6

40
0.0
41
0.0
42
0.0
43
0.0
44
0.0
45
0.0
46
0.0
47
0.0
48
0.0
49
0.0
140
0.0
141
0.0
142
1.0
143
1.0
70
0
72
0
73
0
74
0
7

75
0
147
1.0
148
0.0
149
0.0
100
AcDbLayout
1
Model
70
0
71
0
10
0.0
20
0.0
11
0.0
21
0.0
12
0.0
22
0.0
32
0.0
14
0.0
24
0.0
34
0.0
15
0.0
25
0.0
35
0.0
146
0.0
13
0.0
23
0.0
33
0.0
16
0.0
26
0.0
36
0.0
17
0.0
27
0.0
37
0.0
76
0
330
1F
331
0
345
0
346
0
0
ENDSEC
0
EOF
